  0
SECTION
  2
HEADER
  9
$ACADVER
  1
AC1015
  9
$ACADMAINTVER
 70
     6
  9
$DWGCODEPAGE
  3
ANSI_932
  9
$INSBASE
 10
0.0
 20
0.0
 30
0.0
  9
$EXTMIN
 10
0.0
 20
0.0
 30
0.0
  9
$EXTMAX
 10
419.9999999999999
 20
594.0000000000002
 30
0.0
  9
$LIMMIN
 10
0.0
 20
0.0
  9
$LIMMAX
 10
12.0
 20
9.0
  9
$ORTHOMODE
 70
     0
  9
$REGENMODE
 70
     1
  9
$FILLMODE
 70
     1
  9
$QTEXTMODE
 70
     0
  9
$MIRRTEXT
 70
     1
  9
$LTSCALE
 40
1.0
  9
$ATTMODE
 70
     1
  9
$TEXTSIZE
 40
0.2
  9
$TRACEWID
 40
0.05
  9
$TEXTSTYLE
  7
Standard
  9
$CLAYER
  8
0
  9
$CELTYPE
  6
ByLayer
  9
$CECOLOR
 62
   256
  9
$CELTSCALE
 40
1.0
  9
$DISPSILH
 70
     0
  9
$DIMSCALE
 40
1.0
  9
$DIMASZ
 40
0.18
  9
$DIMEXO
 40
0.0625
  9
$DIMDLI
 40
0.38
  9
$DIMRND
 40
0.0
  9
$DIMDLE
 40
0.0
  9
$DIMEXE
 40
0.18
  9
$DIMTP
 40
0.0
  9
$DIMTM
 40
0.0
  9
$DIMTXT
 40
0.18
  9
$DIMCEN
 40
0.09
  9
$DIMTSZ
 40
0.0
  9
$DIMTOL
 70
     0
  9
$DIMLIM
 70
     0
  9
$DIMTIH
 70
     1
  9
$DIMTOH
 70
     1
  9
$DIMSE1
 70
     0
  9
$DIMSE2
 70
     0
  9
$DIMTAD
 70
     0
  9
$DIMZIN
 70
     0
  9
$DIMBLK
  1

  9
$DIMASO
 70
     1
  9
$DIMSHO
 70
     1
  9
$DIMPOST
  1

  9
$DIMAPOST
  1

  9
$DIMALT
 70
     0
  9
$DIMALTD
 70
     2
  9
$DIMALTF
 40
25.4
  9
$DIMLFAC
 40
1.0
  9
$DIMTOFL
 70
     0
  9
$DIMTVP
 40
0.0
  9
$DIMTIX
 70
     0
  9
$DIMSOXD
 70
     0
  9
$DIMSAH
 70
     0
  9
$DIMBLK1
  1

  9
$DIMBLK2
  1

  9
$DIMSTYLE
  2
Standard
  9
$DIMCLRD
 70
     0
  9
$DIMCLRE
 70
     0
  9
$DIMCLRT
 70
     0
  9
$DIMTFAC
 40
1.0
  9
$DIMGAP
 40
0.09
  9
$DIMJUST
 70
     0
  9
$DIMSD1
 70
     0
  9
$DIMSD2
 70
     0
  9
$DIMTOLJ
 70
     1
  9
$DIMTZIN
 70
     0
  9
$DIMALTZ
 70
     0
  9
$DIMALTTZ
 70
     0
  9
$DIMUPT
 70
     0
  9
$DIMDEC
 70
     4
  9
$DIMTDEC
 70
     4
  9
$DIMALTU
 70
     2
  9
$DIMALTTD
 70
     2
  9
$DIMTXSTY
  7
Standard
  9
$DIMAUNIT
 70
     0
  9
$DIMADEC
 70
     0
  9
$DIMALTRND
 40
0.0
  9
$DIMAZIN
 70
     0
  9
$DIMDSEP
 70
    46
  9
$DIMATFIT
 70
     3
  9
$DIMFRAC
 70
     0
  9
$DIMLDRBLK
  1

  9
$DIMLUNIT
 70
     2
  9
$DIMLWD
 70
    -2
  9
$DIMLWE
 70
    -2
  9
$DIMTMOVE
 70
     0
  9
$LUNITS
 70
     2
  9
$LUPREC
 70
     4
  9
$SKETCHINC
 40
0.1
  9
$FILLETRAD
 40
0.5
  9
$AUNITS
 70
     0
  9
$AUPREC
 70
     0
  9
$MENU
  1
.
  9
$ELEVATION
 40
0.0
  9
$PELEVATION
 40
0.0
  9
$THICKNESS
 40
0.0
  9
$LIMCHECK
 70
     0
  9
$CHAMFERA
 40
0.5
  9
$CHAMFERB
 40
0.5
  9
$CHAMFERC
 40
1.0
  9
$CHAMFERD
 40
0.0
  9
$SKPOLY
 70
     0
  9
$TDCREATE
 40
2459838.457458831
  9
$TDUCREATE
 40
2459838.082458831
  9
$TDUPDATE
 40
2459838.457460092
  9
$TDUUPDATE
 40
2459838.082460092
  9
$TDINDWG
 40
0.0000000116
  9
$TDUSRTIMER
 40
0.0000000116
  9
$USRTIMER
 70
     1
  9
$ANGBASE
 50
0.0
  9
$ANGDIR
 70
     0
  9
$PDMODE
 70
     0
  9
$PDSIZE
 40
0.0
  9
$PLINEWID
 40
0.0
  9
$SPLFRAME
 70
     0
  9
$SPLINETYPE
 70
     6
  9
$SPLINESEGS
 70
     8
  9
$HANDSEED
  5
17B
  9
$SURFTAB1
 70
     6
  9
$SURFTAB2
 70
     6
  9
$SURFTYPE
 70
     6
  9
$SURFU
 70
     6
  9
$SURFV
 70
     6
  9
$UCSBASE
  2

  9
$UCSNAME
  2

  9
$UCSORG
 10
0.0
 20
0.0
 30
0.0
  9
$UCSXDIR
 10
1.0
 20
0.0
 30
0.0
  9
$UCSYDIR
 10
0.0
 20
1.0
 30
0.0
  9
$UCSORTHOREF
  2

  9
$UCSORTHOVIEW
 70
     0
  9
$UCSORGTOP
 10
0.0
 20
0.0
 30
0.0
  9
$UCSORGBOTTOM
 10
0.0
 20
0.0
 30
0.0
  9
$UCSORGLEFT
 10
0.0
 20
0.0
 30
0.0
  9
$UCSORGRIGHT
 10
0.0
 20
0.0
 30
0.0
  9
$UCSORGFRONT
 10
0.0
 20
0.0
 30
0.0
  9
$UCSORGBACK
 10
0.0
 20
0.0
 30
0.0
  9
$PUCSBASE
  2

  9
$PUCSNAME
  2

  9
$PUCSORG
 10
0.0
 20
0.0
 30
0.0
  9
$PUCSXDIR
 10
1.0
 20
0.0
 30
0.0
  9
$PUCSYDIR
 10
0.0
 20
1.0
 30
0.0
  9
$PUCSORTHOREF
  2

  9
$PUCSORTHOVIEW
 70
     0
  9
$PUCSORGTOP
 10
0.0
 20
0.0
 30
0.0
  9
$PUCSORGBOTTOM
 10
0.0
 20
0.0
 30
0.0
  9
$PUCSORGLEFT
 10
0.0
 20
0.0
 30
0.0
  9
$PUCSORGRIGHT
 10
0.0
 20
0.0
 30
0.0
  9
$PUCSORGFRONT
 10
0.0
 20
0.0
 30
0.0
  9
$PUCSORGBACK
 10
0.0
 20
0.0
 30
0.0
  9
$USERI1
 70
     0
  9
$USERI2
 70
     0
  9
$USERI3
 70
     0
  9
$USERI4
 70
     0
  9
$USERI5
 70
     0
  9
$USERR1
 40
18.1
  9
$USERR2
 40
0.0
  9
$USERR3
 40
0.0
  9
$USERR4
 40
0.0
  9
$USERR5
 40
0.0
  9
$WORLDVIEW
 70
     1
  9
$SHADEDGE
 70
     3
  9
$SHADEDIF
 70
    70
  9
$TILEMODE
 70
     1
  9
$MAXACTVP
 70
    64
  9
$PINSBASE
 10
0.0
 20
0.0
 30
0.0
  9
$PLIMCHECK
 70
     0
  9
$PEXTMIN
 10
1.00000000000000E+20
 20
1.00000000000000E+20
 30
1.00000000000000E+20
  9
$PEXTMAX
 10
-1.00000000000000E+20
 20
-1.00000000000000E+20
 30
-1.00000000000000E+20
  9
$PLIMMIN
 10
0.0
 20
0.0
  9
$PLIMMAX
 10
12.0
 20
9.0
  9
$UNITMODE
 70
     0
  9
$VISRETAIN
 70
     1
  9
$PLINEGEN
 70
     0
  9
$PSLTSCALE
 70
     1
  9
$TREEDEPTH
 70
  3020
  9
$CMLSTYLE
  2
Standard
  9
$CMLJUST
 70
     0
  9
$CMLSCALE
 40
1.0
  9
$PROXYGRAPHICS
 70
     1
  9
$MEASUREMENT
 70
     1
  9
$CELWEIGHT
370
    -1
  9
$ENDCAPS
280
     0
  9
$JOINSTYLE
280
     0
  9
$LWDISPLAY
290
     0
  9
$INSUNITS
 70
     4
  9
$HYPERLINKBASE
  1

  9
$STYLESHEET
  1

  9
$XEDIT
290
     1
  9
$CEPSNTYPE
380
     0
  9
$PSTYLEMODE
290
     1
  9
$FINGERPRINTGUID
  2
{EBF9C1F8-757C-40C5-8F6D-9020F54A83F6}
  9
$VERSIONGUID
  2
{FAEB1C32-E019-11D5-929B-00C0DF256EC4}
  9
$EXTNAMES
290
     1
  9
$PSVPSCALE
 40
0.0
  9
$OLESTARTUP
290
     0
  0
ENDSEC
  0
SECTION
  2
CLASSES
  0
CLASS
  1
ACDBDICTIONARYWDFLT
  2
AcDbDictionaryWithDefault
  3
ObjectDBX Classes
 90
        0
280
     0
281
     0
  0
CLASS
  1
VISUALSTYLE
  2
AcDbVisualStyle
  3
ObjectDBX Classes
 90
     4095
280
     0
281
     0
  0
CLASS
  1
MATERIAL
  2
AcDbMaterial
  3
ObjectDBX Classes
 90
     1153
280
     0
281
     0
  0
CLASS
  1
DICTIONARYVAR
  2
AcDbDictionaryVar
  3
ObjectDBX Classes
 90
        0
280
     0
281
     0
  0
CLASS
  1
ACDBPLACEHOLDER
  2
AcDbPlaceHolder
  3
ObjectDBX Classes
 90
        0
280
     0
281
     0
  0
CLASS
  1
LAYOUT
  2
AcDbLayout
  3
ObjectDBX Classes
 90
        0
280
     0
281
     0
  0
ENDSEC
  0
SECTION
  2
TABLES
  0
TABLE
  2
VPORT
  5
8
330
0
100
AcDbSymbolTable
 70
     1
  0
VPORT
  5
29
330
8
100
AcDbSymbolTableRecord
100
AcDbViewportTableRecord
  2
*Active
 70
     0
 10
0.0
 20
0.0
 11
1.0
 21
1.0
 12
209.9999999999999
 22
297.0000000000001
 13
0.0
 23
0.0
 14
0.5
 24
0.5
 15
0.5
 25
0.5
 16
0.0
 26
0.0
 36
1.0
 17
0.0
 27
0.0
 37
0.0
 40
653.4000000000003
 41
1.60267857142857
 42
50.0
 43
0.0
 44
0.0
 50
0.0
 51
0.0
 71
     0
 72
   100
 73
     1
 74
     3
 75
     0
 76
     0
 77
     0
 78
     0
281
     0
 65
     1
110
0.0
120
0.0
130
0.0
111
1.0
121
0.0
131
0.0
112
0.0
122
1.0
132
0.0
 79
     0
146
0.0
  0
ENDTAB
  0
TABLE
  2
LTYPE
  5
5
330
0
100
AcDbSymbolTable
 70
     8
  0
LTYPE
  5
14
330
5
100
AcDbSymbolTableRecord
100
AcDbLinetypeTableRecord
  2
ByBlock
 70
     0
  3

 72
    65
 73
     0
 40
0.0
  0
LTYPE
  5
15
330
5
100
AcDbSymbolTableRecord
100
AcDbLinetypeTableRecord
  2
ByLayer
 70
     0
  3

 72
    65
 73
     0
 40
0.0
  0
LTYPE
  5
16
330
5
100
AcDbSymbolTableRecord
100
AcDbLinetypeTableRecord
  2
Continuous
 70
     0
  3
Solid line
 72
    65
 73
     0
 40
0.0
  0
LTYPE
  5
3F
330
5
100
AcDbSymbolTableRecord
100
AcDbLinetypeTableRecord
  2
DASHED
 70
     0
  3
Dashed
 72
    65
 73
     2
 40
15.0
 49
7.0
 74
     0
 49
-8.0
 74
     0
  0
LTYPE
  5
40
330
5
100
AcDbSymbolTableRecord
100
AcDbLinetypeTableRecord
  2
DOTTED
 70
     0
  3
Dotted
 72
    65
 73
     2
 40
1.0
 49
0.0
 74
     0
 49
-1.0
 74
     0
  0
LTYPE
  5
41
330
5
100
AcDbSymbolTableRecord
100
AcDbLinetypeTableRecord
  2
DOT_CENTER
 70
     0
  3
Dot_Center
 72
    65
 73
     4
 40
14.0
 49
12.0
 74
     0
 49
-1.0
 74
     0
 49
0.0
 74
     0
 49
-1.0
 74
     0
  0
LTYPE
  5
42
330
5
100
AcDbSymbolTableRecord
100
AcDbLinetypeTableRecord
  2
LONG_DASHED
 70
     0
  3
Long_Dashed
 72
    65
 73
     2
 40
15.0
 49
10.0
 74
     0
 49
-5.0
 74
     0
  0
LTYPE
  5
43
330
5
100
AcDbSymbolTableRecord
100
AcDbLinetypeTableRecord
  2
DASH_CENTER
 70
     0
  3
Dash_Center
 72
    65
 73
     4
 40
14.0
 49
11.0
 74
     0
 49
-1.0
 74
     0
 49
1.0
 74
     0
 49
-1.0
 74
     0
  0
LTYPE
  5
44
330
5
100
AcDbSymbolTableRecord
100
AcDbLinetypeTableRecord
  2
PHANTOM
 70
     0
  3
Phantom
 72
    65
 73
     6
 40
13.0
 49
10.0
 74
     0
 49
-1.0
 74
     0
 49
0.0
 74
     0
 49
-1.0
 74
     0
 49
0.0
 74
     0
 49
-1.0
 74
     0
  0
LTYPE
  5
45
330
5
100
AcDbSymbolTableRecord
100
AcDbLinetypeTableRecord
  2
CENTER_DASH_DASH
 70
     0
  3
Center_Dash_Dash
 72
    65
 73
     6
 40
14.0
 49
9.0
 74
     0
 49
-1.0
 74
     0
 49
1.0
 74
     0
 49
-1.0
 74
     0
 49
1.0
 74
     0
 49
-1.0
 74
     0
  0
ENDTAB
  0
TABLE
  2
LAYER
  5
2
330
0
100
AcDbSymbolTable
 70
     3
  0
LAYER
  5
10
330
2
100
AcDbSymbolTableRecord
100
AcDbLayerTableRecord
  2
0
 70
     0
 62
     7
  6
Continuous
370
    -3
390
F
  0
LAYER
  5
46
330
2
100
AcDbSymbolTableRecord
100
AcDbLayerTableRecord
  2
1
 70
     0
 62
     7
  6
Continuous
370
    -3
390
F
  0
LAYER
  5
47
330
2
100
AcDbSymbolTableRecord
100
AcDbLayerTableRecord
  2
_U_30EC_U_30A4_U_30E4_U_30FC_1
 70
     0
 62
     7
  6
Continuous
370
    -3
390
F
  0
ENDTAB
  0
TABLE
  2
STYLE
  5
3
330
0
100
AcDbSymbolTable
 70
     3
  0
STYLE
  5
11
330
3
100
AcDbSymbolTableRecord
100
AcDbTextStyleTableRecord
  2
Standard
 70
     0
 40
0.0
 41
1.0
 50
0.0
 71
     0
 42
0.2
  3
txt
  4

  0
STYLE
  5
B6
330
3
100
AcDbSymbolTableRecord
100
AcDbTextStyleTableRecord
  2
CONVERTER_11
 70
     0
 40
0.0
 41
0.89
 50
0.0
 71
     0
 42
0.2
  3
MS Mincho.ttf
  4

1001
ACAD
1000
MS Mincho
1071
    32785
  0
STYLE
  5
121
330
3
100
AcDbSymbolTableRecord
100
AcDbTextStyleTableRecord
  2
CONVERTER_12
 70
     0
 40
0.0
 41
0.9
 50
0.0
 71
     0
 42
0.2
  3
txt.shx
  4

  0
ENDTAB
  0
TABLE
  2
VIEW
  5
6
330
0
100
AcDbSymbolTable
 70
     0
  0
ENDTAB
  0
TABLE
  2
UCS
  5
7
330
0
100
AcDbSymbolTable
 70
     0
  0
ENDTAB
  0
TABLE
  2
APPID
  5
9
330
0
100
AcDbSymbolTable
 70
     1
  0
APPID
  5
12
330
9
100
AcDbSymbolTableRecord
100
AcDbRegAppTableRecord
  2
ACAD
 70
     0
  0
ENDTAB
  0
TABLE
  2
DIMSTYLE
  5
A
330
0
100
AcDbSymbolTable
 70
     4
100
AcDbDimStyleTable
  0
DIMSTYLE
105
27
330
A
100
AcDbSymbolTableRecord
100
AcDbDimStyleTableRecord
  2
Standard
 70
     0
178
     0
340
11
  0
DIMSTYLE
105
138
102
{ACAD_REACTORS
330
139
102
}
330
A
100
AcDbSymbolTableRecord
100
AcDbDimStyleTableRecord
  2
ME10_DIM_10
 70
     0
  3
{\Fgdt;n}<>
 41
7.0
 42
0.0
 44
4.0
 73
     0
 74
     0
 77
     1
 78
     8
140
6.0
147
4.0
172
     1
173
     1
174
     1
175
     1
176
     2
177
     2
271
     2
178
     7
271
     2
340
121
  0
DIMSTYLE
105
143
102
{ACAD_REACTORS
330
144
102
}
330
A
100
AcDbSymbolTableRecord
100
AcDbDimStyleTableRecord
  2
ME10_DIM_11
 70
     0
  3
{\Fgdt;n}<>
 41
7.0
 42
0.0
 44
4.0
 73
     0
 74
     0
 77
     1
 78
     8
140
6.0
147
4.0
172
     1
173
     1
174
     1
175
     1
176
     2
177
     2
271
     2
178
     7
271
     2
340
121
  0
DIMSTYLE
105
14E
102
{ACAD_REACTORS
330
14F
102
}
330
A
100
AcDbSymbolTableRecord
100
AcDbDimStyleTableRecord
  2
ME10_DIM_12
 70
     0
 41
7.0
 42
0.0
 44
4.0
 73
     0
 74
     0
 77
     1
 78
     8
140
6.0
147
4.0
172
     1
173
     1
174
     1
175
     1
176
     2
177
     2
271
     2
178
     7
271
     2
340
121
  0
ENDTAB
  0
TABLE
  2
BLOCK_RECORD
  5
1
330
0
100
AcDbSymbolTable
 70
     7
  0
BLOCK_RECORD
  5
1F
330
1
100
AcDbSymbolTableRecord
100
AcDbBlockTableRecord
  2
*Model_Space
340
22
  0
BLOCK_RECORD
  5
1B
330
1
100
AcDbSymbolTableRecord
100
AcDbBlockTableRecord
  2
*Paper_Space
340
1E
  0
BLOCK_RECORD
  5
23
330
1
100
AcDbSymbolTableRecord
100
AcDbBlockTableRecord
  2
*Paper_Space0
340
26
  0
BLOCK_RECORD
  5
48
330
1
100
AcDbSymbolTableRecord
100
AcDbBlockTableRecord
  2
開示A4
340
0
102
{BLKREFS
331
4C
102
}
  0
BLOCK_RECORD
  5
4B
330
1
100
AcDbSymbolTableRecord
100
AcDbBlockTableRecord
  2
開示A4枠
340
0
102
{BLKREFS
331
52
102
}
  0
BLOCK_RECORD
  5
4F
330
1
100
AcDbSymbolTableRecord
100
AcDbBlockTableRecord
  2
R95-1
340
0
102
{BLKREFS
331
53
102
}
  0
BLOCK_RECORD
  5
12F
330
1
100
AcDbSymbolTableRecord
100
AcDbBlockTableRecord
  2
*D4
340
0
  0
BLOCK_RECORD
  5
13A
330
1
100
AcDbSymbolTableRecord
100
AcDbBlockTableRecord
  2
*D5
340
0
  0
BLOCK_RECORD
  5
145
330
1
100
AcDbSymbolTableRecord
100
AcDbBlockTableRecord
  2
*D6
340
0
  0
ENDTAB
  0
ENDSEC
  0
SECTION
  2
BLOCKS
  0
BLOCK
  5
20
330
1F
100
AcDbEntity
  8
0
100
AcDbBlockBegin
  2
*Model_Space
 70
     0
 10
0.0
 20
0.0
 30
0.0
  3
*Model_Space
  1

  0
ENDBLK
  5
21
330
1F
100
AcDbEntity
  8
0
100
AcDbBlockEnd
  0
BLOCK
  5
1C
330
1B
100
AcDbEntity
 67
     1
  8
0
100
AcDbBlockBegin
  2
*Paper_Space
 70
     0
 10
0.0
 20
0.0
 30
0.0
  3
*Paper_Space
  1

  0
ENDBLK
  5
1D
330
1B
100
AcDbEntity
 67
     1
  8
0
100
AcDbBlockEnd
  0
BLOCK
  5
24
330
23
100
AcDbEntity
  8
0
100
AcDbBlockBegin
  2
*Paper_Space0
 70
     0
 10
0.0
 20
0.0
 30
0.0
  3
*Paper_Space0
  1

  0
ENDBLK
  5
25
330
23
100
AcDbEntity
  8
0
100
AcDbBlockEnd
  0
BLOCK
  5
49
330
48
100
AcDbEntity
  8
0
100
AcDbBlockBegin
  2
開示A4
 70
     0
 10
0.0
 20
0.0
 30
0.0
  3
開示A4
  1

  0
POINT
  5
54
330
48
100
AcDbEntity
  8
1
 62
     4
100
AcDbPoint
 10
34.0
 20
34.0
 30
0.0
  0
POINT
  5
55
330
48
100
AcDbEntity
  8
1
 62
     4
100
AcDbPoint
 10
57.0
 20
12.25
 30
0.0
  0
POINT
  5
56
330
48
100
AcDbEntity
  8
1
 62
     4
100
AcDbPoint
 10
57.0
 20
20.75000000000009
 30
0.0
  0
POINT
  5
57
330
48
100
AcDbEntity
  8
1
 62
     4
100
AcDbPoint
 10
57.0
 20
24.75000000000009
 30
0.0
  0
POINT
  5
58
330
48
100
AcDbEntity
  8
1
 62
     4
100
AcDbPoint
 10
57.0
 20
16.25
 30
0.0
  0
POINT
  5
59
330
48
100
AcDbEntity
  8
1
 62
     4
100
AcDbPoint
 10
157.5
 20
19.00000000000009
 30
0.0
  0
POINT
  5
5A
330
48
100
AcDbEntity
  8
1
 62
     4
100
AcDbPoint
 10
47.5
 20
282.0000000000003
 30
0.0
  0
POINT
  5
5B
330
48
100
AcDbEntity
  8
1
 62
     4
100
AcDbPoint
 10
57.0
 20
22.75000000000009
 30
0.0
  0
POINT
  5
5C
330
48
100
AcDbEntity
  8
1
 62
     4
100
AcDbPoint
 10
57.0
 20
14.25
 30
0.0
  0
POINT
  5
5D
330
48
100
AcDbEntity
  8
1
 62
     4
100
AcDbPoint
 10
157.5
 20
12.5
 30
0.0
  0
POINT
  5
5E
330
48
100
AcDbEntity
  8
1
 62
     4
100
AcDbPoint
 10
163.25
 20
12.5
 30
0.0
  0
POINT
  5
5F
330
48
100
AcDbEntity
  8
1
 62
     4
100
AcDbPoint
 10
151.75
 20
12.5
 30
0.0
  0
POINT
  5
60
330
48
100
AcDbEntity
  8
1
 62
     4
100
AcDbPoint
 10
134.75
 20
12.5
 30
0.0
  0
POINT
  5
61
330
48
100
AcDbEntity
  8
1
 62
     4
100
AcDbPoint
 10
146.25
 20
12.5
 30
0.0
  0
POINT
  5
62
330
48
100
AcDbEntity
  8
1
 62
     4
100
AcDbPoint
 10
140.5
 20
12.5
 30
0.0
  0
POINT
  5
63
330
48
100
AcDbEntity
  8
1
 62
     4
100
AcDbPoint
 10
140.5
 20
19.00000000000009
 30
0.0
  0
POINT
  5
64
330
48
100
AcDbEntity
  8
1
 62
     4
100
AcDbPoint
 10
117.75
 20
12.5
 30
0.0
  0
POINT
  5
65
330
48
100
AcDbEntity
  8
1
 62
     4
100
AcDbPoint
 10
129.25
 20
12.5
 30
0.0
  0
POINT
  5
66
330
48
100
AcDbEntity
  8
1
 62
     4
100
AcDbPoint
 10
123.5
 20
12.5
 30
0.0
  0
POINT
  5
67
330
48
100
AcDbEntity
  8
1
 62
     4
100
AcDbPoint
 10
123.5
 20
19.00000000000009
 30
0.0
  0
POINT
  5
68
330
48
100
AcDbEntity
  8
1
 62
     4
100
AcDbPoint
 10
100.75
 20
12.5
 30
0.0
  0
POINT
  5
69
330
48
100
AcDbEntity
  8
1
 62
     4
100
AcDbPoint
 10
112.25
 20
12.5
 30
0.0
  0
POINT
  5
6A
330
48
100
AcDbEntity
  8
1
 62
     4
100
AcDbPoint
 10
106.5
 20
12.5
 30
0.0
  0
POINT
  5
6B
330
48
100
AcDbEntity
  8
1
 62
     4
100
AcDbPoint
 10
106.5
 20
19.00000000000009
 30
0.0
  0
POINT
  5
6C
330
48
100
AcDbEntity
  8
1
 62
     4
100
AcDbPoint
 10
85.25
 20
17.0
 30
0.0
  0
POINT
  5
6D
330
48
100
AcDbEntity
  8
1
 62
     4
100
AcDbPoint
 10
93.75
 20
17.0
 30
0.0
  0
POINT
  5
6E
330
48
100
AcDbEntity
  8
1
 62
     4
100
AcDbPoint
 10
183.0
 20
15.00000000000009
 30
0.0
  0
LINE
  5
6F
330
48
100
AcDbEntity
  8
1
  6
Continuous
 62
     2
100
AcDbLine
 10
81.0
 20
27.00000000000009
 30
0.0
 11
81.0
 21
10.0
 31
0.0
  0
LINE
  5
70
330
48
100
AcDbEntity
  8
1
  6
DOT_CENTER
 62
     2
100
AcDbLine
 10
187.0
 20
26.50000000000009
 30
0.0
 11
187.0
 21
20.50000000000009
 31
0.0
  0
LINE
  5
71
330
48
100
AcDbEntity
  8
1
  6
DOT_CENTER
 62
     2
100
AcDbLine
 10
184.0
 20
23.50000000000009
 30
0.0
 11
197.0
 21
23.50000000000009
 31
0.0
  0
LINE
  5
72
330
48
100
AcDbEntity
  8
1
  6
Continuous
 62
     7
100
AcDbLine
 10
196.0
 20
21.50000000000009
 30
0.0
 11
191.0
 21
22.29999999999998
 31
0.0
  0
LINE
  5
73
330
48
100
AcDbEntity
  8
1
  6
Continuous
 62
     7
100
AcDbLine
 10
196.0
 20
25.50000000000009
 30
0.0
 11
196.0
 21
21.50000000000009
 31
0.0
  0
LINE
  5
74
330
48
100
AcDbEntity
  8
1
  6
Continuous
 62
     7
100
AcDbLine
 10
191.0
 20
24.69999999999999
 30
0.0
 11
196.0
 21
25.50000000000009
 31
0.0
  0
LINE
  5
75
330
48
100
AcDbEntity
  8
1
  6
Continuous
 62
     7
100
AcDbLine
 10
191.0
 20
24.69999999999999
 30
0.0
 11
191.0
 21
22.29999999999998
 31
0.0
  0
LINE
  5
76
330
48
100
AcDbEntity
  8
1
  6
Continuous
 62
     2
100
AcDbLine
 10
33.0
 20
27.0
 30
0.0
 11
33.0
 21
10.0
 31
0.0
  0
LINE
  5
77
330
48
100
AcDbEntity
  8
1
  6
Continuous
 62
     2
100
AcDbLine
 10
25.0
 20
18.50000000000009
 30
0.0
 11
81.0
 21
18.50000000000009
 31
0.0
  0
LINE
  5
78
330
48
100
AcDbEntity
  8
1
  6
Continuous
 62
     7
100
AcDbLine
 10
200.0
 20
287.0000000000003
 30
0.0
 11
105.0
 21
287.0000000000003
 31
0.0
  0
LINE
  5
79
330
48
100
AcDbEntity
  8
1
  6
Continuous
 62
     7
100
AcDbLine
 10
200.0
 20
10.0
 30
0.0
 11
200.0
 21
148.5
 31
0.0
  0
LINE
  5
7A
330
48
100
AcDbEntity
  8
1
  6
Continuous
 62
     7
100
AcDbLine
 10
25.0
 20
10.0
 30
0.0
 11
105.0
 21
10.0
 31
0.0
  0
LINE
  5
7B
330
48
100
AcDbEntity
  8
1
  6
PHANTOM
 62
     4
100
AcDbLine
 10
0.0
 20
297.0000000000001
 30
0.0
 11
0.0
 21
0.0
 31
0.0
  0
LINE
  5
7C
330
48
100
AcDbEntity
  8
1
  6
PHANTOM
 62
     4
100
AcDbLine
 10
210.0
 20
297.0000000000001
 30
0.0
 11
0.0
 21
297.0000000000001
 31
0.0
  0
LINE
  5
7D
330
48
100
AcDbEntity
  8
1
  6
PHANTOM
 62
     4
100
AcDbLine
 10
210.0
 20
0.0
 30
0.0
 11
210.0
 21
297.0000000000001
 31
0.0
  0
LINE
  5
7E
330
48
100
AcDbEntity
  8
1
  6
PHANTOM
 62
     4
100
AcDbLine
 10
0.0
 20
0.0
 30
0.0
 11
210.0
 21
0.0
 31
0.0
  0
LINE
  5
7F
330
48
100
AcDbEntity
  8
1
  6
Continuous
 62
     7
100
AcDbLine
 10
25.0
 20
41.0
 30
0.0
 11
200.0
 21
41.0
 31
0.0
  0
LINE
  5
80
330
48
100
AcDbEntity
  8
1
  6
Continuous
 62
     7
100
AcDbLine
 10
200.0
 20
27.00000000000009
 30
0.0
 11
25.0
 21
27.00000000000009
 31
0.0
  0
LINE
  5
81
330
48
100
AcDbEntity
  8
1
  6
Continuous
 62
     2
100
AcDbLine
 10
33.0
 20
41.0
 30
0.0
 11
33.0
 21
27.0
 31
0.0
  0
LINE
  5
82
330
48
100
AcDbEntity
  8
1
  6
Continuous
 62
     2
100
AcDbLine
 10
55.0
 20
287.0000000000003
 30
0.0
 11
55.0
 21
277.0000000000003
 31
0.0
  0
LINE
  5
83
330
48
100
AcDbEntity
  8
1
  6
Continuous
 62
     2
100
AcDbLine
 10
40.0
 20
287.0000000000003
 30
0.0
 11
40.0
 21
277.0000000000003
 31
0.0
  0
LINE
  5
84
330
48
100
AcDbEntity
  8
1
  6
Continuous
 62
     7
100
AcDbLine
 10
25.0
 20
10.0
 30
0.0
 11
25.0
 21
148.5
 31
0.0
  0
LINE
  5
85
330
48
100
AcDbEntity
  8
1
  6
Continuous
 62
     2
100
AcDbLine
 10
55.0
 20
277.0000000000003
 30
0.0
 11
25.0
 21
277.0000000000003
 31
0.0
  0
LINE
  5
86
330
48
100
AcDbEntity
  8
1
  6
Continuous
 62
     2
100
AcDbLine
 10
166.0
 20
27.00000000000009
 30
0.0
 11
166.0
 21
10.0
 31
0.0
  0
LINE
  5
87
330
48
100
AcDbEntity
  8
1
  6
Continuous
 62
     2
100
AcDbLine
 10
132.0
 20
27.00000000000009
 30
0.0
 11
132.0
 21
10.0
 31
0.0
  0
LINE
  5
88
330
48
100
AcDbEntity
  8
1
  6
Continuous
 62
     2
100
AcDbLine
 10
149.0
 20
27.00000000000009
 30
0.0
 11
149.0
 21
10.0
 31
0.0
  0
LINE
  5
89
330
48
100
AcDbEntity
  8
1
  6
Continuous
 62
     2
100
AcDbLine
 10
115.0
 20
27.00000000000009
 30
0.0
 11
115.0
 21
10.0
 31
0.0
  0
LINE
  5
8A
330
48
100
AcDbEntity
  8
1
  6
Continuous
 62
     2
100
AcDbLine
 10
98.0
 20
27.00000000000009
 30
0.0
 11
98.0
 21
10.0
 31
0.0
  0
LINE
  5
8B
330
48
100
AcDbEntity
  8
1
  6
Continuous
 62
     2
100
AcDbLine
 10
166.0
 20
20.00000000000009
 30
0.0
 11
200.0
 21
20.00000000000009
 31
0.0
  0
LINE
  5
8C
330
48
100
AcDbEntity
  8
1
  6
Continuous
 62
     2
100
AcDbLine
 10
105.0
 20
287.0000000000003
 30
0.0
 11
105.0
 21
292.0000000000004
 31
0.0
  0
LINE
  5
8D
330
48
100
AcDbEntity
  8
1
  6
Continuous
 62
     7
100
AcDbLine
 10
105.0
 20
287.0000000000003
 30
0.0
 11
25.0
 21
287.0000000000003
 31
0.0
  0
LINE
  5
8E
330
48
100
AcDbEntity
  8
1
  6
Continuous
 62
     2
100
AcDbLine
 10
25.0
 20
148.5
 30
0.0
 11
20.0
 21
148.5
 31
0.0
  0
LINE
  5
8F
330
48
100
AcDbEntity
  8
1
  6
Continuous
 62
     7
100
AcDbLine
 10
25.0
 20
148.5
 30
0.0
 11
25.0
 21
287.0000000000003
 31
0.0
  0
LINE
  5
90
330
48
100
AcDbEntity
  8
1
  6
Continuous
 62
     2
100
AcDbLine
 10
200.0
 20
148.5
 30
0.0
 11
205.0
 21
148.5
 31
0.0
  0
LINE
  5
91
330
48
100
AcDbEntity
  8
1
  6
Continuous
 62
     7
100
AcDbLine
 10
200.0
 20
148.5
 30
0.0
 11
200.0
 21
287.0000000000003
 31
0.0
  0
LINE
  5
92
330
48
100
AcDbEntity
  8
1
  6
Continuous
 62
     2
100
AcDbLine
 10
105.0
 20
10.0
 30
0.0
 11
105.0
 21
5.0
 31
0.0
  0
LINE
  5
93
330
48
100
AcDbEntity
  8
1
  6
Continuous
 62
     7
100
AcDbLine
 10
105.0
 20
10.0
 30
0.0
 11
200.0
 21
10.0
 31
0.0
  0
CIRCLE
  5
98
330
48
100
AcDbEntity
  8
1
  6
DOT_CENTER
 62
     7
100
AcDbCircle
 10
89.5
 20
18.0
 30
0.0
 40
0.1000000000000227
  0
CIRCLE
  5
99
330
48
100
AcDbEntity
  8
1
  6
DOT_CENTER
 62
     7
100
AcDbCircle
 10
89.5
 20
16.0
 30
0.0
 40
0.1000000000000227
  0
CIRCLE
  5
9A
330
48
100
AcDbEntity
  8
1
  6
Continuous
 62
     7
100
AcDbCircle
 10
187.0
 20
23.50000000000009
 30
0.0
 40
2.0
  0
CIRCLE
  5
9B
330
48
100
AcDbEntity
  8
1
  6
Continuous
 62
     7
100
AcDbCircle
 10
187.0
 20
23.50000000000009
 30
0.0
 40
1.200000000000102
  0
CIRCLE
  5
9C
330
48
100
AcDbEntity
  8
1
  6
Continuous
 62
     7
100
AcDbCircle
 10
154.5
 20
12.5
 30
0.0
 40
0.3000000000000114
  0
CIRCLE
  5
9D
330
48
100
AcDbEntity
  8
1
  6
Continuous
 62
     7
100
AcDbCircle
 10
160.5
 20
12.5
 30
0.0
 40
0.3000000000000114
  0
CIRCLE
  5
9E
330
48
100
AcDbEntity
  8
1
  6
Continuous
 62
     7
100
AcDbCircle
 10
143.5
 20
12.5
 30
0.0
 40
0.3000000000000114
  0
CIRCLE
  5
9F
330
48
100
AcDbEntity
  8
1
  6
Continuous
 62
     7
100
AcDbCircle
 10
137.5
 20
12.5
 30
0.0
 40
0.3000000000000114
  0
CIRCLE
  5
A0
330
48
100
AcDbEntity
  8
1
  6
Continuous
 62
     7
100
AcDbCircle
 10
126.5
 20
12.5
 30
0.0
 40
0.2999999999999972
  0
CIRCLE
  5
A1
330
48
100
AcDbEntity
  8
1
  6
Continuous
 62
     7
100
AcDbCircle
 10
120.5
 20
12.5
 30
0.0
 40
0.2999999999999972
  0
CIRCLE
  5
A2
330
48
100
AcDbEntity
  8
1
  6
Continuous
 62
     7
100
AcDbCircle
 10
109.5
 20
12.5
 30
0.0
 40
0.2999999999999972
  0
CIRCLE
  5
A3
330
48
100
AcDbEntity
  8
1
  6
Continuous
 62
     7
100
AcDbCircle
 10
103.5
 20
12.5
 30
0.0
 40
0.2999999999999972
  0
SPLINE
  5
A4
102
{ACAD_REACTORS
330
C2
102
}
330
48
100
AcDbEntity
  8
_U_30EC_U_30A4_U_30E4_U_30FC_1
  6
Continuous
 62
     2
100
AcDbSpline
210
0.0
220
0.0
230
1.0
 70
    11
 71
     3
 72
    99
 73
    95
 74
    93
 42
0.000000001
 43
0.0000000001
 44
0.00000001
 40
0.0
 40
0.0
 40
0.0
 40
0.0
 40
0.0796417172272629
 40
0.1621768542356316
 40
0.2486489160957825
 40
0.3404969668524769
 40
0.4381912511164845
 40
0.5434463660245161
 40
0.6518115192847495
 40
0.7530190937886999
 40
0.8492196919725339
 40
0.9419290312998495
 40
1.034249663570065
 40
1.129078600620279
 40
1.226697027573298
 40
1.32722042542172
 40
1.470572134938068
 40
1.595489863371265
 40
1.719934125348448
 40
1.850576620127478
 40
1.989059629987356
 40
2.134139054226966
 40
2.280698007207262
 40
2.424529739039506
 40
2.56592957698592
 40
2.708239260773594
 40
2.861717887443739
 40
3.045168540347452
 40
3.183798301138688
 40
3.314813961455493
 40
3.442083470447359
 40
3.569912708373052
 40
3.702177512509393
 40
3.842307559659548
 40
3.992872223245976
 40
4.156750662218333
 40
4.310981861107553
 40
4.445859909322587
 40
4.572393936131594
 40
4.701656719781986
 40
4.76827908600849
 40
4.835960697898409
 40
4.912788918729358
 40
5.006285208481552
 40
5.0269094787516
 40
5.047533749021108
 40
5.101808031471207
 40
5.162325165538485
 40
5.226919745995784
 40
5.294231806596681
 40
5.364544852554834
 40
5.438319055467866
 40
5.517877651324172
 40
5.607647714861511
 40
5.700449642544327
 40
5.788251142363993
 40
5.872714706039703
 40
5.95516729257526
 40
6.037192395190316
 40
6.120669181469043
 40
6.206848616686279
 40
6.296680855416663
 40
6.442558392872502
 40
6.568190371608241
 40
6.692904567360264
 40
6.82422044655701
 40
6.963121850329256
 40
7.107843738851021
 40
7.253431663907171
 40
7.395187468036597
 40
7.533140753237644
 40
7.670550457175151
 40
7.816236511769161
 40
7.987691657359094
 40
8.142277421969155
 40
8.293662615414876
 40
8.442962460879164
 40
8.591598316185197
 40
8.74367899236167
 40
8.903725323699074
 40
9.076307008890403
 40
9.265578604680455
 40
9.459203795360626
 40
9.617619810273391
 40
9.753609671361746
 40
9.87487330000395
 40
9.954520184977623
 40
10.02416413719226
 40
10.0976976440543
 40
10.18909955924956
 40
10.20974586420117
 40
10.23039218263363
 40
10.30057101881246
 40
10.37632012987525
 40
10.37632012987525
 40
10.37632012987525
 40
10.37632012987525
 10
170.1465954835851
 20
14.13795663215998
 30
0.0
 10
170.1632217851219
 20
14.11720608845316
 30
0.0
 10
170.1970784206577
 20
14.07495111711904
 30
0.0
 10
170.2599822541036
 20
14.02029811392071
 30
0.0
 10
170.3332500940392
 20
13.97299025121053
 30
0.0
 10
170.4175969238636
 20
13.93527231437938
 30
0.0
 10
170.5132240615459
 20
13.91040619731952
 30
0.0
 10
170.6171853775346
 20
13.90309559345935
 30
0.0
 10
170.7224020220404
 20
13.91142322794054
 30
0.0
 10
170.8206626371333
 20
13.94149179651525
 30
0.0
 10
170.9058986427548
 20
13.98848822971875
 30
0.0
 10
170.9779220206103
 20
14.04952991250859
 30
0.0
 10
171.0350917709096
 20
14.12412969578584
 30
0.0
 10
171.0767868747439
 20
14.21002464660179
 30
0.0
 10
171.1026952846294
 20
14.30485850432212
 30
0.0
 10
171.1118037332652
 20
14.41854979038369
 30
0.0
 10
171.0986864796487
 20
14.5433258777078
 30
0.0
 10
171.0325330334414
 20
14.66014719171895
 30
0.0
 10
170.9369370919568
 20
14.74512539577375
 30
0.0
 10
170.8249681022369
 20
14.81416684459167
 30
0.0
 10
170.6993659583269
 20
14.87204142045892
 30
0.0
 10
170.5656691620856
 20
14.92373723284339
 30
0.0
 10
170.4313122818831
 20
14.97899092397185
 30
0.0
 10
170.3051983986877
 20
15.04939770641644
 30
0.0
 10
170.1926579987535
 20
15.13785540731254
 30
0.0
 10
170.0969963064458
 20
15.24981067868475
 30
0.0
 10
170.0334157151826
 20
15.39949910101388
 30
0.0
 10
170.0200706505015
 20
15.55932794385146
 30
0.0
 10
170.0320510987448
 20
15.71048405306849
 30
0.0
 10
170.0712298928841
 20
15.8380924459154
 30
0.0
 10
170.1354987750911
 20
15.95080874030848
 30
0.0
 10
170.2238204999741
 20
16.04648609268677
 30
0.0
 10
170.3338091207628
 20
16.12354214985754
 30
0.0
 10
170.4632284401265
 20
16.18151396936282
 30
0.0
 10
170.6111838967793
 20
16.21739177588823
 30
0.0
 10
170.7682069455487
 20
16.2274671905056
 30
0.0
 10
170.9174940466429
 20
16.21863637762588
 30
0.0
 10
171.0596253614171
 20
16.19074899340359
 30
0.0
 10
171.1595922609624
 20
16.13413314701137
 30
0.0
 10
171.3125074736185
 20
16.08674602105509
 30
0.0
 10
171.2455131717168
 20
16.00197553001185
 30
0.0
 10
171.2296479120269
 20
15.93438901873486
 30
0.0
 10
171.1978750531297
 20
15.86926092793192
 30
0.0
 10
171.215020220957
 20
15.76723453256955
 30
0.0
 10
171.1666427208232
 20
15.77493211681903
 30
0.0
 10
171.1315789440766
 20
15.76806771724811
 30
0.0
 10
171.1296697985718
 20
15.83263831158196
 30
0.0
 10
171.0985692931989
 20
15.87825639621394
 30
0.0
 10
171.0664551628456
 20
15.93561036628456
 30
0.0
 10
171.0208038475167
 20
15.98540462692557
 30
0.0
 10
170.9658508218386
 20
16.02994813718997
 30
0.0
 10
170.9010841173007
 20
16.06763988836547
 30
0.0
 10
170.8232377310596
 20
16.0928337579135
 30
0.0
 10
170.7355160553352
 20
16.09931230998106
 30
0.0
 10
170.6452903277807
 20
16.09235709285609
 30
0.0
 10
170.5594594694065
 20
16.06909190460922
 30
0.0
 10
170.4828343638596
 20
16.03131644107552
 30
0.0
 10
170.4165265636201
 20
15.9805164108957
 30
0.0
 10
170.3622560536964
 20
15.91731143407212
 30
0.0
 10
170.3224925345458
 20
15.84276455710368
 30
0.0
 10
170.2976775510587
 20
15.75917313997766
 30
0.0
 10
170.289212426287
 20
15.65192948382289
 30
0.0
 10
170.3019697987104
 20
15.52965457267562
 30
0.0
 10
170.3681548409273
 20
15.41149724291217
 30
0.0
 10
170.4640977399833
 20
15.3260632570953
 30
0.0
 10
170.5757914963182
 20
15.25583362306729
 30
0.0
 10
170.7010863668702
 20
15.19659162305305
 30
0.0
 10
170.8349823941447
 20
15.14616708086145
 30
0.0
 10
170.968993033315
 20
15.09322516984379
 30
0.0
 10
171.0950885316914
 20
15.02750170625175
 30
0.0
 10
171.2076216638417
 20
14.94480352537322
 30
0.0
 10
171.3031370284233
 20
14.83996006310072
 30
0.0
 10
171.3672706486963
 20
14.69937117251569
 30
0.0
 10
171.3811103725278
 20
14.54065409451592
 30
0.0
 10
171.367395471223
 20
14.38153155217876
 30
0.0
 10
171.3244739153984
 20
14.23483828819212
 30
0.0
 10
171.2545906329065
 20
14.10119796587143
 30
0.0
 10
171.1574592213829
 20
13.98532387699294
 30
0.0
 10
171.0347806023657
 20
13.89089981770092
 30
0.0
 10
170.8874408413168
 20
13.82179270651976
 30
0.0
 10
170.7177132497125
 20
13.77953210858861
 30
0.0
 10
170.5317404979597
 20
13.76781736230418
 30
0.0
 10
170.3528955926183
 20
13.77809486683445
 30
0.0
 10
170.1881733753743
 20
13.81966573769148
 30
0.0
 10
170.0834410841057
 20
13.88797642883946
 30
0.0
 10
169.9350960790365
 20
13.93675219032109
 30
0.0
 10
169.998037819473
 20
14.0297659129084
 30
0.0
 10
170.0072274430059
 20
14.1029653624828
 30
0.0
 10
170.0303711301232
 20
14.16936294501345
 30
0.0
 10
170.0034588335316
 20
14.2697480952758
 30
0.0
 10
170.0521338956339
 20
14.26234033517378
 30
0.0
 10
170.0916530580696
 20
14.26894063620895
 30
0.0
 10
170.0996204944702
 20
14.19078703218934
 30
0.0
 10
170.1305436967922
 20
14.1560092737586
 30
0.0
 10
170.1465954835851
 20
14.13795663215998
 30
0.0
 11
170.1465954835851
 21
14.13795663215998
 31
0.0
 11
170.1982038075864
 21
14.07729869814738
 31
0.0
 11
170.2601105501335
 21
14.0227129516332
 31
0.0
 11
170.3327764009802
 21
13.97583980928385
 31
0.0
 11
170.4166468655843
 21
13.9383990627654
 31
0.0
 11
170.511221073241
 21
13.91390636311878
 31
0.0
 11
170.6161603327165
 21
13.90575829888471
 31
0.0
 11
170.7240739497552
 21
13.91564048638223
 31
0.0
 11
170.8208419941616
 21
13.9452870488748
 31
0.0
 11
170.9050776083319
 21
13.99175118948818
 31
0.0
 11
170.9756144207686
 21
14.05191413218151
 31
0.0
 11
171.031944210998
 21
14.1250581946632
 31
0.0
 11
171.0736690016003
 21
14.21021434047529
 31
0.0
 11
171.0994680808033
 21
14.30436190989615
 31
0.0
 11
171.1080824729446
 21
14.40451552098219
 31
0.0
 11
171.0878517703357
 21
14.546432508794
 31
0.0
 11
171.0272522666731
 21
14.65566684036389
 31
0.0
 11
170.9364971286285
 21
14.74081306430097
 31
0.0
 11
170.826010188474
 21
14.81052746532521
 31
0.0
 11
170.7008523531254
 21
14.86979854169924
 31
0.0
 11
170.5662951950998
 21
14.9240425347412
 31
0.0
 11
170.4316884277007
 21
14.98201274306006
 31
0.0
 11
170.3065802017258
 21
15.05297399304229
 31
0.0
 11
170.196027609828
 21
15.14113315968699
 31
0.0
 11
170.1053381235265
 21
15.25080295132619
 31
0.0
 11
170.0447055469484
 21
15.3917972047632
 31
0.0
 11
170.0245079172553
 21
15.57413260402319
 31
0.0
 11
170.0374030471347
 21
15.71216131926646
 31
0.0
 11
170.0761016659391
 21
15.83733128451289
 31
0.0
 11
170.1393141731507
 21
15.94779262129084
 31
0.0
 11
170.2257499954546
 21
16.04196885390618
 31
0.0
 11
170.3336492808963
 21
16.1184654077065
 31
0.0
 11
170.4613526283328
 21
16.1761567010949
 31
0.0
 11
170.6075393259923
 21
16.21220066809975
 31
0.0
 11
170.770976856545
 21
16.22421385386059
 31
0.0
 11
170.9248918431289
 21
16.21434269066863
 31
0.0
 11
171.0564887242607
 21
16.18477329831501
 31
0.0
 11
171.172563634494
 21
16.13439993895253
 31
0.0
 11
171.2800792741122
 21
16.06264163167879
 31
0.0
 11
171.2516994050444
 21
16.00236624106886
 31
0.0
 11
171.2284855254283
 21
15.9387901733765
 31
0.0
 11
171.2078381040801
 21
15.86478841992269
 31
0.0
 11
171.1871840681487
 21
15.77360197897329
 31
0.0
 11
171.1665597978415
 21
15.77360197897329
 31
0.0
 11
171.1459355275344
 21
15.77360197897329
 31
0.0
 11
171.1256706495791
 21
15.82395108486349
 31
0.0
 11
171.0994658759421
 21
15.87850045116929
 31
0.0
 11
171.0650468924451
 21
15.93316116296114
 31
0.0
 11
171.0203554612937
 21
15.98349593725411
 31
0.0
 11
170.9657333359511
 21
16.0277717532153
 31
0.0
 11
170.9016722004326
 21
16.06436142334499
 31
0.0
 11
170.8259682961141
 21
16.08882545979724
 31
0.0
 11
170.7365722046449
 21
16.09701100667019
 31
0.0
 11
170.6440937174208
 21
16.08926973931102
 31
0.0
 11
170.5594072091646
 21
16.0660900344557
 31
0.0
 11
170.483702448884
 21
16.02863495634012
 31
0.0
 11
170.4183754766516
 21
15.97832774281099
 31
0.0
 11
170.3650487887664
 21
15.91600293379881
 31
0.0
 11
170.3254809233901
 21
15.84249947895609
 31
0.0
 11
170.3009523754711
 21
15.75988443557394
 31
0.0
 11
170.2927954104108
 21
15.67042329844358
 31
0.0
 11
170.3130095765618
 21
15.52595308146578
 31
0.0
 11
170.3736256166821
 21
15.41591177072939
 31
0.0
 11
170.4643479320758
 21
15.33033670130636
 31
0.0
 11
170.5748676948813
 21
15.25941954854631
 31
0.0
 11
170.7000089937719
 21
15.19914305550583
 31
0.0
 11
170.8345826882553
 21
15.14590447913031
 31
0.0
 11
170.9691729191968
 21
15.09039489581074
 31
0.0
 11
171.0942976816297
 21
15.02377281249409
 31
0.0
 11
171.204800907977
 21
14.9411886371675
 31
0.0
 11
171.2955397598288
 21
14.8380000347627
 31
0.0
 11
171.3561557999489
 21
14.70552315979583
 31
0.0
 11
171.3763699660998
 21
14.53526378483841
 31
0.0
 11
171.3621839747998
 21
14.38133030397411
 31
0.0
 11
171.3196087009193
 21
14.23605531269101
 31
0.0
 11
171.2499752884265
 21
14.10398854189068
 31
0.0
 11
171.1544992078713
 21
13.9900721877525
 31
0.0
 11
171.0341060772624
 21
13.8971527259702
 31
0.0
 11
170.8896160201846
 21
13.82832357668178
 31
0.0
 11
170.7223519532713
 21
13.78581275203973
 31
0.0
 11
170.5336103348226
 21
13.77165864614051
 31
0.0
 11
170.3405031726387
 21
13.78581275203973
 31
0.0
 11
170.1878975900911
 21
13.82832357668178
 31
0.0
 11
170.0661897942203
 21
13.88899033013892
 31
0.0
 11
169.9660261826363
 21
13.95734322942741
 31
0.0
 11
169.9922320587039
 21
14.03255545163076
 31
0.0
 11
170.0090121537618
 21
14.10014767383609
 31
0.0
 11
170.0206196447852
 21
14.17275926235963
 31
0.0
 11
170.0313606254139
 21
14.26352788212859
 31
0.0
 11
170.0520069443315
 21
14.26352788212859
 31
0.0
 11
170.0726532632492
 21
14.26352788212859
 31
0.0
 11
170.1048916391629
 21
14.20119204881087
 31
0.0
 11
170.1465954835851
 21
14.13795663215998
 31
0.0
  0
SPLINE
  5
A5
102
{ACAD_REACTORS
330
C3
102
}
330
48
100
AcDbEntity
  8
_U_30EC_U_30A4_U_30E4_U_30FC_1
  6
Continuous
 62
     2
100
AcDbSpline
210
0.0
220
0.0
230
1.0
 70
    11
 71
     3
 72
    57
 73
    53
 74
    51
 42
0.000000001
 43
0.0000000001
 44
0.00000001
 40
0.0
 40
0.0
 40
0.0
 40
0.0
 40
0.0471632082808991
 40
0.0914861054632203
 40
0.1357762519702438
 40
0.1826527001610733
 40
0.2295203288572358
 40
0.2737751972219675
 40
0.3181310461542845
 40
0.365260719839861
 40
0.4571007286314443
 40
0.5671851029165216
 40
0.6894623283868567
 40
0.8181758272545896
 40
0.951008722927382
 40
1.085852229674077
 40
1.218126164475336
 40
1.343545131142396
 40
1.454537202956812
 40
1.567187607530821
 40
1.680710966642412
 40
1.794226869736719
 40
1.900009184247576
 40
2.0040858604478
 40
2.108162674451743
 40
2.214000150155316
 40
2.49603857735215
 40
2.762350745479329
 40
2.997275353279451
 40
3.185110082137746
 40
3.246407890063976
 40
3.312607550212708
 40
3.378877742711611
 40
3.440140399651468
 40
4.100501696006482
 40
4.754913085563607
 40
5.411331693423946
 40
6.077890432568688
 40
6.110575292670966
 40
6.143260152775746
 40
6.367989363395099
 40
6.610525374951489
 40
6.863389136467267
 40
7.119380025547518
 40
7.376036605091032
 40
7.63116477096624
 40
7.876722425456363
 40
8.104953735855972
 40
8.312916685924229
 40
8.49773029494125
 40
8.651018984313788
 40
8.764738853624527
 40
8.764738853624527
 40
8.764738853624527
 40
8.764738853624527
 10
174.7922649500513
 20
13.81626739612929
 30
0.0
 10
174.7766616726931
 20
13.81826231079081
 30
0.0
 10
174.7463947960303
 20
13.82213201360305
 30
0.0
 10
174.7010994202252
 20
13.82341984967276
 30
0.0
 10
174.6559553129349
 20
13.82308683554059
 30
0.0
 10
174.60990171234
 20
13.82314658674232
 30
0.0
 10
174.5640496172097
 20
13.82325813650008
 30
0.0
 10
174.5183711648166
 20
13.82277833456599
 30
0.0
 10
174.4750811541608
 20
13.82461109618728
 30
0.0
 10
174.4039947951514
 20
13.80049556814656
 30
0.0
 10
174.4057477261441
 20
13.92184693977255
 30
0.0
 10
174.3586196370569
 20
14.00726239751233
 30
0.0
 10
174.3191478251762
 20
14.12486929345139
 30
0.0
 10
174.2706635532645
 20
14.24232752540438
 30
0.0
 10
174.2201017402522
 20
14.3640593576151
 30
0.0
 10
174.1718634610477
 20
14.49075967862468
 30
0.0
 10
174.1135232947595
 20
14.59933687784955
 30
0.0
 10
174.0980892667261
 20
14.75620657134411
 30
0.0
 10
173.9566586330635
 20
14.72373446548325
 30
0.0
 10
173.8508397414903
 20
14.73512888682173
 30
0.0
 10
173.7358569725222
 20
14.73392591514624
 30
0.0
 10
173.6253142252142
 20
14.73506945347414
 30
0.0
 10
173.5176583522783
 20
14.73418350037535
 30
0.0
 10
173.4121322529243
 20
14.73416602390513
 30
0.0
 10
173.3109192682013
 20
14.72714032472418
 30
0.0
 10
173.1266804827753
 20
14.75135859859869
 30
0.0
 10
173.1157393685412
 20
14.44741691121883
 30
0.0
 10
173.008769163475
 20
14.22353177253396
 30
0.0
 10
172.9098148604346
 20
14.03895314292498
 30
0.0
 10
172.9225090524008
 20
13.79530204804205
 30
0.0
 10
172.8050091716397
 20
13.82508046753203
 30
0.0
 10
172.742205586831
 20
13.82258089509612
 30
0.0
 10
172.67858720934
 20
13.82344075102811
 30
0.0
 10
172.3946014194074
 20
13.78098039941933
 30
0.0
 10
173.0251638499382
 20
14.50081952444796
 30
0.0
 10
173.1087645289072
 20
15.01276539435727
 30
0.0
 10
173.4929252789339
 20
15.53353743550049
 30
0.0
 10
173.4777208288565
 20
16.2351962625321
 30
0.0
 10
173.7239265722697
 20
16.22345633081254
 30
0.0
 10
173.8256346157562
 20
16.2322500445277
 30
0.0
 10
173.8249752035817
 20
15.98059650730347
 30
0.0
 10
173.9428317155829
 20
15.79818020733959
 30
0.0
 10
174.0315515260484
 20
15.55563740662868
 30
0.0
 10
174.1322292485259
 20
15.3234003053013
 30
0.0
 10
174.2311142712243
 20
15.08674644566917
 30
0.0
 10
174.3299676990669
 20
14.85461739170094
 30
0.0
 10
174.4256166390926
 20
14.63122222788787
 30
0.0
 10
174.5159904573272
 20
14.42272549049321
 30
0.0
 10
174.598994456819
 20
14.23308448529321
 30
0.0
 10
174.6726088582798
 20
14.066631060681
 30
0.0
 10
174.7342815895546
 20
13.92917699626102
 30
0.0
 10
174.7749458885604
 20
13.84999239430037
 30
0.0
 10
174.7922649500513
 20
13.81626739612929
 30
0.0
 11
174.7922649500513
 21
13.81626739612929
 31
0.0
 11
174.7453878317448
 21
13.82145433189191
 31
0.0
 11
174.7010975896125
 21
13.8231553822387
 31
0.0
 11
174.6568074431729
 21
13.8231553822387
 31
0.0
 11
174.6099309947159
 21
13.8231553822387
 31
0.0
 11
174.5630633657034
 21
13.8231553822387
 31
0.0
 11
174.5188084970409
 21
13.8231553822387
 31
0.0
 11
174.4744852776854
 21
13.82145433189191
 31
0.0
 11
174.4276419021443
 21
13.81626739612929
 31
0.0
 11
174.3992532136325
 21
13.90360966173246
 31
0.0
 11
174.3622721815898
 21
14.0072965627482
 31
0.0
 11
174.3188386236701
 21
14.12159987001131
 31
0.0
 11
174.2711055866936
 21
14.24113531268969
 31
0.0
 11
174.2208160133237
 21
14.36408057307564
 31
0.0
 11
174.1696467003932
 21
14.48883822929449
 31
0.0
 11
174.1197531801326
 21
14.61134141502775
 31
0.0
 11
174.0733119111841
 21
14.72784517367919
 31
0.0
 11
173.9623611907589
 21
14.73087465284507
 31
0.0
 11
173.8497309225089
 21
14.73300454867788
 31
0.0
 11
173.7362152069449
 21
14.73432195319146
 31
0.0
 11
173.6227000476801
 21
14.73473315978859
 31
0.0
 11
173.5169185312816
 21
14.73432195319146
 31
0.0
 11
173.4128501919226
 21
14.73300454867788
 31
0.0
 11
173.3087951724045
 21
14.73087465284507
 31
0.0
 11
173.2030010615596
 21
14.72784517367919
 31
0.0
 11
173.0980914750139
 21
14.46604437513351
 31
0.0
 11
173.0034868690331
 21
14.21710232658458
 31
0.0
 11
172.9252231210298
 21
13.99559756969555
 31
0.0
 11
172.8693431224555
 21
13.81626739612929
 31
0.0
 11
172.8082651639442
 21
13.82145433189191
 31
0.0
 11
172.742087361813
 21
13.8231553822387
 31
0.0
 11
172.6758390041282
 21
13.82145433189191
 31
0.0
 11
172.6147963233938
 21
13.81626739612929
 31
0.0
 11
172.889968495193
 21
14.41656508695142
 31
0.0
 11
173.1582945734171
 21
15.0134364236078
 31
0.0
 11
173.4240277350405
 21
15.61366245644383
 31
0.0
 11
173.6914740737033
 21
16.22421385386059
 31
0.0
 11
173.7241589339806
 21
16.22421385386059
 31
0.0
 11
173.7568437942579
 21
16.22421385386059
 31
0.0
 11
173.8428300681057
 21
16.01658539037085
 31
0.0
 11
173.9357285813609
 21
15.79254614563519
 31
0.0
 11
174.0328714521463
 21
15.55908663180469
 31
0.0
 11
174.1317936458031
 21
15.32298128464149
 31
0.0
 11
174.2315341249927
 21
15.08649780379787
 31
0.0
 11
174.3313071129353
 21
14.85168781253711
 31
0.0
 11
174.4280608257449
 21
14.62599492196852
 31
0.0
 11
174.5188084970409
 21
14.41658052097918
 31
0.0
 11
174.6022150834546
 21
14.22607611130465
 31
0.0
 11
174.6770293263377
 21
14.05708232662468
 31
0.0
 11
174.7410729186603
 21
13.91781337700671
 31
0.0
 11
174.7922649500513
 21
13.81626739612929
 31
0.0
  0
SPLINE
  5
A6
102
{ACAD_REACTORS
330
C3
102
}
330
48
100
AcDbEntity
  8
_U_30EC_U_30A4_U_30E4_U_30FC_1
  6
Continuous
 62
     2
100
AcDbSpline
210
0.0
220
0.0
230
1.0
 70
    11
 71
     3
 72
    25
 73
    21
 74
    19
 42
0.000000001
 43
0.0000000001
 44
0.00000001
 40
0.0
 40
0.0
 40
0.0
 40
0.0
 40
0.0911479969065387
 40
0.1858117896204659
 40
0.2804128399734485
 40
0.3715889190714505
 40
0.4679080494218703
 40
0.5642683809229225
 40
0.660568322264499
 40
0.7569653015810236
 40
0.8561348172522801
 40
1.092615965104316
 40
1.37486765814192
 40
1.611348812011662
 40
1.710518328425318
 40
1.809403163726644
 40
2.045205463294164
 40
2.326646917622246
 40
2.562449217190727
 40
2.661334043834053
 40
2.661334043834053
 40
2.661334043834053
 40
2.661334043834053
 10
173.2683700567199
 20
14.88614538197288
 30
0.0
 10
173.2987525917922
 20
14.88598079714552
 30
0.0
 10
173.3606895889112
 20
14.88564528689921
 30
0.0
 10
173.4541356960329
 20
14.88269055452001
 30
0.0
 10
173.5475095236358
 20
14.87977752877152
 30
0.0
 10
173.6417760753475
 20
14.87894201643415
 30
0.0
 10
173.7354964790967
 20
14.87996644658046
 30
0.0
 10
173.8352040303205
 20
14.87916977470971
 30
0.0
 10
173.9188949546312
 20
14.88921410235224
 30
0.0
 10
174.0637996315045
 20
14.86234617674159
 30
0.0
 10
173.9396132444801
 20
15.03665530280048
 30
0.0
 10
173.8965867286282
 20
15.1965171100609
 30
0.0
 10
173.780892214221
 20
15.45518458550217
 30
0.0
 10
173.7017565431256
 20
15.5923105286186
 30
0.0
 10
173.6431576621816
 20
15.80937033134081
 30
0.0
 10
173.5864803939438
 20
15.59266134213431
 30
0.0
 10
173.5052809900478
 20
15.45327012438237
 30
0.0
 10
173.4063701281488
 20
15.20406969370194
 30
0.0
 10
173.325362509426
 20
15.0192583022607
 30
0.0
 10
173.2813683325838
 20
14.91650446856113
 30
0.0
 10
173.2683700567199
 20
14.88614538197288
 30
0.0
 11
173.2683700567199
 21
14.88614538197288
 31
0.0
 11
173.3595137737821
 21
14.88526123266759
 31
0.0
 11
173.4541428297581
 21
14.882696979196
 31
0.0
 11
173.5487082179706
 21
14.88009965280778
 31
0.0
 11
173.6398803250196
 21
14.87924857641909
 31
0.0
 11
173.7361985777706
 21
14.8796597830162
 31
0.0
 11
173.8325499034376
 21
14.88097718752971
 31
0.0
 11
173.9288262638286
 21
14.88310818579314
 31
0.0
 11
174.0251753846343
 21
14.88614538197288
 31
0.0
 11
173.9854633323141
 21
14.97701642195017
 31
0.0
 11
173.8907653613968
 21
15.19370890189601
 31
0.0
 11
173.7777387509471
 21
15.45234186183136
 31
0.0
 11
173.6830407800297
 21
15.6690343417772
 31
0.0
 11
173.6433287277095
 21
15.75990538175449
 31
0.0
 11
173.6043330259266
 21
15.6690343417772
 31
0.0
 11
173.5113432755212
 21
15.45234186183136
 31
0.0
 11
173.4003555089082
 21
15.19370890189601
 31
0.0
 11
173.3073657585028
 21
14.97701642195017
 31
0.0
 11
173.2683700567199
 21
14.88614538197288
 31
0.0
  0
SPLINE
  5
A7
102
{ACAD_REACTORS
330
C4
102
}
330
48
100
AcDbEntity
  8
_U_30EC_U_30A4_U_30E4_U_30FC_1
  6
Continuous
 62
     2
100
AcDbSpline
210
0.0
220
0.0
230
1.0
 70
    11
 71
     3
 72
    95
 73
    91
 74
    89
 42
0.000000001
 43
0.0000000001
 44
0.00000001
 40
0.0
 40
0.0
 40
0.0
 40
0.0
 40
0.655040665691108
 40
1.308087289031837
 40
1.420803739835688
 40
1.5661307597707
 40
1.757067341888321
 40
2.006513545026331
 40
2.087328263121449
 40
2.185328872295571
 40
2.294612454748309
 40
2.408936380534727
 40
2.526802767798477
 40
2.646360524615524
 40
2.762535723971491
 40
2.870057342870061
 40
2.966883448431517
 40
3.05080324351824
 40
3.115818222436491
 40
3.156030057150139
 40
3.213914225080044
 40
3.276689026450445
 40
3.342960320981223
 40
3.404230667150475
 40
3.453822809493324
 40
3.532499827188369
 40
3.634775188507089
 40
3.754909333008046
 40
3.889736761660569
 40
4.03576960217518
 40
4.187256681197537
 40
4.338733685675915
 40
4.488478734676061
 40
4.634708317831552
 40
4.771493189921213
 40
4.892686571561085
 40
5.199775528944326
 40
5.460353566929571
 40
5.667603142345407
 40
5.814722905404359
 40
5.828990806219657
 40
5.855488336304354
 40
5.869756237118686
 40
6.189796507762662
 40
6.531890469872872
 40
6.883053637016852
 40
7.230512024911322
 40
7.56696665676442
 40
7.885203559707249
 40
8.17288743971905
 40
8.41801159406261
 40
8.443926721190532
 40
8.510760470613024
 40
8.602145393795537
 40
8.701714041646982
 40
8.793098965075218
 40
8.859932715057793
 40
8.885847842603443
 40
9.242301256612631
 40
9.589275455016631
 40
9.921808543163998
 40
10.23479624298452
 40
10.29968150889157
 40
10.3532349388774
 40
10.40154625355124
 40
10.464829224778
 40
10.55973900668379
 40
10.69239545985589
 40
10.84920353475649
 40
11.01626328594759
 40
11.18672024367419
 40
11.35372582577188
 40
11.50257442292402
 40
11.6186649502327
 40
11.71329869152851
 40
11.82511050573883
 40
11.94464880845694
 40
12.06929242642484
 40
12.19707290435149
 40
12.32562632860506
 40
12.45034565331252
 40
12.56646595170305
 40
12.67099007414609
 40
12.76077625936753
 40
12.82703233506666
 40
12.8742913278596
 40
12.898319903233
 40
12.92234847859988
 40
13.53984767410282
 40
14.1829428435933
 40
14.1829428435933
 40
14.1829428435933
 40
14.1829428435933
 10
177.3067935648021
 20
14.7089803820173
 30
0.0
 10
177.175201975855
 20
14.82265058603236
 30
0.0
 10
176.9124193802728
 20
15.04964496316159
 30
0.0
 10
176.3997393441023
 20
15.89214462956285
 30
0.0
 10
176.4106654595362
 20
15.53423377577021
 30
0.0
 10
176.404122652799
 20
15.39267392272135
 30
0.0
 10
176.4028026631773
 20
15.19421305299285
 30
0.0
 10
176.4018117602538
 20
15.02150296045986
 30
0.0
 10
176.4024101751974
 20
14.8786537325758
 30
0.0
 10
176.4038994301882
 20
14.78265005413357
 30
0.0
 10
176.4055683588473
 20
14.67545503263139
 30
0.0
 10
176.4071934954618
 20
14.56164211517581
 30
0.0
 10
176.4092429501685
 20
14.44441572604589
 30
0.0
 10
176.4123165501928
 20
14.3265641123297
 30
0.0
 10
176.4156339697043
 20
14.21228087320621
 30
0.0
 10
176.419360534028
 20
14.10521401867278
 30
0.0
 10
176.4217338161424
 20
14.01007408766923
 30
0.0
 10
176.4278718888357
 20
13.92558557205696
 30
0.0
 10
176.4239784495947
 20
13.86923087298142
 30
0.0
 10
176.4455230443077
 20
13.79825022472356
 30
0.0
 10
176.3680940058618
 20
13.82902677604489
 30
0.0
 10
176.3116353240191
 20
13.82011242517622
 30
0.0
 10
176.2540495896807
 20
13.82896218398281
 30
0.0
 10
176.1690163478472
 20
13.79738225225945
 30
0.0
 10
176.2009714146383
 20
13.88095155992195
 30
0.0
 10
176.1990705282539
 20
13.94882608968314
 30
0.0
 10
176.2107960047299
 20
14.0523325676442
 30
0.0
 10
176.2164241053
 20
14.17002125616696
 30
0.0
 10
176.2237902178941
 20
14.30388609164425
 30
0.0
 10
176.232075970161
 20
14.44764152872635
 30
0.0
 10
176.2398851897426
 20
14.5971402284345
 30
0.0
 10
176.2457571222659
 20
14.74792549402083
 30
0.0
 10
176.2503667817969
 20
14.89699943878444
 30
0.0
 10
176.2542632117542
 20
15.04122913163028
 30
0.0
 10
176.2570715126563
 20
15.1758390521302
 30
0.0
 10
176.2576698755023
 20
15.36469614347355
 30
0.0
 10
176.2616023867151
 20
15.58975494313153
 30
0.0
 10
176.2442175378497
 20
15.86367091125709
 30
0.0
 10
176.2850417342584
 20
16.02787112098597
 30
0.0
 10
176.1995153256001
 20
16.22749661465094
 30
0.0
 10
176.2660558907688
 20
16.22385458403975
 30
0.0
 10
176.283872427323
 20
16.22413447160851
 30
0.0
 10
176.4056801797502
 20
16.2263292739861
 30
0.0
 10
176.5080770335462
 20
15.94675118721516
 30
0.0
 10
176.7580021509355
 20
15.74563008535998
 30
0.0
 10
176.9870035331111
 20
15.47792614987921
 30
0.0
 10
177.2245151213108
 20
15.22646413862374
 30
0.0
 10
177.4486090740772
 20
14.9896997406136
 30
0.0
 10
177.6750716283008
 20
14.7321869258308
 30
0.0
 10
177.8325687886514
 20
14.61649335056922
 30
0.0
 10
178.0472129612674
 20
14.27997152538792
 30
0.0
 10
178.0422645974618
 20
14.40464754091604
 30
0.0
 10
178.0433931602545
 20
14.46327691935737
 30
0.0
 10
178.0428877841517
 20
14.55043662371978
 30
0.0
 10
178.0430475158113
 20
14.64416143182873
 30
0.0
 10
178.0430054891318
 20
14.73018971297036
 30
0.0
 10
178.0430202040372
 20
14.79153891945497
 30
0.0
 10
178.0429706255985
 20
14.94135231520995
 30
0.0
 10
178.0458811522811
 20
15.17989612510106
 30
0.0
 10
178.0259521041161
 20
15.54486509868702
 30
0.0
 10
178.0750433936248
 20
15.80799631993413
 30
0.0
 10
177.9177951509182
 20
16.21928904947756
 30
0.0
 10
178.0762112872422
 20
16.16398282551749
 30
0.0
 10
178.1311680478628
 20
16.16199686500178
 30
0.0
 10
178.182788776674
 20
16.16264778248252
 30
0.0
 10
178.2713198965366
 20
16.20369527738248
 30
0.0
 10
178.2204898303168
 20
16.05696326622991
 30
0.0
 10
178.2313389930283
 20
15.95019971954436
 30
0.0
 10
178.2166036994847
 20
15.79085705414114
 30
0.0
 10
178.2099976446204
 20
15.62853061652874
 30
0.0
 10
178.2014961399914
 20
15.45992521892395
 30
0.0
 10
178.1943227202199
 20
15.29814814703542
 30
0.0
 10
178.1889063215388
 20
15.15422331457933
 30
0.0
 10
178.1871713967648
 20
15.03437493466926
 30
0.0
 10
178.1875440672319
 20
14.92686101590515
 30
0.0
 10
178.1873656126262
 20
14.81820024645586
 30
0.0
 10
178.187701086314
 20
14.69953570165531
 30
0.0
 10
178.1890040622185
 20
14.57555163512742
 30
0.0
 10
178.1908887351574
 20
14.44858294171106
 30
0.0
 10
178.1925004454851
 20
14.32153861551035
 30
0.0
 10
178.194140313743
 20
14.19854884492179
 30
0.0
 10
178.1962570745752
 20
14.08300931383762
 30
0.0
 10
178.1963848422363
 20
13.9809090395584
 30
0.0
 10
178.2006514396554
 20
13.89009848838162
 30
0.0
 10
178.1908440085289
 20
13.83213621208793
 30
0.0
 10
178.2118474771689
 20
13.76517130132039
 30
0.0
 10
178.1725639739897
 20
13.77291153966698
 30
0.0
 10
177.9595307117742
 20
13.75755254145202
 30
0.0
 10
177.7636297943188
 20
14.31403058094473
 30
0.0
 10
177.4611197631544
 20
14.57556035348515
 30
0.0
 10
177.3067935648021
 20
14.7089803820173
 30
0.0
 11
177.3067935648021
 21
14.7089803820173
 31
0.0
 11
176.8595529338511
 21
15.18757635411979
 31
0.0
 11
176.4124049070644
 21
15.6635264928897
 31
0.0
 11
176.4089664262494
 21
15.55086249986234
 31
0.0
 11
176.40556101835
 21
15.40557538184311
 31
0.0
 11
176.4029636920274
 21
15.21465645827973
 31
0.0
 11
176.4021126156603
 21
14.96521170139761
 31
0.0
 11
176.4025239230289
 21
14.88439802954281
 31
0.0
 11
176.4038420329817
 21
14.78640628477558
 31
0.0
 11
176.4055192267718
 21
14.67713557299736
 31
0.0
 11
176.4072367127518
 21
14.56282454872039
 31
0.0
 11
176.4094007838772
 21
14.44497802965265
 31
0.0
 11
176.4124049070644
 21
14.32545802100199
 31
0.0
 11
176.4158359733138
 21
14.20933349846156
 31
0.0
 11
176.4192928929998
 21
14.1018674655023
 31
0.0
 11
176.4227085253088
 21
14.00510162351269
 31
0.0
 11
176.4261896983793
 21
13.92125406276969
 31
0.0
 11
176.4296006184313
 21
13.85632862007763
 31
0.0
 11
176.4330776843148
 21
13.81626739612929
 31
0.0
 11
176.3754263821571
 21
13.82145433189191
 31
0.0
 11
176.3126746318309
 21
13.8231553822387
 31
0.0
 11
176.2464251717157
 21
13.82145433189191
 31
0.0
 11
176.1853747739675
 21
13.81626739612929
 31
0.0
 11
176.1926772737812
 21
13.86531894125596
 31
0.0
 11
176.2008793569054
 21
13.9435672572086
 31
0.0
 11
176.2090098822348
 21
14.04551893253032
 31
0.0
 11
176.2163406441397
 21
14.16542920159751
 31
0.0
 11
176.2236358280421
 21
14.30005912343891
 31
0.0
 11
176.2318444255596
 21
14.44586107652751
 31
0.0
 11
176.2395504149466
 21
14.59715203135076
 31
0.0
 11
176.2455763002094
 21
14.7485091320074
 31
0.0
 11
176.2503046247416
 21
14.8981795139144
 31
0.0
 11
176.254192897212
 21
15.04435739582229
 31
0.0
 11
176.2567527408965
 21
15.18111831592701
 31
0.0
 11
176.2576324804574
 21
15.30230850686888
 31
0.0
 11
176.257192610677
 21
15.60939715262542
 31
0.0
 11
176.2559126888347
 21
15.86997204839369
 31
0.0
 11
176.2528658717893
 21
16.07719922716125
 31
0.0
 11
176.2473049112763
 21
16.22421385386059
 31
0.0
 11
176.2615728121469
 21
16.22421385386059
 31
0.0
 11
176.2880703423352
 21
16.22421385386059
 31
0.0
 11
176.3023382432058
 21
16.22421385386059
 31
0.0
 11
176.5194743650277
 21
15.98910179662774
 31
0.0
 11
176.7512744123079
 21
15.7375128123156
 31
0.0
 11
176.989481601884
 21
15.47949555543573
 31
0.0
 11
177.2260074557521
 21
15.22497079855489
 31
0.0
 11
177.4555698717705
 21
14.97899759549139
 31
0.0
 11
177.6731797360103
 21
14.74678934034108
 31
0.0
 11
177.8713724913707
 21
14.53826680567101
 31
0.0
 11
178.0430143099086
 21
14.36326697932589
 31
0.0
 11
178.0430143099086
 21
14.38918210687043
 31
0.0
 11
178.0430143099086
 21
14.45601585685372
 31
0.0
 11
178.0430143099086
 21
14.54740078030025
 31
0.0
 11
178.0430143099086
 21
14.64696942823455
 31
0.0
 11
178.0430143099086
 21
14.73835435168108
 31
0.0
 11
178.0430143099086
 21
14.80518810166437
 31
0.0
 11
178.0430143099086
 21
14.83110322920891
 31
0.0
 11
178.0417233637609
 21
15.18755430550866
 31
0.0
 11
178.0378461155958
 21
15.53450684014419
 31
0.0
 11
178.0296197790002
 21
15.86693815950552
 31
0.0
 11
178.0154535467229
 21
16.17960510387181
 31
0.0
 11
178.0790351249619
 21
16.16666367158335
 31
0.0
 11
178.1324170159611
 21
16.16238072887609
 31
0.0
 11
178.1805381084833
 21
16.16666367158335
 31
0.0
 11
178.2424836798197
 21
16.17960510387181
 31
0.0
 11
178.2351216487575
 21
16.08498128445104
 31
0.0
 11
178.2269790968818
 21
15.9525749650397
 31
0.0
 11
178.2183705364004
 21
15.79600336785656
 31
0.0
 11
178.2097547223215
 21
15.62916593734269
 31
0.0
 11
178.2016187850288
 21
15.45890325509362
 31
0.0
 11
178.1942501393835
 21
15.292060312427
 31
0.0
 11
178.1891406931522
 21
15.14329943572812
 31
0.0
 11
178.1874503478904
 21
15.027221215271
 31
0.0
 11
178.1874503478904
 21
14.9325874739752
 31
0.0
 11
178.1874503478904
 21
14.82077565976709
 31
0.0
 11
178.1878461204497
 21
14.70123801222748
 31
0.0
 11
178.1890819450709
 21
14.5766005209392
 31
0.0
 11
178.1908392193317
 21
14.44883212687396
 31
0.0
 11
178.1925303477608
 21
14.32028982655879
 31
0.0
 11
178.1942876220215
 21
14.19558288214559
 31
0.0
 11
178.1959787504506
 21
14.07947489606349
 31
0.0
 11
178.1972884379172
 21
13.97495896727021
 31
0.0
 11
178.1976985420735
 21
13.88517371555659
 31
0.0
 11
178.1976985420735
 21
13.81891763918421
 31
0.0
 11
178.1976985420735
 21
13.77165864614051
 31
0.0
 11
178.1736699662976
 21
13.77165864614051
 31
0.0
 11
178.1496413905217
 21
13.77165864614051
 31
0.0
 11
177.7410729200423
 21
14.23466735262193
 31
0.0
 11
177.3067935648021
 21
14.7089803820173
 31
0.0
  0
SPLINE
  5
A8
102
{ACAD_REACTORS
330
C5
102
}
330
48
100
AcDbEntity
  8
_U_30EC_U_30A4_U_30E4_U_30FC_1
  6
Continuous
 62
     2
100
AcDbSpline
210
0.0
220
0.0
230
1.0
 70
    11
 71
     3
 72
   110
 73
   106
 74
   104
 42
0.000000001
 43
0.0000000001
 44
0.00000001
 40
0.0
 40
0.0
 40
0.0
 40
0.0
 40
0.220340625727811
 40
0.4407808782838446
 40
0.5952494494615717
 40
0.748843165939342
 40
0.9023581831309413
 40
1.05680196867044
 40
1.210736449099997
 40
1.363041386539819
 40
1.515315729683189
 40
1.669377239148197
 40
1.721611652756686
 40
1.773199502943039
 40
1.824933793210132
 40
1.877110426488081
 40
1.982682281206898
 40
2.078781667087736
 40
2.172809640822456
 40
2.271937807379109
 40
2.378349933379447
 40
2.494131557736694
 40
2.626681683943826
 40
2.783145050796254
 40
2.890701232941074
 40
2.993130312454918
 40
3.099869730691931
 40
3.220237816691473
 40
3.35269548273772
 40
3.481732806389944
 40
3.593499473690483
 40
3.674323013332001
 40
3.817951711952865
 40
3.946167120793862
 40
4.061405053453548
 40
4.166480796003188
 40
4.262478775059225
 40
4.350736673551181
 40
4.433071991254123
 40
4.51121629381467
 40
4.564262454117991
 40
4.618474415571621
 40
4.670128488754222
 40
4.722296879126484
 40
4.819540945314358
 40
4.931194984128212
 40
5.049996040257827
 40
5.168643755415286
 40
5.283970811762583
 40
5.392260784910438
 40
5.486512254876485
 40
5.559178233949827
 40
5.591425852853478
 40
5.626215969637852
 40
5.667155838674408
 40
5.717449290214164
 40
5.738402360944793
 40
5.784499116553794
 40
5.8305958721648
 40
5.851548942897672
 40
5.873019280661785
 40
5.924217778408327
 40
5.985325662817703
 40
6.036524160567714
 40
6.057994498334242
 40
6.236847789607486
 40
6.381409928945686
 40
6.493190424178688
 40
6.574067534230446
 40
6.69101808620554
 40
6.814881554220458
 40
6.944307823240467
 40
7.071266716066035
 40
7.193488604461878
 40
7.3090427731281
 40
7.414007203170732
 40
7.505140441886497
 40
7.531150360599702
 40
7.559221645322232
 40
7.587202218920956
 40
7.612569159499184
 40
7.662550809481036
 40
7.702878875764162
 40
7.857328205230977
 40
8.010799568088624
 40
8.165256399657574
 40
8.322232698713913
 40
8.479564855016571
 40
8.635216230290718
 40
8.790882550925721
 40
8.948305154947288
 40
9.168271839032988
 40
9.387358980987226
 40
9.608047961033495
 40
9.832914234792716
 40
9.858338694963049
 40
9.925366817230051
 40
10.02013071422763
 40
10.12876249859001
 40
10.2373942829525
 40
10.33215817995191
 40
10.39918630222394
 40
10.42461076239783
 40
10.64992019336943
 40
10.87188524531187
 40
10.87188524531187
 40
10.87188524531187
 40
10.87188524531187
 10
179.9057788376619
 20
15.73923260398189
 30
0.0
 10
179.9092864933542
 20
15.80616462073803
 30
0.0
 10
179.9163033987662
 20
15.94005891915859
 30
0.0
 10
179.8198027599072
 20
16.22548554971475
 30
0.0
 10
180.0510134726108
 20
16.16284386190281
 30
0.0
 10
180.1919290057157
 20
16.17001554055999
 30
0.0
 10
180.3490417757587
 20
16.16235883078242
 30
0.0
 10
180.5025913427288
 20
16.16252752283044
 30
0.0
 10
180.6545104935081
 20
16.16182040535431
 30
0.0
 10
180.8142214813232
 20
16.17210158351646
 30
0.0
 10
180.9408972601117
 20
16.15496511080748
 30
0.0
 10
181.1370821122083
 20
16.2272726010715
 30
0.0
 10
181.1034395279078
 20
16.12640699080121
 30
0.0
 10
181.1052011317184
 20
16.07619253947674
 30
0.0
 10
181.1027342073459
 20
16.0271233558647
 30
0.0
 10
181.1347076966012
 20
15.94063490847004
 30
0.0
 10
181.0010399903256
 20
15.98997438608336
 30
0.0
 10
180.9172208688057
 20
15.98430634314172
 30
0.0
 10
180.8173861139324
 20
15.99465516706299
 30
0.0
 10
180.7186576720146
 20
16.00086450411085
 30
0.0
 10
180.612153277111
 20
16.0069776381678
 30
0.0
 10
180.491051169806
 20
16.01588883484594
 30
0.0
 10
180.3703381502453
 20
16.0052160591238
 30
0.0
 10
180.1812553843437
 20
16.06468503080364
 30
0.0
 10
180.2129028505311
 20
15.90558320077542
 30
0.0
 10
180.1995563316835
 20
15.80839128339907
 30
0.0
 10
180.1974958426449
 20
15.69634065110106
 30
0.0
 10
180.195818804467
 20
15.57699685629352
 30
0.0
 10
180.1973336794233
 20
15.45032592155112
 30
0.0
 10
180.195658247867
 20
15.32301588016121
 30
0.0
 10
180.2058844271658
 20
15.22451566404468
 30
0.0
 10
180.1779006596583
 20
15.08388702625636
 30
0.0
 10
180.3508029999306
 20
15.13989551134099
 30
0.0
 10
180.4645020202771
 20
15.12719951478499
 30
0.0
 10
180.5840151672239
 20
15.1344837705126
 30
0.0
 10
180.6888491425071
 20
15.13878017056757
 30
0.0
 10
180.7843084898612
 20
15.14330568258981
 30
0.0
 10
180.8763823507032
 20
15.15149201146201
 30
0.0
 10
180.9476551782438
 20
15.14643850638113
 30
0.0
 10
181.0544931705685
 20
15.18536425031676
 30
0.0
 10
181.0226603598036
 20
15.10517122005882
 30
0.0
 10
181.026616450393
 20
15.05562936846036
 30
0.0
 10
181.0234502392013
 20
15.0055747803982
 30
0.0
 10
181.0550791490584
 20
14.92128847612016
 30
0.0
 10
180.9210133677692
 20
14.97425365495164
 30
0.0
 10
180.82923227932
 20
14.96540080890436
 30
0.0
 10
180.7079729189603
 20
14.97570049965157
 30
0.0
 10
180.5914113119772
 20
14.977489117675
 30
0.0
 10
180.4783375745879
 20
14.97787017109693
 30
0.0
 10
180.3679246308471
 20
14.98415449472183
 30
0.0
 10
180.2898124067841
 20
14.97189133255364
 30
0.0
 10
180.1913625833645
 20
15.00453887616125
 30
0.0
 10
180.2012355173561
 20
14.94769748054208
 30
0.0
 10
180.1973923244402
 20
14.91392130557987
 30
0.0
 10
180.1966789884268
 20
14.87119604709415
 30
0.0
 10
180.1963369642975
 20
14.83401607262159
 30
0.0
 10
180.1963834255345
 20
14.79487237370776
 30
0.0
 10
180.1963649429927
 20
14.75716849497688
 30
0.0
 10
180.1963703431806
 20
14.71944955232403
 30
0.0
 10
180.1963697214201
 20
14.68994324745148
 30
0.0
 10
180.1963698151545
 20
14.65873577699299
 30
0.0
 10
180.1963704287921
 20
14.61414424908083
 30
0.0
 10
180.1963671499337
 20
14.55963956508849
 30
0.0
 10
180.196375962348
 20
14.51505540201446
 30
0.0
 10
180.1963359653418
 20
14.4311780858574
 30
0.0
 10
180.1976024270255
 20
14.31737520677676
 30
0.0
 10
180.1950274117842
 20
14.16830395933708
 30
0.0
 10
180.2065009381719
 20
14.06597203813905
 30
0.0
 10
180.1823506222264
 20
13.93338903885839
 30
0.0
 10
180.3332993946476
 20
13.97895732272026
 30
0.0
 10
180.4428436671556
 20
13.96427012162355
 30
0.0
 10
180.573397047392
 20
13.96920435125063
 30
0.0
 10
180.6990312209514
 20
13.97257705323372
 30
0.0
 10
180.81887306256
 20
13.97711497498778
 30
0.0
 10
180.9391362611426
 20
13.99048536181997
 30
0.0
 10
181.0222761663516
 20
13.98068712782596
 30
0.0
 10
181.1456080421073
 20
14.04126214623329
 30
0.0
 10
181.1244269203958
 20
13.98532460134024
 30
0.0
 10
181.1235950270116
 20
13.95939249372349
 30
0.0
 10
181.1218963707558
 20
13.93197256190941
 30
0.0
 10
181.1217974888829
 20
13.89738195206385
 30
0.0
 10
181.120365930133
 20
13.86050408220768
 30
0.0
 10
181.153280419219
 20
13.76846841021808
 30
0.0
 10
180.9551306988107
 20
13.84132015974838
 30
0.0
 10
180.830054829489
 20
13.81825726508614
 30
0.0
 10
180.6673071295156
 20
13.82454021985793
 30
0.0
 10
180.5129366450001
 20
13.82260943909933
 30
0.0
 10
180.3566670436944
 20
13.82393762599276
 30
0.0
 10
180.1970544465282
 20
13.8205987248787
 30
0.0
 10
180.0540326342237
 20
13.83265795728247
 30
0.0
 10
179.8197144881628
 20
13.76952001976918
 30
0.0
 10
179.9173810751197
 20
14.05620527466319
 30
0.0
 10
179.900686878006
 20
14.24988308142661
 30
0.0
 10
179.9146296709684
 20
14.47848242880297
 30
0.0
 10
179.9142987846632
 20
14.63384593955051
 30
0.0
 10
179.9143078119264
 20
14.7396633644413
 30
0.0
 10
179.9143055876316
 20
14.80205784124217
 30
0.0
 10
179.9143065551888
 20
14.89220425248329
 30
0.0
 10
179.9143065473261
 20
14.99621167157439
 30
0.0
 10
179.9143053861102
 20
15.10022131375298
 30
0.0
 10
179.9143090971502
 20
15.19036243688768
 30
0.0
 10
179.9143011051051
 20
15.25276803097215
 30
0.0
 10
179.9143334275019
 20
15.3586883596112
 30
0.0
 10
179.9131440788319
 20
15.51626716544739
 30
0.0
 10
179.9082216489257
 20
15.66528219822065
 30
0.0
 10
179.9057788376619
 20
15.73923260398189
 30
0.0
 11
179.9057788376619
 21
15.73923260398189
 31
0.0
 11
179.896691822374
 21
15.9593857810102
 31
0.0
 11
179.8868249573133
 21
16.17960510387181
 31
0.0
 11
180.04115751414
 21
16.17312391463728
 31
0.0
 11
180.1946500189046
 21
16.16754892331929
 31
0.0
 11
180.3481160653366
 21
16.16367167505632
 31
0.0
 11
180.5025544554939
 21
16.16238072887609
 31
0.0
 11
180.6564835227474
 21
16.16367167505632
 31
0.0
 11
180.80873910046
 21
16.16754892331929
 31
0.0
 11
180.9609113551074
 21
16.17312391463728
 31
0.0
 11
181.1148364762484
 21
16.17960510387181
 31
0.0
 11
181.1070811703124
 21
16.12794961777361
 31
0.0
 11
181.1044991623591
 21
16.0764264233421
 31
0.0
 11
181.1070811703124
 21
16.02475660564662
 31
0.0
 11
181.1148364762484
 21
15.9731595483679
 31
0.0
 11
181.0094874054411
 21
15.98001446156059
 31
0.0
 11
180.913637570006
 21
15.9869355205866
 31
0.0
 11
180.8198593171903
 21
15.993783819196
 31
0.0
 11
180.7209679915881
 21
16.0006321178054
 31
0.0
 11
180.6147532199924
 21
16.00710999974827
 31
0.0
 11
180.4991060528038
 21
16.012688298358
 31
0.0
 11
180.3666126447258
 21
16.01656554662087
 31
0.0
 11
180.2101546018423
 21
16.01785649280109
 31
0.0
 11
180.2062663293721
 21
15.91037061609187
 31
0.0
 11
180.2015380048401
 21
15.8080507289647
 31
0.0
 11
180.1976607566749
 21
15.7013817532969
 31
0.0
 11
180.1963698105272
 21
15.58102059013248
 31
0.0
 11
180.1967799146836
 21
15.44856355891567
 31
0.0
 11
180.1980896021502
 21
15.3195328818646
 31
0.0
 11
180.199407457705
 21
15.20777398432313
 31
0.0
 11
180.1998191153661
 21
15.12695149302388
 31
0.0
 11
180.3434452935874
 21
15.12780256941253
 31
0.0
 11
180.4716343930758
 21
15.13039989580079
 31
0.0
 11
180.5868078221795
 21
15.13425509545258
 31
0.0
 11
180.691775631222
 21
15.13901649302079
 31
0.0
 11
180.7876346289421
 21
15.14418027774178
 31
0.0
 11
180.8757413374193
 21
15.14934406246269
 31
0.0
 11
180.9578881438497
 21
15.15491243919742
 31
0.0
 11
181.0357692335571
 21
15.16132086801528
 31
0.0
 11
181.0280180445186
 21
15.1088440711534
 31
0.0
 11
181.0254328449317
 21
15.0546937847086
 31
0.0
 11
181.0280180445186
 21
15.00310444444369
 31
0.0
 11
181.0357692335571
 21
14.95151510417878
 31
0.0
 11
180.9389813454014
 21
14.96092324653759
 31
0.0
 11
180.8275950722015
 21
14.9686512847301
 31
0.0
 11
180.7089261429373
 21
14.97425273438146
 31
0.0
 11
180.5903167449214
 21
14.9772678819501
 31
0.0
 11
180.4750025117521
 21
14.97898767361638
 31
0.0
 11
180.36672619507
 21
14.98070746528259
 31
0.0
 11
180.2724839317708
 21
14.98202486979617
 31
0.0
 11
180.1998191153661
 21
14.9824360763933
 31
0.0
 11
180.199407457705
 21
14.95019108508193
 31
0.0
 11
180.1980896021502
 21
14.91542593752121
 31
0.0
 11
180.1967799146836
 21
14.87450702260087
 31
0.0
 11
180.1963698105272
 21
14.82421524309959
 31
0.0
 11
180.1963698105272
 21
14.80326217235828
 31
0.0
 11
180.1963698105272
 21
14.75716541672739
 31
0.0
 11
180.1963698105272
 21
14.7110686610965
 31
0.0
 11
180.1963698105272
 21
14.69011559035519
 31
0.0
 11
180.1963698105272
 21
14.66864525258278
 31
0.0
 11
180.1963698105272
 21
14.61744675481782
 31
0.0
 11
180.1963698105272
 21
14.55633887038866
 31
0.0
 11
180.1963698105272
 21
14.5051403726237
 31
0.0
 11
180.1963698105272
 21
14.48367003485129
 31
0.0
 11
180.1967799146836
 21
14.30481721371547
 31
0.0
 11
180.1980896021502
 21
14.16026100715439
 31
0.0
 11
180.2002868589709
 21
14.04850210961289
 31
0.0
 11
180.2032586986985
 21
13.9676796183137
 31
0.0
 11
180.3202092517447
 21
13.9676796183137
 31
0.0
 11
180.4440727208746
 21
13.9676796183137
 31
0.0
 11
180.5734925526423
 21
13.96897056449392
 31
0.0
 11
180.7003922282244
 21
13.9728478127569
 31
0.0
 11
180.8224658067973
 21
13.97886708358869
 31
0.0
 11
180.9377587499463
 21
13.98663260441998
 31
0.0
 11
181.0421754573518
 21
13.99734161483403
 31
0.0
 11
181.1320599255448
 21
14.01237656274699
 31
0.0
 11
181.1264254031191
 21
13.98698427976716
 31
0.0
 11
181.1234433285423
 21
13.95907184053809
 31
0.0
 11
181.12213398812
 21
13.93112191867003
 31
0.0
 11
181.1217235369195
 21
13.90575829888471
 31
0.0
 11
181.1243087365064
 21
13.85584355063327
 31
0.0
 11
181.1320599255448
 21
13.81626739612929
 31
0.0
 11
180.9776977178344
 21
13.82145433189191
 31
0.0
 11
180.8242357818765
 21
13.8231553822387
 31
0.0
 11
180.6697789496483
 21
13.8231553822387
 31
0.0
 11
180.5128026496768
 21
13.8231553822387
 31
0.0
 11
180.3554704921536
 21
13.8231553822387
 31
0.0
 11
180.1998191153661
 21
13.8231553822387
 31
0.0
 11
180.0441620874241
 21
13.82145433189191
 31
0.0
 11
179.8868249573133
 21
13.81626739612929
 31
0.0
 11
179.896691822374
 21
14.03601267385213
 31
0.0
 11
179.9057788376619
 21
14.2549112849085
 31
0.0
 11
179.91217215184
 21
14.47550763902005
 31
0.0
 11
179.9143063455009
 21
14.70036378479719
 31
0.0
 11
179.9143063455009
 21
14.72578824496878
 31
0.0
 11
179.9143063455009
 21
14.79281636723935
 31
0.0
 11
179.9143063455009
 21
14.88758026424256
 31
0.0
 11
179.9143063455009
 21
14.99621204861209
 31
0.0
 11
179.9143063455009
 21
15.10484383298163
 31
0.0
 11
179.9143063455009
 21
15.19960772998484
 31
0.0
 11
179.9143063455009
 21
15.2666358522554
 31
0.0
 11
179.9143063455009
 21
15.292060312427
 31
0.0
 11
179.9121721518401
 21
15.51735963528735
 31
0.0
 11
179.9057788376619
 21
15.73923260398189
 31
0.0
  0
SPLINE
  5
A9
102
{ACAD_REACTORS
330
C6
102
}
330
48
100
AcDbEntity
  8
_U_30EC_U_30A4_U_30E4_U_30FC_1
  6
Continuous
 62
     2
100
AcDbSpline
210
0.0
220
0.0
230
1.0
 70
    11
 71
     3
 72
    47
 73
    43
 74
    41
 42
0.000000001
 43
0.0000000001
 44
0.00000001
 40
0.0
 40
0.0
 40
0.0
 40
0.0
 40
0.2207912809957763
 40
0.4459404186303557
 40
0.4902387190459803
 40
0.5327473892722695
 40
0.5742260451226336
 40
0.6155432630562194
 40
0.6568164066316825
 40
0.6982511618781216
 40
0.7407663929317665
 40
0.7851366743175756
 40
1.010288833836371
 40
1.231080507002276
 40
1.451765243652435
 40
1.67663820589174
 40
1.720461045359713
 40
1.830018144043579
 40
1.972442372353213
 40
2.114866600677582
 40
2.224423699395211
 40
2.268246538883452
 40
2.493628801207263
 40
2.715602830286692
 40
2.934211330706411
 40
3.14950236985542
 40
3.231387784851039
 40
3.318231873854018
 40
3.405143198198035
 40
3.48697030172053
 40
3.702258172493988
 40
3.920866283534184
 40
4.142839325932001
 40
4.368221903865445
 40
4.412044743359926
 40
4.521601842095942
 40
4.664026070452424
 40
4.806450298809137
 40
4.916007397546831
 40
4.959830237043155
 40
5.184703515847207
 40
5.405387250767514
 40
5.405387250767514
 40
5.405387250767514
 40
5.405387250767514
 10
182.6507427258645
 20
15.73406440953869
 30
0.0
 10
182.6568139420003
 20
15.79758482501208
 30
0.0
 10
182.6690762107242
 20
15.92587938689623
 30
0.0
 10
182.5604706879413
 20
16.20166220174086
 30
0.0
 10
182.6761985896604
 20
16.17188133432051
 30
0.0
 10
182.7171842509015
 20
16.16765556262828
 30
0.0
 10
182.7591205797518
 20
16.16310446389605
 30
0.0
 10
182.800419662571
 20
16.16201982929489
 30
0.0
 10
182.8417032115556
 20
16.16310338195225
 30
0.0
 10
182.8836148270647
 20
16.16766112711352
 30
0.0
 10
182.9245983549019
 20
16.17187430209725
 30
0.0
 10
183.0404922843488
 20
16.20177611317543
 30
0.0
 10
182.9295652727456
 20
15.92339806609886
 30
0.0
 10
182.9574856365267
 20
15.74283140824954
 30
0.0
 10
182.9404267346969
 20
15.50961042346472
 30
0.0
 10
182.9414637282102
 20
15.34906622543148
 30
0.0
 10
182.9414099399405
 20
15.22284817558723
 30
0.0
 10
182.9414277372481
 20
15.12428963336243
 30
0.0
 10
182.941418858108
 20
14.99280702442964
 30
0.0
 10
182.9414263928034
 20
14.86132844968651
 30
0.0
 10
182.9414129405128
 20
14.76276222694091
 30
0.0
 10
182.9414531717492
 20
14.63639735624154
 30
0.0
 10
182.9406746403817
 20
14.47482068822871
 30
0.0
 10
182.9565958319267
 20
14.24361821892916
 30
0.0
 10
182.9333468885408
 20
14.05874351972005
 30
0.0
 10
183.0360183444365
 20
13.78935602770054
 30
0.0
 10
182.8820238362837
 20
13.82660112685822
 30
0.0
 10
182.8004129802832
 20
13.82137994680543
 30
0.0
 10
182.7188192292583
 20
13.82660620378357
 30
0.0
 10
182.5648513666842
 20
13.78937069885383
 30
0.0
 10
182.6674183421917
 20
14.05875129862882
 30
0.0
 10
182.6442045316088
 20
14.24361585325416
 30
0.0
 10
182.6600444655138
 20
14.47482218565639
 30
0.0
 10
182.6593296313427
 20
14.63639712308505
 30
0.0
 10
182.6593664569907
 20
14.76276231210521
 30
0.0
 10
182.6593549000271
 20
14.86132756635983
 30
0.0
 10
182.6593575019213
 20
14.9928112741722
 30
0.0
 10
182.6593648531779
 20
15.12427548031201
 30
0.0
 10
182.659344254135
 20
15.22287786275327
 30
0.0
 10
182.6594082192028
 20
15.34896149354429
 30
0.0
 10
182.658173394759
 20
15.51210091383772
 30
0.0
 10
182.6532040396745
 20
15.66054183777548
 30
0.0
 10
182.6507427258645
 20
15.73406440953869
 30
0.0
 11
182.6507427258645
 21
15.73406440953869
 31
0.0
 11
182.6417328200379
 21
15.9546717879558
 31
0.0
 11
182.6318769706146
 21
16.17960510387181
 31
0.0
 11
182.6756985840801
 21
16.17312391463728
 31
0.0
 11
182.7178400934215
 21
16.16754892331929
 31
0.0
 11
182.7591371409791
 21
16.16367167505632
 31
0.0
 11
182.8004341885366
 21
16.16238072887609
 31
0.0
 11
182.8416871388731
 21
16.16367167505632
 31
0.0
 11
182.8829400892097
 21
16.16754892331929
 31
0.0
 11
182.9250882131343
 21
16.17312391463728
 31
0.0
 11
182.9689825870145
 21
16.17960510387181
 31
0.0
 11
182.9590577693891
 21
15.9546717879558
 31
0.0
 11
182.950038420831
 21
15.73406440953869
 31
0.0
 11
182.9435638463435
 21
15.51347467001058
 31
0.0
 11
182.9414218238286
 21
15.28861190965009
 31
0.0
 11
182.9414218238286
 21
15.24478907015487
 31
0.0
 11
182.9414218238286
 21
15.13523197141684
 31
0.0
 11
182.9414218238286
 21
14.99280774305738
 31
0.0
 11
182.9414218238286
 21
14.85038351469793
 31
0.0
 11
182.9414218238286
 21
14.74082641595989
 31
0.0
 11
182.9414218238286
 21
14.69700357646468
 31
0.0
 11
182.9435638463435
 21
14.47163149318769
 31
0.0
 11
182.950038420831
 21
14.2497519099098
 31
0.0
 11
182.9590577693891
 21
14.03132954885332
 31
0.0
 11
182.9689825870145
 21
13.81626739612929
 31
0.0
 11
182.887261616877
 21
13.82145433189191
 31
0.0
 11
182.8004341885366
 21
13.8231553822387
 31
0.0
 11
182.713539511934
 21
13.82145433189191
 31
0.0
 11
182.6318769706146
 21
13.81626739612929
 31
0.0
 11
182.6417328200379
 21
14.03132954885332
 31
0.0
 11
182.6507427258645
 21
14.2497519099098
 31
0.0
 11
182.6571833838798
 21
14.47163149318769
 31
0.0
 11
182.6593583588023
 21
14.69700357646468
 31
0.0
 11
182.6593583588023
 21
14.74082641595989
 31
0.0
 11
182.6593583588023
 21
14.85038351469793
 31
0.0
 11
182.6593583588023
 21
14.99280774305738
 31
0.0
 11
182.6593583588023
 21
15.13523197141684
 31
0.0
 11
182.6593583588023
 21
15.24478907015487
 31
0.0
 11
182.6593583588023
 21
15.28861190965009
 31
0.0
 11
182.6571833838798
 21
15.51347467001058
 31
0.0
 11
182.6507427258645
 21
15.73406440953869
 31
0.0
  0
SPLINE
  5
AA
102
{ACAD_REACTORS
330
C7
102
}
330
48
100
AcDbEntity
  8
_U_30EC_U_30A4_U_30E4_U_30FC_1
  6
Continuous
 62
     2
100
AcDbSpline
210
0.0
220
0.0
230
1.0
 70
    11
 71
     3
 72
   118
 73
   114
 74
   112
 42
0.000000001
 43
0.0000000001
 44
0.00000001
 40
0.0
 40
0.0
 40
0.0
 40
0.0
 40
0.1054708162972979
 40
0.2466098270051312
 40
0.3965912874590529
 40
0.528552506975333
 40
0.6156245055641599
 40
0.6431434105796869
 40
0.7036850037985488
 40
0.76422659845038
 40
0.7917455052354075
 40
0.9287404319989074
 40
1.10657281908794
 40
1.28754487968086
 40
1.317578308030375
 40
1.399928030857001
 40
1.522968204799768
 40
1.675072986590374
 40
1.844616533180437
 40
2.019973001638483
 40
2.189516548879783
 40
2.341621331585104
 40
2.464661506320231
 40
2.547011229646786
 40
2.577044658167748
 40
2.603797890892819
 40
2.662655002908563
 40
2.721512114949431
 40
2.748265347702611
 40
2.774215307344686
 40
2.845959313407014
 40
2.954338556588208
 40
3.090194227585382
 40
3.244367517100339
 40
3.407699615844093
 40
3.571031714539236
 40
3.725205003919906
 40
3.861060674729403
 40
3.969439917716091
 40
4.041183923628763
 40
4.067133883212755
 40
4.311886746011973
 40
4.547897258335348
 40
4.764747083043768
 40
4.952749679951528
 40
5.04577297419561
 40
5.13786201964466
 40
5.330543169792716
 40
5.553448265243721
 40
5.795083855887897
 40
6.043293412176974
 40
6.285761695540934
 40
6.313902908752418
 40
6.384255941793008
 40
6.475714884766596
 40
6.567173827758658
 40
6.637526860839436
 40
6.6656680740738
 40
6.692018920327762
 40
6.749990782070808
 40
6.807962643790153
 40
6.834313490017616
 40
6.856393084244894
 40
6.913335195649518
 40
6.991194817302182
 40
7.076026942283443
 40
7.153886563724933
 40
7.210828674844516
 40
7.232908268930851
 40
7.258199334923374
 40
7.324875781592029
 40
7.419142481924693
 40
7.527204308841643
 40
7.63526613523023
 40
7.729532834168223
 40
7.796209279292549
 40
7.821500344594499
 40
7.844652988850569
 40
7.899863140541349
 40
7.965759128053516
 40
8.020969279770801
 40
8.044121924046268
 40
8.069356610160316
 40
8.109134395441014
 40
8.13223810019073
 40
8.193147867786095
 40
8.279261678876274
 40
8.377977512673493
 40
8.476693347146284
 40
8.56280716041134
 40
8.623716930826129
 40
8.646820636853084
 40
8.671988793773897
 40
8.734909185827751
 40
8.816705695188466
 40
8.898502204815008
 40
8.96142259737744
 40
8.986590754550553
 40
9.012941600732697
 40
9.070913462379758
 40
9.12888532408123
 40
9.155236170324539
 40
9.180404327928581
 40
9.243324721947626
 40
9.325121234211363
 40
9.406917746637017
 40
9.469838141977473
 40
9.495006288270218
 40
9.517811184378365
 40
9.572192090486382
 40
9.637098333280628
 40
9.691479239514845
 40
9.71428412564289
 40
9.71428412564289
 40
9.71428412564289
 40
9.71428412564289
 10
185.2874469028654
 20
15.26889163187718
 30
0.0
 10
185.3090990569038
 20
15.2411186924281
 30
0.0
 10
185.3597257109474
 20
15.17618054561234
 30
0.0
 10
185.4349383202592
 20
15.06891060312898
 30
0.0
 10
185.5248482274346
 20
14.95377438266624
 30
0.0
 10
185.5709169676673
 20
14.85357045748318
 30
0.0
 10
185.6655825294654
 20
14.78434006814941
 30
0.0
 10
185.6204439320413
 20
14.73771639678272
 30
0.0
 10
185.594704778579
 20
14.69660308866038
 30
0.0
 10
185.5645196708011
 20
14.6606597172794
 30
0.0
 10
185.5193684730562
 20
14.58579782596094
 30
0.0
 10
185.4710504458562
 20
14.80782524253606
 30
0.0
 10
185.3968539713074
 20
14.8451067733771
 30
0.0
 10
185.2836047324607
 20
15.11610202130593
 30
0.0
 10
185.2885133578171
 20
15.00095328446227
 30
0.0
 10
185.2868486556306
 20
14.92836675781625
 30
0.0
 10
185.2876830076716
 20
14.80625588483986
 30
0.0
 10
185.2873609540264
 20
14.65913800810461
 30
0.0
 10
185.2875076912457
 20
14.4930706395656
 30
0.0
 10
185.2872950092723
 20
14.32187554608605
 30
0.0
 10
185.2879497252035
 20
14.15552828635503
 30
0.0
 10
185.285919246114
 20
14.00935173055699
 30
0.0
 10
185.2913460399932
 20
13.88471047474619
 30
0.0
 10
185.2804930868709
 20
13.81718656540635
 30
0.0
 10
185.2956739155555
 20
13.75549061417031
 30
0.0
 10
185.2457895108135
 20
13.76727503897012
 30
0.0
 10
185.2017150342522
 20
13.75943822779977
 30
0.0
 10
185.1582371630201
 20
13.76760441372713
 30
0.0
 10
185.1092346786488
 20
13.75538056738476
 30
0.0
 10
185.1218731234826
 20
13.80960667249323
 30
0.0
 10
185.1130182968449
 20
13.86936918907566
 30
0.0
 10
185.1175058770314
 20
13.97922029044378
 30
0.0
 10
185.1157960135991
 20
14.11029975405686
 30
0.0
 10
185.1163550915986
 20
14.26198011444334
 30
0.0
 10
185.1161928768694
 20
14.42211074929959
 30
0.0
 10
185.1162269924675
 20
14.58236865674572
 30
0.0
 10
185.1162514960127
 20
14.73370247520445
 30
0.0
 10
185.1161453543224
 20
14.86582156338606
 30
0.0
 10
185.1164299141932
 20
14.97294802533198
 30
0.0
 10
185.1158675547567
 20
15.03808619579478
 30
0.0
 10
185.1180765083689
 20
15.1661895785868
 30
0.0
 10
185.0319435998602
 20
14.79097610391576
 30
0.0
 10
184.95551408185
 20
14.63918193123395
 30
0.0
 10
184.8660040767833
 20
14.47766206446308
 30
0.0
 10
184.7640413217326
 20
14.20471848820181
 30
0.0
 10
184.7187976491038
 20
14.36717346596512
 30
0.0
 10
184.6102355941671
 20
14.45605432058119
 30
0.0
 10
184.7995791751753
 20
14.60549794961408
 30
0.0
 10
184.85653405457
 20
14.79749136974925
 30
0.0
 10
184.9717520993352
 20
15.02899622906759
 30
0.0
 10
184.9940151630132
 20
15.21797259759066
 30
0.0
 10
185.177190515214
 20
15.49454089325936
 30
0.0
 10
185.0538033597552
 20
15.48698978832099
 30
0.0
 10
184.9925684166834
 20
15.48856772366124
 30
0.0
 10
184.9081999617064
 20
15.48882592573677
 30
0.0
 10
184.8204235085966
 20
15.48544845751211
 30
0.0
 10
184.7656768696122
 20
15.49394814982025
 30
0.0
 10
184.7104703026024
 20
15.48048561049793
 30
0.0
 10
184.7222823035536
 20
15.52931442126766
 30
0.0
 10
184.7142496151794
 20
15.5726900489671
 30
0.0
 10
184.7228186104679
 20
15.61509438309573
 30
0.0
 10
184.7102943409157
 20
15.66267796552116
 30
0.0
 10
184.7555101538735
 20
15.65267212995107
 30
0.0
 10
184.8014815562723
 20
15.65894105174059
 30
0.0
 10
184.877722204771
 20
15.6559356140587
 30
0.0
 10
184.9561296131993
 20
15.65770448278539
 30
0.0
 10
185.0323992648932
 20
15.65464793981658
 30
0.0
 10
185.0783009459475
 20
15.66103971376176
 30
0.0
 10
185.12317339654
 20
15.65093822978894
 30
0.0
 10
185.1105552275634
 20
15.70157201581898
 30
0.0
 10
185.1191936582707
 20
15.75501261882068
 30
0.0
 10
185.1152361595442
 20
15.8486325513168
 30
0.0
 10
185.1162325068335
 20
15.95112606688924
 30
0.0
 10
185.1171927413073
 20
16.05353270248164
 30
0.0
 10
185.1133211458006
 20
16.14735929609324
 30
0.0
 10
185.1217789814364
 20
16.20036542840355
 30
0.0
 10
185.1093075932835
 20
16.25211435651191
 30
0.0
 10
185.1542106389849
 20
16.23850747226759
 30
0.0
 10
185.1955083836772
 20
16.24100480320586
 30
0.0
 10
185.259534428105
 20
16.23648060574489
 30
0.0
 10
185.2986111148786
 20
16.22781003043308
 30
0.0
 10
185.3476543498742
 20
16.23515102070687
 30
0.0
 10
185.3225080030591
 20
16.19602896051765
 30
0.0
 10
185.2815901333725
 20
16.20563842455806
 30
0.0
 10
185.2910109616604
 20
16.15540148169779
 30
0.0
 10
185.2855647318747
 20
16.1038594563949
 30
0.0
 10
185.2881699601805
 20
16.0195970758452
 30
0.0
 10
185.2870102202156
 20
15.92559135583408
 30
0.0
 10
185.2883591064232
 20
15.83196865395524
 30
0.0
 10
185.284997010151
 20
15.74679517552222
 30
0.0
 10
185.292095991777
 20
15.69716856072042
 30
0.0
 10
185.2812569154547
 20
15.64993694969987
 30
0.0
 10
185.3304010225246
 20
15.66201674936849
 30
0.0
 10
185.3794877630148
 20
15.65447393363009
 30
0.0
 10
185.4573714280641
 20
15.6568607036143
 30
0.0
 10
185.5350365172896
 20
15.65899381905413
 30
0.0
 10
185.5845393931354
 20
15.65193391922452
 30
0.0
 10
185.6344594750639
 20
15.66360151936212
 30
0.0
 10
185.622319851688
 20
15.61540235371393
 30
0.0
 10
185.6305838229143
 20
15.57249219801237
 30
0.0
 10
185.6223198650784
 20
15.52958201851388
 30
0.0
 10
185.6344594549854
 20
15.48138288754869
 30
0.0
 10
185.5845395158746
 20
15.49305034471516
 30
0.0
 10
185.5350350651203
 20
15.4859920243505
 30
0.0
 10
185.4573784382973
 20
15.48811665228609
 30
0.0
 10
185.379464386576
 20
15.49053389365764
 30
0.0
 10
185.3304500352718
 20
15.48291848194491
 30
0.0
 10
185.2813246108944
 20
15.49507952557596
 30
0.0
 10
185.2915559988573
 20
15.45073013424162
 30
0.0
 10
185.2856677678054
 20
15.40925436202914
 30
0.0
 10
185.287878830557
 20
15.34915394315304
 30
0.0
 10
185.2874109346147
 20
15.30225782762888
 30
0.0
 10
185.2874386992914
 20
15.27650146418195
 30
0.0
 10
185.2874469028654
 20
15.26889163187718
 30
0.0
 11
185.2874469028654
 21
15.26889163187718
 31
0.0
 11
185.3516977534485
 21
15.18524999634256
 31
0.0
 11
185.4348258835499
 21
15.07118889748221
 31
0.0
 11
185.5216831568896
 21
14.94891767195723
 31
0.0
 11
185.5971214371872
 21
14.84064565642875
 31
0.0
 11
185.6459925881626
 21
14.76858218755788
 31
0.0
 11
185.6296821285093
 21
14.74641782124398
 31
0.0
 11
185.5937991172719
 21
14.69765621535339
 31
0.0
 11
185.5579161060346
 21
14.6488946094628
 31
0.0
 11
185.5416056463813
 21
14.6267302431489
 31
0.0
 11
185.4763067109446
 21
14.74716139023815
 31
0.0
 11
185.3848434243235
 21
14.89966983670208
 31
0.0
 11
185.2874469028654
 21
15.05219788193139
 31
0.0
 11
185.2874469028654
 21
15.0221644532825
 31
0.0
 11
185.2874469028654
 21
14.93981472956781
 31
0.0
 11
185.2874469028654
 21
14.81677455413527
 31
0.0
 11
185.2874469028654
 21
14.66466977033284
 31
0.0
 11
185.2874469028654
 21
14.49512622150847
 31
0.0
 11
185.2874469028654
 21
14.31976975101013
 31
0.0
 11
185.2874469028654
 21
14.15022620218576
 31
0.0
 11
185.2874469028654
 21
13.99812141838333
 31
0.0
 11
185.2874469028654
 21
13.87508124295079
 31
0.0
 11
185.2874469028654
 21
13.7927315192361
 31
0.0
 11
185.2874469028654
 21
13.76269809058721
 31
0.0
 11
185.260693670041
 21
13.76269809058721
 31
0.0
 11
185.2018365578272
 21
13.76269809058721
 31
0.0
 11
185.1429794456134
 21
13.76269809058721
 31
0.0
 11
185.116226212789
 21
13.76269809058721
 31
0.0
 11
185.116226212789
 21
13.78864805031259
 31
0.0
 11
185.116226212789
 21
13.86039205661216
 31
0.0
 11
185.116226212789
 21
13.9687713001711
 31
0.0
 11
185.116226212789
 21
14.10462697167455
 31
0.0
 11
185.116226212789
 21
14.25880026180768
 31
0.0
 11
185.116226212789
 21
14.42213236125565
 31
0.0
 11
185.116226212789
 21
14.58546446070362
 31
0.0
 11
185.116226212789
 21
14.73963775083675
 31
0.0
 11
185.116226212789
 21
14.8754934223402
 31
0.0
 11
185.116226212789
 21
14.98387266589913
 31
0.0
 11
185.116226212789
 21
15.05561667219871
 31
0.0
 11
185.116226212789
 21
15.08156663192409
 31
0.0
 11
185.0379865861721
 21
14.84965603302373
 31
0.0
 11
184.9497110789303
 21
14.63077616328678
 31
0.0
 11
184.8544106930045
 21
14.43598991333549
 31
0.0
 11
184.7550964303356
 21
14.27636017379209
 31
0.0
 11
184.7109198342406
 21
14.35822446196601
 31
0.0
 11
184.658805738348
 21
14.43414885430809
 31
0.0
 11
184.7627302590299
 21
14.59640087926756
 31
0.0
 11
184.8629319864735
 21
14.79551465421781
 31
0.0
 11
184.9550446607901
 21
15.01890447916198
 31
0.0
 11
185.0347020220912
 21
15.25398465410323
 31
0.0
 11
185.097537810488
 21
15.4881694790447
 31
0.0
 11
185.0693965972142
 21
15.4881694790447
 31
0.0
 11
184.9990435640297
 21
15.4881694790447
 31
0.0
 11
184.9075846208898
 21
15.4881694790447
 31
0.0
 11
184.8161256777499
 21
15.4881694790447
 31
0.0
 11
184.7457726445654
 21
15.4881694790447
 31
0.0
 11
184.7176314312916
 21
15.4881694790447
 31
0.0
 11
184.7176314312916
 21
15.51452032539226
 31
0.0
 11
184.7176314312916
 21
15.5724921873569
 31
0.0
 11
184.7176314312916
 21
15.63046404932154
 31
0.0
 11
184.7176314312916
 21
15.6568148956691
 31
0.0
 11
184.739711025602
 21
15.6568148956691
 31
0.0
 11
184.7966531372444
 21
15.6568148956691
 31
0.0
 11
184.8745127592862
 21
15.6568148956691
 31
0.0
 11
184.9593448847944
 21
15.6568148956691
 31
0.0
 11
185.0372045068361
 21
15.6568148956691
 31
0.0
 11
185.0941466184786
 21
15.6568148956691
 31
0.0
 11
185.116226212789
 21
15.6568148956691
 31
0.0
 11
185.116226212789
 21
15.68210596174351
 31
0.0
 11
185.116226212789
 21
15.74878240866696
 31
0.0
 11
185.116226212789
 21
15.84304910948976
 31
0.0
 11
185.116226212789
 21
15.95111093726224
 31
0.0
 11
185.116226212789
 21
16.05917276503473
 31
0.0
 11
185.116226212789
 21
16.15343946585753
 31
0.0
 11
185.116226212789
 21
16.22011591278098
 31
0.0
 11
185.116226212789
 21
16.24540697885539
 31
0.0
 11
185.1393181988665
 21
16.24373213107803
 31
0.0
 11
185.1943837041284
 21
16.23973826330123
 31
0.0
 11
185.2601070491184
 21
16.23497138885797
 31
0.0
 11
185.3151725543802
 21
16.23097752108117
 31
0.0
 11
185.3382645404578
 21
16.22930267330381
 31
0.0
 11
185.3249012644362
 21
16.20789677921194
 31
0.0
 11
185.2874469028654
 21
16.1945011455347
 31
0.0
 11
185.2874469028654
 21
16.17139743948579
 31
0.0
 11
185.2874469028654
 21
16.1104876689932
 31
0.0
 11
185.2874469028654
 21
16.02437385553816
 31
0.0
 11
185.2874469028654
 21
15.9256580206019
 31
0.0
 11
185.2874469028654
 21
15.82694218566564
 31
0.0
 11
185.2874469028654
 21
15.7408283722106
 31
0.0
 11
185.2874469028654
 21
15.67991860171801
 31
0.0
 11
185.2874469028654
 21
15.6568148956691
 31
0.0
 11
185.312615060481
 21
15.6568148956691
 31
0.0
 11
185.3755354545199
 21
15.6568148956691
 31
0.0
 11
185.4573319667706
 21
15.6568148956691
 31
0.0
 11
185.5391284790213
 21
15.6568148956691
 31
0.0
 11
185.6020488730602
 21
15.6568148956691
 31
0.0
 11
185.6272170306758
 21
15.6568148956691
 31
0.0
 11
185.6272170306758
 21
15.63046404932154
 31
0.0
 11
185.6272170306758
 21
15.5724921873569
 31
0.0
 11
185.6272170306758
 21
15.51452032539226
 31
0.0
 11
185.6272170306758
 21
15.4881694790447
 31
0.0
 11
185.6020488730602
 21
15.4881694790447
 31
0.0
 11
185.5391284790213
 21
15.4881694790447
 31
0.0
 11
185.4573319667706
 21
15.4881694790447
 31
0.0
 11
185.37553545452
 21
15.4881694790447
 31
0.0
 11
185.312615060481
 21
15.4881694790447
 31
0.0
 11
185.2874469028654
 21
15.4881694790447
 31
0.0
 11
185.2874469028654
 21
15.46536458293928
 31
0.0
 11
185.2874469028654
 21
15.41098367684173
 31
0.0
 11
185.2874469028654
 21
15.34607743408015
 31
0.0
 11
185.2874469028654
 21
15.2916965279826
 31
0.0
 11
185.2874469028654
 21
15.26889163187718
 31
0.0
  0
SPLINE
  5
AB
102
{ACAD_REACTORS
330
C8
102
}
330
48
100
AcDbEntity
  8
_U_30EC_U_30A4_U_30E4_U_30FC_1
  6
Continuous
 62
     2
100
AcDbSpline
210
0.0
220
0.0
230
1.0
 70
    11
 71
     3
 72
    91
 73
    87
 74
    85
 42
0.000000001
 43
0.0000000001
 44
0.00000001
 40
0.0
 40
0.0
 40
0.0
 40
0.0
 40
0.0345987051695718
 40
0.1258134969461369
 40
0.2547723404888987
 40
0.4026032099154125
 40
0.5504340793416704
 40
0.679392922883608
 40
0.7706077146571035
 40
0.8052064287780925
 40
1.124852390615279
 40
1.427402236308877
 40
1.706356627453524
 40
1.955541417875218
 40
2.169485938566373
 40
2.344350786664835
 40
2.48056841156199
 40
2.590440557429012
 40
2.649189927151173
 40
2.749320643306404
 40
2.912632739880117
 40
3.147745656000291
 40
3.244827496385052
 40
3.338490056946674
 40
3.583815413207083
 40
3.761423943238435
 40
3.886956104362591
 40
3.98585545188675
 40
4.091766255337634
 40
4.250186473811828
 40
4.422734315084474
 40
4.628285684838571
 40
4.872093227758405
 40
5.152549652145514
 40
5.464967135837496
 40
5.803201477852409
 40
6.160362988813878
 40
6.193449448275933
 40
6.284170385501588
 40
6.419718138764457
 40
6.587285046385707
 40
6.774063446723622
 40
6.967245678113605
 40
7.15402407881759
 40
7.321590987025976
 40
7.457138740890334
 40
7.547859678556071
 40
7.580946138182631
 40
7.608533084714685
 40
7.669224367077662
 40
7.729915649429884
 40
7.757502595949937
 40
7.790278062553391
 40
7.880146277430889
 40
8.014419963180352
 40
8.180411842397852
 40
8.365434637679321
 40
8.556801071622623
 40
8.741823866830735
 40
8.907815745916245
 40
9.0420894315074
 40
9.131957646249525
 40
9.164733112797101
 40
9.415425063139999
 40
9.667986180958447
 40
9.694169807462615
 40
9.756607686047573
 40
9.831130315322465
 40
9.8935681938999
 40
9.919751820398746
 40
9.950967964690573
 40
9.996421631210664
 40
10.2208798103746
 40
10.44341866197548
 40
10.4784797078886
 40
10.57091337438761
 40
10.70159545461235
 40
10.85140174170366
 40
11.00120802880483
 40
11.13189010907388
 40
11.22432377583016
 40
11.25938480938962
 40
11.28697175596151
 40
11.34766303835925
 40
11.40835432042076
 40
11.43594125892111
 40
11.43594125892111
 40
11.43594125892111
 40
11.43594125892111
 10
190.0818114333289
 20
15.55242795125079
 30
0.0
 10
190.0702785844941
 20
15.55242790287917
 30
0.0
 10
190.0283409444998
 20
15.55242773704166
 30
0.0
 10
189.9434129719026
 20
15.55243125800911
 30
0.0
 10
189.8207688553128
 20
15.5524092643588
 30
0.0
 10
189.6791206916993
 20
15.55250801177056
 30
0.0
 10
189.537975369849
 20
15.55214686232423
 30
0.0
 10
189.4141351317904
 20
15.5532188360909
 30
0.0
 10
189.3317217825382
 20
15.55092249091271
 30
0.0
 10
189.1727791229692
 20
15.56048569373421
 30
0.0
 10
189.3503402353376
 20
15.19785394311373
 30
0.0
 10
189.3379739205452
 20
14.95243127723115
 30
0.0
 10
189.4064519473864
 20
14.66862501324835
 30
0.0
 10
189.469302432097
 20
14.43250999939035
 30
0.0
 10
189.5452253431728
 20
14.23326740396129
 30
0.0
 10
189.6303189577016
 20
14.07745347451371
 30
0.0
 10
189.7244607592935
 20
13.9765785778139
 30
0.0
 10
189.8282648207728
 20
13.92465852638961
 30
0.0
 10
189.9125872030773
 20
13.97606484379616
 30
0.0
 10
189.9351322179452
 20
14.09144544037517
 30
0.0
 10
189.9745730975371
 20
14.21885149702379
 30
0.0
 10
189.9202919734944
 20
14.53622328086749
 30
0.0
 10
190.0451218072473
 20
14.3898218014091
 30
0.0
 10
190.2019291513603
 20
14.35795300331165
 30
0.0
 10
190.0947720007057
 20
14.12421357767629
 30
0.0
 10
190.0808711209866
 20
13.95972776583656
 30
0.0
 10
190.0234709467226
 20
13.83130869122485
 30
0.0
 10
189.9335020145008
 20
13.76018802352828
 30
0.0
 10
189.8095274657878
 20
13.74432324142256
 30
0.0
 10
189.663427319686
 20
13.77993797554174
 30
0.0
 10
189.5243894320284
 20
13.9000057050028
 30
0.0
 10
189.4102003962144
 20
14.07435682550322
 30
0.0
 10
189.3146141301485
 20
14.29946603111243
 30
0.0
 10
189.2318652572627
 20
14.56388246006445
 30
0.0
 10
189.1807179256411
 20
14.88187933098546
 30
0.0
 10
189.0770189207338
 20
15.15543728488914
 30
0.0
 10
189.2042841208522
 20
15.56005818612869
 30
0.0
 10
189.0357890623018
 20
15.5511236784968
 30
0.0
 10
188.9511995787077
 20
15.55315961418365
 30
0.0
 10
188.8189876387627
 20
15.55213937388408
 30
0.0
 10
188.6560505094104
 20
15.55253230318431
 30
0.0
 10
188.4733759170532
 20
15.5523569631337
 30
0.0
 10
188.2847057373383
 20
15.5526010530747
 30
0.0
 10
188.1014469020189
 20
15.55185657906239
 30
0.0
 10
187.9404746832718
 20
15.55416360522427
 30
0.0
 10
187.8029808335276
 20
15.54799804883665
 30
0.0
 10
187.728959037231
 20
15.56032838458212
 30
0.0
 10
187.6613215186857
 20
15.54329323723558
 30
0.0
 10
187.6732373719269
 20
15.59524438447529
 30
0.0
 10
187.6655677285694
 20
15.64071424966531
 30
0.0
 10
187.6732592225116
 20
15.68614453703707
 30
0.0
 10
187.6613141797761
 20
15.73802395984572
 30
0.0
 10
187.7283588305867
 20
15.72119143490266
 30
0.0
 10
187.8017375665676
 20
15.73335409092673
 30
0.0
 10
187.9379128305272
 20
15.7272723107496
 30
0.0
 10
188.0973811801512
 20
15.7295483431506
 30
0.0
 10
188.2789173085836
 20
15.72881233998964
 30
0.0
 10
188.4658034862179
 20
15.72905954196136
 30
0.0
 10
188.6468012316836
 20
15.72886400799256
 30
0.0
 10
188.8080802578878
 20
15.72932234714841
 30
0.0
 10
188.9393882124887
 20
15.72812673751208
 30
0.0
 10
189.0225051322597
 20
15.73051347319745
 30
0.0
 10
189.1556236547813
 20
15.72230605725465
 30
0.0
 10
189.0645893502658
 20
15.97752868952656
 30
0.0
 10
188.978963307442
 20
16.24164358328243
 30
0.0
 10
189.0990589003455
 20
16.22904442969164
 30
0.0
 10
189.1514264948543
 20
16.22694235763073
 30
0.0
 10
189.2214497569717
 20
16.22535399889657
 30
0.0
 10
189.2671922337817
 20
16.21602567538112
 30
0.0
 10
189.3220812646934
 20
16.22545966915428
 30
0.0
 10
189.2963574785682
 20
16.17733028655173
 30
0.0
 10
189.1825397571453
 20
16.18266829744184
 30
0.0
 10
189.3159346621136
 20
15.95449174576776
 30
0.0
 10
189.1943658735472
 20
15.72156856595925
 30
0.0
 10
189.3223188769412
 20
15.73087258884441
 30
0.0
 10
189.4049048406461
 20
15.72801001754682
 30
0.0
 10
189.5307214850824
 20
15.72923437412305
 30
0.0
 10
189.6741469838057
 20
15.72932431888966
 30
0.0
 10
189.8157420951728
 20
15.72746163183855
 30
0.0
 10
189.9459127249967
 20
15.73333075937165
 30
0.0
 10
190.0193452286191
 20
15.72070340823206
 30
0.0
 10
190.0891112922096
 20
15.73877563110414
 30
0.0
 10
190.0775772605396
 20
15.68612850546328
 30
0.0
 10
190.0833184346682
 20
15.64221317686549
 30
0.0
 10
190.081661577091
 20
15.5908998267655
 30
0.0
 10
190.081775756167
 20
15.56158792021636
 30
0.0
 10
190.0818114333289
 20
15.55242795125079
 30
0.0
 11
190.0818114333289
 21
15.55242795125079
 31
0.0
 11
190.0472127192051
 21
15.55242795125079
 31
0.0
 11
189.9559979274241
 21
15.55242795125079
 31
0.0
 11
189.8270390838717
 21
15.55242795125079
 31
0.0
 11
189.6792082144335
 21
15.55242795125079
 31
0.0
 11
189.5313773449954
 21
15.55242795125079
 31
0.0
 11
189.402418501443
 21
15.55242795125079
 31
0.0
 11
189.311203709662
 21
15.55242795125079
 31
0.0
 11
189.2766049955382
 21
15.55242795125079
 31
0.0
 11
189.3083140497693
 21
15.23435864930123
 31
0.0
 11
189.3527866656865
 21
14.93509522788082
 31
0.0
 11
189.4092389118319
 21
14.66191269512577
 31
0.0
 11
189.4768868567478
 21
14.42208605917227
 31
0.0
 11
189.5549465689761
 21
14.22289032815653
 31
0.0
 11
189.6426341170591
 21
14.07160051021475
 31
0.0
 11
189.7391655695388
 21
13.97549161348314
 31
0.0
 11
189.8437569949575
 21
13.94183864609789
 31
0.0
 11
189.8943077302786
 21
13.97177376978833
 31
0.0
 11
189.9310588991552
 21
14.06491619815047
 31
0.0
 11
189.9562640977528
 21
14.22627151712055
 31
0.0
 11
189.9721769222369
 21
14.4608453126348
 31
0.0
 11
190.0494082682583
 21
14.40202182306623
 31
0.0
 11
190.1327184184385
 21
14.35921885432688
 31
0.0
 11
190.1066365811217
 21
14.1152838866101
 31
0.0
 11
190.0673317805105
 21
13.94207902887563
 31
0.0
 11
190.0105702596765
 21
13.83011272445919
 31
0.0
 11
189.932118261691
 21
13.76989341669647
 31
0.0
 11
189.8277420296256
 21
13.75192954892319
 31
0.0
 11
189.6738595065097
 21
13.78957440012363
 31
0.0
 11
189.5388902376747
 21
13.89707348877405
 31
0.0
 11
189.4221739916163
 21
14.06627361744811
 31
0.0
 11
189.32305053683
 21
14.28902158871946
 31
0.0
 11
189.2408596418113
 21
14.55716420516175
 31
0.0
 11
189.1749410750559
 21
14.86254826934863
 31
0.0
 11
189.1246346050593
 21
15.19702058385376
 31
0.0
 11
189.0892800003171
 21
15.55242795125079
 31
0.0
 11
189.0561935405844
 21
15.55242795125079
 31
0.0
 11
188.9654726026075
 21
15.55242795125079
 31
0.0
 11
188.8299248482185
 21
15.55242795125079
 31
0.0
 11
188.6623579392495
 21
15.55242795125079
 31
0.0
 11
188.4755795375324
 21
15.55242795125079
 31
0.0
 11
188.2823973048992
 21
15.55242795125079
 31
0.0
 11
188.0956189031822
 21
15.55242795125079
 31
0.0
 11
187.9280519942131
 21
15.55242795125079
 31
0.0
 11
187.7925042398241
 21
15.55242795125079
 31
0.0
 11
187.7017833018473
 21
15.55242795125079
 31
0.0
 11
187.6686968421145
 21
15.55242795125079
 31
0.0
 11
187.6686968421145
 21
15.58001489785848
 31
0.0
 11
187.6686968421145
 21
15.64070618039539
 31
0.0
 11
187.6686968421145
 21
15.70139746293231
 31
0.0
 11
187.6686968421145
 21
15.72898440954
 31
0.0
 11
187.7014723087631
 21
15.72898440954
 31
0.0
 11
187.7913405237673
 21
15.72898440954
 31
0.0
 11
187.9256142097148
 21
15.72898440954
 31
0.0
 11
188.0916060891932
 21
15.72898440954
 31
0.0
 11
188.2766288847901
 21
15.72898440954
 31
0.0
 11
188.4679953190932
 21
15.72898440954
 31
0.0
 11
188.6530181146902
 21
15.72898440954
 31
0.0
 11
188.8190099941685
 21
15.72898440954
 31
0.0
 11
188.953283680116
 21
15.72898440954
 31
0.0
 11
189.0431518951202
 21
15.72898440954
 31
0.0
 11
189.0759273617688
 21
15.72898440954
 31
0.0
 11
189.0659183950103
 21
15.97947647544958
 31
0.0
 11
189.0599112510663
 21
16.23196614552529
 31
0.0
 11
189.0860575870659
 21
16.2305692160812
 31
0.0
 11
189.1484065421419
 21
16.22723807663759
 31
0.0
 11
189.22282303691
 21
16.22326220052749
 31
0.0
 11
189.285171991986
 21
16.21993106108388
 31
0.0
 11
189.3113183279856
 21
16.21853413163979
 31
0.0
 11
189.2982931113041
 21
16.1901652861608
 31
0.0
 11
189.2551649266406
 21
16.17581274276171
 31
0.0
 11
189.2574991961822
 21
15.95136670115109
 31
0.0
 11
189.2658452735903
 21
15.72898440954
 31
0.0
 11
189.3009063195165
 21
15.72898440954
 31
0.0
 11
189.3933399860495
 21
15.72898440954
 31
0.0
 11
189.5240220663201
 21
15.72898440954
 31
0.0
 11
189.6738283534596
 21
15.72898440954
 31
0.0
 11
189.8236346405991
 21
15.72898440954
 31
0.0
 11
189.9543167208697
 21
15.72898440954
 31
0.0
 11
190.0467503874027
 21
15.72898440954
 31
0.0
 11
190.0818114333289
 21
15.72898440954
 31
0.0
 11
190.0818114333289
 21
15.70139746293231
 31
0.0
 11
190.0818114333289
 21
15.64070618039539
 31
0.0
 11
190.0818114333289
 21
15.58001489785848
 31
0.0
 11
190.0818114333289
 21
15.55242795125079
 31
0.0
  0
SPLINE
  5
AC
102
{ACAD_REACTORS
330
C9
102
}
330
48
100
AcDbEntity
  8
_U_30EC_U_30A4_U_30E4_U_30FC_1
  6
Continuous
 62
     2
100
AcDbSpline
210
0.0
220
0.0
230
1.0
 70
    11
 71
     3
 72
    75
 73
    71
 74
    69
 42
0.000000001
 43
0.0000000001
 44
0.00000001
 40
0.0
 40
0.0
 40
0.0
 40
0.0
 40
0.0342546099129709
 40
0.12456224144324
 40
0.2522385480897589
 40
0.3985991922940786
 40
0.5449598364980963
 40
0.6726361431439012
 40
0.7629437746737138
 40
0.7971983935298186
 40
1.101723623449732
 40
1.408591244036676
 40
1.433332471690377
 40
1.487763172450163
 40
1.542193873081984
 40
1.566935100592527
 40
1.923523931821832
 40
2.271755704953606
 40
2.590579755100826
 40
2.858943305581064
 40
2.889120339309079
 40
2.918305855191043
 40
2.941366645531167
 40
2.996357760973055
 40
3.061992318140605
 40
3.116983433626779
 40
3.140044223997469
 40
3.411273122936295
 40
3.732441619740951
 40
3.761068217532653
 40
3.837787499630222
 40
3.948858699125869
 40
4.080541049104262
 40
4.219093782625656
 40
4.350776132722219
 40
4.461847332405565
 40
4.538566614678306
 40
4.567193212544554
 40
4.594907573998812
 40
4.666381453557351
 40
4.764111044010962
 40
4.870592538125765
 40
4.968322128642216
 40
5.039796008286901
 40
5.06751036978436
 40
5.094263603185574
 40
5.15312071666821
 40
5.211977830150657
 40
5.238731063551661
 40
5.2722905351389
 40
5.363380529444761
 40
5.497618415781439
 40
5.660621563453681
 40
5.838007341749382
 40
6.015393119910733
 40
6.178396267038359
 40
6.31263415184231
 40
6.4037241430593
 40
6.437283612672395
 40
6.464036846261013
 40
6.522893960004627
 40
6.581751071483893
 40
6.608504301590839
 40
6.637253941280987
 40
6.711397748902838
 40
6.812778057283451
 40
6.923237199249227
 40
7.024617507623871
 40
7.098761315207524
 40
7.127510946007474
 40
7.127510946007474
 40
7.127510946007474
 40
7.127510946007474
 10
188.4418622390564
 20
14.9584912847327
 30
0.0
 10
188.4418622819707
 20
14.94707313408726
 30
0.0
 10
188.4418624481128
 20
14.90555257842634
 30
0.0
 10
188.4418593081787
 20
14.82146922003778
 30
0.0
 10
188.44187882798
 20
14.70004497322333
 30
0.0
 10
188.4417912187737
 20
14.55980494047453
 30
0.0
 10
188.4421116235231
 20
14.42006556794581
 30
0.0
 10
188.4411605909741
 20
14.29745038894933
 30
0.0
 10
188.4431978595967
 20
14.21587074438047
 30
0.0
 10
188.4349433178746
 20
14.062712670777
 30
0.0
 10
188.74307979409
 20
14.22560236054716
 30
0.0
 10
189.0350645173737
 20
14.39482938688003
 30
0.0
 10
189.0408354448707
 20
14.2597323578191
 30
0.0
 10
189.0455471719891
 20
14.21617221160445
 30
0.0
 10
189.0482535411918
 20
14.17211249350546
 30
0.0
 10
189.0672545672957
 20
14.02272590363134
 30
0.0
 10
188.6583942247303
 20
14.08681172241268
 30
0.0
 10
188.3793710348832
 20
13.97296341411021
 30
0.0
 10
188.1018081587166
 20
13.87364095811144
 30
0.0
 10
187.8099837184402
 20
13.91630687596354
 30
0.0
 10
187.7869144678658
 20
13.81321679744538
 30
0.0
 10
187.7537474383332
 20
13.78691091244476
 30
0.0
 10
187.7480653962739
 20
13.83455309036309
 30
0.0
 10
187.7284214559045
 20
13.87180336115077
 30
0.0
 10
187.7095089485623
 20
13.93007387847568
 30
0.0
 10
187.6942849867708
 20
13.97385201007814
 30
0.0
 10
187.6477246372937
 20
14.08759421046312
 30
0.0
 10
187.9890897312451
 20
14.05576301120051
 30
0.0
 10
188.2679649367385
 20
14.02161435106477
 30
0.0
 10
188.2617753034908
 20
14.16913976479651
 30
0.0
 10
188.2630935452772
 20
14.24013150908831
 30
0.0
 10
188.2624831689949
 20
14.34719767958662
 30
0.0
 10
188.2625871570725
 20
14.47398529785999
 30
0.0
 10
188.2629987964055
 20
14.60849243496052
 30
0.0
 10
188.2613907841968
 20
14.73395549951188
 30
0.0
 10
188.2659902567925
 20
14.84505246719122
 30
0.0
 10
188.256418650221
 20
14.90761886800694
 30
0.0
 10
188.2704001783691
 20
14.96595388295007
 30
0.0
 10
188.2147384386705
 20
14.95289710582244
 30
0.0
 10
188.1575655197821
 20
14.96136307749504
 30
0.0
 10
188.0616048925648
 20
14.95729976080642
 30
0.0
 10
187.963376752282
 20
14.9597088985248
 30
0.0
 10
187.8672582457561
 20
14.95551600613394
 30
0.0
 10
187.8104648525811
 20
14.96429346441168
 30
0.0
 10
187.7550356873384
 20
14.95094936850127
 30
0.0
 10
187.7670679427917
 20
15.00036910959263
 30
0.0
 10
187.7592003173937
 20
15.04393988030401
 30
0.0
 10
187.7666295563828
 20
15.08830469118531
 30
0.0
 10
187.7551930564143
 20
15.13902297763997
 30
0.0
 10
187.8232102370133
 20
15.12162460757749
 30
0.0
 10
187.8968496879747
 20
15.13417450237194
 30
0.0
 10
188.0325064058211
 20
15.12799677011104
 30
0.0
 10
188.1884909024525
 20
15.1302920309309
 30
0.0
 10
188.3615926358143
 20
15.12940968262536
 30
0.0
 10
188.5346942964181
 20
15.13029207142414
 30
0.0
 10
188.6906789811216
 20
15.12799662955556
 30
0.0
 10
188.8263351889797
 20
15.13417486262438
 30
0.0
 10
188.8999756705652
 20
15.1216239421834
 30
0.0
 10
188.9679914174724
 20
15.13902373012148
 30
0.0
 10
188.9565590885922
 20
15.08830130414561
 30
0.0
 10
188.9639539458297
 20
15.04397060811114
 30
0.0
 10
188.9562039912271
 20
15.00028307550202
 30
0.0
 10
188.9681203741877
 20
14.95063590098483
 30
0.0
 10
188.9108170223617
 20
14.96461411338431
 30
0.0
 10
188.8520145789772
 20
14.9553975567326
 30
0.0
 10
188.7525293633199
 20
14.95952268164935
 30
0.0
 10
188.649428009835
 20
14.95822760025894
 30
0.0
 10
188.5537846354573
 20
14.95854077077646
 30
0.0
 10
188.4857467971617
 20
14.95848776697151
 30
0.0
 10
188.4514462213443
 20
14.95849051871662
 30
0.0
 10
188.4418622390564
 20
14.9584912847327
 30
0.0
 11
188.4418622390564
 21
14.9584912847327
 31
0.0
 11
188.4418622390564
 21
14.9242366658719
 31
0.0
 11
188.4418622390564
 21
14.83392903432981
 31
0.0
 11
188.4418622390564
 21
14.70625272766684
 31
0.0
 11
188.4418622390564
 21
14.55989208344344
 31
0.0
 11
188.4418622390564
 21
14.41353143922005
 31
0.0
 11
188.4418622390564
 21
14.28585513255708
 31
0.0
 11
188.4418622390564
 21
14.19554750101499
 31
0.0
 11
188.4418622390564
 21
14.16129288215419
 31
0.0
 11
188.7391932644568
 21
14.2270947571377
 31
0.0
 11
189.0384623627245
 21
14.29496038212071
 31
0.0
 11
189.0405487124976
 21
14.27030727882827
 31
0.0
 11
189.0451386819987
 21
14.2160704515849
 31
0.0
 11
189.0497286514996
 21
14.16183362434153
 31
0.0
 11
189.0518150012728
 21
14.13718052104909
 31
0.0
 11
188.705639688924
 21
14.05163370140902
 31
0.0
 11
188.3669653138838
 21
13.97060877629905
 31
0.0
 11
188.0563731516688
 21
13.89862764024931
 31
0.0
 11
187.7944444777956
 21
13.84021218778989
 31
0.0
 11
187.7817515029292
 21
13.81283442738013
 31
0.0
 11
187.7569794787513
 21
13.79740260446741
 31
0.0
 11
187.7491867589501
 21
13.81910683390642
 31
0.0
 11
187.7306041194242
 21
13.87086307333793
 31
0.0
 11
187.70842483999
 21
13.93263664943358
 31
0.0
 11
187.6898422004641
 21
13.98439288886508
 31
0.0
 11
187.6820494806629
 21
14.0060971183041
 31
0.0
 11
187.9482776335931
 21
14.05794001759668
 31
0.0
 11
188.2626334936289
 21
14.12373968771908
 31
0.0
 11
188.2626334936289
 21
14.15236628569623
 31
0.0
 11
188.2626334936289
 21
14.22908556827498
 31
0.0
 11
188.2626334936289
 21
14.34015676842631
 31
0.0
 11
188.2626334936289
 21
14.47183911912119
 31
0.0
 11
188.2626334936289
 21
14.61039185333058
 31
0.0
 11
188.2626334936289
 21
14.74207420402546
 31
0.0
 11
188.2626334936289
 21
14.8531454041768
 31
0.0
 11
188.2626334936289
 21
14.92986468675555
 31
0.0
 11
188.2626334936289
 21
14.9584912847327
 31
0.0
 11
188.2349191321108
 21
14.9584912847327
 31
0.0
 11
188.1634452524063
 21
14.9584912847327
 31
0.0
 11
188.06571566179
 21
14.9584912847327
 31
0.0
 11
187.9592341675364
 21
14.9584912847327
 31
0.0
 11
187.8615045769201
 21
14.9584912847327
 31
0.0
 11
187.7900306972156
 21
14.9584912847327
 31
0.0
 11
187.7623163356975
 21
14.9584912847327
 31
0.0
 11
187.7623163356975
 21
14.98524451823295
 31
0.0
 11
187.7623163356975
 21
15.0441016319335
 31
0.0
 11
187.7623163356975
 21
15.10295874563405
 31
0.0
 11
187.7623163356975
 21
15.1297119791343
 31
0.0
 11
187.7958758072874
 21
15.1297119791343
 31
0.0
 11
187.8869658016031
 21
15.1297119791343
 31
0.0
 11
188.0212036879629
 21
15.1297119791343
 31
0.0
 11
188.1842068356856
 21
15.1297119791343
 31
0.0
 11
188.3615926140897
 21
15.1297119791343
 31
0.0
 11
188.5389783924938
 21
15.1297119791343
 31
0.0
 11
188.7019815402164
 21
15.1297119791343
 31
0.0
 11
188.8362194265763
 21
15.1297119791343
 31
0.0
 11
188.9273094208918
 21
15.1297119791343
 31
0.0
 11
188.9608688924818
 21
15.1297119791343
 31
0.0
 11
188.9608688924818
 21
15.10295874563405
 31
0.0
 11
188.9608688924818
 21
15.0441016319335
 31
0.0
 11
188.9608688924818
 21
14.98524451823295
 31
0.0
 11
188.9608688924818
 21
14.9584912847327
 31
0.0
 11
188.9321192527877
 21
14.9584912847327
 31
0.0
 11
188.8579754451555
 21
14.9584912847327
 31
0.0
 11
188.7565951367604
 21
14.9584912847327
 31
0.0
 11
188.6461359947778
 21
14.9584912847327
 31
0.0
 11
188.5447556863827
 21
14.9584912847327
 31
0.0
 11
188.4706118787505
 21
14.9584912847327
 31
0.0
 11
188.4418622390564
 21
14.9584912847327
 31
0.0
  0
SPLINE
  5
AD
102
{ACAD_REACTORS
330
CA
102
}
330
48
100
AcDbEntity
  8
_U_30EC_U_30A4_U_30E4_U_30FC_1
  6
Continuous
 62
     2
100
AcDbSpline
210
0.0
220
0.0
230
1.0
 70
    11
 71
     3
 72
    15
 73
    11
 74
     9
 42
0.000000001
 43
0.0000000001
 44
0.00000001
 40
0.0
 40
0.0
 40
0.0
 40
0.0
 40
0.2785535985096447
 40
0.5215624748198492
 40
0.6076917376040322
 40
0.6938210001741262
 40
0.9405019146454974
 40
1.221691403489025
 40
1.300471877080915
 40
1.379252341684652
 40
1.379252341684652
 40
1.379252341684652
 40
1.379252341684652
 10
189.5681493630999
 20
16.22930267330381
 30
0.0
 10
189.6296017794177
 20
16.17691646592715
 30
0.0
 10
189.7446649974114
 20
16.07882876798224
 30
0.0
 10
190.0397348497243
 20
15.92889785897228
 30
0.0
 10
189.9025147631857
 20
15.84343227515017
 30
0.0
 10
189.8041227843779
 20
15.71085785201553
 30
0.0
 10
189.713003359065
 20
16.0161698578142
 30
0.0
 10
189.3636839480658
 20
16.07967869465367
 30
0.0
 10
189.511925837657
 20
16.17896509880875
 30
0.0
 10
189.5494081874237
 20
16.21252348402382
 30
0.0
 10
189.5681493630999
 20
16.22930267330381
 30
0.0
 11
189.5681493630999
 21
16.22930267330381
 31
0.0
 11
189.7919222440596
 21
16.06341774278975
 31
0.0
 11
189.9695046306383
 21
15.8975328122757
 31
0.0
 11
189.9066308127979
 21
15.83866743034595
 31
0.0
 11
189.8437569949575
 21
15.7798020484162
 31
0.0
 11
189.6688535117725
 21
15.95375677059493
 31
0.0
 11
189.4478256856141
 21
16.12757920110698
 31
0.0
 11
189.507987524357
 21
16.17844093720539
 31
0.0
 11
189.5681493630999
 21
16.22930267330381
 31
0.0
  0
SPLINE
  5
AE
102
{ACAD_REACTORS
330
CB
102
}
330
48
100
AcDbEntity
  8
_U_30EC_U_30A4_U_30E4_U_30FC_1
  6
Continuous
 62
     2
100
AcDbSpline
210
0.0
220
0.0
230
1.0
 70
    11
 71
     3
 72
    35
 73
    31
 74
    29
 42
0.000000001
 43
0.0000000001
 44
0.00000001
 40
0.0
 40
0.0
 40
0.0
 40
0.0
 40
0.0335231036620728
 40
0.071321857171224
 40
0.4278866681487256
 40
0.811686584196398
 40
1.19819023800006
 40
1.561379546812699
 40
1.659983174622048
 40
1.759315573807121
 40
2.13271961723105
 40
2.525233363588793
 40
2.910815397779678
 40
3.265244364303278
 40
3.592606723582017
 40
3.964386154603972
 40
4.359942131737797
 40
4.758154118639296
 40
4.843846538699906
 40
4.936650065543227
 40
5.256616602537305
 40
5.581707404416039
 40
5.899719158308131
 40
6.198363494280731
 40
6.466301046615754
 40
6.493895311537075
 40
6.559697020196868
 40
6.638234543442443
 40
6.704036252154195
 40
6.731630508423001
 40
6.731630508423001
 40
6.731630508423001
 40
6.731630508423001
 10
191.9736010568669
 20
16.23463843719139
 30
0.0
 10
191.9676006097789
 20
16.22480690542328
 30
0.0
 10
191.9548344099157
 20
16.20388988579802
 30
0.0
 10
191.7949362006555
 20
16.17127126532682
 30
0.0
 10
192.2322025842338
 20
15.88206680336712
 30
0.0
 10
192.4345394828261
 20
15.6804113835844
 30
0.0
 10
192.6819564267973
 20
15.43749387603281
 30
0.0
 10
193.1831513624607
 20
15.36047662757781
 30
0.0
 10
193.012556219897
 20
15.21876939174659
 30
0.0
 10
192.9383299463202
 20
15.01710366209111
 30
0.0
 10
192.6131432248188
 20
15.3695628717473
 30
0.0
 10
192.3277741670664
 20
15.53175212559566
 30
0.0
 10
192.0337604077658
 20
15.7368713005305
 30
0.0
 10
191.8084452691134
 20
16.21827488595459
 30
0.0
 10
191.5993085055522
 20
15.75343046609227
 30
0.0
 10
191.3207873674834
 20
15.54350952252915
 30
0.0
 10
191.0371383177208
 20
15.37424456359986
 30
0.0
 10
190.7078639527832
 20
15.00142360907943
 30
0.0
 10
190.6277012318223
 20
15.19708014459006
 30
0.0
 10
190.4759724909745
 20
15.32491104190601
 30
0.0
 10
190.9083395826794
 20
15.4045403176594
 30
0.0
 10
191.0962565329766
 20
15.60026634915477
 30
0.0
 10
191.3468477420502
 20
15.81632996916759
 30
0.0
 10
191.5714350470162
 20
15.98190992300062
 30
0.0
 10
191.6259775409712
 20
16.26133964636827
 30
0.0
 10
191.7494661029012
 20
16.24737950408081
 30
0.0
 10
191.8060273344519
 20
16.24521268867649
 30
0.0
 10
191.8761870984945
 20
16.24046859881365
 30
0.0
 10
191.9333414022105
 20
16.23709429350546
 30
0.0
 10
191.9644190320838
 20
16.23519854711124
 30
0.0
 10
191.9736010568669
 20
16.23463843719139
 30
0.0
 11
191.9736010568669
 21
16.23463843719139
 31
0.0
 11
191.9525319069884
 21
16.20856374969789
 31
0.0
 11
191.9174464559425
 21
16.1945011455347
 31
0.0
 11
192.1512374769095
 21
15.92527961131385
 31
0.0
 11
192.4414585957566
 21
15.67413407969264
 31
0.0
 11
192.7612797483684
 21
15.45710987618788
 31
0.0
 11
193.0838708706289
 21
15.29025232631639
 31
0.0
 11
193.0213299868076
 21
15.2140203558493
 31
0.0
 11
192.9688035818976
 21
15.1297119791343
 31
0.0
 11
192.6436279095814
 21
15.31326404831585
 31
0.0
 11
192.3237227768436
 21
15.54070139743432
 31
0.0
 11
192.0354200158608
 21
15.79673855123313
 31
0.0
 11
191.8050514588095
 21
16.0660900344557
 31
0.0
 11
191.5995531719516
 21
15.8112634872104
 31
0.0
 11
191.3288301341535
 21
15.55645182277759
 31
0.0
 11
191.0119538423246
 21
15.31969466354859
 31
0.0
 11
190.6679957933741
 21
15.11903163191471
 31
0.0
 11
190.6218855341338
 21
15.19126067703558
 31
0.0
 11
190.5636970460348
 21
15.26355586798971
 31
0.0
 11
190.8433040489015
 21
15.41911456961749
 31
0.0
 11
191.1093004621154
 21
15.60601009790409
 31
0.0
 11
191.3499997459746
 21
15.81384496285212
 31
0.0
 11
191.5537153607774
 21
16.03222167446419
 31
0.0
 11
191.7087607668218
 21
16.25074274274289
 31
0.0
 11
191.7363041569865
 21
16.24906789496553
 31
0.0
 11
191.8019845489177
 21
16.24507402718876
 31
0.0
 11
191.880377274771
 21
16.24030715274552
 31
0.0
 11
191.9460576667022
 21
16.23631328496874
 31
0.0
 11
191.9736010568669
 21
16.23463843719139
 31
0.0
  0
SPLINE
  5
AF
102
{ACAD_REACTORS
330
CC
102
}
330
48
100
AcDbEntity
  8
_U_30EC_U_30A4_U_30E4_U_30FC_1
  6
Continuous
 62
     2
100
AcDbSpline
210
0.0
220
0.0
230
1.0
 70
    11
 71
     3
 72
    91
 73
    87
 74
    85
 42
0.000000001
 43
0.0000000001
 44
0.00000001
 40
0.0
 40
0.0
 40
0.0
 40
0.0
 40
0.026753225435663
 40
0.0856103386463907
 40
0.1444674521996283
 40
0.1712206856618106
 40
0.2039416005642128
 40
0.2955601971652075
 40
0.4362601844616509
 40
0.6162252844506841
 40
0.8256392189704289
 40
1.05468570984437
 40
1.29354847889349
 40
1.532411247938262
 40
1.761457738799527
 40
1.970871673298496
 40
2.150836773256692
 40
2.291536760495553
 40
2.383155356836659
 40
2.415876284101279
 40
2.442629517487917
 40
2.501486630949032
 40
2.560343744424167
 40
2.587096977826433
 40
2.61706819444086
 40
2.699247336756001
 40
2.822032643466314
 40
2.973822353257844
 40
3.143014704823286
 40
3.318007936879865
 40
3.487200288186698
 40
3.638989997548179
 40
3.761775303794678
 40
3.843954445753012
 40
3.873925662229708
 40
3.890812773500424
 40
3.907699884771611
 40
3.93796076785723
 40
3.980983618142268
 40
4.199085915228399
 40
4.439444339237181
 40
4.67758824126084
 40
5.050698317837755
 40
5.448212454763169
 40
5.855291218044639
 40
6.138575438885288
 40
6.417434507584153
 40
6.44455110439383
 40
6.504207617363117
 40
6.563864130314429
 40
6.590980727104017
 40
6.84860946038142
 40
7.10961199066838
 40
7.352910904446031
 40
7.557830220705387
 40
7.587518925913303
 40
7.652834077375716
 40
7.718149228845647
 40
7.747837934061948
 40
7.854880190300894
 40
7.976511257403399
 40
8.369487896592199
 40
8.757514959223464
 40
9.1260724193309
 40
9.460639380391992
 40
9.746695593035762
 40
9.777569943118502
 40
9.807050320931594
 40
9.830377336128715
 40
9.88600329543579
 40
9.952395569429676
 40
10.00802152870602
 40
10.03134854388193
 40
10.21356951009558
 40
10.42203479292849
 40
10.66154556731046
 40
10.91693789564285
 40
11.15832906556549
 40
11.18982674596606
 40
11.27286608520391
 40
11.39026653033333
 40
11.52484752840869
 40
11.65942852648431
 40
11.77682897161467
 40
11.85986831085666
 40
11.89136598230411
 40
11.89136598230411
 40
11.89136598230411
 40
11.89136598230411
 10
190.7027885008196
 20
14.70699600701781
 30
0.0
 10
190.7028237765288
 20
14.71587847311994
 30
0.0
 10
190.7029366710797
 20
14.74430237047354
 30
0.0
 10
190.7012984568488
 20
14.7940963916981
 30
0.0
 10
190.7069750292911
 20
14.8365756447816
 30
0.0
 10
190.6956928731706
 20
14.88730154856852
 30
0.0
 10
190.7632296979032
 20
14.87012900740114
 30
0.0
 10
190.83880292107
 20
14.88290227166001
 30
0.0
 10
190.9828357056
 20
14.87629729457387
 30
0.0
 10
191.1569419185427
 20
14.87888462206471
 30
0.0
 10
191.3639599611003
 20
14.87800591955558
 30
0.0
 10
191.5894688172378
 20
14.87828207920033
 30
0.0
 10
191.8251162293406
 20
14.87818339658667
 30
0.0
 10
192.0607640531348
 20
14.87828184412772
 30
0.0
 10
192.2862717580626
 20
14.87800678190793
 30
0.0
 10
192.4932934632805
 20
14.8788818627074
 30
0.0
 10
192.6673888915288
 20
14.87630522678451
 30
0.0
 10
192.8114492071986
 20
14.88288290449219
 30
0.0
 10
192.8869691915293
 20
14.87016243405608
 30
0.0
 10
192.9545776037029
 20
14.88726400191691
 30
0.0
 10
192.9430840140676
 20
14.83674785802946
 30
0.0
 10
192.9505104581733
 20
14.79253252226508
 30
0.0
 10
192.9428838927986
 20
14.74867966503618
 30
0.0
 10
192.9546489459424
 20
14.69878374479337
 30
0.0
 10
192.8930788491983
 20
14.71393227712521
 30
0.0
 10
192.8256791738671
 20
14.70310665350682
 30
0.0
 10
192.7013004056222
 20
14.70852031626245
 30
0.0
 10
192.555442823657
 20
14.70649205390793
 30
0.0
 10
192.3893576440086
 20
14.70715777578396
 30
0.0
 10
192.2188412621724
 20
14.70689643521251
 30
0.0
 10
192.0519790855388
 20
14.70721553391103
 30
0.0
 10
191.9087346827105
 20
14.70635302590771
 30
0.0
 10
191.7773313869834
 20
14.70863300482998
 30
0.0
 10
191.7239859134656
 20
14.7040770437421
 30
0.0
 10
191.6485188456912
 20
14.70999914992887
 30
0.0
 10
191.6769075779232
 20
14.70094169343359
 30
0.0
 10
191.7033652409542
 20
14.69725912268932
 30
0.0
 10
191.6633522907701
 20
14.66654271968276
 30
0.0
 10
191.5713663691867
 20
14.67667591174628
 30
0.0
 10
191.5439396207069
 20
14.43032502247788
 30
0.0
 10
191.4478793967234
 20
14.27499558764376
 30
0.0
 10
191.1917277964473
 20
13.94525417931567
 30
0.0
 10
191.7627537732763
 20
14.08430022210458
 30
0.0
 10
192.0173656320516
 20
14.08291779973366
 30
0.0
 10
192.6279647048617
 20
13.99790569242094
 30
0.0
 10
192.3340698578083
 20
14.29685417558211
 30
0.0
 10
192.0133304286517
 20
14.44330856901789
 30
0.0
 10
192.1313543360434
 20
14.50025540818293
 30
0.0
 10
192.1724716466261
 20
14.52420099873352
 30
0.0
 10
192.215681239441
 20
14.54599758811232
 30
0.0
 10
192.3174574094451
 20
14.60928721253901
 30
0.0
 10
192.4328867625247
 20
14.35147151408781
 30
0.0
 10
192.6329591642279
 20
14.21616041113685
 30
0.0
 10
192.7269077387227
 20
14.03792795138889
 30
0.0
 10
192.9558829746393
 20
13.87997821027049
 30
0.0
 10
192.8596031846707
 20
13.82915972576303
 30
0.0
 10
192.8167959763779
 20
13.79881292523057
 30
0.0
 10
192.7718243528779
 20
13.77466130281463
 30
0.0
 10
192.7121720925214
 20
13.72552146747573
 30
0.0
 10
192.6789731061325
 20
13.85997475673612
 30
0.0
 10
192.5582013350795
 20
14.01594265286578
 30
0.0
 10
192.1970976005979
 20
13.8856992805956
 30
0.0
 10
191.8385061955541
 20
13.90224694409485
 30
0.0
 10
191.457092045008
 20
13.89331229351865
 30
0.0
 10
191.1703455282891
 20
13.82882671672408
 30
0.0
 10
190.8592055599715
 20
13.94230668192821
 30
0.0
 10
190.8268737818788
 20
13.83122259927769
 30
0.0
 10
190.7896178253317
 20
13.81196313850016
 30
0.0
 10
190.7865737632754
 20
13.85874784087301
 30
0.0
 10
190.7679892860606
 20
13.89806853919136
 30
0.0
 10
190.751243661678
 20
13.95765983478235
 30
0.0
 10
190.7383730915753
 20
14.00201969871283
 30
0.0
 10
190.7042327806431
 20
14.09106331120201
 30
0.0
 10
190.9482714457753
 20
14.02181042943772
 30
0.0
 10
191.1441394486673
 20
14.00030369057736
 30
0.0
 10
191.2395426381277
 20
14.28226484478468
 30
0.0
 10
191.2945135769598
 20
14.44363045421131
 30
0.0
 10
191.5159619357155
 20
14.71391177589747
 30
0.0
 10
191.3849239381216
 20
14.70548446853743
 30
0.0
 10
191.3110026555854
 20
14.70779008496979
 30
0.0
 10
191.1977459876244
 20
14.70671378321667
 30
0.0
 10
191.0694251807484
 20
14.70707639076519
 30
0.0
 10
190.9404252030415
 20
14.70697724466095
 30
0.0
 10
190.828784094629
 20
14.7069993271258
 30
0.0
 10
190.7514663970026
 20
14.70699579189679
 30
0.0
 10
190.713287653201
 20
14.7069959584509
 30
0.0
 10
190.7027885008196
 20
14.70699600701781
 30
0.0
 11
190.7027885008196
 21
14.70699600701781
 31
0.0
 11
190.7027885008196
 21
14.73374924051806
 31
0.0
 11
190.7027885008196
 21
14.79260635421861
 31
0.0
 11
190.7027885008196
 21
14.85146346791915
 31
0.0
 11
190.7027885008196
 21
14.8782167014194
 31
0.0
 11
190.7355094280989
 21
14.8782167014194
 31
0.0
 11
190.8271280244809
 21
14.8782167014194
 31
0.0
 11
190.9678280117818
 21
14.8782167014194
 31
0.0
 11
191.1477931118179
 21
14.8782167014194
 31
0.0
 11
191.3572070464054
 21
14.8782167014194
 31
0.0
 11
191.5862535373604
 21
14.8782167014194
 31
0.0
 11
191.8251163064992
 21
14.8782167014194
 31
0.0
 11
192.0639790756381
 21
14.8782167014194
 31
0.0
 11
192.2930255665931
 21
14.8782167014194
 31
0.0
 11
192.5024395011806
 21
14.8782167014194
 31
0.0
 11
192.6824046012167
 21
14.8782167014194
 31
0.0
 11
192.8231045885176
 21
14.8782167014194
 31
0.0
 11
192.9147231848996
 21
14.8782167014194
 31
0.0
 11
192.9474441121789
 21
14.8782167014194
 31
0.0
 11
192.9474441121789
 21
14.85146346791915
 31
0.0
 11
192.9474441121789
 21
14.79260635421861
 31
0.0
 11
192.9474441121789
 21
14.73374924051806
 31
0.0
 11
192.9474441121789
 21
14.70699600701781
 31
0.0
 11
192.9174728954758
 21
14.70699600701781
 31
0.0
 11
192.8352937529027
 21
14.70699600701781
 31
0.0
 11
192.7125084457639
 21
14.70699600701781
 31
0.0
 11
192.5607187353642
 21
14.70699600701781
 31
0.0
 11
192.3915263830077
 21
14.70699600701781
 31
0.0
 11
192.2165331499991
 21
14.70699600701781
 31
0.0
 11
192.0473407976426
 21
14.70699600701781
 31
0.0
 11
191.8955510872428
 21
14.70699600701781
 31
0.0
 11
191.7727657801042
 21
14.70699600701781
 31
0.0
 11
191.690586637531
 21
14.70699600701781
 31
0.0
 11
191.6606154208279
 21
14.70699600701781
 31
0.0
 11
191.6766359412525
 21
14.701655833408
 31
0.0
 11
191.6926564616771
 21
14.69631565979819
 31
0.0
 11
191.670615568142
 21
14.67558114591445
 31
0.0
 11
191.6284861855363
 21
14.66685871536109
 31
0.0
 11
191.5365235541377
 21
14.46909247312658
 31
0.0
 11
191.4279078521763
 21
14.25467511978511
 31
0.0
 11
191.3127500824807
 21
14.0462255905162
 31
0.0
 11
191.685736667502
 21
14.05582441253033
 31
0.0
 11
192.0830700036151
 21
14.06781232404999
 31
0.0
 11
192.4899342191145
 21
14.08102711828539
 31
0.0
 11
192.2983119496979
 21
14.28966761302487
 31
0.0
 11
192.0966752013698
 21
14.48229420151839
 31
0.0
 11
192.1204947794749
 21
14.49525327269571
 31
0.0
 11
192.1728978513061
 21
14.52376322928579
 31
0.0
 11
192.2253009231374
 21
14.55227318587589
 31
0.0
 11
192.2491205012425
 21
14.5652322570532
 31
0.0
 11
192.4387101558627
 21
14.39079508370268
 31
0.0
 11
192.6200310940436
 21
14.20305846374094
 31
0.0
 11
192.7777729231148
 21
14.01782380992441
 31
0.0
 11
192.8966252504058
 21
13.85089253500951
 31
0.0
 11
192.8715408217923
 21
13.83501202286071
 31
0.0
 11
192.8163550788425
 21
13.80007489613336
 31
0.0
 11
192.7611693358928
 21
13.765137769406
 31
0.0
 11
192.7360849072793
 21
13.7492572572572
 31
0.0
 11
192.6775518151612
 21
13.83887824681813
 31
0.0
 11
192.6050015078457
 21
13.93650288221031
 31
0.0
 11
192.2125412924095
 21
13.91636286943761
 31
0.0
 11
191.8249474069561
 21
13.89803302999776
 31
0.0
 11
191.4567378976213
 21
13.88202178722397
 31
0.0
 11
191.1224308105413
 21
13.86883756444946
 31
0.0
 11
190.8365441918518
 21
13.85898878500748
 31
0.0
 11
190.821186232174
 21
13.83220523466697
 31
0.0
 11
190.7937434290546
 21
13.82143559057249
 31
0.0
 11
190.786792719232
 21
13.84370299445581
 31
0.0
 11
190.7702179496548
 21
13.89680218833141
 31
0.0
 11
190.7504351601596
 21
13.96017864553778
 31
0.0
 11
190.7338603905825
 21
14.01327783941338
 31
0.0
 11
190.7269096807599
 21
14.0355452432967
 31
0.0
 11
190.9091199859153
 21
14.03751638912954
 31
0.0
 11
191.1174975848589
 21
14.04356211829469
 31
0.0
 11
191.2303203127216
 21
14.25483550301559
 31
0.0
 11
191.3407936722035
 21
14.48509813155886
 31
0.0
 11
191.4358254265627
 21
14.70699600701781
 31
0.0
 11
191.4043277461597
 21
14.70699600701781
 31
0.0
 11
191.3212884069153
 21
14.70699600701781
 31
0.0
 11
191.2038879617768
 21
14.70699600701781
 31
0.0
 11
191.0693069636912
 21
14.70699600701781
 31
0.0
 11
190.9347259656055
 21
14.70699600701781
 31
0.0
 11
190.817325520467
 21
14.70699600701781
 31
0.0
 11
190.7342861812226
 21
14.70699600701781
 31
0.0
 11
190.7027885008196
 21
14.70699600701781
 31
0.0
  0
SPLINE
  5
B0
102
{ACAD_REACTORS
330
CD
102
}
330
48
100
AcDbEntity
  8
_U_30EC_U_30A4_U_30E4_U_30FC_1
  6
Continuous
 62
     2
100
AcDbSpline
210
0.0
220
0.0
230
1.0
 70
    11
 71
     3
 72
   131
 73
   127
 74
   125
 42
0.000000001
 43
0.0000000001
 44
0.00000001
 40
0.0
 40
0.0
 40
0.0
 40
0.0
 40
0.0195577029826212
 40
0.0426490537461385
 40
0.2863607575856477
 40
0.5344948436189383
 40
0.7842238845573424
 40
0.8737315789467529
 40
0.9803832810312973
 40
1.092842274517039
 40
1.199761146656793
 40
1.289788768186492
 40
1.35157358078618
 40
1.370727117561406
 40
1.416400936017817
 40
1.470914848355955
 40
1.516588666791743
 40
1.535742203552824
 40
1.634216592293165
 40
1.760283341174969
 40
1.897966686682021
 40
2.031216387368798
 40
2.049689751137793
 40
2.101115601646731
 40
2.179502577739852
 40
2.278859318313972
 40
2.393194462258633
 40
2.516516648383754
 40
2.642834515405886
 40
2.766156701983395
 40
2.880491846754513
 40
2.979848588358559
 40
3.05823556544374
 40
3.109661416668896
 40
3.128134780704074
 40
3.14678374238639
 40
3.19125434331528
 40
3.244332157315938
 40
3.288802758225871
 40
3.307451719895142
 40
3.327717853844753
 40
3.383747753580117
 40
3.468388665924512
 40
3.574487837698822
 40
3.694892515728931
 40
3.822449946852075
 40
3.95000737792047
 40
4.070412055800563
 40
4.176511227368124
 40
4.261152139501572
 40
4.317182039076767
 40
4.337448172964688
 40
4.6200110026963
 40
4.885096638397585
 40
4.945373043518412
 40
5.014107710488732
 40
5.070481727652149
 40
5.319246955636679
 40
5.58481216450615
 40
5.859000912056993
 40
6.133746937542173
 40
6.40173221296898
 40
6.420736683995571
 40
6.472845717451222
 40
6.550702743894149
 40
6.646951193874358
 40
6.754234497930682
 40
6.86519608658746
 40
6.972479390357918
 40
7.06872783977208
 40
7.146584865451089
 40
7.198693898189319
 40
7.217698368905459
 40
7.234950401630941
 40
7.276089864269991
 40
7.325191803516109
 40
7.366331266090505
 40
7.383583298769858
 40
7.402779163492236
 40
7.453386443254667
 40
7.524934666445668
 40
7.606953361406008
 40
7.68897205642916
 40
7.76052027978441
 40
7.811127559734652
 40
7.830323424546274
 40
7.8478440552999
 40
7.894799345666934
 40
7.962779392744611
 40
8.043374293560644
 40
8.128174145149538
 40
8.208769044817329
 40
8.276749090377022
 40
8.323704379669573
 40
8.341225010056304
 40
8.358497614800452
 40
8.401679126686657
 40
8.457815092185715
 40
8.51395105772812
 40
8.557132569708076
 40
8.574405174505118
 40
8.602340668616467
 40
8.64345566053993
 40
8.663225271966601
 40
8.715345156564245
 40
8.789031889628584
 40
8.873502045520315
 40
8.95797219432394
 40
9.031658925567838
 40
9.083778811234525
 40
9.103548423002989
 40
9.119550083123555
 40
9.160817522379828
 40
9.217244429110222
 40
9.278724491644708
 40
9.335151398295464
 40
9.37641883735776
 40
9.392420497300547
 40
9.401196302734737
 40
9.417494229384156
 40
9.426270027749426
 40
9.44087507547746
 40
9.475702496998643
 40
9.51727070986581
 40
9.552098131993981
 40
9.56670316988419
 40
9.56670316988419
 40
9.56670316988419
 40
9.56670316988419
 10
194.6170254148479
 20
15.67015871511029
 30
0.0
 10
194.6134345093371
 20
15.6645369070216
 30
0.0
 10
194.6056039123625
 20
15.65227754419113
 30
0.0
 10
194.5129968974547
 20
15.61601916040986
 30
0.0
 10
194.4887622233247
 20
15.40148444212713
 30
0.0
 10
194.3858709845938
 20
15.22197284509712
 30
0.0
 10
194.1220492364305
 20
15.03615573798144
 30
0.0
 10
194.284547156918
 20
14.95959336566082
 30
0.0
 10
194.3607225760838
 20
14.89856693195444
 30
0.0
 10
194.4492171072759
 20
14.83515804544763
 30
0.0
 10
194.538993023311
 20
14.77525634219564
 30
0.0
 10
194.5883817636046
 20
14.72102154849212
 30
0.0
 10
194.6745708157381
 20
14.69286240541839
 30
0.0
 10
194.641126067423
 20
14.65713309652818
 30
0.0
 10
194.621467116631
 20
14.62550387991912
 30
0.0
 10
194.5919888217882
 20
14.58475872796076
 30
0.0
 10
194.5688989446031
 20
14.5550466348965
 30
0.0
 10
194.5380205968357
 20
14.50211422668501
 30
0.0
 10
194.4729193365739
 20
14.62740334938906
 30
0.0
 10
194.3796000122416
 20
14.6821390023394
 30
0.0
 10
194.2950636285138
 20
14.73916423939344
 30
0.0
 10
194.1722498125744
 20
14.89675287427523
 30
0.0
 10
194.1764450847301
 20
14.82035806766838
 30
0.0
 10
194.1751478652679
 20
14.77361280161297
 30
0.0
 10
194.1758126448078
 20
14.69584785812603
 30
0.0
 10
194.1755549986958
 20
14.59902068324423
 30
0.0
 10
194.1756431239922
 20
14.4865027907881
 30
0.0
 10
194.1756077302282
 20
14.36524085945699
 30
0.0
 10
194.175651175828
 20
14.2408689785896
 30
0.0
 10
194.1755199942406
 20
14.11967683631335
 30
0.0
 10
194.1759477562047
 20
14.00691148919741
 30
0.0
 10
194.1746678202312
 20
13.91082913768742
 30
0.0
 10
194.1779759851042
 20
13.83113826468697
 30
0.0
 10
194.1715197740088
 20
13.78815175788782
 30
0.0
 10
194.1806208705556
 20
13.74955432372039
 30
0.0
 10
194.1447910339936
 20
13.75810887724068
 30
0.0
 10
194.1115223815252
 20
13.75342519985443
 30
0.0
 10
194.0604562576041
 20
13.75351298759782
 30
0.0
 10
194.0269723972813
 20
13.75794430283818
 30
0.0
 10
193.9907585408754
 20
13.74960793842506
 30
0.0
 10
194.0009782568665
 20
13.79145277179281
 30
0.0
 10
193.9936487887773
 20
13.83778560820171
 30
0.0
 10
193.9973633136103
 20
13.92374831106012
 30
0.0
 10
193.9959480554896
 20
14.02605142704847
 30
0.0
 10
193.9964105554638
 20
14.1445322393151
 30
0.0
 10
193.996277368623
 20
14.26957683153355
 30
0.0
 10
193.9963015910045
 20
14.39475828107048
 30
0.0
 10
193.9963354925551
 20
14.51286645379058
 30
0.0
 10
193.9962060293132
 20
14.61628748709516
 30
0.0
 10
193.996550754908
 20
14.69932036153667
 30
0.0
 10
193.9958698278691
 20
14.75143368521244
 30
0.0
 10
193.9994586600621
 20
14.87912907821359
 30
0.0
 10
193.7826171386438
 20
14.58048716819622
 30
0.0
 10
193.602135492195
 20
14.35263981511511
 30
0.0
 10
193.5490322295611
 20
14.49373443289813
 30
0.0
 10
193.5200429133149
 20
14.54325767560943
 30
0.0
 10
193.419664806282
 20
14.6464177979011
 30
0.0
 10
193.7405127723261
 20
14.72695035023782
 30
0.0
 10
193.8689897005429
 20
14.91066283036438
 30
0.0
 10
194.0906454325359
 20
15.11931995771765
 30
0.0
 10
194.1770224894069
 20
15.29339211228345
 30
0.0
 10
194.4549394229075
 20
15.56967051342517
 30
0.0
 10
194.3346247839284
 20
15.56534559551116
 30
0.0
 10
194.2863197351348
 20
15.56614856202556
 30
0.0
 10
194.2102377454905
 20
15.56574582146587
 30
0.0
 10
194.116701000975
 20
15.56590275611612
 30
0.0
 10
194.0117594788557
 20
15.56582502576227
 30
0.0
 10
193.9033887738717
 20
15.56595464378557
 30
0.0
 10
193.7981454235897
 20
15.56554393490694
 30
0.0
 10
193.7056237819412
 20
15.56682073671594
 30
0.0
 10
193.6268130800707
 20
15.56340766534853
 30
0.0
 10
193.5839674565379
 20
15.57023350036323
 30
0.0
 10
193.5449499586515
 20
15.56065064201126
 30
0.0
 10
193.5526365271863
 20
15.59420779565546
 30
0.0
 10
193.5485464404312
 20
15.62523550322237
 30
0.0
 10
193.5485531368815
 20
15.67236529270905
 30
0.0
 10
193.5526239724911
 20
15.70340941646784
 30
0.0
 10
193.5449495574583
 20
15.73701861635907
 30
0.0
 10
193.5834819405494
 20
15.72748410420878
 30
0.0
 10
193.624122801448
 20
15.73397435498076
 30
0.0
 10
193.6951471850463
 20
15.7310015065026
 30
0.0
 10
193.7729318149633
 20
15.73174761399163
 30
0.0
 10
193.8507292246474
 20
15.73247814044531
 30
0.0
 10
193.9217232089907
 20
15.72954235514166
 30
0.0
 10
193.962427979182
 20
15.73595468772957
 30
0.0
 10
194.0009853489909
 20
15.7265052417601
 30
0.0
 10
193.9927342754927
 20
15.76264692158789
 30
0.0
 10
193.9982346669358
 20
15.80129837613232
 30
0.0
 10
193.9955754206163
 20
15.86913528561842
 30
0.0
 10
193.9965815471532
 20
15.94591641538742
 30
0.0
 10
193.9960178018319
 20
16.02849393582758
 30
0.0
 10
193.9970714526592
 20
16.10517329229878
 30
0.0
 10
193.9942675863129
 20
16.17331990776698
 30
0.0
 10
194.0000702721304
 20
16.21132399809345
 30
0.0
 10
193.9915654551158
 20
16.24758448077644
 30
0.0
 10
194.0255610233125
 20
16.23755723771851
 30
0.0
 10
194.0594575683099
 20
16.24073266813705
 30
0.0
 10
194.1126669060346
 20
16.23508965640608
 30
0.0
 10
194.1660768574483
 20
16.23434774436425
 30
0.0
 10
194.1995914649491
 20
16.2281922348298
 30
0.0
 10
194.2388086183038
 20
16.23346029773593
 30
0.0
 10
194.2120263698493
 20
16.1925338079349
 30
0.0
 10
194.1708111001724
 20
16.20371204538116
 30
0.0
 10
194.1782641540874
 20
16.15867056192129
 30
0.0
 10
194.1742227952185
 20
16.11412278028152
 30
0.0
 10
194.1761714049641
 20
16.04223572621709
 30
0.0
 10
194.175236484976
 20
15.96168630588778
 30
0.0
 10
194.176510719003
 20
15.88173995405001
 30
0.0
 10
194.1732043793865
 20
15.80841837083188
 30
0.0
 10
194.1802106179962
 20
15.76688643002574
 30
0.0
 10
194.1701440380126
 20
15.72752418568118
 30
0.0
 10
194.2029814803922
 20
15.73468063430987
 30
0.0
 10
194.2364577296481
 20
15.7302724313795
 30
0.0
 10
194.2915053476019
 20
15.73217943347903
 30
0.0
 10
194.3489502595316
 20
15.73185366407294
 30
0.0
 10
194.402302624831
 20
15.73106308733087
 30
0.0
 10
194.439854089664
 20
15.7331395911808
 30
0.0
 10
194.4623172523237
 20
15.73022338167114
 30
0.0
 10
194.4751678073732
 20
15.73572552644061
 30
0.0
 10
194.4858255685888
 20
15.73801118197795
 30
0.0
 10
194.4986635650143
 20
15.74494972588057
 30
0.0
 10
194.5145991033071
 20
15.72853046313675
 30
0.0
 10
194.5410623920891
 20
15.71709122319452
 30
0.0
 10
194.5726805253757
 20
15.69644687835193
 30
0.0
 10
194.5987255892151
 20
15.68116869628296
 30
0.0
 10
194.6128517723973
 20
15.67266976323186
 30
0.0
 10
194.6170254148479
 20
15.67015871511029
 30
0.0
 11
194.6170254148479
 21
15.67015871511029
 31
0.0
 11
194.6049990002243
 21
15.65473571164189
 31
0.0
 11
194.5848961795565
 21
15.64337406233921
 31
0.0
 11
194.4778986355813
 21
15.42440620231163
 31
0.0
 11
194.3477039934324
 21
15.21317201512162
 31
0.0
 11
194.1996540366071
 21
15.01206059027479
 31
0.0
 11
194.2734958253735
 21
14.9614738493538
 31
0.0
 11
194.36056643118
 21
14.89988411653741
 31
0.0
 11
194.4518003750404
 21
14.83413160594429
 31
0.0
 11
194.5381321779687
 21
14.77105653169308
 31
0.0
 11
194.6104963609787
 21
14.71749910790247
 31
0.0
 11
194.6598274450843
 21
14.6802995486911
 31
0.0
 11
194.6486940702213
 21
14.664714108695
 31
0.0
 11
194.6221452532403
 21
14.6275488287043
 31
0.0
 11
194.5904579555533
 21
14.58319026871539
 31
0.0
 11
194.5639091385723
 21
14.54602498872469
 31
0.0
 11
194.5527757637093
 21
14.53043954872859
 31
0.0
 11
194.4807013362947
 21
14.59754008690623
 31
0.0
 11
194.3852856985381
 21
14.67993354174673
 31
0.0
 11
194.279326415217
 21
14.76785017366918
 31
0.0
 11
194.1756210511091
 21
14.85152024309269
 31
0.0
 11
194.1756210511091
 21
14.83304687900865
 31
0.0
 11
194.1756210511091
 21
14.78162102763957
 31
0.0
 11
194.1756210511091
 21
14.70323405031
 31
0.0
 11
194.1756210511091
 21
14.60387730834449
 31
0.0
 11
194.1756210511091
 21
14.48954216306761
 31
0.0
 11
194.1756210511091
 21
14.36621997580389
 31
0.0
 11
194.1756210511091
 21
14.23990210787789
 31
0.0
 11
194.1756210511091
 21
14.11657992061417
 31
0.0
 11
194.1756210511091
 21
14.00224477533729
 31
0.0
 11
194.1756210511091
 21
13.90288803337178
 31
0.0
 11
194.1756210511091
 21
13.82450105604221
 31
0.0
 11
194.1756210511091
 21
13.77307520467313
 31
0.0
 11
194.1756210511091
 21
13.75460184058909
 31
0.0
 11
194.1569720893627
 21
13.75460184058909
 31
0.0
 11
194.112501488275
 21
13.75460184058909
 31
0.0
 11
194.0594236740736
 21
13.75460184058909
 31
0.0
 11
194.0149530729859
 21
13.75460184058909
 31
0.0
 11
193.9963041112395
 21
13.75460184058909
 31
0.0
 11
193.9963041112395
 21
13.77486797460216
 31
0.0
 11
193.9963041112395
 21
13.83089787452064
 31
0.0
 11
193.9963041112395
 21
13.91553878716345
 31
0.0
 11
193.9963041112395
 21
14.02163795934951
 31
0.0
 11
193.9963041112395
 21
14.14204263789774
 31
0.0
 11
193.9963041112395
 21
14.26960006962705
 31
0.0
 11
193.9963041112395
 21
14.39715750135635
 31
0.0
 11
193.9963041112395
 21
14.51756217990458
 31
0.0
 11
193.9963041112395
 21
14.62366135209064
 31
0.0
 11
193.9963041112395
 21
14.70830226473345
 31
0.0
 11
193.9963041112395
 21
14.76433216465193
 31
0.0
 11
193.9963041112395
 21
14.784598298665
 31
0.0
 11
193.7883272849481
 21
14.59331998274057
 31
0.0
 11
193.5763486358425
 21
14.43414885430809
 31
0.0
 11
193.5495629014482
 21
14.48814671952094
 31
0.0
 11
193.5138765415024
 21
14.54689140572026
 31
0.0
 11
193.4799697494124
 21
14.59192871537979
 31
0.0
 11
193.6830287742319
 21
14.73563387201057
 31
0.0
 11
193.881853195826
 21
14.91168423529992
 31
0.0
 11
194.0677041444178
 21
15.11327514524952
 31
0.0
 11
194.2318427502303
 21
15.33360194186111
 31
0.0
 11
194.3655301434864
 21
15.56585996513638
 31
0.0
 11
194.3465256724482
 21
15.56585996513638
 31
0.0
 11
194.2944166389562
 21
15.56585996513638
 31
0.0
 11
194.2165596124447
 21
15.56585996513638
 31
0.0
 11
194.1203111623478
 21
15.56585996513638
 31
0.0
 11
194.0130278580997
 21
15.56585996513638
 31
0.0
 11
193.9020662691345
 21
15.56585996513638
 31
0.0
 11
193.7947829648864
 21
15.56585996513638
 31
0.0
 11
193.6985345147895
 21
15.56585996513638
 31
0.0
 11
193.620677488278
 21
15.56585996513638
 31
0.0
 11
193.568568454786
 21
15.56585996513638
 31
0.0
 11
193.5495639837478
 21
15.56585996513638
 31
0.0
 11
193.5495639837478
 21
15.58311199790985
 31
0.0
 11
193.5495639837478
 21
15.62425146067735
 31
0.0
 11
193.5495639837478
 21
15.67335340010954
 31
0.0
 11
193.5495639837478
 21
15.71449286287704
 31
0.0
 11
193.5495639837478
 21
15.73174489565051
 31
0.0
 11
193.5687598486009
 21
15.73174489565051
 31
0.0
 11
193.6193671286684
 21
15.73174489565051
 31
0.0
 11
193.690915352212
 21
15.73174489565051
 31
0.0
 11
193.7729340474937
 21
15.73174489565051
 31
0.0
 11
193.8549527427753
 21
15.73174489565051
 31
0.0
 11
193.9265009663189
 21
15.73174489565051
 31
0.0
 11
193.9771082463864
 21
15.73174489565051
 31
0.0
 11
193.9963041112395
 21
15.73174489565051
 31
0.0
 11
193.9963041112395
 21
15.74926552655224
 31
0.0
 11
193.9963041112395
 21
15.79622081736887
 31
0.0
 11
193.9963041112395
 21
15.86420086526757
 31
0.0
 11
193.9963041112395
 21
15.94479576741551
 31
0.0
 11
193.9963041112395
 21
16.02959562097987
 31
0.0
 11
193.9963041112395
 21
16.11019052312782
 31
0.0
 11
193.9963041112395
 21
16.17817057102652
 31
0.0
 11
193.9963041112395
 21
16.22512586184315
 31
0.0
 11
193.9963041112395
 21
16.24264649274488
 31
0.0
 11
194.0135484112111
 21
16.24165806167517
 31
0.0
 11
194.0566591611401
 21
16.2391869840009
 31
0.0
 11
194.1127031360477
 21
16.23597458302434
 31
0.0
 11
194.1687471109553
 21
16.23276218204779
 31
0.0
 11
194.2118578608843
 21
16.23029110437352
 31
0.0
 11
194.2291021608559
 21
16.22930267330381
 31
0.0
 11
194.2143774674851
 21
16.2055629337264
 31
0.0
 11
194.1756210511091
 21
16.19183767331319
 31
0.0
 11
194.1756210511091
 21
16.172068061773
 31
0.0
 11
194.1756210511091
 21
16.1199481768034
 31
0.0
 11
194.1756210511091
 21
16.04626144288086
 31
0.0
 11
194.1756210511091
 21
15.96179128448185
 31
0.0
 11
194.1756210511091
 21
15.87732112608284
 31
0.0
 11
194.1756210511091
 21
15.8036343921603
 31
0.0
 11
194.1756210511091
 21
15.7515145071907
 31
0.0
 11
194.1756210511091
 21
15.73174489565051
 31
0.0
 11
194.1916227112937
 21
15.73174489565051
 31
0.0
 11
194.2328901507171
 21
15.73174489565051
 31
0.0
 11
194.2893170576838
 21
15.73174489565051
 31
0.0
 11
194.3507971204982
 21
15.73174489565051
 31
0.0
 11
194.4072240274649
 21
15.73174489565051
 31
0.0
 11
194.4484914668883
 21
15.73174489565051
 31
0.0
 11
194.4644931270729
 21
15.73174489565051
 31
0.0
 11
194.4728206422925
 21
15.73451387455926
 31
0.0
 11
194.4882860277004
 21
15.73965626396123
 31
0.0
 11
194.49661354292
 21
15.74242524286998
 31
0.0
 11
194.5091363776005
 21
15.73490952398297
 31
0.0
 11
194.5389985218386
 21
15.71698742509857
 31
0.0
 11
194.5746404359293
 21
15.6955965328817
 31
0.0
 11
194.6045025801674
 21
15.6776744339973
 31
0.0
 11
194.6170254148479
 21
15.67015871511029
 31
0.0
  0
SPLINE
  5
B1
102
{ACAD_REACTORS
330
CE
102
}
330
48
100
AcDbEntity
  8
_U_30EC_U_30A4_U_30E4_U_30FC_1
  6
Continuous
 62
     2
100
AcDbSpline
210
0.0
220
0.0
230
1.0
 70
    11
 71
     3
 72
   124
 73
   120
 74
   118
 42
0.000000001
 43
0.0000000001
 44
0.00000001
 40
0.0
 40
0.0
 40
0.0
 40
0.0
 40
0.027818722962451
 40
0.1011590162384269
 40
0.2048470170590239
 40
0.3237088716559245
 40
0.4425707262522
 40
0.5462587270699547
 40
0.6195990203311798
 40
0.647417752257866
 40
0.6750060736115242
 40
0.7357003855242759
 40
0.7963946998054474
 40
0.8239830245571766
 40
0.854093381110286
 40
0.937339662940954
 40
1.063094687343235
 40
1.220731268638073
 40
1.399622220914748
 40
1.589140358637732
 40
1.778658496423898
 40
1.957549448940509
 40
2.115186030873159
 40
2.240941056914463
 40
2.324187341760532
 40
2.354297700109382
 40
2.38188602467189
 40
2.442580338710475
 40
2.503274652750497
 40
2.530862977314606
 40
2.560983949278559
 40
2.640393784452905
 40
2.752662861759128
 40
2.881361560118145
 40
3.010060258455192
 40
3.122329335705339
 40
3.201739170817953
 40
3.231860142753313
 40
3.26429802403037
 40
3.352343701778238
 40
3.48209522686876
 40
3.639650650173018
 40
3.811108022565473
 40
3.982565394927978
 40
4.140120818152558
 40
4.269872343141267
 40
4.357918020802328
 40
4.390355902043955
 40
4.423256253992524
 40
4.508104530073045
 40
4.624121560636813
 40
4.75052817603157
 40
4.866545206602017
 40
4.951393482691974
 40
4.984293834645375
 40
5.011450833242287
 40
5.071196230152066
 40
5.130941627057136
 40
5.158098625648798
 40
5.190998977601489
 40
5.275847253689315
 40
5.391864284256749
 40
5.518270899648294
 40
5.634287930209333
 40
5.719136206288007
 40
5.752036558235894
 40
5.782130946282922
 40
5.862783906229098
 40
5.979550131774972
 40
6.117984316640382
 40
6.263641154587932
 40
6.402075339414146
 40
6.518841564907949
 40
6.599494524815534
 40
6.629588912848772
 40
6.654403028226349
 40
6.713575149488116
 40
6.784199939329434
 40
6.843372060493536
 40
6.868186175802782
 40
6.896246243201841
 40
6.939586233758234
 40
6.967846564564869
 40
7.043584251089808
 40
7.153234334451675
 40
7.283231855734433
 40
7.420011856035478
 40
7.550009376579839
 40
7.659659458835247
 40
7.735397144417245
 40
7.763657474851419
 40
7.796409728011076
 40
7.88087606509635
 40
7.996370852465736
 40
8.12220844641863
 40
8.237703224799224
 40
8.322169562010918
 40
8.354921815205932
 40
8.382078813307709
 40
8.44182420920701
 40
8.501569605240151
 40
8.528726603485728
 40
8.561478856695777
 40
8.645945193877827
 40
8.761439980865338
 40
8.887277580764481
 40
9.002772362001002
 40
9.087238696661222
 40
9.119990949235676
 40
9.152428830613376
 40
9.24047450863859
 40
9.370226034149539
 40
9.527781457984421
 40
9.699238830981407
 40
9.870696203978595
 40
10.02825162781402
 40
10.15800315332563
 40
10.24604883135118
 40
10.27848670378521
 40
10.27848670378521
 40
10.27848670378521
 40
10.27848670378521
 10
195.3821827564383
 20
14.01410517385759
 30
0.0
 10
195.3914554737523
 20
14.01410498511276
 30
0.0
 10
195.4251744536861
 20
14.01410430876716
 30
0.0
 10
195.4934706812465
 20
14.01411807243307
 30
0.0
 10
195.592014171158
 20
14.01403224219547
 30
0.0
 10
195.7062066464812
 20
14.01441755612253
 30
0.0
 10
195.818589441707
 20
14.01300835897547
 30
0.0
 10
195.9214376600118
 20
14.01719117422245
 30
0.0
 10
195.9806839874849
 20
14.00823089251985
 30
0.0
 10
196.0371265937033
 20
14.02164434526063
 30
0.0
 10
196.0246255586954
 20
13.97087198613363
 30
0.0
 10
196.0329549635703
 20
13.92589320939069
 30
0.0
 10
196.024817084112
 20
13.8805675299049
 30
0.0
 10
196.0370529214457
 20
13.82931932408468
 30
0.0
 10
195.9747773490333
 20
13.84447955365278
 30
0.0
 10
195.9060513026868
 20
13.83359750710744
 30
0.0
 10
195.7782756749592
 20
13.83911304747975
 30
0.0
 10
195.6262984511643
 20
13.837008512537
 30
0.0
 10
195.4502695972523
 20
13.83771002588475
 30
0.0
 10
195.2644431934287
 20
13.83745237531293
 30
0.0
 10
195.0786167437175
 20
13.83771005144606
 30
0.0
 10
194.9025880142168
 20
13.83700841847732
 30
0.0
 10
194.7506104154195
 20
13.83911332229991
 30
0.0
 10
194.6228357664554
 20
13.83359680767642
 30
0.0
 10
194.5541077836581
 20
13.84448077125944
 30
0.0
 10
194.4918349042883
 20
13.82931786684211
 30
0.0
 10
194.5040616290017
 20
13.88057510805173
 30
0.0
 10
194.4960004462597
 20
13.92582473272427
 30
0.0
 10
194.5040675809893
 20
13.97106357955325
 30
0.0
 10
194.4918238487083
 20
14.0223417690996
 30
0.0
 10
194.5525017120697
 20
14.00749577363136
 30
0.0
 10
194.6162810745736
 20
14.01756448170737
 30
0.0
 10
194.7277314353502
 20
14.01294644212001
 30
0.0
 10
194.8497533443824
 20
14.01413328905471
 30
0.0
 10
194.9719538137823
 20
14.01515863900637
 30
0.0
 10
195.0829794287392
 20
14.01092475623403
 30
0.0
 10
195.1476517413958
 20
14.02018584521741
 30
0.0
 10
195.2091162810501
 20
14.00604423049684
 30
0.0
 10
195.1930065601337
 20
14.07235527884519
 30
0.0
 10
195.2042980327358
 20
14.14447790121977
 30
0.0
 10
195.1987400822561
 20
14.27513760888288
 30
0.0
 10
195.200803506169
 20
14.42607323708242
 30
0.0
 10
195.2000167127295
 20
14.59335873107887
 30
0.0
 10
195.2007845215628
 20
14.76061110332304
 30
0.0
 10
195.1988038785628
 20
14.91163289269915
 30
0.0
 10
195.204130615662
 20
15.04206069552995
 30
0.0
 10
195.1933101388425
 20
15.114654426059
 30
0.0
 10
195.2090326429875
 20
15.18150469436799
 30
0.0
 10
195.143270813249
 20
15.16580512490825
 30
0.0
 10
195.0756367830763
 20
15.17609243083996
 30
0.0
 10
194.9615885293809
 20
15.17113786847123
 30
0.0
 10
194.8451242674902
 20
15.17414128030475
 30
0.0
 10
194.7306554121477
 20
15.16880303143389
 30
0.0
 10
194.6640324657812
 20
15.18001268074826
 30
0.0
 10
194.5990769715186
 20
15.16349132665012
 30
0.0
 10
194.6107989758707
 20
15.21473720477059
 30
0.0
 10
194.6032830189122
 20
15.25950333784091
 30
0.0
 10
194.6107989878835
 20
15.3042694489796
 30
0.0
 10
194.5990769505347
 20
15.3555153612974
 30
0.0
 10
194.66403263392
 20
15.33899381766814
 30
0.0
 10
194.7306533339822
 20
15.35020571373943
 30
0.0
 10
194.8451352858063
 20
15.34485436710663
 30
0.0
 10
194.9615454436962
 20
15.34791188771116
 30
0.0
 10
195.0757660174641
 20
15.34278499010707
 30
0.0
 10
195.1430150439226
 20
15.35345733355597
 30
0.0
 10
195.2083325941438
 20
15.33742082669076
 30
0.0
 10
195.1941391448552
 20
15.39949685750052
 30
0.0
 10
195.2036059462994
 20
15.46586761628762
 30
0.0
 10
195.1990269004085
 20
15.58239972741966
 30
0.0
 10
195.2007696555948
 20
15.71426685022376
 30
0.0
 10
195.1997551495392
 20
15.85615960150274
 30
0.0
 10
195.2017191344372
 20
15.98769050702581
 30
0.0
 10
195.1964668553851
 20
16.10524577283005
 30
0.0
 10
195.2073408763474
 20
16.16947789001586
 30
0.0
 10
195.1919536641853
 20
16.2310880254505
 30
0.0
 10
195.24075915378
 20
16.21702407382113
 30
0.0
 10
195.2853995564726
 20
16.21954742075317
 30
0.0
 10
195.3538643946742
 20
16.21512797401711
 30
0.0
 10
195.3959106169103
 20
16.20613025544037
 30
0.0
 10
195.4487544758775
 20
16.21411714866512
 30
0.0
 10
195.4207035002013
 20
16.17113917611678
 30
0.0
 10
195.3749142248594
 20
16.18259552043842
 30
0.0
 10
195.3869539073264
 20
16.12173520005141
 30
0.0
 10
195.379608607064
 20
16.05769299468777
 30
0.0
 10
195.3831195826162
 20
15.94909368863915
 30
0.0
 10
195.3819806760173
 20
15.82494319144755
 30
0.0
 10
195.3819174780262
 20
15.69189719829879
 30
0.0
 10
195.3832872966868
 20
15.56797381249556
 30
0.0
 10
195.3791638801313
 20
15.45868337849338
 30
0.0
 10
195.3877763103563
 20
15.39608580094169
 30
0.0
 10
195.3746757454402
 20
15.33740133296364
 30
0.0
 10
195.4393884328198
 20
15.35362113810901
 30
0.0
 10
195.5060405953156
 20
15.34270260383311
 30
0.0
 10
195.6198779541102
 20
15.34793740173754
 30
0.0
 10
195.7357259122097
 20
15.34485547516912
 30
0.0
 10
195.849692426328
 20
15.35018259812511
 30
0.0
 10
195.9160341018099
 20
15.33904208166541
 30
0.0
 10
195.980718852548
 20
15.35546979593177
 30
0.0
 10
195.9689820772722
 20
15.30425925210049
 30
0.0
 10
195.9765168063041
 20
15.25950334121001
 30
0.0
 10
195.9689820992257
 20
15.21474739010027
 30
0.0
 10
195.9807188140736
 20
15.16353690871041
 30
0.0
 10
195.9160344075252
 20
15.1799642779422
 30
0.0
 10
195.8496886430824
 20
15.1688278444727
 30
0.0
 10
195.7357459487012
 20
15.17413115893121
 30
0.0
 10
195.6197995623054
 20
15.17114764593544
 30
0.0
 10
195.5062756882122
 20
15.17606892268395
 30
0.0
 10
195.4389231318804
 20
15.1658508751352
 30
0.0
 10
195.3734285122495
 20
15.18145996138817
 30
0.0
 10
195.3891713619218
 20
15.11463851827412
 30
0.0
 10
195.3783275998213
 20
15.0420705781588
 30
0.0
 10
195.3836581629792
 20
14.91162247614417
 30
0.0
 10
195.3817136151855
 20
14.76064558185227
 30
0.0
 10
195.3823133683214
 20
14.5932224393416
 30
0.0
 10
195.3821506559604
 20
14.42656176118373
 30
0.0
 10
195.3821895488136
 20
14.27360142921638
 30
0.0
 10
195.38218164131
 20
14.14849178985707
 30
0.0
 10
195.3821828382744
 20
14.06507890991422
 30
0.0
 10
195.3821827716208
 20
14.02491778281978
 30
0.0
 10
195.3821827564383
 20
14.01410517385759
 30
0.0
 11
195.3821827564383
 21
14.01410517385759
 31
0.0
 11
195.4100014883675
 21
14.01410517385759
 31
0.0
 11
195.4833417816353
 21
14.01410517385759
 31
0.0
 11
195.5870297824622
 21
14.01410517385759
 31
0.0
 11
195.7058916370687
 21
14.01410517385759
 31
0.0
 11
195.8247534916751
 21
14.01410517385759
 31
0.0
 11
195.928441492502
 21
14.01410517385759
 31
0.0
 11
196.0017817857698
 21
14.01410517385759
 31
0.0
 11
196.029600517699
 21
14.01410517385759
 31
0.0
 11
196.029600517699
 21
13.98651684921171
 31
0.0
 11
196.029600517699
 21
13.92582253499079
 31
0.0
 11
196.029600517699
 21
13.86512822076986
 31
0.0
 11
196.029600517699
 21
13.83753989612399
 31
0.0
 11
195.9994901593494
 21
13.83753989612399
 31
0.0
 11
195.9162438745004
 21
13.83753989612399
 31
0.0
 11
195.7904888484521
 21
13.83753989612399
 31
0.0
 11
195.6328522665041
 21
13.83753989612399
 31
0.0
 11
195.4539613139564
 21
13.83753989612399
 31
0.0
 11
195.2644431761089
 21
13.83753989612399
 31
0.0
 11
195.0749250382613
 21
13.83753989612399
 31
0.0
 11
194.8960340857136
 21
13.83753989612399
 31
0.0
 11
194.7383975037656
 21
13.83753989612399
 31
0.0
 11
194.6126424777172
 21
13.83753989612399
 31
0.0
 11
194.5293961928683
 21
13.83753989612399
 31
0.0
 11
194.4992858345187
 21
13.83753989612399
 31
0.0
 11
194.4992858345187
 21
13.86512822076987
 31
0.0
 11
194.4992858345187
 21
13.92582253499079
 31
0.0
 11
194.4992858345187
 21
13.98651684921171
 31
0.0
 11
194.4992858345187
 21
14.01410517385759
 31
0.0
 11
194.5294068064947
 21
14.01410517385759
 31
0.0
 11
194.608816641704
 21
14.01410517385759
 31
0.0
 11
194.721085719069
 21
14.01410517385759
 31
0.0
 11
194.8497844175118
 21
14.01410517385759
 31
0.0
 11
194.9784831159545
 21
14.01410517385759
 31
0.0
 11
195.0907521933195
 21
14.01410517385759
 31
0.0
 11
195.1701620285289
 21
14.01410517385759
 31
0.0
 11
195.2002830005048
 21
14.01410517385759
 31
0.0
 11
195.2002830005048
 21
14.04654305523837
 31
0.0
 11
195.2002830005048
 21
14.13458873327192
 31
0.0
 11
195.2002830005048
 21
14.26434025879504
 31
0.0
 11
195.2002830005048
 21
14.42189568264455
 31
0.0
 11
195.2002830005048
 21
14.59335305565725
 31
0.0
 11
195.2002830005048
 21
14.76481042866995
 31
0.0
 11
195.2002830005048
 21
14.92236585251946
 31
0.0
 11
195.2002830005048
 21
15.05211737804258
 31
0.0
 11
195.2002830005048
 21
15.14016305607613
 31
0.0
 11
195.2002830005048
 21
15.17260093745691
 31
0.0
 11
195.1673826485529
 21
15.17260093745691
 31
0.0
 11
195.0825343724662
 21
15.17260093745691
 31
0.0
 11
194.9665173418988
 21
15.17260093745691
 31
0.0
 11
194.8401107265044
 21
15.17260093745691
 31
0.0
 11
194.724093695937
 21
15.17260093745691
 31
0.0
 11
194.6392454198503
 21
15.17260093745691
 31
0.0
 11
194.6063450678984
 21
15.17260093745691
 31
0.0
 11
194.6063450678984
 21
15.19975793614803
 31
0.0
 11
194.6063450678984
 21
15.2595033332685
 31
0.0
 11
194.6063450678984
 21
15.31924873038897
 31
0.0
 11
194.6063450678984
 21
15.34640572908009
 31
0.0
 11
194.6392454198504
 21
15.34640572908009
 31
0.0
 11
194.724093695937
 21
15.34640572908009
 31
0.0
 11
194.8401107265044
 21
15.34640572908009
 31
0.0
 11
194.9665173418988
 21
15.34640572908009
 31
0.0
 11
195.0825343724662
 21
15.34640572908009
 31
0.0
 11
195.1673826485529
 21
15.34640572908009
 31
0.0
 11
195.2002830005048
 21
15.34640572908009
 31
0.0
 11
195.2002830005048
 21
15.37650011731369
 31
0.0
 11
195.2002830005048
 21
15.45715307777973
 31
0.0
 11
195.2002830005048
 21
15.57391930412609
 31
0.0
 11
195.2002830005048
 21
15.71235349000064
 31
0.0
 11
195.2002830005048
 21
15.85801032905125
 31
0.0
 11
195.2002830005048
 21
15.9964445149258
 31
0.0
 11
195.2002830005048
 21
16.11321074127216
 31
0.0
 11
195.2002830005048
 21
16.1938637017382
 31
0.0
 11
195.2002830005048
 21
16.2239580899718
 31
0.0
 11
195.2250405288618
 21
16.22228324219444
 31
0.0
 11
195.2840777118669
 21
16.21828937441768
 31
0.0
 11
195.3545414464214
 21
16.21352249997443
 31
0.0
 11
195.4135786294265
 21
16.20952863219766
 31
0.0
 11
195.4383361577835
 21
16.20785378442031
 31
0.0
 11
195.423306722403
 21
16.18415814206514
 31
0.0
 11
195.3821827564383
 21
16.17047697887409
 31
0.0
 11
195.3821827564383
 21
16.14221664794837
 31
0.0
 11
195.3821827564383
 21
16.06647896106744
 31
0.0
 11
195.3821827564383
 21
15.95682887707564
 31
0.0
 11
195.3821827564383
 21
15.82683135481733
 31
0.0
 11
195.3821827564383
 21
15.69005135313684
 31
0.0
 11
195.3821827564383
 21
15.56005383087853
 31
0.0
 11
195.3821827564383
 21
15.45040374688674
 31
0.0
 11
195.3821827564383
 21
15.37466606000581
 31
0.0
 11
195.3821827564383
 21
15.34640572908009
 31
0.0
 11
195.4149350096115
 21
15.34640572908009
 31
0.0
 11
195.4994013467422
 21
15.34640572908009
 31
0.0
 11
195.6148961342476
 21
15.34640572908009
 31
0.0
 11
195.7407337385445
 21
15.34640572908009
 31
0.0
 11
195.8562285260498
 21
15.34640572908009
 31
0.0
 11
195.9406948631806
 21
15.34640572908009
 31
0.0
 11
195.9734471163538
 21
15.34640572908009
 31
0.0
 11
195.9734471163538
 21
15.31924873038897
 31
0.0
 11
195.9734471163538
 21
15.2595033332685
 31
0.0
 11
195.9734471163538
 21
15.19975793614803
 31
0.0
 11
195.9734471163538
 21
15.17260093745691
 31
0.0
 11
195.9406948631806
 21
15.17260093745691
 31
0.0
 11
195.8562285260498
 21
15.17260093745691
 31
0.0
 11
195.7407337385445
 21
15.17260093745691
 31
0.0
 11
195.6148961342476
 21
15.17260093745691
 31
0.0
 11
195.4994013467422
 21
15.17260093745691
 31
0.0
 11
195.4149350096114
 21
15.17260093745691
 31
0.0
 11
195.3821827564383
 21
15.17260093745691
 31
0.0
 11
195.3821827564383
 21
15.14016305607613
 31
0.0
 11
195.3821827564383
 21
15.05211737804258
 31
0.0
 11
195.3821827564383
 21
14.92236585251946
 31
0.0
 11
195.3821827564383
 21
14.76481042866995
 31
0.0
 11
195.3821827564383
 21
14.59335305565725
 31
0.0
 11
195.3821827564383
 21
14.42189568264455
 31
0.0
 11
195.3821827564383
 21
14.26434025879504
 31
0.0
 11
195.3821827564383
 21
14.13458873327192
 31
0.0
 11
195.3821827564383
 21
14.04654305523837
 31
0.0
 11
195.3821827564383
 21
14.01410517385759
 31
0.0
  0
SPLINE
  5
B2
102
{ACAD_REACTORS
330
CF
102
}
330
48
100
AcDbEntity
  8
_U_30EC_U_30A4_U_30E4_U_30FC_1
  6
Continuous
 62
     2
100
AcDbSpline
210
0.0
220
0.0
230
1.0
 70
     8
 71
     3
 72
    62
 73
    58
 74
    56
 42
0.000000001
 43
0.0000000001
 44
0.00000001
 40
0.0
 40
0.0
 40
0.0
 40
0.0
 40
0.0598250028308769
 40
0.20248464868979
 40
0.3727558389221599
 40
0.5154154847936923
 40
0.5752404975786476
 40
0.9332326775488443
 40
1.29045176283959
 40
1.602077253145977
 40
1.699931634112229
 40
1.799359756425188
 40
2.270120149657259
 40
2.804661928461693
 40
2.882342287383397
 40
3.076543185719232
 40
3.329004354835668
 40
3.581465524568472
 40
3.775666424543737
 40
3.85334678455835
 40
3.899120679595095
 40
3.984129341792093
 40
4.029903236817441
 40
4.105797496059592
 40
4.295533144152545
 40
4.542189486611774
 40
4.788845828875711
 40
4.978581476410087
 40
5.054475735244326
 40
5.621734664339385
 40
6.13086724203734
 40
6.225249780948553
 40
6.318913039727265
 40
6.663579954558871
 40
7.047498900224701
 40
7.435230791575636
 40
7.498943906668048
 40
7.650875181210042
 40
7.832212509001552
 40
7.984143783696938
 40
8.047856898903065
 40
8.091554632732576
 40
8.172707566964243
 40
8.21640530076797
 40
8.289021782160855
 40
8.462184160757229
 40
8.66886183800531
 40
8.842024215263901
 40
8.914640695475097
 40
8.989881580861306
 40
9.155411528827225
 40
9.32094147774402
 40
9.396182352487276
 40
9.454709011143823
 40
9.583467660170758
 40
9.712226309013037
 40
9.77075295798949
 40
9.77075295798949
 40
9.77075295798949
 40
9.77075295798949
 10
187.1521871691834
 20
14.93980288195951
 30
0.0
 10
187.1322348171624
 20
14.93980875568672
 30
0.0
 10
187.0647037716466
 20
14.93982863806159
 30
0.0
 10
186.9410612161789
 20
14.93949362520326
 30
0.0
 10
186.7863180150056
 20
14.94107673750513
 30
0.0
 10
186.669734948248
 20
14.93686078860496
 30
0.0
 10
186.455094263424
 20
14.95215205331628
 30
0.0
 10
186.8518948407228
 20
14.59198721286193
 30
0.0
 10
186.8945656069268
 20
14.37510503397167
 30
0.0
 10
187.318916214661
 20
14.19325062511448
 30
0.0
 10
187.1439821496074
 20
14.08985196568075
 30
0.0
 10
187.0194523925084
 20
13.87831523212716
 30
0.0
 10
186.7666277235944
 20
14.34806081001564
 30
0.0
 10
186.4797602893626
 20
14.9951151698452
 30
0.0
 10
186.490633592666
 20
14.68782672154694
 30
0.0
 10
186.488289277796
 20
14.5228861697178
 30
0.0
 10
186.4861096126411
 20
14.28879670711697
 30
0.0
 10
186.4980774396347
 20
14.0449807242179
 30
0.0
 10
186.468798474063
 20
13.89855796860992
 30
0.0
 10
186.511452262547
 20
13.75113490174548
 30
0.0
 10
186.4239814005639
 20
13.76685797306228
 30
0.0
 10
186.3768527606745
 20
13.76694303543463
 30
0.0
 10
186.2898973207712
 20
13.75109425482918
 30
0.0
 10
186.3313474021722
 20
13.8952777142277
 30
0.0
 10
186.3029875004285
 20
14.03855052698463
 30
0.0
 10
186.31459737753
 20
14.27674947365271
 30
0.0
 10
186.3124175648272
 20
14.50517235240352
 30
0.0
 10
186.3103111127993
 20
14.66705729375999
 30
0.0
 10
186.3208035438324
 20
14.98153709333758
 30
0.0
 10
186.0128963252893
 20
14.29229470872434
 30
0.0
 10
185.7055258267457
 20
13.81476750243067
 30
0.0
 10
185.5851367066273
 20
14.0374111263743
 30
0.0
 10
185.4074607910723
 20
14.15011034955575
 30
0.0
 10
185.8853326362893
 20
14.32548143465462
 30
0.0
 10
185.9353959057208
 20
14.56091929252032
 30
0.0
 10
186.3583799621716
 20
14.95322989344608
 30
0.0
 10
186.1276754273541
 20
14.93655307029067
 30
0.0
 10
186.004968585934
 20
14.94269518948772
 30
0.0
 10
185.8325483095662
 20
14.93312822699574
 30
0.0
 10
185.7213224694449
 20
14.95448818489667
 30
0.0
 10
185.6025779627448
 20
14.92136265357421
 30
0.0
 10
185.6183169706686
 20
15.00203900606886
 30
0.0
 10
185.6178550933762
 20
15.04645414290856
 30
0.0
 10
185.6027881889931
 20
15.12967081778536
 30
0.0
 10
185.7372380935444
 20
15.09062651983886
 30
0.0
 10
185.8619755545747
 20
15.11739729328425
 30
0.0
 10
186.062875523728
 20
15.10063949044055
 30
0.0
 10
186.1921540949353
 20
15.12204225913007
 30
0.0
 10
186.3328419928294
 20
15.08868778853423
 30
0.0
 10
186.2980927452614
 20
15.22651875785071
 30
0.0
 10
186.3222185666714
 20
15.34963257349485
 30
0.0
 10
186.2967086182392
 20
15.47024055670341
 30
0.0
 10
186.3333251146685
 20
15.60539865141501
 30
0.0
 10
186.2211417027769
 20
15.58094545781896
 30
0.0
 10
186.1280356457136
 20
15.59307749842028
 30
0.0
 10
186.0191547579819
 20
15.5895763007
 30
0.0
 10
185.9569697640964
 20
15.58981755951609
 30
0.0
 10
185.9375369557246
 20
15.5898929512415
 30
0.0
 11
187.1521871691834
 21
14.93980288195951
 31
0.0
 11
187.0923621563983
 21
14.93980288195951
 31
0.0
 11
186.949702510526
 21
14.93980288195951
 31
0.0
 11
186.7794313202914
 21
14.93980288195951
 31
0.0
 11
186.6367716744192
 21
14.93980288195951
 31
0.0
 11
186.576946661634
 21
14.93980288195951
 31
0.0
 11
186.7679960754842
 21
14.63705127966891
 31
0.0
 11
186.994127278563
 21
14.36051890576685
 31
0.0
 11
187.2244526173371
 21
14.1506125349346
 31
0.0
 11
187.1521596330704
 21
14.0846640366872
 31
0.0
 11
187.0879364402643
 21
14.00876059052558
 31
0.0
 11
186.7732818215558
 21
14.35891458349365
 31
0.0
 11
186.4886640249976
 21
14.811382951436
 31
0.0
 11
186.4886640249976
 21
14.73370259137313
 31
0.0
 11
186.4886640249976
 21
14.53950169121594
 31
0.0
 11
186.4886640249976
 21
14.2870405210116
 31
0.0
 11
186.4886640249976
 21
14.03457935080726
 31
0.0
 11
186.4886640249976
 21
13.84037845065008
 31
0.0
 11
186.4886640249976
 21
13.76269809058721
 31
0.0
 11
186.4428901295605
 21
13.76269809058721
 31
0.0
 11
186.3578814666058
 21
13.76269809058721
 31
0.0
 11
186.3121075711687
 21
13.76269809058721
 31
0.0
 11
186.3121075711687
 21
13.83859234982749
 31
0.0
 11
186.3121075711687
 21
14.02832799792819
 31
0.0
 11
186.3121075711687
 21
14.2749843404591
 31
0.0
 11
186.3121075711687
 21
14.52164068299001
 31
0.0
 11
186.3121075711687
 21
14.71137633109071
 31
0.0
 11
186.3121075711687
 21
14.78727059033099
 31
0.0
 11
185.9987626399266
 21
14.31440946197692
 31
0.0
 11
185.6352328662148
 21
13.95795177109389
 31
0.0
 11
185.5773927461627
 21
14.03253450545025
 31
0.0
 11
185.5094852305341
 21
14.09704322939248
 31
0.0
 11
185.7750721898319
 21
14.31672219795893
 31
0.0
 11
186.0233764972061
 21
14.60953395971698
 31
0.0
 11
186.226498280526
 21
14.93980288195951
 31
0.0
 11
186.1627851652721
 21
14.93980288195951
 31
0.0
 11
186.0108538904359
 21
14.93980288195951
 31
0.0
 11
185.8295165624055
 21
14.93980288195951
 31
0.0
 11
185.6775852875693
 21
14.93980288195951
 31
0.0
 11
185.6138721723154
 21
14.93980288195951
 31
0.0
 11
185.6138721723154
 21
14.9835006160021
 31
0.0
 11
185.6138721723154
 21
15.06465355065261
 31
0.0
 11
185.6138721723154
 21
15.1083512846952
 31
0.0
 11
185.6864886537961
 21
15.1083512846952
 31
0.0
 11
185.8596510327118
 21
15.1083512846952
 31
0.0
 11
186.0663287107723
 21
15.1083512846952
 31
0.0
 11
186.239491089688
 21
15.1083512846952
 31
0.0
 11
186.3121075711687
 21
15.1083512846952
 31
0.0
 11
186.3121075711687
 21
15.18359217009306
 31
0.0
 11
186.3121075711687
 21
15.34912211796835
 31
0.0
 11
186.3121075711687
 21
15.51465206584364
 31
0.0
 11
186.3121075711687
 21
15.5898929512415
 31
0.0
 11
186.2535809125055
 21
15.5898929512415
 31
0.0
 11
186.1248222634467
 21
15.5898929512415
 31
0.0
 11
185.9960636143877
 21
15.5898929512415
 31
0.0
 11
185.9375369557246
 21
15.5898929512415
 31
0.0
  0
SPLINE
  5
B3
102
{ACAD_REACTORS
330
CF
102
}
330
48
100
AcDbEntity
  8
_U_30EC_U_30A4_U_30E4_U_30FC_1
  6
Continuous
 62
     2
100
AcDbSpline
210
0.0
220
0.0
230
1.0
 70
     8
 71
     3
 72
    70
 73
    66
 74
    64
 42
0.000000001
 43
0.0000000001
 44
0.00000001
 40
0.0
 40
0.0
 40
0.0
 40
0.0
 40
0.0241731073021472
 40
0.0846058988987013
 40
0.1631685280353284
 40
0.2417311571789756
 40
0.3021639488292751
 40
0.3263370654895541
 40
0.3533118254248863
 40
0.4228783438922058
 40
0.5179999095313278
 40
0.6216398239465925
 40
0.7167613891499457
 40
0.7863279069649579
 40
0.8133026791761516
 40
0.8372943998771356
 40
0.8945054261372554
 40
0.9627895541962331
 40
1.020000580349044
 40
1.043992300975142
 40
1.071934345522875
 40
1.113121768772863
 40
1.145225199332188
 40
1.225483775412726
 40
1.329819923771438
 40
1.434156071994328
 40
1.514414647795751
 40
1.546518078208361
 40
1.578974764260134
 40
1.662678849314129
 40
1.77713137366835
 40
1.901833377474741
 40
2.01628590050053
 40
2.099989982527898
 40
2.132446666570256
 40
2.15878235448598
 40
2.216720867907771
 40
2.27465938133419
 40
2.300995069256126
 40
2.333451754066098
 40
2.417155836543779
 40
2.531608358985218
 40
2.656310362283713
 40
2.770762886388846
 40
2.854466971340011
 40
2.886923657363818
 40
2.913597976833253
 40
2.982389642875061
 40
3.07645171694693
 40
3.178937260458552
 40
3.272999334739962
 40
3.34179100105919
 40
3.368465320663503
 40
3.396976080738753
 40
3.472140811845989
 40
3.578408190308678
 40
3.700226892456143
 40
3.822045594634389
 40
3.928312973256524
 40
4.003477705314921
 40
4.031988456866987
 40
4.058324144797789
 40
4.116262658236955
 40
4.174201171400762
 40
4.200536849608698
 40
4.200536849608698
 40
4.200536849608698
 40
4.200536849608698
 10
185.9857704961609
 20
15.75844135397711
 30
0.0
 10
185.9938259544679
 20
15.75844359811692
 30
0.0
 10
186.0220200663241
 20
15.75845146032804
 30
0.0
 10
186.0765534803672
 20
15.75830754828377
 30
0.0
 10
186.1482891808604
 20
15.75909120499903
 30
0.0
 10
186.2236240137062
 20
15.75627570463817
 30
0.0
 10
186.2713052366439
 20
15.76298403400963
 30
0.0
 10
186.3195071245616
 20
15.75197563692439
 30
0.0
 10
186.3062571799873
 20
15.80546402997039
 30
0.0
 10
186.3151093964538
 20
15.86049583543097
 30
0.0
 10
186.3108698036285
 20
15.95419908726114
 30
0.0
 10
186.313348348128
 20
16.04959482218536
 30
0.0
 10
186.3090938706059
 20
16.14356821983391
 30
0.0
 10
186.3179818665847
 20
16.19795062438015
 30
0.0
 10
186.3046977409945
 20
16.25233997691463
 30
0.0
 10
186.3514119277109
 20
16.2384221633536
 30
0.0
 10
186.3943254545737
 20
16.24103877374046
 30
0.0
 10
186.4605443456684
 20
16.23648422450756
 30
0.0
 10
186.5013342271799
 20
16.22778162134162
 30
0.0
 10
186.5525145690818
 20
16.23531799890195
 30
0.0
 10
186.5253720487201
 20
16.19349970223285
 30
0.0
 10
186.4803096055706
 20
16.20284992072605
 30
0.0
 10
186.4942065045051
 20
16.13841207371843
 30
0.0
 10
186.4858414431653
 20
16.07378219627406
 30
0.0
 10
186.4903632178399
 20
15.97529141193894
 30
0.0
 10
186.4854741311166
 20
15.87595932842576
 30
0.0
 10
186.4950258992082
 20
15.81293115552975
 30
0.0
 10
186.47997614552
 20
15.74964011499794
 30
0.0
 10
186.5449159457208
 20
15.76515072944275
 30
0.0
 10
186.6116246399496
 20
15.75499387697818
 30
0.0
 10
186.7241435470828
 20
15.75988800099374
 30
0.0
 10
186.8390235448953
 20
15.75691204732789
 30
0.0
 10
186.9519871999747
 20
15.76221664184997
 30
0.0
 10
187.0176267597678
 20
15.75107306472094
 30
0.0
 10
187.0816276691053
 20
15.76744532319863
 30
0.0
 10
187.0703142889189
 20
15.7176168990528
 30
0.0
 10
187.0775339871509
 20
15.67416715212129
 30
0.0
 10
187.0703142611269
 20
15.63071745587451
 30
0.0
 10
187.0816277175994
 20
15.58088895196882
 30
0.0
 10
187.0176263598972
 20
15.59726166091369
 30
0.0
 10
186.9519921240459
 20
15.58611271661594
 30
0.0
 10
186.838997431733
 20
15.5914485720686
 30
0.0
 10
186.7242456548644
 20
15.58834345663828
 30
0.0
 10
186.611318368686
 20
15.59364894682594
 30
0.0
 10
186.5455220903585
 20
15.582573000196
 30
0.0
 10
186.4816097975358
 20
15.59887597847624
 30
0.0
 10
186.4936015165126
 20
15.54423524395748
 30
0.0
 10
186.4862104613005
 20
15.48854295047847
 30
0.0
 10
186.4892684841983
 20
15.39649689140575
 30
0.0
 10
186.4893422785683
 20
15.30179109873105
 30
0.0
 10
186.486031357836
 20
15.20952782902269
 30
0.0
 10
186.4939505989904
 20
15.15435768736143
 30
0.0
 10
186.4815076611617
 20
15.10058169100138
 30
0.0
 10
186.5389116551632
 20
15.11453768862784
 30
0.0
 10
186.5994708140383
 20
15.10511457884229
 30
0.0
 10
186.7048680855081
 20
15.10942885928708
 30
0.0
 10
186.8204294070623
 20
15.10835504612034
 30
0.0
 10
186.9359688877798
 20
15.10725965900997
 30
0.0
 10
187.0414181130841
 20
15.11162525770635
 30
0.0
 10
187.1018680471805
 20
15.10209426030674
 30
0.0
 10
187.1592837739111
 20
15.11617289606382
 30
0.0
 10
187.147777387671
 20
15.06707153265685
 30
0.0
 10
187.153756678175
 20
15.02564658018651
 30
0.0
 10
187.1520311050803
 20
14.97651677966697
 30
0.0
 10
187.1521500122972
 20
14.94854428447609
 30
0.0
 10
187.1521871691834
 20
14.93980288195951
 30
0.0
 11
185.9857704961609
 21
15.75844135397711
 31
0.0
 11
186.0099436128282
 21
15.75844135397711
 31
0.0
 11
186.0703764044962
 21
15.75844135397711
 31
0.0
 11
186.1489390336648
 21
15.75844135397711
 31
0.0
 11
186.2275016628334
 21
15.75844135397711
 31
0.0
 11
186.2879344545015
 21
15.75844135397711
 31
0.0
 11
186.3121075711687
 21
15.75844135397711
 31
0.0
 11
186.3121075711687
 21
15.78541612620069
 31
0.0
 11
186.3121075711687
 21
15.85498264404044
 31
0.0
 11
186.3121075711687
 21
15.9501042092499
 31
0.0
 11
186.3121075711687
 21
16.0537441235826
 31
0.0
 11
186.3121075711687
 21
16.14886568879206
 31
0.0
 11
186.3121075711687
 21
16.21843220663181
 31
0.0
 11
186.3121075711687
 21
16.24540697885539
 31
0.0
 11
186.3360407604892
 21
16.24373213107803
 31
0.0
 11
186.3931122119458
 21
16.23973826330123
 31
0.0
 11
186.461229750781
 21
16.23497138885796
 31
0.0
 11
186.5183012022376
 21
16.23097752108117
 31
0.0
 11
186.5422343915581
 21
16.22930267330381
 31
0.0
 11
186.5274972731229
 21
16.2055629337264
 31
0.0
 11
186.4886640249976
 21
16.19183767331319
 31
0.0
 11
186.4886640249976
 21
16.15973424225126
 31
0.0
 11
186.4886640249976
 21
16.07947566459643
 31
0.0
 11
186.4886640249976
 21
15.97513951364515
 31
0.0
 11
186.4886640249976
 21
15.87080336269387
 31
0.0
 11
186.4886640249976
 21
15.79054478503904
 31
0.0
 11
186.4886640249976
 21
15.75844135397711
 31
0.0
 11
186.5211207110824
 21
15.75844135397711
 31
0.0
 11
186.6048247962486
 21
15.75844135397711
 31
0.0
 11
186.7192773208634
 21
15.75844135397711
 31
0.0
 11
186.8439793252946
 21
15.75844135397711
 31
0.0
 11
186.9584318499095
 21
15.75844135397711
 31
0.0
 11
187.0421359350756
 21
15.75844135397711
 31
0.0
 11
187.0745926211604
 21
15.75844135397711
 31
0.0
 11
187.0745926211604
 21
15.73210566604967
 31
0.0
 11
187.0745926211604
 21
15.6741671526093
 31
0.0
 11
187.0745926211604
 21
15.61622863916894
 31
0.0
 11
187.0745926211604
 21
15.5898929512415
 31
0.0
 11
187.0421359350756
 21
15.5898929512415
 31
0.0
 11
186.9584318499095
 21
15.5898929512415
 31
0.0
 11
186.8439793252946
 21
15.5898929512415
 31
0.0
 11
186.7192773208634
 21
15.5898929512415
 31
0.0
 11
186.6048247962485
 21
15.5898929512415
 31
0.0
 11
186.5211207110824
 21
15.5898929512415
 31
0.0
 11
186.4886640249976
 21
15.5898929512415
 31
0.0
 11
186.4886640249976
 21
15.56321863152028
 31
0.0
 11
186.4886640249976
 21
15.4944269648708
 31
0.0
 11
186.4886640249976
 21
15.40036489006439
 31
0.0
 11
186.4886640249976
 21
15.29787934587232
 31
0.0
 11
186.4886640249976
 21
15.20381727106589
 31
0.0
 11
186.4886640249976
 21
15.13502560441642
 31
0.0
 11
186.4886640249976
 21
15.1083512846952
 31
0.0
 11
186.5171747850993
 21
15.1083512846952
 31
0.0
 11
186.5923395162767
 21
15.1083512846952
 31
0.0
 11
186.6986068948376
 21
15.1083512846952
 31
0.0
 11
186.8204255970905
 21
15.1083512846952
 31
0.0
 11
186.9422442993434
 21
15.1083512846952
 31
0.0
 11
187.0485116779044
 21
15.1083512846952
 31
0.0
 11
187.1236764090817
 21
15.1083512846952
 31
0.0
 11
187.1521871691834
 21
15.1083512846952
 31
0.0
 11
187.1521871691834
 21
15.08201559676775
 31
0.0
 11
187.1521871691834
 21
15.02407708332736
 31
0.0
 11
187.1521871691834
 21
14.96613856988696
 31
0.0
 11
187.1521871691834
 21
14.93980288195951
 31
0.0
  0
SPLINE
  5
B4
102
{ACAD_REACTORS
330
CF
102
}
330
48
100
AcDbEntity
  8
_U_30EC_U_30A4_U_30E4_U_30FC_1
  6
Continuous
 62
     2
100
AcDbSpline
210
0.0
220
0.0
230
1.0
 70
     8
 71
     3
 72
    24
 73
    20
 74
    18
 42
0.000000001
 43
0.0000000001
 44
0.00000001
 40
0.0
 40
0.0
 40
0.0
 40
0.0
 40
0.221107500875392
 40
0.4273218586245799
 40
0.5080174679239974
 40
0.5914835907870719
 40
0.814326569019346
 40
1.054651302686672
 40
1.295452694023269
 40
1.518109231328933
 40
1.540864321905549
 40
1.595126460622811
 40
1.659890947896125
 40
1.714153085187484
 40
1.736908174961785
 40
1.764951100735469
 40
1.80156229122106
 40
1.953914424543735
 40
2.126104167379785
 40
2.126104167379785
 40
2.126104167379785
 40
2.126104167379785
 10
185.9375369556889
 20
15.5898929511302
 30
0.0
 10
185.9112579081811
 20
15.53097628234378
 30
0.0
 10
185.8604698894426
 20
15.41711139679261
 30
0.0
 10
185.8131784839112
 20
15.1444195823311
 30
0.0
 10
185.7043482802617
 20
15.24445482575457
 30
0.0
 10
185.5514800279637
 20
15.27118593367327
 30
0.0
 10
185.7686155181199
 20
15.48518135017635
 30
0.0
 10
185.783848367438
 20
15.70332117782489
 30
0.0
 10
185.8906889492002
 20
15.8845157906643
 30
0.0
 10
185.8305380947075
 20
16.16913226311407
 30
0.0
 10
185.9334317395402
 20
16.14114089222455
 30
0.0
 10
185.9779933468149
 20
16.13243251602304
 30
0.0
 10
186.0380842395397
 20
16.12139654183359
 30
0.0
 10
186.0756619587438
 20
16.10767523055563
 30
0.0
 10
186.1252466928606
 20
16.10756076160226
 30
0.0
 10
186.0930158919325
 20
16.07306592398627
 30
0.0
 10
186.0171802221882
 20
16.08404104537965
 30
0.0
 10
186.0429447159693
 20
15.89858969582454
 30
0.0
 10
186.005589676385
 20
15.80702313549594
 30
0.0
 10
185.9857704961609
 20
15.75844135397711
 30
0.0
 11
185.9375369556889
 21
15.5898929511302
 31
0.0
 11
185.8616471328552
 21
15.38221708318563
 31
0.0
 11
185.7717402238433
 21
15.19663392356191
 31
0.0
 11
185.701149392311
 21
15.23573272563553
 31
0.0
 11
185.6245525192651
 21
15.26889163187718
 31
0.0
 11
185.7214026947455
 21
15.46958801203539
 31
0.0
 11
185.7994641467471
 21
15.69688163177027
 31
0.0
 11
185.858971692972
 21
15.93021436608695
 31
0.0
 11
185.9001601511226
 21
16.14902808999059
 31
0.0
 11
185.9224183822214
 21
16.14429889221399
 31
0.0
 11
185.975495702534
 21
16.13302157443903
 31
0.0
 11
186.0388460525844
 21
16.11956154999796
 31
0.0
 11
186.091923372897
 21
16.108284232223
 31
0.0
 11
186.1141816039958
 21
16.1035550344464
 31
0.0
 11
186.096409715746
 21
16.08186250841013
 31
0.0
 11
186.0606122998071
 21
16.0741862844537
 31
0.0
 11
186.028195330148
 21
15.92532288171316
 31
0.0
 11
185.9857704961609
 21
15.75844135397711
 31
0.0
  0
LWPOLYLINE
  5
B5
102
{ACAD_REACTORS
330
D0
102
}
330
48
100
AcDbEntity
  8
_U_30EC_U_30A4_U_30E4_U_30FC_1
  6
Continuous
 62
     2
100
AcDbPolyline
 90
        5
 70
     1
 43
0.0
 10
191.1602971697031
 20
15.39722336795629
 10
192.4578138032672
 20
15.39722336795629
 10
192.4578138032672
 20
15.2287543402206
 10
191.1602971697031
 20
15.2287543402206
 10
191.1602971697031
 20
15.39722336795629
  0
MTEXT
  5
B7
330
48
100
AcDbEntity
  8
1
 62
   250
100
AcDbMText
 10
25.0
 20
5.0
 30
0.0
 40
3.5
 41
0.0
 71
     4
 72
     1
  1
備考欄の文字列 原点位置=4
  7
CONVERTER_11
 73
     1
 44
0.54545454545455
  0
MTEXT
  5
B8
330
48
100
AcDbEntity
  8
1
 62
     2
100
AcDbMText
 10
89.5
 20
24.00000000000009
 30
0.0
 40
3.5
 41
0.0
 71
     5
 72
     1
  1
尺度
  7
CONVERTER_11
 73
     1
 44
0.54545454545455
  0
MTEXT
  5
B9
330
48
100
AcDbEntity
  8
1
 62
     2
100
AcDbMText
 10
135.5
 20
25.00000000000009
 30
0.0
 40
3.0
 41
0.0
 71
     5
 72
     1
  1
製図
  7
CONVERTER_11
 73
     1
 44
0.59090909090909
  0
MTEXT
  5
BA
330
48
100
AcDbEntity
  8
1
 62
     2
100
AcDbMText
 10
152.5
 20
25.00000000000009
 30
0.0
 40
3.0
 41
0.0
 71
     5
 72
     1
  1
設計
  7
CONVERTER_11
 73
     1
 44
0.59090909090909
  0
MTEXT
  5
BB
330
48
100
AcDbEntity
  8
1
 62
     2
100
AcDbMText
 10
118.5
 20
25.00000000000009
 30
0.0
 40
3.0
 41
0.0
 71
     5
 72
     1
  1
検図
  7
CONVERTER_11
 73
     1
 44
0.59090909090909
  0
MTEXT
  5
BC
330
48
100
AcDbEntity
  8
1
 62
     2
100
AcDbMText
 10
175.0
 20
23.50000000000009
 30
0.0
 40
3.5
 41
0.0
 71
     5
 72
     1
  1
第三角法
  7
CONVERTER_11
 73
     1
 44
0.54545454545455
  0
MTEXT
  5
BD
330
48
100
AcDbEntity
  8
1
 62
     2
100
AcDbMText
 10
101.5
 20
25.00000000000009
 30
0.0
 40
3.0
 41
0.0
 71
     5
 72
     1
  1
承認
  7
CONVERTER_11
 73
     1
 44
0.59090909090909
  0
MTEXT
  5
BE
330
48
100
AcDbEntity
  8
1
 62
     2
100
AcDbMText
 10
29.0
 20
14.25
 30
0.0
 40
3.5
 41
0.0
 71
     5
 72
     1
  1
品番
  7
CONVERTER_11
 73
     1
 44
0.72727272727273
  0
MTEXT
  5
BF
330
48
100
AcDbEntity
  8
1
 62
     2
100
AcDbMText
 10
29.0
 20
22.75
 30
0.0
 40
3.5
 41
0.0
 71
     5
 72
     1
  1
品名
  7
CONVERTER_11
 73
     1
 44
0.72727272727273
  0
MTEXT
  5
C0
330
48
100
AcDbEntity
  8
1
 62
     2
100
AcDbMText
 10
29.0
 20
34.0
 30
0.0
 40
3.5
 41
0.0
 71
     5
 72
     1
  1
備考
  7
CONVERTER_11
 73
     1
 44
0.45454545454545
  0
MTEXT
  5
C1
330
48
100
AcDbEntity
  8
1
 62
     2
100
AcDbMText
 10
32.5
 20
282.0000000000003
 30
0.0
 40
5.0
 41
0.0
 71
     5
 72
     1
  1
図番
  7
CONVERTER_11
 73
     1
 44
0.45454545454545
  0
HATCH
  5
C2
330
48
100
AcDbEntity
  8
1
  6
Continuous
 62
     2
100
AcDbHatch
 10
0.0
 20
0.0
 30
0.0
210
0.0
220
0.0
230
1.0
  2
CUSTOM0
 70
     0
 71
     1
 91
        1
 92
        1
 93
        1
 72
     4
 94
        3
 73
     0
 74
     0
 95
       99
 96
       95
 40
0.0
 40
0.0
 40
0.0
 40
0.0
 40
0.0796417172272629
 40
0.1621768542356316
 40
0.2486489160957825
 40
0.3404969668524769
 40
0.4381912511164845
 40
0.5434463660245161
 40
0.6518115192847495
 40
0.7530190937886999
 40
0.8492196919725339
 40
0.9419290312998495
 40
1.034249663570065
 40
1.129078600620279
 40
1.226697027573298
 40
1.32722042542172
 40
1.470572134938068
 40
1.595489863371265
 40
1.719934125348448
 40
1.850576620127478
 40
1.989059629987356
 40
2.134139054226966
 40
2.280698007207262
 40
2.424529739039506
 40
2.56592957698592
 40
2.708239260773594
 40
2.861717887443739
 40
3.045168540347452
 40
3.183798301138688
 40
3.314813961455493
 40
3.442083470447359
 40
3.569912708373052
 40
3.702177512509393
 40
3.842307559659548
 40
3.992872223245976
 40
4.156750662218333
 40
4.310981861107553
 40
4.445859909322587
 40
4.572393936131594
 40
4.701656719781986
 40
4.76827908600849
 40
4.835960697898409
 40
4.912788918729358
 40
5.006285208481552
 40
5.0269094787516
 40
5.047533749021108
 40
5.101808031471207
 40
5.162325165538485
 40
5.226919745995784
 40
5.294231806596681
 40
5.364544852554834
 40
5.438319055467866
 40
5.517877651324172
 40
5.607647714861511
 40
5.700449642544327
 40
5.788251142363993
 40
5.872714706039703
 40
5.95516729257526
 40
6.037192395190316
 40
6.120669181469043
 40
6.206848616686279
 40
6.296680855416663
 40
6.442558392872502
 40
6.568190371608241
 40
6.692904567360264
 40
6.82422044655701
 40
6.963121850329256
 40
7.107843738851021
 40
7.253431663907171
 40
7.395187468036597
 40
7.533140753237644
 40
7.670550457175151
 40
7.816236511769161
 40
7.987691657359094
 40
8.142277421969155
 40
8.293662615414876
 40
8.442962460879164
 40
8.591598316185197
 40
8.74367899236167
 40
8.903725323699074
 40
9.076307008890403
 40
9.265578604680455
 40
9.459203795360626
 40
9.617619810273391
 40
9.753609671361746
 40
9.87487330000395
 40
9.954520184977623
 40
10.02416413719226
 40
10.0976976440543
 40
10.18909955924956
 40
10.20974586420117
 40
10.23039218263363
 40
10.30057101881246
 40
10.37632012987525
 40
10.37632012987525
 40
10.37632012987525
 40
10.37632012987525
 10
170.1465954835851
 20
14.13795663215998
 10
170.1632217851219
 20
14.11720608845316
 10
170.1970784206577
 20
14.07495111711904
 10
170.2599822541036
 20
14.02029811392071
 10
170.3332500940392
 20
13.97299025121053
 10
170.4175969238636
 20
13.93527231437938
 10
170.5132240615459
 20
13.91040619731952
 10
170.6171853775346
 20
13.90309559345935
 10
170.7224020220404
 20
13.91142322794054
 10
170.8206626371333
 20
13.94149179651525
 10
170.9058986427548
 20
13.98848822971875
 10
170.9779220206103
 20
14.04952991250859
 10
171.0350917709096
 20
14.12412969578584
 10
171.0767868747439
 20
14.21002464660179
 10
171.1026952846294
 20
14.30485850432212
 10
171.1118037332652
 20
14.41854979038369
 10
171.0986864796487
 20
14.5433258777078
 10
171.0325330334414
 20
14.66014719171895
 10
170.9369370919568
 20
14.74512539577375
 10
170.8249681022369
 20
14.81416684459167
 10
170.6993659583269
 20
14.87204142045892
 10
170.5656691620856
 20
14.92373723284339
 10
170.4313122818831
 20
14.97899092397185
 10
170.3051983986877
 20
15.04939770641644
 10
170.1926579987535
 20
15.13785540731254
 10
170.0969963064458
 20
15.24981067868475
 10
170.0334157151826
 20
15.39949910101388
 10
170.0200706505015
 20
15.55932794385146
 10
170.0320510987448
 20
15.71048405306849
 10
170.0712298928841
 20
15.8380924459154
 10
170.1354987750911
 20
15.95080874030848
 10
170.2238204999741
 20
16.04648609268677
 10
170.3338091207628
 20
16.12354214985754
 10
170.4632284401265
 20
16.18151396936282
 10
170.6111838967793
 20
16.21739177588823
 10
170.7682069455487
 20
16.2274671905056
 10
170.9174940466429
 20
16.21863637762588
 10
171.0596253614171
 20
16.19074899340359
 10
171.1595922609624
 20
16.13413314701137
 10
171.3125074736185
 20
16.08674602105509
 10
171.2455131717168
 20
16.00197553001185
 10
171.2296479120269
 20
15.93438901873486
 10
171.1978750531297
 20
15.86926092793192
 10
171.215020220957
 20
15.76723453256955
 10
171.1666427208232
 20
15.77493211681903
 10
171.1315789440766
 20
15.76806771724811
 10
171.1296697985718
 20
15.83263831158196
 10
171.0985692931989
 20
15.87825639621394
 10
171.0664551628456
 20
15.93561036628456
 10
171.0208038475167
 20
15.98540462692557
 10
170.9658508218386
 20
16.02994813718997
 10
170.9010841173007
 20
16.06763988836547
 10
170.8232377310596
 20
16.0928337579135
 10
170.7355160553352
 20
16.09931230998106
 10
170.6452903277807
 20
16.09235709285609
 10
170.5594594694065
 20
16.06909190460922
 10
170.4828343638596
 20
16.03131644107552
 10
170.4165265636201
 20
15.9805164108957
 10
170.3622560536964
 20
15.91731143407212
 10
170.3224925345458
 20
15.84276455710368
 10
170.2976775510587
 20
15.75917313997766
 10
170.289212426287
 20
15.65192948382289
 10
170.3019697987104
 20
15.52965457267562
 10
170.3681548409273
 20
15.41149724291217
 10
170.4640977399833
 20
15.3260632570953
 10
170.5757914963182
 20
15.25583362306729
 10
170.7010863668702
 20
15.19659162305305
 10
170.8349823941447
 20
15.14616708086145
 10
170.968993033315
 20
15.09322516984379
 10
171.0950885316914
 20
15.02750170625175
 10
171.2076216638417
 20
14.94480352537322
 10
171.3031370284233
 20
14.83996006310072
 10
171.3672706486963
 20
14.69937117251569
 10
171.3811103725278
 20
14.54065409451592
 10
171.367395471223
 20
14.38153155217876
 10
171.3244739153984
 20
14.23483828819212
 10
171.2545906329065
 20
14.10119796587143
 10
171.1574592213829
 20
13.98532387699294
 10
171.0347806023657
 20
13.89089981770092
 10
170.8874408413168
 20
13.82179270651976
 10
170.7177132497125
 20
13.77953210858861
 10
170.5317404979597
 20
13.76781736230418
 10
170.3528955926183
 20
13.77809486683445
 10
170.1881733753743
 20
13.81966573769148
 10
170.0834410841057
 20
13.88797642883946
 10
169.9350960790365
 20
13.93675219032109
 10
169.998037819473
 20
14.0297659129084
 10
170.0072274430059
 20
14.1029653624828
 10
170.0303711301232
 20
14.16936294501345
 10
170.0034588335316
 20
14.2697480952758
 10
170.0521338956339
 20
14.26234033517378
 10
170.0916530580696
 20
14.26894063620895
 10
170.0996204944702
 20
14.19078703218934
 10
170.1305436967922
 20
14.1560092737586
 10
170.1465954835851
 20
14.13795663215998
 97
        1
330
A4
 75
     1
 76
     2
 52
45.0
 41
0.1
 77
     0
 78
     1
 53
45.0
 43
0.0
 44
0.0
 45
-0.282842712474619
 46
0.0
 79
     0
 98
        1
 10
0.0
 20
0.0
  0
HATCH
  5
C3
330
48
100
AcDbEntity
  8
1
  6
Continuous
 62
     2
100
AcDbHatch
 10
0.0
 20
0.0
 30
0.0
210
0.0
220
0.0
230
1.0
  2
CUSTOM1
 70
     0
 71
     1
 91
        2
 92
        1
 93
        1
 72
     4
 94
        3
 73
     0
 74
     0
 95
       57
 96
       53
 40
0.0
 40
0.0
 40
0.0
 40
0.0
 40
0.0471632082808991
 40
0.0914861054632203
 40
0.1357762519702438
 40
0.1826527001610733
 40
0.2295203288572358
 40
0.2737751972219675
 40
0.3181310461542845
 40
0.365260719839861
 40
0.4571007286314443
 40
0.5671851029165216
 40
0.6894623283868567
 40
0.8181758272545896
 40
0.951008722927382
 40
1.085852229674077
 40
1.218126164475336
 40
1.343545131142396
 40
1.454537202956812
 40
1.567187607530821
 40
1.680710966642412
 40
1.794226869736719
 40
1.900009184247576
 40
2.0040858604478
 40
2.108162674451743
 40
2.214000150155316
 40
2.49603857735215
 40
2.762350745479329
 40
2.997275353279451
 40
3.185110082137746
 40
3.246407890063976
 40
3.312607550212708
 40
3.378877742711611
 40
3.440140399651468
 40
4.100501696006482
 40
4.754913085563607
 40
5.411331693423946
 40
6.077890432568688
 40
6.110575292670966
 40
6.143260152775746
 40
6.367989363395099
 40
6.610525374951489
 40
6.863389136467267
 40
7.119380025547518
 40
7.376036605091032
 40
7.63116477096624
 40
7.876722425456363
 40
8.104953735855972
 40
8.312916685924229
 40
8.49773029494125
 40
8.651018984313788
 40
8.764738853624527
 40
8.764738853624527
 40
8.764738853624527
 40
8.764738853624527
 10
174.7922649500513
 20
13.81626739612929
 10
174.7766616726931
 20
13.81826231079081
 10
174.7463947960303
 20
13.82213201360305
 10
174.7010994202252
 20
13.82341984967276
 10
174.6559553129349
 20
13.82308683554059
 10
174.60990171234
 20
13.82314658674232
 10
174.5640496172097
 20
13.82325813650008
 10
174.5183711648166
 20
13.82277833456599
 10
174.4750811541608
 20
13.82461109618728
 10
174.4039947951514
 20
13.80049556814656
 10
174.4057477261441
 20
13.92184693977255
 10
174.3586196370569
 20
14.00726239751233
 10
174.3191478251762
 20
14.12486929345139
 10
174.2706635532645
 20
14.24232752540438
 10
174.2201017402522
 20
14.3640593576151
 10
174.1718634610477
 20
14.49075967862468
 10
174.1135232947595
 20
14.59933687784955
 10
174.0980892667261
 20
14.75620657134411
 10
173.9566586330635
 20
14.72373446548325
 10
173.8508397414903
 20
14.73512888682173
 10
173.7358569725222
 20
14.73392591514624
 10
173.6253142252142
 20
14.73506945347414
 10
173.5176583522783
 20
14.73418350037535
 10
173.4121322529243
 20
14.73416602390513
 10
173.3109192682013
 20
14.72714032472418
 10
173.1266804827753
 20
14.75135859859869
 10
173.1157393685412
 20
14.44741691121883
 10
173.008769163475
 20
14.22353177253396
 10
172.9098148604346
 20
14.03895314292498
 10
172.9225090524008
 20
13.79530204804205
 10
172.8050091716397
 20
13.82508046753203
 10
172.742205586831
 20
13.82258089509612
 10
172.67858720934
 20
13.82344075102811
 10
172.3946014194074
 20
13.78098039941933
 10
173.0251638499382
 20
14.50081952444796
 10
173.1087645289072
 20
15.01276539435727
 10
173.4929252789339
 20
15.53353743550049
 10
173.4777208288565
 20
16.2351962625321
 10
173.7239265722697
 20
16.22345633081254
 10
173.8256346157562
 20
16.2322500445277
 10
173.8249752035817
 20
15.98059650730347
 10
173.9428317155829
 20
15.79818020733959
 10
174.0315515260484
 20
15.55563740662868
 10
174.1322292485259
 20
15.3234003053013
 10
174.2311142712243
 20
15.08674644566917
 10
174.3299676990669
 20
14.85461739170094
 10
174.4256166390926
 20
14.63122222788787
 10
174.5159904573272
 20
14.42272549049321
 10
174.598994456819
 20
14.23308448529321
 10
174.6726088582798
 20
14.066631060681
 10
174.7342815895546
 20
13.92917699626102
 10
174.7749458885604
 20
13.84999239430037
 10
174.7922649500513
 20
13.81626739612929
 97
        1
330
A5
 92
       16
 93
        1
 72
     4
 94
        3
 73
     0
 74
     0
 95
       25
 96
       21
 40
0.0
 40
0.0
 40
0.0
 40
0.0
 40
0.0911479969065387
 40
0.1858117896204659
 40
0.2804128399734485
 40
0.3715889190714505
 40
0.4679080494218703
 40
0.5642683809229225
 40
0.660568322264499
 40
0.7569653015810236
 40
0.8561348172522801
 40
1.092615965104316
 40
1.37486765814192
 40
1.611348812011662
 40
1.710518328425318
 40
1.809403163726644
 40
2.045205463294164
 40
2.326646917622246
 40
2.562449217190727
 40
2.661334043834053
 40
2.661334043834053
 40
2.661334043834053
 40
2.661334043834053
 10
173.2683700567199
 20
14.88614538197288
 10
173.2987525917922
 20
14.88598079714552
 10
173.3606895889112
 20
14.88564528689921
 10
173.4541356960329
 20
14.88269055452001
 10
173.5475095236358
 20
14.87977752877152
 10
173.6417760753475
 20
14.87894201643415
 10
173.7354964790967
 20
14.87996644658046
 10
173.8352040303205
 20
14.87916977470971
 10
173.9188949546312
 20
14.88921410235224
 10
174.0637996315045
 20
14.86234617674159
 10
173.9396132444801
 20
15.03665530280048
 10
173.8965867286282
 20
15.1965171100609
 10
173.780892214221
 20
15.45518458550217
 10
173.7017565431256
 20
15.5923105286186
 10
173.6431576621816
 20
15.80937033134081
 10
173.5864803939438
 20
15.59266134213431
 10
173.5052809900478
 20
15.45327012438237
 10
173.4063701281488
 20
15.20406969370194
 10
173.325362509426
 20
15.0192583022607
 10
173.2813683325838
 20
14.91650446856113
 10
173.2683700567199
 20
14.88614538197288
 97
        1
330
A6
 75
     1
 76
     2
 52
45.0
 41
0.1
 77
     0
 78
     1
 53
45.0
 43
0.0
 44
0.0
 45
-0.282842712474619
 46
0.0
 79
     0
 98
        1
 10
0.0
 20
0.0
  0
HATCH
  5
C4
330
48
100
AcDbEntity
  8
1
  6
Continuous
 62
     2
100
AcDbHatch
 10
0.0
 20
0.0
 30
0.0
210
0.0
220
0.0
230
1.0
  2
CUSTOM2
 70
     0
 71
     1
 91
        1
 92
        1
 93
        1
 72
     4
 94
        3
 73
     0
 74
     0
 95
       95
 96
       91
 40
0.0
 40
0.0
 40
0.0
 40
0.0
 40
0.655040665691108
 40
1.308087289031837
 40
1.420803739835688
 40
1.5661307597707
 40
1.757067341888321
 40
2.006513545026331
 40
2.087328263121449
 40
2.185328872295571
 40
2.294612454748309
 40
2.408936380534727
 40
2.526802767798477
 40
2.646360524615524
 40
2.762535723971491
 40
2.870057342870061
 40
2.966883448431517
 40
3.05080324351824
 40
3.115818222436491
 40
3.156030057150139
 40
3.213914225080044
 40
3.276689026450445
 40
3.342960320981223
 40
3.404230667150475
 40
3.453822809493324
 40
3.532499827188369
 40
3.634775188507089
 40
3.754909333008046
 40
3.889736761660569
 40
4.03576960217518
 40
4.187256681197537
 40
4.338733685675915
 40
4.488478734676061
 40
4.634708317831552
 40
4.771493189921213
 40
4.892686571561085
 40
5.199775528944326
 40
5.460353566929571
 40
5.667603142345407
 40
5.814722905404359
 40
5.828990806219657
 40
5.855488336304354
 40
5.869756237118686
 40
6.189796507762662
 40
6.531890469872872
 40
6.883053637016852
 40
7.230512024911322
 40
7.56696665676442
 40
7.885203559707249
 40
8.17288743971905
 40
8.41801159406261
 40
8.443926721190532
 40
8.510760470613024
 40
8.602145393795537
 40
8.701714041646982
 40
8.793098965075218
 40
8.859932715057793
 40
8.885847842603443
 40
9.242301256612631
 40
9.589275455016631
 40
9.921808543163998
 40
10.23479624298452
 40
10.29968150889157
 40
10.3532349388774
 40
10.40154625355124
 40
10.464829224778
 40
10.55973900668379
 40
10.69239545985589
 40
10.84920353475649
 40
11.01626328594759
 40
11.18672024367419
 40
11.35372582577188
 40
11.50257442292402
 40
11.6186649502327
 40
11.71329869152851
 40
11.82511050573883
 40
11.94464880845694
 40
12.06929242642484
 40
12.19707290435149
 40
12.32562632860506
 40
12.45034565331252
 40
12.56646595170305
 40
12.67099007414609
 40
12.76077625936753
 40
12.82703233506666
 40
12.8742913278596
 40
12.898319903233
 40
12.92234847859988
 40
13.53984767410282
 40
14.1829428435933
 40
14.1829428435933
 40
14.1829428435933
 40
14.1829428435933
 10
177.3067935648021
 20
14.7089803820173
 10
177.175201975855
 20
14.82265058603236
 10
176.9124193802728
 20
15.04964496316159
 10
176.3997393441023
 20
15.89214462956285
 10
176.4106654595362
 20
15.53423377577021
 10
176.404122652799
 20
15.39267392272135
 10
176.4028026631773
 20
15.19421305299285
 10
176.4018117602538
 20
15.02150296045986
 10
176.4024101751974
 20
14.8786537325758
 10
176.4038994301882
 20
14.78265005413357
 10
176.4055683588473
 20
14.67545503263139
 10
176.4071934954618
 20
14.56164211517581
 10
176.4092429501685
 20
14.44441572604589
 10
176.4123165501928
 20
14.3265641123297
 10
176.4156339697043
 20
14.21228087320621
 10
176.419360534028
 20
14.10521401867278
 10
176.4217338161424
 20
14.01007408766923
 10
176.4278718888357
 20
13.92558557205696
 10
176.4239784495947
 20
13.86923087298142
 10
176.4455230443077
 20
13.79825022472356
 10
176.3680940058618
 20
13.82902677604489
 10
176.3116353240191
 20
13.82011242517622
 10
176.2540495896807
 20
13.82896218398281
 10
176.1690163478472
 20
13.79738225225945
 10
176.2009714146383
 20
13.88095155992195
 10
176.1990705282539
 20
13.94882608968314
 10
176.2107960047299
 20
14.0523325676442
 10
176.2164241053
 20
14.17002125616696
 10
176.2237902178941
 20
14.30388609164425
 10
176.232075970161
 20
14.44764152872635
 10
176.2398851897426
 20
14.5971402284345
 10
176.2457571222659
 20
14.74792549402083
 10
176.2503667817969
 20
14.89699943878444
 10
176.2542632117542
 20
15.04122913163028
 10
176.2570715126563
 20
15.1758390521302
 10
176.2576698755023
 20
15.36469614347355
 10
176.2616023867151
 20
15.58975494313153
 10
176.2442175378497
 20
15.86367091125709
 10
176.2850417342584
 20
16.02787112098597
 10
176.1995153256001
 20
16.22749661465094
 10
176.2660558907688
 20
16.22385458403975
 10
176.283872427323
 20
16.22413447160851
 10
176.4056801797502
 20
16.2263292739861
 10
176.5080770335462
 20
15.94675118721516
 10
176.7580021509355
 20
15.74563008535998
 10
176.9870035331111
 20
15.47792614987921
 10
177.2245151213108
 20
15.22646413862374
 10
177.4486090740772
 20
14.9896997406136
 10
177.6750716283008
 20
14.7321869258308
 10
177.8325687886514
 20
14.61649335056922
 10
178.0472129612674
 20
14.27997152538792
 10
178.0422645974618
 20
14.40464754091604
 10
178.0433931602545
 20
14.46327691935737
 10
178.0428877841517
 20
14.55043662371978
 10
178.0430475158113
 20
14.64416143182873
 10
178.0430054891318
 20
14.73018971297036
 10
178.0430202040372
 20
14.79153891945497
 10
178.0429706255985
 20
14.94135231520995
 10
178.0458811522811
 20
15.17989612510106
 10
178.0259521041161
 20
15.54486509868702
 10
178.0750433936248
 20
15.80799631993413
 10
177.9177951509182
 20
16.21928904947756
 10
178.0762112872422
 20
16.16398282551749
 10
178.1311680478628
 20
16.16199686500178
 10
178.182788776674
 20
16.16264778248252
 10
178.2713198965366
 20
16.20369527738248
 10
178.2204898303168
 20
16.05696326622991
 10
178.2313389930283
 20
15.95019971954436
 10
178.2166036994847
 20
15.79085705414114
 10
178.2099976446204
 20
15.62853061652874
 10
178.2014961399914
 20
15.45992521892395
 10
178.1943227202199
 20
15.29814814703542
 10
178.1889063215388
 20
15.15422331457933
 10
178.1871713967648
 20
15.03437493466926
 10
178.1875440672319
 20
14.92686101590515
 10
178.1873656126262
 20
14.81820024645586
 10
178.187701086314
 20
14.69953570165531
 10
178.1890040622185
 20
14.57555163512742
 10
178.1908887351574
 20
14.44858294171106
 10
178.1925004454851
 20
14.32153861551035
 10
178.194140313743
 20
14.19854884492179
 10
178.1962570745752
 20
14.08300931383762
 10
178.1963848422363
 20
13.9809090395584
 10
178.2006514396554
 20
13.89009848838162
 10
178.1908440085289
 20
13.83213621208793
 10
178.2118474771689
 20
13.76517130132039
 10
178.1725639739897
 20
13.77291153966698
 10
177.9595307117742
 20
13.75755254145202
 10
177.7636297943188
 20
14.31403058094473
 10
177.4611197631544
 20
14.57556035348515
 10
177.3067935648021
 20
14.7089803820173
 97
        1
330
A7
 75
     1
 76
     2
 52
45.0
 41
0.1
 77
     0
 78
     1
 53
45.0
 43
0.0
 44
0.0
 45
-0.282842712474619
 46
0.0
 79
     0
 98
        1
 10
0.0
 20
0.0
  0
HATCH
  5
C5
330
48
100
AcDbEntity
  8
1
  6
Continuous
 62
     2
100
AcDbHatch
 10
0.0
 20
0.0
 30
0.0
210
0.0
220
0.0
230
1.0
  2
CUSTOM3
 70
     0
 71
     1
 91
        1
 92
        1
 93
        1
 72
     4
 94
        3
 73
     0
 74
     0
 95
      110
 96
      106
 40
0.0
 40
0.0
 40
0.0
 40
0.0
 40
0.220340625727811
 40
0.4407808782838446
 40
0.5952494494615717
 40
0.748843165939342
 40
0.9023581831309413
 40
1.05680196867044
 40
1.210736449099997
 40
1.363041386539819
 40
1.515315729683189
 40
1.669377239148197
 40
1.721611652756686
 40
1.773199502943039
 40
1.824933793210132
 40
1.877110426488081
 40
1.982682281206898
 40
2.078781667087736
 40
2.172809640822456
 40
2.271937807379109
 40
2.378349933379447
 40
2.494131557736694
 40
2.626681683943826
 40
2.783145050796254
 40
2.890701232941074
 40
2.993130312454918
 40
3.099869730691931
 40
3.220237816691473
 40
3.35269548273772
 40
3.481732806389944
 40
3.593499473690483
 40
3.674323013332001
 40
3.817951711952865
 40
3.946167120793862
 40
4.061405053453548
 40
4.166480796003188
 40
4.262478775059225
 40
4.350736673551181
 40
4.433071991254123
 40
4.51121629381467
 40
4.564262454117991
 40
4.618474415571621
 40
4.670128488754222
 40
4.722296879126484
 40
4.819540945314358
 40
4.931194984128212
 40
5.049996040257827
 40
5.168643755415286
 40
5.283970811762583
 40
5.392260784910438
 40
5.486512254876485
 40
5.559178233949827
 40
5.591425852853478
 40
5.626215969637852
 40
5.667155838674408
 40
5.717449290214164
 40
5.738402360944793
 40
5.784499116553794
 40
5.8305958721648
 40
5.851548942897672
 40
5.873019280661785
 40
5.924217778408327
 40
5.985325662817703
 40
6.036524160567714
 40
6.057994498334242
 40
6.236847789607486
 40
6.381409928945686
 40
6.493190424178688
 40
6.574067534230446
 40
6.69101808620554
 40
6.814881554220458
 40
6.944307823240467
 40
7.071266716066035
 40
7.193488604461878
 40
7.3090427731281
 40
7.414007203170732
 40
7.505140441886497
 40
7.531150360599702
 40
7.559221645322232
 40
7.587202218920956
 40
7.612569159499184
 40
7.662550809481036
 40
7.702878875764162
 40
7.857328205230977
 40
8.010799568088624
 40
8.165256399657574
 40
8.322232698713913
 40
8.479564855016571
 40
8.635216230290718
 40
8.790882550925721
 40
8.948305154947288
 40
9.168271839032988
 40
9.387358980987226
 40
9.608047961033495
 40
9.832914234792716
 40
9.858338694963049
 40
9.925366817230051
 40
10.02013071422763
 40
10.12876249859001
 40
10.2373942829525
 40
10.33215817995191
 40
10.39918630222394
 40
10.42461076239783
 40
10.64992019336943
 40
10.87188524531187
 40
10.87188524531187
 40
10.87188524531187
 40
10.87188524531187
 10
179.9057788376619
 20
15.73923260398189
 10
179.9092864933542
 20
15.80616462073803
 10
179.9163033987662
 20
15.94005891915859
 10
179.8198027599072
 20
16.22548554971475
 10
180.0510134726108
 20
16.16284386190281
 10
180.1919290057157
 20
16.17001554055999
 10
180.3490417757587
 20
16.16235883078242
 10
180.5025913427288
 20
16.16252752283044
 10
180.6545104935081
 20
16.16182040535431
 10
180.8142214813232
 20
16.17210158351646
 10
180.9408972601117
 20
16.15496511080748
 10
181.1370821122083
 20
16.2272726010715
 10
181.1034395279078
 20
16.12640699080121
 10
181.1052011317184
 20
16.07619253947674
 10
181.1027342073459
 20
16.0271233558647
 10
181.1347076966012
 20
15.94063490847004
 10
181.0010399903256
 20
15.98997438608336
 10
180.9172208688057
 20
15.98430634314172
 10
180.8173861139324
 20
15.99465516706299
 10
180.7186576720146
 20
16.00086450411085
 10
180.612153277111
 20
16.0069776381678
 10
180.491051169806
 20
16.01588883484594
 10
180.3703381502453
 20
16.0052160591238
 10
180.1812553843437
 20
16.06468503080364
 10
180.2129028505311
 20
15.90558320077542
 10
180.1995563316835
 20
15.80839128339907
 10
180.1974958426449
 20
15.69634065110106
 10
180.195818804467
 20
15.57699685629352
 10
180.1973336794233
 20
15.45032592155112
 10
180.195658247867
 20
15.32301588016121
 10
180.2058844271658
 20
15.22451566404468
 10
180.1779006596583
 20
15.08388702625636
 10
180.3508029999306
 20
15.13989551134099
 10
180.4645020202771
 20
15.12719951478499
 10
180.5840151672239
 20
15.1344837705126
 10
180.6888491425071
 20
15.13878017056757
 10
180.7843084898612
 20
15.14330568258981
 10
180.8763823507032
 20
15.15149201146201
 10
180.9476551782438
 20
15.14643850638113
 10
181.0544931705685
 20
15.18536425031676
 10
181.0226603598036
 20
15.10517122005882
 10
181.026616450393
 20
15.05562936846036
 10
181.0234502392013
 20
15.0055747803982
 10
181.0550791490584
 20
14.92128847612016
 10
180.9210133677692
 20
14.97425365495164
 10
180.82923227932
 20
14.96540080890436
 10
180.7079729189603
 20
14.97570049965157
 10
180.5914113119772
 20
14.977489117675
 10
180.4783375745879
 20
14.97787017109693
 10
180.3679246308471
 20
14.98415449472183
 10
180.2898124067841
 20
14.97189133255364
 10
180.1913625833645
 20
15.00453887616125
 10
180.2012355173561
 20
14.94769748054208
 10
180.1973923244402
 20
14.91392130557987
 10
180.1966789884268
 20
14.87119604709415
 10
180.1963369642975
 20
14.83401607262159
 10
180.1963834255345
 20
14.79487237370776
 10
180.1963649429927
 20
14.75716849497688
 10
180.1963703431806
 20
14.71944955232403
 10
180.1963697214201
 20
14.68994324745148
 10
180.1963698151545
 20
14.65873577699299
 10
180.1963704287921
 20
14.61414424908083
 10
180.1963671499337
 20
14.55963956508849
 10
180.196375962348
 20
14.51505540201446
 10
180.1963359653418
 20
14.4311780858574
 10
180.1976024270255
 20
14.31737520677676
 10
180.1950274117842
 20
14.16830395933708
 10
180.2065009381719
 20
14.06597203813905
 10
180.1823506222264
 20
13.93338903885839
 10
180.3332993946476
 20
13.97895732272026
 10
180.4428436671556
 20
13.96427012162355
 10
180.573397047392
 20
13.96920435125063
 10
180.6990312209514
 20
13.97257705323372
 10
180.81887306256
 20
13.97711497498778
 10
180.9391362611426
 20
13.99048536181997
 10
181.0222761663516
 20
13.98068712782596
 10
181.1456080421073
 20
14.04126214623329
 10
181.1244269203958
 20
13.98532460134024
 10
181.1235950270116
 20
13.95939249372349
 10
181.1218963707558
 20
13.93197256190941
 10
181.1217974888829
 20
13.89738195206385
 10
181.120365930133
 20
13.86050408220768
 10
181.153280419219
 20
13.76846841021808
 10
180.9551306988107
 20
13.84132015974838
 10
180.830054829489
 20
13.81825726508614
 10
180.6673071295156
 20
13.82454021985793
 10
180.5129366450001
 20
13.82260943909933
 10
180.3566670436944
 20
13.82393762599276
 10
180.1970544465282
 20
13.8205987248787
 10
180.0540326342237
 20
13.83265795728247
 10
179.8197144881628
 20
13.76952001976918
 10
179.9173810751197
 20
14.05620527466319
 10
179.900686878006
 20
14.24988308142661
 10
179.9146296709684
 20
14.47848242880297
 10
179.9142987846632
 20
14.63384593955051
 10
179.9143078119264
 20
14.7396633644413
 10
179.9143055876316
 20
14.80205784124217
 10
179.9143065551888
 20
14.89220425248329
 10
179.9143065473261
 20
14.99621167157439
 10
179.9143053861102
 20
15.10022131375298
 10
179.9143090971502
 20
15.19036243688768
 10
179.9143011051051
 20
15.25276803097215
 10
179.9143334275019
 20
15.3586883596112
 10
179.9131440788319
 20
15.51626716544739
 10
179.9082216489257
 20
15.66528219822065
 10
179.9057788376619
 20
15.73923260398189
 97
        1
330
A8
 75
     1
 76
     2
 52
45.0
 41
0.1
 77
     0
 78
     1
 53
45.0
 43
0.0
 44
0.0
 45
-0.282842712474619
 46
0.0
 79
     0
 98
        1
 10
0.0
 20
0.0
  0
HATCH
  5
C6
330
48
100
AcDbEntity
  8
1
  6
Continuous
 62
     2
100
AcDbHatch
 10
0.0
 20
0.0
 30
0.0
210
0.0
220
0.0
230
1.0
  2
CUSTOM4
 70
     0
 71
     1
 91
        1
 92
        1
 93
        1
 72
     4
 94
        3
 73
     0
 74
     0
 95
       47
 96
       43
 40
0.0
 40
0.0
 40
0.0
 40
0.0
 40
0.2207912809957763
 40
0.4459404186303557
 40
0.4902387190459803
 40
0.5327473892722695
 40
0.5742260451226336
 40
0.6155432630562194
 40
0.6568164066316825
 40
0.6982511618781216
 40
0.7407663929317665
 40
0.7851366743175756
 40
1.010288833836371
 40
1.231080507002276
 40
1.451765243652435
 40
1.67663820589174
 40
1.720461045359713
 40
1.830018144043579
 40
1.972442372353213
 40
2.114866600677582
 40
2.224423699395211
 40
2.268246538883452
 40
2.493628801207263
 40
2.715602830286692
 40
2.934211330706411
 40
3.14950236985542
 40
3.231387784851039
 40
3.318231873854018
 40
3.405143198198035
 40
3.48697030172053
 40
3.702258172493988
 40
3.920866283534184
 40
4.142839325932001
 40
4.368221903865445
 40
4.412044743359926
 40
4.521601842095942
 40
4.664026070452424
 40
4.806450298809137
 40
4.916007397546831
 40
4.959830237043155
 40
5.184703515847207
 40
5.405387250767514
 40
5.405387250767514
 40
5.405387250767514
 40
5.405387250767514
 10
182.6507427258645
 20
15.73406440953869
 10
182.6568139420003
 20
15.79758482501208
 10
182.6690762107242
 20
15.92587938689623
 10
182.5604706879413
 20
16.20166220174086
 10
182.6761985896604
 20
16.17188133432051
 10
182.7171842509015
 20
16.16765556262828
 10
182.7591205797518
 20
16.16310446389605
 10
182.800419662571
 20
16.16201982929489
 10
182.8417032115556
 20
16.16310338195225
 10
182.8836148270647
 20
16.16766112711352
 10
182.9245983549019
 20
16.17187430209725
 10
183.0404922843488
 20
16.20177611317543
 10
182.9295652727456
 20
15.92339806609886
 10
182.9574856365267
 20
15.74283140824954
 10
182.9404267346969
 20
15.50961042346472
 10
182.9414637282102
 20
15.34906622543148
 10
182.9414099399405
 20
15.22284817558723
 10
182.9414277372481
 20
15.12428963336243
 10
182.941418858108
 20
14.99280702442964
 10
182.9414263928034
 20
14.86132844968651
 10
182.9414129405128
 20
14.76276222694091
 10
182.9414531717492
 20
14.63639735624154
 10
182.9406746403817
 20
14.47482068822871
 10
182.9565958319267
 20
14.24361821892916
 10
182.9333468885408
 20
14.05874351972005
 10
183.0360183444365
 20
13.78935602770054
 10
182.8820238362837
 20
13.82660112685822
 10
182.8004129802832
 20
13.82137994680543
 10
182.7188192292583
 20
13.82660620378357
 10
182.5648513666842
 20
13.78937069885383
 10
182.6674183421917
 20
14.05875129862882
 10
182.6442045316088
 20
14.24361585325416
 10
182.6600444655138
 20
14.47482218565639
 10
182.6593296313427
 20
14.63639712308505
 10
182.6593664569907
 20
14.76276231210521
 10
182.6593549000271
 20
14.86132756635983
 10
182.6593575019213
 20
14.9928112741722
 10
182.6593648531779
 20
15.12427548031201
 10
182.659344254135
 20
15.22287786275327
 10
182.6594082192028
 20
15.34896149354429
 10
182.658173394759
 20
15.51210091383772
 10
182.6532040396745
 20
15.66054183777548
 10
182.6507427258645
 20
15.73406440953869
 97
        1
330
A9
 75
     1
 76
     2
 52
45.0
 41
0.1
 77
     0
 78
     1
 53
45.0
 43
0.0
 44
0.0
 45
-0.282842712474619
 46
0.0
 79
     0
 98
        1
 10
0.0
 20
0.0
  0
HATCH
  5
C7
330
48
100
AcDbEntity
  8
1
  6
Continuous
 62
     2
100
AcDbHatch
 10
0.0
 20
0.0
 30
0.0
210
0.0
220
0.0
230
1.0
  2
CUSTOM5
 70
     0
 71
     1
 91
        1
 92
        1
 93
        1
 72
     4
 94
        3
 73
     0
 74
     0
 95
      118
 96
      114
 40
0.0
 40
0.0
 40
0.0
 40
0.0
 40
0.1054708162972979
 40
0.2466098270051312
 40
0.3965912874590529
 40
0.528552506975333
 40
0.6156245055641599
 40
0.6431434105796869
 40
0.7036850037985488
 40
0.76422659845038
 40
0.7917455052354075
 40
0.9287404319989074
 40
1.10657281908794
 40
1.28754487968086
 40
1.317578308030375
 40
1.399928030857001
 40
1.522968204799768
 40
1.675072986590374
 40
1.844616533180437
 40
2.019973001638483
 40
2.189516548879783
 40
2.341621331585104
 40
2.464661506320231
 40
2.547011229646786
 40
2.577044658167748
 40
2.603797890892819
 40
2.662655002908563
 40
2.721512114949431
 40
2.748265347702611
 40
2.774215307344686
 40
2.845959313407014
 40
2.954338556588208
 40
3.090194227585382
 40
3.244367517100339
 40
3.407699615844093
 40
3.571031714539236
 40
3.725205003919906
 40
3.861060674729403
 40
3.969439917716091
 40
4.041183923628763
 40
4.067133883212755
 40
4.311886746011973
 40
4.547897258335348
 40
4.764747083043768
 40
4.952749679951528
 40
5.04577297419561
 40
5.13786201964466
 40
5.330543169792716
 40
5.553448265243721
 40
5.795083855887897
 40
6.043293412176974
 40
6.285761695540934
 40
6.313902908752418
 40
6.384255941793008
 40
6.475714884766596
 40
6.567173827758658
 40
6.637526860839436
 40
6.6656680740738
 40
6.692018920327762
 40
6.749990782070808
 40
6.807962643790153
 40
6.834313490017616
 40
6.856393084244894
 40
6.913335195649518
 40
6.991194817302182
 40
7.076026942283443
 40
7.153886563724933
 40
7.210828674844516
 40
7.232908268930851
 40
7.258199334923374
 40
7.324875781592029
 40
7.419142481924693
 40
7.527204308841643
 40
7.63526613523023
 40
7.729532834168223
 40
7.796209279292549
 40
7.821500344594499
 40
7.844652988850569
 40
7.899863140541349
 40
7.965759128053516
 40
8.020969279770801
 40
8.044121924046268
 40
8.069356610160316
 40
8.109134395441014
 40
8.13223810019073
 40
8.193147867786095
 40
8.279261678876274
 40
8.377977512673493
 40
8.476693347146284
 40
8.56280716041134
 40
8.623716930826129
 40
8.646820636853084
 40
8.671988793773897
 40
8.734909185827751
 40
8.816705695188466
 40
8.898502204815008
 40
8.96142259737744
 40
8.986590754550553
 40
9.012941600732697
 40
9.070913462379758
 40
9.12888532408123
 40
9.155236170324539
 40
9.180404327928581
 40
9.243324721947626
 40
9.325121234211363
 40
9.406917746637017
 40
9.469838141977473
 40
9.495006288270218
 40
9.517811184378365
 40
9.572192090486382
 40
9.637098333280628
 40
9.691479239514845
 40
9.71428412564289
 40
9.71428412564289
 40
9.71428412564289
 40
9.71428412564289
 10
185.2874469028654
 20
15.26889163187718
 10
185.3090990569038
 20
15.2411186924281
 10
185.3597257109474
 20
15.17618054561234
 10
185.4349383202592
 20
15.06891060312898
 10
185.5248482274346
 20
14.95377438266624
 10
185.5709169676673
 20
14.85357045748318
 10
185.6655825294654
 20
14.78434006814941
 10
185.6204439320413
 20
14.73771639678272
 10
185.594704778579
 20
14.69660308866038
 10
185.5645196708011
 20
14.6606597172794
 10
185.5193684730562
 20
14.58579782596094
 10
185.4710504458562
 20
14.80782524253606
 10
185.3968539713074
 20
14.8451067733771
 10
185.2836047324607
 20
15.11610202130593
 10
185.2885133578171
 20
15.00095328446227
 10
185.2868486556306
 20
14.92836675781625
 10
185.2876830076716
 20
14.80625588483986
 10
185.2873609540264
 20
14.65913800810461
 10
185.2875076912457
 20
14.4930706395656
 10
185.2872950092723
 20
14.32187554608605
 10
185.2879497252035
 20
14.15552828635503
 10
185.285919246114
 20
14.00935173055699
 10
185.2913460399932
 20
13.88471047474619
 10
185.2804930868709
 20
13.81718656540635
 10
185.2956739155555
 20
13.75549061417031
 10
185.2457895108135
 20
13.76727503897012
 10
185.2017150342522
 20
13.75943822779977
 10
185.1582371630201
 20
13.76760441372713
 10
185.1092346786488
 20
13.75538056738476
 10
185.1218731234826
 20
13.80960667249323
 10
185.1130182968449
 20
13.86936918907566
 10
185.1175058770314
 20
13.97922029044378
 10
185.1157960135991
 20
14.11029975405686
 10
185.1163550915986
 20
14.26198011444334
 10
185.1161928768694
 20
14.42211074929959
 10
185.1162269924675
 20
14.58236865674572
 10
185.1162514960127
 20
14.73370247520445
 10
185.1161453543224
 20
14.86582156338606
 10
185.1164299141932
 20
14.97294802533198
 10
185.1158675547567
 20
15.03808619579478
 10
185.1180765083689
 20
15.1661895785868
 10
185.0319435998602
 20
14.79097610391576
 10
184.95551408185
 20
14.63918193123395
 10
184.8660040767833
 20
14.47766206446308
 10
184.7640413217326
 20
14.20471848820181
 10
184.7187976491038
 20
14.36717346596512
 10
184.6102355941671
 20
14.45605432058119
 10
184.7995791751753
 20
14.60549794961408
 10
184.85653405457
 20
14.79749136974925
 10
184.9717520993352
 20
15.02899622906759
 10
184.9940151630132
 20
15.21797259759066
 10
185.177190515214
 20
15.49454089325936
 10
185.0538033597552
 20
15.48698978832099
 10
184.9925684166834
 20
15.48856772366124
 10
184.9081999617064
 20
15.48882592573677
 10
184.8204235085966
 20
15.48544845751211
 10
184.7656768696122
 20
15.49394814982025
 10
184.7104703026024
 20
15.48048561049793
 10
184.7222823035536
 20
15.52931442126766
 10
184.7142496151794
 20
15.5726900489671
 10
184.7228186104679
 20
15.61509438309573
 10
184.7102943409157
 20
15.66267796552116
 10
184.7555101538735
 20
15.65267212995107
 10
184.8014815562723
 20
15.65894105174059
 10
184.877722204771
 20
15.6559356140587
 10
184.9561296131993
 20
15.65770448278539
 10
185.0323992648932
 20
15.65464793981658
 10
185.0783009459475
 20
15.66103971376176
 10
185.12317339654
 20
15.65093822978894
 10
185.1105552275634
 20
15.70157201581898
 10
185.1191936582707
 20
15.75501261882068
 10
185.1152361595442
 20
15.8486325513168
 10
185.1162325068335
 20
15.95112606688924
 10
185.1171927413073
 20
16.05353270248164
 10
185.1133211458006
 20
16.14735929609324
 10
185.1217789814364
 20
16.20036542840355
 10
185.1093075932835
 20
16.25211435651191
 10
185.1542106389849
 20
16.23850747226759
 10
185.1955083836772
 20
16.24100480320586
 10
185.259534428105
 20
16.23648060574489
 10
185.2986111148786
 20
16.22781003043308
 10
185.3476543498742
 20
16.23515102070687
 10
185.3225080030591
 20
16.19602896051765
 10
185.2815901333725
 20
16.20563842455806
 10
185.2910109616604
 20
16.15540148169779
 10
185.2855647318747
 20
16.1038594563949
 10
185.2881699601805
 20
16.0195970758452
 10
185.2870102202156
 20
15.92559135583408
 10
185.2883591064232
 20
15.83196865395524
 10
185.284997010151
 20
15.74679517552222
 10
185.292095991777
 20
15.69716856072042
 10
185.2812569154547
 20
15.64993694969987
 10
185.3304010225246
 20
15.66201674936849
 10
185.3794877630148
 20
15.65447393363009
 10
185.4573714280641
 20
15.6568607036143
 10
185.5350365172896
 20
15.65899381905413
 10
185.5845393931354
 20
15.65193391922452
 10
185.6344594750639
 20
15.66360151936212
 10
185.622319851688
 20
15.61540235371393
 10
185.6305838229143
 20
15.57249219801237
 10
185.6223198650784
 20
15.52958201851388
 10
185.6344594549854
 20
15.48138288754869
 10
185.5845395158746
 20
15.49305034471516
 10
185.5350350651203
 20
15.4859920243505
 10
185.4573784382973
 20
15.48811665228609
 10
185.379464386576
 20
15.49053389365764
 10
185.3304500352718
 20
15.48291848194491
 10
185.2813246108944
 20
15.49507952557596
 10
185.2915559988573
 20
15.45073013424162
 10
185.2856677678054
 20
15.40925436202914
 10
185.287878830557
 20
15.34915394315304
 10
185.2874109346147
 20
15.30225782762888
 10
185.2874386992914
 20
15.27650146418195
 10
185.2874469028654
 20
15.26889163187718
 97
        1
330
AA
 75
     1
 76
     2
 52
45.0
 41
0.1
 77
     0
 78
     1
 53
45.0
 43
0.0
 44
0.0
 45
-0.282842712474619
 46
0.0
 79
     0
 98
        1
 10
0.0
 20
0.0
  0
HATCH
  5
C8
330
48
100
AcDbEntity
  8
1
  6
Continuous
 62
     2
100
AcDbHatch
 10
0.0
 20
0.0
 30
0.0
210
0.0
220
0.0
230
1.0
  2
CUSTOM6
 70
     0
 71
     1
 91
        1
 92
        1
 93
        1
 72
     4
 94
        3
 73
     0
 74
     0
 95
       91
 96
       87
 40
0.0
 40
0.0
 40
0.0
 40
0.0
 40
0.0345987051695718
 40
0.1258134969461369
 40
0.2547723404888987
 40
0.4026032099154125
 40
0.5504340793416704
 40
0.679392922883608
 40
0.7706077146571035
 40
0.8052064287780925
 40
1.124852390615279
 40
1.427402236308877
 40
1.706356627453524
 40
1.955541417875218
 40
2.169485938566373
 40
2.344350786664835
 40
2.48056841156199
 40
2.590440557429012
 40
2.649189927151173
 40
2.749320643306404
 40
2.912632739880117
 40
3.147745656000291
 40
3.244827496385052
 40
3.338490056946674
 40
3.583815413207083
 40
3.761423943238435
 40
3.886956104362591
 40
3.98585545188675
 40
4.091766255337634
 40
4.250186473811828
 40
4.422734315084474
 40
4.628285684838571
 40
4.872093227758405
 40
5.152549652145514
 40
5.464967135837496
 40
5.803201477852409
 40
6.160362988813878
 40
6.193449448275933
 40
6.284170385501588
 40
6.419718138764457
 40
6.587285046385707
 40
6.774063446723622
 40
6.967245678113605
 40
7.15402407881759
 40
7.321590987025976
 40
7.457138740890334
 40
7.547859678556071
 40
7.580946138182631
 40
7.608533084714685
 40
7.669224367077662
 40
7.729915649429884
 40
7.757502595949937
 40
7.790278062553391
 40
7.880146277430889
 40
8.014419963180352
 40
8.180411842397852
 40
8.365434637679321
 40
8.556801071622623
 40
8.741823866830735
 40
8.907815745916245
 40
9.0420894315074
 40
9.131957646249525
 40
9.164733112797101
 40
9.415425063139999
 40
9.667986180958447
 40
9.694169807462615
 40
9.756607686047573
 40
9.831130315322465
 40
9.8935681938999
 40
9.919751820398746
 40
9.950967964690573
 40
9.996421631210664
 40
10.2208798103746
 40
10.44341866197548
 40
10.4784797078886
 40
10.57091337438761
 40
10.70159545461235
 40
10.85140174170366
 40
11.00120802880483
 40
11.13189010907388
 40
11.22432377583016
 40
11.25938480938962
 40
11.28697175596151
 40
11.34766303835925
 40
11.40835432042076
 40
11.43594125892111
 40
11.43594125892111
 40
11.43594125892111
 40
11.43594125892111
 10
190.0818114333289
 20
15.55242795125079
 10
190.0702785844941
 20
15.55242790287917
 10
190.0283409444998
 20
15.55242773704166
 10
189.9434129719026
 20
15.55243125800911
 10
189.8207688553128
 20
15.5524092643588
 10
189.6791206916993
 20
15.55250801177056
 10
189.537975369849
 20
15.55214686232423
 10
189.4141351317904
 20
15.5532188360909
 10
189.3317217825382
 20
15.55092249091271
 10
189.1727791229692
 20
15.56048569373421
 10
189.3503402353376
 20
15.19785394311373
 10
189.3379739205452
 20
14.95243127723115
 10
189.4064519473864
 20
14.66862501324835
 10
189.469302432097
 20
14.43250999939035
 10
189.5452253431728
 20
14.23326740396129
 10
189.6303189577016
 20
14.07745347451371
 10
189.7244607592935
 20
13.9765785778139
 10
189.8282648207728
 20
13.92465852638961
 10
189.9125872030773
 20
13.97606484379616
 10
189.9351322179452
 20
14.09144544037517
 10
189.9745730975371
 20
14.21885149702379
 10
189.9202919734944
 20
14.53622328086749
 10
190.0451218072473
 20
14.3898218014091
 10
190.2019291513603
 20
14.35795300331165
 10
190.0947720007057
 20
14.12421357767629
 10
190.0808711209866
 20
13.95972776583656
 10
190.0234709467226
 20
13.83130869122485
 10
189.9335020145008
 20
13.76018802352828
 10
189.8095274657878
 20
13.74432324142256
 10
189.663427319686
 20
13.77993797554174
 10
189.5243894320284
 20
13.9000057050028
 10
189.4102003962144
 20
14.07435682550322
 10
189.3146141301485
 20
14.29946603111243
 10
189.2318652572627
 20
14.56388246006445
 10
189.1807179256411
 20
14.88187933098546
 10
189.0770189207338
 20
15.15543728488914
 10
189.2042841208522
 20
15.56005818612869
 10
189.0357890623018
 20
15.5511236784968
 10
188.9511995787077
 20
15.55315961418365
 10
188.8189876387627
 20
15.55213937388408
 10
188.6560505094104
 20
15.55253230318431
 10
188.4733759170532
 20
15.5523569631337
 10
188.2847057373383
 20
15.5526010530747
 10
188.1014469020189
 20
15.55185657906239
 10
187.9404746832718
 20
15.55416360522427
 10
187.8029808335276
 20
15.54799804883665
 10
187.728959037231
 20
15.56032838458212
 10
187.6613215186857
 20
15.54329323723558
 10
187.6732373719269
 20
15.59524438447529
 10
187.6655677285694
 20
15.64071424966531
 10
187.6732592225116
 20
15.68614453703707
 10
187.6613141797761
 20
15.73802395984572
 10
187.7283588305867
 20
15.72119143490266
 10
187.8017375665676
 20
15.73335409092673
 10
187.9379128305272
 20
15.7272723107496
 10
188.0973811801512
 20
15.7295483431506
 10
188.2789173085836
 20
15.72881233998964
 10
188.4658034862179
 20
15.72905954196136
 10
188.6468012316836
 20
15.72886400799256
 10
188.8080802578878
 20
15.72932234714841
 10
188.9393882124887
 20
15.72812673751208
 10
189.0225051322597
 20
15.73051347319745
 10
189.1556236547813
 20
15.72230605725465
 10
189.0645893502658
 20
15.97752868952656
 10
188.978963307442
 20
16.24164358328243
 10
189.0990589003455
 20
16.22904442969164
 10
189.1514264948543
 20
16.22694235763073
 10
189.2214497569717
 20
16.22535399889657
 10
189.2671922337817
 20
16.21602567538112
 10
189.3220812646934
 20
16.22545966915428
 10
189.2963574785682
 20
16.17733028655173
 10
189.1825397571453
 20
16.18266829744184
 10
189.3159346621136
 20
15.95449174576776
 10
189.1943658735472
 20
15.72156856595925
 10
189.3223188769412
 20
15.73087258884441
 10
189.4049048406461
 20
15.72801001754682
 10
189.5307214850824
 20
15.72923437412305
 10
189.6741469838057
 20
15.72932431888966
 10
189.8157420951728
 20
15.72746163183855
 10
189.9459127249967
 20
15.73333075937165
 10
190.0193452286191
 20
15.72070340823206
 10
190.0891112922096
 20
15.73877563110414
 10
190.0775772605396
 20
15.68612850546328
 10
190.0833184346682
 20
15.64221317686549
 10
190.081661577091
 20
15.5908998267655
 10
190.081775756167
 20
15.56158792021636
 10
190.0818114333289
 20
15.55242795125079
 97
        1
330
AB
 75
     1
 76
     2
 52
45.0
 41
0.1
 77
     0
 78
     1
 53
45.0
 43
0.0
 44
0.0
 45
-0.282842712474619
 46
0.0
 79
     0
 98
        1
 10
0.0
 20
0.0
  0
HATCH
  5
C9
330
48
100
AcDbEntity
  8
1
  6
Continuous
 62
     2
100
AcDbHatch
 10
0.0
 20
0.0
 30
0.0
210
0.0
220
0.0
230
1.0
  2
CUSTOM7
 70
     0
 71
     1
 91
        1
 92
        1
 93
        1
 72
     4
 94
        3
 73
     0
 74
     0
 95
       75
 96
       71
 40
0.0
 40
0.0
 40
0.0
 40
0.0
 40
0.0342546099129709
 40
0.12456224144324
 40
0.2522385480897589
 40
0.3985991922940786
 40
0.5449598364980963
 40
0.6726361431439012
 40
0.7629437746737138
 40
0.7971983935298186
 40
1.101723623449732
 40
1.408591244036676
 40
1.433332471690377
 40
1.487763172450163
 40
1.542193873081984
 40
1.566935100592527
 40
1.923523931821832
 40
2.271755704953606
 40
2.590579755100826
 40
2.858943305581064
 40
2.889120339309079
 40
2.918305855191043
 40
2.941366645531167
 40
2.996357760973055
 40
3.061992318140605
 40
3.116983433626779
 40
3.140044223997469
 40
3.411273122936295
 40
3.732441619740951
 40
3.761068217532653
 40
3.837787499630222
 40
3.948858699125869
 40
4.080541049104262
 40
4.219093782625656
 40
4.350776132722219
 40
4.461847332405565
 40
4.538566614678306
 40
4.567193212544554
 40
4.594907573998812
 40
4.666381453557351
 40
4.764111044010962
 40
4.870592538125765
 40
4.968322128642216
 40
5.039796008286901
 40
5.06751036978436
 40
5.094263603185574
 40
5.15312071666821
 40
5.211977830150657
 40
5.238731063551661
 40
5.2722905351389
 40
5.363380529444761
 40
5.497618415781439
 40
5.660621563453681
 40
5.838007341749382
 40
6.015393119910733
 40
6.178396267038359
 40
6.31263415184231
 40
6.4037241430593
 40
6.437283612672395
 40
6.464036846261013
 40
6.522893960004627
 40
6.581751071483893
 40
6.608504301590839
 40
6.637253941280987
 40
6.711397748902838
 40
6.812778057283451
 40
6.923237199249227
 40
7.024617507623871
 40
7.098761315207524
 40
7.127510946007474
 40
7.127510946007474
 40
7.127510946007474
 40
7.127510946007474
 10
188.4418622390564
 20
14.9584912847327
 10
188.4418622819707
 20
14.94707313408726
 10
188.4418624481128
 20
14.90555257842634
 10
188.4418593081787
 20
14.82146922003778
 10
188.44187882798
 20
14.70004497322333
 10
188.4417912187737
 20
14.55980494047453
 10
188.4421116235231
 20
14.42006556794581
 10
188.4411605909741
 20
14.29745038894933
 10
188.4431978595967
 20
14.21587074438047
 10
188.4349433178746
 20
14.062712670777
 10
188.74307979409
 20
14.22560236054716
 10
189.0350645173737
 20
14.39482938688003
 10
189.0408354448707
 20
14.2597323578191
 10
189.0455471719891
 20
14.21617221160445
 10
189.0482535411918
 20
14.17211249350546
 10
189.0672545672957
 20
14.02272590363134
 10
188.6583942247303
 20
14.08681172241268
 10
188.3793710348832
 20
13.97296341411021
 10
188.1018081587166
 20
13.87364095811144
 10
187.8099837184402
 20
13.91630687596354
 10
187.7869144678658
 20
13.81321679744538
 10
187.7537474383332
 20
13.78691091244476
 10
187.7480653962739
 20
13.83455309036309
 10
187.7284214559045
 20
13.87180336115077
 10
187.7095089485623
 20
13.93007387847568
 10
187.6942849867708
 20
13.97385201007814
 10
187.6477246372937
 20
14.08759421046312
 10
187.9890897312451
 20
14.05576301120051
 10
188.2679649367385
 20
14.02161435106477
 10
188.2617753034908
 20
14.16913976479651
 10
188.2630935452772
 20
14.24013150908831
 10
188.2624831689949
 20
14.34719767958662
 10
188.2625871570725
 20
14.47398529785999
 10
188.2629987964055
 20
14.60849243496052
 10
188.2613907841968
 20
14.73395549951188
 10
188.2659902567925
 20
14.84505246719122
 10
188.256418650221
 20
14.90761886800694
 10
188.2704001783691
 20
14.96595388295007
 10
188.2147384386705
 20
14.95289710582244
 10
188.1575655197821
 20
14.96136307749504
 10
188.0616048925648
 20
14.95729976080642
 10
187.963376752282
 20
14.9597088985248
 10
187.8672582457561
 20
14.95551600613394
 10
187.8104648525811
 20
14.96429346441168
 10
187.7550356873384
 20
14.95094936850127
 10
187.7670679427917
 20
15.00036910959263
 10
187.7592003173937
 20
15.04393988030401
 10
187.7666295563828
 20
15.08830469118531
 10
187.7551930564143
 20
15.13902297763997
 10
187.8232102370133
 20
15.12162460757749
 10
187.8968496879747
 20
15.13417450237194
 10
188.0325064058211
 20
15.12799677011104
 10
188.1884909024525
 20
15.1302920309309
 10
188.3615926358143
 20
15.12940968262536
 10
188.5346942964181
 20
15.13029207142414
 10
188.6906789811216
 20
15.12799662955556
 10
188.8263351889797
 20
15.13417486262438
 10
188.8999756705652
 20
15.1216239421834
 10
188.9679914174724
 20
15.13902373012148
 10
188.9565590885922
 20
15.08830130414561
 10
188.9639539458297
 20
15.04397060811114
 10
188.9562039912271
 20
15.00028307550202
 10
188.9681203741877
 20
14.95063590098483
 10
188.9108170223617
 20
14.96461411338431
 10
188.8520145789772
 20
14.9553975567326
 10
188.7525293633199
 20
14.95952268164935
 10
188.649428009835
 20
14.95822760025894
 10
188.5537846354573
 20
14.95854077077646
 10
188.4857467971617
 20
14.95848776697151
 10
188.4514462213443
 20
14.95849051871662
 10
188.4418622390564
 20
14.9584912847327
 97
        1
330
AC
 75
     1
 76
     2
 52
45.0
 41
0.1
 77
     0
 78
     1
 53
45.0
 43
0.0
 44
0.0
 45
-0.282842712474619
 46
0.0
 79
     0
 98
        1
 10
0.0
 20
0.0
  0
HATCH
  5
CA
330
48
100
AcDbEntity
  8
1
  6
Continuous
 62
     2
100
AcDbHatch
 10
0.0
 20
0.0
 30
0.0
210
0.0
220
0.0
230
1.0
  2
CUSTOM8
 70
     0
 71
     1
 91
        1
 92
        1
 93
        1
 72
     4
 94
        3
 73
     0
 74
     0
 95
       15
 96
       11
 40
0.0
 40
0.0
 40
0.0
 40
0.0
 40
0.2785535985096447
 40
0.5215624748198492
 40
0.6076917376040322
 40
0.6938210001741262
 40
0.9405019146454974
 40
1.221691403489025
 40
1.300471877080915
 40
1.379252341684652
 40
1.379252341684652
 40
1.379252341684652
 40
1.379252341684652
 10
189.5681493630999
 20
16.22930267330381
 10
189.6296017794177
 20
16.17691646592715
 10
189.7446649974114
 20
16.07882876798224
 10
190.0397348497243
 20
15.92889785897228
 10
189.9025147631857
 20
15.84343227515017
 10
189.8041227843779
 20
15.71085785201553
 10
189.713003359065
 20
16.0161698578142
 10
189.3636839480658
 20
16.07967869465367
 10
189.511925837657
 20
16.17896509880875
 10
189.5494081874237
 20
16.21252348402382
 10
189.5681493630999
 20
16.22930267330381
 97
        1
330
AD
 75
     1
 76
     2
 52
45.0
 41
0.1
 77
     0
 78
     1
 53
45.0
 43
0.0
 44
0.0
 45
-0.282842712474619
 46
0.0
 79
     0
 98
        1
 10
0.0
 20
0.0
  0
HATCH
  5
CB
330
48
100
AcDbEntity
  8
1
  6
Continuous
 62
     2
100
AcDbHatch
 10
0.0
 20
0.0
 30
0.0
210
0.0
220
0.0
230
1.0
  2
CUSTOM9
 70
     0
 71
     1
 91
        1
 92
        1
 93
        1
 72
     4
 94
        3
 73
     0
 74
     0
 95
       35
 96
       31
 40
0.0
 40
0.0
 40
0.0
 40
0.0
 40
0.0335231036620728
 40
0.071321857171224
 40
0.4278866681487256
 40
0.811686584196398
 40
1.19819023800006
 40
1.561379546812699
 40
1.659983174622048
 40
1.759315573807121
 40
2.13271961723105
 40
2.525233363588793
 40
2.910815397779678
 40
3.265244364303278
 40
3.592606723582017
 40
3.964386154603972
 40
4.359942131737797
 40
4.758154118639296
 40
4.843846538699906
 40
4.936650065543227
 40
5.256616602537305
 40
5.581707404416039
 40
5.899719158308131
 40
6.198363494280731
 40
6.466301046615754
 40
6.493895311537075
 40
6.559697020196868
 40
6.638234543442443
 40
6.704036252154195
 40
6.731630508423001
 40
6.731630508423001
 40
6.731630508423001
 40
6.731630508423001
 10
191.9736010568669
 20
16.23463843719139
 10
191.9676006097789
 20
16.22480690542328
 10
191.9548344099157
 20
16.20388988579802
 10
191.7949362006555
 20
16.17127126532682
 10
192.2322025842338
 20
15.88206680336712
 10
192.4345394828261
 20
15.6804113835844
 10
192.6819564267973
 20
15.43749387603281
 10
193.1831513624607
 20
15.36047662757781
 10
193.012556219897
 20
15.21876939174659
 10
192.9383299463202
 20
15.01710366209111
 10
192.6131432248188
 20
15.3695628717473
 10
192.3277741670664
 20
15.53175212559566
 10
192.0337604077658
 20
15.7368713005305
 10
191.8084452691134
 20
16.21827488595459
 10
191.5993085055522
 20
15.75343046609227
 10
191.3207873674834
 20
15.54350952252915
 10
191.0371383177208
 20
15.37424456359986
 10
190.7078639527832
 20
15.00142360907943
 10
190.6277012318223
 20
15.19708014459006
 10
190.4759724909745
 20
15.32491104190601
 10
190.9083395826794
 20
15.4045403176594
 10
191.0962565329766
 20
15.60026634915477
 10
191.3468477420502
 20
15.81632996916759
 10
191.5714350470162
 20
15.98190992300062
 10
191.6259775409712
 20
16.26133964636827
 10
191.7494661029012
 20
16.24737950408081
 10
191.8060273344519
 20
16.24521268867649
 10
191.8761870984945
 20
16.24046859881365
 10
191.9333414022105
 20
16.23709429350546
 10
191.9644190320838
 20
16.23519854711124
 10
191.9736010568669
 20
16.23463843719139
 97
        1
330
AE
 75
     1
 76
     2
 52
45.0
 41
0.1
 77
     0
 78
     1
 53
45.0
 43
0.0
 44
0.0
 45
-0.282842712474619
 46
0.0
 79
     0
 98
        1
 10
0.0
 20
0.0
  0
HATCH
  5
CC
330
48
100
AcDbEntity
  8
1
  6
Continuous
 62
     2
100
AcDbHatch
 10
0.0
 20
0.0
 30
0.0
210
0.0
220
0.0
230
1.0
  2
CUSTOM10
 70
     0
 71
     1
 91
        1
 92
        1
 93
        1
 72
     4
 94
        3
 73
     0
 74
     0
 95
       91
 96
       87
 40
0.0
 40
0.0
 40
0.0
 40
0.0
 40
0.026753225435663
 40
0.0856103386463907
 40
0.1444674521996283
 40
0.1712206856618106
 40
0.2039416005642128
 40
0.2955601971652075
 40
0.4362601844616509
 40
0.6162252844506841
 40
0.8256392189704289
 40
1.05468570984437
 40
1.29354847889349
 40
1.532411247938262
 40
1.761457738799527
 40
1.970871673298496
 40
2.150836773256692
 40
2.291536760495553
 40
2.383155356836659
 40
2.415876284101279
 40
2.442629517487917
 40
2.501486630949032
 40
2.560343744424167
 40
2.587096977826433
 40
2.61706819444086
 40
2.699247336756001
 40
2.822032643466314
 40
2.973822353257844
 40
3.143014704823286
 40
3.318007936879865
 40
3.487200288186698
 40
3.638989997548179
 40
3.761775303794678
 40
3.843954445753012
 40
3.873925662229708
 40
3.890812773500424
 40
3.907699884771611
 40
3.93796076785723
 40
3.980983618142268
 40
4.199085915228399
 40
4.439444339237181
 40
4.67758824126084
 40
5.050698317837755
 40
5.448212454763169
 40
5.855291218044639
 40
6.138575438885288
 40
6.417434507584153
 40
6.44455110439383
 40
6.504207617363117
 40
6.563864130314429
 40
6.590980727104017
 40
6.84860946038142
 40
7.10961199066838
 40
7.352910904446031
 40
7.557830220705387
 40
7.587518925913303
 40
7.652834077375716
 40
7.718149228845647
 40
7.747837934061948
 40
7.854880190300894
 40
7.976511257403399
 40
8.369487896592199
 40
8.757514959223464
 40
9.1260724193309
 40
9.460639380391992
 40
9.746695593035762
 40
9.777569943118502
 40
9.807050320931594
 40
9.830377336128715
 40
9.88600329543579
 40
9.952395569429676
 40
10.00802152870602
 40
10.03134854388193
 40
10.21356951009558
 40
10.42203479292849
 40
10.66154556731046
 40
10.91693789564285
 40
11.15832906556549
 40
11.18982674596606
 40
11.27286608520391
 40
11.39026653033333
 40
11.52484752840869
 40
11.65942852648431
 40
11.77682897161467
 40
11.85986831085666
 40
11.89136598230411
 40
11.89136598230411
 40
11.89136598230411
 40
11.89136598230411
 10
190.7027885008196
 20
14.70699600701781
 10
190.7028237765288
 20
14.71587847311994
 10
190.7029366710797
 20
14.74430237047354
 10
190.7012984568488
 20
14.7940963916981
 10
190.7069750292911
 20
14.8365756447816
 10
190.6956928731706
 20
14.88730154856852
 10
190.7632296979032
 20
14.87012900740114
 10
190.83880292107
 20
14.88290227166001
 10
190.9828357056
 20
14.87629729457387
 10
191.1569419185427
 20
14.87888462206471
 10
191.3639599611003
 20
14.87800591955558
 10
191.5894688172378
 20
14.87828207920033
 10
191.8251162293406
 20
14.87818339658667
 10
192.0607640531348
 20
14.87828184412772
 10
192.2862717580626
 20
14.87800678190793
 10
192.4932934632805
 20
14.8788818627074
 10
192.6673888915288
 20
14.87630522678451
 10
192.8114492071986
 20
14.88288290449219
 10
192.8869691915293
 20
14.87016243405608
 10
192.9545776037029
 20
14.88726400191691
 10
192.9430840140676
 20
14.83674785802946
 10
192.9505104581733
 20
14.79253252226508
 10
192.9428838927986
 20
14.74867966503618
 10
192.9546489459424
 20
14.69878374479337
 10
192.8930788491983
 20
14.71393227712521
 10
192.8256791738671
 20
14.70310665350682
 10
192.7013004056222
 20
14.70852031626245
 10
192.555442823657
 20
14.70649205390793
 10
192.3893576440086
 20
14.70715777578396
 10
192.2188412621724
 20
14.70689643521251
 10
192.0519790855388
 20
14.70721553391103
 10
191.9087346827105
 20
14.70635302590771
 10
191.7773313869834
 20
14.70863300482998
 10
191.7239859134656
 20
14.7040770437421
 10
191.6485188456912
 20
14.70999914992887
 10
191.6769075779232
 20
14.70094169343359
 10
191.7033652409542
 20
14.69725912268932
 10
191.6633522907701
 20
14.66654271968276
 10
191.5713663691867
 20
14.67667591174628
 10
191.5439396207069
 20
14.43032502247788
 10
191.4478793967234
 20
14.27499558764376
 10
191.1917277964473
 20
13.94525417931567
 10
191.7627537732763
 20
14.08430022210458
 10
192.0173656320516
 20
14.08291779973366
 10
192.6279647048617
 20
13.99790569242094
 10
192.3340698578083
 20
14.29685417558211
 10
192.0133304286517
 20
14.44330856901789
 10
192.1313543360434
 20
14.50025540818293
 10
192.1724716466261
 20
14.52420099873352
 10
192.215681239441
 20
14.54599758811232
 10
192.3174574094451
 20
14.60928721253901
 10
192.4328867625247
 20
14.35147151408781
 10
192.6329591642279
 20
14.21616041113685
 10
192.7269077387227
 20
14.03792795138889
 10
192.9558829746393
 20
13.87997821027049
 10
192.8596031846707
 20
13.82915972576303
 10
192.8167959763779
 20
13.79881292523057
 10
192.7718243528779
 20
13.77466130281463
 10
192.7121720925214
 20
13.72552146747573
 10
192.6789731061325
 20
13.85997475673612
 10
192.5582013350795
 20
14.01594265286578
 10
192.1970976005979
 20
13.8856992805956
 10
191.8385061955541
 20
13.90224694409485
 10
191.457092045008
 20
13.89331229351865
 10
191.1703455282891
 20
13.82882671672408
 10
190.8592055599715
 20
13.94230668192821
 10
190.8268737818788
 20
13.83122259927769
 10
190.7896178253317
 20
13.81196313850016
 10
190.7865737632754
 20
13.85874784087301
 10
190.7679892860606
 20
13.89806853919136
 10
190.751243661678
 20
13.95765983478235
 10
190.7383730915753
 20
14.00201969871283
 10
190.7042327806431
 20
14.09106331120201
 10
190.9482714457753
 20
14.02181042943772
 10
191.1441394486673
 20
14.00030369057736
 10
191.2395426381277
 20
14.28226484478468
 10
191.2945135769598
 20
14.44363045421131
 10
191.5159619357155
 20
14.71391177589747
 10
191.3849239381216
 20
14.70548446853743
 10
191.3110026555854
 20
14.70779008496979
 10
191.1977459876244
 20
14.70671378321667
 10
191.0694251807484
 20
14.70707639076519
 10
190.9404252030415
 20
14.70697724466095
 10
190.828784094629
 20
14.7069993271258
 10
190.7514663970026
 20
14.70699579189679
 10
190.713287653201
 20
14.7069959584509
 10
190.7027885008196
 20
14.70699600701781
 97
        1
330
AF
 75
     1
 76
     2
 52
45.0
 41
0.1
 77
     0
 78
     1
 53
45.0
 43
0.0
 44
0.0
 45
-0.282842712474619
 46
0.0
 79
     0
 98
        1
 10
0.0
 20
0.0
  0
HATCH
  5
CD
330
48
100
AcDbEntity
  8
1
  6
Continuous
 62
     2
100
AcDbHatch
 10
0.0
 20
0.0
 30
0.0
210
0.0
220
0.0
230
1.0
  2
CUSTOM11
 70
     0
 71
     1
 91
        1
 92
        1
 93
        1
 72
     4
 94
        3
 73
     0
 74
     0
 95
      131
 96
      127
 40
0.0
 40
0.0
 40
0.0
 40
0.0
 40
0.0195577029826212
 40
0.0426490537461385
 40
0.2863607575856477
 40
0.5344948436189383
 40
0.7842238845573424
 40
0.8737315789467529
 40
0.9803832810312973
 40
1.092842274517039
 40
1.199761146656793
 40
1.289788768186492
 40
1.35157358078618
 40
1.370727117561406
 40
1.416400936017817
 40
1.470914848355955
 40
1.516588666791743
 40
1.535742203552824
 40
1.634216592293165
 40
1.760283341174969
 40
1.897966686682021
 40
2.031216387368798
 40
2.049689751137793
 40
2.101115601646731
 40
2.179502577739852
 40
2.278859318313972
 40
2.393194462258633
 40
2.516516648383754
 40
2.642834515405886
 40
2.766156701983395
 40
2.880491846754513
 40
2.979848588358559
 40
3.05823556544374
 40
3.109661416668896
 40
3.128134780704074
 40
3.14678374238639
 40
3.19125434331528
 40
3.244332157315938
 40
3.288802758225871
 40
3.307451719895142
 40
3.327717853844753
 40
3.383747753580117
 40
3.468388665924512
 40
3.574487837698822
 40
3.694892515728931
 40
3.822449946852075
 40
3.95000737792047
 40
4.070412055800563
 40
4.176511227368124
 40
4.261152139501572
 40
4.317182039076767
 40
4.337448172964688
 40
4.6200110026963
 40
4.885096638397585
 40
4.945373043518412
 40
5.014107710488732
 40
5.070481727652149
 40
5.319246955636679
 40
5.58481216450615
 40
5.859000912056993
 40
6.133746937542173
 40
6.40173221296898
 40
6.420736683995571
 40
6.472845717451222
 40
6.550702743894149
 40
6.646951193874358
 40
6.754234497930682
 40
6.86519608658746
 40
6.972479390357918
 40
7.06872783977208
 40
7.146584865451089
 40
7.198693898189319
 40
7.217698368905459
 40
7.234950401630941
 40
7.276089864269991
 40
7.325191803516109
 40
7.366331266090505
 40
7.383583298769858
 40
7.402779163492236
 40
7.453386443254667
 40
7.524934666445668
 40
7.606953361406008
 40
7.68897205642916
 40
7.76052027978441
 40
7.811127559734652
 40
7.830323424546274
 40
7.8478440552999
 40
7.894799345666934
 40
7.962779392744611
 40
8.043374293560644
 40
8.128174145149538
 40
8.208769044817329
 40
8.276749090377022
 40
8.323704379669573
 40
8.341225010056304
 40
8.358497614800452
 40
8.401679126686657
 40
8.457815092185715
 40
8.51395105772812
 40
8.557132569708076
 40
8.574405174505118
 40
8.602340668616467
 40
8.64345566053993
 40
8.663225271966601
 40
8.715345156564245
 40
8.789031889628584
 40
8.873502045520315
 40
8.95797219432394
 40
9.031658925567838
 40
9.083778811234525
 40
9.103548423002989
 40
9.119550083123555
 40
9.160817522379828
 40
9.217244429110222
 40
9.278724491644708
 40
9.335151398295464
 40
9.37641883735776
 40
9.392420497300547
 40
9.401196302734737
 40
9.417494229384156
 40
9.426270027749426
 40
9.44087507547746
 40
9.475702496998643
 40
9.51727070986581
 40
9.552098131993981
 40
9.56670316988419
 40
9.56670316988419
 40
9.56670316988419
 40
9.56670316988419
 10
194.6170254148479
 20
15.67015871511029
 10
194.6134345093371
 20
15.6645369070216
 10
194.6056039123625
 20
15.65227754419113
 10
194.5129968974547
 20
15.61601916040986
 10
194.4887622233247
 20
15.40148444212713
 10
194.3858709845938
 20
15.22197284509712
 10
194.1220492364305
 20
15.03615573798144
 10
194.284547156918
 20
14.95959336566082
 10
194.3607225760838
 20
14.89856693195444
 10
194.4492171072759
 20
14.83515804544763
 10
194.538993023311
 20
14.77525634219564
 10
194.5883817636046
 20
14.72102154849212
 10
194.6745708157381
 20
14.69286240541839
 10
194.641126067423
 20
14.65713309652818
 10
194.621467116631
 20
14.62550387991912
 10
194.5919888217882
 20
14.58475872796076
 10
194.5688989446031
 20
14.5550466348965
 10
194.5380205968357
 20
14.50211422668501
 10
194.4729193365739
 20
14.62740334938906
 10
194.3796000122416
 20
14.6821390023394
 10
194.2950636285138
 20
14.73916423939344
 10
194.1722498125744
 20
14.89675287427523
 10
194.1764450847301
 20
14.82035806766838
 10
194.1751478652679
 20
14.77361280161297
 10
194.1758126448078
 20
14.69584785812603
 10
194.1755549986958
 20
14.59902068324423
 10
194.1756431239922
 20
14.4865027907881
 10
194.1756077302282
 20
14.36524085945699
 10
194.175651175828
 20
14.2408689785896
 10
194.1755199942406
 20
14.11967683631335
 10
194.1759477562047
 20
14.00691148919741
 10
194.1746678202312
 20
13.91082913768742
 10
194.1779759851042
 20
13.83113826468697
 10
194.1715197740088
 20
13.78815175788782
 10
194.1806208705556
 20
13.74955432372039
 10
194.1447910339936
 20
13.75810887724068
 10
194.1115223815252
 20
13.75342519985443
 10
194.0604562576041
 20
13.75351298759782
 10
194.0269723972813
 20
13.75794430283818
 10
193.9907585408754
 20
13.74960793842506
 10
194.0009782568665
 20
13.79145277179281
 10
193.9936487887773
 20
13.83778560820171
 10
193.9973633136103
 20
13.92374831106012
 10
193.9959480554896
 20
14.02605142704847
 10
193.9964105554638
 20
14.1445322393151
 10
193.996277368623
 20
14.26957683153355
 10
193.9963015910045
 20
14.39475828107048
 10
193.9963354925551
 20
14.51286645379058
 10
193.9962060293132
 20
14.61628748709516
 10
193.996550754908
 20
14.69932036153667
 10
193.9958698278691
 20
14.75143368521244
 10
193.9994586600621
 20
14.87912907821359
 10
193.7826171386438
 20
14.58048716819622
 10
193.602135492195
 20
14.35263981511511
 10
193.5490322295611
 20
14.49373443289813
 10
193.5200429133149
 20
14.54325767560943
 10
193.419664806282
 20
14.6464177979011
 10
193.7405127723261
 20
14.72695035023782
 10
193.8689897005429
 20
14.91066283036438
 10
194.0906454325359
 20
15.11931995771765
 10
194.1770224894069
 20
15.29339211228345
 10
194.4549394229075
 20
15.56967051342517
 10
194.3346247839284
 20
15.56534559551116
 10
194.2863197351348
 20
15.56614856202556
 10
194.2102377454905
 20
15.56574582146587
 10
194.116701000975
 20
15.56590275611612
 10
194.0117594788557
 20
15.56582502576227
 10
193.9033887738717
 20
15.56595464378557
 10
193.7981454235897
 20
15.56554393490694
 10
193.7056237819412
 20
15.56682073671594
 10
193.6268130800707
 20
15.56340766534853
 10
193.5839674565379
 20
15.57023350036323
 10
193.5449499586515
 20
15.56065064201126
 10
193.5526365271863
 20
15.59420779565546
 10
193.5485464404312
 20
15.62523550322237
 10
193.5485531368815
 20
15.67236529270905
 10
193.5526239724911
 20
15.70340941646784
 10
193.5449495574583
 20
15.73701861635907
 10
193.5834819405494
 20
15.72748410420878
 10
193.624122801448
 20
15.73397435498076
 10
193.6951471850463
 20
15.7310015065026
 10
193.7729318149633
 20
15.73174761399163
 10
193.8507292246474
 20
15.73247814044531
 10
193.9217232089907
 20
15.72954235514166
 10
193.962427979182
 20
15.73595468772957
 10
194.0009853489909
 20
15.7265052417601
 10
193.9927342754927
 20
15.76264692158789
 10
193.9982346669358
 20
15.80129837613232
 10
193.9955754206163
 20
15.86913528561842
 10
193.9965815471532
 20
15.94591641538742
 10
193.9960178018319
 20
16.02849393582758
 10
193.9970714526592
 20
16.10517329229878
 10
193.9942675863129
 20
16.17331990776698
 10
194.0000702721304
 20
16.21132399809345
 10
193.9915654551158
 20
16.24758448077644
 10
194.0255610233125
 20
16.23755723771851
 10
194.0594575683099
 20
16.24073266813705
 10
194.1126669060346
 20
16.23508965640608
 10
194.1660768574483
 20
16.23434774436425
 10
194.1995914649491
 20
16.2281922348298
 10
194.2388086183038
 20
16.23346029773593
 10
194.2120263698493
 20
16.1925338079349
 10
194.1708111001724
 20
16.20371204538116
 10
194.1782641540874
 20
16.15867056192129
 10
194.1742227952185
 20
16.11412278028152
 10
194.1761714049641
 20
16.04223572621709
 10
194.175236484976
 20
15.96168630588778
 10
194.176510719003
 20
15.88173995405001
 10
194.1732043793865
 20
15.80841837083188
 10
194.1802106179962
 20
15.76688643002574
 10
194.1701440380126
 20
15.72752418568118
 10
194.2029814803922
 20
15.73468063430987
 10
194.2364577296481
 20
15.7302724313795
 10
194.2915053476019
 20
15.73217943347903
 10
194.3489502595316
 20
15.73185366407294
 10
194.402302624831
 20
15.73106308733087
 10
194.439854089664
 20
15.7331395911808
 10
194.4623172523237
 20
15.73022338167114
 10
194.4751678073732
 20
15.73572552644061
 10
194.4858255685888
 20
15.73801118197795
 10
194.4986635650143
 20
15.74494972588057
 10
194.5145991033071
 20
15.72853046313675
 10
194.5410623920891
 20
15.71709122319452
 10
194.5726805253757
 20
15.69644687835193
 10
194.5987255892151
 20
15.68116869628296
 10
194.6128517723973
 20
15.67266976323186
 10
194.6170254148479
 20
15.67015871511029
 97
        1
330
B0
 75
     1
 76
     2
 52
45.0
 41
0.1
 77
     0
 78
     1
 53
45.0
 43
0.0
 44
0.0
 45
-0.282842712474619
 46
0.0
 79
     0
 98
        1
 10
0.0
 20
0.0
  0
HATCH
  5
CE
330
48
100
AcDbEntity
  8
1
  6
Continuous
 62
     2
100
AcDbHatch
 10
0.0
 20
0.0
 30
0.0
210
0.0
220
0.0
230
1.0
  2
CUSTOM12
 70
     0
 71
     1
 91
        1
 92
        1
 93
        1
 72
     4
 94
        3
 73
     0
 74
     0
 95
      124
 96
      120
 40
0.0
 40
0.0
 40
0.0
 40
0.0
 40
0.027818722962451
 40
0.1011590162384269
 40
0.2048470170590239
 40
0.3237088716559245
 40
0.4425707262522
 40
0.5462587270699547
 40
0.6195990203311798
 40
0.647417752257866
 40
0.6750060736115242
 40
0.7357003855242759
 40
0.7963946998054474
 40
0.8239830245571766
 40
0.854093381110286
 40
0.937339662940954
 40
1.063094687343235
 40
1.220731268638073
 40
1.399622220914748
 40
1.589140358637732
 40
1.778658496423898
 40
1.957549448940509
 40
2.115186030873159
 40
2.240941056914463
 40
2.324187341760532
 40
2.354297700109382
 40
2.38188602467189
 40
2.442580338710475
 40
2.503274652750497
 40
2.530862977314606
 40
2.560983949278559
 40
2.640393784452905
 40
2.752662861759128
 40
2.881361560118145
 40
3.010060258455192
 40
3.122329335705339
 40
3.201739170817953
 40
3.231860142753313
 40
3.26429802403037
 40
3.352343701778238
 40
3.48209522686876
 40
3.639650650173018
 40
3.811108022565473
 40
3.982565394927978
 40
4.140120818152558
 40
4.269872343141267
 40
4.357918020802328
 40
4.390355902043955
 40
4.423256253992524
 40
4.508104530073045
 40
4.624121560636813
 40
4.75052817603157
 40
4.866545206602017
 40
4.951393482691974
 40
4.984293834645375
 40
5.011450833242287
 40
5.071196230152066
 40
5.130941627057136
 40
5.158098625648798
 40
5.190998977601489
 40
5.275847253689315
 40
5.391864284256749
 40
5.518270899648294
 40
5.634287930209333
 40
5.719136206288007
 40
5.752036558235894
 40
5.782130946282922
 40
5.862783906229098
 40
5.979550131774972
 40
6.117984316640382
 40
6.263641154587932
 40
6.402075339414146
 40
6.518841564907949
 40
6.599494524815534
 40
6.629588912848772
 40
6.654403028226349
 40
6.713575149488116
 40
6.784199939329434
 40
6.843372060493536
 40
6.868186175802782
 40
6.896246243201841
 40
6.939586233758234
 40
6.967846564564869
 40
7.043584251089808
 40
7.153234334451675
 40
7.283231855734433
 40
7.420011856035478
 40
7.550009376579839
 40
7.659659458835247
 40
7.735397144417245
 40
7.763657474851419
 40
7.796409728011076
 40
7.88087606509635
 40
7.996370852465736
 40
8.12220844641863
 40
8.237703224799224
 40
8.322169562010918
 40
8.354921815205932
 40
8.382078813307709
 40
8.44182420920701
 40
8.501569605240151
 40
8.528726603485728
 40
8.561478856695777
 40
8.645945193877827
 40
8.761439980865338
 40
8.887277580764481
 40
9.002772362001002
 40
9.087238696661222
 40
9.119990949235676
 40
9.152428830613376
 40
9.24047450863859
 40
9.370226034149539
 40
9.527781457984421
 40
9.699238830981407
 40
9.870696203978595
 40
10.02825162781402
 40
10.15800315332563
 40
10.24604883135118
 40
10.27848670378521
 40
10.27848670378521
 40
10.27848670378521
 40
10.27848670378521
 10
195.3821827564383
 20
14.01410517385759
 10
195.3914554737523
 20
14.01410498511276
 10
195.4251744536861
 20
14.01410430876716
 10
195.4934706812465
 20
14.01411807243307
 10
195.592014171158
 20
14.01403224219547
 10
195.7062066464812
 20
14.01441755612253
 10
195.818589441707
 20
14.01300835897547
 10
195.9214376600118
 20
14.01719117422245
 10
195.9806839874849
 20
14.00823089251985
 10
196.0371265937033
 20
14.02164434526063
 10
196.0246255586954
 20
13.97087198613363
 10
196.0329549635703
 20
13.92589320939069
 10
196.024817084112
 20
13.8805675299049
 10
196.0370529214457
 20
13.82931932408468
 10
195.9747773490333
 20
13.84447955365278
 10
195.9060513026868
 20
13.83359750710744
 10
195.7782756749592
 20
13.83911304747975
 10
195.6262984511643
 20
13.837008512537
 10
195.4502695972523
 20
13.83771002588475
 10
195.2644431934287
 20
13.83745237531293
 10
195.0786167437175
 20
13.83771005144606
 10
194.9025880142168
 20
13.83700841847732
 10
194.7506104154195
 20
13.83911332229991
 10
194.6228357664554
 20
13.83359680767642
 10
194.5541077836581
 20
13.84448077125944
 10
194.4918349042883
 20
13.82931786684211
 10
194.5040616290017
 20
13.88057510805173
 10
194.4960004462597
 20
13.92582473272427
 10
194.5040675809893
 20
13.97106357955325
 10
194.4918238487083
 20
14.0223417690996
 10
194.5525017120697
 20
14.00749577363136
 10
194.6162810745736
 20
14.01756448170737
 10
194.7277314353502
 20
14.01294644212001
 10
194.8497533443824
 20
14.01413328905471
 10
194.9719538137823
 20
14.01515863900637
 10
195.0829794287392
 20
14.01092475623403
 10
195.1476517413958
 20
14.02018584521741
 10
195.2091162810501
 20
14.00604423049684
 10
195.1930065601337
 20
14.07235527884519
 10
195.2042980327358
 20
14.14447790121977
 10
195.1987400822561
 20
14.27513760888288
 10
195.200803506169
 20
14.42607323708242
 10
195.2000167127295
 20
14.59335873107887
 10
195.2007845215628
 20
14.76061110332304
 10
195.1988038785628
 20
14.91163289269915
 10
195.204130615662
 20
15.04206069552995
 10
195.1933101388425
 20
15.114654426059
 10
195.2090326429875
 20
15.18150469436799
 10
195.143270813249
 20
15.16580512490825
 10
195.0756367830763
 20
15.17609243083996
 10
194.9615885293809
 20
15.17113786847123
 10
194.8451242674902
 20
15.17414128030475
 10
194.7306554121477
 20
15.16880303143389
 10
194.6640324657812
 20
15.18001268074826
 10
194.5990769715186
 20
15.16349132665012
 10
194.6107989758707
 20
15.21473720477059
 10
194.6032830189122
 20
15.25950333784091
 10
194.6107989878835
 20
15.3042694489796
 10
194.5990769505347
 20
15.3555153612974
 10
194.66403263392
 20
15.33899381766814
 10
194.7306533339822
 20
15.35020571373943
 10
194.8451352858063
 20
15.34485436710663
 10
194.9615454436962
 20
15.34791188771116
 10
195.0757660174641
 20
15.34278499010707
 10
195.1430150439226
 20
15.35345733355597
 10
195.2083325941438
 20
15.33742082669076
 10
195.1941391448552
 20
15.39949685750052
 10
195.2036059462994
 20
15.46586761628762
 10
195.1990269004085
 20
15.58239972741966
 10
195.2007696555948
 20
15.71426685022376
 10
195.1997551495392
 20
15.85615960150274
 10
195.2017191344372
 20
15.98769050702581
 10
195.1964668553851
 20
16.10524577283005
 10
195.2073408763474
 20
16.16947789001586
 10
195.1919536641853
 20
16.2310880254505
 10
195.24075915378
 20
16.21702407382113
 10
195.2853995564726
 20
16.21954742075317
 10
195.3538643946742
 20
16.21512797401711
 10
195.3959106169103
 20
16.20613025544037
 10
195.4487544758775
 20
16.21411714866512
 10
195.4207035002013
 20
16.17113917611678
 10
195.3749142248594
 20
16.18259552043842
 10
195.3869539073264
 20
16.12173520005141
 10
195.379608607064
 20
16.05769299468777
 10
195.3831195826162
 20
15.94909368863915
 10
195.3819806760173
 20
15.82494319144755
 10
195.3819174780262
 20
15.69189719829879
 10
195.3832872966868
 20
15.56797381249556
 10
195.3791638801313
 20
15.45868337849338
 10
195.3877763103563
 20
15.39608580094169
 10
195.3746757454402
 20
15.33740133296364
 10
195.4393884328198
 20
15.35362113810901
 10
195.5060405953156
 20
15.34270260383311
 10
195.6198779541102
 20
15.34793740173754
 10
195.7357259122097
 20
15.34485547516912
 10
195.849692426328
 20
15.35018259812511
 10
195.9160341018099
 20
15.33904208166541
 10
195.980718852548
 20
15.35546979593177
 10
195.9689820772722
 20
15.30425925210049
 10
195.9765168063041
 20
15.25950334121001
 10
195.9689820992257
 20
15.21474739010027
 10
195.9807188140736
 20
15.16353690871041
 10
195.9160344075252
 20
15.1799642779422
 10
195.8496886430824
 20
15.1688278444727
 10
195.7357459487012
 20
15.17413115893121
 10
195.6197995623054
 20
15.17114764593544
 10
195.5062756882122
 20
15.17606892268395
 10
195.4389231318804
 20
15.1658508751352
 10
195.3734285122495
 20
15.18145996138817
 10
195.3891713619218
 20
15.11463851827412
 10
195.3783275998213
 20
15.0420705781588
 10
195.3836581629792
 20
14.91162247614417
 10
195.3817136151855
 20
14.76064558185227
 10
195.3823133683214
 20
14.5932224393416
 10
195.3821506559604
 20
14.42656176118373
 10
195.3821895488136
 20
14.27360142921638
 10
195.38218164131
 20
14.14849178985707
 10
195.3821828382744
 20
14.06507890991422
 10
195.3821827716208
 20
14.02491778281978
 10
195.3821827564383
 20
14.01410517385759
 97
        1
330
B1
 75
     1
 76
     2
 52
45.0
 41
0.1
 77
     0
 78
     1
 53
45.0
 43
0.0
 44
0.0
 45
-0.282842712474619
 46
0.0
 79
     0
 98
        1
 10
0.0
 20
0.0
  0
HATCH
  5
CF
330
48
100
AcDbEntity
  8
1
  6
Continuous
 62
     2
100
AcDbHatch
 10
0.0
 20
0.0
 30
0.0
210
0.0
220
0.0
230
1.0
  2
CUSTOM13
 70
     0
 71
     1
 91
        1
 92
        1
 93
        3
 72
     4
 94
        3
 73
     0
 74
     0
 95
       24
 96
       20
 40
0.0
 40
0.0
 40
0.0
 40
0.0
 40
0.221107500875392
 40
0.4273218586245799
 40
0.5080174679239974
 40
0.5914835907870719
 40
0.814326569019346
 40
1.054651302686672
 40
1.295452694023269
 40
1.518109231328933
 40
1.540864321905549
 40
1.595126460622811
 40
1.659890947896125
 40
1.714153085187484
 40
1.736908174961785
 40
1.764951100735469
 40
1.80156229122106
 40
1.953914424543735
 40
2.126104167379785
 40
2.126104167379785
 40
2.126104167379785
 40
2.126104167379785
 10
185.9375369556889
 20
15.5898929511302
 10
185.9112579081811
 20
15.53097628234378
 10
185.8604698894426
 20
15.41711139679261
 10
185.8131784839112
 20
15.1444195823311
 10
185.7043482802617
 20
15.24445482575457
 10
185.5514800279637
 20
15.27118593367327
 10
185.7686155181199
 20
15.48518135017635
 10
185.783848367438
 20
15.70332117782489
 10
185.8906889492002
 20
15.8845157906643
 10
185.8305380947075
 20
16.16913226311407
 10
185.9334317395402
 20
16.14114089222455
 10
185.9779933468149
 20
16.13243251602304
 10
186.0380842395397
 20
16.12139654183359
 10
186.0756619587438
 20
16.10767523055563
 10
186.1252466928606
 20
16.10756076160226
 10
186.0930158919325
 20
16.07306592398627
 10
186.0171802221882
 20
16.08404104537965
 10
186.0429447159693
 20
15.89858969582454
 10
186.005589676385
 20
15.80702313549594
 10
185.9857704961609
 20
15.75844135397711
 72
     4
 94
        3
 73
     0
 74
     0
 95
       70
 96
       66
 40
0.0
 40
0.0
 40
0.0
 40
0.0
 40
0.0241731073021472
 40
0.0846058988987013
 40
0.1631685280353284
 40
0.2417311571789756
 40
0.3021639488292751
 40
0.3263370654895541
 40
0.3533118254248863
 40
0.4228783438922058
 40
0.5179999095313278
 40
0.6216398239465925
 40
0.7167613891499457
 40
0.7863279069649579
 40
0.8133026791761516
 40
0.8372943998771356
 40
0.8945054261372554
 40
0.9627895541962331
 40
1.020000580349044
 40
1.043992300975142
 40
1.071934345522875
 40
1.113121768772863
 40
1.145225199332188
 40
1.225483775412726
 40
1.329819923771438
 40
1.434156071994328
 40
1.514414647795751
 40
1.546518078208361
 40
1.578974764260134
 40
1.662678849314129
 40
1.77713137366835
 40
1.901833377474741
 40
2.01628590050053
 40
2.099989982527898
 40
2.132446666570256
 40
2.15878235448598
 40
2.216720867907771
 40
2.27465938133419
 40
2.300995069256126
 40
2.333451754066098
 40
2.417155836543779
 40
2.531608358985218
 40
2.656310362283713
 40
2.770762886388846
 40
2.854466971340011
 40
2.886923657363818
 40
2.913597976833253
 40
2.982389642875061
 40
3.07645171694693
 40
3.178937260458552
 40
3.272999334739962
 40
3.34179100105919
 40
3.368465320663503
 40
3.396976080738753
 40
3.472140811845989
 40
3.578408190308678
 40
3.700226892456143
 40
3.822045594634389
 40
3.928312973256524
 40
4.003477705314921
 40
4.031988456866987
 40
4.058324144797789
 40
4.116262658236955
 40
4.174201171400762
 40
4.200536849608698
 40
4.200536849608698
 40
4.200536849608698
 40
4.200536849608698
 10
185.9857704961609
 20
15.75844135397711
 10
185.9938259544679
 20
15.75844359811692
 10
186.0220200663241
 20
15.75845146032804
 10
186.0765534803672
 20
15.75830754828377
 10
186.1482891808604
 20
15.75909120499903
 10
186.2236240137062
 20
15.75627570463817
 10
186.2713052366439
 20
15.76298403400963
 10
186.3195071245616
 20
15.75197563692439
 10
186.3062571799873
 20
15.80546402997039
 10
186.3151093964538
 20
15.86049583543097
 10
186.3108698036285
 20
15.95419908726114
 10
186.313348348128
 20
16.04959482218536
 10
186.3090938706059
 20
16.14356821983391
 10
186.3179818665847
 20
16.19795062438015
 10
186.3046977409945
 20
16.25233997691463
 10
186.3514119277109
 20
16.2384221633536
 10
186.3943254545737
 20
16.24103877374046
 10
186.4605443456684
 20
16.23648422450756
 10
186.5013342271799
 20
16.22778162134162
 10
186.5525145690818
 20
16.23531799890195
 10
186.5253720487201
 20
16.19349970223285
 10
186.4803096055706
 20
16.20284992072605
 10
186.4942065045051
 20
16.13841207371843
 10
186.4858414431653
 20
16.07378219627406
 10
186.4903632178399
 20
15.97529141193894
 10
186.4854741311166
 20
15.87595932842576
 10
186.4950258992082
 20
15.81293115552975
 10
186.47997614552
 20
15.74964011499794
 10
186.5449159457208
 20
15.76515072944275
 10
186.6116246399496
 20
15.75499387697818
 10
186.7241435470828
 20
15.75988800099374
 10
186.8390235448953
 20
15.75691204732789
 10
186.9519871999747
 20
15.76221664184997
 10
187.0176267597678
 20
15.75107306472094
 10
187.0816276691053
 20
15.76744532319863
 10
187.0703142889189
 20
15.7176168990528
 10
187.0775339871509
 20
15.67416715212129
 10
187.0703142611269
 20
15.63071745587451
 10
187.0816277175994
 20
15.58088895196882
 10
187.0176263598972
 20
15.59726166091369
 10
186.9519921240459
 20
15.58611271661594
 10
186.838997431733
 20
15.5914485720686
 10
186.7242456548644
 20
15.58834345663828
 10
186.611318368686
 20
15.59364894682594
 10
186.5455220903585
 20
15.582573000196
 10
186.4816097975358
 20
15.59887597847624
 10
186.4936015165126
 20
15.54423524395748
 10
186.4862104613005
 20
15.48854295047847
 10
186.4892684841983
 20
15.39649689140575
 10
186.4893422785683
 20
15.30179109873105
 10
186.486031357836
 20
15.20952782902269
 10
186.4939505989904
 20
15.15435768736143
 10
186.4815076611617
 20
15.10058169100138
 10
186.5389116551632
 20
15.11453768862784
 10
186.5994708140383
 20
15.10511457884229
 10
186.7048680855081
 20
15.10942885928708
 10
186.8204294070623
 20
15.10835504612034
 10
186.9359688877798
 20
15.10725965900997
 10
187.0414181130841
 20
15.11162525770635
 10
187.1018680471805
 20
15.10209426030674
 10
187.1592837739111
 20
15.11617289606382
 10
187.147777387671
 20
15.06707153265685
 10
187.153756678175
 20
15.02564658018651
 10
187.1520311050803
 20
14.97651677966697
 10
187.1521500122972
 20
14.94854428447609
 10
187.1521871691834
 20
14.93980288195951
 72
     4
 94
        3
 73
     0
 74
     0
 95
       62
 96
       58
 40
0.0
 40
0.0
 40
0.0
 40
0.0
 40
0.0598250028308769
 40
0.20248464868979
 40
0.3727558389221599
 40
0.5154154847936923
 40
0.5752404975786476
 40
0.9332326775488443
 40
1.29045176283959
 40
1.602077253145977
 40
1.699931634112229
 40
1.799359756425188
 40
2.270120149657259
 40
2.804661928461693
 40
2.882342287383397
 40
3.076543185719232
 40
3.329004354835668
 40
3.581465524568472
 40
3.775666424543737
 40
3.85334678455835
 40
3.899120679595095
 40
3.984129341792093
 40
4.029903236817441
 40
4.105797496059592
 40
4.295533144152545
 40
4.542189486611774
 40
4.788845828875711
 40
4.978581476410087
 40
5.054475735244326
 40
5.621734664339385
 40
6.13086724203734
 40
6.225249780948553
 40
6.318913039727265
 40
6.663579954558871
 40
7.047498900224701
 40
7.435230791575636
 40
7.498943906668048
 40
7.650875181210042
 40
7.832212509001552
 40
7.984143783696938
 40
8.047856898903065
 40
8.091554632732576
 40
8.172707566964243
 40
8.21640530076797
 40
8.289021782160855
 40
8.462184160757229
 40
8.66886183800531
 40
8.842024215263901
 40
8.914640695475097
 40
8.989881580861306
 40
9.155411528827225
 40
9.32094147774402
 40
9.396182352487276
 40
9.454709011143823
 40
9.583467660170758
 40
9.712226309013037
 40
9.77075295798949
 40
9.77075295798949
 40
9.77075295798949
 40
9.77075295798949
 10
187.1521871691834
 20
14.93980288195951
 10
187.1322348171624
 20
14.93980875568672
 10
187.0647037716466
 20
14.93982863806159
 10
186.9410612161789
 20
14.93949362520326
 10
186.7863180150056
 20
14.94107673750513
 10
186.669734948248
 20
14.93686078860496
 10
186.455094263424
 20
14.95215205331628
 10
186.8518948407228
 20
14.59198721286193
 10
186.8945656069268
 20
14.37510503397167
 10
187.318916214661
 20
14.19325062511448
 10
187.1439821496074
 20
14.08985196568075
 10
187.0194523925084
 20
13.87831523212716
 10
186.7666277235944
 20
14.34806081001564
 10
186.4797602893626
 20
14.9951151698452
 10
186.490633592666
 20
14.68782672154694
 10
186.488289277796
 20
14.5228861697178
 10
186.4861096126411
 20
14.28879670711697
 10
186.4980774396347
 20
14.0449807242179
 10
186.468798474063
 20
13.89855796860992
 10
186.511452262547
 20
13.75113490174548
 10
186.4239814005639
 20
13.76685797306228
 10
186.3768527606745
 20
13.76694303543463
 10
186.2898973207712
 20
13.75109425482918
 10
186.3313474021722
 20
13.8952777142277
 10
186.3029875004285
 20
14.03855052698463
 10
186.31459737753
 20
14.27674947365271
 10
186.3124175648272
 20
14.50517235240352
 10
186.3103111127993
 20
14.66705729375999
 10
186.3208035438324
 20
14.98153709333758
 10
186.0128963252893
 20
14.29229470872434
 10
185.7055258267457
 20
13.81476750243067
 10
185.5851367066273
 20
14.0374111263743
 10
185.4074607910723
 20
14.15011034955575
 10
185.8853326362893
 20
14.32548143465462
 10
185.9353959057208
 20
14.56091929252032
 10
186.3583799621716
 20
14.95322989344608
 10
186.1276754273541
 20
14.93655307029067
 10
186.004968585934
 20
14.94269518948772
 10
185.8325483095662
 20
14.93312822699574
 10
185.7213224694449
 20
14.95448818489667
 10
185.6025779627448
 20
14.92136265357421
 10
185.6183169706686
 20
15.00203900606886
 10
185.6178550933762
 20
15.04645414290856
 10
185.6027881889931
 20
15.12967081778536
 10
185.7372380935444
 20
15.09062651983886
 10
185.8619755545747
 20
15.11739729328425
 10
186.062875523728
 20
15.10063949044055
 10
186.1921540949353
 20
15.12204225913007
 10
186.3328419928294
 20
15.08868778853423
 10
186.2980927452614
 20
15.22651875785071
 10
186.3222185666714
 20
15.34963257349485
 10
186.2967086182392
 20
15.47024055670341
 10
186.3333251146685
 20
15.60539865141501
 10
186.2211417027769
 20
15.58094545781896
 10
186.1280356457136
 20
15.59307749842028
 10
186.0191547579819
 20
15.5895763007
 10
185.9569697640964
 20
15.58981755951609
 10
185.9375369557246
 20
15.5898929512415
 97
        3
330
B3
330
B4
330
B2
 75
     1
 76
     2
 52
45.0
 41
0.1
 77
     0
 78
     1
 53
45.0
 43
0.0
 44
0.0
 45
-0.282842712474619
 46
0.0
 79
     0
 98
        1
 10
0.0
 20
0.0
  0
HATCH
  5
D0
330
48
100
AcDbEntity
  8
1
  6
Continuous
 62
     2
100
AcDbHatch
 10
0.0
 20
0.0
 30
0.0
210
0.0
220
0.0
230
1.0
  2
CUSTOM14
 70
     0
 71
     1
 91
        1
 92
        1
 93
        4
 72
     1
 10
192.4578138032672
 20
15.2287543402206
 11
191.1602971697031
 21
15.2287543402206
 72
     1
 10
191.1602971697031
 20
15.2287543402206
 11
191.1602971697031
 21
15.39722336795629
 72
     1
 10
191.1602971697031
 20
15.39722336795629
 11
192.4578138032672
 21
15.39722336795629
 72
     1
 10
192.4578138032672
 20
15.39722336795629
 11
192.4578138032672
 21
15.2287543402206
 97
        1
330
B5
 75
     1
 76
     2
 52
45.0
 41
0.1
 77
     0
 78
     1
 53
45.0
 43
0.0
 44
0.0
 45
-0.282842712474619
 46
0.0
 79
     0
 98
        1
 10
0.0
 20
0.0
  0
ENDBLK
  5
4A
330
48
100
AcDbEntity
  8
0
100
AcDbBlockEnd
  0
BLOCK
  5
4D
330
4B
100
AcDbEntity
  8
0
100
AcDbBlockBegin
  2
開示A4枠
 70
     0
 10
0.00000000000004
 20
0.00000000000011
 30
0.0
  3
開示A4枠
  1

  0
INSERT
  5
4C
330
4B
100
AcDbEntity
  8
1
100
AcDbBlockReference
  2
開示A4
 10
0.0
 20
0.0
 30
0.0
 41
2.0
 42
2.0
 43
2.0
  0
ENDBLK
  5
4E
330
4B
100
AcDbEntity
  8
0
100
AcDbBlockEnd
  0
BLOCK
  5
50
330
4F
100
AcDbEntity
  8
0
100
AcDbBlockBegin
  2
R95-1
 70
     0
 10
226.7051438053099
 20
421.238827433628
 30
0.0
  3
R95-1
  1

  0
LINE
  5
D1
330
4F
100
AcDbEntity
  8
1
  6
Continuous
 62
     7
100
AcDbLine
 10
195.7051438053099
 20
238.738827433628
 30
0.0
 11
192.7051438053099
 21
238.738827433628
 31
0.0
  0
LINE
  5
D2
330
4F
100
AcDbEntity
  8
1
  6
Continuous
 62
     7
100
AcDbLine
 10
207.7051438053099
 20
243.738827433628
 30
0.0
 11
245.7051438053099
 21
243.738827433628
 31
0.0
  0
LINE
  5
D3
330
4F
100
AcDbEntity
  8
1
  6
Continuous
 62
     7
100
AcDbLine
 10
245.7051438053099
 20
243.738827433628
 30
0.0
 11
246.7051438053099
 21
243.738827433628
 31
0.0
  0
LINE
  5
D4
330
4F
100
AcDbEntity
  8
1
  6
Continuous
 62
     7
100
AcDbLine
 10
257.7051438053099
 20
238.738827433628
 30
0.0
 11
195.7051438053099
 21
238.738827433628
 31
0.0
  0
LINE
  5
D5
330
4F
100
AcDbEntity
  8
1
  6
Continuous
 62
     7
100
AcDbLine
 10
206.7051438053099
 20
243.738827433628
 30
0.0
 11
207.7051438053099
 21
243.738827433628
 31
0.0
  0
LINE
  5
D6
330
4F
100
AcDbEntity
  8
1
  6
Continuous
 62
     7
100
AcDbLine
 10
210.1071430059493
 20
268.738827433628
 30
0.0
 11
242.8227447645427
 21
268.738827433628
 31
0.0
  0
LINE
  5
D7
330
4F
100
AcDbEntity
  8
1
  6
Continuous
 62
     7
100
AcDbLine
 10
245.8203476407081
 20
265.8587315486746
 30
0.0
 11
246.5851438053099
 21
246.738827433628
 31
0.0
  0
LINE
  5
D8
330
4F
100
AcDbEntity
  8
1
  6
Continuous
 62
     7
100
AcDbLine
 10
206.7051438053099
 20
243.738827433628
 30
0.0
 11
206.82514380531
 21
246.738827433628
 31
0.0
  0
LINE
  5
D9
330
4F
100
AcDbEntity
  8
1
  6
Continuous
 62
     7
100
AcDbLine
 10
192.7051438053099
 20
238.738827433628
 30
0.0
 11
192.7051438053099
 21
236.238827433628
 31
0.0
  0
LINE
  5
DA
330
4F
100
AcDbEntity
  8
1
  6
Continuous
 62
     7
100
AcDbLine
 10
260.7051438053099
 20
238.738827433628
 30
0.0
 11
257.7051438053099
 21
238.738827433628
 31
0.0
  0
LINE
  5
DB
330
4F
100
AcDbEntity
  8
1
  6
Continuous
 62
     7
100
AcDbLine
 10
260.7051438053099
 20
183.738827433628
 30
0.0
 11
260.7051438053099
 21
236.238827433628
 31
0.0
  0
LINE
  5
DC
330
4F
100
AcDbEntity
  8
1
  6
Continuous
 62
     7
100
AcDbLine
 10
192.7051438053099
 20
183.738827433628
 30
0.0
 11
260.7051438053099
 21
183.738827433628
 31
0.0
  0
LINE
  5
DD
330
4F
100
AcDbEntity
  8
1
  6
Continuous
 62
     2
100
AcDbLine
 10
207.6091406091448
 20
266.3387475295002
 30
0.0
 11
207.7051438053099
 21
268.738827433628
 31
0.0
  0
LINE
  5
DE
330
4F
100
AcDbEntity
  8
1
  6
Continuous
 62
     2
100
AcDbLine
 10
207.7051438053099
 20
268.738827433628
 30
0.0
 11
210.1071430059493
 21
268.738827433628
 31
0.0
  0
LINE
  5
DF
330
4F
100
AcDbEntity
  8
1
  6
Continuous
 62
     7
100
AcDbLine
 10
206.82514380531
 20
246.738827433628
 30
0.0
 11
226.2051438053099
 21
246.738827433628
 31
0.0
  0
LINE
  5
E0
330
4F
100
AcDbEntity
  8
1
  6
Continuous
 62
     7
100
AcDbLine
 10
246.5851438053099
 20
246.738827433628
 30
0.0
 11
246.7051438053099
 21
243.738827433628
 31
0.0
  0
LINE
  5
E1
330
4F
100
AcDbEntity
  8
1
  6
Continuous
 62
     7
100
AcDbLine
 10
206.82514380531
 20
246.738827433628
 30
0.0
 11
207.6091406091448
 21
266.3387475295002
 31
0.0
  0
LINE
  5
E2
330
4F
100
AcDbEntity
  8
1
  6
Continuous
 62
     2
100
AcDbLine
 10
245.7051438053099
 20
268.738827433628
 30
0.0
 11
245.8203476407081
 21
265.8587315486746
 31
0.0
  0
LINE
  5
E3
330
4F
100
AcDbEntity
  8
1
  6
Continuous
 62
     2
100
AcDbLine
 10
242.8227447645427
 20
268.738827433628
 30
0.0
 11
245.7051438053099
 21
268.738827433628
 31
0.0
  0
LINE
  5
E4
330
4F
100
AcDbEntity
  8
1
  6
Continuous
 62
     7
100
AcDbLine
 10
226.2051438053099
 20
265.738827433628
 30
0.0
 11
226.2051438053099
 21
246.738827433628
 31
0.0
  0
LINE
  5
E5
330
4F
100
AcDbEntity
  8
1
  6
Continuous
 62
     7
100
AcDbLine
 10
226.2051438053099
 20
246.738827433628
 30
0.0
 11
227.2051438053099
 21
246.738827433628
 31
0.0
  0
LINE
  5
E6
330
4F
100
AcDbEntity
  8
1
  6
Continuous
 62
     7
100
AcDbLine
 10
227.2051438053099
 20
265.738827433628
 30
0.0
 11
227.2051438053099
 21
246.738827433628
 31
0.0
  0
LINE
  5
E7
330
4F
100
AcDbEntity
  8
1
  6
Continuous
 62
     7
100
AcDbLine
 10
227.2051438053099
 20
246.738827433628
 30
0.0
 11
246.5851438053099
 21
246.738827433628
 31
0.0
  0
LINE
  5
E8
330
4F
100
AcDbEntity
  8
1
  6
Continuous
 62
     7
100
AcDbLine
 10
228.2051438053099
 20
265.738827433628
 30
0.0
 11
228.2051438053099
 21
246.738827433628
 31
0.0
  0
LINE
  5
E9
330
4F
100
AcDbEntity
  8
1
  6
Continuous
 62
     7
100
AcDbLine
 10
229.2051438053099
 20
265.738827433628
 30
0.0
 11
229.2051438053099
 21
246.738827433628
 31
0.0
  0
LINE
  5
EA
330
4F
100
AcDbEntity
  8
1
  6
Continuous
 62
     7
100
AcDbLine
 10
230.2051438053099
 20
265.738827433628
 30
0.0
 11
230.2051438053099
 21
246.738827433628
 31
0.0
  0
LINE
  5
EB
330
4F
100
AcDbEntity
  8
1
  6
Continuous
 62
     7
100
AcDbLine
 10
231.2051438053099
 20
265.738827433628
 30
0.0
 11
231.2051438053099
 21
246.738827433628
 31
0.0
  0
LINE
  5
EC
330
4F
100
AcDbEntity
  8
1
  6
Continuous
 62
     7
100
AcDbLine
 10
232.2051438053099
 20
265.738827433628
 30
0.0
 11
232.2051438053099
 21
246.738827433628
 31
0.0
  0
LINE
  5
ED
330
4F
100
AcDbEntity
  8
1
  6
Continuous
 62
     7
100
AcDbLine
 10
233.2051438053099
 20
265.738827433628
 30
0.0
 11
233.2051438053099
 21
246.738827433628
 31
0.0
  0
LINE
  5
EE
330
4F
100
AcDbEntity
  8
1
  6
Continuous
 62
     7
100
AcDbLine
 10
234.2051438053099
 20
265.738827433628
 30
0.0
 11
234.2051438053099
 21
246.738827433628
 31
0.0
  0
LINE
  5
EF
330
4F
100
AcDbEntity
  8
1
  6
Continuous
 62
     7
100
AcDbLine
 10
235.2051438053099
 20
265.738827433628
 30
0.0
 11
235.2051438053099
 21
246.738827433628
 31
0.0
  0
LINE
  5
F0
330
4F
100
AcDbEntity
  8
1
  6
Continuous
 62
     7
100
AcDbLine
 10
236.2051438053099
 20
265.738827433628
 30
0.0
 11
236.2051438053099
 21
246.738827433628
 31
0.0
  0
LINE
  5
F1
330
4F
100
AcDbEntity
  8
1
  6
Continuous
 62
     7
100
AcDbLine
 10
237.2051438053099
 20
265.738827433628
 30
0.0
 11
237.2051438053099
 21
246.738827433628
 31
0.0
  0
LINE
  5
F2
330
4F
100
AcDbEntity
  8
1
  6
Continuous
 62
     7
100
AcDbLine
 10
238.2051438053099
 20
265.738827433628
 30
0.0
 11
238.2051438053099
 21
246.738827433628
 31
0.0
  0
LINE
  5
F3
330
4F
100
AcDbEntity
  8
1
  6
Continuous
 62
     7
100
AcDbLine
 10
239.2051438053099
 20
265.738827433628
 30
0.0
 11
239.2051438053099
 21
246.738827433628
 31
0.0
  0
LINE
  5
F4
330
4F
100
AcDbEntity
  8
1
  6
Continuous
 62
     7
100
AcDbLine
 10
240.2051438053099
 20
265.738827433628
 30
0.0
 11
240.2051438053099
 21
246.738827433628
 31
0.0
  0
LINE
  5
F5
330
4F
100
AcDbEntity
  8
1
  6
Continuous
 62
     7
100
AcDbLine
 10
241.2051438053099
 20
265.738827433628
 30
0.0
 11
241.2051438053099
 21
246.738827433628
 31
0.0
  0
LINE
  5
F6
330
4F
100
AcDbEntity
  8
1
  6
Continuous
 62
     7
100
AcDbLine
 10
242.2051438053099
 20
265.738827433628
 30
0.0
 11
242.2051438053099
 21
246.738827433628
 31
0.0
  0
LINE
  5
F7
330
4F
100
AcDbEntity
  8
1
  6
Continuous
 62
     7
100
AcDbLine
 10
243.2051438053099
 20
265.738827433628
 30
0.0
 11
243.2051438053099
 21
246.738827433628
 31
0.0
  0
LINE
  5
F8
330
4F
100
AcDbEntity
  8
1
  6
Continuous
 62
     7
100
AcDbLine
 10
244.2051438053099
 20
265.738827433628
 30
0.0
 11
244.2051438053099
 21
246.738827433628
 31
0.0
  0
LINE
  5
F9
330
4F
100
AcDbEntity
  8
1
  6
Continuous
 62
     7
100
AcDbLine
 10
245.2051438053099
 20
265.738827433628
 30
0.0
 11
245.2051438053099
 21
246.738827433628
 31
0.0
  0
LINE
  5
FA
330
4F
100
AcDbEntity
  8
1
  6
Continuous
 62
     7
100
AcDbLine
 10
225.2051438053099
 20
265.738827433628
 30
0.0
 11
225.2051438053099
 21
246.738827433628
 31
0.0
  0
LINE
  5
FB
330
4F
100
AcDbEntity
  8
1
  6
Continuous
 62
     7
100
AcDbLine
 10
224.2051438053099
 20
265.738827433628
 30
0.0
 11
224.2051438053099
 21
246.738827433628
 31
0.0
  0
LINE
  5
FC
330
4F
100
AcDbEntity
  8
1
  6
Continuous
 62
     7
100
AcDbLine
 10
223.2051438053099
 20
265.738827433628
 30
0.0
 11
223.2051438053099
 21
246.738827433628
 31
0.0
  0
LINE
  5
FD
330
4F
100
AcDbEntity
  8
1
  6
Continuous
 62
     7
100
AcDbLine
 10
222.2051438053099
 20
265.738827433628
 30
0.0
 11
222.2051438053099
 21
246.738827433628
 31
0.0
  0
LINE
  5
FE
330
4F
100
AcDbEntity
  8
1
  6
Continuous
 62
     7
100
AcDbLine
 10
221.2051438053099
 20
265.738827433628
 30
0.0
 11
221.2051438053099
 21
246.738827433628
 31
0.0
  0
LINE
  5
FF
330
4F
100
AcDbEntity
  8
1
  6
Continuous
 62
     7
100
AcDbLine
 10
220.2051438053099
 20
265.738827433628
 30
0.0
 11
220.2051438053099
 21
246.738827433628
 31
0.0
  0
LINE
  5
100
330
4F
100
AcDbEntity
  8
1
  6
Continuous
 62
     7
100
AcDbLine
 10
219.2051438053099
 20
265.738827433628
 30
0.0
 11
219.2051438053099
 21
246.738827433628
 31
0.0
  0
LINE
  5
101
330
4F
100
AcDbEntity
  8
1
  6
Continuous
 62
     7
100
AcDbLine
 10
218.2051438053099
 20
265.738827433628
 30
0.0
 11
218.2051438053099
 21
246.738827433628
 31
0.0
  0
LINE
  5
102
330
4F
100
AcDbEntity
  8
1
  6
Continuous
 62
     7
100
AcDbLine
 10
217.2051438053099
 20
265.738827433628
 30
0.0
 11
217.2051438053099
 21
246.738827433628
 31
0.0
  0
LINE
  5
103
330
4F
100
AcDbEntity
  8
1
  6
Continuous
 62
     7
100
AcDbLine
 10
216.2051438053099
 20
265.738827433628
 30
0.0
 11
216.2051438053099
 21
246.738827433628
 31
0.0
  0
LINE
  5
104
330
4F
100
AcDbEntity
  8
1
  6
Continuous
 62
     7
100
AcDbLine
 10
215.2051438053099
 20
265.738827433628
 30
0.0
 11
215.2051438053099
 21
246.738827433628
 31
0.0
  0
LINE
  5
105
330
4F
100
AcDbEntity
  8
1
  6
Continuous
 62
     7
100
AcDbLine
 10
214.2051438053099
 20
265.738827433628
 30
0.0
 11
214.2051438053099
 21
246.738827433628
 31
0.0
  0
LINE
  5
106
330
4F
100
AcDbEntity
  8
1
  6
Continuous
 62
     7
100
AcDbLine
 10
213.2051438053099
 20
265.738827433628
 30
0.0
 11
213.2051438053099
 21
246.738827433628
 31
0.0
  0
LINE
  5
107
330
4F
100
AcDbEntity
  8
1
  6
Continuous
 62
     7
100
AcDbLine
 10
212.2051438053099
 20
265.738827433628
 30
0.0
 11
212.2051438053099
 21
246.738827433628
 31
0.0
  0
LINE
  5
108
330
4F
100
AcDbEntity
  8
1
  6
Continuous
 62
     7
100
AcDbLine
 10
211.2051438053099
 20
265.738827433628
 30
0.0
 11
211.2051438053099
 21
246.738827433628
 31
0.0
  0
LINE
  5
109
330
4F
100
AcDbEntity
  8
1
  6
Continuous
 62
     7
100
AcDbLine
 10
210.2051438053099
 20
265.738827433628
 30
0.0
 11
210.2051438053099
 21
246.738827433628
 31
0.0
  0
LINE
  5
10A
330
4F
100
AcDbEntity
  8
1
  6
Continuous
 62
     7
100
AcDbLine
 10
209.2051438053099
 20
265.738827433628
 30
0.0
 11
209.2051438053099
 21
246.738827433628
 31
0.0
  0
LINE
  5
10B
330
4F
100
AcDbEntity
  8
1
  6
Continuous
 62
     7
100
AcDbLine
 10
208.2051438053099
 20
265.738827433628
 30
0.0
 11
208.2051438053099
 21
246.738827433628
 31
0.0
  0
LINE
  5
10C
330
4F
100
AcDbEntity
  8
1
  6
Continuous
 62
     7
100
AcDbLine
 10
260.7051438053099
 20
236.238827433628
 30
0.0
 11
192.7051438053099
 21
236.238827433628
 31
0.0
  0
LINE
  5
10D
330
4F
100
AcDbEntity
  8
1
  6
Continuous
 62
     7
100
AcDbLine
 10
192.7051438053099
 20
186.238827433628
 30
0.0
 11
260.7051438053099
 21
186.238827433628
 31
0.0
  0
LINE
  5
10E
330
4F
100
AcDbEntity
  8
1
  6
Continuous
 62
     7
100
AcDbLine
 10
260.7051438053099
 20
236.238827433628
 30
0.0
 11
260.7051438053099
 21
238.738827433628
 31
0.0
  0
LINE
  5
10F
330
4F
100
AcDbEntity
  8
1
  6
Continuous
 62
     7
100
AcDbLine
 10
192.7051438053099
 20
236.238827433628
 30
0.0
 11
192.7051438053099
 21
183.738827433628
 31
0.0
  0
ARC
  5
110
330
4F
100
AcDbEntity
  8
1
  6
Continuous
 62
     7
100
AcDbCircle
 10
209.306912365711
 20
222.9945828886653
 30
0.0
 40
20.80599298909581
100
AcDbArc
 50
94.41533727222732
 51
130.8243926238536
  0
ARC
  5
111
330
4F
100
AcDbEntity
  8
1
  6
Continuous
 62
     7
100
AcDbCircle
 10
244.1033752449089
 20
222.9945828886655
 30
0.0
 40
20.80599298909557
100
AcDbArc
 50
49.17560737614639
 51
85.58466272777304
  0
CIRCLE
  5
112
330
4F
100
AcDbEntity
  8
1
  6
Continuous
 62
     7
100
AcDbCircle
 10
226.7051438053099
 20
391.238827433628
 30
0.0
 40
31.0
  0
CIRCLE
  5
113
330
4F
100
AcDbEntity
  8
1
  6
Continuous
 62
     7
100
AcDbCircle
 10
226.7051438053099
 20
391.238827433628
 30
0.0
 40
11.5
  0
CIRCLE
  5
114
330
4F
100
AcDbEntity
  8
1
  6
Continuous
 62
     7
100
AcDbCircle
 10
226.7051438053099
 20
391.238827433628
 30
0.0
 40
10.5
  0
CIRCLE
  5
115
330
4F
100
AcDbEntity
  8
1
  6
Continuous
 62
     7
100
AcDbCircle
 10
226.7051438053099
 20
391.238827433628
 30
0.0
 40
6.5
  0
CIRCLE
  5
116
330
4F
100
AcDbEntity
  8
1
  6
Continuous
 62
     7
100
AcDbCircle
 10
226.7051438053099
 20
391.238827433628
 30
0.0
 40
5.5
  0
CIRCLE
  5
117
330
4F
100
AcDbEntity
  8
1
  6
Continuous
 62
     7
100
AcDbCircle
 10
226.7051438053099
 20
391.238827433628
 30
0.0
 40
5.0
  0
CIRCLE
  5
118
330
4F
100
AcDbEntity
  8
1
  6
Continuous
 62
     7
100
AcDbCircle
 10
226.7051438053099
 20
391.238827433628
 30
0.0
 40
19.0
  0
CIRCLE
  5
119
330
4F
100
AcDbEntity
  8
1
  6
Continuous
 62
     7
100
AcDbCircle
 10
226.7051438053099
 20
391.238827433628
 30
0.0
 40
20.0
  0
CIRCLE
  5
11A
330
4F
100
AcDbEntity
  8
1
  6
Continuous
 62
     7
100
AcDbCircle
 10
226.7051438053099
 20
391.238827433628
 30
0.0
 40
32.5
  0
CIRCLE
  5
11B
330
4F
100
AcDbEntity
  8
1
  6
Continuous
 62
     7
100
AcDbCircle
 10
226.7051438053099
 20
391.238827433628
 30
0.0
 40
34.0
  0
ARC
  5
11C
330
4F
100
AcDbEntity
  8
1
  6
Continuous
 62
     7
100
AcDbCircle
 10
242.8227447645427
 20
265.738827433628
 30
0.0
 40
3.000000000000019
100
AcDbArc
 50
2.2906100426384
 51
90.0
  0
ARC
  5
11D
330
4F
100
AcDbEntity
  8
1
  6
Continuous
 62
     7
100
AcDbCircle
 10
210.1071430059493
 20
266.238827433628
 30
0.0
 40
2.5
100
AcDbArc
 50
90.0
 51
177.7093899573605
  0
ENDBLK
  5
51
330
4F
100
AcDbEntity
  8
0
100
AcDbBlockEnd
  0
BLOCK
  5
136
330
12F
100
AcDbEntity
  8
0
100
AcDbBlockBegin
  2
*D4
 70
     1
 10
0.0
 20
0.0
 30
0.0
  3
*D4
  1

  0
LINE
  5
130
330
12F
100
AcDbEntity
  8
1
  6
Continuous
 62
     2
100
AcDbLine
 10
192.7051438053099
 20
309.738827433628
 30
0.0
 11
260.7051438053099
 21
309.738827433628
 31
0.0
  0
LINE
  5
131
330
12F
100
AcDbEntity
  8
1
  6
Continuous
 62
     2
100
AcDbLine
 10
192.7051438053099
 20
238.738827433628
 30
0.0
 11
192.7051438053099
 21
313.738827433628
 31
0.0
  0
LINE
  5
132
330
12F
100
AcDbEntity
  8
1
  6
Continuous
 62
     2
100
AcDbLine
 10
260.7051438053099
 20
238.738827433628
 30
0.0
 11
260.7051438053099
 21
313.738827433628
 31
0.0
  0
SOLID
  5
133
330
12F
100
AcDbEntity
  8
1
 62
     2
100
AcDbTrace
 10
199.7051438053099
 20
310.6603949167397
 30
0.0
 11
199.7051438053099
 21
308.8172599505162
 31
0.0
 12
192.7051438053099
 22
309.738827433628
 32
0.0
 13
192.7051438053099
 23
309.738827433628
 33
0.0
  0
SOLID
  5
134
330
12F
100
AcDbEntity
  8
1
 62
     2
100
AcDbTrace
 10
253.7051438053099
 20
308.8172599505162
 30
0.0
 11
253.7051438053099
 21
310.6603949167397
 31
0.0
 12
260.7051438053099
 22
309.738827433628
 32
0.0
 13
260.7051438053099
 23
309.738827433628
 33
0.0
  0
MTEXT
  5
135
330
12F
100
AcDbEntity
  8
1
 62
     7
100
AcDbMText
 10
221.7161694409124
 20
313.7388155072114
 30
0.0
 40
6.0
 41
0.0
 71
     7
 72
     1
  1
\C7;{\Fgdt;n}\C7;68
  7
CONVERTER_12
 11
0.9999999999970619
 21
2.424068405545306E-6
 31
0.0
 73
     1
 44
0.60024009603842
  0
ENDBLK
  5
137
330
12F
100
AcDbEntity
  8
0
100
AcDbBlockEnd
  0
BLOCK
  5
141
330
13A
100
AcDbEntity
  8
0
100
AcDbBlockBegin
  2
*D5
 70
     1
 10
0.0
 20
0.0
 30
0.0
  3
*D5
  1

  0
LINE
  5
13B
330
13A
100
AcDbEntity
  8
1
  6
Continuous
 62
     2
100
AcDbLine
 10
207.7051438053099
 20
288.738827433628
 30
0.0
 11
245.7051438053099
 21
288.738827433628
 31
0.0
  0
LINE
  5
13C
330
13A
100
AcDbEntity
  8
1
  6
Continuous
 62
     2
100
AcDbLine
 10
207.7051438053099
 20
268.738827433628
 30
0.0
 11
207.7051438053099
 21
292.738827433628
 31
0.0
  0
LINE
  5
13D
330
13A
100
AcDbEntity
  8
1
  6
Continuous
 62
     2
100
AcDbLine
 10
245.7051438053099
 20
268.738827433628
 30
0.0
 11
245.7051438053099
 21
292.738827433628
 31
0.0
  0
SOLID
  5
13E
330
13A
100
AcDbEntity
  8
1
 62
     2
100
AcDbTrace
 10
214.7051438053099
 20
289.6603949167397
 30
0.0
 11
214.7051438053099
 21
287.8172599505162
 31
0.0
 12
207.7051438053099
 22
288.738827433628
 32
0.0
 13
207.7051438053099
 23
288.738827433628
 33
0.0
  0
SOLID
  5
13F
330
13A
100
AcDbEntity
  8
1
 62
     2
100
AcDbTrace
 10
238.7051438053099
 20
287.8172599505162
 30
0.0
 11
238.7051438053099
 21
289.6603949167397
 31
0.0
 12
245.7051438053099
 22
288.738827433628
 32
0.0
 13
245.7051438053099
 23
288.738827433628
 33
0.0
  0
MTEXT
  5
140
330
13A
100
AcDbEntity
  8
1
 62
     7
100
AcDbMText
 10
221.5064261073327
 20
292.7388155072114
 30
0.0
 40
6.0
 41
0.0
 71
     7
 72
     1
  1
\C7;{\Fgdt;n}\C7;38
  7
CONVERTER_12
 11
0.9999999999970619
 21
2.424068405545306E-6
 31
0.0
 73
     1
 44
0.60024009603842
  0
ENDBLK
  5
142
330
13A
100
AcDbEntity
  8
0
100
AcDbBlockEnd
  0
BLOCK
  5
14C
330
145
100
AcDbEntity
  8
0
100
AcDbBlockBegin
  2
*D6
 70
     1
 10
0.0
 20
0.0
 30
0.0
  3
*D6
  1

  0
LINE
  5
146
330
145
100
AcDbEntity
  8
1
  6
Continuous
 62
     2
100
AcDbLine
 10
280.7051438053099
 20
183.738827433628
 30
0.0
 11
280.7051438053099
 21
268.738827433628
 31
0.0
  0
LINE
  5
147
330
145
100
AcDbEntity
  8
1
  6
Continuous
 62
     2
100
AcDbLine
 10
245.7051438053099
 20
268.738827433628
 30
0.0
 11
284.7051438053099
 21
268.738827433628
 31
0.0
  0
LINE
  5
148
330
145
100
AcDbEntity
  8
1
  6
Continuous
 62
     2
100
AcDbLine
 10
260.7051438053099
 20
183.738827433628
 30
0.0
 11
284.7051438053099
 21
183.738827433628
 31
0.0
  0
SOLID
  5
149
330
145
100
AcDbEntity
  8
1
 62
     2
100
AcDbTrace
 10
279.7835763221981
 20
190.738827433628
 30
0.0
 11
281.6267112884216
 21
190.738827433628
 31
0.0
 12
280.7051438053099
 22
183.738827433628
 32
0.0
 13
280.7051438053099
 23
183.738827433628
 33
0.0
  0
SOLID
  5
14A
330
145
100
AcDbEntity
  8
1
 62
     2
100
AcDbTrace
 10
281.6267112884216
 20
261.738827433628
 30
0.0
 11
279.7835763221981
 21
261.738827433628
 31
0.0
 12
280.7051438053099
 22
268.738827433628
 32
0.0
 13
280.7051438053099
 23
268.738827433628
 33
0.0
  0
MTEXT
  5
14B
330
145
100
AcDbEntity
  8
1
 62
     7
100
AcDbMText
 10
276.7051438053099
 20
220.700313111762
 30
0.0
 40
6.0
 41
0.0
 71
     7
 72
     1
  1
85
  7
CONVERTER_12
 11
0.0
 21
1.0
 31
0.0
 73
     1
 44
0.60024009603842
  0
ENDBLK
  5
14D
330
145
100
AcDbEntity
  8
0
100
AcDbBlockEnd
  0
ENDSEC
  0
SECTION
  2
ENTITIES
  0
INSERT
  5
52
330
1F
100
AcDbEntity
  8
0
100
AcDbBlockReference
  2
開示A4枠
 10
0.00000000000004
 20
0.00000000000011
 30
0.0
  0
INSERT
  5
53
330
1F
100
AcDbEntity
  8
1
100
AcDbBlockReference
  2
R95-1
 10
226.7051438053099
 20
421.238827433628
 30
0.0
  0
LINE
  5
11E
330
1F
100
AcDbEntity
  8
1
  6
DASH_CENTER
 62
     2
100
AcDbLine
 10
226.7051438053099
 20
274.738827433628
 30
0.0
 11
226.7051438053099
 21
172.738827433628
 31
0.0
  0
LINE
  5
11F
330
1F
100
AcDbEntity
  8
1
  6
DASH_CENTER
 62
     2
100
AcDbLine
 10
226.7051438053099
 20
431.2298299420664
 30
0.0
 11
226.7051438053099
 21
351.2443152095742
 31
0.0
  0
LINE
  5
120
330
1F
100
AcDbEntity
  8
1
  6
DASH_CENTER
 62
     2
100
AcDbLine
 10
186.7051438053099
 20
391.238827433628
 30
0.0
 11
266.7051438053099
 21
391.238827433628
 31
0.0
  0
MTEXT
  5
122
330
1F
100
AcDbEntity
  8
1
 62
     7
100
AcDbMText
 10
315.0
 20
25.0
 30
0.0
 40
5.0
 41
0.0
 71
     5
 72
     1
  1
3
  7
CONVERTER_12
 73
     1
 44
0.7202881152461
  0
MTEXT
  5
123
330
1F
100
AcDbEntity
  8
1
 62
     7
100
AcDbMText
 10
303.5
 20
25.0
 30
0.0
 40
5.0
 41
0.0
 71
     5
 72
     1
  1
04
  7
CONVERTER_12
 73
     1
 44
0.7202881152461
  0
MTEXT
  5
124
330
1F
100
AcDbEntity
  8
1
 62
     7
100
AcDbMText
 10
281.0
 20
25.0
 30
0.0
 40
5.0
 41
0.0
 71
     5
 72
     1
  1
3
  7
CONVERTER_12
 73
     1
 44
0.7202881152461
  0
MTEXT
  5
125
330
1F
100
AcDbEntity
  8
1
 62
     7
100
AcDbMText
 10
269.5
 20
25.0
 30
0.0
 40
5.0
 41
0.0
 71
     5
 72
     1
  1
04
  7
CONVERTER_12
 73
     1
 44
0.7202881152461
  0
MTEXT
  5
126
330
1F
100
AcDbEntity
  8
1
 62
     7
100
AcDbMText
 10
247.0
 20
25.0
 30
0.0
 40
5.0
 41
0.0
 71
     5
 72
     1
  1
3
  7
CONVERTER_12
 73
     1
 44
0.7202881152461
  0
MTEXT
  5
127
330
1F
100
AcDbEntity
  8
1
 62
     7
100
AcDbMText
 10
235.5
 20
25.0
 30
0.0
 40
5.0
 41
0.0
 71
     5
 72
     1
  1
04
  7
CONVERTER_12
 73
     1
 44
0.7202881152461
  0
MTEXT
  5
128
330
1F
100
AcDbEntity
  8
1
 62
     7
100
AcDbMText
 10
201.5
 20
25.0
 30
0.0
 40
5.0
 41
0.0
 71
     5
 72
     1
  1
04
  7
CONVERTER_12
 73
     1
 44
0.7202881152461
  0
MTEXT
  5
129
330
1F
100
AcDbEntity
  8
1
 62
     7
100
AcDbMText
 10
213.0
 20
25.0
 30
0.0
 40
5.0
 41
0.0
 71
     5
 72
     1
  1
3
  7
CONVERTER_12
 73
     1
 44
0.7202881152461
  0
MTEXT
  5
12A
330
1F
100
AcDbEntity
  8
1
 62
     7
100
AcDbMText
 10
187.5000000000001
 20
34.00000000000011
 30
0.0
 40
7.0
 41
0.0
 71
     5
 72
     1
  1
2
  7
CONVERTER_12
 73
     1
 44
0.7202881152461
  0
MTEXT
  5
12B
330
1F
100
AcDbEntity
  8
1
 62
     7
100
AcDbMText
 10
114.0
 20
28.50000000000011
 30
0.0
 40
7.0
 41
0.0
 71
     5
 72
     1
  1
R95
  7
CONVERTER_12
 73
     1
 44
0.7202881152461
  0
MTEXT
  5
12C
330
1F
100
AcDbEntity
  8
1
 62
     7
100
AcDbMText
 10
114.0
 20
45.50000000000011
 30
0.0
 40
7.0
 41
0.0
 71
     5
 72
     1
  1
塩ビパイプ接着剤
  7
CONVERTER_11
 73
     1
 44
0.54545454545455
  0
MTEXT
  5
12D
330
1F
100
AcDbEntity
  8
1
 62
     7
100
AcDbMText
 10
170.5
 20
34.00000000000011
 30
0.0
 40
7.0
 41
0.0
 71
     5
 72
     1
  1
1
  7
CONVERTER_12
 73
     1
 44
0.7202881152461
  0
MTEXT
  5
12E
330
1F
100
AcDbEntity
  8
0
 62
     7
100
AcDbMText
 10
68.0
 20
68.00000000000009
 30
0.0
 40
7.0
 41
0.0
 71
     4
 72
     1
  1
100g入
  7
CONVERTER_11
 73
     1
 44
0.63636363636364
  0
DIMENSION
  5
139
330
1F
100
AcDbEntity
  8
1
100
AcDbDimension
  2
*D4
 10
192.7051438053099
 20
309.738827433628
 30
0.0
 11
227.5361694408979
 21
316.738827433628
 31
0.0
 70
    32
  1
<>
 71
     5
 42
-1.0
 53
0.00013888888889
  3
ME10_DIM_10
100
AcDbAlignedDimension
 13
260.7051438053099
 23
238.738827433628
 33
0.0
 14
192.7051438053099
 24
238.738827433628
 34
0.0
100
AcDbRotatedDimension
  0
DIMENSION
  5
144
330
1F
100
AcDbEntity
  8
1
100
AcDbDimension
  2
*D5
 10
207.7051438053099
 20
288.738827433628
 30
0.0
 11
227.3264261073182
 21
295.738827433628
 31
0.0
 70
    32
  1
<>
 71
     5
 42
-1.0
 53
0.00013888888889
  3
ME10_DIM_11
100
AcDbAlignedDimension
 13
245.7051438053099
 23
268.738827433628
 33
0.0
 14
207.7051438053099
 24
268.738827433628
 34
0.0
100
AcDbRotatedDimension
  0
DIMENSION
  5
14F
330
1F
100
AcDbEntity
  8
1
100
AcDbDimension
  2
*D6
 10
280.7051438053099
 20
183.738827433628
 30
0.0
 11
273.7051438053099
 21
225.200313111762
 31
0.0
 70
    32
  1
<>
 71
     5
 42
-1.0
 53
90.0
  3
ME10_DIM_12
100
AcDbAlignedDimension
 13
245.7051438053099
 23
268.738827433628
 33
0.0
 14
260.7051438053099
 24
183.738827433628
 34
0.0
 50
90.0
100
AcDbRotatedDimension
  0
ENDSEC
  0
SECTION
  2
OBJECTS
  0
DICTIONARY
  5
C
330
0
100
AcDbDictionary
281
     1
  3
ACAD_GROUP
350
D
  3
ACAD_LAYOUT
350
1A
  3
ACAD_MATERIAL
350
3B
  3
ACAD_MLEADERSTYLE
350
152
  3
ACAD_MLINESTYLE
350
17
  3
ACAD_PLOTSETTINGS
350
19
  3
ACAD_PLOTSTYLENAME
350
E
  3
ACAD_VISUALSTYLE
350
2A
  3
AcDbVariableDictionary
350
150
  0
DICTIONARY
  5
D
102
{ACAD_REACTORS
330
C
102
}
330
C
100
AcDbDictionary
281
     1
  0
DICTIONARY
  5
1A
102
{ACAD_REACTORS
330
C
102
}
330
C
100
AcDbDictionary
281
     1
  3
Layout1
350
1E
  3
Layout2
350
26
  3
Model
350
22
  0
DICTIONARY
  5
3B
102
{ACAD_REACTORS
330
C
102
}
330
C
100
AcDbDictionary
281
     1
  3
ByBlock
350
3D
  3
ByLayer
350
3C
  3
Global
350
3E
  0
DICTIONARY
  5
152
102
{ACAD_REACTORS
330
C
102
}
330
C
100
AcDbDictionary
281
     1
  0
DICTIONARY
  5
17
102
{ACAD_REACTORS
330
C
102
}
330
C
100
AcDbDictionary
281
     1
  3
Standard
350
18
  0
DICTIONARY
  5
19
102
{ACAD_REACTORS
330
C
102
}
330
C
100
AcDbDictionary
281
     1
  0
ACDBDICTIONARYWDFLT
  5
E
102
{ACAD_REACTORS
330
C
102
}
330
C
100
AcDbDictionary
281
     1
  3
Normal
350
F
100
AcDbDictionaryWithDefault
340
F
  0
DICTIONARY
  5
2A
102
{ACAD_REACTORS
330
C
102
}
330
C
100
AcDbDictionary
281
     1
  3
2dWireframe
350
2F
  3
3D Hidden
350
31
  3
3dWireframe
350
30
  3
Basic
350
32
  3
Brighten
350
36
  3
ColorChange
350
3A
  3
Conceptual
350
34
  3
Dim
350
35
  3
Facepattern
350
39
  3
Flat
350
2B
  3
FlatWithEdges
350
2C
  3
Gouraud
350
2D
  3
GouraudWithEdges
350
2E
  3
Linepattern
350
38
  3
Realistic
350
33
  3
Thicken
350
37
  0
DICTIONARY
  5
150
102
{ACAD_REACTORS
330
C
102
}
330
C
100
AcDbDictionary
281
     1
  3
DIMASSOC
350
153
  3
HIDETEXT
350
154
  0
LAYOUT
  5
1E
102
{ACAD_REACTORS
330
1A
102
}
330
1A
100
AcDbPlotSettings
  1

  2
none_device
  4

  6

 40
0.0
 41
0.0
 42
0.0
 43
0.0
 44
0.0
 45
0.0
 46
0.0
 47
0.0
 48
0.0
 49
0.0
140
0.0
141
0.0
142
1.0
143
1.0
 70
   688
 72
     0
 73
     0
 74
     5
  7

 75
    16
147
1.0
148
0.0
149
0.0
100
AcDbLayout
  1
Layout1
 70
     1
 71
     1
 10
0.0
 20
0.0
 11
12.0
 21
9.0
 12
0.0
 22
0.0
 32
0.0
 14
1.00000000000000E+20
 24
1.00000000000000E+20
 34
1.00000000000000E+20
 15
-1.00000000000000E+20
 25
-1.00000000000000E+20
 35
-1.00000000000000E+20
146
0.0
 13
0.0
 23
0.0
 33
0.0
 16
1.0
 26
0.0
 36
0.0
 17
0.0
 27
1.0
 37
0.0
 76
     0
330
1B
  0
LAYOUT
  5
26
102
{ACAD_REACTORS
330
1A
102
}
330
1A
100
AcDbPlotSettings
  1

  2
none_device
  4

  6

 40
0.0
 41
0.0
 42
0.0
 43
0.0
 44
0.0
 45
0.0
 46
0.0
 47
0.0
 48
0.0
 49
0.0
140
0.0
141
0.0
142
1.0
143
1.0
 70
   688
 72
     0
 73
     0
 74
     5
  7

 75
    16
147
1.0
148
0.0
149
0.0
100
AcDbLayout
  1
Layout2
 70
     1
 71
     2
 10
0.0
 20
0.0
 11
0.0
 21
0.0
 12
0.0
 22
0.0
 32
0.0
 14
0.0
 24
0.0
 34
0.0
 15
0.0
 25
0.0
 35
0.0
146
0.0
 13
0.0
 23
0.0
 33
0.0
 16
1.0
 26
0.0
 36
0.0
 17
0.0
 27
1.0
 37
0.0
 76
     0
330
23
  0
LAYOUT
  5
22
102
{ACAD_REACTORS
330
1A
102
}
330
1A
100
AcDbPlotSettings
  1

  2
none_device
  4

  6

 40
0.0
 41
0.0
 42
0.0
 43
0.0
 44
0.0
 45
0.0
 46
0.0
 47
0.0
 48
0.0
 49
0.0
140
0.0
141
0.0
142
1.0
143
1.0
 70
  1712
 72
     0
 73
     0
 74
     0
  7

 75
     0
147
1.0
148
0.0
149
0.0
100
AcDbLayout
  1
Model
 70
     1
 71
     0
 10
0.0
 20
0.0
 11
12.0
 21
9.0
 12
0.0
 22
0.0
 32
0.0
 14
0.0
 24
0.0
 34
0.0
 15
419.9999999999999
 25
594.0000000000002
 35
0.0
146
0.0
 13
0.0
 23
0.0
 33
0.0
 16
1.0
 26
0.0
 36
0.0
 17
0.0
 27
1.0
 37
0.0
 76
     0
330
1F
331
29
  0
MATERIAL
  5
3D
102
{ACAD_REACTORS
330
3B
102
}
102
{ACAD_XDICTIONARY
360
177
102
}
330
3B
100
AcDbMaterial
  1
ByBlock
  0
MATERIAL
  5
3C
102
{ACAD_REACTORS
330
3B
102
}
102
{ACAD_XDICTIONARY
360
175
102
}
330
3B
100
AcDbMaterial
  1
ByLayer
  0
MATERIAL
  5
3E
102
{ACAD_REACTORS
330
3B
102
}
102
{ACAD_XDICTIONARY
360
179
102
}
330
3B
100
AcDbMaterial
  1
Global
  0
MLINESTYLE
  5
18
102
{ACAD_REACTORS
330
17
102
}
330
17
100
AcDbMlineStyle
  2
Standard
 70
     0
  3

 62
   256
 51
90.0
 52
90.0
 71
     2
 49
0.5
 62
   256
  6
BYLAYER
 49
-0.5
 62
   256
  6
BYLAYER
  0
ACDBPLACEHOLDER
  5
F
102
{ACAD_REACTORS
330
E
102
}
330
E
  0
VISUALSTYLE
  5
2F
102
{ACAD_REACTORS
330
2A
102
}
102
{ACAD_XDICTIONARY
360
15D
102
}
330
2A
100
AcDbVisualStyle
  2
2dWireframe
 70
     4
 71
     0
 72
     2
 73
     0
 90
        0
 40
-0.6
 41
-30.0
 62
     5
 63
     7
 74
     1
 91
        4
 64
     7
 65
   257
 75
     1
175
     1
 42
1.0
 92
        0
 66
   257
 43
1.0
 76
     1
 77
     6
 78
     2
 67
     7
 79
     5
170
     0
171
     0
290
     0
174
     0
 93
        1
 44
0.0
173
     0
291
     0
 45
0.0
1001
ACAD
1000
AcDbSavedByObjectVersion
1070
     0
  0
VISUALSTYLE
  5
31
102
{ACAD_REACTORS
330
2A
102
}
102
{ACAD_XDICTIONARY
360
161
102
}
330
2A
100
AcDbVisualStyle
  2
3D Hidden
 70
     6
 71
     1
 72
     2
 73
     2
 90
        0
 40
-0.6
 41
-30.0
 62
     5
 63
     7
 74
     2
 91
        2
 64
     7
 65
   257
 75
     2
175
     1
 42
40.0
 92
        0
 66
   257
 43
1.0
 76
     1
 77
     6
 78
     2
 67
     7
 79
     3
170
     0
171
     0
290
     0
174
     0
 93
        1
 44
0.0
173
     0
291
     0
 45
0.0
1001
ACAD
1000
AcDbSavedByObjectVersion
1070
     0
  0
VISUALSTYLE
  5
30
102
{ACAD_REACTORS
330
2A
102
}
102
{ACAD_XDICTIONARY
360
15F
102
}
330
2A
100
AcDbVisualStyle
  2
3dWireframe
 70
     5
 71
     0
 72
     2
 73
     0
 90
        0
 40
-0.6
 41
-30.0
 62
     5
 63
     7
 74
     1
 91
        4
 64
     7
 65
   257
 75
     1
175
     1
 42
1.0
 92
        0
 66
   257
 43
1.0
 76
     1
 77
     6
 78
     2
 67
     7
 79
     5
170
     0
171
     0
290
     0
174
     0
 93
        1
 44
0.0
173
     0
291
     0
 45
0.0
1001
ACAD
1000
AcDbSavedByObjectVersion
1070
     0
  0
VISUALSTYLE
  5
32
102
{ACAD_REACTORS
330
2A
102
}
102
{ACAD_XDICTIONARY
360
163
102
}
330
2A
100
AcDbVisualStyle
  2
Basic
 70
     7
 71
     1
 72
     0
 73
     1
 90
        0
 40
-0.6
 41
-30.0
 62
     5
 63
     7
 74
     0
 91
        4
 64
     7
 65
   257
 75
     1
175
     1
 42
1.0
 92
        8
 66
     7
 43
1.0
 76
     1
 77
     6
 78
     2
 67
     7
 79
     5
170
     0
171
     0
290
     0
174
     0
 93
        1
 44
0.0
173
     0
291
     1
 45
0.0
1001
ACAD
1000
AcDbSavedByObjectVersion
1070
     0
  0
VISUALSTYLE
  5
36
102
{ACAD_REACTORS
330
2A
102
}
102
{ACAD_XDICTIONARY
360
16B
102
}
330
2A
100
AcDbVisualStyle
  2
Brighten
 70
    12
 71
     2
 72
     2
 73
     0
 90
        0
 40
-0.6
 41
-30.0
 62
     5
 63
     7
 74
     1
 91
        4
 64
     7
 65
   257
 75
     1
175
     1
 42
1.0
 92
        8
 66
     7
 43
1.0
 76
     1
 77
     6
 78
     2
 67
     7
 79
     5
170
     0
171
     0
290
     0
174
     0
 93
        1
 44
50.0
173
     0
291
     1
 45
0.0
1001
ACAD
1000
AcDbSavedByObjectVersion
1070
     0
  0
VISUALSTYLE
  5
3A
102
{ACAD_REACTORS
330
2A
102
}
102
{ACAD_XDICTIONARY
360
173
102
}
330
2A
100
AcDbVisualStyle
  2
ColorChange
 70
    16
 71
     2
 72
     2
 73
     3
 90
        0
 40
-0.6
 41
-30.0
 62
     5
 63
     8
 74
     1
 91
        4
 64
     7
 65
   257
 75
     1
175
     1
 42
1.0
 92
        8
 66
     8
 43
1.0
 76
     1
 77
     6
 78
     2
 67
     7
 79
     5
170
     0
171
     0
290
     0
174
     0
 93
        1
 44
0.0
173
     0
291
     1
 45
0.0
1001
ACAD
1000
AcDbSavedByObjectVersion
1070
     0
  0
VISUALSTYLE
  5
34
102
{ACAD_REACTORS
330
2A
102
}
102
{ACAD_XDICTIONARY
360
167
102
}
330
2A
100
AcDbVisualStyle
  2
Conceptual
 70
     9
 71
     3
 72
     2
 73
     0
 90
        0
 40
-0.6
 41
-30.0
 62
     5
 63
     7
 74
     2
 91
        2
 64
     7
 65
   257
 75
     1
175
     1
 42
40.0
 92
        8
 66
     7
 43
1.0
 76
     1
 77
     6
 78
     2
 67
     7
 79
     3
170
     0
171
     0
290
     0
174
     0
 93
        1
 44
0.0
173
     0
291
     0
 45
0.0
1001
ACAD
1000
AcDbSavedByObjectVersion
1070
     0
  0
VISUALSTYLE
  5
35
102
{ACAD_REACTORS
330
2A
102
}
102
{ACAD_XDICTIONARY
360
169
102
}
330
2A
100
AcDbVisualStyle
  2
Dim
 70
    11
 71
     2
 72
     2
 73
     0
 90
        0
 40
-0.6
 41
-30.0
 62
     5
 63
     7
 74
     1
 91
        4
 64
     7
 65
   257
 75
     1
175
     1
 42
1.0
 92
        8
 66
     7
 43
1.0
 76
     1
 77
     6
 78
     2
 67
     7
 79
     5
170
     0
171
     0
290
     0
174
     0
 93
        1
 44
-50.0
173
     0
291
     1
 45
0.0
1001
ACAD
1000
AcDbSavedByObjectVersion
1070
     0
  0
VISUALSTYLE
  5
39
102
{ACAD_REACTORS
330
2A
102
}
102
{ACAD_XDICTIONARY
360
171
102
}
330
2A
100
AcDbVisualStyle
  2
Facepattern
 70
    15
 71
     2
 72
     2
 73
     0
 90
        0
 40
-0.6
 41
-30.0
 62
     5
 63
     7
 74
     1
 91
        4
 64
     7
 65
   257
 75
     1
175
     1
 42
1.0
 92
        8
 66
     7
 43
1.0
 76
     1
 77
     6
 78
     2
 67
     7
 79
     5
170
     0
171
     0
290
     0
174
     0
 93
        1
 44
0.0
173
     0
291
     1
 45
0.0
1001
ACAD
1000
AcDbSavedByObjectVersion
1070
     0
  0
VISUALSTYLE
  5
2B
102
{ACAD_REACTORS
330
2A
102
}
102
{ACAD_XDICTIONARY
360
155
102
}
330
2A
100
AcDbVisualStyle
  2
Flat
 70
     0
 71
     2
 72
     1
 73
     1
 90
        2
 40
-0.6
 41
30.0
 62
     5
 63
     7
 74
     0
 91
        4
 64
     7
 65
   257
 75
     1
175
     1
 42
1.0
 92
        8
 66
     7
 43
1.0
 76
     1
 77
     6
 78
     2
 67
     7
 79
     5
170
     0
171
     0
290
     0
174
     0
 93
       13
 44
0.0
173
     0
291
     1
 45
0.0
1001
ACAD
1000
AcDbSavedByObjectVersion
1070
     0
  0
VISUALSTYLE
  5
2C
102
{ACAD_REACTORS
330
2A
102
}
102
{ACAD_XDICTIONARY
360
157
102
}
330
2A
100
AcDbVisualStyle
  2
FlatWithEdges
 70
     1
 71
     2
 72
     1
 73
     1
 90
        2
 40
-0.6
 41
30.0
 62
     5
 63
     7
 74
     1
 91
        4
 64
     7
 65
   257
 75
     1
175
     1
 42
1.0
 92
        0
 66
   257
 43
1.0
 76
     1
 77
     6
 78
     2
 67
     7
 79
     5
170
     0
171
     0
290
     0
174
     0
 93
       13
 44
0.0
173
     0
291
     1
 45
0.0
1001
ACAD
1000
AcDbSavedByObjectVersion
1070
     0
  0
VISUALSTYLE
  5
2D
102
{ACAD_REACTORS
330
2A
102
}
102
{ACAD_XDICTIONARY
360
159
102
}
330
2A
100
AcDbVisualStyle
  2
Gouraud
 70
     2
 71
     2
 72
     2
 73
     1
 90
        2
 40
-0.6
 41
30.0
 62
     5
 63
     7
 74
     0
 91
        4
 64
     7
 65
   257
 75
     1
175
     1
 42
1.0
 92
        0
 66
     7
 43
1.0
 76
     1
 77
     6
 78
     2
 67
     7
 79
     5
170
     0
171
     0
290
     0
174
     0
 93
       13
 44
0.0
173
     0
291
     1
 45
0.0
1001
ACAD
1000
AcDbSavedByObjectVersion
1070
     0
  0
VISUALSTYLE
  5
2E
102
{ACAD_REACTORS
330
2A
102
}
102
{ACAD_XDICTIONARY
360
15B
102
}
330
2A
100
AcDbVisualStyle
  2
GouraudWithEdges
 70
     3
 71
     2
 72
     2
 73
     1
 90
        2
 40
-0.6
 41
30.0
 62
     5
 63
     7
 74
     1
 91
        4
 64
     7
 65
   257
 75
     1
175
     1
 42
1.0
 92
        0
 66
   257
 43
1.0
 76
     1
 77
     6
 78
     2
 67
     7
 79
     5
170
     0
171
     0
290
     0
174
     0
 93
       13
 44
0.0
173
     0
291
     1
 45
0.0
1001
ACAD
1000
AcDbSavedByObjectVersion
1070
     0
  0
VISUALSTYLE
  5
38
102
{ACAD_REACTORS
330
2A
102
}
102
{ACAD_XDICTIONARY
360
16F
102
}
330
2A
100
AcDbVisualStyle
  2
Linepattern
 70
    14
 71
     2
 72
     2
 73
     0
 90
        0
 40
-0.6
 41
-30.0
 62
     5
 63
     7
 74
     1
 91
        4
 64
     7
 65
   257
 75
     7
175
     7
 42
1.0
 92
        8
 66
     7
 43
1.0
 76
     1
 77
     6
 78
     2
 67
     7
 79
     5
170
     0
171
     0
290
     0
174
     0
 93
        1
 44
0.0
173
     0
291
     1
 45
0.0
1001
ACAD
1000
AcDbSavedByObjectVersion
1070
     0
  0
VISUALSTYLE
  5
33
102
{ACAD_REACTORS
330
2A
102
}
102
{ACAD_XDICTIONARY
360
165
102
}
330
2A
100
AcDbVisualStyle
  2
Realistic
 70
     8
 71
     2
 72
     2
 73
     0
 90
        0
 40
-0.6
 41
-30.0
 62
     5
 63
     7
 74
     1
 91
        0
 64
     7
 65
   257
 75
     1
175
     1
 42
1.0
 92
        8
 66
     8
 43
1.0
 76
     1
 77
     6
 78
     2
 67
     7
 79
     5
170
     0
171
     0
290
     0
174
     0
 93
       13
 44
0.0
173
     0
291
     0
 45
0.0
1001
ACAD
1000
AcDbSavedByObjectVersion
1070
     0
  0
VISUALSTYLE
  5
37
102
{ACAD_REACTORS
330
2A
102
}
102
{ACAD_XDICTIONARY
360
16D
102
}
330
2A
100
AcDbVisualStyle
  2
Thicken
 70
    13
 71
     2
 72
     2
 73
     0
 90
        0
 40
-0.6
 41
-30.0
 62
     5
 63
     7
 74
     1
 91
        4
 64
     7
 65
   257
 75
     1
175
     1
 42
1.0
 92
       12
 66
     7
 43
1.0
 76
     1
 77
     6
 78
     2
 67
     7
 79
     5
170
     0
171
     0
290
     0
174
     0
 93
        1
 44
0.0
173
     0
291
     1
 45
0.0
1001
ACAD
1000
AcDbSavedByObjectVersion
1070
     0
  0
DICTIONARYVAR
  5
153
102
{ACAD_REACTORS
330
150
102
}
330
150
100
DictionaryVariables
280
     0
  1
2
  0
DICTIONARYVAR
  5
154
102
{ACAD_REACTORS
330
150
102
}
330
150
100
DictionaryVariables
280
     0
  1
1
  0
DICTIONARY
  5
177
330
3D
100
AcDbDictionary
280
     1
281
     1
  3
ACAD_XREC_ROUNDTRIP
360
178
  0
DICTIONARY
  5
175
330
3C
100
AcDbDictionary
280
     1
281
     1
  3
ACAD_XREC_ROUNDTRIP
360
176
  0
DICTIONARY
  5
179
330
3E
100
AcDbDictionary
280
     1
281
     1
  3
ACAD_XREC_ROUNDTRIP
360
17A
  0
DICTIONARY
  5
15D
330
2F
100
AcDbDictionary
280
     1
281
     1
  3
ACAD_XREC_ROUNDTRIP
360
15E
  0
DICTIONARY
  5
161
330
31
100
AcDbDictionary
280
     1
281
     1
  3
ACAD_XREC_ROUNDTRIP
360
162
  0
DICTIONARY
  5
15F
330
30
100
AcDbDictionary
280
     1
281
     1
  3
ACAD_XREC_ROUNDTRIP
360
160
  0
DICTIONARY
  5
163
330
32
100
AcDbDictionary
280
     1
281
     1
  3
ACAD_XREC_ROUNDTRIP
360
164
  0
DICTIONARY
  5
16B
330
36
100
AcDbDictionary
280
     1
281
     1
  3
ACAD_XREC_ROUNDTRIP
360
16C
  0
DICTIONARY
  5
173
330
3A
100
AcDbDictionary
280
     1
281
     1
  3
ACAD_XREC_ROUNDTRIP
360
174
  0
DICTIONARY
  5
167
330
34
100
AcDbDictionary
280
     1
281
     1
  3
ACAD_XREC_ROUNDTRIP
360
168
  0
DICTIONARY
  5
169
330
35
100
AcDbDictionary
280
     1
281
     1
  3
ACAD_XREC_ROUNDTRIP
360
16A
  0
DICTIONARY
  5
171
330
39
100
AcDbDictionary
280
     1
281
     1
  3
ACAD_XREC_ROUNDTRIP
360
172
  0
DICTIONARY
  5
155
330
2B
100
AcDbDictionary
280
     1
281
     1
  3
ACAD_XREC_ROUNDTRIP
360
156
  0
DICTIONARY
  5
157
330
2C
100
AcDbDictionary
280
     1
281
     1
  3
ACAD_XREC_ROUNDTRIP
360
158
  0
DICTIONARY
  5
159
330
2D
100
AcDbDictionary
280
     1
281
     1
  3
ACAD_XREC_ROUNDTRIP
360
15A
  0
DICTIONARY
  5
15B
330
2E
100
AcDbDictionary
280
     1
281
     1
  3
ACAD_XREC_ROUNDTRIP
360
15C
  0
DICTIONARY
  5
16F
330
38
100
AcDbDictionary
280
     1
281
     1
  3
ACAD_XREC_ROUNDTRIP
360
170
  0
DICTIONARY
  5
165
330
33
100
AcDbDictionary
280
     1
281
     1
  3
ACAD_XREC_ROUNDTRIP
360
166
  0
DICTIONARY
  5
16D
330
37
100
AcDbDictionary
280
     1
281
     1
  3
ACAD_XREC_ROUNDTRIP
360
16E
  0
XRECORD
  5
178
102
{ACAD_REACTORS
330
177
102
}
330
177
100
AcDbXrecord
280
     1
102
MATERIAL
148
0.0
149
0.0
149
0.0
 93
        0
 94
      127
282
     0
 72
     1
 77
     1
171
     1
175
     1
179
     1
273
     0
  0
XRECORD
  5
176
102
{ACAD_REACTORS
330
175
102
}
330
175
100
AcDbXrecord
280
     1
102
MATERIAL
148
0.0
149
0.0
149
0.0
 93
        0
 94
      127
282
     0
 72
     1
 77
     1
171
     1
175
     1
179
     1
273
     0
  0
XRECORD
  5
17A
102
{ACAD_REACTORS
330
179
102
}
330
179
100
AcDbXrecord
280
     1
102
MATERIAL
148
0.0
149
0.0
149
0.0
 93
        0
 94
      127
282
     0
 72
     1
 77
     1
171
     1
175
     1
179
     1
273
     0
  0
XRECORD
  5
15E
102
{ACAD_REACTORS
330
15D
102
}
330
15D
100
AcDbXrecord
280
     1
102
RTVSPropertyOp0
 70
     1
102
RTVSPropertyOp1
 70
     1
102
RTVSPropertyOp2
 70
     1
102
RTVSPropertyOp3
 70
     1
102
RTVSPropertyOp4
 70
     1
102
RTVSPropertyOp5
 70
     1
102
RTVSPropertyOp6
 70
     1
102
RTVSPropertyOp7
 70
     1
102
RTVSPropertyOp8
 70
     1
102
RTVSPropertyOp9
 70
     1
102
RTVSPropertyOp10
 70
     1
102
RTVSPropertyOp11
 70
     1
102
RTVSPropertyOp12
 70
     1
102
RTVSPropertyOp13
 70
     1
102
RTVSPropertyOp14
 70
     1
102
RTVSPropertyOp15
 70
     1
102
RTVSPropertyOp16
 70
     1
102
RTVSPropertyOp17
 70
     1
102
RTVSPropertyOp18
 70
     1
102
RTVSPropertyOp19
 70
     1
102
RTVSPropertyOp20
 70
     1
102
RTVSPropertyOp21
 70
     1
102
RTVSPropertyOp22
 70
     1
102
RTVSPropertyOp23
 70
     1
102
RTVSPropertyOp24
 70
     1
102
RTVSPropertyOp25
 70
     1
102
RTVSPropertyOp26
 70
     1
102
RTVSPropertyOp27
 70
     1
102
RTVSPropertyOp28
 70
     1
102
RTVSPropertyOp29
 70
     1
102
RTVSPropertyOp30
 70
     1
102
RTVSPropertyOp31
 70
     1
102
RTVSPropertyOp32
 70
     1
  0
XRECORD
  5
162
102
{ACAD_REACTORS
330
161
102
}
330
161
100
AcDbXrecord
280
     1
102
RTVSPropertyOp0
 70
     1
102
RTVSPropertyOp1
 70
     1
102
RTVSPropertyOp2
 70
     1
102
RTVSPropertyOp3
 70
     1
102
RTVSPropertyOp4
 70
     1
102
RTVSPropertyOp5
 70
     1
102
RTVSPropertyOp6
 70
     1
102
RTVSPropertyOp7
 70
     1
102
RTVSPropertyOp8
 70
     1
102
RTVSPropertyOp9
 70
     1
102
RTVSPropertyOp10
 70
     1
102
RTVSPropertyOp11
 70
     1
102
RTVSPropertyOp12
 70
     1
102
RTVSPropertyOp13
 70
     1
102
RTVSPropertyOp14
 70
     1
102
RTVSPropertyOp15
 70
     1
102
RTVSPropertyOp16
 70
     1
102
RTVSPropertyOp17
 70
     1
102
RTVSPropertyOp18
 70
     1
102
RTVSPropertyOp19
 70
     1
102
RTVSPropertyOp20
 70
     1
102
RTVSPropertyOp21
 70
     1
102
RTVSPropertyOp22
 70
     1
102
RTVSPropertyOp23
 70
     1
102
RTVSPropertyOp24
 70
     1
102
RTVSPropertyOp25
 70
     1
102
RTVSPropertyOp26
 70
     1
102
RTVSPropertyOp27
 70
     1
102
RTVSPropertyOp28
 70
     1
102
RTVSPropertyOp29
 70
     1
102
RTVSPropertyOp30
 70
     1
102
RTVSPropertyOp31
 70
     1
102
RTVSPropertyOp32
 70
     1
  0
XRECORD
  5
160
102
{ACAD_REACTORS
330
15F
102
}
330
15F
100
AcDbXrecord
280
     1
102
RTVSPropertyOp0
 70
     1
102
RTVSPropertyOp1
 70
     1
102
RTVSPropertyOp2
 70
     1
102
RTVSPropertyOp3
 70
     1
102
RTVSPropertyOp4
 70
     1
102
RTVSPropertyOp5
 70
     1
102
RTVSPropertyOp6
 70
     1
102
RTVSPropertyOp7
 70
     1
102
RTVSPropertyOp8
 70
     1
102
RTVSPropertyOp9
 70
     1
102
RTVSPropertyOp10
 70
     1
102
RTVSPropertyOp11
 70
     1
102
RTVSPropertyOp12
 70
     1
102
RTVSPropertyOp13
 70
     1
102
RTVSPropertyOp14
 70
     1
102
RTVSPropertyOp15
 70
     1
102
RTVSPropertyOp16
 70
     1
102
RTVSPropertyOp17
 70
     1
102
RTVSPropertyOp18
 70
     1
102
RTVSPropertyOp19
 70
     1
102
RTVSPropertyOp20
 70
     1
102
RTVSPropertyOp21
 70
     1
102
RTVSPropertyOp22
 70
     1
102
RTVSPropertyOp23
 70
     1
102
RTVSPropertyOp24
 70
     1
102
RTVSPropertyOp25
 70
     1
102
RTVSPropertyOp26
 70
     1
102
RTVSPropertyOp27
 70
     1
102
RTVSPropertyOp28
 70
     1
102
RTVSPropertyOp29
 70
     1
102
RTVSPropertyOp30
 70
     1
102
RTVSPropertyOp31
 70
     1
102
RTVSPropertyOp32
 70
     1
  0
XRECORD
  5
164
102
{ACAD_REACTORS
330
163
102
}
330
163
100
AcDbXrecord
280
     1
102
RTVSPropertyOp0
 70
     1
102
RTVSPropertyOp1
 70
     1
102
RTVSPropertyOp2
 70
     1
102
RTVSPropertyOp3
 70
     1
102
RTVSPropertyOp4
 70
     1
102
RTVSPropertyOp5
 70
     1
102
RTVSPropertyOp6
 70
     1
102
RTVSPropertyOp7
 70
     1
102
RTVSPropertyOp8
 70
     1
102
RTVSPropertyOp9
 70
     1
102
RTVSPropertyOp10
 70
     1
102
RTVSPropertyOp11
 70
     1
102
RTVSPropertyOp12
 70
     1
102
RTVSPropertyOp13
 70
     1
102
RTVSPropertyOp14
 70
     1
102
RTVSPropertyOp15
 70
     1
102
RTVSPropertyOp16
 70
     1
102
RTVSPropertyOp17
 70
     1
102
RTVSPropertyOp18
 70
     1
102
RTVSPropertyOp19
 70
     1
102
RTVSPropertyOp20
 70
     1
102
RTVSPropertyOp21
 70
     1
102
RTVSPropertyOp22
 70
     1
102
RTVSPropertyOp23
 70
     1
102
RTVSPropertyOp24
 70
     1
102
RTVSPropertyOp25
 70
     1
102
RTVSPropertyOp26
 70
     1
102
RTVSPropertyOp27
 70
     1
102
RTVSPropertyOp28
 70
     1
102
RTVSPropertyOp29
 70
     1
102
RTVSPropertyOp30
 70
     1
102
RTVSPropertyOp31
 70
     1
102
RTVSPropertyOp32
 70
     1
  0
XRECORD
  5
16C
102
{ACAD_REACTORS
330
16B
102
}
330
16B
100
AcDbXrecord
280
     1
102
RTVSPropertyOp0
 70
     1
102
RTVSPropertyOp1
 70
     1
102
RTVSPropertyOp2
 70
     1
102
RTVSPropertyOp3
 70
     1
102
RTVSPropertyOp4
 70
     1
102
RTVSPropertyOp5
 70
     1
102
RTVSPropertyOp6
 70
     1
102
RTVSPropertyOp7
 70
     1
102
RTVSPropertyOp8
 70
     1
102
RTVSPropertyOp9
 70
     1
102
RTVSPropertyOp10
 70
     1
102
RTVSPropertyOp11
 70
     1
102
RTVSPropertyOp12
 70
     1
102
RTVSPropertyOp13
 70
     1
102
RTVSPropertyOp14
 70
     1
102
RTVSPropertyOp15
 70
     1
102
RTVSPropertyOp16
 70
     1
102
RTVSPropertyOp17
 70
     1
102
RTVSPropertyOp18
 70
     1
102
RTVSPropertyOp19
 70
     1
102
RTVSPropertyOp20
 70
     1
102
RTVSPropertyOp21
 70
     1
102
RTVSPropertyOp22
 70
     1
102
RTVSPropertyOp23
 70
     1
102
RTVSPropertyOp24
 70
     1
102
RTVSPropertyOp25
 70
     1
102
RTVSPropertyOp26
 70
     1
102
RTVSPropertyOp27
 70
     1
102
RTVSPropertyOp28
 70
     1
102
RTVSPropertyOp29
 70
     1
102
RTVSPropertyOp30
 70
     1
102
RTVSPropertyOp31
 70
     1
102
RTVSPropertyOp32
 70
     1
  0
XRECORD
  5
174
102
{ACAD_REACTORS
330
173
102
}
330
173
100
AcDbXrecord
280
     1
102
RTVSPropertyOp0
 70
     1
102
RTVSPropertyOp1
 70
     1
102
RTVSPropertyOp2
 70
     1
102
RTVSPropertyOp3
 70
     1
102
RTVSPropertyOp4
 70
     1
102
RTVSPropertyOp5
 70
     1
102
RTVSPropertyOp6
 70
     1
102
RTVSPropertyOp7
 70
     1
102
RTVSPropertyOp8
 70
     1
102
RTVSPropertyOp9
 70
     1
102
RTVSPropertyOp10
 70
     1
102
RTVSPropertyOp11
 70
     1
102
RTVSPropertyOp12
 70
     1
102
RTVSPropertyOp13
 70
     1
102
RTVSPropertyOp14
 70
     1
102
RTVSPropertyOp15
 70
     1
102
RTVSPropertyOp16
 70
     1
102
RTVSPropertyOp17
 70
     1
102
RTVSPropertyOp18
 70
     1
102
RTVSPropertyOp19
 70
     1
102
RTVSPropertyOp20
 70
     1
102
RTVSPropertyOp21
 70
     1
102
RTVSPropertyOp22
 70
     1
102
RTVSPropertyOp23
 70
     1
102
RTVSPropertyOp24
 70
     1
102
RTVSPropertyOp25
 70
     1
102
RTVSPropertyOp26
 70
     1
102
RTVSPropertyOp27
 70
     1
102
RTVSPropertyOp28
 70
     1
102
RTVSPropertyOp29
 70
     1
102
RTVSPropertyOp30
 70
     1
102
RTVSPropertyOp31
 70
     1
102
RTVSPropertyOp32
 70
     1
  0
XRECORD
  5
168
102
{ACAD_REACTORS
330
167
102
}
330
167
100
AcDbXrecord
280
     1
102
RTVSPropertyOp0
 70
     1
102
RTVSPropertyOp1
 70
     1
102
RTVSPropertyOp2
 70
     1
102
RTVSPropertyOp3
 70
     1
102
RTVSPropertyOp4
 70
     1
102
RTVSPropertyOp5
 70
     1
102
RTVSPropertyOp6
 70
     1
102
RTVSPropertyOp7
 70
     1
102
RTVSPropertyOp8
 70
     1
102
RTVSPropertyOp9
 70
     1
102
RTVSPropertyOp10
 70
     1
102
RTVSPropertyOp11
 70
     1
102
RTVSPropertyOp12
 70
     1
102
RTVSPropertyOp13
 70
     1
102
RTVSPropertyOp14
 70
     1
102
RTVSPropertyOp15
 70
     1
102
RTVSPropertyOp16
 70
     1
102
RTVSPropertyOp17
 70
     1
102
RTVSPropertyOp18
 70
     1
102
RTVSPropertyOp19
 70
     1
102
RTVSPropertyOp20
 70
     1
102
RTVSPropertyOp21
 70
     1
102
RTVSPropertyOp22
 70
     1
102
RTVSPropertyOp23
 70
     1
102
RTVSPropertyOp24
 70
     1
102
RTVSPropertyOp25
 70
     1
102
RTVSPropertyOp26
 70
     1
102
RTVSPropertyOp27
 70
     1
102
RTVSPropertyOp28
 70
     1
102
RTVSPropertyOp29
 70
     1
102
RTVSPropertyOp30
 70
     1
102
RTVSPropertyOp31
 70
     1
102
RTVSPropertyOp32
 70
     1
  0
XRECORD
  5
16A
102
{ACAD_REACTORS
330
169
102
}
330
169
100
AcDbXrecord
280
     1
102
RTVSPropertyOp0
 70
     1
102
RTVSPropertyOp1
 70
     1
102
RTVSPropertyOp2
 70
     1
102
RTVSPropertyOp3
 70
     1
102
RTVSPropertyOp4
 70
     1
102
RTVSPropertyOp5
 70
     1
102
RTVSPropertyOp6
 70
     1
102
RTVSPropertyOp7
 70
     1
102
RTVSPropertyOp8
 70
     1
102
RTVSPropertyOp9
 70
     1
102
RTVSPropertyOp10
 70
     1
102
RTVSPropertyOp11
 70
     1
102
RTVSPropertyOp12
 70
     1
102
RTVSPropertyOp13
 70
     1
102
RTVSPropertyOp14
 70
     1
102
RTVSPropertyOp15
 70
     1
102
RTVSPropertyOp16
 70
     1
102
RTVSPropertyOp17
 70
     1
102
RTVSPropertyOp18
 70
     1
102
RTVSPropertyOp19
 70
     1
102
RTVSPropertyOp20
 70
     1
102
RTVSPropertyOp21
 70
     1
102
RTVSPropertyOp22
 70
     1
102
RTVSPropertyOp23
 70
     1
102
RTVSPropertyOp24
 70
     1
102
RTVSPropertyOp25
 70
     1
102
RTVSPropertyOp26
 70
     1
102
RTVSPropertyOp27
 70
     1
102
RTVSPropertyOp28
 70
     1
102
RTVSPropertyOp29
 70
     1
102
RTVSPropertyOp30
 70
     1
102
RTVSPropertyOp31
 70
     1
102
RTVSPropertyOp32
 70
     1
  0
XRECORD
  5
172
102
{ACAD_REACTORS
330
171
102
}
330
171
100
AcDbXrecord
280
     1
102
RTVSPropertyOp0
 70
     1
102
RTVSPropertyOp1
 70
     1
102
RTVSPropertyOp2
 70
     1
102
RTVSPropertyOp3
 70
     1
102
RTVSPropertyOp4
 70
     1
102
RTVSPropertyOp5
 70
     1
102
RTVSPropertyOp6
 70
     1
102
RTVSPropertyOp7
 70
     1
102
RTVSPropertyOp8
 70
     1
102
RTVSPropertyOp9
 70
     1
102
RTVSPropertyOp10
 70
     1
102
RTVSPropertyOp11
 70
     1
102
RTVSPropertyOp12
 70
     1
102
RTVSPropertyOp13
 70
     1
102
RTVSPropertyOp14
 70
     1
102
RTVSPropertyOp15
 70
     1
102
RTVSPropertyOp16
 70
     1
102
RTVSPropertyOp17
 70
     1
102
RTVSPropertyOp18
 70
     1
102
RTVSPropertyOp19
 70
     1
102
RTVSPropertyOp20
 70
     1
102
RTVSPropertyOp21
 70
     1
102
RTVSPropertyOp22
 70
     1
102
RTVSPropertyOp23
 70
     1
102
RTVSPropertyOp24
 70
     1
102
RTVSPropertyOp25
 70
     1
102
RTVSPropertyOp26
 70
     1
102
RTVSPropertyOp27
 70
     1
102
RTVSPropertyOp28
 70
     1
102
RTVSPropertyOp29
 70
     1
102
RTVSPropertyOp30
 70
     1
102
RTVSPropertyOp31
 70
     1
102
RTVSPropertyOp32
 70
     1
  0
XRECORD
  5
156
102
{ACAD_REACTORS
330
155
102
}
330
155
100
AcDbXrecord
280
     1
102
RTVSPropertyOp0
 70
     1
102
RTVSPropertyOp1
 70
     1
102
RTVSPropertyOp2
 70
     1
102
RTVSPropertyOp3
 70
     1
102
RTVSPropertyOp4
 70
     1
102
RTVSPropertyOp5
 70
     1
102
RTVSPropertyOp6
 70
     1
102
RTVSPropertyOp7
 70
     1
102
RTVSPropertyOp8
 70
     1
102
RTVSPropertyOp9
 70
     1
102
RTVSPropertyOp10
 70
     1
102
RTVSPropertyOp11
 70
     1
102
RTVSPropertyOp12
 70
     1
102
RTVSPropertyOp13
 70
     1
102
RTVSPropertyOp14
 70
     1
102
RTVSPropertyOp15
 70
     1
102
RTVSPropertyOp16
 70
     1
102
RTVSPropertyOp17
 70
     1
102
RTVSPropertyOp18
 70
     1
102
RTVSPropertyOp19
 70
     1
102
RTVSPropertyOp20
 70
     1
102
RTVSPropertyOp21
 70
     1
102
RTVSPropertyOp22
 70
     1
102
RTVSPropertyOp23
 70
     1
102
RTVSPropertyOp24
 70
     1
102
RTVSPropertyOp25
 70
     1
102
RTVSPropertyOp26
 70
     1
102
RTVSPropertyOp27
 70
     1
102
RTVSPropertyOp28
 70
     1
102
RTVSPropertyOp29
 70
     1
102
RTVSPropertyOp30
 70
     1
102
RTVSPropertyOp31
 70
     1
102
RTVSPropertyOp32
 70
     1
  0
XRECORD
  5
158
102
{ACAD_REACTORS
330
157
102
}
330
157
100
AcDbXrecord
280
     1
102
RTVSPropertyOp0
 70
     1
102
RTVSPropertyOp1
 70
     1
102
RTVSPropertyOp2
 70
     1
102
RTVSPropertyOp3
 70
     1
102
RTVSPropertyOp4
 70
     1
102
RTVSPropertyOp5
 70
     1
102
RTVSPropertyOp6
 70
     1
102
RTVSPropertyOp7
 70
     1
102
RTVSPropertyOp8
 70
     1
102
RTVSPropertyOp9
 70
     1
102
RTVSPropertyOp10
 70
     1
102
RTVSPropertyOp11
 70
     1
102
RTVSPropertyOp12
 70
     1
102
RTVSPropertyOp13
 70
     1
102
RTVSPropertyOp14
 70
     1
102
RTVSPropertyOp15
 70
     1
102
RTVSPropertyOp16
 70
     1
102
RTVSPropertyOp17
 70
     1
102
RTVSPropertyOp18
 70
     1
102
RTVSPropertyOp19
 70
     1
102
RTVSPropertyOp20
 70
     1
102
RTVSPropertyOp21
 70
     1
102
RTVSPropertyOp22
 70
     1
102
RTVSPropertyOp23
 70
     1
102
RTVSPropertyOp24
 70
     1
102
RTVSPropertyOp25
 70
     1
102
RTVSPropertyOp26
 70
     1
102
RTVSPropertyOp27
 70
     1
102
RTVSPropertyOp28
 70
     1
102
RTVSPropertyOp29
 70
     1
102
RTVSPropertyOp30
 70
     1
102
RTVSPropertyOp31
 70
     1
102
RTVSPropertyOp32
 70
     1
  0
XRECORD
  5
15A
102
{ACAD_REACTORS
330
159
102
}
330
159
100
AcDbXrecord
280
     1
102
RTVSPropertyOp0
 70
     1
102
RTVSPropertyOp1
 70
     1
102
RTVSPropertyOp2
 70
     1
102
RTVSPropertyOp3
 70
     1
102
RTVSPropertyOp4
 70
     1
102
RTVSPropertyOp5
 70
     1
102
RTVSPropertyOp6
 70
     1
102
RTVSPropertyOp7
 70
     1
102
RTVSPropertyOp8
 70
     1
102
RTVSPropertyOp9
 70
     1
102
RTVSPropertyOp10
 70
     1
102
RTVSPropertyOp11
 70
     1
102
RTVSPropertyOp12
 70
     1
102
RTVSPropertyOp13
 70
     1
102
RTVSPropertyOp14
 70
     1
102
RTVSPropertyOp15
 70
     1
102
RTVSPropertyOp16
 70
     1
102
RTVSPropertyOp17
 70
     1
102
RTVSPropertyOp18
 70
     1
102
RTVSPropertyOp19
 70
     1
102
RTVSPropertyOp20
 70
     1
102
RTVSPropertyOp21
 70
     1
102
RTVSPropertyOp22
 70
     1
102
RTVSPropertyOp23
 70
     1
102
RTVSPropertyOp24
 70
     1
102
RTVSPropertyOp25
 70
     1
102
RTVSPropertyOp26
 70
     1
102
RTVSPropertyOp27
 70
     1
102
RTVSPropertyOp28
 70
     1
102
RTVSPropertyOp29
 70
     1
102
RTVSPropertyOp30
 70
     1
102
RTVSPropertyOp31
 70
     1
102
RTVSPropertyOp32
 70
     1
  0
XRECORD
  5
15C
102
{ACAD_REACTORS
330
15B
102
}
330
15B
100
AcDbXrecord
280
     1
102
RTVSPropertyOp0
 70
     1
102
RTVSPropertyOp1
 70
     1
102
RTVSPropertyOp2
 70
     1
102
RTVSPropertyOp3
 70
     1
102
RTVSPropertyOp4
 70
     1
102
RTVSPropertyOp5
 70
     1
102
RTVSPropertyOp6
 70
     1
102
RTVSPropertyOp7
 70
     1
102
RTVSPropertyOp8
 70
     1
102
RTVSPropertyOp9
 70
     1
102
RTVSPropertyOp10
 70
     1
102
RTVSPropertyOp11
 70
     1
102
RTVSPropertyOp12
 70
     1
102
RTVSPropertyOp13
 70
     1
102
RTVSPropertyOp14
 70
     1
102
RTVSPropertyOp15
 70
     1
102
RTVSPropertyOp16
 70
     1
102
RTVSPropertyOp17
 70
     1
102
RTVSPropertyOp18
 70
     1
102
RTVSPropertyOp19
 70
     1
102
RTVSPropertyOp20
 70
     1
102
RTVSPropertyOp21
 70
     1
102
RTVSPropertyOp22
 70
     1
102
RTVSPropertyOp23
 70
     1
102
RTVSPropertyOp24
 70
     1
102
RTVSPropertyOp25
 70
     1
102
RTVSPropertyOp26
 70
     1
102
RTVSPropertyOp27
 70
     1
102
RTVSPropertyOp28
 70
     1
102
RTVSPropertyOp29
 70
     1
102
RTVSPropertyOp30
 70
     1
102
RTVSPropertyOp31
 70
     1
102
RTVSPropertyOp32
 70
     1
  0
XRECORD
  5
170
102
{ACAD_REACTORS
330
16F
102
}
330
16F
100
AcDbXrecord
280
     1
102
RTVSPropertyOp0
 70
     1
102
RTVSPropertyOp1
 70
     1
102
RTVSPropertyOp2
 70
     1
102
RTVSPropertyOp3
 70
     1
102
RTVSPropertyOp4
 70
     1
102
RTVSPropertyOp5
 70
     1
102
RTVSPropertyOp6
 70
     1
102
RTVSPropertyOp7
 70
     1
102
RTVSPropertyOp8
 70
     1
102
RTVSPropertyOp9
 70
     1
102
RTVSPropertyOp10
 70
     1
102
RTVSPropertyOp11
 70
     1
102
RTVSPropertyOp12
 70
     1
102
RTVSPropertyOp13
 70
     1
102
RTVSPropertyOp14
 70
     1
102
RTVSPropertyOp15
 70
     1
102
RTVSPropertyOp16
 70
     1
102
RTVSPropertyOp17
 70
     1
102
RTVSPropertyOp18
 70
     1
102
RTVSPropertyOp19
 70
     1
102
RTVSPropertyOp20
 70
     1
102
RTVSPropertyOp21
 70
     1
102
RTVSPropertyOp22
 70
     1
102
RTVSPropertyOp23
 70
     1
102
RTVSPropertyOp24
 70
     1
102
RTVSPropertyOp25
 70
     1
102
RTVSPropertyOp26
 70
     1
102
RTVSPropertyOp27
 70
     1
102
RTVSPropertyOp28
 70
     1
102
RTVSPropertyOp29
 70
     1
102
RTVSPropertyOp30
 70
     1
102
RTVSPropertyOp31
 70
     1
102
RTVSPropertyOp32
 70
     1
  0
XRECORD
  5
166
102
{ACAD_REACTORS
330
165
102
}
330
165
100
AcDbXrecord
280
     1
102
RTVSPropertyOp0
 70
     1
102
RTVSPropertyOp1
 70
     1
102
RTVSPropertyOp2
 70
     1
102
RTVSPropertyOp3
 70
     1
102
RTVSPropertyOp4
 70
     1
102
RTVSPropertyOp5
 70
     1
102
RTVSPropertyOp6
 70
     1
102
RTVSPropertyOp7
 70
     1
102
RTVSPropertyOp8
 70
     1
102
RTVSPropertyOp9
 70
     1
102
RTVSPropertyOp10
 70
     1
102
RTVSPropertyOp11
 70
     1
102
RTVSPropertyOp12
 70
     1
102
RTVSPropertyOp13
 70
     1
102
RTVSPropertyOp14
 70
     1
102
RTVSPropertyOp15
 70
     1
102
RTVSPropertyOp16
 70
     1
102
RTVSPropertyOp17
 70
     1
102
RTVSPropertyOp18
 70
     1
102
RTVSPropertyOp19
 70
     1
102
RTVSPropertyOp20
 70
     1
102
RTVSPropertyOp21
 70
     1
102
RTVSPropertyOp22
 70
     1
102
RTVSPropertyOp23
 70
     1
102
RTVSPropertyOp24
 70
     1
102
RTVSPropertyOp25
 70
     1
102
RTVSPropertyOp26
 70
     1
102
RTVSPropertyOp27
 70
     1
102
RTVSPropertyOp28
 70
     1
102
RTVSPropertyOp29
 70
     1
102
RTVSPropertyOp30
 70
     1
102
RTVSPropertyOp31
 70
     1
102
RTVSPropertyOp32
 70
     1
  0
XRECORD
  5
16E
102
{ACAD_REACTORS
330
16D
102
}
330
16D
100
AcDbXrecord
280
     1
102
RTVSPropertyOp0
 70
     1
102
RTVSPropertyOp1
 70
     1
102
RTVSPropertyOp2
 70
     1
102
RTVSPropertyOp3
 70
     1
102
RTVSPropertyOp4
 70
     1
102
RTVSPropertyOp5
 70
     1
102
RTVSPropertyOp6
 70
     1
102
RTVSPropertyOp7
 70
     1
102
RTVSPropertyOp8
 70
     1
102
RTVSPropertyOp9
 70
     1
102
RTVSPropertyOp10
 70
     1
102
RTVSPropertyOp11
 70
     1
102
RTVSPropertyOp12
 70
     1
102
RTVSPropertyOp13
 70
     1
102
RTVSPropertyOp14
 70
     1
102
RTVSPropertyOp15
 70
     1
102
RTVSPropertyOp16
 70
     1
102
RTVSPropertyOp17
 70
     1
102
RTVSPropertyOp18
 70
     1
102
RTVSPropertyOp19
 70
     1
102
RTVSPropertyOp20
 70
     1
102
RTVSPropertyOp21
 70
     1
102
RTVSPropertyOp22
 70
     1
102
RTVSPropertyOp23
 70
     1
102
RTVSPropertyOp24
 70
     1
102
RTVSPropertyOp25
 70
     1
102
RTVSPropertyOp26
 70
     1
102
RTVSPropertyOp27
 70
     1
102
RTVSPropertyOp28
 70
     1
102
RTVSPropertyOp29
 70
     1
102
RTVSPropertyOp30
 70
     1
102
RTVSPropertyOp31
 70
     1
102
RTVSPropertyOp32
 70
     1
  0
ENDSEC
  0
EOF
