  0
SECTION
  2
HEADER
  9
$ACADVER
  1
AC1015
  9
$ACADMAINTVER
 70
     6
  9
$DWGCODEPAGE
  3
DOS932
  9
$INSBASE
 10
0.0
 20
0.0
 30
0.0
  9
$EXTMIN
 10
0.0
 20
0.0
 30
0.0
  9
$EXTMAX
 10
210.0
 20
297.0
 30
0.0
  9
$LIMMIN
 10
0.0
 20
0.0
  9
$LIMMAX
 10
12.0
 20
9.0
  9
$ORTHOMODE
 70
     0
  9
$REGENMODE
 70
     1
  9
$FILLMODE
 70
     1
  9
$QTEXTMODE
 70
     0
  9
$MIRRTEXT
 70
     1
  9
$LTSCALE
 40
1.0
  9
$ATTMODE
 70
     1
  9
$TEXTSIZE
 40
0.2
  9
$TRACEWID
 40
0.05
  9
$TEXTSTYLE
  7
Standard
  9
$CLAYER
  8
0
  9
$CELTYPE
  6
ByLayer
  9
$CECOLOR
 62
   256
  9
$CELTSCALE
 40
1.0
  9
$DISPSILH
 70
     0
  9
$DIMSCALE
 40
1.0
  9
$DIMASZ
 40
0.18
  9
$DIMEXO
 40
0.0625
  9
$DIMDLI
 40
0.38
  9
$DIMRND
 40
0.0
  9
$DIMDLE
 40
0.0
  9
$DIMEXE
 40
0.18
  9
$DIMTP
 40
0.0
  9
$DIMTM
 40
0.0
  9
$DIMTXT
 40
0.18
  9
$DIMCEN
 40
0.09
  9
$DIMTSZ
 40
0.0
  9
$DIMTOL
 70
     0
  9
$DIMLIM
 70
     0
  9
$DIMTIH
 70
     1
  9
$DIMTOH
 70
     1
  9
$DIMSE1
 70
     0
  9
$DIMSE2
 70
     0
  9
$DIMTAD
 70
     0
  9
$DIMZIN
 70
     0
  9
$DIMBLK
  1

  9
$DIMASO
 70
     1
  9
$DIMSHO
 70
     1
  9
$DIMPOST
  1

  9
$DIMAPOST
  1

  9
$DIMALT
 70
     0
  9
$DIMALTD
 70
     2
  9
$DIMALTF
 40
25.4
  9
$DIMLFAC
 40
1.0
  9
$DIMTOFL
 70
     0
  9
$DIMTVP
 40
0.0
  9
$DIMTIX
 70
     0
  9
$DIMSOXD
 70
     0
  9
$DIMSAH
 70
     0
  9
$DIMBLK1
  1

  9
$DIMBLK2
  1

  9
$DIMSTYLE
  2
Standard
  9
$DIMCLRD
 70
     0
  9
$DIMCLRE
 70
     0
  9
$DIMCLRT
 70
     0
  9
$DIMTFAC
 40
1.0
  9
$DIMGAP
 40
0.09
  9
$DIMJUST
 70
     0
  9
$DIMSD1
 70
     0
  9
$DIMSD2
 70
     0
  9
$DIMTOLJ
 70
     1
  9
$DIMTZIN
 70
     0
  9
$DIMALTZ
 70
     0
  9
$DIMALTTZ
 70
     0
  9
$DIMUPT
 70
     0
  9
$DIMDEC
 70
     4
  9
$DIMTDEC
 70
     4
  9
$DIMALTU
 70
     2
  9
$DIMALTTD
 70
     2
  9
$DIMTXSTY
  7
Standard
  9
$DIMAUNIT
 70
     0
  9
$DIMADEC
 70
     0
  9
$DIMALTRND
 40
0.0
  9
$DIMAZIN
 70
     0
  9
$DIMDSEP
 70
    46
  9
$DIMATFIT
 70
     3
  9
$DIMFRAC
 70
     0
  9
$DIMLDRBLK
  1

  9
$DIMLUNIT
 70
     2
  9
$DIMLWD
 70
    -2
  9
$DIMLWE
 70
    -2
  9
$DIMTMOVE
 70
     0
  9
$LUNITS
 70
     2
  9
$LUPREC
 70
     4
  9
$SKETCHINC
 40
0.1
  9
$FILLETRAD
 40
0.5
  9
$AUNITS
 70
     0
  9
$AUPREC
 70
     0
  9
$MENU
  1
.
  9
$ELEVATION
 40
0.0
  9
$PELEVATION
 40
0.0
  9
$THICKNESS
 40
0.0
  9
$LIMCHECK
 70
     0
  9
$CHAMFERA
 40
0.5
  9
$CHAMFERB
 40
0.5
  9
$CHAMFERC
 40
1.0
  9
$CHAMFERD
 40
0.0
  9
$SKPOLY
 70
     0
  9
$TDCREATE
 40
2456113.639872315
  9
$TDUCREATE
 40
2456113.264872315
  9
$TDUPDATE
 40
2456113.639872327
  9
$TDUUPDATE
 40
2456113.264872327
  9
$TDINDWG
 40
0.0000000116
  9
$TDUSRTIMER
 40
0.0000000116
  9
$USRTIMER
 70
     1
  9
$ANGBASE
 50
0.0
  9
$ANGDIR
 70
     0
  9
$PDMODE
 70
     0
  9
$PDSIZE
 40
0.0
  9
$PLINEWID
 40
0.0
  9
$SPLFRAME
 70
     0
  9
$SPLINETYPE
 70
     6
  9
$SPLINESEGS
 70
     8
  9
$HANDSEED
  5
4D9
  9
$SURFTAB1
 70
     6
  9
$SURFTAB2
 70
     6
  9
$SURFTYPE
 70
     6
  9
$SURFU
 70
     6
  9
$SURFV
 70
     6
  9
$UCSBASE
  2

  9
$UCSNAME
  2

  9
$UCSORG
 10
0.0
 20
0.0
 30
0.0
  9
$UCSXDIR
 10
1.0
 20
0.0
 30
0.0
  9
$UCSYDIR
 10
0.0
 20
1.0
 30
0.0
  9
$UCSORTHOREF
  2

  9
$UCSORTHOVIEW
 70
     0
  9
$UCSORGTOP
 10
0.0
 20
0.0
 30
0.0
  9
$UCSORGBOTTOM
 10
0.0
 20
0.0
 30
0.0
  9
$UCSORGLEFT
 10
0.0
 20
0.0
 30
0.0
  9
$UCSORGRIGHT
 10
0.0
 20
0.0
 30
0.0
  9
$UCSORGFRONT
 10
0.0
 20
0.0
 30
0.0
  9
$UCSORGBACK
 10
0.0
 20
0.0
 30
0.0
  9
$PUCSBASE
  2

  9
$PUCSNAME
  2

  9
$PUCSORG
 10
0.0
 20
0.0
 30
0.0
  9
$PUCSXDIR
 10
1.0
 20
0.0
 30
0.0
  9
$PUCSYDIR
 10
0.0
 20
1.0
 30
0.0
  9
$PUCSORTHOREF
  2

  9
$PUCSORTHOVIEW
 70
     0
  9
$PUCSORGTOP
 10
0.0
 20
0.0
 30
0.0
  9
$PUCSORGBOTTOM
 10
0.0
 20
0.0
 30
0.0
  9
$PUCSORGLEFT
 10
0.0
 20
0.0
 30
0.0
  9
$PUCSORGRIGHT
 10
0.0
 20
0.0
 30
0.0
  9
$PUCSORGFRONT
 10
0.0
 20
0.0
 30
0.0
  9
$PUCSORGBACK
 10
0.0
 20
0.0
 30
0.0
  9
$USERI1
 70
     0
  9
$USERI2
 70
     0
  9
$USERI3
 70
     0
  9
$USERI4
 70
     0
  9
$USERI5
 70
     0
  9
$USERR1
 40
13.2
  9
$USERR2
 40
0.0
  9
$USERR3
 40
0.0
  9
$USERR4
 40
0.0
  9
$USERR5
 40
0.0
  9
$WORLDVIEW
 70
     1
  9
$SHADEDGE
 70
     3
  9
$SHADEDIF
 70
    70
  9
$TILEMODE
 70
     1
  9
$MAXACTVP
 70
    64
  9
$PINSBASE
 10
0.0
 20
0.0
 30
0.0
  9
$PLIMCHECK
 70
     0
  9
$PEXTMIN
 10
1.00000000000000E+20
 20
1.00000000000000E+20
 30
1.00000000000000E+20
  9
$PEXTMAX
 10
-1.00000000000000E+20
 20
-1.00000000000000E+20
 30
-1.00000000000000E+20
  9
$PLIMMIN
 10
0.0
 20
0.0
  9
$PLIMMAX
 10
12.0
 20
9.0
  9
$UNITMODE
 70
     0
  9
$VISRETAIN
 70
     1
  9
$PLINEGEN
 70
     0
  9
$PSLTSCALE
 70
     1
  9
$TREEDEPTH
 70
  3020
  9
$CMLSTYLE
  2
Standard
  9
$CMLJUST
 70
     0
  9
$CMLSCALE
 40
1.0
  9
$PROXYGRAPHICS
 70
     1
  9
$MEASUREMENT
 70
     1
  9
$CELWEIGHT
370
    -1
  9
$ENDCAPS
280
     0
  9
$JOINSTYLE
280
     0
  9
$LWDISPLAY
290
     0
  9
$INSUNITS
 70
     1
  9
$HYPERLINKBASE
  1

  9
$STYLESHEET
  1

  9
$XEDIT
290
     1
  9
$CEPSNTYPE
380
     0
  9
$PSTYLEMODE
290
     0
  9
$FINGERPRINTGUID
  2
{FAEB1C30-E019-11D5-929B-00C0DF256EC4}
  9
$VERSIONGUID
  2
{FAEB1C32-E019-11D5-929B-00C0DF256EC4}
  9
$EXTNAMES
290
     1
  9
$PSVPSCALE
 40
0.0
  9
$OLESTARTUP
290
     0
  0
ENDSEC
  0
SECTION
  2
CLASSES
  0
CLASS
  1
ACDBDICTIONARYWDFLT
  2
AcDbDictionaryWithDefault
  3
ObjectDBX Classes
 90
        0
280
     0
281
     0
  0
CLASS
  1
TABLESTYLE
  2
AcDbTableStyle
  3
ObjectDBX Classes
 90
     2047
280
     0
281
     0
  0
CLASS
  1
DICTIONARYVAR
  2
AcDbDictionaryVar
  3
ObjectDBX Classes
 90
        0
280
     0
281
     0
  0
CLASS
  1

  2
exOdDbSpline
  3

 90
        0
280
     0
281
     1
  0
CLASS
  1

  2
exOdDbPolyline
  3

 90
        0
280
     0
281
     1
  0
CLASS
  1

  2
exOdDbCircle
  3

 90
        0
280
     0
281
     1
  0
CLASS
  1
ACDBPLACEHOLDER
  2
AcDbPlaceHolder
  3
ObjectDBX Classes
 90
        0
280
     0
281
     0
  0
CLASS
  1
LAYOUT
  2
AcDbLayout
  3
ObjectDBX Classes
 90
        0
280
     0
281
     0
  0
ENDSEC
  0
SECTION
  2
TABLES
  0
TABLE
  2
VPORT
  5
8
330
0
100
AcDbSymbolTable
 70
     2
  0
VPORT
  5
29
330
8
100
AcDbSymbolTableRecord
100
AcDbViewportTableRecord
  2
*Active
 70
     0
 10
0.0
 20
0.0
 11
1.0
 21
1.0
 12
105.0
 22
148.5
 13
0.0
 23
0.0
 14
0.5
 24
0.5
 15
0.5
 25
0.5
 16
0.0
 26
0.0
 36
1.0
 17
0.0
 27
0.0
 37
0.0
 40
326.7000000000001
 41
1.60267857142857
 42
50.0
 43
0.0
 44
0.0
 50
0.0
 51
0.0
 71
     0
 72
   100
 73
     1
 74
     3
 75
     0
 76
     0
 77
     0
 78
     0
281
     0
 65
     1
110
0.0
120
0.0
130
0.0
111
1.0
121
0.0
131
0.0
112
0.0
122
1.0
132
0.0
 79
     0
146
0.0
  0
ENDTAB
  0
TABLE
  2
LTYPE
  5
5
330
0
100
AcDbSymbolTable
 70
     8
  0
LTYPE
  5
14
330
5
100
AcDbSymbolTableRecord
100
AcDbLinetypeTableRecord
  2
ByBlock
 70
     0
  3

 72
    65
 73
     0
 40
0.0
  0
LTYPE
  5
15
330
5
100
AcDbSymbolTableRecord
100
AcDbLinetypeTableRecord
  2
ByLayer
 70
     0
  3

 72
    65
 73
     0
 40
0.0
  0
LTYPE
  5
16
330
5
100
AcDbSymbolTableRecord
100
AcDbLinetypeTableRecord
  2
Continuous
 70
     0
  3
Solid line
 72
    65
 73
     0
 40
0.0
  0
LTYPE
  5
2E
330
5
100
AcDbSymbolTableRecord
100
AcDbLinetypeTableRecord
  2
DASHED
 70
     0
  3
Dashed
 72
    65
 73
     2
 40
15.0
 49
7.0
 74
     0
 49
-8.0
 74
     0
  0
LTYPE
  5
2F
330
5
100
AcDbSymbolTableRecord
100
AcDbLinetypeTableRecord
  2
DOTTED
 70
     0
  3
Dotted
 72
    65
 73
     2
 40
1.0
 49
0.0
 74
     0
 49
-1.0
 74
     0
  0
LTYPE
  5
30
330
5
100
AcDbSymbolTableRecord
100
AcDbLinetypeTableRecord
  2
DOT_CENTER
 70
     0
  3
Dot_Center
 72
    65
 73
     4
 40
14.0
 49
12.0
 74
     0
 49
-1.0
 74
     0
 49
0.0
 74
     0
 49
-1.0
 74
     0
  0
LTYPE
  5
31
330
5
100
AcDbSymbolTableRecord
100
AcDbLinetypeTableRecord
  2
LONG_DASHED
 70
     0
  3
Long_Dashed
 72
    65
 73
     2
 40
15.0
 49
10.0
 74
     0
 49
-5.0
 74
     0
  0
LTYPE
  5
32
330
5
100
AcDbSymbolTableRecord
100
AcDbLinetypeTableRecord
  2
DASH_CENTER
 70
     0
  3
Dash_Center
 72
    65
 73
     4
 40
14.0
 49
11.0
 74
     0
 49
-1.0
 74
     0
 49
1.0
 74
     0
 49
-1.0
 74
     0
  0
LTYPE
  5
33
330
5
100
AcDbSymbolTableRecord
100
AcDbLinetypeTableRecord
  2
PHANTOM
 70
     0
  3
Phantom
 72
    65
 73
     6
 40
13.0
 49
10.0
 74
     0
 49
-1.0
 74
     0
 49
0.0
 74
     0
 49
-1.0
 74
     0
 49
0.0
 74
     0
 49
-1.0
 74
     0
  0
LTYPE
  5
34
330
5
100
AcDbSymbolTableRecord
100
AcDbLinetypeTableRecord
  2
CENTER_DASH_DASH
 70
     0
  3
Center_Dash_Dash
 72
    65
 73
     6
 40
14.0
 49
9.0
 74
     0
 49
-1.0
 74
     0
 49
1.0
 74
     0
 49
-1.0
 74
     0
 49
1.0
 74
     0
 49
-1.0
 74
     0
  0
ENDTAB
  0
TABLE
  2
LAYER
  5
2
330
0
100
AcDbSymbolTable
 70
     3
  0
LAYER
  5
10
330
2
100
AcDbSymbolTableRecord
100
AcDbLayerTableRecord
  2
0
 70
     0
 62
     7
  6
Continuous
370
    -3
390
F
  0
LAYER
  5
35
330
2
100
AcDbSymbolTableRecord
100
AcDbLayerTableRecord
  2
1
 70
     0
 62
     7
  6
Continuous
370
    -3
390
F
  0
LAYER
  5
36
330
2
100
AcDbSymbolTableRecord
100
AcDbLayerTableRecord
  2
OBJECT
 70
     0
 62
     7
  6
Continuous
370
    -3
390
F
  0
ENDTAB
  0
TABLE
  2
STYLE
  5
3
330
0
100
AcDbSymbolTable
 70
     3
  0
STYLE
  5
11
330
3
100
AcDbSymbolTableRecord
100
AcDbTextStyleTableRecord
  2
Standard
 70
     0
 40
0.0
 41
1.0
 50
0.0
 71
     0
 42
0.2
  3
txt
  4

  0
STYLE
  5
3C2
330
3
100
AcDbSymbolTableRecord
100
AcDbTextStyleTableRecord
  2
CONVERTER_1
 70
     0
 40
0.0
 41
0.89
 50
0.0
 71
     0
 42
0.2
  3
msmincho.ttc
  4

1001
ACAD
1000
MS Mincho
1071
    32785
  0
STYLE
  5
3C5
330
3
100
AcDbSymbolTableRecord
100
AcDbTextStyleTableRecord
  2
CONVERTER_2
 70
     0
 40
0.0
 41
0.9
 50
0.0
 71
     0
 42
0.2
  3
txt.shx
  4

  0
ENDTAB
  0
TABLE
  2
VIEW
  5
6
330
0
100
AcDbSymbolTable
 70
     0
  0
ENDTAB
  0
TABLE
  2
UCS
  5
7
330
0
100
AcDbSymbolTable
 70
     0
  0
ENDTAB
  0
TABLE
  2
APPID
  5
9
330
0
100
AcDbSymbolTable
 70
     1
  0
APPID
  5
12
330
9
100
AcDbSymbolTableRecord
100
AcDbRegAppTableRecord
  2
ACAD
 70
     0
  0
ENDTAB
  0
TABLE
  2
DIMSTYLE
  5
A
330
0
100
AcDbSymbolTable
 70
    16
100
AcDbDimStyleTable
  0
DIMSTYLE
105
27
330
A
100
AcDbSymbolTableRecord
100
AcDbDimStyleTableRecord
  2
Standard
 70
     0
340
11
  0
DIMSTYLE
105
3D4
102
{ACAD_REACTORS
330
3D5
102
}
330
A
100
AcDbSymbolTableRecord
100
AcDbDimStyleTableRecord
  2
ME10_DIM_0
 70
     0
  3
取付寸法<>
 41
17.5
 42
0.0
 44
5.0
 73
     0
 74
     0
 77
     1
 78
     8
140
17.5
147
0.625
172
     1
173
     1
176
     2
177
     2
178
     7
271
     2
340
3C2
  0
DIMSTYLE
105
3DF
102
{ACAD_REACTORS
330
3E0
102
}
330
A
100
AcDbSymbolTableRecord
100
AcDbDimStyleTableRecord
  2
ME10_DIM_1
 70
     0
 41
17.5
 42
0.0
 44
5.0
 73
     0
 74
     0
 77
     1
 78
     8
140
17.5
147
0.625
172
     1
173
     1
176
     2
177
     2
178
     7
271
     2
340
3C5
  0
DIMSTYLE
105
3EC
102
{ACAD_REACTORS
330
3ED
102
}
330
A
100
AcDbSymbolTableRecord
100
AcDbDimStyleTableRecord
  2
ME10_DIM_2
 70
     0
 41
17.5
 42
0.0
 44
5.0
 73
     0
 74
     0
 77
     1
 78
     8
140
17.5
147
0.625
172
     1
173
     1
176
     2
177
     2
178
     7
271
     2
340
3C5
  0
DIMSTYLE
105
3F7
102
{ACAD_REACTORS
330
3F8
102
}
330
A
100
AcDbSymbolTableRecord
100
AcDbDimStyleTableRecord
  2
ME10_DIM_3
 70
     0
 41
17.5
 42
0.0
 44
5.0
 73
     0
 74
     0
 77
     1
 78
     8
140
17.5
147
0.625
172
     1
173
     1
176
     2
177
     2
178
     7
271
     2
340
3C5
  0
DIMSTYLE
105
404
102
{ACAD_REACTORS
330
405
102
}
330
A
100
AcDbSymbolTableRecord
100
AcDbDimStyleTableRecord
  2
ME10_DIM_4
 70
     0
  3
17～<>
 41
17.5
 42
0.0
 44
5.0
 73
     0
 74
     0
 77
     1
 78
     8
140
17.5
147
0.625
172
     1
173
     1
176
     2
177
     2
178
     7
271
     2
340
3C2
  0
DIMSTYLE
105
40F
102
{ACAD_REACTORS
330
410
102
}
330
A
100
AcDbSymbolTableRecord
100
AcDbDimStyleTableRecord
  2
ME10_DIM_5
 70
     0
 41
17.5
 42
0.0
 44
5.0
 73
     0
 74
     0
 77
     1
 78
     8
140
17.5
147
0.625
172
     1
173
     1
176
     2
177
     2
178
     7
271
     2
340
3C5
  0
DIMSTYLE
105
41A
102
{ACAD_REACTORS
330
41B
102
}
330
A
100
AcDbSymbolTableRecord
100
AcDbDimStyleTableRecord
  2
ME10_DIM_6
 70
     0
 41
17.5
 42
0.0
 44
5.0
 73
     0
 74
     0
 77
     1
 78
     8
140
17.5
147
0.625
172
     1
173
     1
176
     2
177
     2
178
     7
271
     2
340
3C5
  0
DIMSTYLE
105
425
102
{ACAD_REACTORS
330
426
102
}
330
A
100
AcDbSymbolTableRecord
100
AcDbDimStyleTableRecord
  2
ME10_DIM_7
 70
     0
 41
17.5
 42
0.0
 44
5.0
 73
     0
 74
     0
 77
     1
 78
     8
140
17.5
147
0.625
172
     1
173
     1
176
     2
177
     2
178
     7
271
     2
340
3C5
  0
DIMSTYLE
105
430
102
{ACAD_REACTORS
330
431
102
}
330
A
100
AcDbSymbolTableRecord
100
AcDbDimStyleTableRecord
  2
ME10_DIM_8
 70
     0
 41
17.5
 42
0.0
 44
5.0
 73
     0
 74
     0
 77
     1
 78
     8
140
17.5
147
0.625
172
     1
173
     1
176
     2
177
     2
178
     7
271
     2
340
3C5
  0
DIMSTYLE
105
43D
102
{ACAD_REACTORS
330
43E
102
}
330
A
100
AcDbSymbolTableRecord
100
AcDbDimStyleTableRecord
  2
ME10_DIM_9
 70
     0
  3
～28
 41
17.5
 42
0.0
 44
5.0
 73
     0
 74
     0
 77
     1
 78
     8
140
17.5
147
0.625
172
     1
173
     1
176
     2
177
     2
178
     7
271
     2
340
3C2
  0
DIMSTYLE
105
448
102
{ACAD_REACTORS
330
449
102
}
330
A
100
AcDbSymbolTableRecord
100
AcDbDimStyleTableRecord
  2
ME10_DIM_10
 70
     0
 41
17.5
 42
0.0
 44
5.0
 73
     0
 74
     0
 77
     1
 78
     8
140
17.5
147
0.625
172
     1
173
     1
176
     2
177
     2
178
     7
271
     2
340
3C5
  0
DIMSTYLE
105
453
102
{ACAD_REACTORS
330
454
102
}
330
A
100
AcDbSymbolTableRecord
100
AcDbDimStyleTableRecord
  2
ME10_DIM_11
 70
     0
 41
17.5
 42
0.0
 44
5.0
 73
     0
 74
     0
 77
     1
 78
     8
140
17.5
147
0.625
172
     1
173
     1
176
     2
177
     2
178
     7
271
     2
340
3C5
  0
DIMSTYLE
105
45E
102
{ACAD_REACTORS
330
45F
102
}
330
A
100
AcDbSymbolTableRecord
100
AcDbDimStyleTableRecord
  2
ME10_DIM_12
 70
     0
 41
17.5
 42
0.0
 44
5.0
 73
     0
 74
     0
 77
     1
 78
     8
140
17.5
147
0.625
172
     1
173
     1
176
     2
177
     2
178
     7
271
     2
340
3C5
  0
DIMSTYLE
105
46B
102
{ACAD_REACTORS
330
46C
102
}
330
A
100
AcDbSymbolTableRecord
100
AcDbDimStyleTableRecord
  2
ME10_DIM_13
 70
     0
 41
17.5
 42
0.0
 44
5.0
 73
     0
 74
     0
 77
     1
 78
     8
140
17.5
147
0.625
172
     1
173
     1
176
     2
177
     2
178
     7
271
     2
340
3C5
  0
DIMSTYLE
105
478
102
{ACAD_REACTORS
330
479
102
}
330
A
100
AcDbSymbolTableRecord
100
AcDbDimStyleTableRecord
  2
ME10_DIM_14
 70
     0
 41
17.5
 42
0.0
 44
5.0
 73
     0
 74
     0
 77
     1
 78
     8
140
17.5
147
0.625
172
     1
173
     1
176
     2
177
     2
178
     7
271
     2
340
3C5
  0
ENDTAB
  0
TABLE
  2
BLOCK_RECORD
  5
1
330
0
100
AcDbSymbolTable
 70
    76
  0
BLOCK_RECORD
  5
1F
330
1
100
AcDbSymbolTableRecord
100
AcDbBlockTableRecord
  2
*Model_Space
340
22
  0
BLOCK_RECORD
  5
1B
330
1
100
AcDbSymbolTableRecord
100
AcDbBlockTableRecord
  2
*Paper_Space
340
1E
  0
BLOCK_RECORD
  5
23
330
1
100
AcDbSymbolTableRecord
100
AcDbBlockTableRecord
  2
*Paper_Space0
340
26
  0
BLOCK_RECORD
  5
37
330
1
100
AcDbSymbolTableRecord
100
AcDbBlockTableRecord
  2
SK2890-0-M1__1
340
0
102
{BLKREFS
331
FD
102
}
  0
BLOCK_RECORD
  5
3A
330
1
100
AcDbSymbolTableRecord
100
AcDbBlockTableRecord
  2
88-553-M21__2
340
0
102
{BLKREFS
331
FE
102
}
  0
BLOCK_RECORD
  5
3D
330
1
100
AcDbSymbolTableRecord
100
AcDbBlockTableRecord
  2
88-553-M21__3
340
0
102
{BLKREFS
331
FF
102
}
  0
BLOCK_RECORD
  5
40
330
1
100
AcDbSymbolTableRecord
100
AcDbBlockTableRecord
  2
81-163__4
340
0
102
{BLKREFS
331
47
102
}
  0
BLOCK_RECORD
  5
43
330
1
100
AcDbSymbolTableRecord
100
AcDbBlockTableRecord
  2
84-362__5
340
0
102
{BLKREFS
331
48
102
}
  0
BLOCK_RECORD
  5
46
330
1
100
AcDbSymbolTableRecord
100
AcDbBlockTableRecord
  2
81-163X__6
340
0
102
{BLKREFS
331
100
102
}
  0
BLOCK_RECORD
  5
4B
330
1
100
AcDbSymbolTableRecord
100
AcDbBlockTableRecord
  2
81-162__7
340
0
102
{BLKREFS
331
101
102
}
  0
BLOCK_RECORD
  5
4E
330
1
100
AcDbSymbolTableRecord
100
AcDbBlockTableRecord
  2
81-162__8
340
0
102
{BLKREFS
331
102
102
}
  0
BLOCK_RECORD
  5
51
330
1
100
AcDbSymbolTableRecord
100
AcDbBlockTableRecord
  2
06-95-C2__9
340
0
102
{BLKREFS
331
103
102
}
  0
BLOCK_RECORD
  5
54
330
1
100
AcDbSymbolTableRecord
100
AcDbBlockTableRecord
  2
81-163__10
340
0
102
{BLKREFS
331
5B
102
}
  0
BLOCK_RECORD
  5
57
330
1
100
AcDbSymbolTableRecord
100
AcDbBlockTableRecord
  2
84-362__11
340
0
102
{BLKREFS
331
5C
102
}
  0
BLOCK_RECORD
  5
5A
330
1
100
AcDbSymbolTableRecord
100
AcDbBlockTableRecord
  2
81-163X__12
340
0
102
{BLKREFS
331
104
102
}
  0
BLOCK_RECORD
  5
5F
330
1
100
AcDbSymbolTableRecord
100
AcDbBlockTableRecord
  2
88-552__13
340
0
102
{BLKREFS
331
105
102
}
  0
BLOCK_RECORD
  5
62
330
1
100
AcDbSymbolTableRecord
100
AcDbBlockTableRecord
  2
06-95-C2__14
340
0
102
{BLKREFS
331
66
102
}
  0
BLOCK_RECORD
  5
65
330
1
100
AcDbSymbolTableRecord
100
AcDbBlockTableRecord
  2
30-289X__15
340
0
102
{BLKREFS
331
106
102
}
  0
BLOCK_RECORD
  5
69
330
1
100
AcDbSymbolTableRecord
100
AcDbBlockTableRecord
  2
88-489__16
340
0
102
{BLKREFS
331
107
102
}
  0
BLOCK_RECORD
  5
6C
330
1
100
AcDbSymbolTableRecord
100
AcDbBlockTableRecord
  2
98-203__17
340
0
102
{BLKREFS
331
108
102
}
  0
BLOCK_RECORD
  5
6F
330
1
100
AcDbSymbolTableRecord
100
AcDbBlockTableRecord
  2
76-106-C4__18
340
0
102
{BLKREFS
331
109
102
}
  0
BLOCK_RECORD
  5
72
330
1
100
AcDbSymbolTableRecord
100
AcDbBlockTableRecord
  2
06-95-C2__19
340
0
102
{BLKREFS
331
76
102
}
  0
BLOCK_RECORD
  5
75
330
1
100
AcDbSymbolTableRecord
100
AcDbBlockTableRecord
  2
30-289X__20
340
0
102
{BLKREFS
331
10A
102
}
  0
BLOCK_RECORD
  5
79
330
1
100
AcDbSymbolTableRecord
100
AcDbBlockTableRecord
  2
76-106-C4__21
340
0
102
{BLKREFS
331
10B
102
}
  0
BLOCK_RECORD
  5
7C
330
1
100
AcDbSymbolTableRecord
100
AcDbBlockTableRecord
  2
76-106-C4__22
340
0
102
{BLKREFS
331
10C
102
}
  0
BLOCK_RECORD
  5
7F
330
1
100
AcDbSymbolTableRecord
100
AcDbBlockTableRecord
  2
84-353-D
340
0
102
{BLKREFS
331
86
102
}
  0
BLOCK_RECORD
  5
82
330
1
100
AcDbSymbolTableRecord
100
AcDbBlockTableRecord
  2
88-530-M21__23
340
0
102
{BLKREFS
331
87
102
}
  0
BLOCK_RECORD
  5
85
330
1
100
AcDbSymbolTableRecord
100
AcDbBlockTableRecord
  2
S369-80X
340
0
102
{BLKREFS
331
10D
102
}
  0
BLOCK_RECORD
  5
8A
330
1
100
AcDbSymbolTableRecord
100
AcDbBlockTableRecord
  2
88-530-M21__24
340
0
102
{BLKREFS
331
10E
102
}
  0
BLOCK_RECORD
  5
8D
330
1
100
AcDbSymbolTableRecord
100
AcDbBlockTableRecord
  2
88-552__25
340
0
102
{BLKREFS
331
10F
102
}
  0
BLOCK_RECORD
  5
90
330
1
100
AcDbSymbolTableRecord
100
AcDbBlockTableRecord
  2
88-489__26
340
0
102
{BLKREFS
331
110
102
}
  0
BLOCK_RECORD
  5
93
330
1
100
AcDbSymbolTableRecord
100
AcDbBlockTableRecord
  2
32-115
340
0
102
{BLKREFS
331
111
102
}
  0
BLOCK_RECORD
  5
96
330
1
100
AcDbSymbolTableRecord
100
AcDbBlockTableRecord
  2
34-117__27
340
0
102
{BLKREFS
331
9D
102
}
  0
BLOCK_RECORD
  5
99
330
1
100
AcDbSymbolTableRecord
100
AcDbBlockTableRecord
  2
86-2B__28
340
0
102
{BLKREFS
331
9E
102
}
  0
BLOCK_RECORD
  5
9C
330
1
100
AcDbSymbolTableRecord
100
AcDbBlockTableRecord
  2
S30-86BTX__29
340
0
102
{BLKREFS
331
112
102
}
  0
BLOCK_RECORD
  5
A1
330
1
100
AcDbSymbolTableRecord
100
AcDbBlockTableRecord
  2
34-117__30
340
0
102
{BLKREFS
331
A8
102
}
  0
BLOCK_RECORD
  5
A4
330
1
100
AcDbSymbolTableRecord
100
AcDbBlockTableRecord
  2
86-2B__31
340
0
102
{BLKREFS
331
A9
102
}
  0
BLOCK_RECORD
  5
A7
330
1
100
AcDbSymbolTableRecord
100
AcDbBlockTableRecord
  2
S30-86BTX__32
340
0
102
{BLKREFS
331
113
102
}
  0
BLOCK_RECORD
  5
AC
330
1
100
AcDbSymbolTableRecord
100
AcDbBlockTableRecord
  2
35-309-M11__33
340
0
102
{BLKREFS
331
114
102
}
  0
BLOCK_RECORD
  5
AF
330
1
100
AcDbSymbolTableRecord
100
AcDbBlockTableRecord
  2
35-309-M11__34
340
0
102
{BLKREFS
331
115
102
}
  0
BLOCK_RECORD
  5
B2
330
1
100
AcDbSymbolTableRecord
100
AcDbBlockTableRecord
  2
14-48__35
340
0
102
{BLKREFS
331
116
102
}
  0
BLOCK_RECORD
  5
B5
330
1
100
AcDbSymbolTableRecord
100
AcDbBlockTableRecord
  2
32-155
340
0
102
{BLKREFS
331
BC
102
}
  0
BLOCK_RECORD
  5
B8
330
1
100
AcDbSymbolTableRecord
100
AcDbBlockTableRecord
  2
86-2A
340
0
102
{BLKREFS
331
BD
102
}
  0
BLOCK_RECORD
  5
BB
330
1
100
AcDbSymbolTableRecord
100
AcDbBlockTableRecord
  2
S30-86BTX__36
340
0
102
{BLKREFS
331
117
102
}
  0
BLOCK_RECORD
  5
C0
330
1
100
AcDbSymbolTableRecord
100
AcDbBlockTableRecord
  2
14-48__37
340
0
102
{BLKREFS
331
118
102
}
  0
BLOCK_RECORD
  5
C3
330
1
100
AcDbSymbolTableRecord
100
AcDbBlockTableRecord
  2
SK2890-0-M1__38
340
0
102
{BLKREFS
331
119
102
}
  0
BLOCK_RECORD
  5
C6
330
1
100
AcDbSymbolTableRecord
100
AcDbBlockTableRecord
  2
98-203__39
340
0
102
{BLKREFS
331
11A
102
}
  0
BLOCK_RECORD
  5
C9
330
1
100
AcDbSymbolTableRecord
100
AcDbBlockTableRecord
  2
81-162-M21
340
0
102
{BLKREFS
331
11B
102
}
  0
BLOCK_RECORD
  5
CC
330
1
100
AcDbSymbolTableRecord
100
AcDbBlockTableRecord
  2
72-33__40
340
0
102
{BLKREFS
331
D6
102
}
  0
BLOCK_RECORD
  5
CF
330
1
100
AcDbSymbolTableRecord
100
AcDbBlockTableRecord
  2
85-124__41
340
0
102
{BLKREFS
331
D7
102
}
  0
BLOCK_RECORD
  5
D2
330
1
100
AcDbSymbolTableRecord
100
AcDbBlockTableRecord
  2
72-33__42
340
0
102
{BLKREFS
331
D8
102
}
  0
BLOCK_RECORD
  5
D5
330
1
100
AcDbSymbolTableRecord
100
AcDbBlockTableRecord
  2
S32-85__43
340
0
102
{BLKREFS
331
11C
102
}
  0
BLOCK_RECORD
  5
DB
330
1
100
AcDbSymbolTableRecord
100
AcDbBlockTableRecord
  2
72-33__44
340
0
102
{BLKREFS
331
E5
102
}
  0
BLOCK_RECORD
  5
DE
330
1
100
AcDbSymbolTableRecord
100
AcDbBlockTableRecord
  2
72-33__45
340
0
102
{BLKREFS
331
E6
102
}
  0
BLOCK_RECORD
  5
E1
330
1
100
AcDbSymbolTableRecord
100
AcDbBlockTableRecord
  2
85-124__46
340
0
102
{BLKREFS
331
E7
102
}
  0
BLOCK_RECORD
  5
E4
330
1
100
AcDbSymbolTableRecord
100
AcDbBlockTableRecord
  2
S32-85__47
340
0
102
{BLKREFS
331
11D
102
}
  0
BLOCK_RECORD
  5
EA
330
1
100
AcDbSymbolTableRecord
100
AcDbBlockTableRecord
  2
98-145
340
0
102
{BLKREFS
331
F1
102
}
  0
BLOCK_RECORD
  5
ED
330
1
100
AcDbSymbolTableRecord
100
AcDbBlockTableRecord
  2
85-124__48
340
0
102
{BLKREFS
331
F2
102
}
  0
BLOCK_RECORD
  5
F0
330
1
100
AcDbSymbolTableRecord
100
AcDbBlockTableRecord
  2
S32-85__49
340
0
102
{BLKREFS
331
11E
102
}
  0
BLOCK_RECORD
  5
F5
330
1
100
AcDbSymbolTableRecord
100
AcDbBlockTableRecord
  2
85-124__50
340
0
102
{BLKREFS
331
F9
102
}
  0
BLOCK_RECORD
  5
F8
330
1
100
AcDbSymbolTableRecord
100
AcDbBlockTableRecord
  2
S32-85__51
340
0
102
{BLKREFS
331
11F
102
}
  0
BLOCK_RECORD
  5
FC
330
1
100
AcDbSymbolTableRecord
100
AcDbBlockTableRecord
  2
_k____
340
0
102
{BLKREFS
331
125
102
}
  0
BLOCK_RECORD
  5
122
330
1
100
AcDbSymbolTableRecord
100
AcDbBlockTableRecord
  2
_J__A4
340
0
102
{BLKREFS
331
126
102
}
  0
BLOCK_RECORD
  5
3CB
330
1
100
AcDbSymbolTableRecord
100
AcDbBlockTableRecord
  2
*D061
340
0
  0
BLOCK_RECORD
  5
3D6
330
1
100
AcDbSymbolTableRecord
100
AcDbBlockTableRecord
  2
*D162
340
0
  0
BLOCK_RECORD
  5
3E1
330
1
100
AcDbSymbolTableRecord
100
AcDbBlockTableRecord
  2
*D263
340
0
  0
BLOCK_RECORD
  5
3EE
330
1
100
AcDbSymbolTableRecord
100
AcDbBlockTableRecord
  2
*D364
340
0
  0
BLOCK_RECORD
  5
3F9
330
1
100
AcDbSymbolTableRecord
100
AcDbBlockTableRecord
  2
*D465
340
0
  0
BLOCK_RECORD
  5
406
330
1
100
AcDbSymbolTableRecord
100
AcDbBlockTableRecord
  2
*D566
340
0
  0
BLOCK_RECORD
  5
411
330
1
100
AcDbSymbolTableRecord
100
AcDbBlockTableRecord
  2
*D667
340
0
  0
BLOCK_RECORD
  5
41C
330
1
100
AcDbSymbolTableRecord
100
AcDbBlockTableRecord
  2
*D768
340
0
  0
BLOCK_RECORD
  5
427
330
1
100
AcDbSymbolTableRecord
100
AcDbBlockTableRecord
  2
*D869
340
0
  0
BLOCK_RECORD
  5
432
330
1
100
AcDbSymbolTableRecord
100
AcDbBlockTableRecord
  2
*D970
340
0
  0
BLOCK_RECORD
  5
43F
330
1
100
AcDbSymbolTableRecord
100
AcDbBlockTableRecord
  2
*D1071
340
0
  0
BLOCK_RECORD
  5
44A
330
1
100
AcDbSymbolTableRecord
100
AcDbBlockTableRecord
  2
*D1172
340
0
  0
BLOCK_RECORD
  5
455
330
1
100
AcDbSymbolTableRecord
100
AcDbBlockTableRecord
  2
*D1273
340
0
  0
BLOCK_RECORD
  5
460
330
1
100
AcDbSymbolTableRecord
100
AcDbBlockTableRecord
  2
*D1374
340
0
  0
BLOCK_RECORD
  5
46D
330
1
100
AcDbSymbolTableRecord
100
AcDbBlockTableRecord
  2
*D1475
340
0
  0
ENDTAB
  0
ENDSEC
  0
SECTION
  2
BLOCKS
  0
BLOCK
  5
20
330
1F
100
AcDbEntity
  8
0
100
AcDbBlockBegin
  2
*Model_Space
 70
     0
 71
     0
 10
0.0
 20
0.0
 30
0.0
  3
*Model_Space
  1

  0
ENDBLK
  5
21
330
1F
100
AcDbEntity
  8
0
100
AcDbBlockEnd
  0
BLOCK
  5
1C
330
1B
100
AcDbEntity
 67
     1
  8
0
100
AcDbBlockBegin
  2
*Paper_Space
 70
     0
 71
     0
 10
0.0
 20
0.0
 30
0.0
  3
*Paper_Space
  1

  0
ENDBLK
  5
1D
330
1B
100
AcDbEntity
 67
     1
  8
0
100
AcDbBlockEnd
  0
BLOCK
  5
24
330
23
100
AcDbEntity
  8
0
100
AcDbBlockBegin
  2
*Paper_Space0
 70
     0
 71
     0
 10
0.0
 20
0.0
 30
0.0
  3
*Paper_Space0
  1

  0
ENDBLK
  5
25
330
23
100
AcDbEntity
  8
0
100
AcDbBlockEnd
  0
BLOCK
  5
38
330
37
100
AcDbEntity
  8
0
100
AcDbBlockBegin
  2
SK2890-0-M1__1
 70
     0
 71
     0
 10
-2625.122580645162
 20
-271.0962629501751
 30
0.0
  3
SK2890-0-M1__1
  1

  0
LINE
  5
127
330
37
100
AcDbEntity
  8
1
  6
Continuous
 62
     7
100
AcDbLine
 10
-2531.722763127537
 20
-211.596262950175
 30
0.0
 11
-2496.522398162788
 21
-211.596262950175
 31
0.0
  0
LINE
  5
128
330
37
100
AcDbEntity
  8
1
  6
Continuous
 62
     7
100
AcDbLine
 10
-2559.122580645163
 20
-195.0962629502029
 30
0.0
 11
-2582.122580645161
 21
-195.0962629502029
 31
0.0
  0
LINE
  5
129
330
37
100
AcDbEntity
  8
1
  6
Continuous
 62
     7
100
AcDbLine
 10
-2469.122580645163
 20
-195.0962629502024
 30
0.0
 11
-2446.122580645164
 21
-195.0962629502024
 31
0.0
  0
LINE
  5
12A
330
37
100
AcDbEntity
  8
1
  6
Continuous
 62
     7
100
AcDbLine
 10
-2442.622580645162
 20
-199.096262950175
 30
0.0
 11
-2442.622580645162
 21
-193.9051228983806
 31
0.0
  0
LINE
  5
12B
330
37
100
AcDbEntity
  8
1
  6
Continuous
 62
     7
100
AcDbLine
 10
-2585.622580645162
 20
-199.0962629501752
 30
0.0
 11
-2585.622580645162
 21
-193.9051228983806
 31
0.0
  0
LINE
  5
12C
330
37
100
AcDbEntity
  8
1
  6
Continuous
 62
     7
100
AcDbLine
 10
-2584.122580645162
 20
-199.096262950175
 30
0.0
 11
-2585.622580645162
 21
-199.0962629501752
 31
0.0
  0
LINE
  5
12D
330
37
100
AcDbEntity
  8
1
  6
Continuous
 62
     7
100
AcDbLine
 10
-2442.622580645162
 20
-199.096262950175
 30
0.0
 11
-2444.122580645162
 21
-199.0962629501748
 31
0.0
  0
LINE
  5
12E
330
37
100
AcDbEntity
  8
1
  6
Continuous
 62
     7
100
AcDbLine
 10
-2582.799704989599
 20
-199.5962629502024
 30
0.0
 11
-2582.322580645162
 21
-199.5962629502024
 31
0.0
  0
LINE
  5
12F
330
37
100
AcDbEntity
  8
1
  6
Continuous
 62
     7
100
AcDbLine
 10
-2582.122580645161
 20
-193.9051228983806
 30
0.0
 11
-2582.122580645161
 21
-195.4962629502005
 31
0.0
  0
LINE
  5
130
330
37
100
AcDbEntity
  8
1
  6
Continuous
 62
     7
100
AcDbLine
 10
-2445.922580645162
 20
-199.5962629502037
 30
0.0
 11
-2445.445456300727
 21
-199.5962629502038
 31
0.0
  0
LINE
  5
131
330
37
100
AcDbEntity
  8
1
  6
Continuous
 62
     7
100
AcDbLine
 10
-2446.122580645162
 20
-195.4962629502018
 30
0.0
 11
-2446.122580645162
 21
-193.9051228983806
 31
0.0
  0
ARC
  5
132
330
37
100
AcDbEntity
  8
1
  6
Continuous
 62
     7
100
AcDbCircle
 10
-2469.122580645162
 20
-216.0962629502023
 30
0.0
 40
20.99999999999989
100
AcDbArc
 50
90.00000000000249
 51
152.1121797622144
  0
ARC
  5
133
330
37
100
AcDbEntity
  8
1
  6
Continuous
 62
     7
100
AcDbCircle
 10
-2559.122580645162
 20
-216.0962629502025
 30
0.0
 40
20.99999999999966
100
AcDbArc
 50
27.88782023778547
 51
90.00000000000249
  0
ARC
  5
134
330
37
100
AcDbEntity
  8
1
  6
Continuous
 62
     7
100
AcDbCircle
 10
-2496.522398162788
 20
-201.596262950175
 30
0.0
 40
10.0
100
AcDbArc
 50
-90.0
 51
-27.88782023778352
  0
ARC
  5
135
330
37
100
AcDbEntity
  8
1
  6
Continuous
 62
     7
100
AcDbCircle
 10
-2531.722763127537
 20
-201.596262950175
 30
0.0
 40
9.999999999999709
100
AcDbArc
 50
-152.1121797622141
 51
-90.0
  0
ARC
  5
136
330
37
100
AcDbEntity
  8
1
  6
Continuous
 62
     7
100
AcDbCircle
 10
-2444.122580645162
 20
-201.0962629501748
 30
0.0
 40
2.0
100
AcDbArc
 50
90.0
 51
131.4096221105226
  0
ARC
  5
137
330
37
100
AcDbEntity
  8
1
  6
Continuous
 62
     7
100
AcDbCircle
 10
-2584.122580645162
 20
-201.096262950175
 30
0.0
 40
1.99999999999987
100
AcDbArc
 50
48.59037788954668
 51
90.0
  0
ENDBLK
  5
39
330
37
100
AcDbEntity
  8
0
100
AcDbBlockEnd
  0
BLOCK
  5
3B
330
3A
100
AcDbEntity
  8
0
100
AcDbBlockBegin
  2
88-553-M21__2
 70
     0
 71
     0
 10
-1002.0
 20
-429.0963032727752
 30
0.0
  3
88-553-M21__2
  1

  0
LINE
  5
138
330
3A
100
AcDbEntity
  8
1
  6
Continuous
 62
     7
100
AcDbLine
 10
-1290.2
 20
-775.8963032728017
 30
0.0
 11
-1290.2
 21
-818.5963032727748
 31
0.0
  0
LINE
  5
139
330
3A
100
AcDbEntity
  8
1
  6
Continuous
 62
     7
100
AcDbLine
 10
-1239.781440155658
 20
-791.896303272802
 30
0.0
 11
-1204.218559844342
 21
-791.896303272802
 31
0.0
  0
LINE
  5
13A
330
3A
100
AcDbEntity
  8
1
  6
Continuous
 62
     7
100
AcDbLine
 10
-1289.7
 20
-819.0963032727748
 30
0.0
 11
-1154.3
 21
-819.0963032727748
 31
0.0
  0
LINE
  5
13B
330
3A
100
AcDbEntity
  8
1
  6
Continuous
 62
     7
100
AcDbLine
 10
-1153.8
 20
-818.5963032727748
 30
0.0
 11
-1153.8
 21
-775.8963032728017
 31
0.0
  0
LINE
  5
13C
330
3A
100
AcDbEntity
  8
1
  6
Continuous
 62
     7
100
AcDbLine
 10
-1154.3
 20
-775.3963032728017
 30
0.0
 11
-1177.0
 21
-775.3963032728017
 31
0.0
  0
LINE
  5
13D
330
3A
100
AcDbEntity
  8
1
  6
Continuous
 62
     7
100
AcDbLine
 10
-1267.0
 20
-775.3963032728017
 30
0.0
 11
-1289.7
 21
-775.3963032728017
 31
0.0
  0
ARC
  5
13E
330
3A
100
AcDbEntity
  8
1
  6
Continuous
 62
     7
100
AcDbCircle
 10
-1267.0
 20
-796.0963032728023
 30
0.0
 40
20.70000000000064
100
AcDbArc
 50
27.55117721061864
 51
90.0
  0
ARC
  5
13F
330
3A
100
AcDbEntity
  8
1
  6
Continuous
 62
     7
100
AcDbCircle
 10
-1176.999999999999
 20
-796.0963032728023
 30
0.0
 40
20.70000000000061
100
AcDbArc
 50
90.00000000000252
 51
152.4488227893826
  0
ARC
  5
140
330
3A
100
AcDbEntity
  8
1
  6
Continuous
 62
     7
100
AcDbCircle
 10
-1154.3
 20
-818.5963032727748
 30
0.0
 40
0.5
100
AcDbArc
 50
-90.0
 51
0.0
  0
ARC
  5
141
330
3A
100
AcDbEntity
  8
1
  6
Continuous
 62
     7
100
AcDbCircle
 10
-1289.7
 20
-818.5963032727748
 30
0.0
 40
0.5
100
AcDbArc
 50
180.0
 51
-90.0
  0
ARC
  5
142
330
3A
100
AcDbEntity
  8
1
  6
Continuous
 62
     7
100
AcDbCircle
 10
-1204.218559844342
 20
-781.896303272802
 30
0.0
 40
10.0
100
AcDbArc
 50
-90.0
 51
-27.55117721061855
  0
ARC
  5
143
330
3A
100
AcDbEntity
  8
1
  6
Continuous
 62
     7
100
AcDbCircle
 10
-1239.781440155658
 20
-781.896303272802
 30
0.0
 40
9.999999999999966
100
AcDbArc
 50
-152.4488227893815
 51
-90.0
  0
ARC
  5
144
330
3A
100
AcDbEntity
  8
1
  6
Continuous
 62
     7
100
AcDbCircle
 10
-1154.3
 20
-775.8963032728017
 30
0.0
 40
0.5
100
AcDbArc
 50
0.0
 51
90.0
  0
ARC
  5
145
330
3A
100
AcDbEntity
  8
1
  6
Continuous
 62
     7
100
AcDbCircle
 10
-1289.7
 20
-775.8963032728017
 30
0.0
 40
0.5
100
AcDbArc
 50
90.0
 51
180.0
  0
ENDBLK
  5
3C
330
3A
100
AcDbEntity
  8
0
100
AcDbBlockEnd
  0
BLOCK
  5
3E
330
3D
100
AcDbEntity
  8
0
100
AcDbBlockBegin
  2
88-553-M21__3
 70
     0
 71
     0
 10
-833.4999999999986
 20
-989.0963032727764
 30
0.0
  3
88-553-M21__3
  1

  0
LINE
  5
146
330
3D
100
AcDbEntity
  8
1
  6
Continuous
 62
     7
100
AcDbLine
 10
-741.4999999999986
 20
-780.6963032728297
 30
0.0
 11
-741.4999999999986
 21
-780.0963032727758
 31
0.0
  0
LINE
  5
147
330
3D
100
AcDbEntity
  8
1
  6
Continuous
 62
     7
100
AcDbLine
 10
-736.0020008005336
 20
-780.6963032728297
 30
0.0
 11
-741.4999999999986
 21
-780.6963032728297
 31
0.0
  0
LINE
  5
148
330
3D
100
AcDbEntity
  8
1
  6
Continuous
 62
     7
100
AcDbLine
 10
-769.4999999999986
 20
-780.0963032727758
 30
0.0
 11
-741.4999999999986
 21
-780.0963032727758
 31
0.0
  0
LINE
  5
149
330
3D
100
AcDbEntity
  8
1
  6
Continuous
 62
     7
100
AcDbLine
 10
-732.9999999999986
 20
-819.0963032727759
 30
0.0
 11
-761.4999999999986
 21
-819.0963032727759
 31
0.0
  0
LINE
  5
14A
330
3D
100
AcDbEntity
  8
1
  6
Continuous
 62
     7
100
AcDbLine
 10
-732.9999999999986
 20
-819.0963032727759
 30
0.0
 11
-732.9999999999986
 21
-785.5963032727759
 31
0.0
  0
LINE
  5
14B
330
3D
100
AcDbEntity
  8
1
  6
Continuous
 62
     7
100
AcDbLine
 10
-773.4999999999985
 20
-807.0963032727759
 30
0.0
 11
-773.4999999999986
 21
-775.8963032728029
 31
0.0
  0
LINE
  5
14C
330
3D
100
AcDbEntity
  8
1
  6
Continuous
 62
     7
100
AcDbLine
 10
-772.9999999999986
 20
-775.3963032728029
 30
0.0
 11
-769.4999999999986
 21
-775.3963032728029
 31
0.0
  0
LINE
  5
14D
330
3D
100
AcDbEntity
  8
1
  6
Continuous
 62
     7
100
AcDbLine
 10
-769.4999999999986
 20
-775.3963032728029
 30
0.0
 11
-769.4999999999986
 21
-780.0963032727758
 31
0.0
  0
ARC
  5
14E
330
3D
100
AcDbEntity
  8
1
  6
Continuous
 62
     7
100
AcDbCircle
 10
-738.4999999999986
 20
-785.5963032727759
 30
0.0
 40
5.5
100
AcDbArc
 50
0.0
 51
62.98770603989777
  0
ARC
  5
14F
330
3D
100
AcDbEntity
  8
1
  6
Continuous
 62
     7
100
AcDbCircle
 10
-761.4999999999986
 20
-807.0963032727759
 30
0.0
 40
11.99999999999989
100
AcDbArc
 50
180.0
 51
-90.0
  0
ARC
  5
150
330
3D
100
AcDbEntity
  8
1
  6
Continuous
 62
     7
100
AcDbCircle
 10
-772.9999999999986
 20
-775.8963032728029
 30
0.0
 40
0.5
100
AcDbArc
 50
90.0
 51
180.0
  0
ENDBLK
  5
3F
330
3D
100
AcDbEntity
  8
0
100
AcDbBlockEnd
  0
BLOCK
  5
41
330
40
100
AcDbEntity
  8
0
100
AcDbBlockBegin
  2
81-163__4
 70
     0
 71
     0
 10
-720.9999999999961
 20
-474.8463032727857
 30
0.0
  3
81-163__4
  1

  0
LINE
  5
151
330
40
100
AcDbEntity
  8
1
  6
Continuous
 62
     7
100
AcDbLine
 10
-1246.508726203215
 20
-628.9051831216904
 30
0.0
 11
-1283.287055795798
 21
-629.5471512526807
 31
0.0
  0
LINE
  5
152
330
40
100
AcDbEntity
  8
1
  6
Continuous
 62
     7
100
AcDbLine
 10
-1283.287055795798
 20
-672.6454552928847
 30
0.0
 11
-1246.508726203216
 21
-673.2874234238744
 31
0.0
  0
LINE
  5
153
330
40
100
AcDbEntity
  8
1
  6
Continuous
 62
     7
100
AcDbLine
 10
-1283.309938982186
 20
-630.6630872114616
 30
0.0
 11
-1267.508726203216
 21
-630.3872760164599
 31
0.0
  0
LINE
  5
154
330
40
100
AcDbEntity
  8
1
  6
Continuous
 62
     7
100
AcDbLine
 10
-1281.999999999996
 20
-639.7698798487405
 30
0.0
 11
-1268.999999999997
 21
-639.996795692807
 31
0.0
  0
LINE
  5
155
330
40
100
AcDbEntity
  8
1
  6
Continuous
 62
     7
100
AcDbLine
 10
-1266.999999999997
 20
-643.0963032727826
 30
0.0
 11
-1266.999999999997
 21
-630.8871998640381
 31
0.0
  0
LINE
  5
156
330
40
100
AcDbEntity
  8
1
  6
Continuous
 62
     7
100
AcDbLine
 10
-1245.999999999996
 20
-672.7874995762967
 30
0.0
 11
-1245.999999999996
 21
-629.4051069692683
 31
0.0
  0
ARC
  5
157
330
40
100
AcDbEntity
  8
1
  6
Continuous
 62
     7
100
AcDbCircle
 10
-283.999999999781
 20
-651.0963032727835
 30
0.0
 40
1000.000000000216
100
AcDbArc
 50
178.7932755351212
 51
-178.7932755351214
  0
SPLINE
  5
158
330
40
100
AcDbEntity
  8
1
  6
Continuous
 62
     7
100
AcDbSpline
210
0.0
220
0.0
230
1.0
 70
     8
 71
     3
 72
    13
 73
     9
 74
     7
 42
0.0000000001
 43
0.0000000001
 44
0.00000001
 40
0.0
 40
0.0
 40
0.0
 40
0.0
 40
0.1001616658426938
 40
0.2005070814338326
 40
0.5378337279934755
 40
0.8751774545546424
 40
1.211579302362034
 40
1.547981150169345
 40
1.547981150169345
 40
1.547981150169345
 40
1.547981150169345
 10
-1261.995087522942
 20
-642.4454695919582
 30
0.0
 10
-1262.005956254239
 20
-642.4770409409422
 30
0.0
 10
-1262.027713655866
 20
-642.5402415575501
 30
0.0
 10
-1262.080210052598
 20
-642.7116809758445
 30
0.0
 10
-1262.141444334039
 20
-642.9631276289279
 30
0.0
 10
-1262.188795379621
 20
-643.2971979902379
 30
0.0
 10
-1262.206811550133
 20
-643.6342043167472
 30
0.0
 10
-1262.19156493087
 20
-643.8581267174455
 30
0.0
 10
-1262.183941621238
 20
-643.9700879177948
 30
0.0
 11
-1261.995087522942
 21
-642.4454695919582
 31
0.0
 11
-1262.027148097114
 21
-642.5403615246403
 31
0.0
 11
-1262.056651157355
 21
-642.6362717528049
 31
0.0
 11
-1262.136015897019
 21
-642.9641291983161
 31
0.0
 11
-1262.183941621239
 21
-643.2980512173688
 31
0.0
 11
-1262.199999999996
 21
-643.6340695675818
 31
0.0
 11
-1262.183941621238
 21
-643.9700879177948
 31
0.0
  0
SPLINE
  5
159
330
40
100
AcDbEntity
  8
1
  6
Continuous
 62
     7
100
AcDbSpline
210
0.0
220
0.0
230
1.0
 70
     8
 71
     3
 72
    11
 73
     7
 74
     5
 42
0.0000000001
 43
0.0000000001
 44
0.00000001
 40
0.0
 40
0.0
 40
0.0
 40
0.0
 40
0.0927556471672324
 40
0.1856736041628064
 40
0.4553408522054477
 40
0.7246289740350338
 40
0.7246289740350338
 40
0.7246289740350338
 40
0.7246289740350338
 10
-1261.999999999992
 20
-643.4013940405339
 30
0.0
 10
-1262.009966742661
 20
-643.4306648524191
 30
0.0
 10
-1262.029917668451
 20
-643.4892576961486
 30
0.0
 10
-1262.074143980656
 20
-643.6344552574786
 30
0.0
 10
-1262.126878118607
 20
-643.8387149841058
 30
0.0
 10
-1262.154603974369
 20
-644.016301904894
 30
0.0
 10
-1262.168457150422
 20
-644.1050329038482
 30
0.0
 11
-1261.999999999992
 21
-643.4013940405339
 31
0.0
 11
-1262.029421856985
 21
-643.4893597407386
 31
0.0
 11
-1262.056651157354
 21
-643.5781984256322
 31
0.0
 11
-1262.122590277369
 21
-643.8396797005232
 31
0.0
 11
-1262.168457150422
 21
-644.1050329038482
 31
0.0
  0
SPLINE
  5
15A
330
40
100
AcDbEntity
  8
1
  6
Continuous
 62
     7
100
AcDbSpline
210
0.0
220
0.0
230
1.0
 70
     8
 71
     3
 72
    47
 73
    43
 74
    41
 42
0.0000000001
 43
0.0000000001
 44
0.00000001
 40
0.0
 40
0.0
 40
0.0
 40
0.0
 40
0.3373437265611992
 40
0.6746703731206746
 40
1.01469461773244
 40
1.354688053109884
 40
1.698773824316283
 40
2.04282056891464
 40
2.391822424585205
 40
2.740783054463795
 40
3.094941431488418
 40
3.449061606686539
 40
3.807998170783503
 40
4.166903397836822
 40
4.529688152158963
 40
4.892450898578384
 40
5.257723827275689
 40
5.622985453560824
 40
5.989114871149641
 40
6.355244288738458
 40
6.72050591502358
 40
7.085778843720907
 40
7.448541590139892
 40
7.811326344462631
 40
8.170231571516311
 40
8.529168135612883
 40
8.883288310810819
 40
9.237446687835268
 40
9.586407317713938
 40
9.935409173384677
 40
10.27945591798307
 40
10.62354168918913
 40
10.96353512456658
 40
11.30355936917813
 40
11.64088601573799
 40
11.97822974229925
 40
12.31463159010643
 40
12.65103343791384
 40
12.98837716447515
 40
13.32570381103463
 40
13.42604922660985
 40
13.526210892437
 40
13.526210892437
 40
13.526210892437
 40
13.526210892437
 10
-1262.183941621238
 20
-643.9700879177948
 30
0.0
 10
-1262.170200158683
 20
-644.0817799318926
 30
0.0
 10
-1262.142717929315
 20
-644.3051583050255
 30
0.0
 10
-1262.061072231139
 20
-644.6341740054991
 30
0.0
 10
-1261.951125159433
 20
-644.9553772521024
 30
0.0
 10
-1261.809990622182
 20
-645.2667840894313
 30
0.0
 10
-1261.640528200044
 20
-645.5652005195632
 30
0.0
 10
-1261.442740407757
 20
-645.8493170093874
 30
0.0
 10
-1261.219447627153
 20
-646.1159685085307
 30
0.0
 10
-1260.971016625582
 20
-646.3641417122998
 30
0.0
 10
-1260.700778599457
 20
-646.5910279881454
 30
0.0
 10
-1260.409340006745
 20
-646.7957617287982
 30
0.0
 10
-1260.100378690629
 20
-646.9761022790517
 30
0.0
 10
-1259.774845094773
 20
-647.1312564437285
 30
0.0
 10
-1259.436502683356
 20
-647.2596672037325
 30
0.0
 10
-1259.086778569068
 20
-647.3606216360871
 30
0.0
 10
-1258.72925450508
 20
-647.4332587360955
 30
0.0
 10
-1258.365936680794
 20
-647.4770337840432
 30
0.0
 10
-1257.999999999997
 20
-647.4917028764888
 30
0.0
 10
-1257.634063319194
 20
-647.4770337840437
 30
0.0
 10
-1257.270745494928
 20
-647.4332587360942
 30
0.0
 10
-1256.913221430866
 20
-647.3606216360926
 30
0.0
 10
-1256.563497316852
 20
-647.2596672037118
 30
0.0
 10
-1256.225154904415
 20
-647.1312564438051
 30
0.0
 10
-1255.899621312326
 20
-646.976102278769
 30
0.0
 10
-1255.59065998224
 20
-646.7957617298501
 30
0.0
 10
-1255.299221441003
 20
-646.5910279842781
 30
0.0
 10
-1255.028983224235
 20
-646.364141726652
 30
0.0
 10
-1254.780552924196
 20
-646.1159684558384
 30
0.0
 10
-1254.557257545606
 20
-645.8493172049805
 30
0.0
 10
-1254.359479318044
 20
-645.5651998010712
 30
0.0
 10
-1254.18998144402
 20
-645.2667867590182
 30
0.0
 10
-1254.048977718604
 20
-644.9553674202139
 30
0.0
 10
-1253.93854491799
 20
-644.634210593938
 30
0.0
 10
-1253.858698342677
 20
-644.3050229541977
 30
0.0
 10
-1253.810815674395
 20
-643.9709044703278
 30
0.0
 10
-1253.794597409457
 20
-643.6340696647535
 30
0.0
 10
-1253.810824940769
 20
-643.2972342756045
 30
0.0
 10
-1253.858661156859
 20
-642.9631175473324
 30
0.0
 10
-1253.919782598931
 20
-642.7116816781305
 30
0.0
 10
-1253.972287268015
 20
-642.5402414692703
 30
0.0
 10
-1253.994044053521
 20
-642.4770409115534
 30
0.0
 10
-1254.00491247704
 20
-642.4454695919877
 30
0.0
 11
-1262.183941621238
 21
-643.9700879177948
 31
0.0
 11
-1262.136015897019
 21
-644.3040099368475
 31
0.0
 11
-1262.056651157354
 21
-644.6318673823585
 31
0.0
 11
-1261.946065414875
 21
-644.9534063076604
 31
0.0
 11
-1261.805989822227
 21
-645.263203603394
 31
0.0
 11
-1261.63606912697
 21
-645.5624058347867
 31
0.0
 11
-1261.439657289947
 21
-645.8448780506697
 31
0.0
 11
-1261.215628616343
 21
-646.1124849427049
 31
0.0
 11
-1260.968869623184
 21
-646.3592308048794
 31
0.0
 11
-1260.697674033
 21
-646.5870050525056
 31
0.0
 11
-1260.407993202157
 21
-646.7906864574602
 31
0.0
 11
-1260.098032013716
 21
-646.9716823654421
 31
0.0
 11
-1259.774095313393
 21
-647.12620736727
 31
0.0
 11
-1259.434933473054
 21
-647.254978575335
 31
0.0
 11
-1259.086425065523
 21
-647.3556696875048
 31
0.0
 11
-1258.728469264714
 21
-647.4284155266015
 31
0.0
 11
-1258.365836066504
 21
-647.4721558877391
 31
0.0
 11
-1257.999999999996
 21
-647.486809312804
 31
0.0
 11
-1257.634163933488
 21
-647.4721558877391
 31
0.0
 11
-1257.271530735278
 21
-647.4284155266016
 31
0.0
 11
-1256.913574934469
 21
-647.3556696875048
 31
0.0
 11
-1256.565066526938
 21
-647.254978575335
 31
0.0
 11
-1256.225904686599
 21
-647.1262073672701
 31
0.0
 11
-1255.901967986275
 21
-646.9716823654424
 31
0.0
 11
-1255.592006797835
 21
-646.7906864574604
 31
0.0
 11
-1255.302325966992
 21
-646.5870050525058
 31
0.0
 11
-1255.031130376808
 21
-646.3592308048796
 31
0.0
 11
-1254.784371383649
 21
-646.112484942705
 31
0.0
 11
-1254.560342710045
 21
-645.8448780506695
 31
0.0
 11
-1254.363930873021
 21
-645.5624058347867
 31
0.0
 11
-1254.194010177766
 21
-645.263203603394
 31
0.0
 11
-1254.053934585117
 21
-644.9534063076604
 31
0.0
 11
-1253.943348842639
 21
-644.6318673823587
 31
0.0
 11
-1253.863984102974
 21
-644.3040099368474
 31
0.0
 11
-1253.816058378754
 21
-643.9700879177947
 31
0.0
 11
-1253.799999999996
 21
-643.6340695675818
 31
0.0
 11
-1253.816058378754
 21
-643.2980512173688
 31
0.0
 11
-1253.863984102974
 21
-642.964129198316
 31
0.0
 11
-1253.943348842638
 21
-642.636271752805
 31
0.0
 11
-1253.972851902874
 21
-642.5403615246555
 31
0.0
 11
-1254.00491247704
 21
-642.4454695919877
 31
0.0
  0
SPLINE
  5
15B
330
40
100
AcDbEntity
  8
1
  6
Continuous
 62
     7
100
AcDbSpline
210
0.0
220
0.0
230
1.0
 70
     8
 71
     3
 72
    11
 73
     7
 74
     5
 42
0.0000000001
 43
0.0000000001
 44
0.00000001
 40
0.0
 40
0.0
 40
0.0
 40
0.0
 40
0.2692881219186369
 40
0.5389553700500563
 40
0.6318733270365698
 40
0.7246289741946707
 40
0.7246289741946707
 40
0.7246289741946707
 40
0.7246289741946707
 10
-1253.831542849548
 20
-644.1050329040246
 30
0.0
 10
-1253.845396025602
 20
-644.0163019050405
 30
0.0
 10
-1253.873121881364
 20
-643.8387149841926
 30
0.0
 10
-1253.925856019327
 20
-643.6344552575094
 30
0.0
 10
-1253.970082331539
 20
-643.4892576961572
 30
0.0
 10
-1253.990033257327
 20
-643.4306648524333
 30
0.0
 10
-1253.999999999995
 20
-643.4013940405511
 30
0.0
 11
-1253.831542849548
 21
-644.1050329040246
 31
0.0
 11
-1253.877409722606
 21
-643.8396797006101
 31
0.0
 11
-1253.943348842638
 21
-643.5781984256321
 31
0.0
 11
-1253.970578143005
 21
-643.4893597407471
 31
0.0
 11
-1253.999999999995
 21
-643.4013940405511
 31
0.0
  0
ARC
  5
15C
330
40
100
AcDbEntity
  8
1
  6
Continuous
 62
     7
100
AcDbCircle
 10
-1267.499999999997
 20
-630.8871998640381
 30
0.0
 40
0.5
100
AcDbArc
 50
0.0
 51
91.00000000002781
  0
ARC
  5
15D
330
40
100
AcDbEntity
  8
1
  6
Continuous
 62
     7
100
AcDbCircle
 10
-1246.499999999996
 20
-629.4051069692683
 30
0.0
 40
0.5
100
AcDbArc
 50
0.0
 51
91.00000000005433
  0
ARC
  5
15E
330
40
100
AcDbEntity
  8
1
  6
Continuous
 62
     7
100
AcDbCircle
 10
-1283.27832959258
 20
-630.0470751002584
 30
0.0
 40
0.4999999999995442
100
AcDbArc
 50
90.99999999995058
 51
178.7932755350839
  0
ARC
  5
15F
330
40
100
AcDbEntity
  8
1
  6
Continuous
 62
     7
100
AcDbCircle
 10
-1283.27832959258
 20
-672.1455314453065
 30
0.0
 40
0.5000000000002531
100
AcDbArc
 50
-178.7932755350997
 51
-90.99999999994967
  0
ARC
  5
160
330
40
100
AcDbEntity
  8
1
  6
Continuous
 62
     7
100
AcDbCircle
 10
-1246.499999999996
 20
-672.7874995762967
 30
0.0
 40
0.499999999999576
100
AcDbArc
 50
-91.00000000015898
 51
0.0
  0
ARC
  5
161
330
40
100
AcDbEntity
  8
1
  6
Continuous
 62
     7
100
AcDbCircle
 10
-1283.301212778968
 20
-631.1630110590396
 30
0.0
 40
0.4999999999997676
100
AcDbArc
 50
90.99999999992406
 51
178.8572593922783
  0
ENDBLK
  5
42
330
40
100
AcDbEntity
  8
0
100
AcDbBlockEnd
  0
BLOCK
  5
44
330
43
100
AcDbEntity
  8
0
100
AcDbBlockBegin
  2
84-362__5
 70
     0
 71
     0
 10
-1628.55418854792
 20
-827.2846505749219
 30
0.0
  3
84-362__5
  1

  0
LINE
  5
162
330
43
100
AcDbEntity
  8
1
  6
Continuous
 62
     7
100
AcDbLine
 10
-1518.842472640832
 20
-839.0155947151618
 30
0.0
 11
-1518.842472640832
 21
-841.192961757137
 31
0.0
  0
LINE
  5
163
330
43
100
AcDbEntity
  8
1
  6
Continuous
 62
     7
100
AcDbLine
 10
-1510.842472640832
 20
-839.0155947151618
 30
0.0
 11
-1510.842472640832
 21
-841.192961757137
 31
0.0
  0
SPLINE
  5
164
330
43
100
AcDbEntity
  8
1
  6
Continuous
 62
     7
100
AcDbSpline
210
0.0
220
0.0
230
1.0
 70
    11
 71
     3
 72
    79
 73
    75
 74
    73
 42
0.0000000001
 43
0.0000000001
 44
0.00000001
 40
0.0
 40
0.0
 40
0.0
 40
0.0
 40
0.3287583830705181
 40
0.6575055642300187
 40
0.9881075801693072
 40
1.31868914501985
 40
1.65209266298694
 40
1.985469808278024
 40
2.322276623449695
 40
2.659054989577236
 40
2.999445563673811
 40
3.339809210174721
 40
3.683532977493454
 40
4.027234233095584
 40
4.373650815035604
 40
4.72005135128165
 40
5.068212884695948
 40
5.416366100175236
 40
5.765128844336299
 40
6.113891588497135
 40
6.462044803976861
 40
6.810206337391182
 40
7.156606873637228
 40
7.503023455577035
 40
7.846724711179319
 40
8.190448478497917
 40
8.530812124998761
 40
8.871202699095582
 40
9.207981065223363
 40
9.544787880394658
 40
9.87816502568587
 40
10.21156854365285
 40
10.54215010850349
 40
10.8727521244427
 40
11.2014993056022
 40
11.5302576886728
 40
11.85836946520201
 40
12.18648124173135
 40
12.51523962480183
 40
12.84398680596128
 40
13.1745888219006
 40
13.50517038675113
 40
13.83857390471822
 40
14.17195105000931
 40
14.5087578651806
 40
14.84553623130847
 40
15.18592680540514
 40
15.52629045190611
 40
15.87001421922459
 40
16.21371547482672
 40
16.56013205676678
 40
16.9065325930128
 40
17.25469412642731
 40
17.60284734190683
 40
17.95161008606767
 40
18.30037283022851
 40
18.64852604570823
 40
18.99668757912209
 40
19.3430881153686
 40
19.68950469730845
 40
20.03320595291093
 40
20.37692972022928
 40
20.71729336673025
 40
21.05768394082693
 40
21.39446230695447
 40
21.73126912212599
 40
22.06464626741711
 40
22.39804978538419
 40
22.72863135023502
 40
23.05923336617413
 40
23.38798054733324
 40
23.7167389304041
 40
24.04485070693321
 40
24.37296248346255
 40
24.37296248346255
 40
24.37296248346255
 40
24.37296248346255
 10
-1518.827191860191
 20
-839.3433504712366
 30
0.0
 10
-1518.814116833476
 20
-839.4522343448186
 30
0.0
 10
-1518.787967225556
 20
-839.6699983819408
 30
0.0
 10
-1518.710308786248
 20
-839.9908131480337
 30
0.0
 10
-1518.605651540946
 20
-840.3041332479149
 30
0.0
 10
-1518.471380762177
 20
-840.6077987504892
 30
0.0
 10
-1518.310034576854
 20
-840.8989806292093
 30
0.0
 10
-1518.121818368258
 20
-841.1760812220103
 30
0.0
 10
-1517.909162939564
 20
-841.4363444366522
 30
0.0
 10
-1517.672690765269
 20
-841.6784400751756
 30
0.0
 10
-1517.415266799743
 20
-841.8999440582984
 30
0.0
 10
-1517.137784691238
 20
-842.0997063472601
 30
0.0
 10
-1516.84342588057
 20
-842.2757986537222
 30
0.0
 10
-1516.533408553584
 20
-842.4272135952583
 30
0.0
 10
-1516.211030307412
 20
-842.5526124223508
 30
0.0
 10
-1515.877909446075
 20
-842.6511471269469
 30
0.0
 10
-1515.537251113002
 20
-842.7220861714696
 30
0.0
 10
-1515.191128118559
 20
-842.7648111035378
 30
0.0
 10
-1514.842472640833
 20
-842.7791464237355
 30
0.0
 10
-1514.493817163101
 20
-842.764811103538
 30
0.0
 10
-1514.147694168676
 20
-842.7220861714684
 30
0.0
 10
-1513.807035835535
 20
-842.6511471269521
 30
0.0
 10
-1513.473914974451
 20
-842.5526124223317
 30
0.0
 10
-1513.151536727337
 20
-842.4272135953278
 30
0.0
 10
-1512.841519403844
 20
-842.2757986534657
 30
0.0
 10
-1512.547160580201
 20
-842.0997063482137
 30
0.0
 10
-1512.269678519672
 20
-841.8999440547786
 30
0.0
 10
-1512.012254376082
 20
-841.6784400882566
 30
0.0
 10
-1511.7757828596
 20
-841.4363443884063
 30
0.0
 10
-1511.563124989515
 20
-841.1760814013737
 30
0.0
 10
-1511.374917803921
 20
-840.8989799673617
 30
0.0
 10
-1511.213538108636
 20
-840.6078012127636
 30
0.0
 10
-1511.079391383745
 20
-840.3041241446902
 30
0.0
 10
-1510.97427282212
 20
-839.9908470531669
 30
0.0
 10
-1510.89832687307
 20
-839.6698726322105
 30
0.0
 10
-1510.852748327926
 20
-839.3440336461632
 30
0.0
 10
-1510.837339854849
 20
-839.0155947151617
 30
0.0
 10
-1510.852748327926
 20
-838.6871557841605
 30
0.0
 10
-1510.898326873071
 20
-838.361316798113
 30
0.0
 10
-1510.97427282212
 20
-838.0403423771568
 30
0.0
 10
-1511.079391383745
 20
-837.7270652856333
 30
0.0
 10
-1511.213538108636
 20
-837.4233882175601
 30
0.0
 10
-1511.374917803922
 20
-837.1322094629619
 30
0.0
 10
-1511.563124989515
 20
-836.85510802895
 30
0.0
 10
-1511.775782859599
 20
-836.5948450419176
 30
0.0
 10
-1512.012254376082
 20
-836.3527493420664
 30
0.0
 10
-1512.269678519672
 20
-836.1312453755453
 30
0.0
 10
-1512.5471605802
 20
-835.9314830821098
 30
0.0
 10
-1512.841519403844
 20
-835.7553907768577
 30
0.0
 10
-1513.151536727336
 20
-835.6039758349958
 30
0.0
 10
-1513.473914974452
 20
-835.4785770079916
 30
0.0
 10
-1513.807035835535
 20
-835.3800423033716
 30
0.0
 10
-1514.147694168677
 20
-835.3091032588552
 30
0.0
 10
-1514.493817163101
 20
-835.2663783267856
 30
0.0
 10
-1514.842472640832
 20
-835.2520430065881
 30
0.0
 10
-1515.191128118563
 20
-835.2663783267853
 30
0.0
 10
-1515.537251112989
 20
-835.3091032588555
 30
0.0
 10
-1515.877909446126
 20
-835.3800423033713
 30
0.0
 10
-1516.211030307226
 20
-835.478577007993
 30
0.0
 10
-1516.533408554275
 20
-835.6039758349916
 30
0.0
 10
-1516.843425878017
 20
-835.7553907768757
 30
0.0
 10
-1517.13778470073
 20
-835.931483082042
 30
0.0
 10
-1517.4152667647
 20
-836.1312453757978
 30
0.0
 10
-1517.672690895518
 20
-836.3527493411282
 30
0.0
 10
-1517.909162459183
 20
-836.5948450453783
 30
0.0
 10
-1518.121820154157
 20
-836.8551080160847
 30
0.0
 10
-1518.31002798693
 20
-837.1322095104333
 30
0.0
 10
-1518.471405278697
 20
-837.4233880409524
 30
0.0
 10
-1518.605560901415
 20
-837.7270659385669
 30
0.0
 10
-1518.710646374894
 20
-838.0403399452939
 30
0.0
 10
-1518.786715153169
 20
-838.361325817576
 30
0.0
 10
-1518.831836116382
 20
-838.6871221434205
 30
0.0
 10
-1518.848949158575
 20
-839.0157199908008
 30
0.0
 10
-1518.834444292986
 20
-839.2341403110914
 30
0.0
 10
-1518.827191860191
 20
-839.3433504712366
 30
0.0
 11
-1518.827191860191
 21
-839.3433504712366
 31
0.0
 11
-1518.781585114201
 21
-839.668930106901
 31
0.0
 11
-1518.706007869075
 21
-839.9888719596484
 31
0.0
 11
-1518.600809257653
 21
-840.3022901229671
 31
0.0
 11
-1518.467355474994
 21
-840.6047372405151
 31
0.0
 11
-1518.30573415365
 21
-840.8963473471297
 31
0.0
 11
-1518.11854094797
 21
-841.1722078639671
 31
0.0
 11
-1517.905447225126
 21
-841.4330332768976
 31
0.0
 11
-1517.670220948692
 21
-841.6740483527053
 31
0.0
 11
-1517.412219538025
 21
-841.8960866715325
 31
0.0
 11
-1517.136061807094
 21
-842.0950447563303
 31
0.0
 11
-1516.841104526051
 21
-842.2715277033229
 31
0.0
 11
-1516.532314026385
 21
-842.42245477319
 31
0.0
 11
-1516.209468640755
 21
-842.5480545551177
 31
0.0
 11
-1515.877316216905
 21
-842.6463810461697
 31
0.0
 11
-1515.536466676452
 21
-842.7173602270785
 31
0.0
 11
-1515.190941889323
 21
-842.7600601442623
 31
0.0
 11
-1514.842472640832
 21
-842.7743651983052
 31
0.0
 11
-1514.494003392342
 21
-842.7600601442623
 31
0.0
 11
-1514.148478605212
 21
-842.7173602270786
 31
0.0
 11
-1513.807629064759
 21
-842.6463810461697
 31
0.0
 11
-1513.475476640909
 21
-842.5480545551177
 31
0.0
 11
-1513.152631255279
 21
-842.42245477319
 31
0.0
 11
-1512.843840755613
 21
-842.271527703323
 31
0.0
 11
-1512.54888347457
 21
-842.0950447563303
 31
0.0
 11
-1512.272725743639
 21
-841.8960866715327
 31
0.0
 11
-1512.014724332972
 21
-841.6740483527053
 31
0.0
 11
-1511.779498056538
 21
-841.4330332768975
 31
0.0
 11
-1511.566404333694
 21
-841.1722078639671
 31
0.0
 11
-1511.379211128014
 21
-840.8963473471297
 31
0.0
 11
-1511.21758980667
 21
-840.6047372405151
 31
0.0
 11
-1511.084136024011
 21
-840.3022901229671
 31
0.0
 11
-1510.978937412589
 21
-839.9888719596484
 31
0.0
 11
-1510.903360167462
 21
-839.6689301069011
 31
0.0
 11
-1510.857753421473
 21
-839.3433504712366
 31
0.0
 11
-1510.842472640832
 21
-839.0155947151618
 31
0.0
 11
-1510.857753421473
 21
-838.6878389590869
 31
0.0
 11
-1510.903360167463
 21
-838.3622593234225
 31
0.0
 11
-1510.978937412589
 21
-838.0423174706752
 31
0.0
 11
-1511.084136024011
 21
-837.7288993073564
 31
0.0
 11
-1511.21758980667
 21
-837.4264521898085
 31
0.0
 11
-1511.379211128014
 21
-837.1348420831939
 31
0.0
 11
-1511.566404333694
 21
-836.8589815663565
 31
0.0
 11
-1511.779498056538
 21
-836.5981561534261
 31
0.0
 11
-1512.014724332972
 21
-836.3571410776182
 31
0.0
 11
-1512.272725743639
 21
-836.1351027587911
 31
0.0
 11
-1512.54888347457
 21
-835.9361446739932
 31
0.0
 11
-1512.843840755613
 21
-835.7596617270007
 31
0.0
 11
-1513.152631255279
 21
-835.6087346571336
 31
0.0
 11
-1513.475476640909
 21
-835.4831348752058
 31
0.0
 11
-1513.807629064759
 21
-835.3848083841539
 31
0.0
 11
-1514.148478605212
 21
-835.3138292032451
 31
0.0
 11
-1514.494003392342
 21
-835.2711292860613
 31
0.0
 11
-1514.842472640832
 21
-835.2568242320183
 31
0.0
 11
-1515.190941889322
 21
-835.2711292860613
 31
0.0
 11
-1515.536466676453
 21
-835.313829203245
 31
0.0
 11
-1515.877316216905
 21
-835.3848083841538
 31
0.0
 11
-1516.209468640755
 21
-835.4831348752059
 31
0.0
 11
-1516.532314026385
 21
-835.6087346571337
 31
0.0
 11
-1516.841104526051
 21
-835.7596617270007
 31
0.0
 11
-1517.136061807094
 21
-835.9361446739933
 31
0.0
 11
-1517.412219538025
 21
-836.1351027587912
 31
0.0
 11
-1517.670220948692
 21
-836.3571410776183
 31
0.0
 11
-1517.905447225126
 21
-836.598156153426
 31
0.0
 11
-1518.11854094797
 21
-836.8589815663565
 31
0.0
 11
-1518.30573415365
 21
-837.1348420831938
 31
0.0
 11
-1518.467355474994
 21
-837.4264521898085
 31
0.0
 11
-1518.600809257654
 21
-837.7288993073566
 31
0.0
 11
-1518.706007869075
 21
-838.0423174706752
 31
0.0
 11
-1518.781585114201
 21
-838.3622593234222
 31
0.0
 11
-1518.827191860191
 21
-838.687838959087
 31
0.0
 11
-1518.842472640832
 21
-839.0155947151617
 31
0.0
 11
-1518.827191860191
 21
-839.3433504712366
 31
0.0
  0
ENDBLK
  5
45
330
43
100
AcDbEntity
  8
0
100
AcDbBlockEnd
  0
BLOCK
  5
49
330
46
100
AcDbEntity
  8
0
100
AcDbBlockBegin
  2
81-163X__6
 70
     0
 71
     0
 10
-1425.999999999996
 20
-906.0963032727851
 30
0.0
  3
81-163X__6
  1

  0
INSERT
  5
47
330
46
100
AcDbEntity
  8
1
100
AcDbBlockReference
  2
81-163__4
 10
-720.9999999999959
 20
-474.8463032727856
 30
0.0
  0
INSERT
  5
48
330
46
100
AcDbEntity
  8
1
100
AcDbBlockReference
  2
84-362__5
 10
-1371.711715907085
 20
-630.9003605852267
 30
0.0
  0
LINE
  5
165
330
46
100
AcDbEntity
  8
1
  6
PHANTOM
 62
     4
100
AcDbLine
 10
-1283.999999999997
 20
-651.0963032727823
 30
0.0
 11
-1245.999999999996
 21
-651.0963032727823
 31
0.0
  0
ENDBLK
  5
4A
330
46
100
AcDbEntity
  8
0
100
AcDbBlockEnd
  0
BLOCK
  5
4C
330
4B
100
AcDbEntity
  8
0
100
AcDbBlockBegin
  2
81-162__7
 70
     0
 71
     0
 10
-1816.400000000001
 20
-437.0963032727761
 30
0.0
  3
81-162__7
  1

  0
LINE
  5
166
330
4B
100
AcDbEntity
  8
1
  6
Continuous
 62
     7
100
AcDbLine
 10
-1656.400000000001
 20
-450.710389187155
 30
0.0
 11
-1656.400000000001
 21
-493.4822173583997
 31
0.0
  0
LINE
  5
167
330
4B
100
AcDbEntity
  8
1
  6
Continuous
 62
     7
100
AcDbLine
 10
-1619.401604505037
 20
-450.5421126683817
 30
0.0
 11
-1655.586038074851
 21
-449.9105110310299
 31
0.0
  0
LINE
  5
168
330
4B
100
AcDbEntity
  8
1
  6
Continuous
 62
     7
100
AcDbLine
 10
-1655.586038074851
 20
-494.2820955145247
 30
0.0
 11
-1619.401604505037
 21
-493.6504938771728
 31
0.0
  0
LINE
  5
169
330
4B
100
AcDbEntity
  8
1
  6
Continuous
 62
     7
100
AcDbLine
 10
-1644.400000000001
 20
-461.1888014070119
 30
0.0
 11
-1620.400000000001
 21
-460.7698798487352
 31
0.0
  0
LINE
  5
16A
330
4B
100
AcDbEntity
  8
1
  6
Continuous
 62
     7
100
AcDbLine
 10
-1646.400000000001
 20
-451.8871998640327
 30
0.0
 11
-1646.400000000001
 21
-464.0963032727773
 31
0.0
  0
LINE
  5
16B
330
4B
100
AcDbEntity
  8
1
  6
Continuous
 62
     7
100
AcDbLine
 10
-1645.891273796782
 20
-451.3872760164545
 30
0.0
 11
-1619.090061017811
 21
-451.6630872114563
 31
0.0
  0
ARC
  5
16C
330
4B
100
AcDbEntity
  8
1
  6
Continuous
 62
     7
100
AcDbCircle
 10
-2618.399999999801
 20
-472.0963032727765
 30
0.0
 40
999.9999999998015
100
AcDbArc
 50
-1.19017216933616
 51
1.19017216933607
  0
ARC
  5
16D
330
4B
100
AcDbEntity
  8
1
  6
Continuous
 62
     7
100
AcDbCircle
 10
-1655.6
 20
-493.4822173583997
 30
0.0
 40
0.8000000000010914
100
AcDbArc
 50
180.0
 51
-89.00000000007303
  0
ARC
  5
16E
330
4B
100
AcDbEntity
  8
1
  6
Continuous
 62
     7
100
AcDbCircle
 10
-1619.415566430187
 20
-451.3419908245069
 30
0.0
 40
0.8000000000002545
100
AcDbArc
 50
1.19017216933734
 51
88.99999999999183
  0
ARC
  5
16F
330
4B
100
AcDbEntity
  8
1
  6
Continuous
 62
     7
100
AcDbCircle
 10
-1655.6
 20
-450.710389187155
 30
0.0
 40
0.7999999999999586
100
AcDbArc
 50
89.0000000000731
 51
180.0
  0
ARC
  5
170
330
4B
100
AcDbEntity
  8
1
  6
Continuous
 62
     7
100
AcDbCircle
 10
-1619.415566430187
 20
-492.8506157210477
 30
0.0
 40
0.7999999999999784
100
AcDbArc
 50
-88.99999999999169
 51
-1.19017216933734
  0
ARC
  5
171
330
4B
100
AcDbEntity
  8
1
  6
Continuous
 62
     7
100
AcDbCircle
 10
-1645.900000000001
 20
-451.8871998640327
 30
0.0
 40
0.5000000000000148
100
AcDbArc
 50
88.99999999994614
 51
180.0
  0
ARC
  5
172
330
4B
100
AcDbEntity
  8
1
  6
Continuous
 62
     7
100
AcDbCircle
 10
-1619.098787221029
 20
-452.1630110590343
 30
0.0
 40
0.499999999998219
100
AcDbArc
 50
1.14274060772377
 51
89.00000000007606
  0
ENDBLK
  5
4D
330
4B
100
AcDbEntity
  8
0
100
AcDbBlockEnd
  0
BLOCK
  5
4F
330
4E
100
AcDbEntity
  8
0
100
AcDbBlockBegin
  2
81-162__8
 70
     0
 71
     0
 10
-1816.400000000001
 20
303.9999999999994
 30
0.0
  3
81-162__8
  1

  0
LINE
  5
173
330
4E
100
AcDbEntity
  8
1
  6
Continuous
 62
     7
100
AcDbLine
 10
-1619.090061017811
 20
318.5667839386796
 30
0.0
 11
-1645.891273796782
 21
318.2909727436778
 31
0.0
  0
LINE
  5
174
330
4E
100
AcDbEntity
  8
1
  6
Continuous
 62
     7
100
AcDbLine
 10
-1646.400000000001
 20
331.0000000000006
 30
0.0
 11
-1646.400000000001
 21
318.790896591256
 31
0.0
  0
LINE
  5
175
330
4E
100
AcDbEntity
  8
1
  6
Continuous
 62
     7
100
AcDbLine
 10
-1620.400000000001
 20
327.6735765759585
 30
0.0
 11
-1644.400000000001
 21
328.0924981342352
 31
0.0
  0
LINE
  5
176
330
4E
100
AcDbEntity
  8
1
  6
Continuous
 62
     7
100
AcDbLine
 10
-1619.401604505037
 20
360.5541906043961
 30
0.0
 11
-1655.586038074851
 21
361.185792241748
 31
0.0
  0
LINE
  5
177
330
4E
100
AcDbEntity
  8
1
  6
Continuous
 62
     7
100
AcDbLine
 10
-1655.586038074851
 20
316.8142077582532
 30
0.0
 11
-1619.401604505037
 21
317.445809395605
 31
0.0
  0
LINE
  5
178
330
4E
100
AcDbEntity
  8
1
  6
Continuous
 62
     7
100
AcDbLine
 10
-1656.400000000001
 20
360.385914085623
 30
0.0
 11
-1656.400000000001
 21
317.6140859143783
 31
0.0
  0
ARC
  5
179
330
4E
100
AcDbEntity
  8
1
  6
Continuous
 62
     7
100
AcDbCircle
 10
-2618.399999999801
 20
338.9999999999995
 30
0.0
 40
999.9999999998015
100
AcDbArc
 50
-1.19017216933605
 51
1.19017216933618
  0
ARC
  5
17A
330
4E
100
AcDbEntity
  8
1
  6
Continuous
 62
     7
100
AcDbCircle
 10
-1619.098787221029
 20
319.0667077862576
 30
0.0
 40
0.4999999999998244
100
AcDbArc
 50
-89.00000000007606
 51
-1.14274060772377
  0
ARC
  5
17B
330
4E
100
AcDbEntity
  8
1
  6
Continuous
 62
     7
100
AcDbCircle
 10
-1645.900000000001
 20
318.790896591256
 30
0.0
 40
0.5
100
AcDbArc
 50
180.0
 51
-88.99999999994614
  0
ARC
  5
17C
330
4E
100
AcDbEntity
  8
1
  6
Continuous
 62
     7
100
AcDbCircle
 10
-1619.415566430187
 20
359.754312448271
 30
0.0
 40
0.8000000000002545
100
AcDbArc
 50
1.19017216933734
 51
88.99999999999176
  0
ARC
  5
17D
330
4E
100
AcDbEntity
  8
1
  6
Continuous
 62
     7
100
AcDbCircle
 10
-1655.6
 20
317.6140859143783
 30
0.0
 40
0.8000000000010914
100
AcDbArc
 50
180.0
 51
-89.0000000000731
  0
ARC
  5
17E
330
4E
100
AcDbEntity
  8
1
  6
Continuous
 62
     7
100
AcDbCircle
 10
-1619.415566430187
 20
318.2456875517302
 30
0.0
 40
0.8000000000000921
100
AcDbArc
 50
-88.99999999999183
 51
-1.19017216933734
  0
ARC
  5
17F
330
4E
100
AcDbEntity
  8
1
  6
Continuous
 62
     7
100
AcDbCircle
 10
-1655.6
 20
360.385914085623
 30
0.0
 40
0.799999999999845
100
AcDbArc
 50
89.00000000007294
 51
180.0
  0
ENDBLK
  5
50
330
4E
100
AcDbEntity
  8
0
100
AcDbBlockEnd
  0
BLOCK
  5
52
330
51
100
AcDbEntity
  8
0
100
AcDbBlockBegin
  2
06-95-C2__9
 70
     0
 71
     0
 10
-1338.361366061878
 20
-683.9434750977658
 30
0.0
  3
06-95-C2__9
  1

  0
LINE
  5
180
330
51
100
AcDbEntity
  8
1
  6
Continuous
 62
     7
100
AcDbLine
 10
-1208.400000000006
 20
-524.4963032727919
 30
0.0
 11
-1197.980000000006
 21
-524.4963032727919
 31
0.0
  0
LINE
  5
181
330
51
100
AcDbEntity
  8
1
  6
Continuous
 62
     2
100
AcDbLine
 10
-1196.900000000005
 20
-523.416303272792
 30
0.0
 11
-1208.400000000006
 21
-523.4163032727918
 31
0.0
  0
LINE
  5
182
330
51
100
AcDbEntity
  8
1
  6
Continuous
 62
     7
100
AcDbLine
 10
-1196.900000000005
 20
-504.7763032727918
 30
0.0
 11
-1196.900000000005
 21
-523.416303272792
 31
0.0
  0
LINE
  5
183
330
51
100
AcDbEntity
  8
1
  6
Continuous
 62
     7
100
AcDbLine
 10
-1196.900000000005
 20
-523.416303272792
 30
0.0
 11
-1197.980000000006
 21
-524.4963032727919
 31
0.0
  0
LINE
  5
184
330
51
100
AcDbEntity
  8
1
  6
Continuous
 62
     2
100
AcDbLine
 10
-1208.400000000006
 20
-504.7763032727922
 30
0.0
 11
-1196.900000000005
 21
-504.7763032727918
 31
0.0
  0
LINE
  5
185
330
51
100
AcDbEntity
  8
1
  6
Continuous
 62
     7
100
AcDbLine
 10
-1197.980000000005
 20
-503.696303272792
 30
0.0
 11
-1196.900000000005
 21
-504.7763032727918
 31
0.0
  0
LINE
  5
186
330
51
100
AcDbEntity
  8
1
  6
Continuous
 62
     7
100
AcDbLine
 10
-1197.980000000005
 20
-503.696303272792
 30
0.0
 11
-1208.400000000006
 21
-503.696303272792
 31
0.0
  0
LINE
  5
187
330
51
100
AcDbEntity
  8
1
  6
Continuous
 62
     7
100
AcDbLine
 10
-1197.980000000005
 20
-503.696303272792
 30
0.0
 11
-1197.980000000006
 21
-524.4963032727919
 31
0.0
  0
ENDBLK
  5
53
330
51
100
AcDbEntity
  8
0
100
AcDbBlockEnd
  0
BLOCK
  5
55
330
54
100
AcDbEntity
  8
0
100
AcDbBlockBegin
  2
81-163__10
 70
     0
 71
     0
 10
-2086.649999999998
 20
798.9999999999998
 30
0.0
  3
81-163__10
  1

  0
LINE
  5
188
330
54
100
AcDbEntity
  8
1
  6
Continuous
 62
     7
100
AcDbLine
 10
-1820.90872620322
 20
361.1911201510929
 30
0.0
 11
-1857.687055795802
 21
360.5491520201025
 31
0.0
  0
LINE
  5
189
330
54
100
AcDbEntity
  8
1
  6
Continuous
 62
     7
100
AcDbLine
 10
-1857.687055795802
 20
317.4508479798985
 30
0.0
 11
-1836.400000000001
 21
317.0792810388523
 31
0.0
  0
LINE
  5
18A
330
54
100
AcDbEntity
  8
1
  6
Continuous
 62
     7
100
AcDbLine
 10
-1820.400000000001
 20
317.3088036964865
 30
0.0
 11
-1820.400000000001
 21
360.6911963035149
 31
0.0
  0
LINE
  5
18B
330
54
100
AcDbEntity
  8
1
  6
Continuous
 62
     7
100
AcDbLine
 10
-1841.400000000002
 20
318.790896591256
 30
0.0
 11
-1841.400000000002
 21
331.0000000000006
 31
0.0
  0
LINE
  5
18C
330
54
100
AcDbEntity
  8
1
  6
Continuous
 62
     7
100
AcDbLine
 10
-1843.400000000002
 20
327.900492420025
 30
0.0
 11
-1856.400000000001
 21
327.6735765759585
 31
0.0
  0
LINE
  5
18D
330
54
100
AcDbEntity
  8
1
  6
Continuous
 62
     7
100
AcDbLine
 10
-1841.908726203221
 20
318.2909727436778
 30
0.0
 11
-1857.70993898219
 21
318.5667839386796
 31
0.0
  0
LINE
  5
18E
330
54
100
AcDbEntity
  8
1
  6
Continuous
 62
     7
100
AcDbLine
 10
-1828.400000000001
 20
316.9396405194266
 30
0.0
 11
-1820.90872620322
 21
316.8088798489088
 31
0.0
  0
ARC
  5
18F
330
54
100
AcDbEntity
  8
1
  6
Continuous
 62
     7
100
AcDbCircle
 10
-858.3999999997855
 20
338.9999999999997
 30
0.0
 40
1000.000000000217
100
AcDbArc
 50
178.7932755351212
 51
-178.7932755351214
  0
SPLINE
  5
190
330
54
100
AcDbEntity
  8
1
  6
Continuous
 62
     7
100
AcDbSpline
210
0.0
220
0.0
230
1.0
 70
     8
 71
     3
 72
    11
 73
     7
 74
     5
 42
0.0000000001
 43
0.0000000001
 44
0.00000001
 40
0.0
 40
0.0
 40
0.0
 40
0.0
 40
0.143727089993753
 40
0.2863962127165611
 40
0.3263088285181955
 40
0.366059605696446
 40
0.366059605696446
 40
0.366059605696446
 40
0.366059605696446
 10
-1836.582434933369
 20
318.3953609144338
 30
0.0
 10
-1836.567224863975
 20
318.3497251436066
 30
0.0
 10
-1836.536916685676
 20
318.2587895243723
 30
0.0
 10
-1836.474666244895
 20
318.1679510852863
 30
0.0
 10
-1836.426742000409
 20
318.1114798955713
 30
0.0
 10
-1836.408901919242
 20
318.0918033004327
 30
0.0
 10
-1836.399999999994
 20
318.0819849896663
 30
0.0
 11
-1836.582434933369
 21
318.3953609144338
 31
0.0
 11
-1836.530677689675
 21
318.2612763734783
 31
0.0
 11
-1836.452300653006
 21
318.1420642989998
 31
0.0
 11
-1836.426539319018
 21
318.1115787192724
 31
0.0
 11
-1836.399999999994
 21
318.0819849896663
 31
0.0
  0
SPLINE
  5
191
330
54
100
AcDbEntity
  8
1
  6
Continuous
 62
     7
100
AcDbSpline
210
0.0
220
0.0
230
1.0
 70
     8
 71
     3
 72
    49
 73
    45
 74
    43
 42
0.0000000001
 43
0.0000000001
 44
0.00000001
 40
0.0
 40
0.0
 40
0.0
 40
0.0
 40
0.0397507771796443
 40
0.0796633929824136
 40
0.2223325157051918
 40
0.366059605698863
 40
0.4965575876547366
 40
0.6270555696107534
 40
0.7707826596042896
 40
0.9134517823271452
 40
1.088184856116161
 40
1.262095748632906
 40
1.475928448002892
 40
1.689468023172501
 40
1.943753884045265
 40
2.197885748303546
 40
2.489234967923721
 40
2.780509711105557
 40
3.102888901809446
 40
3.425227680269876
 40
3.770865495578571
 40
4.116482204135263
 40
4.476496279605851
 40
4.836501153407043
 40
5.201373608170871
 40
5.566246062934245
 40
5.926250936734983
 40
6.286265012205798
 40
6.631881720762252
 40
6.977519536070939
 40
7.299858314531165
 40
7.622237505235066
 40
7.913512248417121
 40
8.204861468037731
 40
8.458993332296243
 40
8.713279193168615
 40
8.926818768337997
 40
9.140651467708333
 40
9.314562360225393
 40
9.48929543401414
 40
9.631964556736746
 40
9.775691646730445
 40
9.906189628686468
 40
10.03668761064246
 40
10.03668761064246
 40
10.03668761064246
 40
10.03668761064246
 10
-1828.400000000009
 20
318.0819849896644
 30
0.0
 10
-1828.391101933015
 20
318.0918044174085
 30
0.0
 10
-1828.373269572041
 20
318.1114832510502
 30
0.0
 10
-1828.325237332973
 20
318.1679231272833
 30
0.0
 10
-1828.264567834022
 20
318.259219967095
 30
0.0
 10
-1828.213791445161
 20
318.3896603412189
 30
0.0
 10
-1828.19342851655
 20
318.5246812159267
 30
0.0
 10
-1828.213826844338
 20
318.6596409663081
 30
0.0
 10
-1828.264409825134
 20
318.7902829934699
 30
0.0
 10
-1828.350945414147
 20
318.9184961525508
 30
0.0
 10
-1828.464375495078
 20
319.037460415189
 30
0.0
 10
-1828.610143300646
 20
319.1559744255351
 30
0.0
 10
-1828.778998565944
 20
319.2646150916802
 30
0.0
 10
-1828.979609371775
 20
319.3717005218108
 30
0.0
 10
-1829.200005820251
 20
319.4688593771372
 30
0.0
 10
-1829.4498996577
 20
319.5620523118681
 30
0.0
 10
-1829.716301884662
 20
319.6451114110095
 30
0.0
 10
-1830.008134741894
 20
319.721846752041
 30
0.0
 10
-1830.313094147376
 20
319.788174809269
 30
0.0
 10
-1830.638131638167
 20
319.8462589625677
 30
0.0
 10
-1830.972726241391
 20
319.8936570015875
 30
0.0
 10
-1831.321166939207
 20
319.9314244562423
 30
0.0
 10
-1831.675421576268
 20
319.9582868866003
 30
0.0
 10
-1832.036734849523
 20
319.9746833936104
 30
0.0
 10
-1832.400000000001
 20
319.9800557573188
 30
0.0
 10
-1832.763265150478
 20
319.9746833936105
 30
0.0
 10
-1833.124578423737
 20
319.9582868865993
 30
0.0
 10
-1833.478833060781
 20
319.9314244562461
 30
0.0
 10
-1833.82727375866
 20
319.8936570015732
 30
0.0
 10
-1834.161868361654
 20
319.8462589626199
 30
0.0
 10
-1834.486905853245
 20
319.7881748090896
 30
0.0
 10
-1834.791865255885
 20
319.7218467526851
 30
0.0
 10
-1835.083698122748
 20
319.6451114088613
 30
0.0
 10
-1835.350100316048
 20
319.5620523194806
 30
0.0
 10
-1835.599994263948
 20
319.4688593527237
 30
0.0
 10
-1835.820390333714
 20
319.371700607206
 30
0.0
 10
-1836.021002339866
 20
319.2646148290365
 30
0.0
 10
-1836.189853562218
 20
319.1559753351615
 30
0.0
 10
-1836.335633829669
 20
319.0374577114404
 30
0.0
 10
-1836.449022088053
 20
318.9185055754246
 30
0.0
 10
-1836.535687297069
 20
318.7902548324792
 30
0.0
 10
-1836.585819501014
 20
318.6597435099594
 30
0.0
 10
-1836.607757123647
 20
318.5243374345716
 30
0.0
 10
-1836.590875663462
 20
318.4383530878131
 30
0.0
 10
-1836.582434933369
 20
318.3953609144338
 30
0.0
 11
-1828.400000000009
 21
318.0819849896644
 31
0.0
 11
-1828.373460680984
 21
318.1115787192714
 31
0.0
 11
-1828.347699346995
 21
318.1420642989997
 31
0.0
 11
-1828.269322310327
 21
318.2612763734783
 31
0.0
 11
-1828.217565066633
 21
318.3953609144338
 31
0.0
 11
-1828.200000000001
 21
318.5246713615322
 31
0.0
 11
-1828.217565066633
 21
318.6539818086307
 31
0.0
 11
-1828.269322310327
 21
318.7880663495861
 31
0.0
 11
-1828.347699346996
 21
318.9072784240647
 31
0.0
 11
-1828.467042061268
 21
319.0349066483169
 31
0.0
 11
-1828.601487845199
 21
319.145221333283
 31
0.0
 11
-1828.780522396968
 21
319.2621446098063
 31
0.0
 11
-1828.968687843954
 21
319.3631045757533
 31
0.0
 11
-1829.200966252527
 21
319.4665842353528
 31
0.0
 11
-1829.438971311582
 21
319.5556718119019
 31
0.0
 11
-1829.716921629117
 21
319.6430101697737
 31
0.0
 11
-1829.998567455253
 21
319.7172840187095
 31
0.0
 11
-1830.313492401212
 21
319.7862087676151
 31
0.0
 11
-1830.630781087392
 21
319.8430434200848
 31
0.0
 11
-1830.972964875828
 21
319.8917851301783
 31
0.0
 11
-1831.316562080916
 21
319.9290929026861
 31
0.0
 11
-1831.67553370548
 21
319.956470033559
 31
0.0
 11
-1832.035168518011
 21
319.9727890646626
 31
0.0
 11
-1832.400000000001
 21
319.9782569705109
 31
0.0
 11
-1832.764831481991
 21
319.9727890646626
 31
0.0
 11
-1833.124466294521
 21
319.956470033559
 31
0.0
 11
-1833.483437919086
 21
319.9290929026861
 31
0.0
 11
-1833.827035124173
 21
319.8917851301785
 31
0.0
 11
-1834.169218912609
 21
319.8430434200849
 31
0.0
 11
-1834.486507598789
 21
319.7862087676152
 31
0.0
 11
-1834.801432544748
 21
319.7172840187095
 31
0.0
 11
-1835.083078370885
 21
319.6430101697737
 31
0.0
 11
-1835.36102868842
 21
319.5556718119019
 31
0.0
 11
-1835.599033747475
 21
319.4665842353527
 31
0.0
 11
-1835.831312156047
 21
319.3631045757531
 31
0.0
 11
-1836.019477603034
 21
319.2621446098062
 31
0.0
 11
-1836.198512154802
 21
319.145221333283
 31
0.0
 11
-1836.332957938734
 21
319.0349066483169
 31
0.0
 11
-1836.452300653006
 21
318.9072784240647
 31
0.0
 11
-1836.530677689675
 21
318.7880663495861
 31
0.0
 11
-1836.582434933369
 21
318.6539818086307
 31
0.0
 11
-1836.600000000001
 21
318.5246713615322
 31
0.0
 11
-1836.582434933369
 21
318.3953609144338
 31
0.0
  0
ARC
  5
192
330
54
100
AcDbEntity
  8
1
  6
Continuous
 62
     7
100
AcDbCircle
 10
-1820.900000000001
 20
360.6911963035149
 30
0.0
 40
0.5
100
AcDbArc
 50
0.0
 51
91.00000000005433
  0
ARC
  5
193
330
54
100
AcDbEntity
  8
1
  6
Continuous
 62
     7
100
AcDbCircle
 10
-1857.678329592584
 20
360.0492281725248
 30
0.0
 40
0.4999999999994834
100
AcDbArc
 50
90.99999999992464
 51
178.7932755350861
  0
ARC
  5
194
330
54
100
AcDbEntity
  8
1
  6
Continuous
 62
     7
100
AcDbCircle
 10
-1857.678329592584
 20
317.9507718274768
 30
0.0
 40
0.5000000000000258
100
AcDbArc
 50
-178.7932755350991
 51
-90.9999999999235
  0
ARC
  5
195
330
54
100
AcDbEntity
  8
1
  6
Continuous
 62
     7
100
AcDbCircle
 10
-1820.900000000001
 20
317.3088036964865
 30
0.0
 40
0.4999999999995032
100
AcDbArc
 50
-91.00000000005488
 51
0.0
  0
ARC
  5
196
330
54
100
AcDbEntity
  8
1
  6
Continuous
 62
     7
100
AcDbCircle
 10
-1857.701212778972
 20
319.0667077862576
 30
0.0
 40
0.4999999999993556
100
AcDbArc
 50
-178.8572593922788
 51
-90.99999999992394
  0
ARC
  5
197
330
54
100
AcDbEntity
  8
1
  6
Continuous
 62
     7
100
AcDbCircle
 10
-1841.900000000002
 20
318.790896591256
 30
0.0
 40
0.5000000000000148
100
AcDbArc
 50
-91.00000000005387
 51
0.0
  0
ENDBLK
  5
56
330
54
100
AcDbEntity
  8
0
100
AcDbBlockEnd
  0
BLOCK
  5
58
330
57
100
AcDbEntity
  8
0
100
AcDbBlockBegin
  2
84-362__11
 70
     0
 71
     0
 10
-2187.438415328391
 20
-48.0960058967834
 30
0.0
  3
84-362__11
  1

  0
LINE
  5
198
330
57
100
AcDbEntity
  8
1
  6
Continuous
 62
     7
100
AcDbLine
 10
-2085.242472640835
 20
119.3583176444275
 30
0.0
 11
-2085.242472640835
 21
122.5830677436956
 31
0.0
  0
LINE
  5
199
330
57
100
AcDbEntity
  8
1
  6
Continuous
 62
     7
100
AcDbLine
 10
-2093.242472640835
 20
119.3583176444275
 30
0.0
 11
-2093.242472640835
 21
122.5830677436956
 31
0.0
  0
SPLINE
  5
19A
330
57
100
AcDbEntity
  8
1
  6
Continuous
 62
     7
100
AcDbSpline
210
0.0
220
0.0
230
1.0
 70
    11
 71
     3
 72
    79
 73
    75
 74
    73
 42
0.0000000001
 43
0.0000000001
 44
0.00000001
 40
0.0
 40
0.0
 40
0.0
 40
0.0
 40
0.1356798685084794
 40
0.2703251399539174
 40
0.435823639870915
 40
0.6005296847883128
 40
0.8035352818376962
 40
1.006265812278085
 40
1.248020401151215
 40
1.489629700028657
 40
1.766844035853667
 40
2.043988721908255
 40
2.35087196081976
 40
2.657717394384004
 40
2.986830548039629
 40
3.315923998130703
 40
3.658774719586045
 40
4.001616853694088
 40
4.34910973045967
 40
4.696602607224797
 40
5.039444741331932
 40
5.382295462786368
 40
5.711388912877895
 40
6.040502066533518
 40
6.347347500098658
 40
6.65423073901016
 40
6.931375425064318
 40
7.208589760889329
 40
7.45019905976678
 40
7.691953648639905
 40
7.894684179080669
 40
8.097689776130014
 40
8.262395821047422
 40
8.42789432096443
 40
8.562539592409641
 40
8.698219460918299
 40
8.821119735224126
 40
8.944020009529954
 40
9.079699878038598
 40
9.214345149483796
 40
9.379843649400772
 40
9.54454969431818
 40
9.747555291367945
 40
9.950285821808327
 40
10.19204041068148
 40
10.43364970955891
 40
10.71086404538348
 40
10.98800873143806
 40
11.29489197035001
 40
11.60173740391425
 40
11.93085055757033
 40
12.25994400766141
 40
12.60279472911584
 40
12.94563686322343
 40
13.29312973998901
 40
13.64062261675414
 40
13.98346475086264
 40
14.32631547231753
 40
14.6554089224086
 40
14.98452207606423
 40
15.29136750962847
 40
15.59825074853997
 40
15.87539543459456
 40
16.15260977041957
 40
16.39421906929701
 40
16.63597365817015
 40
16.83870418861054
 40
17.04170978565991
 40
17.20641583057733
 40
17.37191433049431
 40
17.50655960193973
 40
17.64223947044824
 40
17.76513974475405
 40
17.88804001905988
 40
17.88804001905988
 40
17.88804001905988
 40
17.88804001905988
 10
-2093.225711937815
 20
119.2365656166879
 30
0.0
 10
-2093.21121967438
 20
119.1934939282356
 30
0.0
 10
-2093.182345655084
 20
119.1076789850393
 30
0.0
 10
-2093.098055154397
 20
118.9874865291379
 30
0.0
 10
-2092.990587414361
 20
118.8754618997067
 30
0.0
 10
-2092.851576829108
 20
118.7639805609703
 30
0.0
 10
-2092.690868387322
 20
118.6617917921552
 30
0.0
 10
-2092.499799676701
 20
118.5610221339287
 30
0.0
 10
-2092.28995202639
 20
118.4696178152964
 30
0.0
 10
-2092.051962267962
 20
118.38191375511
 30
0.0
 10
-2091.798282877362
 20
118.3037604924648
 30
0.0
 10
-2091.520352159242
 20
118.2315428703436
 30
0.0
 10
-2091.229940704402
 20
118.1691264350569
 30
0.0
 10
-2090.920386581311
 20
118.1144612901697
 30
0.0
 10
-2090.601743653594
 20
118.0698562513821
 30
0.0
 10
-2090.26990152573
 20
118.0343117102209
 30
0.0
 10
-2089.932529657016
 20
118.0090315860434
 30
0.0
 10
-2089.588429434511
 20
117.9936000171459
 30
0.0
 10
-2089.242472640839
 20
117.9885442703569
 30
0.0
 10
-2088.896515847144
 20
117.993600017142
 30
0.0
 10
-2088.552415624708
 20
118.0090315860586
 30
0.0
 10
-2088.215043755748
 20
118.0343117101652
 30
0.0
 10
-2087.883201628769
 20
118.0698562515813
 30
0.0
 10
-2087.564558697851
 20
118.1144612894465
 30
0.0
 10
-2087.255004585931
 20
118.169126437554
 30
0.0
 10
-2086.964593091354
 20
118.2315428613834
 30
0.0
 10
-2086.686662507872
 20
118.303760522326
 30
0.0
 10
-2086.432982646822
 20
118.3819136493225
 30
0.0
 10
-2086.194994430853
 20
118.4696181542578
 30
0.0
 10
-2085.985141495107
 20
118.5610209489012
 30
0.0
 10
-2085.794089514863
 20
118.6617954311226
 30
0.0
 10
-2085.633324781371
 20
118.7639679689287
 30
0.0
 10
-2085.494487330534
 20
118.8754992288078
 30
0.0
 10
-2085.386439458082
 20
118.9873565843133
 30
0.0
 10
-2085.303941278422
 20
119.1080658335651
 30
0.0
 10
-2085.255715521507
 20
119.2311008182712
 30
0.0
 10
-2085.236178446511
 20
119.3583176444275
 30
0.0
 10
-2085.255715521508
 20
119.4855344705837
 30
0.0
 10
-2085.303941278421
 20
119.6085694552899
 30
0.0
 10
-2085.386439458083
 20
119.7292787045417
 30
0.0
 10
-2085.494487330533
 20
119.8411360600471
 30
0.0
 10
-2085.633324781373
 20
119.9526673199264
 30
0.0
 10
-2085.794089514863
 20
120.0548398577321
 30
0.0
 10
-2085.985141495107
 20
120.155614339954
 30
0.0
 10
-2086.194994430854
 20
120.2470171345973
 30
0.0
 10
-2086.432982646821
 20
120.3347216395325
 30
0.0
 10
-2086.686662507872
 20
120.4128747665292
 30
0.0
 10
-2086.964593091355
 20
120.4850924274715
 30
0.0
 10
-2087.25500458593
 20
120.5475088513008
 30
0.0
 10
-2087.564558697852
 20
120.6021739994087
 30
0.0
 10
-2087.883201628768
 20
120.6467790372736
 30
0.0
 10
-2088.215043755747
 20
120.6823235786899
 30
0.0
 10
-2088.552415624708
 20
120.7076037027963
 30
0.0
 10
-2088.896515847145
 20
120.7230352717134
 30
0.0
 10
-2089.242472640836
 20
120.7280910184969
 30
0.0
 10
-2089.588429434525
 20
120.7230352717136
 30
0.0
 10
-2089.932529656967
 20
120.7076037027953
 30
0.0
 10
-2090.269901525911
 20
120.6823235786938
 30
0.0
 10
-2090.60174365295
 20
120.6467790372601
 30
0.0
 10
-2090.920386583648
 20
120.602173999458
 30
0.0
 10
-2091.229940696332
 20
120.5475088511305
 30
0.0
 10
-2091.520352188195
 20
120.485092428083
 30
0.0
 10
-2091.798282780867
 20
120.4128747644912
 30
0.0
 10
-2092.051962609811
 20
120.3347216467523
 30
0.0
 10
-2092.289950931046
 20
120.247017111464
 30
0.0
 10
-2092.499803506077
 20
120.1556144208292
 30
0.0
 10
-2092.690856628125
 20
120.0548396093818
 30
0.0
 10
-2092.851617519849
 20
119.9526681793015
 30
0.0
 10
-2092.990466786678
 20
119.8411335124297
 30
0.0
 10
-2093.098475066547
 20
119.7292875729495
 30
0.0
 10
-2093.181095567618
 20
119.6085430538497
 30
0.0
 10
-2093.22889651868
 20
119.4856305565973
 30
0.0
 10
-2093.249881101247
 20
119.3579963597378
 30
0.0
 10
-2093.233768325626
 20
119.2770425310379
 30
0.0
 10
-2093.225711937815
 20
119.2365656166879
 30
0.0
 11
-2093.225711937815
 21
119.2365656166879
 31
0.0
 11
-2093.176338209228
 21
119.1101881596637
 31
0.0
 11
-2093.101740147007
 21
118.9980967762502
 31
0.0
 11
-2092.987955838623
 21
118.8779182230875
 31
0.0
 11
-2092.860010881613
 21
118.7741966283832
 31
0.0
 11
-2092.689433393915
 21
118.6641303159882
 31
0.0
 11
-2092.510319726809
 21
118.5691673641164
 31
0.0
 11
-2092.289055378644
 21
118.4717642354571
 31
0.0
 11
-2092.062450836466
 21
118.3879463688166
 31
0.0
 11
-2091.797705665845
 21
118.3057406353202
 31
0.0
 11
-2091.529518212101
 21
118.2358502449744
 31
0.0
 11
-2091.229570041952
 21
118.1709779276961
 31
0.0
 11
-2090.927421884207
 21
118.1174932488583
 31
0.0
 11
-2090.601521652357
 21
118.0716183451576
 31
0.0
 11
-2090.274306500034
 21
118.0365079053588
 31
0.0
 11
-2089.932425365676
 21
118.01074150916
 31
0.0
 11
-2089.589927411479
 21
117.9953831143851
 31
0.0
 11
-2089.242472640835
 21
117.9902370712694
 31
0.0
 11
-2088.895017870192
 21
117.9953831143851
 31
0.0
 11
-2088.552519915995
 21
118.01074150916
 31
0.0
 11
-2088.210638781638
 21
118.0365079053589
 31
0.0
 11
-2087.883423629315
 21
118.0716183451577
 31
0.0
 11
-2087.557523397465
 21
118.1174932488583
 31
0.0
 11
-2087.255375239719
 21
118.1709779276961
 31
0.0
 11
-2086.95542706957
 21
118.2358502449744
 31
0.0
 11
-2086.687239615827
 21
118.3057406353202
 31
0.0
 11
-2086.422494445205
 21
118.3879463688166
 31
0.0
 11
-2086.195889903027
 21
118.4717642354572
 31
0.0
 11
-2085.974625554863
 21
118.5691673641164
 31
0.0
 11
-2085.795511887755
 21
118.6641303159882
 31
0.0
 11
-2085.624934400058
 21
118.7741966283832
 31
0.0
 11
-2085.496989443048
 21
118.8779182230874
 31
0.0
 11
-2085.383205134664
 21
118.9980967762502
 31
0.0
 11
-2085.308607072444
 21
119.1101881596637
 31
0.0
 11
-2085.259233343856
 21
119.2365656166879
 31
0.0
 11
-2085.242472640835
 21
119.3583176444275
 31
0.0
 11
-2085.259233343856
 21
119.4800696721671
 31
0.0
 11
-2085.308607072444
 21
119.6064471291913
 31
0.0
 11
-2085.383205134664
 21
119.7185385126048
 31
0.0
 11
-2085.496989443048
 21
119.8387170657675
 31
0.0
 11
-2085.624934400058
 21
119.9424386604718
 31
0.0
 11
-2085.795511887756
 21
120.0525049728669
 31
0.0
 11
-2085.974625554863
 21
120.1474679247386
 31
0.0
 11
-2086.195889903027
 21
120.2448710533979
 31
0.0
 11
-2086.422494445205
 21
120.3286889200385
 31
0.0
 11
-2086.687239615826
 21
120.4108946535348
 31
0.0
 11
-2086.95542706957
 21
120.4807850438806
 31
0.0
 11
-2087.255375239719
 21
120.5456573611589
 31
0.0
 11
-2087.557523397465
 21
120.5991420399967
 31
0.0
 11
-2087.883423629315
 21
120.6450169436973
 31
0.0
 11
-2088.210638781638
 21
120.6801273834962
 31
0.0
 11
-2088.552519915994
 21
120.705893779695
 31
0.0
 11
-2088.895017870192
 21
120.72125217447
 31
0.0
 11
-2089.242472640835
 21
120.7263982175856
 31
0.0
 11
-2089.589927411479
 21
120.72125217447
 31
0.0
 11
-2089.932425365677
 21
120.705893779695
 31
0.0
 11
-2090.274306500034
 21
120.6801273834962
 31
0.0
 11
-2090.601521652357
 21
120.6450169436974
 31
0.0
 11
-2090.927421884207
 21
120.5991420399967
 31
0.0
 11
-2091.229570041952
 21
120.5456573611589
 31
0.0
 11
-2091.529518212101
 21
120.4807850438806
 31
0.0
 11
-2091.797705665845
 21
120.4108946535348
 31
0.0
 11
-2092.062450836466
 21
120.3286889200385
 31
0.0
 11
-2092.289055378644
 21
120.2448710533979
 31
0.0
 11
-2092.510319726809
 21
120.1474679247386
 31
0.0
 11
-2092.689433393915
 21
120.0525049728668
 31
0.0
 11
-2092.860010881613
 21
119.9424386604718
 31
0.0
 11
-2092.987955838623
 21
119.8387170657675
 31
0.0
 11
-2093.101740147007
 21
119.7185385126048
 31
0.0
 11
-2093.176338209228
 21
119.6064471291913
 31
0.0
 11
-2093.225711937815
 21
119.4800696721671
 31
0.0
 11
-2093.242472640835
 21
119.3583176444275
 31
0.0
 11
-2093.225711937815
 21
119.2365656166879
 31
0.0
  0
ENDBLK
  5
59
330
57
100
AcDbEntity
  8
0
100
AcDbBlockEnd
  0
BLOCK
  5
5D
330
5A
100
AcDbEntity
  8
0
100
AcDbBlockBegin
  2
81-163X__12
 70
     0
 71
     0
 10
-1655.399999999998
 20
94.00000000000003
 30
0.0
  3
81-163X__12
  1

  0
INSERT
  5
5B
330
5A
100
AcDbEntity
  8
1
100
AcDbBlockReference
  2
81-163__10
 10
-2086.649999999998
 20
798.9999999999999
 30
0.0
  0
INSERT
  5
5C
330
5A
100
AcDbEntity
  8
1
100
AcDbBlockReference
  2
84-362__11
 10
-1930.595942687556
 20
148.2882840929117
 30
0.0
  0
LINE
  5
19B
330
5A
100
AcDbEntity
  8
1
  6
PHANTOM
 62
     4
100
AcDbLine
 10
-1858.400000000002
 20
339.0000000000006
 30
0.0
 11
-1820.400000000001
 21
339.0000000000006
 31
0.0
  0
ENDBLK
  5
5E
330
5A
100
AcDbEntity
  8
0
100
AcDbBlockEnd
  0
BLOCK
  5
60
330
5F
100
AcDbEntity
  8
0
100
AcDbBlockBegin
  2
88-552__13
 70
     0
 71
     0
 10
-1948.400000000001
 20
442.0000000000002
 30
0.0
  3
88-552__13
  1

  0
LINE
  5
19C
330
5F
100
AcDbEntity
  8
1
  6
Continuous
 62
     7
100
AcDbLine
 10
-1656.699999999999
 20
358.0000000000006
 30
0.0
 11
-1656.400000000001
 21
358.0000000000006
 31
0.0
  0
LINE
  5
19D
330
5F
100
AcDbEntity
  8
1
  6
Continuous
 62
     7
100
AcDbLine
 10
-1656.400000000001
 20
320.0000000000006
 30
0.0
 11
-1656.699999999999
 21
320.0000000000006
 31
0.0
  0
LINE
  5
19E
330
5F
100
AcDbEntity
  8
1
  6
Continuous
 62
     7
100
AcDbLine
 10
-1656.9
 20
356.9000000000007
 30
0.0
 11
-1656.9
 21
321.1000000000005
 31
0.0
  0
LINE
  5
19F
330
5F
100
AcDbEntity
  8
1
  6
Continuous
 62
     7
100
AcDbLine
 10
-1657.099999999999
 20
361.0000000000006
 30
0.0
 11
-1663.400000000001
 21
361.0000000000006
 31
0.0
  0
LINE
  5
1A0
330
5F
100
AcDbEntity
  8
1
  6
Continuous
 62
     7
100
AcDbLine
 10
-1663.400000000001
 20
317.0000000000006
 30
0.0
 11
-1657.099999999999
 21
317.0000000000006
 31
0.0
  0
LINE
  5
1A1
330
5F
100
AcDbEntity
  8
1
  6
Continuous
 62
     7
100
AcDbLine
 10
-1656.900000000001
 20
317.2000000000006
 30
0.0
 11
-1656.9
 21
321.1000000000005
 31
0.0
  0
LINE
  5
1A2
330
5F
100
AcDbEntity
  8
1
  6
Continuous
 62
     7
100
AcDbLine
 10
-1656.9
 20
356.9000000000007
 30
0.0
 11
-1656.899999999999
 21
360.8000000000004
 31
0.0
  0
ARC
  5
1A3
330
5F
100
AcDbEntity
  8
1
  6
Continuous
 62
     7
100
AcDbCircle
 10
-1657.099999999999
 20
317.2000000000006
 30
0.0
 40
0.1999999999999886
100
AcDbArc
 50
-90.0
 51
0.0
  0
ARC
  5
1A4
330
5F
100
AcDbEntity
  8
1
  6
Continuous
 62
     7
100
AcDbCircle
 10
-1657.099999999999
 20
360.8000000000004
 30
0.0
 40
0.2000000000000455
100
AcDbArc
 50
0.0
 51
90.0
  0
ARC
  5
1A5
330
5F
100
AcDbEntity
  8
1
  6
Continuous
 62
     7
100
AcDbCircle
 10
-1656.699999999999
 20
358.2000000000005
 30
0.0
 40
0.2000000000000455
100
AcDbArc
 50
180.0
 51
-90.0
  0
ARC
  5
1A6
330
5F
100
AcDbEntity
  8
1
  6
Continuous
 62
     7
100
AcDbCircle
 10
-1656.699999999999
 20
319.8000000000004
 30
0.0
 40
0.200000000000216
100
AcDbArc
 50
90.0
 51
180.0
  0
ENDBLK
  5
61
330
5F
100
AcDbEntity
  8
0
100
AcDbBlockEnd
  0
BLOCK
  5
63
330
62
100
AcDbEntity
  8
0
100
AcDbBlockBegin
  2
06-95-C2__14
 70
     0
 71
     0
 10
-1556.861366061873
 20
132.152828175
 30
0.0
  3
06-95-C2__14
  1

  0
LINE
  5
1A7
330
62
100
AcDbEntity
  8
1
  6
Continuous
 62
     7
100
AcDbLine
 10
-1683.000000000003
 20
399.5000000000006
 30
0.0
 11
-1683.000000000003
 21
409.9200000000015
 31
0.0
  0
LINE
  5
1A8
330
62
100
AcDbEntity
  8
1
  6
Continuous
 62
     2
100
AcDbLine
 10
-1684.080000000003
 20
411.0000000000015
 30
0.0
 11
-1684.080000000003
 21
399.5000000000006
 31
0.0
  0
LINE
  5
1A9
330
62
100
AcDbEntity
  8
1
  6
Continuous
 62
     7
100
AcDbLine
 10
-1702.720000000003
 20
411.0000000000016
 30
0.0
 11
-1684.080000000003
 21
411.0000000000015
 31
0.0
  0
LINE
  5
1AA
330
62
100
AcDbEntity
  8
1
  6
Continuous
 62
     7
100
AcDbLine
 10
-1684.080000000003
 20
411.0000000000015
 30
0.0
 11
-1683.000000000003
 21
409.9200000000015
 31
0.0
  0
LINE
  5
1AB
330
62
100
AcDbEntity
  8
1
  6
Continuous
 62
     2
100
AcDbLine
 10
-1702.720000000003
 20
399.5000000000006
 30
0.0
 11
-1702.720000000003
 21
411.0000000000016
 31
0.0
  0
LINE
  5
1AC
330
62
100
AcDbEntity
  8
1
  6
Continuous
 62
     7
100
AcDbLine
 10
-1703.800000000003
 20
409.9200000000016
 30
0.0
 11
-1702.720000000003
 21
411.0000000000016
 31
0.0
  0
LINE
  5
1AD
330
62
100
AcDbEntity
  8
1
  6
Continuous
 62
     7
100
AcDbLine
 10
-1703.800000000003
 20
409.9200000000016
 30
0.0
 11
-1703.800000000003
 21
399.5000000000006
 31
0.0
  0
LINE
  5
1AE
330
62
100
AcDbEntity
  8
1
  6
Continuous
 62
     7
100
AcDbLine
 10
-1703.800000000003
 20
409.9200000000016
 30
0.0
 11
-1683.000000000003
 21
409.9200000000015
 31
0.0
  0
ENDBLK
  5
64
330
62
100
AcDbEntity
  8
0
100
AcDbBlockEnd
  0
BLOCK
  5
67
330
65
100
AcDbEntity
  8
0
100
AcDbBlockBegin
  2
30-289X__15
 70
     0
 71
     0
 10
-1144.400000000001
 20
20.99999999997291
 30
0.0
  3
30-289X__15
  1

  0
INSERT
  5
66
330
65
100
AcDbEntity
  8
1
100
AcDbBlockReference
  2
06-95-C2__14
 10
-1556.861366061873
 20
132.1528281750001
 30
0.0
  0
ENDBLK
  5
68
330
65
100
AcDbEntity
  8
0
100
AcDbBlockEnd
  0
BLOCK
  5
6A
330
69
100
AcDbEntity
  8
0
100
AcDbBlockBegin
  2
88-489__16
 70
     0
 71
     0
 10
-871.1093554627166
 20
163.5131654676256
 30
0.0
  3
88-489__16
  1

  0
LINE
  5
1AF
330
69
100
AcDbEntity
  8
1
  6
Continuous
 62
     7
100
AcDbLine
 10
-1819.700000000001
 20
317.0000000000004
 30
0.0
 11
-1813.400000000001
 21
317.0000000000004
 31
0.0
  0
LINE
  5
1B0
330
69
100
AcDbEntity
  8
1
  6
Continuous
 62
     7
100
AcDbLine
 10
-1820.100000000001
 20
320.0000000000004
 30
0.0
 11
-1820.400000000001
 21
320.0000000000004
 31
0.0
  0
LINE
  5
1B1
330
69
100
AcDbEntity
  8
1
  6
Continuous
 62
     7
100
AcDbLine
 10
-1813.400000000001
 20
361.0000000000004
 30
0.0
 11
-1819.700000000001
 21
361.0000000000004
 31
0.0
  0
LINE
  5
1B2
330
69
100
AcDbEntity
  8
1
  6
Continuous
 62
     7
100
AcDbLine
 10
-1819.900000000001
 20
360.8000000000019
 30
0.0
 11
-1819.900000000001
 21
317.2000000000009
 31
0.0
  0
LINE
  5
1B3
330
69
100
AcDbEntity
  8
1
  6
Continuous
 62
     7
100
AcDbLine
 10
-1820.400000000001
 20
358.0000000000005
 30
0.0
 11
-1820.100000000001
 21
358.0000000000004
 31
0.0
  0
ARC
  5
1B4
330
69
100
AcDbEntity
  8
1
  6
Continuous
 62
     7
100
AcDbCircle
 10
-1819.700000000001
 20
317.2000000000009
 30
0.0
 40
0.2000000000000455
100
AcDbArc
 50
180.0
 51
-90.0
  0
ARC
  5
1B5
330
69
100
AcDbEntity
  8
1
  6
Continuous
 62
     7
100
AcDbCircle
 10
-1819.700000000001
 20
360.8000000000019
 30
0.0
 40
0.1999999999985107
100
AcDbArc
 50
90.0
 51
180.0
  0
ARC
  5
1B6
330
69
100
AcDbEntity
  8
1
  6
Continuous
 62
     7
100
AcDbCircle
 10
-1820.100000000001
 20
319.800000000001
 30
0.0
 40
0.2000000000000455
100
AcDbArc
 50
0.00000000026055
 51
90.0
  0
ARC
  5
1B7
330
69
100
AcDbEntity
  8
1
  6
Continuous
 62
     7
100
AcDbCircle
 10
-1820.100000000001
 20
358.2000000000002
 30
0.0
 40
0.1999999999998181
100
AcDbArc
 50
-90.0
 51
0.00000000011399
  0
ENDBLK
  5
6B
330
69
100
AcDbEntity
  8
0
100
AcDbBlockEnd
  0
BLOCK
  5
6D
330
6C
100
AcDbEntity
  8
0
100
AcDbBlockBegin
  2
98-203__17
 70
     0
 71
     0
 10
-1948.400000000001
 20
442.0000000000002
 30
0.0
  3
98-203__17
  1

  0
LINE
  5
1B8
330
6C
100
AcDbEntity
  8
1
  6
Continuous
 62
     7
100
AcDbLine
 10
-1811.400000000001
 20
399.5000000000006
 30
0.0
 11
-1665.400000000001
 21
399.5000000000006
 31
0.0
  0
LINE
  5
1B9
330
6C
100
AcDbEntity
  8
1
  6
Continuous
 62
     7
100
AcDbLine
 10
-1665.400000000001
 20
399.5000000000006
 30
0.0
 11
-1665.400000000001
 21
392.0000000000006
 31
0.0
  0
LINE
  5
1BA
330
6C
100
AcDbEntity
  8
1
  6
Continuous
 62
     7
100
AcDbLine
 10
-1665.400000000001
 20
392.0000000000006
 30
0.0
 11
-1811.400000000001
 21
392.0000000000006
 31
0.0
  0
LINE
  5
1BB
330
6C
100
AcDbEntity
  8
1
  6
Continuous
 62
     7
100
AcDbLine
 10
-1811.400000000001
 20
392.0000000000006
 30
0.0
 11
-1811.400000000001
 21
399.5000000000006
 31
0.0
  0
ENDBLK
  5
6E
330
6C
100
AcDbEntity
  8
0
100
AcDbBlockEnd
  0
BLOCK
  5
70
330
6F
100
AcDbEntity
  8
0
100
AcDbBlockBegin
  2
76-106-C4__18
 70
     0
 71
     0
 10
-1872.400000000001
 20
-2.99999999999966
 30
0.0
  3
76-106-C4__18
  1

  0
LINE
  5
1BC
330
6F
100
AcDbEntity
  8
1
  6
Continuous
 62
     7
100
AcDbLine
 10
-1811.400000000001
 20
271.7491245307531
 30
0.0
 11
-1813.400000000001
 21
271.7491245307531
 31
0.0
  0
LINE
  5
1BD
330
6F
100
AcDbEntity
  8
1
  6
Continuous
 62
     7
100
AcDbLine
 10
-1811.400000000001
 20
272.5319879457386
 30
0.0
 11
-1665.400000000001
 21
272.5319879457386
 31
0.0
  0
LINE
  5
1BE
330
6F
100
AcDbEntity
  8
1
  6
Continuous
 62
     7
100
AcDbLine
 10
-1813.400000000001
 20
385.0000000000006
 30
0.0
 11
-1813.400000000001
 21
392.0000000000006
 31
0.0
  0
LINE
  5
1BF
330
6F
100
AcDbEntity
  8
1
  6
Continuous
 62
     7
100
AcDbLine
 10
-1813.400000000001
 20
392.0000000000006
 30
0.0
 11
-1768.400000000001
 21
392.0000000000006
 31
0.0
  0
LINE
  5
1C0
330
6F
100
AcDbEntity
  8
1
  6
Continuous
 62
     7
100
AcDbLine
 10
-1813.400000000001
 20
392.0000000000006
 30
0.0
 11
-1663.400000000001
 21
392.0000000000006
 31
0.0
  0
LINE
  5
1C1
330
6F
100
AcDbEntity
  8
1
  6
Continuous
 62
     7
100
AcDbLine
 10
-1663.400000000001
 20
392.0000000000006
 30
0.0
 11
-1663.400000000001
 21
271.7491245307531
 31
0.0
  0
LINE
  5
1C2
330
6F
100
AcDbEntity
  8
1
  6
Continuous
 62
     7
100
AcDbLine
 10
-1665.400000000001
 20
271.7491245307531
 30
0.0
 11
-1665.400000000001
 21
301.7814041347147
 31
0.0
  0
LINE
  5
1C3
330
6F
100
AcDbEntity
  8
1
  6
Continuous
 62
     7
100
AcDbLine
 10
-1811.400000000001
 20
301.7814041347147
 30
0.0
 11
-1665.400000000001
 21
301.7814041347147
 31
0.0
  0
LINE
  5
1C4
330
6F
100
AcDbEntity
  8
1
  6
Continuous
 62
     7
100
AcDbLine
 10
-1811.400000000001
 20
271.7491245307531
 30
0.0
 11
-1811.400000000001
 21
301.7814041347147
 31
0.0
  0
LINE
  5
1C5
330
6F
100
AcDbEntity
  8
1
  6
Continuous
 62
     7
100
AcDbLine
 10
-1663.400000000001
 20
271.7491245307531
 30
0.0
 11
-1665.400000000001
 21
271.7491245307531
 31
0.0
  0
LINE
  5
1C6
330
6F
100
AcDbEntity
  8
1
  6
Continuous
 62
     7
100
AcDbLine
 10
-1813.400000000001
 20
271.7491245307531
 30
0.0
 11
-1813.400000000001
 21
392.0000000000006
 31
0.0
  0
ENDBLK
  5
71
330
6F
100
AcDbEntity
  8
0
100
AcDbBlockEnd
  0
BLOCK
  5
73
330
72
100
AcDbEntity
  8
0
100
AcDbBlockBegin
  2
06-95-C2__19
 70
     0
 71
     0
 10
-1919.938633938129
 20
132.152828175
 30
0.0
  3
06-95-C2__19
  1

  0
LINE
  5
1C7
330
72
100
AcDbEntity
  8
1
  6
Continuous
 62
     7
100
AcDbLine
 10
-1793.799999999998
 20
409.9200000000015
 30
0.0
 11
-1772.999999999998
 21
409.9200000000016
 31
0.0
  0
LINE
  5
1C8
330
72
100
AcDbEntity
  8
1
  6
Continuous
 62
     7
100
AcDbLine
 10
-1772.999999999998
 20
399.5000000000006
 30
0.0
 11
-1772.999999999998
 21
409.9200000000016
 31
0.0
  0
LINE
  5
1C9
330
72
100
AcDbEntity
  8
1
  6
Continuous
 62
     7
100
AcDbLine
 10
-1774.079999999998
 20
411.0000000000016
 30
0.0
 11
-1772.999999999998
 21
409.9200000000016
 31
0.0
  0
LINE
  5
1CA
330
72
100
AcDbEntity
  8
1
  6
Continuous
 62
     2
100
AcDbLine
 10
-1774.079999999998
 20
411.0000000000016
 30
0.0
 11
-1774.079999999998
 21
399.5000000000006
 31
0.0
  0
LINE
  5
1CB
330
72
100
AcDbEntity
  8
1
  6
Continuous
 62
     7
100
AcDbLine
 10
-1792.719999999998
 20
411.0000000000015
 30
0.0
 11
-1774.079999999998
 21
411.0000000000016
 31
0.0
  0
LINE
  5
1CC
330
72
100
AcDbEntity
  8
1
  6
Continuous
 62
     7
100
AcDbLine
 10
-1793.799999999998
 20
409.9200000000015
 30
0.0
 11
-1792.719999999998
 21
411.0000000000015
 31
0.0
  0
LINE
  5
1CD
330
72
100
AcDbEntity
  8
1
  6
Continuous
 62
     2
100
AcDbLine
 10
-1792.719999999998
 20
399.5000000000006
 30
0.0
 11
-1792.719999999998
 21
411.0000000000015
 31
0.0
  0
LINE
  5
1CE
330
72
100
AcDbEntity
  8
1
  6
Continuous
 62
     7
100
AcDbLine
 10
-1793.799999999998
 20
409.9200000000015
 30
0.0
 11
-1793.799999999998
 21
399.5000000000006
 31
0.0
  0
ENDBLK
  5
74
330
72
100
AcDbEntity
  8
0
100
AcDbBlockEnd
  0
BLOCK
  5
77
330
75
100
AcDbEntity
  8
0
100
AcDbBlockBegin
  2
30-289X__20
 70
     0
 71
     0
 10
-2332.400000000001
 20
20.99999999997291
 30
0.0
  3
30-289X__20
  1

  0
INSERT
  5
76
330
75
100
AcDbEntity
  8
1
100
AcDbBlockReference
  2
06-95-C2__19
 10
-1919.938633938129
 20
132.1528281750001
 30
0.0
  0
ENDBLK
  5
78
330
75
100
AcDbEntity
  8
0
100
AcDbBlockEnd
  0
BLOCK
  5
7A
330
79
100
AcDbEntity
  8
0
100
AcDbBlockBegin
  2
76-106-C4__21
 70
     0
 71
     0
 10
-3569.668384925381
 20
-680.0963032728038
 30
0.0
  3
76-106-C4__21
  1

  0
LINE
  5
1CF
330
79
100
AcDbEntity
  8
1
  6
Continuous
 62
     7
100
AcDbLine
 10
-3360.668384925381
 20
-433.0963032728035
 30
0.0
 11
-3360.66838492538
 21
-507.9051632209803
 31
0.0
  0
LINE
  5
1D0
330
79
100
AcDbEntity
  8
1
  6
Continuous
 62
     7
100
AcDbLine
 10
-3362.668384925381
 20
-449.6963032728033
 30
0.0
 11
-3362.668384925381
 21
-506.8786653050451
 31
0.0
  0
LINE
  5
1D1
330
79
100
AcDbEntity
  8
1
  6
Continuous
 62
     7
100
AcDbLine
 10
-3508.668384925381
 20
-449.6963032728033
 30
0.0
 11
-3508.66838492538
 21
-506.8786653050451
 31
0.0
  0
LINE
  5
1D2
330
79
100
AcDbEntity
  8
1
  6
Continuous
 62
     7
100
AcDbLine
 10
-3510.668384925381
 20
-433.0963032728031
 30
0.0
 11
-3360.668384925381
 21
-433.0963032728035
 31
0.0
  0
LINE
  5
1D3
330
79
100
AcDbEntity
  8
1
  6
Continuous
 62
     7
100
AcDbLine
 10
-3360.668384925381
 20
-565.0963032728032
 30
0.0
 11
-3425.618666748082
 21
-565.0963032728032
 31
0.0
  0
LINE
  5
1D4
330
79
100
AcDbEntity
  8
1
  6
Continuous
 62
     7
100
AcDbLine
 10
-3508.668384925381
 20
-449.6963032728033
 30
0.0
 11
-3362.668384925381
 21
-449.6963032728033
 31
0.0
  0
LINE
  5
1D5
330
79
100
AcDbEntity
  8
1
  6
Continuous
 62
     7
100
AcDbLine
 10
-3508.66838492538
 20
-451.0950095321584
 30
0.0
 11
-3362.66838492538
 21
-451.0950095321584
 31
0.0
  0
LINE
  5
1D6
330
79
100
AcDbEntity
  8
1
  6
Continuous
 62
     7
100
AcDbLine
 10
-3510.66838492538
 20
-507.9051632209803
 30
0.0
 11
-3360.66838492538
 21
-507.9051632209803
 31
0.0
  0
LINE
  5
1D7
330
79
100
AcDbEntity
  8
1
  6
Continuous
 62
     7
100
AcDbLine
 10
-3508.66838492538
 20
-506.8786653050451
 30
0.0
 11
-3362.668384925381
 21
-506.8786653050451
 31
0.0
  0
LINE
  5
1D8
330
79
100
AcDbEntity
  8
1
  6
Continuous
 62
     7
100
AcDbLine
 10
-3360.668384925381
 20
-513.0963032727766
 30
0.0
 11
-3360.668384925381
 21
-565.0963032728032
 31
0.0
  0
LINE
  5
1D9
330
79
100
AcDbEntity
  8
1
  6
Continuous
 62
     7
100
AcDbLine
 10
-3510.66838492538
 20
-507.9051632209803
 30
0.0
 11
-3510.668384925381
 21
-433.0963032728031
 31
0.0
  0
LINE
  5
1DA
330
79
100
AcDbEntity
  8
1
  6
Continuous
 62
     7
100
AcDbLine
 10
-3510.668384925381
 20
-559.8463032727742
 30
0.0
 11
-3510.668384925381
 21
-513.0963032727804
 31
0.0
  0
ENDBLK
  5
7B
330
79
100
AcDbEntity
  8
0
100
AcDbBlockEnd
  0
BLOCK
  5
7D
330
7C
100
AcDbEntity
  8
0
100
AcDbBlockBegin
  2
76-106-C4__22
 70
     0
 71
     0
 10
-3301.16838492538
 20
-680.0963032728043
 30
0.0
  3
76-106-C4__22
  1

  0
LINE
  5
1DB
330
7C
100
AcDbEntity
  8
1
  6
Continuous
 62
     7
100
AcDbLine
 10
-2919.16838492538
 20
-565.0963032728038
 30
0.0
 11
-2919.16838492538
 21
-483.0963032728039
 31
0.0
  0
LINE
  5
1DC
330
7C
100
AcDbEntity
  8
1
  6
Continuous
 62
     7
100
AcDbLine
 10
-2912.16838492538
 20
-565.0963032728038
 30
0.0
 11
-2912.16838492538
 21
-483.0963032728039
 31
0.0
  0
LINE
  5
1DD
330
7C
100
AcDbEntity
  8
1
  6
Continuous
 62
     7
100
AcDbLine
 10
-2919.16838492538
 20
-565.0963032728038
 30
0.0
 11
-2912.16838492538
 21
-565.0963032728038
 31
0.0
  0
ARC
  5
1DE
330
7C
100
AcDbEntity
  8
1
  6
Continuous
 62
     7
100
AcDbCircle
 10
-2962.16838492538
 20
-483.0963032728039
 30
0.0
 40
43.0
100
AcDbArc
 50
0.0
 51
90.0
  0
ARC
  5
1DF
330
7C
100
AcDbEntity
  8
1
  6
Continuous
 62
     7
100
AcDbCircle
 10
-2916.427656639246
 20
-540.4486839106193
 30
0.0
 40
124.9999999999995
100
AcDbArc
 50
132.1950745373472
 51
154.8468327922604
  0
ARC
  5
1E0
330
7C
100
AcDbEntity
  8
1
  6
Continuous
 62
     7
100
AcDbCircle
 10
-2962.16838492538
 20
-489.9949734569221
 30
0.0
 40
56.89867018411826
100
AcDbArc
 50
90.0
 51
132.1950745373472
  0
ARC
  5
1E1
330
7C
100
AcDbEntity
  8
1
  6
Continuous
 62
     7
100
AcDbCircle
 10
-2962.16838492538
 20
-483.0963032728039
 30
0.0
 40
50.0
100
AcDbArc
 50
0.0
 51
90.0
  0
ARC
  5
1E2
330
7C
100
AcDbEntity
  8
1
  6
Continuous
 62
     7
100
AcDbCircle
 10
-2962.16838492538
 20
-489.9949734569221
 30
0.0
 40
49.8986701841182
100
AcDbArc
 50
90.0
 51
132.195074537347
  0
ARC
  5
1E3
330
7C
100
AcDbEntity
  8
1
  6
Continuous
 62
     7
100
AcDbCircle
 10
-2916.427656639246
 20
-540.4486839106193
 30
0.0
 40
117.9999999999993
100
AcDbArc
 50
132.1950745373471
 51
163.6276589413696
  0
ARC
  5
1E4
330
7C
100
AcDbEntity
  8
1
  6
Continuous
 62
     7
100
AcDbCircle
 10
-3030.60222569805
 20
-506.9051632208656
 30
0.0
 40
1.000000000115335
100
AcDbArc
 50
-90.0
 51
-16.37234105863396
  0
ARC
  5
1E5
330
7C
100
AcDbEntity
  8
1
  6
Continuous
 62
     7
100
AcDbCircle
 10
-3002.419260394641
 20
-500.0699260845594
 30
0.0
 40
29.99999999998636
100
AcDbArc
 50
180.0
 51
-166.3672388419673
  0
ARC
  5
1E6
330
7C
100
AcDbEntity
  8
1
  6
Continuous
 62
     7
100
AcDbCircle
 10
-3030.60222569805
 20
-506.9051632208656
 30
0.0
 40
0.9999999999401282
100
AcDbArc
 50
-166.3672388419683
 51
-90.0
  0
ARC
  5
1E7
330
7C
100
AcDbEntity
  8
1
  6
Continuous
 62
     7
100
AcDbCircle
 10
-3002.419260394641
 20
-500.0699260845594
 30
0.0
 40
29.99999999999944
100
AcDbArc
 50
154.8468327922606
 51
180.0
  0
ENDBLK
  5
7E
330
7C
100
AcDbEntity
  8
0
100
AcDbBlockEnd
  0
BLOCK
  5
80
330
7F
100
AcDbEntity
  8
0
100
AcDbBlockBegin
  2
84-353-D
 70
     0
 71
     0
 10
-933.5620942485928
 20
-624.6119315267004
 30
0.0
  3
84-353-D
  1

  0
SPLINE
  5
1E8
330
7F
100
AcDbEntity
  8
1
  6
Continuous
 62
     7
100
AcDbSpline
210
0.0
220
0.0
230
1.0
 70
    11
 71
     3
 72
    79
 73
    75
 74
    73
 42
0.0000000001
 43
0.0000000001
 44
0.00000001
 40
0.0
 40
0.0
 40
0.0
 40
0.0
 40
1.300212192548911
 40
2.600078458890143
 40
3.938269128534079
 40
5.27589929045053
 40
6.670218798451614
 40
8.063928735334969
 40
9.524204397440673
 40
10.98393562973745
 40
12.51135470145286
 40
14.03834290030302
 40
15.62633638018349
 40
17.21401999504537
 40
18.84976923327042
 40
20.48532100425568
 40
22.15150445113789
 40
23.81759230916423
 40
25.49418864973357
 40
27.17078499030298
 40
28.83687284832937
 40
30.50305629521158
 40
32.13860806619684
 40
33.77435730442193
 40
35.36204091928376
 40
36.95003439916435
 40
38.47702259801433
 40
40.00444166972939
 40
41.46417290202604
 40
42.92444856413192
 40
44.31815850101531
 40
45.71247800901641
 40
47.0501081709328
 40
48.3882988405765
 40
49.68816510691838
 40
50.98837729946735
 40
52.27501368443686
 40
53.56165006940546
 40
54.86186226195398
 40
56.16172852829582
 40
57.49991919794033
 40
58.83754935985658
 40
60.23186886785754
 40
61.62557880474125
 40
63.08585446684709
 40
64.54558569914393
 40
66.07300477085929
 40
67.59999296970901
 40
69.18798644958947
 40
70.77567006445122
 40
72.41141930267634
 40
74.04697107366168
 40
75.71315452054401
 40
77.37924237857034
 40
79.05583871913967
 40
80.73243505970902
 40
82.39852291773542
 40
84.06470636461772
 40
85.70025813560295
 40
87.33600737382803
 40
88.92369098868976
 40
90.51168446857028
 40
92.03867266742036
 40
93.56609173913557
 40
95.02582297143236
 40
96.48609863353821
 40
97.87980857042187
 40
99.27412807842318
 40
100.6117582403394
 40
101.9499489099834
 40
103.2498151763251
 40
104.5500273688742
 40
105.836663753843
 40
107.1233001388125
 40
107.1233001388125
 40
107.1233001388125
 40
107.1233001388125
 10
-1410.535839532304
 20
-217.6137113533933
 30
0.0
 10
-1410.965049079389
 20
-217.6772586990605
 30
0.0
 10
-1411.823353980791
 20
-217.8043364833912
 30
0.0
 10
-1413.084649757409
 20
-218.1828868180233
 30
0.0
 10
-1414.311464276399
 20
-218.6892274508019
 30
0.0
 10
-1415.50393102236
 20
-219.3417830726466
 30
0.0
 10
-1416.640288414002
 20
-220.1202733946705
 30
0.0
 10
-1417.726353063578
 20
-221.0322696651181
 30
0.0
 10
-1418.739358430821
 20
-222.0555665034284
 30
0.0
 10
-1419.686446147553
 20
-223.1983839750529
 30
0.0
 10
-1420.547135831178
 20
-224.4347519001435
 30
0.0
 10
-1421.32738935478
 20
-225.7729043784214
 30
0.0
 10
-1422.011057381223
 20
-227.1852145130815
 30
0.0
 10
-1422.601759339611
 20
-228.6777706254816
 30
0.0
 10
-1423.088479904167
 20
-230.2240139218854
 30
0.0
 10
-1423.472582270401
 20
-231.8257150839764
 30
0.0
 10
-1423.747868989361
 20
-233.4599120974255
 30
0.0
 10
-1423.914461261028
 20
-235.122444262696
 30
0.0
 10
-1423.969844918492
 20
-236.7958556086154
 30
0.0
 10
-1423.91446126103
 20
-238.4692669545752
 30
0.0
 10
-1423.74786898935
 20
-240.1317991197255
 30
0.0
 10
-1423.47258227044
 20
-241.7659961336116
 30
0.0
 10
-1423.088479904023
 20
-243.3676972941032
 30
0.0
 10
-1422.601759340146
 20
-244.9139405963951
 30
0.0
 10
-1422.01105737929
 20
-246.4064966874373
 30
0.0
 10
-1421.327389361884
 20
-247.8188069003057
 30
0.0
 10
-1420.547135805791
 20
-249.1569590973938
 30
0.0
 10
-1419.686446240671
 20
-250.3933280481034
 30
0.0
 10
-1418.73935810032
 20
-251.5361418534159
 30
0.0
 10
-1417.726354275608
 20
-252.5594520419299
 30
0.0
 10
-1416.640284118371
 20
-253.47140064502
 30
0.0
 10
-1415.503946810807
 20
-254.2500647894005
 30
0.0
 10
-1414.311407998349
 20
-254.9019966949379
 30
0.0
 10
-1413.084857634132
 20
-255.4106235168114
 30
0.0
 10
-1411.822602719276
 20
-255.7808727658326
 30
0.0
 10
-1410.543115931907
 20
-256.0015256934174
 30
0.0
 10
-1409.2513450485
 20
-256.0774187931846
 30
0.0
 10
-1407.959574165093
 20
-256.0015256934173
 30
0.0
 10
-1406.680087377724
 20
-255.7808727658325
 30
0.0
 10
-1405.417832462868
 20
-255.4106235168114
 30
0.0
 10
-1404.19128209865
 20
-254.9019966949384
 30
0.0
 10
-1402.998743286192
 20
-254.2500647894005
 30
0.0
 10
-1401.86240597863
 20
-253.4714006450198
 30
0.0
 10
-1400.776335821391
 20
-252.5594520419301
 30
0.0
 10
-1399.763331996679
 20
-251.5361418534159
 30
0.0
 10
-1398.816243856328
 20
-250.3933280481033
 30
0.0
 10
-1397.955554291207
 20
-249.1569590973941
 30
0.0
 10
-1397.175300735115
 20
-247.8188069003057
 30
0.0
 10
-1396.49163271771
 20
-246.4064966874373
 30
0.0
 10
-1395.900930756853
 20
-244.9139405963952
 30
0.0
 10
-1395.414210192977
 20
-243.3676972941033
 30
0.0
 10
-1395.030107826559
 20
-241.7659961336114
 30
0.0
 10
-1394.754821107648
 20
-240.1317991197259
 30
0.0
 10
-1394.588228835969
 20
-238.4692669545736
 30
0.0
 10
-1394.532845178508
 20
-236.7958556086217
 30
0.0
 10
-1394.588228835969
 20
-235.1224442626728
 30
0.0
 10
-1394.75482110765
 20
-233.4599120975117
 30
0.0
 10
-1395.030107826556
 20
-231.8257150836574
 30
0.0
 10
-1395.414210192987
 20
-230.2240139230513
 30
0.0
 10
-1395.900930756816
 20
-228.6777706211803
 30
0.0
 10
-1396.491632717847
 20
-227.1852145286126
 30
0.0
 10
-1397.175300734608
 20
-225.7729043213296
 30
0.0
 10
-1397.95555429302
 20
-224.4347521041595
 30
0.0
 10
-1398.816243849678
 20
-223.1983832266969
 30
0.0
 10
-1399.763332020283
 20
-222.0555691595466
 30
0.0
 10
-1400.776335734831
 20
-221.0322599244667
 30
0.0
 10
-1401.862406285412
 20
-220.1203079171072
 30
0.0
 10
-1402.998742158626
 20
-219.3416561866347
 30
0.0
 10
-1404.191286117871
 20
-218.6896797370177
 30
0.0
 10
-1405.417817616892
 20
-218.1812161883932
 30
0.0
 10
-1406.680141030726
 20
-217.8103740989898
 30
0.0
 10
-1407.959374559251
 20
-217.591913059144
 30
0.0
 10
-1409.252081378688
 20
-217.5079196826914
 30
0.0
 10
-1410.107920147765
 20
-217.5784474631593
 30
0.0
 10
-1410.535839532304
 20
-217.6137113533933
 30
0.0
 11
-1410.535839532304
 21
-217.6137113533933
 31
0.0
 11
-1411.817069770565
 21
-217.8350726467993
 31
0.0
 11
-1413.06489013161
 21
-218.1992108855658
 31
0.0
 11
-1414.301197181277
 21
-218.7113623741567
 31
0.0
 11
-1415.475832836621
 21
-219.3512729360822
 31
0.0
 11
-1416.626656531075
 21
-220.1385033436988
 31
0.0
 11
-1417.695170373236
 21
-221.0333248662814
 31
0.0
 11
-1418.723506678508
 21
-222.0701129124118
 31
0.0
 11
-1419.656134291707
 21
-223.1930648284082
 31
0.0
 11
-1420.529960144851
 21
-224.4458367146739
 31
0.0
 11
-1421.300150011236
 21
-225.7643588150366
 31
0.0
 11
-1421.993149851458
 21
-227.1931605905101
 31
0.0
 11
-1422.578183844743
 21
-228.6691262024405
 31
0.0
 11
-1423.070197765625
 21
-230.2291255203933
 31
0.0
 11
-1423.452067974549
 21
-231.8194728846847
 31
0.0
 11
-1423.729417037773
 21
-233.4624107337201
 31
0.0
 11
-1423.89565532053
 21
-235.1201844167085
 31
0.0
 11
-1423.951345048499
 21
-236.7958556086221
 31
0.0
 11
-1423.895655320529
 21
-238.4715268005358
 31
0.0
 11
-1423.729417037773
 21
-240.1293004835243
 31
0.0
 11
-1423.452067974549
 21
-241.7722383325597
 31
0.0
 11
-1423.070197765624
 21
-243.3625856968512
 31
0.0
 11
-1422.578183844743
 21
-244.9225850148039
 31
0.0
 11
-1421.993149851458
 21
-246.3985506267343
 31
0.0
 11
-1421.300150011236
 21
-247.8273524022077
 31
0.0
 11
-1420.529960144851
 21
-249.1458745025703
 31
0.0
 11
-1419.656134291707
 21
-250.3986463888359
 31
0.0
 11
-1418.723506678508
 21
-251.5215983048324
 31
0.0
 11
-1417.695170373236
 21
-252.5583863509628
 31
0.0
 11
-1416.626656531075
 21
-253.4532078735454
 31
0.0
 11
-1415.475832836621
 21
-254.2404382811621
 31
0.0
 11
-1414.301197181277
 21
-254.8803488430874
 31
0.0
 11
-1413.064890131611
 21
-255.3925003316783
 31
0.0
 11
-1411.817069770564
 21
-255.7566385704448
 31
0.0
 11
-1410.535839532303
 21
-255.9779998638511
 31
0.0
 11
-1409.251345048499
 21
-256.052209756755
 31
0.0
 11
-1407.966850564696
 21
-255.9779998638511
 31
0.0
 11
-1406.685620326436
 21
-255.7566385704448
 31
0.0
 11
-1405.43779996539
 21
-255.3925003316784
 31
0.0
 11
-1404.201492915722
 21
-254.8803488430876
 31
0.0
 11
-1403.026857260378
 21
-254.2404382811622
 31
0.0
 11
-1401.876033565925
 21
-253.4532078735454
 31
0.0
 11
-1400.807519723763
 21
-252.5583863509628
 31
0.0
 11
-1399.779183418491
 21
-251.5215983048325
 31
0.0
 11
-1398.846555805292
 21
-250.3986463888359
 31
0.0
 11
-1397.972729952148
 21
-249.1458745025703
 31
0.0
 11
-1397.202540085763
 21
-247.8273524022077
 31
0.0
 11
-1396.509540245542
 21
-246.3985506267344
 31
0.0
 11
-1395.924506252256
 21
-244.922585014804
 31
0.0
 11
-1395.432492331375
 21
-243.3625856968513
 31
0.0
 11
-1395.050622122451
 21
-241.7722383325597
 31
0.0
 11
-1394.773273059226
 21
-240.1293004835242
 31
0.0
 11
-1394.607034776469
 21
-238.4715268005358
 31
0.0
 11
-1394.5513450485
 21
-236.7958556086222
 31
0.0
 11
-1394.60703477647
 21
-235.1201844167086
 31
0.0
 11
-1394.773273059226
 21
-233.4624107337201
 31
0.0
 11
-1395.050622122451
 21
-231.8194728846847
 31
0.0
 11
-1395.432492331375
 21
-230.2291255203931
 31
0.0
 11
-1395.924506252256
 21
-228.6691262024405
 31
0.0
 11
-1396.509540245542
 21
-227.1931605905101
 31
0.0
 11
-1397.202540085763
 21
-225.7643588150366
 31
0.0
 11
-1397.972729952148
 21
-224.4458367146739
 31
0.0
 11
-1398.846555805292
 21
-223.1930648284083
 31
0.0
 11
-1399.779183418491
 21
-222.0701129124118
 31
0.0
 11
-1400.807519723763
 21
-221.0333248662815
 31
0.0
 11
-1401.876033565925
 21
-220.1385033436989
 31
0.0
 11
-1403.026857260379
 21
-219.3512729360822
 31
0.0
 11
-1404.201492915722
 21
-218.7113623741568
 31
0.0
 11
-1405.437799965389
 21
-218.1992108855658
 31
0.0
 11
-1406.685620326435
 21
-217.8350726467993
 31
0.0
 11
-1407.966850564697
 21
-217.6137113533933
 31
0.0
 11
-1409.2513450485
 21
-217.5395014604897
 31
0.0
 11
-1410.535839532304
 21
-217.6137113533933
 31
0.0
  0
ENDBLK
  5
81
330
7F
100
AcDbEntity
  8
0
100
AcDbBlockEnd
  0
BLOCK
  5
83
330
82
100
AcDbEntity
  8
0
100
AcDbBlockBegin
  2
88-530-M21__23
 70
     0
 71
     0
 10
-1584.810411625829
 20
-615.467961623069
 30
0.0
  3
88-530-M21__23
  1

  0
LINE
  5
1E9
330
82
100
AcDbEntity
  8
0
  6
Continuous
 62
     7
100
AcDbLine
 10
-1391.751252589727
 20
-238.8943381767319
 30
0.0
 11
-1391.751355912619
 21
-390.3947544132
 31
0.0
  0
LINE
  5
1EA
330
82
100
AcDbEntity
  8
0
  6
Continuous
 62
     7
100
AcDbLine
 10
-1426.751355912611
 20
-390.3947305432905
 30
0.0
 11
-1426.751252589735
 21
-238.8943381767319
 31
0.0
  0
LINE
  5
1EB
330
82
100
AcDbEntity
  8
0
  6
Continuous
 62
     7
100
AcDbLine
 10
-1393.251356935615
 20
-391.8947533902035
 30
0.0
 11
-1425.251356935607
 21
-391.8947315662862
 31
0.0
  0
SPLINE
  5
1EC
330
82
100
AcDbEntity
  8
1
  6
Continuous
 62
     7
100
AcDbSpline
210
0.0
220
0.0
230
1.0
 70
    11
 71
     3
 72
    79
 73
    75
 74
    73
 42
0.0000000001
 43
0.0000000001
 44
0.00000001
 40
0.0
 40
0.0
 40
0.0
 40
0.0
 40
1.552578046715319
 40
3.104610653846123
 40
4.712177983874577
 40
6.318887904706464
 40
8.007164664301806
 40
9.694546943238077
 40
11.47694347912877
 40
13.25857442329757
 40
15.13609923848034
 40
17.01303997039421
 40
18.97586985910816
 40
20.93829142782125
 40
22.96806846803274
 40
24.99759037592441
 40
27.06990525503022
 40
29.14209804671393
 40
31.22894909037238
 40
33.31580013403075
 40
35.38799292571446
 40
37.46030780482035
 40
39.48982971271216
 40
41.5196067529234
 40
43.48202832163639
 40
45.44485821035031
 40
47.32179894226421
 40
49.19932375744723
 40
50.9809547016161
 40
52.76335123750642
 40
54.45073351644246
 40
56.13901027603764
 40
57.74572019686937
 40
59.35328752689802
 40
60.90532013402926
 40
62.45789818074483
 40
63.99071948846435
 40
65.52354079618409
 40
67.07611884289965
 40
68.62815145003069
 40
70.23571878005932
 40
71.8424287008913
 40
73.53070546048633
 40
75.21808773942254
 40
77.00048427531299
 40
78.78211521948175
 40
80.65964003466465
 40
82.5365807665786
 40
84.49941065529254
 40
86.46183222400543
 40
88.49160926421659
 40
90.52113117210843
 40
92.5934460512143
 40
94.66563884289802
 40
96.7524898865564
 40
98.83934093021486
 40
100.9115337218986
 40
102.9838486010045
 40
105.0133705088963
 40
107.0431475491076
 40
109.0055691178205
 40
110.9683990065344
 40
112.8453397384485
 40
114.7228645536312
 40
116.5044954978001
 40
118.2868920336906
 40
119.9742743126272
 40
121.6625510722222
 40
123.2692609930543
 40
124.8768283230828
 40
126.4288609302134
 40
127.9814389769289
 40
129.5142602846489
 40
131.0470815923684
 40
131.0470815923684
 40
131.0470815923684
 40
131.0470815923684
 10
-1410.781366070729
 20
-215.0129755174834
 30
0.0
 10
-1411.293418218281
 20
-215.0922961471806
 30
0.0
 10
-1412.317342623226
 20
-215.2509095402714
 30
0.0
 10
-1413.820825627192
 20
-215.7236767180188
 30
0.0
 10
-1415.281576517938
 20
-216.3548309876273
 30
0.0
 10
-1416.702361370624
 20
-217.1689494874979
 30
0.0
 10
-1418.054159184554
 20
-218.1385312313883
 30
0.0
 10
-1419.347481811789
 20
-219.275328307932
 30
0.0
 10
-1420.551863209048
 20
-220.5489561668828
 30
0.0
 10
-1421.679246193422
 20
-221.9725993134098
 30
0.0
 10
-1422.702322657094
 20
-223.5108880819011
 30
0.0
 10
-1423.630881836547
 20
-225.1772071334626
 30
0.0
 10
-1424.443545239118
 20
-226.9342210748137
 30
0.0
 10
-1425.146418267162
 20
-228.7923325128976
 30
0.0
 10
-1425.725028091372
 20
-230.7160271373664
 30
0.0
 10
-1426.182031649991
 20
-232.7096562950148
 30
0.0
 10
-1426.5093112956
 20
-234.7429582828587
 30
0.0
 10
-1426.707536288879
 20
-236.8120088554421
 30
0.0
 10
-1426.773334431974
 20
-238.8943381767229
 30
0.0
 10
-1426.707536288883
 20
-240.9766674980574
 30
0.0
 10
-1426.509311295585
 20
-243.0457180704816
 30
0.0
 10
-1426.182031650046
 20
-245.0790200589036
 30
0.0
 10
-1425.72502809117
 20
-247.0726492144407
 30
0.0
 10
-1425.146418267901
 20
-248.9963438466671
 30
0.0
 10
-1424.443545236463
 20
-250.8544552567185
 30
0.0
 10
-1423.630881846288
 20
-252.6114693004474
 30
0.0
 10
-1422.702322622501
 20
-254.2777879858635
 30
0.0
 10
-1421.679246319976
 20
-255.8160780852145
 30
0.0
 10
-1420.551862763394
 20
-257.239716506083
 30
0.0
 10
-1419.34748344117
 20
-258.5133615019963
 30
0.0
 10
-1418.054153461444
 20
-259.6500978569877
 30
0.0
 10
-1416.702382344374
 20
-260.619900080547
 30
0.0
 10
-1415.281502415906
 20
-261.4332333840478
 30
0.0
 10
-1413.821098758012
 20
-262.0672553237534
 30
0.0
 10
-1412.316362164291
 20
-262.5296695586972
 30
0.0
 10
-1410.791527163388
 20
-262.8047955961914
 30
0.0
 10
-1409.2513450485
 20
-262.8998668869033
 30
0.0
 10
-1407.711162933612
 20
-262.8047955961914
 30
0.0
 10
-1406.186327932708
 20
-262.5296695586973
 30
0.0
 10
-1404.681591338989
 20
-262.0672553237534
 30
0.0
 10
-1403.221187681094
 20
-261.4332333840478
 30
0.0
 10
-1401.800307752626
 20
-260.6199000805473
 30
0.0
 10
-1400.448536635556
 20
-259.6500978569875
 30
0.0
 10
-1399.15520665583
 20
-258.5133615019961
 30
0.0
 10
-1397.950827333606
 20
-257.2397165060831
 30
0.0
 10
-1396.823443777024
 20
-255.8160780852144
 30
0.0
 10
-1395.800367474499
 20
-254.2777879858633
 30
0.0
 10
-1394.871808250712
 20
-252.6114693004472
 30
0.0
 10
-1394.059144860537
 20
-250.8544552567185
 30
0.0
 10
-1393.356271829099
 20
-248.996343846667
 30
0.0
 10
-1392.777662005831
 20
-247.0726492144407
 30
0.0
 10
-1392.320658446954
 20
-245.0790200589035
 30
0.0
 10
-1391.993378801415
 20
-243.0457180704822
 30
0.0
 10
-1391.795153808117
 20
-240.9766674980552
 30
0.0
 10
-1391.729355665027
 20
-238.8943381767313
 30
0.0
 10
-1391.795153808116
 20
-236.8120088554113
 30
0.0
 10
-1391.993378801415
 20
-234.7429582829727
 30
0.0
 10
-1392.320658446949
 20
-232.7096562945927
 30
0.0
 10
-1392.777662005845
 20
-230.716027138905
 30
0.0
 10
-1393.356271829047
 20
-228.7923325072321
 30
0.0
 10
-1394.059144860727
 20
-226.9342210951809
 30
0.0
 10
-1394.871808250017
 20
-225.177207058755
 30
0.0
 10
-1395.800367476967
 20
-223.5108883472205
 30
0.0
 10
-1396.823443767996
 20
-221.9725983428044
 30
0.0
 10
-1397.950827365396
 20
-220.548959584837
 30
0.0
 10
-1399.1552065396
 20
-219.2753158113679
 30
0.0
 10
-1400.448537043808
 20
-218.138575124879
 30
0.0
 10
-1401.80030625649
 20
-217.1687886289668
 30
0.0
 10
-1403.221192967073
 20
-216.3553993144436
 30
0.0
 10
-1404.681571855536
 20
-215.721581936478
 30
0.0
 10
-1406.186397872548
 20
-215.258429187017
 30
0.0
 10
-1407.710902909966
 20
-214.9860281981941
 30
0.0
 10
-1409.252301802212
 20
-214.8809079848963
 30
0.0
 10
-1410.271677981224
 20
-214.9689530066211
 30
0.0
 10
-1410.781366070729
 20
-215.0129755174834
 30
0.0
 11
-1410.781366070729
 21
-215.0129755174834
 31
0.0
 11
-1412.309180302938
 21
-215.2891679558324
 31
0.0
 11
-1413.793508891109
 21
-215.7425704877366
 31
0.0
 11
-1415.268437336336
 21
-216.3819911646269
 31
0.0
 11
-1416.664237538864
 21
-217.1777666130553
 31
0.0
 11
-1418.037026694357
 21
-218.1604813995277
 31
0.0
 11
-1419.306102420639
 21
-219.2725541292669
 31
0.0
 11
-1420.532282036198
 21
-220.5661618602052
 31
0.0
 11
-1421.639965444598
 21
-221.9615995291734
 31
0.0
 11
-1422.681409619259
 21
-223.5238074099279
 31
0.0
 11
-1423.596425938127
 21
-225.1626032017589
 31
0.0
 11
-1424.421978360961
 21
-226.9433795406575
 31
0.0
 11
-1425.117300800584
 21
-228.7784885614806
 31
0.0
 11
-1425.703175530794
 21
-230.7218736580251
 31
0.0
 11
-1426.157229082099
 21
-232.6999521567607
 31
0.0
 11
-1426.487352442868
 21
-234.7458034526368
 31
0.0
 11
-1426.685103438247
 21
-236.8085388961031
 31
0.0
 11
-1426.751350244561
 21
-238.8943381767319
 31
0.0
 11
-1426.685103438247
 21
-240.9801374573607
 31
0.0
 11
-1426.487352442868
 21
-243.042872900827
 31
0.0
 11
-1426.157229082098
 21
-245.0887241967031
 31
0.0
 11
-1425.703175530794
 21
-247.0668026954388
 31
0.0
 11
-1425.117300800584
 21
-249.0101877919832
 31
0.0
 11
-1424.421978360961
 21
-250.8452968128063
 31
0.0
 11
-1423.596425938127
 21
-252.626073151705
 31
0.0
 11
-1422.681409619259
 21
-254.264868943536
 31
0.0
 11
-1421.639965444598
 21
-255.8270768242905
 31
0.0
 11
-1420.532282036198
 21
-257.2225144932586
 31
0.0
 11
-1419.306102420639
 21
-258.5161222241969
 31
0.0
 11
-1418.037026694357
 21
-259.628194953936
 31
0.0
 11
-1416.664237538865
 21
-260.6109097404084
 31
0.0
 11
-1415.268437336337
 21
-261.4066851888369
 31
0.0
 11
-1413.79350889111
 21
-262.0461058657272
 31
0.0
 11
-1412.309180302939
 21
-262.4995083976314
 31
0.0
 11
-1410.781366070729
 21
-262.7757008359805
 31
0.0
 11
-1409.2513450485
 21
-262.8683120282648
 31
0.0
 11
-1407.721324026271
 21
-262.7757008359805
 31
0.0
 11
-1406.193509794061
 21
-262.4995083976315
 31
0.0
 11
-1404.709181205891
 21
-262.0461058657272
 31
0.0
 11
-1403.234252760663
 21
-261.406685188837
 31
0.0
 11
-1401.838452558135
 21
-260.6109097404084
 31
0.0
 11
-1400.465663402643
 21
-259.6281949539359
 31
0.0
 11
-1399.196587676361
 21
-258.5161222241968
 31
0.0
 11
-1397.970408060802
 21
-257.2225144932586
 31
0.0
 11
-1396.862724652402
 21
-255.8270768242905
 31
0.0
 11
-1395.821280477741
 21
-254.264868943536
 31
0.0
 11
-1394.906264158873
 21
-252.6260731517049
 31
0.0
 11
-1394.080711736039
 21
-250.8452968128063
 31
0.0
 11
-1393.385389296416
 21
-249.0101877919832
 31
0.0
 11
-1392.799514566207
 21
-247.0668026954388
 31
0.0
 11
-1392.345461014902
 21
-245.0887241967031
 31
0.0
 11
-1392.015337654132
 21
-243.0428729008271
 31
0.0
 11
-1391.817586658753
 21
-240.9801374573607
 31
0.0
 11
-1391.751339852439
 21
-238.894338176732
 31
0.0
 11
-1391.817586658752
 21
-236.8085388961031
 31
0.0
 11
-1392.015337654132
 21
-234.7458034526367
 31
0.0
 11
-1392.345461014901
 21
-232.6999521567607
 31
0.0
 11
-1392.799514566206
 21
-230.7218736580251
 31
0.0
 11
-1393.385389296416
 21
-228.7784885614807
 31
0.0
 11
-1394.080711736039
 21
-226.9433795406575
 31
0.0
 11
-1394.906264158873
 21
-225.1626032017588
 31
0.0
 11
-1395.821280477741
 21
-223.5238074099278
 31
0.0
 11
-1396.862724652402
 21
-221.9615995291733
 31
0.0
 11
-1397.970408060802
 21
-220.5661618602052
 31
0.0
 11
-1399.196587676361
 21
-219.2725541292669
 31
0.0
 11
-1400.465663402643
 21
-218.1604813995277
 31
0.0
 11
-1401.838452558136
 21
-217.1777666130553
 31
0.0
 11
-1403.234252760664
 21
-216.3819911646269
 31
0.0
 11
-1404.709181205891
 21
-215.7425704877365
 31
0.0
 11
-1406.193509794061
 21
-215.2891679558323
 31
0.0
 11
-1407.721324026271
 21
-215.0129755174833
 31
0.0
 11
-1409.2513450485
 21
-214.9203643251991
 31
0.0
 11
-1410.781366070729
 21
-215.0129755174834
 31
0.0
  0
SPLINE
  5
1ED
330
82
100
AcDbEntity
  8
1
  6
Continuous
 62
     7
100
AcDbSpline
210
0.0
220
0.0
230
1.0
 70
    11
 71
     3
 72
    79
 73
    75
 74
    73
 42
0.0000000001
 43
0.0000000001
 44
0.00000001
 40
0.0
 40
0.0
 40
0.0
 40
0.0
 40
1.367271934543444
 40
2.734273207060554
 40
4.133835775544665
 40
5.532947456166958
 40
6.980537265887397
 40
8.427617469963142
 40
9.932053277448928
 40
11.43601507626873
 40
12.99872668462865
 40
14.56104931206503
 40
16.1766526957531
 40
17.79196817041083
 40
19.44946419068437
 40
21.10677294405551
 40
22.79104877282179
 40
24.47523284452145
 40
26.16868293293752
 40
27.86213302135362
 40
29.54631709305317
 40
31.23059292181928
 40
32.88790167519029
 40
34.54539769546407
 40
36.16071317012193
 40
37.77631655381021
 40
39.33863918124661
 40
40.90135078960662
 40
42.4053125884267
 40
43.90974839591183
 40
45.35682859998704
 40
46.80441840970767
 40
48.20353009033033
 40
49.6030926588144
 40
50.97009393133128
 40
52.33736586587497
 40
53.69314756741682
 40
55.04892926895912
 40
56.4162012035028
 40
57.78320247602036
 40
59.18276504450491
 40
60.5818767251272
 40
62.02946653484767
 40
63.47654673892317
 40
64.98098254640834
 40
66.48494434522802
 40
68.04765595358784
 40
69.6099785810241
 40
71.22558196471228
 40
72.84089743937038
 40
74.49839345964431
 40
76.15570221301547
 40
77.83997804178154
 40
79.52416211348113
 40
81.21761220189717
 40
82.91106229031338
 40
84.59524636201306
 40
86.27952219077918
 40
87.93683094415016
 40
89.59432696442399
 40
91.20964243908189
 40
92.82524582277027
 40
94.38756845020653
 40
95.95028005856651
 40
97.45424185738638
 40
98.95867766487162
 40
100.4057578689472
 40
101.8533476786669
 40
103.2524593592892
 40
104.6520219277739
 40
106.0190232002921
 40
107.3862951348356
 40
108.7420768363779
 40
110.0978585379197
 40
110.0978585379197
 40
110.0978585379197
 40
110.0978585379197
 10
-1410.605062965658
 20
-217.4432822347428
 30
0.0
 10
-1411.056771994209
 20
-217.5073048379579
 30
0.0
 10
-1411.960100632024
 20
-217.63533737062
 30
0.0
 10
-1413.288447210373
 20
-218.0165012430608
 30
0.0
 10
-1414.581758852688
 20
-218.5272285405878
 30
0.0
 10
-1415.838078992817
 20
-219.184854651169
 30
0.0
 10
-1417.037012542465
 20
-219.9706501724894
 30
0.0
 10
-1418.181780655541
 20
-220.8904433767673
 30
0.0
 10
-1419.25116711852
 20
-221.9239861461498
 30
0.0
 10
-1420.249836104015
 20
-223.0772495452163
 30
0.0
 10
-1421.158668634819
 20
-224.3264520246921
 30
0.0
 10
-1421.981640829025
 20
-225.6773884322693
 30
0.0
 10
-1422.7035883599
 20
-227.1045600687236
 30
0.0
 10
-1423.326742367777
 20
-228.6117992881556
 30
0.0
 10
-1423.840690941921
 20
-230.1743134172273
 30
0.0
 10
-1424.245937166522
 20
-231.7920995033288
 30
0.0
 10
-1424.536613935982
 20
-233.4433707594367
 30
0.0
 10
-1424.712364984828
 20
-235.1228649789512
 30
0.0
 10
-1424.770888548221
 20
-236.8135737497481
 30
0.0
 10
-1424.712364984831
 20
-238.5042825205832
 30
0.0
 10
-1424.536613935971
 20
-240.1837767399834
 30
0.0
 10
-1424.245937166559
 20
-241.8350479965074
 30
0.0
 10
-1423.840690941789
 20
-243.4528340810822
 30
0.0
 10
-1423.326742368267
 20
-245.0153482157844
 30
0.0
 10
-1422.703588358125
 20
-246.5225874147139
 30
0.0
 10
-1421.981640835563
 20
-247.9497591264463
 30
0.0
 10
-1421.158668611303
 20
-249.3006952619169
 30
0.0
 10
-1420.249836190507
 20
-250.5498987373194
 30
0.0
 10
-1419.251166809142
 20
-251.7031585525259
 30
0.0
 10
-1418.181781793408
 20
-252.7367144240213
 30
0.0
 10
-1417.037008474785
 20
-253.6564605017007
 30
0.0
 10
-1415.838093984165
 20
-254.4424285672556
 30
0.0
 10
-1414.581704974289
 20
-255.0994311896896
 30
0.0
 10
-1413.288646609466
 20
-255.6124514463917
 30
0.0
 10
-1411.959375600635
 20
-255.9852463108031
 30
0.0
 10
-1410.611557992579
 20
-256.2077614153589
 30
0.0
 10
-1409.251345048499
 20
-256.2839775769488
 30
0.0
 10
-1407.891132104422
 20
-256.2077614153591
 30
0.0
 10
-1406.543314496365
 20
-255.9852463108031
 30
0.0
 10
-1405.214043487534
 20
-255.6124514463918
 30
0.0
 10
-1403.92098512271
 20
-255.0994311896899
 30
0.0
 10
-1402.664596112835
 20
-254.4424285672554
 30
0.0
 10
-1401.465681622214
 20
-253.6564605017004
 30
0.0
 10
-1400.320908303592
 20
-252.7367144240214
 30
0.0
 10
-1399.251523287856
 20
-251.7031585525263
 30
0.0
 10
-1398.252853906492
 20
-250.5498987373193
 30
0.0
 10
-1397.344021485697
 20
-249.3006952619168
 30
0.0
 10
-1396.521049261436
 20
-247.9497591264463
 30
0.0
 10
-1395.799101738876
 20
-246.5225874147137
 30
0.0
 10
-1395.175947728733
 20
-245.0153482157843
 30
0.0
 10
-1394.66199915521
 20
-243.4528340810823
 30
0.0
 10
-1394.256752930441
 20
-241.8350479965073
 30
0.0
 10
-1393.966076161028
 20
-240.1837767399837
 30
0.0
 10
-1393.790325112168
 20
-238.5042825205816
 30
0.0
 10
-1393.731801548778
 20
-236.813573749754
 30
0.0
 10
-1393.790325112168
 20
-235.1228649789291
 30
0.0
 10
-1393.966076161029
 20
-233.4433707595186
 30
0.0
 10
-1394.256752930438
 20
-231.792099503025
 30
0.0
 10
-1394.661999155219
 20
-230.1743134183407
 30
0.0
 10
-1395.175947728698
 20
-228.6117992840414
 30
0.0
 10
-1395.799101739002
 20
-227.1045600836461
 30
0.0
 10
-1396.521049260969
 20
-225.6773883772956
 30
0.0
 10
-1397.344021487379
 20
-224.3264522223716
 30
0.0
 10
-1398.252853900309
 20
-223.0772488181694
 30
0.0
 10
-1399.251523309975
 20
-221.9239887467471
 30
0.0
 10
-1400.320908222243
 20
-220.8904338119415
 30
0.0
 10
-1401.46568191302
 20
-219.9706843651108
 30
0.0
 10
-1402.66459504108
 20
-219.1847286350042
 30
0.0
 10
-1403.920988974557
 20
-218.527681438457
 30
0.0
 10
-1405.214029232191
 20
-218.0148251088829
 30
0.0
 10
-1406.543366329958
 20
-217.6414319313993
 30
0.0
 10
-1407.890939150959
 20
-217.4211329208339
 30
0.0
 10
-1409.252058462485
 20
-217.3367112785776
 30
0.0
 10
-1410.1540614646
 20
-217.4077585826877
 30
0.0
 10
-1410.605062965658
 20
-217.4432822347428
 30
0.0
 11
-1410.605062965658
 21
-217.4432822347428
 31
0.0
 11
-1411.954011164975
 21
-217.6663770543775
 31
0.0
 11
-1413.270644302889
 21
-218.0340313202449
 31
0.0
 11
-1414.57167770624
 21
-218.5498679867079
 31
0.0
 11
-1415.812294148423
 21
-219.1966943453529
 31
0.0
 11
-1417.023401693297
 21
-219.9896223193553
 31
0.0
 11
-1418.152515612503
 21
-220.8946874410362
 31
0.0
 11
-1419.235074049917
 21
-221.9393856407235
 31
0.0
 11
-1420.220671323129
 21
-223.0753870083925
 31
0.0
 11
-1421.140978495683
 21
-224.338360594438
 31
0.0
 11
-1421.954739918446
 21
-225.6720188486477
 31
0.0
 11
-1422.684935806787
 21
-227.1131948469334
 31
0.0
 11
-1423.302846073778
 21
-228.6056528813905
 31
0.0
 11
-1423.821496919424
 21
-230.1799128210238
 31
0.0
 11
-1424.224659378494
 21
-231.7874364866649
 31
0.0
 11
-1424.517151033156
 21
-233.4461208144741
 31
0.0
 11
-1424.692577405687
 21
-235.121143672583
 31
0.0
 11
-1424.751345048499
 21
-236.8135737497545
 31
0.0
 11
-1424.692577405687
 21
-238.506003826926
 31
0.0
 11
-1424.517151033156
 21
-240.1810266850348
 31
0.0
 11
-1424.224659378495
 21
-241.8397110128439
 31
0.0
 11
-1423.821496919424
 21
-243.4472346784851
 31
0.0
 11
-1423.302846073779
 21
-245.0214946181184
 31
0.0
 11
-1422.684935806787
 21
-246.5139526525756
 31
0.0
 11
-1421.954739918446
 21
-247.9551286508613
 31
0.0
 11
-1421.140978495683
 21
-249.2887869050711
 31
0.0
 11
-1420.220671323129
 21
-250.5517604911165
 31
0.0
 11
-1419.235074049916
 21
-251.6877618587854
 31
0.0
 11
-1418.152515612503
 21
-252.7324600584728
 31
0.0
 11
-1417.023401693298
 21
-253.6375251801536
 31
0.0
 11
-1415.812294148424
 21
-254.4304531541561
 31
0.0
 11
-1414.57167770624
 21
-255.0772795128009
 31
0.0
 11
-1413.270644302889
 21
-255.5931161792639
 31
0.0
 11
-1411.954011164975
 21
-255.9607704451313
 31
0.0
 11
-1410.605062965658
 21
-256.183865264766
 31
0.0
 11
-1409.2513450485
 21
-256.2586437576863
 31
0.0
 11
-1407.897627131343
 21
-256.1838652647662
 31
0.0
 11
-1406.548678932025
 21
-255.9607704451314
 31
0.0
 11
-1405.232045794111
 21
-255.593116179264
 31
0.0
 11
-1403.931012390759
 21
-255.0772795128009
 31
0.0
 11
-1402.690395948576
 21
-254.4304531541559
 31
0.0
 11
-1401.479288403702
 21
-253.6375251801534
 31
0.0
 11
-1400.350174484496
 21
-252.7324600584727
 31
0.0
 11
-1399.267616047083
 21
-251.6877618587855
 31
0.0
 11
-1398.282018773871
 21
-250.5517604911165
 31
0.0
 11
-1397.361711601317
 21
-249.288786905071
 31
0.0
 11
-1396.547950178554
 21
-247.9551286508613
 31
0.0
 11
-1395.817754290213
 21
-246.5139526525756
 31
0.0
 11
-1395.199844023221
 21
-245.0214946181184
 31
0.0
 11
-1394.681193177575
 21
-243.4472346784851
 31
0.0
 11
-1394.278030718504
 21
-241.8397110128438
 31
0.0
 11
-1393.985539063844
 21
-240.1810266850347
 31
0.0
 11
-1393.810112691312
 21
-238.506003826926
 31
0.0
 11
-1393.751345048499
 21
-236.8135737497545
 31
0.0
 11
-1393.810112691312
 21
-235.1211436725829
 31
0.0
 11
-1393.985539063844
 21
-233.446120814474
 31
0.0
 11
-1394.278030718504
 21
-231.7874364866649
 31
0.0
 11
-1394.681193177575
 21
-230.1799128210238
 31
0.0
 11
-1395.199844023221
 21
-228.6056528813905
 31
0.0
 11
-1395.817754290213
 21
-227.1131948469334
 31
0.0
 11
-1396.547950178554
 21
-225.6720188486477
 31
0.0
 11
-1397.361711601317
 21
-224.338360594438
 31
0.0
 11
-1398.282018773871
 21
-223.0753870083925
 31
0.0
 11
-1399.267616047084
 21
-221.9393856407234
 31
0.0
 11
-1400.350174484496
 21
-220.8946874410361
 31
0.0
 11
-1401.479288403702
 21
-219.9896223193553
 31
0.0
 11
-1402.690395948575
 21
-219.1966943453528
 31
0.0
 11
-1403.931012390759
 21
-218.5498679867078
 31
0.0
 11
-1405.23204579411
 21
-218.0340313202448
 31
0.0
 11
-1406.548678932025
 21
-217.6663770543774
 31
0.0
 11
-1407.897627131343
 21
-217.4432822347427
 31
0.0
 11
-1409.2513450485
 21
-217.3685037418227
 31
0.0
 11
-1410.605062965658
 21
-217.4432822347428
 31
0.0
  0
ARC
  5
1EE
330
82
100
AcDbEntity
  8
1
  6
Continuous
 62
     7
100
AcDbCircle
 10
-1393.251355912619
 20
-390.394753390204
 30
0.0
 40
1.499999999999837
100
AcDbArc
 50
-90.00003907556894
 51
-0.00003907556894
  0
ARC
  5
1EF
330
82
100
AcDbEntity
  8
1
  6
Continuous
 62
     7
100
AcDbCircle
 10
-1425.251355912611
 20
-390.3947315662865
 30
0.0
 40
1.500000000000349
100
AcDbArc
 50
179.9999609244311
 51
-90.00003907556894
  0
ENDBLK
  5
84
330
82
100
AcDbEntity
  8
0
100
AcDbBlockEnd
  0
BLOCK
  5
88
330
85
100
AcDbEntity
  8
0
100
AcDbBlockBegin
  2
S369-80X
 70
     0
 71
     0
 10
-1137.352354113129
 20
-3882.271169478853
 30
0.0
  3
S369-80X
  1

  0
INSERT
  5
86
330
85
100
AcDbEntity
  8
1
100
AcDbBlockReference
  2
84-353-D
 10
-643.8651427975099
 20
-4114.98834761535
 30
0.0
  0
INSERT
  5
87
330
85
100
AcDbEntity
  8
1
100
AcDbBlockReference
  2
88-530-M21__23
 10
-1295.113460174746
 20
-4105.844377711718
 30
0.0
  0
LINE
  5
1F0
330
85
100
AcDbEntity
  8
1
  6
PHANTOM
 62
     4
100
AcDbLine
 10
-1119.554393597417
 20
-3882.271158566902
 30
0.0
 11
-1119.554393597417
 21
-3705.389391606133
 31
0.0
  0
ENDBLK
  5
89
330
85
100
AcDbEntity
  8
0
100
AcDbBlockEnd
  0
BLOCK
  5
8B
330
8A
100
AcDbEntity
  8
0
100
AcDbBlockBegin
  2
88-530-M21__24
 70
     0
 71
     0
 10
-1092.310411625829
 20
-615.4679616230681
 30
0.0
  3
88-530-M21__24
  1

  0
LINE
  5
1F1
330
8A
100
AcDbEntity
  8
0
  6
Continuous
 62
     7
100
AcDbLine
 10
-1045.061505304276
 20
-217.4810231761139
 30
0.0
 11
-999.6743502476437
 21
-262.8682912762354
 31
0.0
  0
LINE
  5
1F2
330
8A
100
AcDbEntity
  8
0
  6
Continuous
 62
     7
100
AcDbLine
 10
-934.2513559126113
 20
-390.3947305432901
 30
0.0
 11
-934.2513420619919
 21
-370.0858276485781
 31
0.0
  0
LINE
  5
1F3
330
8A
100
AcDbEntity
  8
0
  6
Continuous
 62
     7
100
AcDbLine
 10
-900.7513569356154
 20
-391.8947533902031
 30
0.0
 11
-932.7513569356078
 21
-391.8947315662857
 31
0.0
  0
LINE
  5
1F4
330
8A
100
AcDbEntity
  8
0
  6
Continuous
 62
     7
100
AcDbLine
 10
-899.2513420099341
 20
-370.0095080298592
 30
0.0
 11
-899.2513559126196
 21
-390.3947544131995
 31
0.0
  0
LINE
  5
1F5
330
8A
100
AcDbEntity
  8
0
  6
PHANTOM
 62
     4
100
AcDbLine
 10
-1026.436177142658
 20
-236.1063977268935
 30
0.0
 11
-1011.120849997725
 21
-220.791091471973
 31
0.0
  0
ARC
  5
1F6
330
8A
100
AcDbEntity
  8
0
  6
Continuous
 62
     7
100
AcDbCircle
 10
-1054.751342033952
 20
-370.0446723626058
 30
0.0
 40
120.5000069999995
100
AcDbArc
 50
-0.01956866472805
 51
62.80177038616353
  0
ARC
  5
1F7
330
8A
100
AcDbEntity
  8
0
  6
Continuous
 62
     7
100
AcDbCircle
 10
-1054.751342033952
 20
-370.0446723626058
 30
0.0
 40
155.5000039999994
100
AcDbArc
 50
0.01295670624514
 51
85.99701595443837
  0
ARC
  5
1F8
330
8A
100
AcDbEntity
  8
0
  6
PHANTOM
 62
     4
100
AcDbCircle
 10
-1054.106628395763
 20
-370.5751898022989
 30
0.0
 40
138.9999999999991
100
AcDbArc
 50
-8.82274212918747
 51
79.42991239263131
  0
ARC
  5
1F9
330
8A
100
AcDbEntity
  8
1
  6
Continuous
 62
     7
100
AcDbCircle
 10
-1044.000843811632
 20
-216.4203643251995
 30
0.0
 40
1.499999999999934
100
AcDbArc
 50
85.99701595446628
 51
-135.0000713517662
  0
ARC
  5
1FA
330
8A
100
AcDbEntity
  8
1
  6
Continuous
 62
     7
100
AcDbCircle
 10
-932.7513559126115
 20
-390.3947315662861
 30
0.0
 40
1.500000000000122
100
AcDbArc
 50
179.9999609244311
 51
-90.00003907557763
  0
ARC
  5
1FB
330
8A
100
AcDbEntity
  8
1
  6
Continuous
 62
     7
100
AcDbCircle
 10
-900.7513559126192
 20
-390.3947533902036
 30
0.0
 40
1.499999999999837
100
AcDbArc
 50
-90.00003907557763
 51
-0.0000390755646
  0
ENDBLK
  5
8C
330
8A
100
AcDbEntity
  8
0
100
AcDbBlockEnd
  0
BLOCK
  5
8E
330
8D
100
AcDbEntity
  8
0
100
AcDbBlockBegin
  2
88-552__25
 70
     0
 71
     0
 10
-3461.000000000001
 20
-4594.096303272778
 30
0.0
  3
88-552__25
  1

  0
LINE
  5
1FC
330
8D
100
AcDbEntity
  8
1
  6
Continuous
 62
     7
100
AcDbLine
 10
-3254.3
 20
-4723.096303272779
 30
0.0
 11
-3253.9999958489
 21
-4723.096303272781
 31
0.0
  0
LINE
  5
1FD
330
8D
100
AcDbEntity
  8
1
  6
Continuous
 62
     7
100
AcDbLine
 10
-3264.3
 20
-4726.096303272776
 30
0.0
 11
-3254.700000000001
 21
-4726.096303272777
 31
0.0
  0
LINE
  5
1FE
330
8D
100
AcDbEntity
  8
1
  6
Continuous
 62
     7
100
AcDbLine
 10
-3254.700000000001
 20
-4682.096303272777
 30
0.0
 11
-3261.0
 21
-4682.096303272777
 31
0.0
  0
LINE
  5
1FF
330
8D
100
AcDbEntity
  8
1
  6
Continuous
 62
     7
100
AcDbLine
 10
-3253.9999958489
 20
-4685.096303272776
 30
0.0
 11
-3254.3
 21
-4685.096303272777
 31
0.0
  0
LINE
  5
200
330
8D
100
AcDbEntity
  8
1
  6
Continuous
 62
     7
100
AcDbLine
 10
-3254.5
 20
-4725.896303272778
 30
0.0
 11
-3254.5
 21
-4682.296303272777
 31
0.0
  0
LINE
  5
201
330
8D
100
AcDbEntity
  8
1
  6
Continuous
 62
     7
100
AcDbLine
 10
-3264.500000000001
 20
-4720.905163220979
 30
0.0
 11
-3264.500000000001
 21
-4725.896303272777
 31
0.0
  0
ARC
  5
202
330
8D
100
AcDbEntity
  8
1
  6
Continuous
 62
     7
100
AcDbCircle
 10
-3254.3
 20
-4723.296303272779
 30
0.0
 40
0.2000000000007276
100
AcDbArc
 50
90.0
 51
180.0
  0
ARC
  5
203
330
8D
100
AcDbEntity
  8
1
  6
Continuous
 62
     7
100
AcDbCircle
 10
-3254.700000000001
 20
-4725.896303272778
 30
0.0
 40
0.1999999999989086
100
AcDbArc
 50
-90.0
 51
0.0
  0
ARC
  5
204
330
8D
100
AcDbEntity
  8
1
  6
Continuous
 62
     7
100
AcDbCircle
 10
-3254.700000000001
 20
-4682.296303272777
 30
0.0
 40
0.2000000000011823
100
AcDbArc
 50
0.0
 51
90.0
  0
ARC
  5
205
330
8D
100
AcDbEntity
  8
1
  6
Continuous
 62
     7
100
AcDbCircle
 10
-3254.3
 20
-4684.896303272778
 30
0.0
 40
0.1999999999998181
100
AcDbArc
 50
180.0
 51
-90.0
  0
ARC
  5
206
330
8D
100
AcDbEntity
  8
1
  6
Continuous
 62
     7
100
AcDbCircle
 10
-3264.3
 20
-4725.896303272777
 30
0.0
 40
0.2000000000007276
100
AcDbArc
 50
180.0
 51
-90.0
  0
ENDBLK
  5
8F
330
8D
100
AcDbEntity
  8
0
100
AcDbBlockEnd
  0
BLOCK
  5
91
330
90
100
AcDbEntity
  8
0
100
AcDbBlockBegin
  2
88-489__26
 70
     0
 71
     0
 10
-252.2637490601337
 20
-4259.253211906535
 30
0.0
  3
88-489__26
  1

  0
LINE
  5
207
330
90
100
AcDbEntity
  8
1
  6
Continuous
 62
     7
100
AcDbLine
 10
-1201.254393597417
 20
-4267.766377374161
 30
0.0
 11
-1201.554393597414
 21
-4267.766377374161
 31
0.0
  0
LINE
  5
208
330
90
100
AcDbEntity
  8
1
  6
Continuous
 62
     7
100
AcDbLine
 10
-1200.854393597417
 20
-4270.766377374161
 30
0.0
 11
-1191.254393597417
 21
-4270.766377374161
 31
0.0
  0
LINE
  5
209
330
90
100
AcDbEntity
  8
1
  6
Continuous
 62
     7
100
AcDbLine
 10
-1201.554393597414
 20
-4229.766377374162
 30
0.0
 11
-1201.254393597417
 21
-4229.766377374162
 31
0.0
  0
LINE
  5
20A
330
90
100
AcDbEntity
  8
1
  6
Continuous
 62
     7
100
AcDbLine
 10
-1201.054393597417
 20
-4270.566377374163
 30
0.0
 11
-1201.054393597417
 21
-4226.966377374161
 31
0.0
  0
LINE
  5
20B
330
90
100
AcDbEntity
  8
1
  6
Continuous
 62
     7
100
AcDbLine
 10
-1194.554393597417
 20
-4226.766377374162
 30
0.0
 11
-1200.854393597417
 21
-4226.766377374162
 31
0.0
  0
LINE
  5
20C
330
90
100
AcDbEntity
  8
1
  6
Continuous
 62
     7
100
AcDbLine
 10
-1191.054393597417
 20
-4265.575237322361
 30
0.0
 11
-1191.054393597417
 21
-4270.566377374163
 31
0.0
  0
ARC
  5
20D
330
90
100
AcDbEntity
  8
1
  6
Continuous
 62
     7
100
AcDbCircle
 10
-1201.254393597417
 20
-4267.96637737416
 30
0.0
 40
0.2000000000000455
100
AcDbArc
 50
0.0
 51
90.0
  0
ARC
  5
20E
330
90
100
AcDbEntity
  8
1
  6
Continuous
 62
     7
100
AcDbCircle
 10
-1201.254393597417
 20
-4229.566377374161
 30
0.0
 40
0.2000000000016371
100
AcDbArc
 50
-90.0
 51
-0.00000000026055
  0
ARC
  5
20F
330
90
100
AcDbEntity
  8
1
  6
Continuous
 62
     7
100
AcDbCircle
 10
-1200.854393597417
 20
-4270.566377374162
 30
0.0
 40
0.2000000000000455
100
AcDbArc
 50
-179.9999999997395
 51
-90.0
  0
ARC
  5
210
330
90
100
AcDbEntity
  8
1
  6
Continuous
 62
     7
100
AcDbCircle
 10
-1200.854393597417
 20
-4226.966377374161
 30
0.0
 40
0.1999999999989086
100
AcDbArc
 50
90.0
 51
180.0
  0
ARC
  5
211
330
90
100
AcDbEntity
  8
1
  6
Continuous
 62
     7
100
AcDbCircle
 10
-1191.254393597417
 20
-4270.566377374162
 30
0.0
 40
0.1999999999989086
100
AcDbArc
 50
-90.0
 51
-0.00000000026055
  0
ENDBLK
  5
92
330
90
100
AcDbEntity
  8
0
100
AcDbBlockEnd
  0
BLOCK
  5
94
330
93
100
AcDbEntity
  8
0
100
AcDbBlockBegin
  2
32-115
 70
     0
 71
     0
 10
335.7201201508465
 20
-2521.745280711947
 30
0.0
  3
32-115
  1

  0
ARC
  5
212
330
93
100
AcDbEntity
  8
1
  6
Continuous
 62
     7
100
AcDbCircle
 10
-91.11386883840305
 20
-2950.481005608875
 30
0.0
 40
11.99999999999874
100
AcDbArc
 50
148.7538234025793
 51
31.24617659742151
  0
ENDBLK
  5
95
330
93
100
AcDbEntity
  8
0
100
AcDbBlockEnd
  0
BLOCK
  5
97
330
96
100
AcDbEntity
  8
0
100
AcDbBlockBegin
  2
34-117__27
 70
     0
 71
     0
 10
-195.6635555891951
 20
-890.5992402672617
 30
0.0
  3
34-117__27
  1

  0
LINE
  5
213
330
96
100
AcDbEntity
  8
1
  6
Continuous
 62
     7
100
AcDbLine
 10
-275.8662873029937
 20
-239.2290937877332
 30
0.0
 11
-275.8662873029937
 21
-236.2974280590105
 31
0.0
  0
LINE
  5
214
330
96
100
AcDbEntity
  8
1
  6
Continuous
 62
     7
100
AcDbLine
 10
-278.8887530002496
 20
-205.9543354796264
 30
0.0
 11
-278.8031116054342
 21
-206.7691589222653
 31
0.0
  0
LINE
  5
215
330
96
100
AcDbEntity
  8
1
  6
Continuous
 62
     7
100
AcDbLine
 10
-278.7941070114473
 20
-204.1923640883265
 30
0.0
 11
-271.7234259846189
 21
-204.1923640883259
 31
0.0
  0
LINE
  5
216
330
96
100
AcDbEntity
  8
1
  6
Continuous
 62
     7
100
AcDbLine
 10
-278.9162873029939
 20
-195.0290937877334
 30
0.0
 11
-278.9162873029939
 21
-203.9507442396171
 31
0.0
  0
LINE
  5
217
330
96
100
AcDbEntity
  8
1
  6
Continuous
 62
     7
100
AcDbLine
 10
-278.4162873029939
 20
-204.6923640883265
 30
0.0
 11
-278.4162873029939
 21
-205.1923640883265
 31
0.0
  0
LINE
  5
218
330
96
100
AcDbEntity
  8
1
  6
Continuous
 62
     7
100
AcDbLine
 10
-278.4162873029939
 20
-194.5290937877334
 30
0.0
 11
-253.4162873029939
 21
-194.5290937877334
 31
0.0
  0
LINE
  5
219
330
96
100
AcDbEntity
  8
1
  6
Continuous
 62
     7
100
AcDbLine
 10
-278.7822758530085
 20
-205.6923640883265
 30
0.0
 11
-275.8446421138012
 21
-205.6923640883259
 31
0.0
  0
LINE
  5
21A
330
96
100
AcDbEntity
  8
1
  6
Continuous
 62
     7
100
AcDbLine
 10
-275.5662873029935
 20
-239.5290937877334
 30
0.0
 11
-256.2662873029938
 21
-239.5290937877334
 31
0.0
  0
LINE
  5
21B
330
96
100
AcDbEntity
  8
1
  6
Continuous
 62
     7
100
AcDbLine
 10
-255.9662873029936
 20
-236.7602187566868
 30
0.0
 11
-255.9662873029936
 21
-239.2290937877332
 31
0.0
  0
LINE
  5
21C
330
96
100
AcDbEntity
  8
1
  6
Continuous
 62
     7
100
AcDbLine
 10
-252.9162873029934
 20
-197.7326226418731
 30
0.0
 11
-252.9162873029939
 21
-195.0290937877334
 31
0.0
  0
ARC
  5
21D
330
96
100
AcDbEntity
  8
1
  6
Continuous
 62
     7
100
AcDbCircle
 10
-278.9162873029939
 20
-204.6923640883265
 30
0.0
 40
0.5
100
AcDbArc
 50
0.0
 51
67.97568716290969
  0
ARC
  5
21E
330
96
100
AcDbEntity
  8
1
  6
Continuous
 62
     7
100
AcDbCircle
 10
-278.6162873029955
 20
-203.9507442396179
 30
0.0
 40
0.2999999999984198
100
AcDbArc
 50
179.999999999848
 51
-112.0243128367507
  0
ARC
  5
21F
330
96
100
AcDbEntity
  8
1
  6
Continuous
 62
     7
100
AcDbCircle
 10
-278.5903964316233
 20
-205.9229769406524
 30
0.0
 40
0.300000000014938
100
AcDbArc
 50
114.0393268452548
 51
-174.0000000015142
  0
ARC
  5
220
330
96
100
AcDbEntity
  8
1
  6
Continuous
 62
     7
100
AcDbCircle
 10
-278.9162873029939
 20
-205.1923640883265
 30
0.0
 40
0.500000000001614
100
AcDbArc
 50
-65.96067315697154
 51
0.0
  0
ARC
  5
221
330
96
100
AcDbEntity
  8
1
  6
Continuous
 62
     7
100
AcDbCircle
 10
-253.4162873029939
 20
-195.0290937877334
 30
0.0
 40
0.5
100
AcDbArc
 50
0.0
 51
90.0
  0
ARC
  5
222
330
96
100
AcDbEntity
  8
1
  6
Continuous
 62
     7
100
AcDbCircle
 10
-256.2662873029938
 20
-239.2290937877332
 30
0.0
 40
0.3000000000001819
100
AcDbArc
 50
-90.0
 51
0.0
  0
ARC
  5
223
330
96
100
AcDbEntity
  8
1
  6
Continuous
 62
     7
100
AcDbCircle
 10
-278.4162873029939
 20
-195.0290937877334
 30
0.0
 40
0.5
100
AcDbArc
 50
90.0
 51
180.0
  0
ARC
  5
224
330
96
100
AcDbEntity
  8
1
  6
Continuous
 62
     7
100
AcDbCircle
 10
-275.5662873029935
 20
-239.2290937877332
 30
0.0
 40
0.3000000000002387
100
AcDbArc
 50
180.0
 51
-90.0
  0
ENDBLK
  5
98
330
96
100
AcDbEntity
  8
0
100
AcDbBlockEnd
  0
BLOCK
  5
9A
330
99
100
AcDbEntity
  8
0
100
AcDbBlockBegin
  2
86-2B__28
 70
     0
 71
     0
 10
-164.3342465956957
 20
-3771.054724539243
 30
0.0
  3
86-2B__28
  1

  0
LINE
  5
225
330
99
100
AcDbEntity
  8
1
  6
Continuous
 62
     7
100
AcDbLine
 10
-81.36386883840328
 20
-2587.481005608901
 30
0.0
 11
-81.36386883840328
 21
-2566.481005608895
 31
0.0
  0
LINE
  5
226
330
99
100
AcDbEntity
  8
1
  6
Continuous
 62
     7
100
AcDbLine
 10
-64.86386883840362
 20
-2566.481005608895
 30
0.0
 11
-64.8638688384043
 21
-2587.4810056089
 31
0.0
  0
SPLINE
  5
227
330
99
100
AcDbEntity
  8
1
  6
Continuous
 62
     2
100
AcDbSpline
210
0.0
220
0.0
230
1.0
 70
     8
 71
     3
 72
    11
 73
     7
 74
     5
 42
0.0000000001
 43
0.0000000001
 44
0.00000001
 40
0.0
 40
0.0
 40
0.0
 40
0.0
 40
4.244481711587201
 40
8.488963423174512
 40
12.73344513476226
 40
16.97792684634908
 40
16.97792684634908
 40
16.97792684634908
 40
16.97792684634908
 10
-81.36386883840328
 20
-2587.481005608901
 30
0.0
 10
-79.98886883840358
 20
-2586.9810056089
 30
0.0
 10
-77.23886883840413
 20
-2585.981005608898
 30
0.0
 10
-73.1138688384041
 20
-2587.481005608899
 30
0.0
 10
-68.98886883840426
 20
-2588.981005608899
 30
0.0
 10
-66.23886883840419
 20
-2587.981005608899
 30
0.0
 10
-64.8638688384043
 20
-2587.4810056089
 30
0.0
 11
-81.36386883840328
 21
-2587.481005608901
 31
0.0
 11
-77.23886883840405
 21
-2586.481005608899
 31
0.0
 11
-73.11386883840426
 21
-2587.481005608899
 31
0.0
 11
-68.98886883840392
 21
-2588.481005608899
 31
0.0
 11
-64.8638688384043
 21
-2587.4810056089
 31
0.0
  0
ENDBLK
  5
9B
330
99
100
AcDbEntity
  8
0
100
AcDbBlockEnd
  0
BLOCK
  5
9F
330
9C
100
AcDbEntity
  8
0
100
AcDbBlockBegin
  2
S30-86BTX__29
 70
     0
 71
     0
 10
-891.3061117120619
 20
-3752.943155170433
 30
0.0
  3
S30-86BTX__29
  1

  0
INSERT
  5
9D
330
9C
100
AcDbEntity
  8
1
100
AcDbBlockReference
  2
34-117__27
 10
-2.86113712459954
 20
-3217.551152088424
 30
0.0
  0
INSERT
  5
9E
330
9C
100
AcDbEntity
  8
0
100
AcDbBlockReference
  2
86-2B__28
 10
-164.3342465956957
 20
-3771.054724539243
 30
0.0
  0
LINE
  5
228
330
9C
100
AcDbEntity
  8
1
  6
PHANTOM
 62
     4
100
AcDbLine
 10
-73.11386883840305
 20
-2587.481005608899
 30
0.0
 11
-73.1138688384026
 21
-2521.481005608901
 31
0.0
  0
ENDBLK
  5
A0
330
9C
100
AcDbEntity
  8
0
100
AcDbBlockEnd
  0
BLOCK
  5
A2
330
A1
100
AcDbEntity
  8
0
100
AcDbBlockBegin
  2
34-117__30
 70
     0
 71
     0
 10
-688.1635555891965
 20
-890.5992402672601
 30
0.0
  3
34-117__30
  1

  0
LINE
  5
229
330
A1
100
AcDbEntity
  8
1
  6
Continuous
 62
     7
100
AcDbLine
 10
-768.0662873029949
 20
-239.5290937877317
 30
0.0
 11
-748.7662873029947
 21
-239.5290937877317
 31
0.0
  0
LINE
  5
22A
330
A1
100
AcDbEntity
  8
1
  6
Continuous
 62
     7
100
AcDbLine
 10
-768.366287302995
 20
-239.2290937877316
 30
0.0
 11
-768.366287302995
 21
-237.6983216889664
 31
0.0
  0
LINE
  5
22B
330
A1
100
AcDbEntity
  8
1
  6
Continuous
 62
     7
100
AcDbLine
 10
-770.9162873029943
 20
-194.5290937877317
 30
0.0
 11
-745.9162873029943
 21
-194.5290937877317
 31
0.0
  0
LINE
  5
22C
330
A1
100
AcDbEntity
  8
1
  6
Continuous
 62
     7
100
AcDbLine
 10
-770.9162873029943
 20
-204.6923640883247
 30
0.0
 11
-770.9162873029943
 21
-205.1923640883247
 31
0.0
  0
LINE
  5
22D
330
A1
100
AcDbEntity
  8
1
  6
Continuous
 62
     7
100
AcDbLine
 10
-771.4162873029943
 20
-195.0290937877317
 30
0.0
 11
-771.4162873029943
 21
-203.9507442396153
 31
0.0
  0
LINE
  5
22E
330
A1
100
AcDbEntity
  8
1
  6
Continuous
 62
     7
100
AcDbLine
 10
-771.2941070114482
 20
-204.1923640883247
 30
0.0
 11
-745.5384675945413
 21
-204.1923640883247
 31
0.0
  0
LINE
  5
22F
330
A1
100
AcDbEntity
  8
1
  6
Continuous
 62
     7
100
AcDbLine
 10
-771.388753000251
 20
-205.9543354796247
 30
0.0
 11
-771.3321762685089
 21
-206.492627125042
 31
0.0
  0
LINE
  5
230
330
A1
100
AcDbEntity
  8
1
  6
Continuous
 62
     7
100
AcDbLine
 10
-745.9162873029943
 20
-205.1923640883247
 30
0.0
 11
-745.9162873029943
 21
-204.6923640883247
 31
0.0
  0
LINE
  5
231
330
A1
100
AcDbEntity
  8
1
  6
Continuous
 62
     7
100
AcDbLine
 10
-745.4162873029943
 20
-203.9507442396153
 30
0.0
 11
-745.4162873029943
 21
-195.0290937877317
 31
0.0
  0
LINE
  5
232
330
A1
100
AcDbEntity
  8
1
  6
Continuous
 62
     7
100
AcDbLine
 10
-748.4662873029945
 20
-237.6983211747076
 30
0.0
 11
-748.4662873029945
 21
-239.2290937877316
 31
0.0
  0
LINE
  5
233
330
A1
100
AcDbEntity
  8
1
  6
Continuous
 62
     7
100
AcDbLine
 10
-745.5003982434325
 20
-206.4926262302376
 30
0.0
 11
-745.4438216057386
 21
-205.9543354796247
 31
0.0
  0
LINE
  5
234
330
A1
100
AcDbEntity
  8
1
  6
Continuous
 62
     7
100
AcDbLine
 10
-766.9162888320896
 20
-232.5290937877317
 30
0.0
 11
-749.9162888320404
 21
-232.5290937877317
 31
0.0
  0
LINE
  5
235
330
A1
100
AcDbEntity
  8
1
  6
Continuous
 62
     7
100
AcDbLine
 10
-766.9162888320686
 20
-234.0290937877317
 30
0.0
 11
-749.916288832045
 21
-234.0290937877317
 31
0.0
  0
LINE
  5
236
330
A1
100
AcDbEntity
  8
1
  6
Continuous
 62
     7
100
AcDbLine
 10
-771.282275853009
 20
-205.6923640883247
 30
0.0
 11
-745.5502987529806
 21
-205.6923640883247
 31
0.0
  0
ARC
  5
237
330
A1
100
AcDbEntity
  8
1
  6
Continuous
 62
     7
100
AcDbCircle
 10
-771.4162873029943
 20
-205.1923640883247
 30
0.0
 40
0.5000000000013501
100
AcDbArc
 50
-65.96067315707931
 51
0.0
  0
ARC
  5
238
330
A1
100
AcDbEntity
  8
1
  6
Continuous
 62
     7
100
AcDbCircle
 10
-771.0903964316246
 20
-205.9229769406506
 30
0.0
 40
0.3000000000148342
100
AcDbArc
 50
114.0393268452637
 51
-174.000000001498
  0
ARC
  5
239
330
A1
100
AcDbEntity
  8
1
  6
Continuous
 62
     7
100
AcDbCircle
 10
-771.1162873029959
 20
-203.9507442396167
 30
0.0
 40
0.2999999999983629
100
AcDbArc
 50
179.9999999997286
 51
-112.0243128368658
  0
ARC
  5
23A
330
A1
100
AcDbEntity
  8
1
  6
Continuous
 62
     7
100
AcDbCircle
 10
-771.4162873029943
 20
-204.6923640883247
 30
0.0
 40
0.5
100
AcDbArc
 50
0.0
 51
67.97568716295794
  0
ARC
  5
23B
330
A1
100
AcDbEntity
  8
1
  6
Continuous
 62
     7
100
AcDbCircle
 10
-745.7162873029927
 20
-203.9507442396167
 30
0.0
 40
0.2999999999979171
100
AcDbArc
 50
-67.9756871631342
 51
0.00000000027141
  0
ARC
  5
23C
330
A1
100
AcDbEntity
  8
1
  6
Continuous
 62
     7
100
AcDbCircle
 10
-745.4162873029943
 20
-204.6923640883247
 30
0.0
 40
0.500000000000002
100
AcDbArc
 50
112.0243128370421
 51
180.0
  0
ARC
  5
23D
330
A1
100
AcDbEntity
  8
1
  6
Continuous
 62
     7
100
AcDbCircle
 10
-745.7421781743649
 20
-205.9229769406506
 30
0.0
 40
0.3000000000151128
100
AcDbArc
 50
-5.99999999850199
 51
65.96067315473634
  0
ARC
  5
23E
330
A1
100
AcDbEntity
  8
1
  6
Continuous
 62
     7
100
AcDbCircle
 10
-745.4162873029943
 20
-205.1923640883247
 30
0.0
 40
0.5
100
AcDbArc
 50
180.0
 51
-114.0393268430159
  0
ARC
  5
23F
330
A1
100
AcDbEntity
  8
1
  6
Continuous
 62
     7
100
AcDbCircle
 10
-768.0662873029949
 20
-239.2290937877316
 30
0.0
 40
0.3000000000001819
100
AcDbArc
 50
180.0
 51
-90.0
  0
ARC
  5
240
330
A1
100
AcDbEntity
  8
1
  6
Continuous
 62
     7
100
AcDbCircle
 10
-770.9162873029943
 20
-195.0290937877317
 30
0.0
 40
0.5
100
AcDbArc
 50
90.0
 51
180.0
  0
ARC
  5
241
330
A1
100
AcDbEntity
  8
1
  6
Continuous
 62
     7
100
AcDbCircle
 10
-748.7662873029947
 20
-239.2290937877316
 30
0.0
 40
0.3000000000000966
100
AcDbArc
 50
-90.0
 51
0.0
  0
ARC
  5
242
330
A1
100
AcDbEntity
  8
1
  6
Continuous
 62
     7
100
AcDbCircle
 10
-745.9162873029943
 20
-195.0290937877317
 30
0.0
 40
0.5
100
AcDbArc
 50
0.0
 51
90.0
  0
ENDBLK
  5
A3
330
A1
100
AcDbEntity
  8
0
100
AcDbBlockEnd
  0
BLOCK
  5
A5
330
A4
100
AcDbEntity
  8
0
100
AcDbBlockBegin
  2
86-2B__31
 70
     0
 71
     0
 10
-656.8342465956962
 20
-3771.054724539243
 30
0.0
  3
86-2B__31
  1

  0
LINE
  5
243
330
A4
100
AcDbEntity
  8
1
  6
Continuous
 62
     7
100
AcDbLine
 10
-557.3638688384041
 20
-2566.481005608894
 30
0.0
 11
-557.3638688384044
 21
-2587.4810056089
 31
0.0
  0
LINE
  5
244
330
A4
100
AcDbEntity
  8
1
  6
Continuous
 62
     7
100
AcDbLine
 10
-573.8638688384037
 20
-2587.4810056089
 30
0.0
 11
-573.8638688384037
 21
-2566.481005608892
 31
0.0
  0
SPLINE
  5
245
330
A4
100
AcDbEntity
  8
1
  6
Continuous
 62
     2
100
AcDbSpline
210
0.0
220
0.0
230
1.0
 70
     8
 71
     3
 72
    11
 73
     7
 74
     5
 42
0.0000000001
 43
0.0000000001
 44
0.00000001
 40
0.0
 40
0.0
 40
0.0
 40
0.0
 40
4.244481711587287
 40
8.488963423174585
 40
12.73344513476233
 40
16.9779268463492
 40
16.9779268463492
 40
16.9779268463492
 40
16.9779268463492
 10
-573.8638688384037
 20
-2587.4810056089
 30
0.0
 10
-572.4888688384039
 20
-2586.981005608898
 30
0.0
 10
-569.7388688384044
 20
-2585.981005608897
 30
0.0
 10
-565.6138688384044
 20
-2587.481005608899
 30
0.0
 10
-561.4888688384044
 20
-2588.981005608898
 30
0.0
 10
-558.7388688384044
 20
-2587.9810056089
 30
0.0
 10
-557.3638688384044
 20
-2587.4810056089
 30
0.0
 11
-573.8638688384037
 21
-2587.4810056089
 31
0.0
 11
-569.7388688384043
 21
-2586.481005608898
 31
0.0
 11
-565.6138688384045
 21
-2587.481005608899
 31
0.0
 11
-561.4888688384042
 21
-2588.481005608899
 31
0.0
 11
-557.3638688384044
 21
-2587.4810056089
 31
0.0
  0
ENDBLK
  5
A6
330
A4
100
AcDbEntity
  8
0
100
AcDbBlockEnd
  0
BLOCK
  5
AA
330
A7
100
AcDbEntity
  8
0
100
AcDbBlockBegin
  2
S30-86BTX__32
 70
     0
 71
     0
 10
-1383.806111712062
 20
-3752.943155170432
 30
0.0
  3
S30-86BTX__32
  1

  0
INSERT
  5
A8
330
A7
100
AcDbEntity
  8
1
100
AcDbBlockReference
  2
34-117__30
 10
-495.3611371246009
 20
-3217.551152088422
 30
0.0
  0
INSERT
  5
A9
330
A7
100
AcDbEntity
  8
0
100
AcDbBlockReference
  2
86-2B__31
 10
-656.8342465956962
 20
-3771.054724539243
 30
0.0
  0
LINE
  5
246
330
A7
100
AcDbEntity
  8
1
  6
PHANTOM
 62
     4
100
AcDbLine
 10
-565.6138688384036
 20
-2587.481005608899
 30
0.0
 11
-565.6138688384032
 21
-2521.4810056089
 31
0.0
  0
ENDBLK
  5
AB
330
A7
100
AcDbEntity
  8
0
100
AcDbBlockEnd
  0
BLOCK
  5
AD
330
AC
100
AcDbEntity
  8
0
100
AcDbBlockBegin
  2
35-309-M11__33
 70
     0
 71
     0
 10
-589.9999999999959
 20
46.38736911633625
 30
0.0
  3
35-309-M11__33
  1

  0
LINE
  5
247
330
AC
100
AcDbEntity
  8
1
  6
Continuous
 62
     7
100
AcDbLine
 10
-464.4999999999986
 20
194.5877631561795
 30
0.0
 11
-464.4999999999986
 21
180.4926256360294
 31
0.0
  0
LINE
  5
248
330
AC
100
AcDbEntity
  8
OBJECT
  6
Continuous
 62
     7
100
AcDbLine
 10
-490.3000000140722
 20
180.2925489084275
 30
0.0
 11
-464.4999999999986
 21
180.2925489472301
 31
0.0
  0
LINE
  5
249
330
AC
100
AcDbEntity
  8
1
  6
Continuous
 62
     7
100
AcDbLine
 10
-490.499999999996
 20
180.4926256360294
 30
0.0
 11
-490.499999999996
 21
194.5877631561795
 31
0.0
  0
LINE
  5
24A
330
AC
100
AcDbEntity
  8
1
  6
Continuous
 62
     7
100
AcDbLine
 10
-490.2999999999959
 20
194.7877631561794
 30
0.0
 11
-464.6999999999987
 21
194.7877631561794
 31
0.0
  0
ARC
  5
24B
330
AC
100
AcDbEntity
  8
OBJECT
  6
Continuous
 62
     7
100
AcDbCircle
 10
-464.6999999852811
 20
180.4925489084276
 30
0.0
 40
0.2000000000001023
100
AcDbArc
 50
-90.00000018368849
 51
0.0219808393139
  0
ARC
  5
24C
330
AC
100
AcDbEntity
  8
OBJECT
  6
Continuous
 62
     7
100
AcDbCircle
 10
-490.3000000147134
 20
180.4925489084276
 30
0.0
 40
0.200000000000415
100
AcDbArc
 50
179.9780191606861
 51
-89.99999981631152
  0
ARC
  5
24D
330
AC
100
AcDbEntity
  8
1
  6
Continuous
 62
     7
100
AcDbCircle
 10
-464.6999999999987
 20
194.5877631561795
 30
0.0
 40
0.2000000000001023
100
AcDbArc
 50
0.0
 51
90.0
  0
ARC
  5
24E
330
AC
100
AcDbEntity
  8
1
  6
Continuous
 62
     7
100
AcDbCircle
 10
-490.2999999999959
 20
194.5877631561795
 30
0.0
 40
0.1999999999999034
100
AcDbArc
 50
90.0
 51
180.0
  0
ENDBLK
  5
AE
330
AC
100
AcDbEntity
  8
0
100
AcDbBlockEnd
  0
BLOCK
  5
B0
330
AF
100
AcDbEntity
  8
0
100
AcDbBlockBegin
  2
35-309-M11__34
 70
     0
 71
     0
 10
-1082.499999999995
 20
46.38736911633682
 30
0.0
  3
35-309-M11__34
  1

  0
LINE
  5
24F
330
AF
100
AcDbEntity
  8
1
  6
Continuous
 62
     7
100
AcDbLine
 10
-982.7999999999947
 20
194.7877631561801
 30
0.0
 11
-957.1999999999975
 21
194.7877631561801
 31
0.0
  0
LINE
  5
250
330
AF
100
AcDbEntity
  8
1
  6
Continuous
 62
     7
100
AcDbLine
 10
-982.9999999999948
 20
180.4926256360302
 30
0.0
 11
-982.9999999999948
 21
194.5877631561801
 31
0.0
  0
LINE
  5
251
330
AF
100
AcDbEntity
  8
OBJECT
  6
Continuous
 62
     7
100
AcDbLine
 10
-982.8000000140711
 20
180.2925489084281
 30
0.0
 11
-956.9999999999975
 21
180.2925489472307
 31
0.0
  0
LINE
  5
252
330
AF
100
AcDbEntity
  8
1
  6
Continuous
 62
     7
100
AcDbLine
 10
-956.9999999999975
 20
194.5877631561801
 30
0.0
 11
-956.9999999999975
 21
180.4926256360302
 31
0.0
  0
ARC
  5
253
330
AF
100
AcDbEntity
  8
OBJECT
  6
Continuous
 62
     7
100
AcDbCircle
 10
-982.8000000147123
 20
180.4925489084283
 30
0.0
 40
0.2000000000003013
100
AcDbArc
 50
179.9780191606535
 51
-89.99999981631152
  0
ARC
  5
254
330
AF
100
AcDbEntity
  8
OBJECT
  6
Continuous
 62
     7
100
AcDbCircle
 10
-957.19999998528
 20
180.4925489084283
 30
0.0
 40
0.2000000000001876
100
AcDbArc
 50
-90.00000018368849
 51
0.02198083934647
  0
ARC
  5
255
330
AF
100
AcDbEntity
  8
1
  6
Continuous
 62
     7
100
AcDbCircle
 10
-982.7999999999947
 20
194.5877631561801
 30
0.0
 40
0.1999999999999886
100
AcDbArc
 50
90.0
 51
180.0
  0
ARC
  5
256
330
AF
100
AcDbEntity
  8
1
  6
Continuous
 62
     7
100
AcDbCircle
 10
-957.1999999999975
 20
194.5877631561801
 30
0.0
 40
0.2000000000000455
100
AcDbArc
 50
0.0
 51
90.0
  0
ENDBLK
  5
B1
330
AF
100
AcDbEntity
  8
0
100
AcDbBlockEnd
  0
BLOCK
  5
B3
330
B2
100
AcDbEntity
  8
0
100
AcDbBlockBegin
  2
14-48__35
 70
     0
 71
     0
 10
-198.4999999999994
 20
-333.6963032727751
 30
0.0
  3
14-48__35
  1

  0
LINE
  5
257
330
B2
100
AcDbEntity
  8
1
  6
Continuous
 62
     7
100
AcDbLine
 10
-417.9999999999994
 20
-423.6963032727762
 30
0.0
 11
-438.9999999999994
 21
-423.6963032727762
 31
0.0
  0
ARC
  5
258
330
B2
100
AcDbEntity
  8
1
  6
Continuous
 62
     7
100
AcDbCircle
 10
-428.4999999999994
 20
-438.6963032727761
 30
0.0
 40
10.47799999999996
100
AcDbArc
 50
163.5213924997287
 51
16.47860750027105
  0
ARC
  5
259
330
B2
100
AcDbEntity
  8
1
  6
Continuous
 62
     7
100
AcDbCircle
 10
-278.8750000000019
 20
-423.6963032727758
 30
0.0
 40
160.1249999999975
100
AcDbArc
 50
-179.9999999999999
 51
-174.2751895477764
  0
ARC
  5
25A
330
B2
100
AcDbEntity
  8
1
  6
Continuous
 62
     7
100
AcDbCircle
 10
-428.4999999999994
 20
-438.6963032727761
 30
0.0
 40
9.750000000000011
100
AcDbArc
 50
-174.2751895477773
 51
-5.72481045222277
  0
ARC
  5
25B
330
B2
100
AcDbEntity
  8
1
  6
Continuous
 62
     7
100
AcDbCircle
 10
-578.1249999999967
 20
-423.6963032727758
 30
0.0
 40
160.1249999999972
100
AcDbArc
 50
-5.72481045222365
 51
-0.00000000000014
  0
ENDBLK
  5
B4
330
B2
100
AcDbEntity
  8
0
100
AcDbBlockEnd
  0
BLOCK
  5
B6
330
B5
100
AcDbEntity
  8
0
100
AcDbBlockBegin
  2
32-155
 70
     0
 71
     0
 10
-1088.576188820501
 20
-676.9329591041322
 30
0.0
  3
32-155
  1

  0
LINE
  5
25C
330
B5
100
AcDbEntity
  8
1
  6
Continuous
 62
     7
100
AcDbLine
 10
-1144.164920334664
 20
-623.2613345324506
 30
0.0
 11
-1135.964920334665
 21
-623.2613345324515
 31
0.0
  0
LINE
  5
25D
330
B5
100
AcDbEntity
  8
1
  6
Continuous
 62
     7
100
AcDbLine
 10
-1126.964920334666
 20
-623.4113345324516
 30
0.0
 11
-1126.964920334666
 21
-600.4113345324535
 31
0.0
  0
LINE
  5
25E
330
B5
100
AcDbEntity
  8
1
  6
Continuous
 62
     7
100
AcDbLine
 10
-1135.964920334665
 20
-600.5613345324535
 30
0.0
 11
-1135.964920334665
 21
-623.2613345324515
 31
0.0
  0
LINE
  5
25F
330
B5
100
AcDbEntity
  8
1
  6
Continuous
 62
     7
100
AcDbLine
 10
-1135.314920334665
 20
-623.9113345324516
 30
0.0
 11
-1127.464920334665
 21
-623.9113345324516
 31
0.0
  0
LINE
  5
260
330
B5
100
AcDbEntity
  8
1
  6
Continuous
 62
     7
100
AcDbLine
 10
-1135.964920334665
 20
-623.2613345324515
 30
0.0
 11
-1135.314920334665
 21
-623.9113345324516
 31
0.0
  0
LINE
  5
261
330
B5
100
AcDbEntity
  8
1
  6
Continuous
 62
     7
100
AcDbLine
 10
-1127.464920334665
 20
-623.9113345324516
 30
0.0
 11
-1126.964920334666
 21
-623.4113345324516
 31
0.0
  0
LINE
  5
262
330
B5
100
AcDbEntity
  8
1
  6
Continuous
 62
     7
100
AcDbLine
 10
-1127.464920334665
 20
-623.9113345324516
 30
0.0
 11
-1127.464920334665
 21
-599.9113345324535
 31
0.0
  0
LINE
  5
263
330
B5
100
AcDbEntity
  8
1
  6
Continuous
 62
     7
100
AcDbLine
 10
-1135.314920334665
 20
-599.9113345324535
 30
0.0
 11
-1135.314920334665
 21
-623.9113345324516
 31
0.0
  0
LINE
  5
264
330
B5
100
AcDbEntity
  8
1
  6
Continuous
 62
     7
100
AcDbLine
 10
-1145.164920334664
 20
-622.2613345324493
 30
0.0
 11
-1145.164920334664
 21
-601.5613345324558
 31
0.0
  0
LINE
  5
265
330
B5
100
AcDbEntity
  8
1
  6
Continuous
 62
     7
100
AcDbLine
 10
-1126.964920334666
 20
-600.4113345324535
 30
0.0
 11
-1127.464920334665
 21
-599.9113345324535
 31
0.0
  0
LINE
  5
266
330
B5
100
AcDbEntity
  8
1
  6
Continuous
 62
     7
100
AcDbLine
 10
-1135.314920334665
 20
-599.9113345324535
 30
0.0
 11
-1135.964920334665
 21
-600.5613345324535
 31
0.0
  0
LINE
  5
267
330
B5
100
AcDbEntity
  8
1
  6
Continuous
 62
     7
100
AcDbLine
 10
-1127.464920334665
 20
-599.9113345324535
 30
0.0
 11
-1135.314920334665
 21
-599.9113345324535
 31
0.0
  0
LINE
  5
268
330
B5
100
AcDbEntity
  8
1
  6
Continuous
 62
     7
100
AcDbLine
 10
-1135.964920334665
 20
-600.5613345324535
 30
0.0
 11
-1144.164920334664
 21
-600.5613345324545
 31
0.0
  0
ARC
  5
269
330
B5
100
AcDbEntity
  8
1
  6
Continuous
 62
     7
100
AcDbCircle
 10
-1144.164920334664
 20
-622.2613345324493
 30
0.0
 40
1.0
100
AcDbArc
 50
180.0
 51
-90.0
  0
ARC
  5
26A
330
B5
100
AcDbEntity
  8
1
  6
Continuous
 62
     7
100
AcDbCircle
 10
-1144.164920334664
 20
-601.5613345324558
 30
0.0
 40
1.0
100
AcDbArc
 50
90.0
 51
180.0
  0
ENDBLK
  5
B7
330
B5
100
AcDbEntity
  8
0
100
AcDbBlockEnd
  0
BLOCK
  5
B9
330
B8
100
AcDbEntity
  8
0
100
AcDbBlockBegin
  2
86-2A
 70
     0
 71
     0
 10
-1076.52535235621
 20
-198.6449070722547
 30
0.0
  3
86-2A
  1

  0
LINE
  5
26B
330
B8
100
AcDbEntity
  8
1
  6
Continuous
 62
     7
100
AcDbLine
 10
-1063.565416578556
 20
-299.5163028526097
 30
0.0
 11
-1107.065416578556
 21
-299.5163028526126
 31
0.0
  0
LINE
  5
26C
330
B8
100
AcDbEntity
  8
1
  6
Continuous
 62
     7
100
AcDbLine
 10
-1107.065416578556
 20
-283.016302852613
 30
0.0
 11
-1063.565416578556
 21
-283.0163028526101
 31
0.0
  0
SPLINE
  5
26D
330
B8
100
AcDbEntity
  8
1
  6
Continuous
 62
     2
100
AcDbSpline
210
0.0
220
0.0
230
1.0
 70
     8
 71
     3
 72
    11
 73
     7
 74
     5
 42
0.0000000001
 43
0.0000000001
 44
0.00000001
 40
0.0
 40
0.0
 40
0.0
 40
0.0
 40
4.244481711587351
 40
8.488963423174486
 40
12.73344513476207
 40
16.97792684634915
 40
16.97792684634915
 40
16.97792684634915
 40
16.97792684634915
 10
-1107.065416578556
 20
-299.5163028526126
 30
0.0
 10
-1106.565416578556
 20
-298.1413028526127
 30
0.0
 10
-1105.565416578555
 20
-295.3913028526129
 30
0.0
 10
-1107.065416578556
 20
-291.2663028526131
 30
0.0
 10
-1108.565416578555
 20
-287.1413028526131
 30
0.0
 10
-1107.565416578555
 20
-284.3913028526129
 30
0.0
 10
-1107.065416578556
 20
-283.016302852613
 30
0.0
 11
-1107.065416578556
 21
-299.5163028526126
 31
0.0
 11
-1106.065416578555
 21
-295.3913028526129
 31
0.0
 11
-1107.065416578556
 21
-291.2663028526132
 31
0.0
 11
-1108.065416578555
 21
-287.1413028526129
 31
0.0
 11
-1107.065416578556
 21
-283.016302852613
 31
0.0
  0
ENDBLK
  5
BA
330
B8
100
AcDbEntity
  8
0
100
AcDbBlockEnd
  0
BLOCK
  5
BE
330
BB
100
AcDbEntity
  8
0
100
AcDbBlockBegin
  2
S30-86BTX__36
 70
     0
 71
     0
 10
-887.1188976421527
 20
-419.6186385920153
 30
0.0
  3
S30-86BTX__36
  1

  0
INSERT
  5
BC
330
BB
100
AcDbEntity
  8
1
100
AcDbBlockReference
  2
32-155
 10
-1006.976685064393
 20
-356.2879274242947
 30
0.0
  0
INSERT
  5
BD
330
BB
100
AcDbEntity
  8
0
100
AcDbBlockReference
  2
86-2A
 10
-1076.52535235621
 20
-198.6449070722547
 30
0.0
  0
LINE
  5
26E
330
BB
100
AcDbEntity
  8
1
  6
PHANTOM
 62
     4
100
AcDbLine
 10
-1045.365416578557
 20
-291.2663028526097
 30
0.0
 11
-1102.065416578554
 21
-291.2663028526097
 31
0.0
  0
ENDBLK
  5
BF
330
BB
100
AcDbEntity
  8
0
100
AcDbBlockEnd
  0
BLOCK
  5
C1
330
C0
100
AcDbEntity
  8
0
100
AcDbBlockBegin
  2
14-48__37
 70
     0
 71
     0
 10
-669.9999999999998
 20
396.9036967272236
 30
0.0
  3
14-48__37
  1

  0
LINE
  5
26F
330
C0
100
AcDbEntity
  8
1
  6
Continuous
 62
     7
100
AcDbLine
 10
-536.9999999999998
 20
302.3816967272235
 30
0.0
 11
-536.9999999999998
 21
281.4256967272247
 31
0.0
  0
LINE
  5
270
330
C0
100
AcDbEntity
  8
1
  6
Continuous
 62
     7
100
AcDbLine
 10
-509.4999999999998
 20
306.9036967272256
 30
0.0
 11
-530.4999999999998
 21
306.9036967272256
 31
0.0
  0
LINE
  5
271
330
C0
100
AcDbEntity
  8
1
  6
Continuous
 62
     2
100
AcDbLine
 10
-535.7471024757178
 20
282.5876967272238
 30
0.0
 11
-538.3000000000036
 21
282.5876967272241
 31
0.0
  0
LINE
  5
272
330
C0
100
AcDbEntity
  8
1
  6
Continuous
 62
     7
100
AcDbLine
 10
-536.9999999999998
 20
281.4256967272247
 30
0.0
 11
-538.3000000000036
 21
281.4256967272244
 31
0.0
  0
LINE
  5
273
330
C0
100
AcDbEntity
  8
1
  6
Continuous
 62
     7
100
AcDbLine
 10
-536.148195613107
 20
282.2775011141167
 30
0.0
 11
-536.9999999999998
 21
281.4256967272247
 31
0.0
  0
LINE
  5
274
330
C0
100
AcDbEntity
  8
1
  6
Continuous
 62
     7
100
AcDbLine
 10
-538.3000000000036
 20
302.3816967272238
 30
0.0
 11
-536.9999999999998
 21
302.3816967272235
 31
0.0
  0
LINE
  5
275
330
C0
100
AcDbEntity
  8
1
  6
Continuous
 62
     2
100
AcDbLine
 10
-538.3000000000036
 20
301.2196967272242
 30
0.0
 11
-535.7471024757178
 21
301.2196967272242
 31
0.0
  0
LINE
  5
276
330
C0
100
AcDbEntity
  8
1
  6
Continuous
 62
     7
100
AcDbLine
 10
-520.7067644232581
 20
282.1878465350735
 30
0.0
 11
-534.6374576305003
 21
282.8609569528961
 31
0.0
  0
LINE
  5
277
330
C0
100
AcDbEntity
  8
1
  6
Continuous
 62
     7
100
AcDbLine
 10
-536.9999999999998
 20
302.3816967272235
 30
0.0
 11
-536.148195613107
 21
301.5298923403312
 31
0.0
  0
LINE
  5
278
330
C0
100
AcDbEntity
  8
1
  6
Continuous
 62
     7
100
AcDbLine
 10
-534.6374576305003
 20
300.9464365015526
 30
0.0
 11
-533.3294769843985
 21
301.0096361848781
 31
0.0
  0
ARC
  5
279
330
C0
100
AcDbEntity
  8
1
  6
Continuous
 62
     7
100
AcDbCircle
 10
-669.6249999999974
 20
306.903696727224
 30
0.0
 40
160.1249999999976
100
AcDbArc
 50
-5.62986280425215
 51
0.00000000000059
  0
ARC
  5
27A
330
C0
100
AcDbEntity
  8
1
  6
Continuous
 62
     7
100
AcDbCircle
 10
-370.3750000000017
 20
306.9036967272247
 30
0.0
 40
160.1249999999981
100
AcDbArc
 50
179.9999999999997
 51
-178.9822131100358
  0
ARC
  5
27B
330
C0
100
AcDbEntity
  8
1
  6
Continuous
 62
     7
100
AcDbCircle
 10
-534.7339820507339
 20
280.8632875517437
 30
0.0
 40
2.000000000000496
100
AcDbArc
 50
87.23370444596486
 51
135.0000000000023
  0
ARC
  5
27C
330
C0
100
AcDbEntity
  8
1
  6
Continuous
 62
     7
100
AcDbCircle
 10
-520.2241423220908
 20
292.1761935408337
 30
0.0
 40
10.0000000000007
100
AcDbArc
 50
-92.76629555403302
 51
-5.62986280425341
  0
ARC
  5
27D
330
C0
100
AcDbEntity
  8
1
  6
Continuous
 62
     7
100
AcDbCircle
 10
-534.7339820507339
 20
302.9441059027045
 30
0.0
 40
2.000000000000177
100
AcDbArc
 50
-134.9999999999954
 51
-87.23370444596417
  0
ARC
  5
27E
330
C0
100
AcDbEntity
  8
1
  6
Continuous
 62
     7
100
AcDbCircle
 10
-533.4742636147487
 20
304.0061402866057
 30
0.0
 40
2.99999999999977
100
AcDbArc
 50
-87.23370444596723
 51
1.01778688997096
  0
ENDBLK
  5
C2
330
C0
100
AcDbEntity
  8
0
100
AcDbBlockEnd
  0
BLOCK
  5
C4
330
C3
100
AcDbEntity
  8
0
100
AcDbBlockBegin
  2
SK2890-0-M1__38
 70
     0
 71
     0
 10
-1055.962655446947
 20
112.1665738048553
 30
0.0
  3
SK2890-0-M1__38
  1

  0
LINE
  5
27F
330
C3
100
AcDbEntity
  8
1
  6
Continuous
 62
     7
100
AcDbLine
 10
-518.9626554469469
 20
275.1665738048552
 30
0.0
 11
-518.9626554469469
 21
337.1665738048562
 31
0.0
  0
LINE
  5
280
330
C3
100
AcDbEntity
  8
1
  6
Continuous
 62
     7
100
AcDbLine
 10
-582.6626554469472
 20
314.6665738048557
 30
0.0
 11
-551.9626554469469
 21
314.6665738048548
 31
0.0
  0
LINE
  5
281
330
C3
100
AcDbEntity
  8
1
  6
Continuous
 62
     7
100
AcDbLine
 10
-545.9626554469467
 20
275.1665738048552
 30
0.0
 11
-545.9626554469469
 21
308.6665738048548
 31
0.0
  0
LINE
  5
282
330
C3
100
AcDbEntity
  8
1
  6
Continuous
 62
     7
100
AcDbLine
 10
-546.4626554469483
 20
275.1665738048562
 30
0.0
 11
-518.9626554469469
 21
275.1665738048552
 31
0.0
  0
LINE
  5
283
330
C3
100
AcDbEntity
  8
1
  6
Continuous
 62
     7
100
AcDbLine
 10
-586.9626554469471
 20
319.1665738048284
 30
0.0
 11
-586.9626554469462
 21
334.1933600553746
 31
0.0
  0
LINE
  5
284
330
C3
100
AcDbEntity
  8
1
  6
Continuous
 62
     7
100
AcDbLine
 10
-586.9626554469461
 20
319.1665738048284
 30
0.0
 11
-582.6626554469469
 21
319.1665738048284
 31
0.0
  0
LINE
  5
285
330
C3
100
AcDbEntity
  8
1
  6
Continuous
 62
     7
100
AcDbLine
 10
-582.6626554469472
 20
314.6665738048557
 30
0.0
 11
-582.6626554469469
 21
319.1665738048284
 31
0.0
  0
LINE
  5
286
330
C3
100
AcDbEntity
  8
1
  6
Continuous
 62
     7
100
AcDbLine
 10
-582.6626554469472
 20
314.6665738048557
 30
0.0
 11
-582.6626554469472
 21
314.1665738048567
 31
0.0
  0
LINE
  5
287
330
C3
100
AcDbEntity
  8
1
  6
Continuous
 62
     7
100
AcDbLine
 10
-586.9626554469471
 20
319.1665738048284
 30
0.0
 11
-586.9626554469471
 21
318.3665738048296
 31
0.0
  0
ARC
  5
288
330
C3
100
AcDbEntity
  8
1
  6
Continuous
 62
     7
100
AcDbCircle
 10
-552.9626554469469
 20
325.1665738048616
 30
0.0
 40
39.99999999996835
100
AcDbArc
 50
53.13010235413663
 51
126.8698976458554
  0
ARC
  5
289
330
C3
100
AcDbEntity
  8
1
  6
Continuous
 62
     7
100
AcDbCircle
 10
-543.962655446946
 20
337.1665738048548
 30
0.0
 40
24.99999999999909
100
AcDbArc
 50
0.00000000000326
 51
53.13010235413607
  0
ARC
  5
28A
330
C3
100
AcDbEntity
  8
1
  6
Continuous
 62
     7
100
AcDbCircle
 10
-561.9626554469456
 20
337.1665738048548
 30
0.0
 40
24.99999999999111
100
AcDbArc
 50
126.8698976458551
 51
127.4337850781068
  0
ARC
  5
28B
330
C3
100
AcDbEntity
  8
1
  6
Continuous
 62
     7
100
AcDbCircle
 10
-551.9626554469469
 20
308.6665738048557
 30
0.0
 40
6.0
100
AcDbArc
 50
-0.00000000000869
 51
90.0
  0
ENDBLK
  5
C5
330
C3
100
AcDbEntity
  8
0
100
AcDbBlockEnd
  0
BLOCK
  5
C7
330
C6
100
AcDbEntity
  8
0
100
AcDbBlockBegin
  2
98-203__39
 70
     0
 71
     0
 10
22.00000000000136
 20
204.9036967271952
 30
0.0
  3
98-203__39
  1

  0
LINE
  5
28C
330
C6
100
AcDbEntity
  8
1
  6
Continuous
 62
     7
100
AcDbLine
 10
10.00000000000046
 20
362.9036967271961
 30
0.0
 11
10.00000000000046
 21
296.9036967271957
 31
0.0
  0
LINE
  5
28D
330
C6
100
AcDbEntity
  8
1
  6
Continuous
 62
     7
100
AcDbLine
 10
3.50000000000046
 20
296.9036967271957
 30
0.0
 11
3.50000000000046
 21
362.9036967271961
 31
0.0
  0
LINE
  5
28E
330
C6
100
AcDbEntity
  8
1
  6
Continuous
 62
     7
100
AcDbLine
 10
10.00000000000046
 20
296.9036967271957
 30
0.0
 11
3.50000000000045
 21
296.9036967271957
 31
0.0
  0
LINE
  5
28F
330
C6
100
AcDbEntity
  8
1
  6
Continuous
 62
     7
100
AcDbLine
 10
3.50000000000046
 20
362.9036967271961
 30
0.0
 11
10.00000000000046
 21
362.9036967271961
 31
0.0
  0
ENDBLK
  5
C8
330
C6
100
AcDbEntity
  8
0
100
AcDbBlockEnd
  0
BLOCK
  5
CA
330
C9
100
AcDbEntity
  8
0
100
AcDbBlockBegin
  2
81-162-M21
 70
     0
 71
     0
 10
153.6600000000003
 20
69.34073934544463
 30
0.0
  3
81-162-M21
  1

  0
ARC
  5
290
330
C9
100
AcDbEntity
  8
1
  6
Continuous
 62
     7
100
AcDbCircle
 10
158.1000000000003
 20
73.78073934544523
 30
0.0
 40
4.439999999999997
100
AcDbArc
 50
157.9778806959514
 51
112.0221193040483
  0
ARC
  5
291
330
C9
100
AcDbEntity
  8
1
  6
Continuous
 62
     7
100
AcDbCircle
 10
158.700000000001
 20
73.78073934544463
 30
0.0
 40
4.99999999999817
100
AcDbArc
 50
126.8698976458541
 51
127.4337850781063
  0
ARC
  5
292
330
C9
100
AcDbEntity
  8
1
  6
Continuous
 62
     7
100
AcDbCircle
 10
159.7502648612125
 20
78.63057712926826
 30
0.0
 40
5.999999999999296
100
AcDbArc
 50
-172.5840214547268
 51
-162.2789348012964
  0
ARC
  5
293
330
C9
100
AcDbEntity
  8
1
  6
Continuous
 62
     7
100
AcDbCircle
 10
153.2501622161768
 20
72.13047448423259
 30
0.0
 40
5.999999999999525
100
AcDbArc
 50
72.27893480129639
 51
82.58402145472239
  0
ARC
  5
294
330
C9
100
AcDbEntity
  8
1
  6
Continuous
 62
     7
100
AcDbCircle
 10
153.9987806691184
 20
77.8819586763268
 30
0.0
 40
0.2000000000004521
100
AcDbArc
 50
82.58402145475462
 51
-172.5840214548498
  0
ARC
  5
295
330
C9
100
AcDbEntity
  8
1
  6
Continuous
 62
     7
100
AcDbCircle
 10
152.1298677655026
 20
76.19551078444528
 30
0.0
 40
1.999999999999912
100
AcDbArc
 50
-22.02211930403709
 51
17.72106519870294
  0
ARC
  5
296
330
C9
100
AcDbEntity
  8
1
  6
Continuous
 62
     7
100
AcDbCircle
 10
155.6852285609998
 20
79.7508715799431
 30
0.0
 40
2.000000000000647
100
AcDbArc
 50
-107.7210651986982
 51
-67.97788069595191
  0
ENDBLK
  5
CB
330
C9
100
AcDbEntity
  8
0
100
AcDbBlockEnd
  0
BLOCK
  5
CD
330
CC
100
AcDbEntity
  8
0
100
AcDbBlockBegin
  2
72-33__40
 70
     0
 71
     0
 10
1387.336075470669
 20
-2446.433611911745
 30
0.0
  3
72-33__40
  1

  0
LINE
  5
297
330
CC
100
AcDbEntity
  8
1
  6
Continuous
 62
     7
100
AcDbLine
 10
-1.47661053820093
 20
-2530.381005608888
 30
0.0
 11
-35.61386883840396
 21
-2530.381005608887
 31
0.0
  0
LINE
  5
298
330
CC
100
AcDbEntity
  8
1
  6
Continuous
 62
     7
100
AcDbLine
 10
2.38613116159604
 20
-2531.981005608892
 30
0.0
 11
-1.47661053820093
 21
-2530.381005608888
 31
0.0
  0
LINE
  5
299
330
CC
100
AcDbEntity
  8
1
  6
Continuous
 62
     7
100
AcDbLine
 10
-1.47661053820093
 20
-2533.58100560889
 30
0.0
 11
2.38613116159604
 21
-2531.981005608892
 31
0.0
  0
LINE
  5
29A
330
CC
100
AcDbEntity
  8
1
  6
Continuous
 62
     7
100
AcDbLine
 10
-34.80109106062605
 20
-2534.231005608892
 30
0.0
 11
-35.61386883840396
 21
-2530.381005608883
 31
0.0
  0
LINE
  5
29B
330
CC
100
AcDbEntity
  8
1
  6
Continuous
 62
     7
100
AcDbLine
 10
-32.90109106062596
 20
-2534.231005608892
 30
0.0
 11
-33.851091060626
 21
-2529.731005608892
 31
0.0
  0
LINE
  5
29C
330
CC
100
AcDbEntity
  8
1
  6
Continuous
 62
     7
100
AcDbLine
 10
-31.0010910606261
 20
-2534.231005608892
 30
0.0
 11
-31.95109106062591
 21
-2529.731005608892
 31
0.0
  0
LINE
  5
29D
330
CC
100
AcDbEntity
  8
1
  6
Continuous
 62
     7
100
AcDbLine
 10
-29.101091060626
 20
-2534.231005608892
 30
0.0
 11
-30.05109106062605
 21
-2529.731005608892
 31
0.0
  0
LINE
  5
29E
330
CC
100
AcDbEntity
  8
1
  6
Continuous
 62
     7
100
AcDbLine
 10
-27.20109106062591
 20
-2534.231005608892
 30
0.0
 11
-28.15109106062596
 21
-2529.731005608892
 31
0.0
  0
LINE
  5
29F
330
CC
100
AcDbEntity
  8
1
  6
Continuous
 62
     7
100
AcDbLine
 10
-25.30109106062605
 20
-2534.231005608892
 30
0.0
 11
-26.2510910606261
 21
-2529.731005608892
 31
0.0
  0
LINE
  5
2A0
330
CC
100
AcDbEntity
  8
1
  6
Continuous
 62
     7
100
AcDbLine
 10
-23.40109106062596
 20
-2534.231005608892
 30
0.0
 11
-24.351091060626
 21
-2529.731005608892
 31
0.0
  0
LINE
  5
2A1
330
CC
100
AcDbEntity
  8
1
  6
Continuous
 62
     7
100
AcDbLine
 10
-21.5010910606261
 20
-2534.231005608892
 30
0.0
 11
-22.45109106062591
 21
-2529.731005608892
 31
0.0
  0
LINE
  5
2A2
330
CC
100
AcDbEntity
  8
1
  6
Continuous
 62
     7
100
AcDbLine
 10
-19.601091060626
 20
-2534.231005608892
 30
0.0
 11
-20.55109106062605
 21
-2529.731005608892
 31
0.0
  0
LINE
  5
2A3
330
CC
100
AcDbEntity
  8
1
  6
Continuous
 62
     7
100
AcDbLine
 10
-17.70109106062591
 20
-2534.231005608892
 30
0.0
 11
-18.65109106062596
 21
-2529.731005608892
 31
0.0
  0
LINE
  5
2A4
330
CC
100
AcDbEntity
  8
1
  6
Continuous
 62
     7
100
AcDbLine
 10
-15.80109106062605
 20
-2534.231005608892
 30
0.0
 11
-16.7510910606261
 21
-2529.731005608892
 31
0.0
  0
LINE
  5
2A5
330
CC
100
AcDbEntity
  8
1
  6
Continuous
 62
     7
100
AcDbLine
 10
-13.90109106062596
 20
-2534.231005608892
 30
0.0
 11
-14.851091060626
 21
-2529.731005608892
 31
0.0
  0
LINE
  5
2A6
330
CC
100
AcDbEntity
  8
1
  6
Continuous
 62
     7
100
AcDbLine
 10
-12.0010910606261
 20
-2534.231005608892
 30
0.0
 11
-12.95109106062591
 21
-2529.731005608892
 31
0.0
  0
LINE
  5
2A7
330
CC
100
AcDbEntity
  8
1
  6
Continuous
 62
     7
100
AcDbLine
 10
-10.101091060626
 20
-2534.231005608892
 30
0.0
 11
-11.05109106062605
 21
-2529.731005608892
 31
0.0
  0
LINE
  5
2A8
330
CC
100
AcDbEntity
  8
1
  6
Continuous
 62
     7
100
AcDbLine
 10
-8.20109106062591
 20
-2534.231005608892
 30
0.0
 11
-9.15109106062596
 21
-2529.731005608892
 31
0.0
  0
LINE
  5
2A9
330
CC
100
AcDbEntity
  8
1
  6
Continuous
 62
     7
100
AcDbLine
 10
-6.30109106062605
 20
-2534.231005608892
 30
0.0
 11
-7.2510910606261
 21
-2529.731005608892
 31
0.0
  0
LINE
  5
2AA
330
CC
100
AcDbEntity
  8
1
  6
Continuous
 62
     7
100
AcDbLine
 10
-4.40109106062596
 20
-2534.231005608892
 30
0.0
 11
-5.351091060626
 21
-2529.731005608892
 31
0.0
  0
LINE
  5
2AB
330
CC
100
AcDbEntity
  8
1
  6
Continuous
 62
     7
100
AcDbLine
 10
-2.5010910606261
 20
-2534.231005608892
 30
0.0
 11
-3.45109106062591
 21
-2529.731005608892
 31
0.0
  0
LINE
  5
2AC
330
CC
100
AcDbEntity
  8
1
  6
Continuous
 62
     7
100
AcDbLine
 10
-0.66109761685198
 20
-2533.946764026769
 30
0.0
 11
-1.55109106062605
 21
-2529.731005608892
 31
0.0
  0
LINE
  5
2AD
330
CC
100
AcDbEntity
  8
1
  6
Continuous
 62
     7
100
AcDbLine
 10
1.08611704762006
 20
-2533.223044016368
 30
0.0
 11
0.51144892837101
 21
-2530.500931872559
 31
0.0
  0
LINE
  5
2AE
330
CC
100
AcDbEntity
  8
1
  6
Continuous
 62
     7
100
AcDbLine
 10
-35.61386883840396
 20
-2533.581005608889
 30
0.0
 11
-1.47661053820093
 21
-2533.58100560889
 31
0.0
  0
ENDBLK
  5
CE
330
CC
100
AcDbEntity
  8
0
100
AcDbBlockEnd
  0
BLOCK
  5
D0
330
CF
100
AcDbEntity
  8
0
100
AcDbBlockBegin
  2
85-124__41
 70
     0
 71
     0
 10
1235.300809942252
 20
-2627.468763374918
 30
0.0
  3
85-124__41
  1

  0
LINE
  5
2AF
330
CF
100
AcDbEntity
  8
1
  6
Continuous
 62
     7
100
AcDbLine
 10
-57.10177575065086
 20
-2564.530129486586
 30
0.0
 11
-62.87420939479193
 21
-2563.718866843975
 31
0.0
  0
LINE
  5
2B0
330
CF
100
AcDbEntity
  8
1
  6
Continuous
 62
     7
100
AcDbLine
 10
-57.11386883840396
 20
-2524.541183355079
 30
0.0
 11
-57.11386883840396
 21
-2524.604534463033
 31
0.0
  0
LINE
  5
2B1
330
CF
100
AcDbEntity
  8
1
  6
Continuous
 62
     7
100
AcDbLine
 10
-59.783541041224
 20
-2524.675725721776
 30
0.0
 11
-61.25674802026083
 21
-2524.715011241213
 31
0.0
  0
LINE
  5
2B2
330
CF
100
AcDbEntity
  8
1
  6
Continuous
 62
     7
100
AcDbLine
 10
-35.61386883840396
 20
-2565.481005608897
 30
0.0
 11
-56.62719743352386
 21
-2564.920650179693
 31
0.0
  0
LINE
  5
2B3
330
CF
100
AcDbEntity
  8
0
  6
Continuous
 62
     7
100
AcDbLine
 10
-57.11386883840396
 20
-2524.604534463033
 30
0.0
 11
-59.783541041224
 21
-2524.675725721776
 31
0.0
  0
LINE
  5
2B4
330
CF
100
AcDbEntity
  8
1
  6
Continuous
 62
     7
100
AcDbLine
 10
-35.61386883840396
 20
-2523.481005608897
 30
0.0
 11
-56.62719743352386
 21
-2524.041361038098
 31
0.0
  0
LINE
  5
2B5
330
CF
100
AcDbEntity
  8
1
  6
PHANTOM
 62
     3
100
AcDbLine
 10
-58.63887851936784
 20
-2534.956775040973
 30
0.0
 11
-58.63887851936784
 21
-2534.956775040971
 31
0.0
  0
LINE
  5
2B6
330
CF
100
AcDbEntity
  8
1
  6
Continuous
 62
     7
100
AcDbLine
 10
-35.61386883840396
 20
-2523.481005608897
 30
0.0
 11
-35.61386883840396
 21
-2526.482072086
 31
0.0
  0
LINE
  5
2B7
330
CF
100
AcDbEntity
  8
1
  6
Continuous
 62
     7
100
AcDbLine
 10
-85.45967750692603
 20
-2563.193623399507
 30
0.0
 11
-62.87420939479193
 21
-2563.718866843975
 31
0.0
  0
LINE
  5
2B8
330
CF
100
AcDbEntity
  8
1
  6
Continuous
 62
     7
100
AcDbLine
 10
-61.25674802026083
 20
-2524.715011241213
 30
0.0
 11
-61.38748495306481
 21
-2524.762595593276
 31
0.0
  0
LINE
  5
2B9
330
CF
100
AcDbEntity
  8
1
  6
Continuous
 62
     7
100
AcDbLine
 10
-35.61386883840396
 20
-2526.482072086
 30
0.0
 11
-35.61386883840396
 21
-2565.481005608897
 31
0.0
  0
LINE
  5
2BA
330
CF
100
AcDbEntity
  8
1
  6
Continuous
 62
     7
100
AcDbLine
 10
-61.38748495306481
 20
-2524.762595593276
 30
0.0
 11
-90.89614880540398
 21
-2535.502870888493
 31
0.0
  0
ARC
  5
2BB
330
CF
100
AcDbEntity
  8
1
  6
Continuous
 62
     7
100
AcDbCircle
 10
-33.11386883840396
 20
-2544.481005608897
 30
0.0
 40
59.00000000000085
100
AcDbArc
 50
172.0335146207995
 51
-165.2878891185368
  0
LWPOLYLINE
  5
2BC
330
CF
100
AcDbEntity
  8
1
  6
Continuous
 62
     7
 60
     1
100
AcDbPolyline
 90
        2
 70
     0
 43
0.0
 10
-54.10980213972698
 20
-2561.783272465125
 10
-42.66898592454299
 20
-2561.783272465125
  0
ARC
  5
2BD
330
CF
100
AcDbEntity
  8
1
  6
Continuous
 62
     7
100
AcDbCircle
 10
-90.55412866207689
 20
-2536.442563509279
 30
0.0
 40
1.000000000000563
100
AcDbArc
 50
110.0000000000749
 51
172.0335146209113
  0
ARC
  5
2BE
330
CF
100
AcDbEntity
  8
1
  6
Continuous
 62
     7
100
AcDbCircle
 10
-85.34342986818297
 20
-2558.194974933521
 30
0.0
 40
4.999999999999249
100
AcDbArc
 50
-165.2878891185137
 51
-91.33221985386044
  0
ARC
  5
2BF
330
CF
100
AcDbEntity
  8
1
  6
Continuous
 62
     7
100
AcDbCircle
 10
-56.61386883840396
 20
-2564.420827862712
 30
0.0
 40
0.4999999999997446
100
AcDbArc
 50
-167.3729917416246
 51
-91.52752544225982
  0
ARC
  5
2C0
330
CF
100
AcDbEntity
  8
1
  6
Continuous
 62
     7
100
AcDbCircle
 10
-56.61386883840396
 20
-2524.541183355079
 30
0.0
 40
0.5000000000000789
100
AcDbArc
 50
91.52752544225982
 51
180.0
  0
ENDBLK
  5
D1
330
CF
100
AcDbEntity
  8
0
100
AcDbBlockEnd
  0
BLOCK
  5
D3
330
D2
100
AcDbEntity
  8
0
100
AcDbBlockBegin
  2
72-33__42
 70
     0
 71
     0
 10
1387.336075470669
 20
-2467.43361191175
 30
0.0
  3
72-33__42
  1

  0
LINE
  5
2C1
330
D2
100
AcDbEntity
  8
1
  6
Continuous
 62
     7
100
AcDbLine
 10
-35.61386883840396
 20
-2554.581005608894
 30
0.0
 11
-1.47661053820093
 21
-2554.581005608894
 31
0.0
  0
LINE
  5
2C2
330
D2
100
AcDbEntity
  8
1
  6
Continuous
 62
     7
100
AcDbLine
 10
1.08611704762006
 20
-2554.223044016373
 30
0.0
 11
0.51144892837101
 21
-2551.500931872563
 31
0.0
  0
LINE
  5
2C3
330
D2
100
AcDbEntity
  8
1
  6
Continuous
 62
     7
100
AcDbLine
 10
-0.66109761685198
 20
-2554.946764026774
 30
0.0
 11
-1.55109106062605
 21
-2550.731005608896
 31
0.0
  0
LINE
  5
2C4
330
D2
100
AcDbEntity
  8
1
  6
Continuous
 62
     7
100
AcDbLine
 10
-2.5010910606261
 20
-2555.231005608896
 30
0.0
 11
-3.45109106062591
 21
-2550.731005608896
 31
0.0
  0
LINE
  5
2C5
330
D2
100
AcDbEntity
  8
1
  6
Continuous
 62
     7
100
AcDbLine
 10
-4.40109106062596
 20
-2555.231005608896
 30
0.0
 11
-5.351091060626
 21
-2550.731005608896
 31
0.0
  0
LINE
  5
2C6
330
D2
100
AcDbEntity
  8
1
  6
Continuous
 62
     7
100
AcDbLine
 10
-6.30109106062605
 20
-2555.231005608896
 30
0.0
 11
-7.2510910606261
 21
-2550.731005608896
 31
0.0
  0
LINE
  5
2C7
330
D2
100
AcDbEntity
  8
1
  6
Continuous
 62
     7
100
AcDbLine
 10
-8.20109106062591
 20
-2555.231005608896
 30
0.0
 11
-9.15109106062596
 21
-2550.731005608896
 31
0.0
  0
LINE
  5
2C8
330
D2
100
AcDbEntity
  8
1
  6
Continuous
 62
     7
100
AcDbLine
 10
-10.101091060626
 20
-2555.231005608896
 30
0.0
 11
-11.05109106062605
 21
-2550.731005608896
 31
0.0
  0
LINE
  5
2C9
330
D2
100
AcDbEntity
  8
1
  6
Continuous
 62
     7
100
AcDbLine
 10
-12.0010910606261
 20
-2555.231005608896
 30
0.0
 11
-12.95109106062591
 21
-2550.731005608896
 31
0.0
  0
LINE
  5
2CA
330
D2
100
AcDbEntity
  8
1
  6
Continuous
 62
     7
100
AcDbLine
 10
-13.90109106062596
 20
-2555.231005608896
 30
0.0
 11
-14.851091060626
 21
-2550.731005608896
 31
0.0
  0
LINE
  5
2CB
330
D2
100
AcDbEntity
  8
1
  6
Continuous
 62
     7
100
AcDbLine
 10
-15.80109106062605
 20
-2555.231005608896
 30
0.0
 11
-16.7510910606261
 21
-2550.731005608896
 31
0.0
  0
LINE
  5
2CC
330
D2
100
AcDbEntity
  8
1
  6
Continuous
 62
     7
100
AcDbLine
 10
-17.70109106062591
 20
-2555.231005608896
 30
0.0
 11
-18.65109106062596
 21
-2550.731005608896
 31
0.0
  0
LINE
  5
2CD
330
D2
100
AcDbEntity
  8
1
  6
Continuous
 62
     7
100
AcDbLine
 10
-19.601091060626
 20
-2555.231005608896
 30
0.0
 11
-20.55109106062605
 21
-2550.731005608896
 31
0.0
  0
LINE
  5
2CE
330
D2
100
AcDbEntity
  8
1
  6
Continuous
 62
     7
100
AcDbLine
 10
-21.5010910606261
 20
-2555.231005608896
 30
0.0
 11
-22.45109106062591
 21
-2550.731005608896
 31
0.0
  0
LINE
  5
2CF
330
D2
100
AcDbEntity
  8
1
  6
Continuous
 62
     7
100
AcDbLine
 10
-23.40109106062596
 20
-2555.231005608896
 30
0.0
 11
-24.351091060626
 21
-2550.731005608896
 31
0.0
  0
LINE
  5
2D0
330
D2
100
AcDbEntity
  8
1
  6
Continuous
 62
     7
100
AcDbLine
 10
-25.30109106062605
 20
-2555.231005608896
 30
0.0
 11
-26.2510910606261
 21
-2550.731005608896
 31
0.0
  0
LINE
  5
2D1
330
D2
100
AcDbEntity
  8
1
  6
Continuous
 62
     7
100
AcDbLine
 10
-27.20109106062591
 20
-2555.231005608896
 30
0.0
 11
-28.15109106062596
 21
-2550.731005608896
 31
0.0
  0
LINE
  5
2D2
330
D2
100
AcDbEntity
  8
1
  6
Continuous
 62
     7
100
AcDbLine
 10
-29.101091060626
 20
-2555.231005608896
 30
0.0
 11
-30.05109106062605
 21
-2550.731005608896
 31
0.0
  0
LINE
  5
2D3
330
D2
100
AcDbEntity
  8
1
  6
Continuous
 62
     7
100
AcDbLine
 10
-31.0010910606261
 20
-2555.231005608896
 30
0.0
 11
-31.95109106062591
 21
-2550.731005608896
 31
0.0
  0
LINE
  5
2D4
330
D2
100
AcDbEntity
  8
1
  6
Continuous
 62
     7
100
AcDbLine
 10
-32.90109106062596
 20
-2555.231005608896
 30
0.0
 11
-33.851091060626
 21
-2550.731005608896
 31
0.0
  0
LINE
  5
2D5
330
D2
100
AcDbEntity
  8
1
  6
Continuous
 62
     7
100
AcDbLine
 10
-34.80109106062605
 20
-2555.231005608896
 30
0.0
 11
-35.61386883840396
 21
-2551.381005608887
 31
0.0
  0
LINE
  5
2D6
330
D2
100
AcDbEntity
  8
1
  6
Continuous
 62
     7
100
AcDbLine
 10
-1.47661053820093
 20
-2554.581005608894
 30
0.0
 11
2.38613116159604
 21
-2552.981005608896
 31
0.0
  0
LINE
  5
2D7
330
D2
100
AcDbEntity
  8
1
  6
Continuous
 62
     7
100
AcDbLine
 10
2.38613116159604
 20
-2552.981005608896
 30
0.0
 11
-1.47661053820093
 21
-2551.381005608892
 31
0.0
  0
LINE
  5
2D8
330
D2
100
AcDbEntity
  8
1
  6
Continuous
 62
     7
100
AcDbLine
 10
-1.47661053820093
 20
-2551.381005608892
 30
0.0
 11
-35.61386883840396
 21
-2551.381005608891
 31
0.0
  0
ENDBLK
  5
D4
330
D2
100
AcDbEntity
  8
0
100
AcDbBlockEnd
  0
BLOCK
  5
D9
330
D5
100
AcDbEntity
  8
0
100
AcDbBlockBegin
  2
S32-85__43
 70
     0
 71
     0
 10
-4301.511698010915
 20
-4788.934059593044
 30
0.0
  3
S32-85__43
  1

  0
INSERT
  5
D6
330
D5
100
AcDbEntity
  8
1
100
AcDbBlockReference
  2
72-33__40
 10
1387.336075470669
 20
-2446.433611911745
 30
0.0
  0
INSERT
  5
D7
330
D5
100
AcDbEntity
  8
1
100
AcDbBlockReference
  2
85-124__41
 10
1235.300809942252
 20
-2627.468763374918
 30
0.0
  0
INSERT
  5
D8
330
D5
100
AcDbEntity
  8
1
100
AcDbBlockReference
  2
72-33__42
 10
1387.336075470669
 20
-2467.43361191175
 30
0.0
  0
LINE
  5
2D9
330
D5
100
AcDbEntity
  8
1
  6
PHANTOM
 62
     4
100
AcDbLine
 10
5.38613116159627
 20
-2552.981005608895
 30
0.0
 11
-48.61386883840328
 21
-2552.981005608895
 31
0.0
  0
LINE
  5
2DA
330
D5
100
AcDbEntity
  8
1
  6
PHANTOM
 62
     4
100
AcDbLine
 10
5.25217811425864
 20
-2531.981005608895
 30
0.0
 11
-48.61386883840328
 21
-2531.981005608891
 31
0.0
  0
ENDBLK
  5
DA
330
D5
100
AcDbEntity
  8
0
100
AcDbBlockEnd
  0
BLOCK
  5
DC
330
DB
100
AcDbEntity
  8
0
100
AcDbBlockBegin
  2
72-33__44
 70
     0
 71
     0
 10
1387.307205205699
 20
-2546.433611911746
 30
0.0
  3
72-33__44
  1

  0
LINE
  5
2DB
330
DB
100
AcDbEntity
  8
1
  6
Continuous
 62
     7
100
AcDbLine
 10
-35.61386883840385
 20
-2633.58100560889
 30
0.0
 11
-1.47661053820093
 21
-2633.581005608891
 31
0.0
  0
LINE
  5
2DC
330
DB
100
AcDbEntity
  8
1
  6
Continuous
 62
     7
100
AcDbLine
 10
1.08611704762006
 20
-2633.223044016369
 30
0.0
 11
0.51144892837101
 21
-2630.500931872562
 31
0.0
  0
LINE
  5
2DD
330
DB
100
AcDbEntity
  8
1
  6
Continuous
 62
     7
100
AcDbLine
 10
-0.66109761685198
 20
-2633.946764026769
 30
0.0
 11
-1.55109106062605
 21
-2629.731005608895
 31
0.0
  0
LINE
  5
2DE
330
DB
100
AcDbEntity
  8
1
  6
Continuous
 62
     7
100
AcDbLine
 10
-2.5010910606261
 20
-2634.231005608895
 30
0.0
 11
-3.45109106062591
 21
-2629.731005608895
 31
0.0
  0
LINE
  5
2DF
330
DB
100
AcDbEntity
  8
1
  6
Continuous
 62
     7
100
AcDbLine
 10
-4.40109106062596
 20
-2634.231005608895
 30
0.0
 11
-5.351091060626
 21
-2629.731005608895
 31
0.0
  0
LINE
  5
2E0
330
DB
100
AcDbEntity
  8
1
  6
Continuous
 62
     7
100
AcDbLine
 10
-6.30109106062605
 20
-2634.231005608895
 30
0.0
 11
-7.2510910606261
 21
-2629.731005608895
 31
0.0
  0
LINE
  5
2E1
330
DB
100
AcDbEntity
  8
1
  6
Continuous
 62
     7
100
AcDbLine
 10
-8.20109106062591
 20
-2634.231005608895
 30
0.0
 11
-9.15109106062596
 21
-2629.731005608895
 31
0.0
  0
LINE
  5
2E2
330
DB
100
AcDbEntity
  8
1
  6
Continuous
 62
     7
100
AcDbLine
 10
-10.101091060626
 20
-2634.231005608895
 30
0.0
 11
-11.05109106062605
 21
-2629.731005608895
 31
0.0
  0
LINE
  5
2E3
330
DB
100
AcDbEntity
  8
1
  6
Continuous
 62
     7
100
AcDbLine
 10
-12.0010910606261
 20
-2634.231005608895
 30
0.0
 11
-12.95109106062591
 21
-2629.731005608895
 31
0.0
  0
LINE
  5
2E4
330
DB
100
AcDbEntity
  8
1
  6
Continuous
 62
     7
100
AcDbLine
 10
-13.90109106062596
 20
-2634.231005608895
 30
0.0
 11
-14.851091060626
 21
-2629.731005608895
 31
0.0
  0
LINE
  5
2E5
330
DB
100
AcDbEntity
  8
1
  6
Continuous
 62
     7
100
AcDbLine
 10
-15.80109106062605
 20
-2634.231005608895
 30
0.0
 11
-16.7510910606261
 21
-2629.731005608895
 31
0.0
  0
LINE
  5
2E6
330
DB
100
AcDbEntity
  8
1
  6
Continuous
 62
     7
100
AcDbLine
 10
-17.70109106062591
 20
-2634.231005608895
 30
0.0
 11
-18.65109106062596
 21
-2629.731005608895
 31
0.0
  0
LINE
  5
2E7
330
DB
100
AcDbEntity
  8
1
  6
Continuous
 62
     7
100
AcDbLine
 10
-19.601091060626
 20
-2634.231005608895
 30
0.0
 11
-20.55109106062605
 21
-2629.731005608895
 31
0.0
  0
LINE
  5
2E8
330
DB
100
AcDbEntity
  8
1
  6
Continuous
 62
     7
100
AcDbLine
 10
-21.5010910606261
 20
-2634.231005608895
 30
0.0
 11
-22.45109106062591
 21
-2629.731005608895
 31
0.0
  0
LINE
  5
2E9
330
DB
100
AcDbEntity
  8
1
  6
Continuous
 62
     7
100
AcDbLine
 10
-23.40109106062596
 20
-2634.231005608895
 30
0.0
 11
-24.351091060626
 21
-2629.731005608895
 31
0.0
  0
LINE
  5
2EA
330
DB
100
AcDbEntity
  8
1
  6
Continuous
 62
     7
100
AcDbLine
 10
-25.30109106062605
 20
-2634.231005608895
 30
0.0
 11
-26.2510910606261
 21
-2629.731005608895
 31
0.0
  0
LINE
  5
2EB
330
DB
100
AcDbEntity
  8
1
  6
Continuous
 62
     7
100
AcDbLine
 10
-27.20109106062591
 20
-2634.231005608895
 30
0.0
 11
-28.15109106062596
 21
-2629.731005608895
 31
0.0
  0
LINE
  5
2EC
330
DB
100
AcDbEntity
  8
1
  6
Continuous
 62
     7
100
AcDbLine
 10
-29.101091060626
 20
-2634.231005608895
 30
0.0
 11
-30.05109106062605
 21
-2629.731005608895
 31
0.0
  0
LINE
  5
2ED
330
DB
100
AcDbEntity
  8
1
  6
Continuous
 62
     7
100
AcDbLine
 10
-31.0010910606261
 20
-2634.231005608895
 30
0.0
 11
-31.95109106062591
 21
-2629.731005608895
 31
0.0
  0
LINE
  5
2EE
330
DB
100
AcDbEntity
  8
1
  6
Continuous
 62
     7
100
AcDbLine
 10
-32.90109106062596
 20
-2634.231005608895
 30
0.0
 11
-33.851091060626
 21
-2629.731005608895
 31
0.0
  0
LINE
  5
2EF
330
DB
100
AcDbEntity
  8
1
  6
Continuous
 62
     7
100
AcDbLine
 10
-34.80109106062605
 20
-2634.231005608895
 30
0.0
 11
-35.61386883840385
 21
-2630.381005608886
 31
0.0
  0
LINE
  5
2F0
330
DB
100
AcDbEntity
  8
1
  6
Continuous
 62
     7
100
AcDbLine
 10
-1.47661053820093
 20
-2633.581005608891
 30
0.0
 11
2.38613116159604
 21
-2631.981005608895
 31
0.0
  0
LINE
  5
2F1
330
DB
100
AcDbEntity
  8
1
  6
Continuous
 62
     7
100
AcDbLine
 10
2.38613116159604
 20
-2631.981005608895
 30
0.0
 11
-1.47661053820093
 21
-2630.381005608891
 31
0.0
  0
LINE
  5
2F2
330
DB
100
AcDbEntity
  8
1
  6
Continuous
 62
     7
100
AcDbLine
 10
-1.47661053820093
 20
-2630.381005608891
 30
0.0
 11
-35.61386883840385
 21
-2630.381005608888
 31
0.0
  0
ENDBLK
  5
DD
330
DB
100
AcDbEntity
  8
0
100
AcDbBlockEnd
  0
BLOCK
  5
DF
330
DE
100
AcDbEntity
  8
0
100
AcDbBlockBegin
  2
72-33__45
 70
     0
 71
     0
 10
1387.307205205699
 20
-2567.433611911749
 30
0.0
  3
72-33__45
  1

  0
LINE
  5
2F3
330
DE
100
AcDbEntity
  8
1
  6
Continuous
 62
     7
100
AcDbLine
 10
-1.47661053820093
 20
-2651.381005608892
 30
0.0
 11
-35.61386883840385
 21
-2651.381005608891
 31
0.0
  0
LINE
  5
2F4
330
DE
100
AcDbEntity
  8
1
  6
Continuous
 62
     7
100
AcDbLine
 10
2.38613116159604
 20
-2652.981005608896
 30
0.0
 11
-1.47661053820093
 21
-2651.381005608892
 31
0.0
  0
LINE
  5
2F5
330
DE
100
AcDbEntity
  8
1
  6
Continuous
 62
     7
100
AcDbLine
 10
-1.47661053820093
 20
-2654.581005608894
 30
0.0
 11
2.38613116159604
 21
-2652.981005608896
 31
0.0
  0
LINE
  5
2F6
330
DE
100
AcDbEntity
  8
1
  6
Continuous
 62
     7
100
AcDbLine
 10
-34.80109106062605
 20
-2655.231005608896
 30
0.0
 11
-35.61386883840385
 21
-2651.381005608887
 31
0.0
  0
LINE
  5
2F7
330
DE
100
AcDbEntity
  8
1
  6
Continuous
 62
     7
100
AcDbLine
 10
-32.90109106062596
 20
-2655.231005608896
 30
0.0
 11
-33.851091060626
 21
-2650.731005608896
 31
0.0
  0
LINE
  5
2F8
330
DE
100
AcDbEntity
  8
1
  6
Continuous
 62
     7
100
AcDbLine
 10
-31.0010910606261
 20
-2655.231005608896
 30
0.0
 11
-31.95109106062591
 21
-2650.731005608896
 31
0.0
  0
LINE
  5
2F9
330
DE
100
AcDbEntity
  8
1
  6
Continuous
 62
     7
100
AcDbLine
 10
-29.101091060626
 20
-2655.231005608896
 30
0.0
 11
-30.05109106062605
 21
-2650.731005608896
 31
0.0
  0
LINE
  5
2FA
330
DE
100
AcDbEntity
  8
1
  6
Continuous
 62
     7
100
AcDbLine
 10
-27.20109106062591
 20
-2655.231005608896
 30
0.0
 11
-28.15109106062596
 21
-2650.731005608896
 31
0.0
  0
LINE
  5
2FB
330
DE
100
AcDbEntity
  8
1
  6
Continuous
 62
     7
100
AcDbLine
 10
-25.30109106062605
 20
-2655.231005608896
 30
0.0
 11
-26.2510910606261
 21
-2650.731005608896
 31
0.0
  0
LINE
  5
2FC
330
DE
100
AcDbEntity
  8
1
  6
Continuous
 62
     7
100
AcDbLine
 10
-23.40109106062596
 20
-2655.231005608896
 30
0.0
 11
-24.351091060626
 21
-2650.731005608896
 31
0.0
  0
LINE
  5
2FD
330
DE
100
AcDbEntity
  8
1
  6
Continuous
 62
     7
100
AcDbLine
 10
-21.5010910606261
 20
-2655.231005608896
 30
0.0
 11
-22.45109106062591
 21
-2650.731005608896
 31
0.0
  0
LINE
  5
2FE
330
DE
100
AcDbEntity
  8
1
  6
Continuous
 62
     7
100
AcDbLine
 10
-19.601091060626
 20
-2655.231005608896
 30
0.0
 11
-20.55109106062605
 21
-2650.731005608896
 31
0.0
  0
LINE
  5
2FF
330
DE
100
AcDbEntity
  8
1
  6
Continuous
 62
     7
100
AcDbLine
 10
-17.70109106062591
 20
-2655.231005608896
 30
0.0
 11
-18.65109106062596
 21
-2650.731005608896
 31
0.0
  0
LINE
  5
300
330
DE
100
AcDbEntity
  8
1
  6
Continuous
 62
     7
100
AcDbLine
 10
-15.80109106062605
 20
-2655.231005608896
 30
0.0
 11
-16.7510910606261
 21
-2650.731005608896
 31
0.0
  0
LINE
  5
301
330
DE
100
AcDbEntity
  8
1
  6
Continuous
 62
     7
100
AcDbLine
 10
-13.90109106062596
 20
-2655.231005608896
 30
0.0
 11
-14.851091060626
 21
-2650.731005608896
 31
0.0
  0
LINE
  5
302
330
DE
100
AcDbEntity
  8
1
  6
Continuous
 62
     7
100
AcDbLine
 10
-12.0010910606261
 20
-2655.231005608896
 30
0.0
 11
-12.95109106062591
 21
-2650.731005608896
 31
0.0
  0
LINE
  5
303
330
DE
100
AcDbEntity
  8
1
  6
Continuous
 62
     7
100
AcDbLine
 10
-10.101091060626
 20
-2655.231005608896
 30
0.0
 11
-11.05109106062605
 21
-2650.731005608896
 31
0.0
  0
LINE
  5
304
330
DE
100
AcDbEntity
  8
1
  6
Continuous
 62
     7
100
AcDbLine
 10
-8.20109106062591
 20
-2655.231005608896
 30
0.0
 11
-9.15109106062596
 21
-2650.731005608896
 31
0.0
  0
LINE
  5
305
330
DE
100
AcDbEntity
  8
1
  6
Continuous
 62
     7
100
AcDbLine
 10
-6.30109106062605
 20
-2655.231005608896
 30
0.0
 11
-7.2510910606261
 21
-2650.731005608896
 31
0.0
  0
LINE
  5
306
330
DE
100
AcDbEntity
  8
1
  6
Continuous
 62
     7
100
AcDbLine
 10
-4.40109106062596
 20
-2655.231005608896
 30
0.0
 11
-5.351091060626
 21
-2650.731005608896
 31
0.0
  0
LINE
  5
307
330
DE
100
AcDbEntity
  8
1
  6
Continuous
 62
     7
100
AcDbLine
 10
-2.5010910606261
 20
-2655.231005608896
 30
0.0
 11
-3.45109106062591
 21
-2650.731005608896
 31
0.0
  0
LINE
  5
308
330
DE
100
AcDbEntity
  8
1
  6
Continuous
 62
     7
100
AcDbLine
 10
-0.66109761685198
 20
-2654.946764026771
 30
0.0
 11
-1.55109106062605
 21
-2650.731005608896
 31
0.0
  0
LINE
  5
309
330
DE
100
AcDbEntity
  8
1
  6
Continuous
 62
     7
100
AcDbLine
 10
1.08611704762006
 20
-2654.22304401637
 30
0.0
 11
0.51144892837101
 21
-2651.500931872563
 31
0.0
  0
LINE
  5
30A
330
DE
100
AcDbEntity
  8
1
  6
Continuous
 62
     7
100
AcDbLine
 10
-35.61386883840385
 20
-2654.581005608894
 30
0.0
 11
-1.47661053820093
 21
-2654.581005608894
 31
0.0
  0
ENDBLK
  5
E0
330
DE
100
AcDbEntity
  8
0
100
AcDbBlockEnd
  0
BLOCK
  5
E2
330
E1
100
AcDbEntity
  8
0
100
AcDbBlockBegin
  2
85-124__46
 70
     0
 71
     0
 10
1235.300809942252
 20
-2727.468763374918
 30
0.0
  3
85-124__46
  1

  0
LINE
  5
30B
330
E1
100
AcDbEntity
  8
1
  6
Continuous
 62
     7
100
AcDbLine
 10
-61.38748495306481
 20
-2624.762595593276
 30
0.0
 11
-90.89614880540398
 21
-2635.502870888493
 31
0.0
  0
LINE
  5
30C
330
E1
100
AcDbEntity
  8
1
  6
Continuous
 62
     7
100
AcDbLine
 10
-35.61386883840396
 20
-2626.482072086
 30
0.0
 11
-35.61386883840396
 21
-2665.481005608897
 31
0.0
  0
LINE
  5
30D
330
E1
100
AcDbEntity
  8
1
  6
Continuous
 62
     7
100
AcDbLine
 10
-61.25674802026083
 20
-2624.715011241213
 30
0.0
 11
-61.38748495306481
 21
-2624.762595593276
 31
0.0
  0
LINE
  5
30E
330
E1
100
AcDbEntity
  8
1
  6
Continuous
 62
     7
100
AcDbLine
 10
-85.45967750692603
 20
-2663.193623399507
 30
0.0
 11
-62.87420939479193
 21
-2663.718866843975
 31
0.0
  0
LINE
  5
30F
330
E1
100
AcDbEntity
  8
1
  6
Continuous
 62
     7
100
AcDbLine
 10
-35.61386883840396
 20
-2623.481005608897
 30
0.0
 11
-35.61386883840396
 21
-2626.482072086
 31
0.0
  0
LINE
  5
310
330
E1
100
AcDbEntity
  8
1
  6
PHANTOM
 62
     3
100
AcDbLine
 10
-58.63887851936784
 20
-2634.956775040973
 30
0.0
 11
-58.63887851936784
 21
-2634.956775040971
 31
0.0
  0
LINE
  5
311
330
E1
100
AcDbEntity
  8
1
  6
Continuous
 62
     7
100
AcDbLine
 10
-35.61386883840396
 20
-2623.481005608897
 30
0.0
 11
-56.62719743352386
 21
-2624.041361038098
 31
0.0
  0
LINE
  5
312
330
E1
100
AcDbEntity
  8
0
  6
Continuous
 62
     7
100
AcDbLine
 10
-57.11386883840396
 20
-2624.604534463033
 30
0.0
 11
-59.783541041224
 21
-2624.675725721776
 31
0.0
  0
LINE
  5
313
330
E1
100
AcDbEntity
  8
1
  6
Continuous
 62
     7
100
AcDbLine
 10
-35.61386883840396
 20
-2665.481005608897
 30
0.0
 11
-56.62719743352386
 21
-2664.920650179693
 31
0.0
  0
LINE
  5
314
330
E1
100
AcDbEntity
  8
1
  6
Continuous
 62
     7
100
AcDbLine
 10
-59.783541041224
 20
-2624.675725721776
 30
0.0
 11
-61.25674802026083
 21
-2624.715011241213
 31
0.0
  0
LINE
  5
315
330
E1
100
AcDbEntity
  8
1
  6
Continuous
 62
     7
100
AcDbLine
 10
-57.11386883840396
 20
-2624.541183355079
 30
0.0
 11
-57.11386883840396
 21
-2624.604534463033
 31
0.0
  0
LINE
  5
316
330
E1
100
AcDbEntity
  8
1
  6
Continuous
 62
     7
100
AcDbLine
 10
-57.10177575065086
 20
-2664.530129486586
 30
0.0
 11
-62.87420939479193
 21
-2663.718866843975
 31
0.0
  0
ARC
  5
317
330
E1
100
AcDbEntity
  8
1
  6
Continuous
 62
     7
100
AcDbCircle
 10
-33.11386883840396
 20
-2644.481005608897
 30
0.0
 40
59.00000000000085
100
AcDbArc
 50
172.0335146207995
 51
-165.2878891185368
  0
LWPOLYLINE
  5
318
330
E1
100
AcDbEntity
  8
1
  6
Continuous
 62
     7
 60
     1
100
AcDbPolyline
 90
        2
 70
     0
 43
0.0
 10
-54.10980213972698
 20
-2661.783272465125
 10
-42.66898592454299
 20
-2661.783272465125
  0
ARC
  5
319
330
E1
100
AcDbEntity
  8
1
  6
Continuous
 62
     7
100
AcDbCircle
 10
-56.61386883840396
 20
-2624.541183355079
 30
0.0
 40
0.5000000000000789
100
AcDbArc
 50
91.52752544225982
 51
180.0
  0
ARC
  5
31A
330
E1
100
AcDbEntity
  8
1
  6
Continuous
 62
     7
100
AcDbCircle
 10
-56.61386883840396
 20
-2664.420827862712
 30
0.0
 40
0.4999999999997446
100
AcDbArc
 50
-167.3729917416246
 51
-91.52752544225982
  0
ARC
  5
31B
330
E1
100
AcDbEntity
  8
1
  6
Continuous
 62
     7
100
AcDbCircle
 10
-85.34342986818297
 20
-2658.194974933521
 30
0.0
 40
4.999999999999249
100
AcDbArc
 50
-165.2878891185137
 51
-91.33221985386044
  0
ARC
  5
31C
330
E1
100
AcDbEntity
  8
1
  6
Continuous
 62
     7
100
AcDbCircle
 10
-90.55412866207689
 20
-2636.442563509279
 30
0.0
 40
1.000000000000563
100
AcDbArc
 50
110.0000000000749
 51
172.0335146209113
  0
ENDBLK
  5
E3
330
E1
100
AcDbEntity
  8
0
100
AcDbBlockEnd
  0
BLOCK
  5
E8
330
E4
100
AcDbEntity
  8
0
100
AcDbBlockBegin
  2
S32-85__47
 70
     0
 71
     0
 10
-4301.511698010915
 20
-4888.934059593044
 30
0.0
  3
S32-85__47
  1

  0
INSERT
  5
E5
330
E4
100
AcDbEntity
  8
1
100
AcDbBlockReference
  2
72-33__44
 10
1387.307205205699
 20
-2546.433611911746
 30
0.0
  0
INSERT
  5
E6
330
E4
100
AcDbEntity
  8
1
100
AcDbBlockReference
  2
72-33__45
 10
1387.307205205699
 20
-2567.433611911749
 30
0.0
  0
INSERT
  5
E7
330
E4
100
AcDbEntity
  8
1
100
AcDbBlockReference
  2
85-124__46
 10
1235.300809942252
 20
-2727.468763374918
 30
0.0
  0
LINE
  5
31D
330
E4
100
AcDbEntity
  8
1
  6
PHANTOM
 62
     4
100
AcDbLine
 10
5.38613116159604
 20
-2652.981005608895
 30
0.0
 11
-48.61386883840328
 21
-2652.981005608895
 31
0.0
  0
LINE
  5
31E
330
E4
100
AcDbEntity
  8
1
  6
PHANTOM
 62
     4
100
AcDbLine
 10
5.38613116159604
 20
-2631.981005608891
 30
0.0
 11
-48.61386883840328
 21
-2631.981005608891
 31
0.0
  0
ENDBLK
  5
E9
330
E4
100
AcDbEntity
  8
0
100
AcDbBlockEnd
  0
BLOCK
  5
EB
330
EA
100
AcDbEntity
  8
0
100
AcDbBlockBegin
  2
98-145
 70
     0
 71
     0
 10
-1868.635021861536
 20
-2238.381961732364
 30
0.0
  3
98-145
  1

  0
LINE
  5
31F
330
EA
100
AcDbEntity
  8
1
  6
Continuous
 62
     7
100
AcDbLine
 10
-457.9525229850442
 20
-2663.687106320424
 30
0.0
 11
-458.220605328559
 21
-2663.644119681881
 31
0.0
  0
LINE
  5
320
330
EA
100
AcDbEntity
  8
1
  6
Continuous
 62
     7
100
AcDbLine
 10
-473.0071323482493
 20
-2663.644119681879
 30
0.0
 11
-473.275214691763
 21
-2663.687106320424
 31
0.0
  0
LINE
  5
321
330
EA
100
AcDbEntity
  8
1
  6
Continuous
 62
     7
100
AcDbLine
 10
-457.5246463681633
 20
-2625.122231097073
 30
0.0
 11
-458.220605328559
 21
-2625.412740145992
 31
0.0
  0
LINE
  5
322
330
EA
100
AcDbEntity
  8
1
  6
Continuous
 62
     7
100
AcDbLine
 10
-473.0071323482493
 20
-2625.412740145992
 30
0.0
 11
-473.7030913086444
 21
-2625.122231097073
 31
0.0
  0
LINE
  5
323
330
EA
100
AcDbEntity
  8
1
  6
Continuous
 62
     2
100
AcDbLine
 10
-471.1687375200804
 20
-2625.43402287519
 30
0.0
 11
-471.1687375200804
 21
-2641.23669726143
 31
0.0
  0
LINE
  5
324
330
EA
100
AcDbEntity
  8
1
  6
Continuous
 62
     2
100
AcDbLine
 10
-470.1232194702611
 20
-2625.366654559075
 30
0.0
 11
-470.1232194702611
 21
-2640.359403451439
 31
0.0
  0
LINE
  5
325
330
EA
100
AcDbEntity
  8
1
  6
Continuous
 62
     2
100
AcDbLine
 10
-469.0433825393141
 20
-2625.311811592058
 30
0.0
 11
-469.0433825393141
 21
-2639.453312680945
 31
0.0
  0
LINE
  5
326
330
EA
100
AcDbEntity
  8
1
  6
Continuous
 62
     2
100
AcDbLine
 10
-467.937444938306
 20
-2625.271132537685
 30
0.0
 11
-467.937444938306
 21
-2638.525320847838
 31
0.0
  0
LINE
  5
327
330
EA
100
AcDbEntity
  8
1
  6
Continuous
 62
     2
100
AcDbLine
 10
-466.8138235201641
 20
-2625.245830588327
 30
0.0
 11
-466.8138235201641
 21
-2637.582490530289
 31
0.0
  0
LINE
  5
328
330
EA
100
AcDbEntity
  8
1
  6
Continuous
 62
     2
100
AcDbLine
 10
-464.4139141566434
 20
-2625.245830588327
 30
0.0
 11
-464.4139141566434
 21
-2635.568727468501
 31
0.0
  0
LINE
  5
329
330
EA
100
AcDbEntity
  8
1
  6
Continuous
 62
     2
100
AcDbLine
 10
-463.2902927385003
 20
-2625.271132537685
 30
0.0
 11
-463.2902927385003
 21
-2634.625897150957
 31
0.0
  0
LINE
  5
32A
330
EA
100
AcDbEntity
  8
1
  6
Continuous
 62
     2
100
AcDbLine
 10
-462.1843551374921
 20
-2625.311811592059
 30
0.0
 11
-462.1843551374921
 21
-2633.697905317844
 31
0.0
  0
LINE
  5
32B
330
EA
100
AcDbEntity
  8
1
  6
Continuous
 62
     2
100
AcDbLine
 10
-461.1045182065464
 20
-2625.366654559075
 30
0.0
 11
-461.1045182065464
 21
-2632.791814547355
 31
0.0
  0
LINE
  5
32C
330
EA
100
AcDbEntity
  8
1
  6
Continuous
 62
     2
100
AcDbLine
 10
-460.0590001567284
 20
-2625.43402287519
 30
0.0
 11
-460.0590001567284
 21
-2631.914520737365
 31
0.0
  0
LINE
  5
32D
330
EA
100
AcDbEntity
  8
1
  6
Continuous
 62
     2
100
AcDbLine
 10
-460.0590001567284
 20
-2663.578001482316
 30
0.0
 11
-460.0590001567284
 21
-2650.842926432679
 31
0.0
  0
LINE
  5
32E
330
EA
100
AcDbEntity
  8
1
  6
Continuous
 62
     2
100
AcDbLine
 10
-461.1045182065464
 20
-2663.660706567709
 30
0.0
 11
-461.1045182065464
 21
-2651.720220242672
 31
0.0
  0
LINE
  5
32F
330
EA
100
AcDbEntity
  8
1
  6
Continuous
 62
     2
100
AcDbLine
 10
-462.1843551374921
 20
-2663.728008168189
 30
0.0
 11
-462.1843551374921
 21
-2652.626311013162
 31
0.0
  0
LINE
  5
330
330
EA
100
AcDbEntity
  8
1
  6
Continuous
 62
     2
100
AcDbLine
 10
-463.2902927385003
 20
-2663.777912837154
 30
0.0
 11
-463.2902927385003
 21
-2653.554302846271
 31
0.0
  0
LINE
  5
331
330
EA
100
AcDbEntity
  8
1
  6
Continuous
 62
     2
100
AcDbLine
 10
-464.4139141566434
 20
-2663.808946415963
 30
0.0
 11
-464.4139141566434
 21
-2654.497133163819
 31
0.0
  0
LINE
  5
332
330
EA
100
AcDbEntity
  8
1
  6
Continuous
 62
     2
100
AcDbLine
 10
-466.8138235201641
 20
-2663.808946415963
 30
0.0
 11
-466.8138235201641
 21
-2656.51089622561
 31
0.0
  0
LINE
  5
333
330
EA
100
AcDbEntity
  8
1
  6
Continuous
 62
     2
100
AcDbLine
 10
-467.937444938306
 20
-2663.777912837154
 30
0.0
 11
-467.937444938306
 21
-2657.453726543153
 31
0.0
  0
LINE
  5
334
330
EA
100
AcDbEntity
  8
1
  6
Continuous
 62
     2
100
AcDbLine
 10
-469.0433825393141
 20
-2663.728008168189
 30
0.0
 11
-469.0433825393141
 21
-2658.381718376264
 31
0.0
  0
LINE
  5
335
330
EA
100
AcDbEntity
  8
1
  6
Continuous
 62
     2
100
AcDbLine
 10
-470.1232194702611
 20
-2663.660706567709
 30
0.0
 11
-470.1232194702611
 21
-2659.287809146753
 31
0.0
  0
LINE
  5
336
330
EA
100
AcDbEntity
  8
1
  6
Continuous
 62
     2
100
AcDbLine
 10
-471.1687375200804
 20
-2663.578001482316
 30
0.0
 11
-471.1687375200804
 21
-2660.165102956745
 31
0.0
  0
ARC
  5
337
330
EA
100
AcDbEntity
  8
1
  6
Continuous
 62
     7
100
AcDbCircle
 10
-91.25435256357514
 20
-2644.528429913935
 30
0.0
 40
382.2310747028509
100
AcDbArc
 50
177.1333952566059
 51
178.2021622685928
  0
ARC
  5
338
330
EA
100
AcDbEntity
  8
1
  6
Continuous
 62
     7
100
AcDbCircle
 10
-91.25435256357514
 20
-2644.528429913935
 30
0.0
 40
382.2310747028511
100
AcDbArc
 50
-177.4862594070824
 51
-177.1333952566033
  0
ARC
  5
339
330
EA
100
AcDbEntity
  8
1
  6
Continuous
 62
     7
100
AcDbCircle
 10
-839.9733851132331
 20
-2644.528429913935
 30
0.0
 40
382.2310747028519
100
AcDbArc
 50
-2.8666047433967
 51
-2.51374059291745
  0
ARC
  5
33A
330
EA
100
AcDbEntity
  8
1
  6
Continuous
 62
     7
100
AcDbCircle
 10
-839.9733851132331
 20
-2644.528429913935
 30
0.0
 40
382.231074702851
100
AcDbArc
 50
1.79783773140731
 51
2.86660474339411
  0
ARC
  5
33B
330
EA
100
AcDbEntity
  8
1
  6
Continuous
 62
     7
100
AcDbCircle
 10
-465.6138688384044
 20
-2577.085466808976
 30
0.0
 40
86.87382075457545
100
AcDbArc
 50
-94.88197476464882
 51
-85.11802523523616
  0
ARC
  5
33C
330
EA
100
AcDbEntity
  8
1
  6
Continuous
 62
     7
100
AcDbCircle
 10
-465.6138688384044
 20
-2711.971393018897
 30
0.0
 40
86.87382075457528
100
AcDbArc
 50
85.11802523523616
 51
94.88197476464876
  0
ENDBLK
  5
EC
330
EA
100
AcDbEntity
  8
0
100
AcDbBlockEnd
  0
BLOCK
  5
EE
330
ED
100
AcDbEntity
  8
0
100
AcDbBlockBegin
  2
85-124__48
 70
     0
 71
     0
 10
1269.84292005996
 20
-2707.468763374911
 30
0.0
  3
85-124__48
  1

  0
LINE
  5
33D
330
ED
100
AcDbEntity
  8
1
  6
Continuous
 62
     7
100
AcDbLine
 10
-474.1138703678073
 20
-2637.10088594634
 30
0.0
 11
-474.113870367516
 21
-2637.100885946396
 31
0.0
  0
LINE
  5
33E
330
ED
100
AcDbEntity
  8
1
  6
Continuous
 62
     7
100
AcDbLine
 10
-486.6138703674581
 20
-2631.606156211522
 30
0.0
 11
-486.6138703674581
 21
-2657.355855006264
 31
0.0
  0
LINE
  5
33F
330
ED
100
AcDbEntity
  8
1
  6
Continuous
 62
     7
100
AcDbLine
 10
-444.6138703674581
 20
-2631.606156211522
 30
0.0
 11
-444.6138703674581
 21
-2657.355855006264
 31
0.0
  0
LINE
  5
340
330
ED
100
AcDbEntity
  8
1
  6
Continuous
 62
     7
100
AcDbLine
 10
-457.1138703673782
 20
-2635.651166291912
 30
0.0
 11
-457.1138703674651
 21
-2664.875870706811
 31
0.0
  0
LINE
  5
341
330
ED
100
AcDbEntity
  8
1
  6
Continuous
 62
     7
100
AcDbLine
 10
-474.1138703678271
 20
-2635.651166291843
 30
0.0
 11
-474.1138703674239
 21
-2664.875870706816
 31
0.0
  0
LINE
  5
342
330
ED
100
AcDbEntity
  8
1
  6
Continuous
 62
     7
100
AcDbLine
 10
-457.4260937937449
 20
-2624.591235345295
 30
0.0
 11
-457.8395943991322
 21
-2626.620142097293
 31
0.0
  0
LINE
  5
343
330
ED
100
AcDbEntity
  8
1
  6
Continuous
 62
     7
100
AcDbLine
 10
-457.8395943991322
 20
-2626.620142097293
 30
0.0
 11
-458.0195994911182
 21
-2638.245971577818
 31
0.0
  0
LINE
  5
344
330
ED
100
AcDbEntity
  8
1
  6
Continuous
 62
     7
100
AcDbLine
 10
-458.0195994911182
 20
-2638.245971577818
 30
0.0
 11
-458.2948855760569
 21
-2658.438071035571
 31
0.0
  0
LINE
  5
345
330
ED
100
AcDbEntity
  8
1
  6
Continuous
 62
     7
100
AcDbLine
 10
-458.2948855760569
 20
-2658.438071035571
 30
0.0
 11
-457.9006053459632
 21
-2664.428508038668
 31
0.0
  0
LINE
  5
346
330
ED
100
AcDbEntity
  8
1
  6
Continuous
 62
     7
100
AcDbLine
 10
-473.3881463357852
 20
-2626.620142097293
 30
0.0
 11
-473.80164694117
 21
-2624.591235345293
 31
0.0
  0
LINE
  5
347
330
ED
100
AcDbEntity
  8
1
  6
Continuous
 62
     7
100
AcDbLine
 10
-473.2081412437992
 20
-2638.245971577818
 30
0.0
 11
-473.3881463357852
 21
-2626.620142097293
 31
0.0
  0
LINE
  5
348
330
ED
100
AcDbEntity
  8
1
  6
Continuous
 62
     7
100
AcDbLine
 10
-472.9328551588581
 20
-2658.438071035571
 30
0.0
 11
-473.2081412437992
 21
-2638.245971577818
 31
0.0
  0
LINE
  5
349
330
ED
100
AcDbEntity
  8
1
  6
Continuous
 62
     7
100
AcDbLine
 10
-473.3271353889522
 20
-2664.428508038668
 30
0.0
 11
-472.9328551588581
 21
-2658.438071035571
 31
0.0
  0
LINE
  5
34A
330
ED
100
AcDbEntity
  8
1
  6
Continuous
 62
     7
100
AcDbLine
 10
-487.2138703674582
 20
-2657.431275059176
 30
0.0
 11
-487.2138703674582
 21
-2631.681576264432
 31
0.0
  0
LINE
  5
34B
330
ED
100
AcDbEntity
  8
1
  6
Continuous
 62
     7
100
AcDbLine
 10
-444.0138703674579
 20
-2657.431275059176
 30
0.0
 11
-444.0138703674579
 21
-2631.681576264432
 31
0.0
  0
ARC
  5
34C
330
ED
100
AcDbEntity
  8
0
  6
Continuous
 62
     7
100
AcDbCircle
 10
-465.6138703674581
 20
-2605.481005608892
 30
0.0
 40
59.45000000000236
100
AcDbArc
 50
-97.45478397503641
 51
-82.54521602496278
  0
ARC
  5
34D
330
ED
100
AcDbEntity
  8
0
  6
Continuous
 62
     7
100
AcDbCircle
 10
-465.6138703674581
 20
-2683.481005608891
 30
0.0
 40
59.44999999999835
100
AcDbArc
 50
82.26299555866392
 51
97.73700444133614
  0
ARC
  5
34E
330
ED
100
AcDbEntity
  8
1
  6
Continuous
 62
     7
100
AcDbCircle
 10
-465.6138703674581
 20
-2683.481005608891
 30
0.0
 40
59.99999999999924
100
AcDbArc
 50
73.8723797868398
 51
106.1276202131621
  0
ARC
  5
34F
330
ED
100
AcDbEntity
  8
1
  6
Continuous
 62
     7
100
AcDbCircle
 10
-474.5229669430989
 20
-2646.429175669192
 30
0.0
 40
21.9999999999963
100
AcDbArc
 50
110.647455435982
 51
114.0288906661946
  0
ARC
  5
350
330
ED
100
AcDbEntity
  8
1
  6
Continuous
 62
     7
100
AcDbCircle
 10
-465.6138703674581
 20
-2605.481005608892
 30
0.0
 40
60.00000000000131
100
AcDbArc
 50
-107.4475310887337
 51
-73.87237978683969
  0
SPLINE
  5
351
330
ED
100
AcDbEntity
  8
1
  6
Continuous
 62
     7
100
AcDbSpline
210
0.0
220
0.0
230
1.0
 70
    27
 71
     3
 72
     9
 73
     5
 74
     3
 42
0.0000000001
 43
0.0000000001
 44
0.00000001
 40
0.0
 40
0.0
 40
0.0
 40
0.0
 40
0.0000001715650718
 40
0.0000006060030274
 40
0.0000006060030274
 40
0.0000006060030274
 40
0.0000006060030274
 10
-448.3980728881211
 20
-2631.846222308119
 30
0.0
 10
-448.398072889472
 20
-2631.846222250219
 30
0.0
 10
-448.3980728942439
 20
-2631.846222045705
 30
0.0
 10
-448.3980730149874
 20
-2631.846221874317
 30
0.0
 10
-448.3980731015472
 20
-2631.846221751451
 30
0.0
 11
-448.3980728881211
 21
-2631.846222308119
 31
0.0
 11
-448.3980729014692
 21
-2631.846222137074
 31
0.0
 11
-448.3980731015472
 21
-2631.846221751451
 31
0.0
  0
SPLINE
  5
352
330
ED
100
AcDbEntity
  8
1
  6
Continuous
 62
     7
100
AcDbSpline
210
0.0
220
0.0
230
1.0
 70
     8
 71
     3
 72
    11
 73
     7
 74
     5
 42
0.0000000001
 43
0.0000000001
 44
0.00000001
 40
0.0
 40
0.0
 40
0.0
 40
0.0
 40
0.1687898922394547
 40
0.3375818232418218
 40
0.6225224720906448
 40
0.9074638743467389
 40
0.9074638743467389
 40
0.9074638743467389
 40
0.9074638743467389
 10
-458.019599493065
 20
-2638.245971577707
 30
0.0
 10
-457.9634280694265
 20
-2638.249185856639
 30
0.0
 10
-457.8510845436716
 20
-2638.255614453326
 30
0.0
 10
-457.6439395046718
 20
-2638.267874441235
 30
0.0
 10
-457.3981792117788
 20
-2638.283005257407
 30
0.0
 10
-457.208640065556
 20
-2638.295657397734
 30
0.0
 10
-457.1138703671552
 20
-2638.30198347626
 30
0.0
 11
-458.019599493065
 21
-2638.245971577707
 31
0.0
 11
-457.8510884225718
 21
-2638.255669352886
 31
0.0
 11
-457.6825910333935
 21
-2638.265636589796
 31
0.0
 11
-457.3981952826017
 21
-2638.283249945466
 31
0.0
 11
-457.1138703671552
 21
-2638.30198347626
 31
0.0
  0
SPLINE
  5
353
330
ED
100
AcDbEntity
  8
1
  6
Continuous
 62
     7
100
AcDbSpline
210
0.0
220
0.0
230
1.0
 70
     8
 71
     3
 72
    11
 73
     7
 74
     5
 42
0.0000000001
 43
0.0000000001
 44
0.00000001
 40
0.0
 40
0.0
 40
0.0
 40
0.0
 40
0.284941402100503
 40
0.5698820507950126
 40
0.7386739798166245
 40
0.907463870074755
 40
0.907463870074755
 40
0.907463870074755
 40
0.907463870074755
 10
-474.113870367449
 20
-2638.30198347624
 30
0.0
 10
-474.0191006691001
 20
-2638.295657397717
 30
0.0
 10
-473.8295615229803
 20
-2638.283005257397
 30
0.0
 10
-473.5838012308493
 20
-2638.267874441273
 30
0.0
 10
-473.3766561932194
 20
-2638.255614453442
 30
0.0
 10
-473.2643126687833
 20
-2638.249185856826
 30
0.0
 10
-473.2081412458042
 20
-2638.245971577931
 30
0.0
 11
-474.113870367449
 21
-2638.30198347624
 31
0.0
 11
-473.8295454521577
 21
-2638.283249945457
 31
0.0
 11
-473.54514970152
 21
-2638.265636589795
 31
0.0
 11
-473.3766523143191
 21
-2638.255669353001
 31
0.0
 11
-473.2081412458042
 21
-2638.245971577931
 31
0.0
  0
SPLINE
  5
354
330
ED
100
AcDbEntity
  8
1
  6
Continuous
 62
     7
100
AcDbSpline
210
0.0
220
0.0
230
1.0
 70
     8
 71
     3
 72
    11
 73
     7
 74
     5
 42
0.0000000001
 43
0.0000000001
 44
0.00000001
 40
0.0
 40
0.0
 40
0.0
 40
0.0
 40
0.2885916429331125
 40
0.5772686142205021
 40
0.8813804814654134
 40
1.185465320416307
 40
1.185465320416307
 40
1.185465320416307
 40
1.185465320416307
 10
-457.1138703675501
 20
-2658.540352912693
 30
0.0
 10
-457.2096051509026
 20
-2658.530926539551
 30
0.0
 10
-457.4011030236648
 20
-2658.512071006157
 30
0.0
 10
-457.693753165302
 20
-2658.486135762105
 30
0.0
 10
-457.9916831040232
 20
-2658.461347013781
 30
0.0
 10
-458.1938210804341
 20
-2658.445829465053
 30
0.0
 10
-458.2948855771283
 20
-2658.438071035489
 30
0.0
 11
-457.1138703675501
 21
-2658.540352912693
 31
0.0
 11
-457.4011187418766
 21
-2658.512540904178
 31
0.0
 11
-457.6886494609599
 21
-2658.486841111668
 31
0.0
 11
-457.991717791518
 21
-2658.461669405092
 31
0.0
 11
-458.2948855771283
 21
-2658.438071035489
 31
0.0
  0
SPLINE
  5
355
330
ED
100
AcDbEntity
  8
1
  6
Continuous
 62
     7
100
AcDbSpline
210
0.0
220
0.0
230
1.0
 70
     8
 71
     3
 72
    21
 73
    17
 74
    15
 42
0.0000000001
 43
0.0000000001
 44
0.00000001
 40
0.0
 40
0.0
 40
0.0
 40
0.0
 40
0.6265726963795895
 40
1.245198957072949
 40
2.050215465057073
 40
2.850477046006893
 40
3.871979667850869
 40
4.89246871217863
 40
6.133095983621624
 40
7.373056220189505
 40
8.810853944609736
 40
10.2483872453907
 40
11.84983328093474
 40
13.45112918537956
 40
13.62483157340598
 40
13.79852122923494
 40
13.79852122923494
 40
13.79852122923494
 40
13.79852122923494
 10
-444.7046463685731
 20
-2630.64278278431
 30
0.0
 10
-444.7837596354474
 20
-2630.837446414601
 30
0.0
 10
-444.9409828243473
 20
-2631.224304876226
 30
0.0
 10
-445.3895208870196
 20
-2631.751226078886
 30
0.0
 10
-445.954358911457
 20
-2632.232724948752
 30
0.0
 10
-446.684344424183
 20
-2632.719728649159
 30
0.0
 10
-447.5236003886365
 20
-2633.162089487966
 30
0.0
 10
-448.5260289297058
 20
-2633.602455078939
 30
0.0
 10
-449.6240655436211
 20
-2634.00005697544
 30
0.0
 10
-450.8730190374353
 20
-2634.383636272227
 30
0.0
 10
-452.2022225098696
 20
-2634.724590762504
 30
0.0
 10
-453.6609441022906
 20
-2635.040589645732
 30
0.0
 10
-455.1838270232913
 20
-2635.313025730883
 30
0.0
 10
-456.2974004721266
 20
-2635.477620753515
 30
0.0
 10
-456.9415506193439
 20
-2635.561301801927
 30
0.0
 10
-457.0564318544552
 20
-2635.575839690045
 30
0.0
 10
-457.1138703667662
 20
-2635.583108367691
 30
0.0
 11
-444.7046463685731
 21
-2630.64278278431
 31
0.0
 11
-444.9711540479548
 21
-2631.209851563806
 31
0.0
 11
-445.3582078626376
 21
-2631.692436058956
 31
0.0
 11
-445.9652216315532
 21
-2632.221194853184
 31
0.0
 11
-446.6289700089027
 21
-2632.668248193972
 31
0.0
 11
-447.5290589029104
 21
-2633.15126743719
 31
0.0
 11
-448.4626056674467
 21
-2633.563442555334
 31
0.0
 11
-449.6274476368801
 21
-2633.990407674394
 31
0.0
 11
-450.8123998789079
 21
-2634.355633046436
 31
0.0
 11
-452.2043573712763
 21
-2634.715795004154
 31
0.0
 11
-453.6091298406634
 21
-2635.020944639753
 31
0.0
 11
-455.1851723173918
 21
-2635.305056442232
 31
0.0
 11
-456.7693125575273
 21
-2635.53882614338
 31
0.0
 11
-456.9415670220355
 21
-2635.561207364595
 31
0.0
 11
-457.1138703667662
 21
-2635.583108367691
 31
0.0
  0
SPLINE
  5
356
330
ED
100
AcDbEntity
  8
1
  6
Continuous
 62
     7
100
AcDbSpline
210
0.0
220
0.0
230
1.0
 70
     8
 71
     3
 72
    17
 73
    13
 74
    11
 42
0.0000000001
 43
0.0000000001
 44
0.00000001
 40
0.0
 40
0.0
 40
0.0
 40
0.0
 40
0.6199491901183908
 40
1.238727385392309
 40
2.260230007236966
 40
3.280719051563891
 40
4.521346323005882
 40
5.761306559574519
 40
7.199104283995808
 40
8.636637584776906
 40
10.1597170593053
 40
11.68258885773747
 40
11.68258885773747
 40
11.68258885773747
 40
11.68258885773747
 10
-485.6009660346033
 20
-2628.270159088399
 30
0.0
 10
-485.4422435315913
 20
-2628.137509680799
 30
0.0
 10
-485.1250983295444
 20
-2627.87246142125
 30
0.0
 10
-484.4882876194172
 20
-2627.467010981265
 30
0.0
 10
-483.7046254458827
 20
-2627.05000127042
 30
0.0
 10
-482.7015502033715
 20
-2626.610570416123
 30
0.0
 10
-481.6037226151614
 20
-2626.212659829811
 30
0.0
 10
-480.3547033246152
 20
-2625.829204303841
 30
0.0
 10
-479.0255386229716
 20
-2625.488069649246
 30
0.0
 10
-477.5922687750623
 20
-2625.178209105317
 30
0.0
 10
-476.1214230010526
 20
-2624.911241578865
 30
0.0
 10
-475.1163650701052
 20
-2624.766828978814
 30
0.0
 10
-474.6138703675742
 20
-2624.694627601888
 30
0.0
 11
-485.6009660346033
 21
-2628.270159088399
 31
0.0
 11
-485.1168181452546
 21
-2627.882941036692
 31
0.0
 11
-484.5987707260131
 21
-2627.544542859446
 31
0.0
 11
-483.6986818320052
 21
-2627.061523616228
 31
0.0
 11
-482.7651350674694
 21
-2626.649348498085
 31
0.0
 11
-481.6002930980365
 21
-2626.222383379025
 31
0.0
 11
-480.4153408560082
 21
-2625.857158006983
 31
0.0
 11
-479.023383363639
 21
-2625.496996049264
 31
0.0
 11
-477.618610894252
 21
-2625.191846413663
 31
0.0
 11
-476.1199028352287
 21
-2624.920469849553
 31
0.0
 11
-474.6138703675742
 21
-2624.694627601888
 31
0.0
  0
SPLINE
  5
357
330
ED
100
AcDbEntity
  8
1
  6
Continuous
 62
     7
100
AcDbSpline
210
0.0
220
0.0
230
1.0
 70
     8
 71
     3
 72
     9
 73
     5
 74
     3
 42
0.0000000001
 43
0.0000000001
 44
0.00000001
 40
0.0
 40
0.0
 40
0.0
 40
0.0
 40
0.0137331584094062
 40
0.0275000481608238
 40
0.0275000481608238
 40
0.0275000481608238
 40
0.0275000481608238
 10
-444.6960230464501
 20
-2630.616669942051
 30
0.0
 10
-444.6974342754708
 20
-2630.621024745038
 30
0.0
 10
-444.7002601997688
 20
-2630.629745047265
 30
0.0
 10
-444.7031831172291
 20
-2630.63843331964
 30
0.0
 10
-444.7046463685731
 20
-2630.64278278431
 30
0.0
 11
-444.6960230464501
 21
-2630.616669942051
 31
0.0
 11
-444.7002809223538
 21
-2630.62972636318
 31
0.0
 11
-444.7046463685731
 21
-2630.64278278431
 31
0.0
  0
SPLINE
  5
358
330
ED
100
AcDbEntity
  8
1
  6
Continuous
 62
     7
100
AcDbSpline
210
0.0
220
0.0
230
1.0
 70
     8
 71
     3
 72
    19
 73
    15
 74
    13
 42
0.0000000001
 43
0.0000000001
 44
0.00000001
 40
0.0
 40
0.0
 40
0.0
 40
0.0
 40
0.5631485092106219
 40
1.119699701118687
 40
1.83706468172307
 40
2.550303732752322
 40
3.455788511283618
 40
4.360309450496983
 40
5.456805759588778
 40
6.552702637222792
 40
7.821516115100315
 40
9.090082412751897
 40
9.520147656996102
 40
9.950102396556533
 40
9.950102396556533
 40
9.950102396556533
 40
9.950102396556533
 10
-447.1934187138481
 20
-2630.039057062
 30
0.0
 10
-447.2626356954316
 20
-2630.214730400353
 30
0.0
 10
-447.4002587776625
 20
-2630.564019053755
 30
0.0
 10
-447.7946200581629
 20
-2631.042229782119
 30
0.0
 10
-448.292218448639
 20
-2631.480792112669
 30
0.0
 10
-448.9353549187615
 20
-2631.922949931434
 30
0.0
 10
-449.6753805239096
 20
-2632.325130994257
 30
0.0
 10
-450.5585880586289
 20
-2632.724908549604
 30
0.0
 10
-451.5264044589178
 20
-2633.086107792212
 30
0.0
 10
-452.6267369891928
 20
-2633.434319698071
 30
0.0
 10
-453.7980716306973
 20
-2633.743748336741
 30
0.0
 10
-454.763585097193
 20
-2633.95974777018
 30
0.0
 10
-455.4597036624907
 20
-2634.097128865959
 30
0.0
 10
-455.7415872991567
 20
-2634.149324041553
 30
0.0
 10
-455.8825110077582
 20
-2634.175418276049
 30
0.0
 11
-447.1934187138481
 21
-2630.039057062
 31
0.0
 11
-447.4270587310098
 21
-2630.551452012997
 31
0.0
 11
-447.7687879219409
 21
-2630.990735963625
 31
0.0
 11
-448.3022076266736
 21
-2631.470398276092
 31
0.0
 11
-448.8880787843211
 21
-2631.877172083692
 31
0.0
 11
-449.6804601584906
 21
-2632.315389429334
 31
0.0
 11
-450.5037833068235
 21
-2632.68995200474
 31
0.0
 11
-451.5295500597831
 21
-2633.077388095437
 31
0.0
 11
-452.5740446087084
 21
-2633.409082387931
 31
0.0
 11
-453.8000407039839
 21
-2633.735917539059
 31
0.0
 11
-455.0379841102832
 21
-2634.01296730776
 31
0.0
 11
-455.4598969605009
 21
-2634.096307940875
 31
0.0
 11
-455.8825110077582
 21
-2634.175418276049
 31
0.0
  0
SPLINE
  5
359
330
ED
100
AcDbEntity
  8
1
  6
Continuous
 62
     7
100
AcDbSpline
210
0.0
220
0.0
230
1.0
 70
     8
 71
     3
 72
    28
 73
    24
 74
    22
 42
0.0000000001
 43
0.0000000001
 44
0.00000001
 40
0.0
 40
0.0
 40
0.0
 40
0.0
 40
0.1736896559925999
 40
0.3473920441824848
 40
1.948687948627625
 40
3.550133984170917
 40
4.508603983394013
 40
5.466862704848267
 40
6.425567712041255
 40
7.25235411080398
 40
8.078933313865964
 40
8.90631247460442
 40
9.586915638094439
 40
10.26707841868397
 40
10.94858202470716
 40
11.4823611650434
 40
12.01642792691549
 40
12.55442738618461
 40
12.96822428289328
 40
13.38038857369333
 40
13.80121099737746
 40
13.814977886765
 40
13.82871104481571
 40
13.82871104481571
 40
13.82871104481571
 40
13.82871104481571
 10
-474.113870367825
 20
-2635.583108367734
 30
0.0
 10
-474.1713088952373
 20
-2635.575839763602
 30
0.0
 10
-474.286190160553
 20
-2635.561302022518
 30
0.0
 10
-474.9303394637244
 20
-2635.477616849581
 30
0.0
 10
-476.0439473206242
 20
-2635.313189943373
 30
0.0
 10
-477.4094751157018
 20
-2635.068233962291
 30
0.0
 10
-478.5574514971302
 20
-2634.827982293269
 30
0.0
 10
-479.4898787533343
 20
-2634.605562232442
 30
0.0
 10
-480.3742148356085
 20
-2634.371887274066
 30
0.0
 10
-481.2090431321332
 20
-2634.123958183526
 30
0.0
 10
-481.9925037119543
 20
-2633.858918734999
 30
0.0
 10
-482.7216430140289
 20
-2633.586562189851
 30
0.0
 10
-483.3937275032516
 20
-2633.302383602113
 30
0.0
 10
-484.005134275194
 20
-2633.002379392731
 30
0.0
 10
-484.5597322075088
 20
-2632.699151501729
 30
0.0
 10
-485.0524271500956
 20
-2632.386014479538
 30
0.0
 10
-485.4759806460048
 20
-2632.057789884289
 30
0.0
 10
-485.8467633762336
 20
-2631.728547289852
 30
0.0
 10
-486.1502399904086
 20
-2631.387788332397
 30
0.0
 10
-486.369665575274
 20
-2631.032519036346
 30
0.0
 10
-486.47997055612
 20
-2630.771431265694
 30
0.0
 10
-486.5274778931254
 20
-2630.629744210663
 30
0.0
 10
-486.5303055793428
 20
-2630.621024466858
 30
0.0
 10
-486.5317176882431
 20
-2630.61666994274
 30
0.0
 11
-474.113870367825
 21
-2635.583108367734
 31
0.0
 11
-474.2861737127178
 21
-2635.561207364616
 31
0.0
 11
-474.4584281773881
 21
-2635.53882614338
 31
0.0
 11
-476.042568417524
 21
-2635.305056442232
 31
0.0
 11
-477.6186108942517
 21
-2635.020944639754
 31
0.0
 11
-478.556549760178
 21
-2634.823624029589
 31
0.0
 11
-479.4887930807634
 21
-2634.601853498483
 31
0.0
 11
-480.4153408560078
 21
-2634.355633046436
 31
0.0
 11
-481.2075434920931
 21
-2634.119009436966
 31
0.0
 11
-481.9908082292472
 21
-2633.854945939932
 31
0.0
 11
-482.7651350674701
 21
-2633.563442555334
 31
0.0
 11
-483.3912171183305
 21
-2633.296530712692
 31
0.0
 11
-484.0024290045117
 21
-2632.998132592238
 31
0.0
 11
-484.5987707260135
 21
-2632.668248193973
 31
0.0
 11
-485.0475734896281
 21
-2632.379291017163
 31
0.0
 11
-485.4711608717165
 21
-2632.05402030549
 31
0.0
 11
-485.8695328722786
 21
-2631.692436058956
 31
0.0
 11
-486.1409627637675
 21
-2631.380100204895
 31
0.0
 11
-486.3588165951223
 21
-2631.030215780013
 31
0.0
 11
-486.5230943663436
 21
-2630.642782784312
 31
0.0
 11
-486.5274598124477
 21
-2630.629726363527
 31
0.0
 11
-486.5317176882431
 21
-2630.61666994274
 31
0.0
  0
SPLINE
  5
35A
330
ED
100
AcDbEntity
  8
1
  6
Continuous
 62
     7
100
AcDbSpline
210
0.0
220
0.0
230
1.0
 70
     8
 71
     3
 72
    21
 73
    17
 74
    15
 42
0.0000000001
 43
0.0000000001
 44
0.00000001
 40
0.0
 40
0.0
 40
0.0
 40
0.0
 40
0.4235678418774255
 40
0.8471999455214569
 40
0.9256063919384514
 40
1.004009499249587
 40
2.52688129783896
 40
4.04996077252431
 40
5.487494073304717
 40
6.925291797725741
 40
8.165252034294349
 40
9.405879305736981
 40
10.42636835006437
 40
11.44787097191021
 40
12.06664916743925
 40
12.6865983578002
 40
12.6865983578002
 40
12.6865983578002
 40
12.6865983578002
 10
-457.6100215457273
 20
-2624.569332676926
 30
0.0
 10
-457.4698302355939
 20
-2624.586094181273
 30
0.0
 10
-457.1894263461459
 20
-2624.619619732947
 30
0.0
 10
-456.8833953807315
 20
-2624.658884925486
 30
0.0
 10
-456.6915800259953
 20
-2624.684214442264
 30
0.0
 10
-456.1366266185217
 20
-2624.758428026482
 30
0.0
 10
-455.1065953891808
 20
-2624.913341332254
 30
0.0
 10
-453.6354021702348
 20
-2625.177681324386
 30
0.0
 10
-452.2022204468834
 20
-2625.488208306314
 30
0.0
 10
-450.8730332415672
 20
-2625.829172777995
 30
0.0
 10
-449.6240191736061
 20
-2626.212667799508
 30
0.0
 10
-448.5261903040154
 20
-2626.610568695442
 30
0.0
 10
-447.5231153458456
 20
-2627.05000170007
 30
0.0
 10
-446.7394531067595
 20
-2627.467010915791
 30
0.0
 10
-446.1026424068659
 20
-2627.872461434299
 30
0.0
 10
-445.7854972035718
 20
-2628.137509685373
 30
0.0
 10
-445.6267746999372
 20
-2628.270159088728
 30
0.0
 11
-457.6100215457273
 21
-2624.569332676926
 31
0.0
 11
-457.1895216677472
 21
-2624.620220487759
 31
0.0
 11
-456.7693125575272
 21
-2624.673964910037
 31
0.0
 11
-456.6915817613938
 21
-2624.684235945633
 31
0.0
 11
-456.613870367652
 21
-2624.694627601841
 31
0.0
 11
-455.1078378998415
 21
-2624.920469849526
 31
0.0
 11
-453.6091298406634
 21
-2625.191846413663
 31
0.0
 11
-452.2043573712769
 21
-2625.496996049262
 31
0.0
 11
-450.8123998789083
 21
-2625.857158006982
 31
0.0
 11
-449.6274476368802
 21
-2626.222383379025
 31
0.0
 11
-448.4626056674467
 21
-2626.649348498085
 31
0.0
 11
-447.52905890291
 21
-2627.061523616227
 31
0.0
 11
-446.6289700089012
 21
-2627.544542859446
 31
0.0
 11
-446.1109225894521
 21
-2627.882941036841
 31
0.0
 11
-445.6267746999372
 21
-2628.270159088728
 31
0.0
  0
SPLINE
  5
35B
330
ED
100
AcDbEntity
  8
1
  6
Continuous
 62
     7
100
AcDbSpline
210
0.0
220
0.0
230
1.0
 70
     8
 71
     3
 72
    21
 73
    17
 74
    15
 42
0.0000000001
 43
0.0000000001
 44
0.00000001
 40
0.0
 40
0.0
 40
0.0
 40
0.0
 40
0.4299547393864242
 40
0.8600199834557042
 40
2.128586281106609
 40
3.397399758984298
 40
4.493296636618637
 40
5.589792945710221
 40
6.494313884923377
 40
7.399798663455192
 40
8.113037714485097
 40
8.830402695089852
 40
9.38695388699845
 40
9.950102396209061
 40
10.20046205360147
 40
10.44442104266716
 40
10.44442104266716
 40
10.44442104266716
 40
10.44442104266716
 10
-475.3452297275012
 20
-2634.175418275987
 30
0.0
 10
-475.4861534342134
 20
-2634.149324040917
 30
0.0
 10
-475.7680370671001
 20
-2634.097128864176
 30
0.0
 10
-476.4641556776415
 20
-2633.959747782864
 30
0.0
 10
-477.4296686079233
 20
-2633.743748178691
 30
0.0
 10
-478.601005435849
 20
-2633.434320236312
 30
0.0
 10
-479.7013309272778
 20
-2633.086106088852
 30
0.0
 10
-480.6691712610196
 20
-2632.724914468121
 30
0.0
 10
-481.5523041801141
 20
-2632.32511315059
 30
0.0
 10
-482.2925776437406
 20
-2631.923011021089
 30
0.0
 10
-482.9349717612394
 20
-2631.480616791767
 30
0.0
 10
-483.435007863066
 20
-2631.042830777863
 30
0.0
 10
-483.8221433750334
 20
-2630.562318922095
 30
0.0
 10
-484.0114606454452
 20
-2630.141593890566
 30
0.0
 10
-484.1023542327862
 20
-2629.799272977769
 30
0.0
 10
-484.1100649364967
 20
-2629.634220563846
 30
0.0
 10
-484.1138703674581
 20
-2629.552762944692
 30
0.0
 11
-475.3452297275012
 21
-2634.175418275987
 31
0.0
 11
-475.7678437745871
 21
-2634.096307940843
 31
0.0
 11
-476.189756624633
 21
-2634.012967307761
 31
0.0
 11
-477.4277000309315
 21
-2633.735917539059
 31
0.0
 11
-478.6536961262072
 21
-2633.409082387931
 31
0.0
 11
-479.6981906751328
 21
-2633.077388095437
 31
0.0
 11
-480.723957428092
 21
-2632.68995200474
 31
0.0
 11
-481.5472805764247
 21
-2632.315389429334
 31
0.0
 11
-482.3396619505945
 21
-2631.877172083692
 31
0.0
 11
-482.9255331082429
 21
-2631.470398276091
 31
0.0
 11
-483.4589528129765
 21
-2630.990735963625
 31
0.0
 11
-483.8006820039079
 21
-2630.551452012996
 31
0.0
 11
-484.0343220210685
 21
-2630.039057061999
 31
0.0
 11
-484.0939832808407
 21
-2629.795910003345
 31
0.0
 11
-484.1138703674581
 21
-2629.552762944692
 31
0.0
  0
SPLINE
  5
35C
330
ED
100
AcDbEntity
  8
1
  6
Continuous
 62
     7
100
AcDbSpline
210
0.0
220
0.0
230
1.0
 70
     8
 71
     3
 72
    23
 73
    19
 74
    17
 42
0.0000000001
 43
0.0000000001
 44
0.00000001
 40
0.0
 40
0.0
 40
0.0
 40
0.0
 40
0.2439589893022232
 40
0.4943186469371432
 40
1.057467156148286
 40
1.614018348057672
 40
2.331383328662689
 40
3.04462237969175
 40
3.950107158222875
 40
4.85462809743605
 40
5.951124406528113
 40
7.047021284162368
 40
8.315834762039946
 40
9.584401059690631
 40
10.99639763311624
 40
12.40825574384654
 40
12.55544276374403
 40
12.70261874490102
 40
12.70261874490102
 40
12.70261874490102
 40
12.70261874490102
 10
-484.1138703674581
 20
-2629.552762944692
 30
0.0
 10
-484.1100649365164
 20
-2629.471305325452
 30
0.0
 10
-484.1023542328468
 20
-2629.306252911353
 30
0.0
 10
-484.0114606454596
 20
-2628.963931998525
 30
0.0
 10
-483.8221433752183
 20
-2628.543206965762
 30
0.0
 10
-483.4350078623204
 20
-2628.062695115259
 30
0.0
 10
-482.9349717649167
 20
-2627.62490907633
 30
0.0
 10
-482.2925776286802
 20
-2627.182514953042
 30
0.0
 10
-481.5523042533574
 20
-2626.780412323832
 30
0.0
 10
-480.6691709658106
 20
-2626.380613091378
 30
0.0
 10
-479.7013322911525
 20
-2626.01941208186
 30
0.0
 10
-478.6010000438657
 20
-2625.671236165938
 30
0.0
 10
-477.429692282917
 20
-2625.361643732928
 30
0.0
 10
-476.1445741103923
 20
-2625.074824821691
 30
0.0
 10
-474.8027567815118
 20
-2624.82749796678
 30
0.0
 10
-473.8235208769575
 20
-2624.678376831119
 30
0.0
 10
-473.259811394639
 20
-2624.602895741682
 30
0.0
 10
-473.1625161599632
 20
-2624.590192032084
 30
0.0
 10
-473.1138703669321
 20
-2624.583840415482
 30
0.0
 11
-484.1138703674581
 21
-2629.552762944692
 31
0.0
 11
-484.0939832808803
 21
-2629.309615885798
 31
0.0
 11
-484.034322021069
 21
-2629.066468826904
 31
0.0
 11
-483.800682003908
 21
-2628.554073875906
 31
0.0
 11
-483.4589528129765
 21
-2628.114789925277
 31
0.0
 11
-482.925533108243
 21
-2627.63512761281
 31
0.0
 11
-482.339661950595
 21
-2627.228353805211
 31
0.0
 11
-481.5472805764255
 21
-2626.79013645957
 31
0.0
 11
-480.7239574280926
 21
-2626.415573884164
 31
0.0
 11
-479.6981906751329
 21
-2626.028137793467
 31
0.0
 11
-478.6536961262072
 21
-2625.696443500973
 31
0.0
 11
-477.4277000309316
 21
-2625.369608349845
 31
0.0
 11
-476.1897566246333
 21
-2625.092558581143
 31
0.0
 11
-474.8015006489782
 21
-2624.834722064289
 31
0.0
 11
-473.4056818040928
 21
-2624.622512080787
 31
0.0
 11
-473.2597972017964
 21
-2624.602974894728
 31
0.0
 11
-473.1138703669321
 21
-2624.583840415482
 31
0.0
  0
SPLINE
  5
35D
330
ED
100
AcDbEntity
  8
1
  6
Continuous
 62
     7
100
AcDbSpline
210
0.0
220
0.0
230
1.0
 70
     8
 71
     3
 72
    25
 73
    21
 74
    19
 42
0.0000000001
 43
0.0000000001
 44
0.00000001
 40
0.0
 40
0.0
 40
0.0
 40
0.0
 40
0.250359657514725
 40
0.4943186466993509
 40
0.7382776358835052
 40
0.988637293397225
 40
1.551785802608237
 40
2.10833699451716
 40
2.825701975121796
 40
3.538941026150717
 40
4.444425804681792
 40
5.348946743894969
 40
6.445443052986924
 40
7.541339930620801
 40
8.810153408498159
 40
10.07871970614912
 40
11.49071627957526
 40
12.90257439030573
 40
13.0497614100899
 40
13.19693739106774
 40
13.19693739106774
 40
13.19693739106774
 40
13.19693739106774
 10
-447.1934187138481
 20
-2630.039057062
 30
0.0
 10
-447.1707601215716
 20
-2629.958554176658
 30
0.0
 10
-447.1260222241749
 20
-2629.799606534164
 30
0.0
 10
-447.1076150164663
 20
-2629.552674786866
 30
0.0
 10
-447.1270681537055
 20
-2629.306276610998
 30
0.0
 10
-447.215164768376
 20
-2628.963916280103
 30
0.0
 10
-447.405979439978
 20
-2628.543212350476
 30
0.0
 10
-447.7925978073969
 20
-2628.062693211765
 30
0.0
 10
-448.2928083708652
 20
-2627.624909631611
 30
0.0
 10
-448.9351493772101
 20
-2627.182514759556
 30
0.0
 10
-449.675440491664
 20
-2626.780412380346
 30
0.0
 10
-450.5585684390199
 20
-2626.380613072633
 30
0.0
 10
-451.5264088264926
 20
-2626.019412087253
 30
0.0
 10
-452.6267405703921
 20
-2625.671236164237
 30
0.0
 10
-453.7980484861831
 20
-2625.36164373341
 30
0.0
 10
-455.0831666141679
 20
-2625.074824821546
 30
0.0
 10
-456.4249839564606
 20
-2624.827497966825
 30
0.0
 10
-457.4042198578511
 20
-2624.678376831119
 30
0.0
 10
-457.9679293401472
 20
-2624.602895741699
 30
0.0
 10
-458.0652245747237
 20
-2624.590192032114
 30
0.0
 10
-458.1138703676943
 20
-2624.58384041552
 30
0.0
 11
-447.1934187138481
 21
-2630.039057062
 31
0.0
 11
-447.1337574540556
 21
-2629.795910003225
 31
0.0
 11
-447.1138703674581
 21
-2629.552762944451
 31
0.0
 11
-447.1337574540554
 21
-2629.309615885677
 31
0.0
 11
-447.1934187138473
 21
-2629.066468826903
 31
0.0
 11
-447.427058731009
 21
-2628.554073875906
 31
0.0
 11
-447.7687879219403
 21
-2628.114789925277
 31
0.0
 11
-448.3022076266734
 21
-2627.63512761281
 31
0.0
 11
-448.8880787843211
 21
-2627.228353805211
 31
0.0
 11
-449.6804601584906
 21
-2626.79013645957
 31
0.0
 11
-450.5037833068235
 21
-2626.415573884164
 31
0.0
 11
-451.5295500597831
 21
-2626.028137793467
 31
0.0
 11
-452.5740446087084
 21
-2625.696443500973
 31
0.0
 11
-453.8000407039838
 21
-2625.369608349845
 31
0.0
 11
-455.0379841102823
 21
-2625.092558581143
 31
0.0
 11
-456.4262400859379
 21
-2624.834722064288
 31
0.0
 11
-457.8220589308235
 21
-2624.622512080787
 31
0.0
 11
-457.9679435330075
 21
-2624.602974894742
 31
0.0
 11
-458.1138703676943
 21
-2624.58384041552
 31
0.0
  0
SPLINE
  5
35E
330
ED
100
AcDbEntity
  8
1
  6
Continuous
 62
     7
100
AcDbSpline
210
0.0
220
0.0
230
1.0
 70
     8
 71
     3
 72
    26
 73
    22
 74
    20
 42
0.0000000001
 43
0.0000000001
 44
0.00000001
 40
0.0
 40
0.0
 40
0.0
 40
0.0
 40
0.2769062201510948
 40
0.5559727364685474
 40
1.035400291298033
 40
1.511329911395098
 40
1.987095568193899
 40
2.591217512588303
 40
3.19409139880075
 40
3.797357106031948
 40
4.528625578595591
 40
5.259160418141422
 40
5.989896211732839
 40
6.835933215108904
 40
7.681554279693001
 40
8.527371602091723
 40
9.468816213571238
 40
10.40997485640776
 40
11.35129640277251
 40
11.3601438751131
 40
11.36899130379167
 40
11.36899130379167
 40
11.36899130379167
 40
11.36899130379167
 10
-447.427851876562
 20
-2630.552762944365
 30
0.0
 10
-447.4782578622444
 20
-2630.475276166699
 30
0.0
 10
-447.5794630781439
 20
-2630.319698094834
 30
0.0
 10
-447.8115830719237
 20
-2630.062883920765
 30
0.0
 10
-448.1138396522261
 20
-2629.783271888987
 30
0.0
 10
-448.4873208971831
 20
-2629.485496534281
 30
0.0
 10
-448.9214940993603
 20
-2629.200835104097
 30
0.0
 10
-449.4103954305286
 20
-2628.925331785551
 30
0.0
 10
-449.9491340304282
 20
-2628.652953516081
 30
0.0
 10
-450.5414366892326
 20
-2628.39485785262
 30
0.0
 10
-451.1839715164771
 20
-2628.147500873425
 30
0.0
 10
-451.8742422010732
 20
-2627.906911305475
 30
0.0
 10
-452.609837962765
 20
-2627.681817141912
 30
0.0
 10
-453.3890342129942
 20
-2627.469657975566
 30
0.0
 10
-454.210524524685
 20
-2627.267810432052
 30
0.0
 10
-455.0685076827953
 20
-2627.082666239576
 30
0.0
 10
-455.9619773850831
 20
-2626.912396652432
 30
0.0
 10
-456.8901810804579
 20
-2626.755476199053
 30
0.0
 10
-457.5140381780111
 20
-2626.664167528797
 30
0.0
 10
-457.8308265357705
 20
-2626.621326075377
 30
0.0
 10
-457.8366717837412
 20
-2626.620536755878
 30
0.0
 10
-457.8395944005151
 20
-2626.620142097104
 30
0.0
 11
-447.427851876562
 21
-2630.552762944365
 31
0.0
 11
-447.5848831117688
 21
-2630.324687856011
 31
0.0
 11
-447.7687879219391
 21
-2630.114789925278
 31
0.0
 11
-448.1185731192157
 21
-2629.786916327537
 31
0.0
 11
-448.491670073343
 21
-2629.491437620848
 31
0.0
 11
-448.8880787843208
 21
-2629.228353805211
 31
0.0
 11
-449.4128950588598
 21
-2628.929136155869
 31
0.0
 11
-449.9514632330273
 21
-2628.65820951552
 31
0.0
 11
-450.503783306823
 21
-2628.415573884164
 31
0.0
 11
-451.1855469425779
 21
-2628.151089623899
 31
0.0
 11
-451.8756340432064
 21
-2627.911379496169
 31
0.0
 11
-452.5740446087084
 21
-2627.696443500973
 31
0.0
 11
-453.3900478598894
 21
-2627.473021691063
 31
0.0
 11
-454.2113610270808
 21
-2627.271726717786
 31
0.0
 11
-455.0379841102823
 21
-2627.092558581143
 31
0.0
 11
-455.9626477752495
 21
-2626.915597955089
 31
0.0
 11
-456.89067271543
 21
-2626.758915788303
 31
0.0
 11
-457.8220589308238
 21
-2626.622512080784
 31
0.0
 11
-457.8308265893763
 21
-2626.621326361456
 31
0.0
 11
-457.8395944005151
 21
-2626.620142097104
 31
0.0
  0
SPLINE
  5
35F
330
ED
100
AcDbEntity
  8
1
  6
Continuous
 62
     7
100
AcDbSpline
210
0.0
220
0.0
230
1.0
 70
     8
 71
     3
 72
    28
 73
    24
 74
    22
 42
0.0000000001
 43
0.0000000001
 44
0.00000001
 40
0.0
 40
0.0
 40
0.0
 40
0.0
 40
0.0088474268556484
 40
0.0176948996211089
 40
0.9590164459864435
 40
1.900175088823191
 40
2.841619700302341
 40
3.687437022700895
 40
4.533058087284773
 40
5.379095090661352
 40
6.109830884252665
 40
6.840365723798131
 40
7.571634196361403
 40
7.783958222792227
 40
7.99610235316327
 40
8.457602791556946
 40
8.919324525573796
 40
9.382002587518455
 40
9.857768244317791
 40
10.33369786441449
 40
10.81312541924356
 40
11.09219193558581
 40
11.36909815581227
 40
11.36909815581227
 40
11.36909815581227
 40
11.36909815581227
 10
-473.3881463357852
 20
-2626.620142097293
 30
0.0
 10
-473.3910689519569
 20
-2626.620536755986
 30
0.0
 10
-473.396914199466
 20
-2626.621326075422
 30
0.0
 10
-473.7137025567791
 20
-2626.664167528736
 30
0.0
 10
-474.3375596448777
 20
-2626.755476226126
 30
0.0
 10
-475.2657633834057
 20
-2626.912396557554
 30
0.0
 10
-476.1592329327266
 20
-2627.082666576987
 30
0.0
 10
-477.0172166055779
 20
-2627.267809314787
 30
0.0
 10
-477.8387050412959
 20
-2627.469662159861
 30
0.0
 10
-478.617907983854
 20
-2627.681802413477
 30
0.0
 10
-479.353482011257
 20
-2627.906957998811
 30
0.0
 10
-480.0438311908953
 20
-2628.147325737348
 30
0.0
 10
-480.5645025472867
 20
-2628.348488535031
 30
0.0
 10
-480.9199877928605
 20
-2628.497005836101
 30
0.0
 10
-481.1901709701846
 20
-2628.616274843907
 30
0.0
 10
-481.5320354254386
 20
-2628.778897665815
 30
0.0
 10
-481.9406755853996
 20
-2628.994584768981
 30
0.0
 10
-482.345815254786
 20
-2629.226538527002
 30
0.0
 10
-482.7403935949859
 20
-2629.485544308192
 30
0.0
 10
-483.1139082948851
 20
-2629.783258759463
 30
0.0
 10
-483.416156607512
 20
-2630.062885842244
 30
0.0
 10
-483.6482778580369
 20
-2630.319697728516
 30
0.0
 10
-483.7494829396181
 20
-2630.475276044963
 30
0.0
 10
-483.799888858407
 20
-2630.55276294445
 30
0.0
 11
-473.3881463357852
 21
-2626.620142097293
 31
0.0
 11
-473.3969141451176
 21
-2626.621326361401
 31
0.0
 11
-473.4056818040911
 21
-2626.622512080786
 31
0.0
 11
-474.3370680194857
 21
-2626.758915788304
 31
0.0
 11
-475.2650929596665
 21
-2626.91559795509
 31
0.0
 11
-476.1897566246333
 21
-2627.092558581143
 31
0.0
 11
-477.0163797078347
 21
-2627.271726717786
 31
0.0
 11
-477.8376928750259
 21
-2627.473021691062
 31
0.0
 11
-478.6536961262073
 21
-2627.696443500973
 31
0.0
 11
-479.3521066917094
 21
-2627.911379496168
 31
0.0
 11
-480.0421937923377
 21
-2628.151089623898
 31
0.0
 11
-480.7239574280922
 21
-2628.415573884163
 31
0.0
 11
-480.9197643003558
 21
-2628.497678457568
 31
0.0
 11
-481.1138703674069
 21
-2628.583282001799
 31
0.0
 11
-481.5305270431088
 21
-2628.781725619057
 31
0.0
 11
-481.9391242375049
 21
-2628.996749553528
 31
0.0
 11
-482.3396619505949
 21
-2629.228353805211
 31
0.0
 11
-482.736070661573
 21
-2629.491437620848
 31
0.0
 11
-483.1091676157001
 21
-2629.786916327537
 31
0.0
 11
-483.4589528129762
 21
-2630.114789925278
 31
0.0
 11
-483.6428576231597
 21
-2630.324687856032
 31
0.0
 11
-483.799888858407
 21
-2630.55276294445
 31
0.0
  0
SPLINE
  5
360
330
ED
100
AcDbEntity
  8
1
  6
Continuous
 62
     7
100
AcDbSpline
210
0.0
220
0.0
230
1.0
 70
     8
 71
     3
 72
    11
 73
     7
 74
     5
 42
0.0000000001
 43
0.0000000001
 44
0.00000001
 40
0.0
 40
0.0
 40
0.0
 40
0.0
 40
0.3040848381210698
 40
0.6081967045363086
 40
0.8968736760324333
 40
1.185465319174427
 40
1.185465319174427
 40
1.185465319174427
 40
1.185465319174427
 10
-472.932855159441
 20
-2658.438071035615
 30
0.0
 10
-473.0339196558592
 20
-2658.445829465159
 30
0.0
 10
-473.2360576317184
 20
-2658.461347013847
 30
0.0
 10
-473.5339875699575
 20
-2658.486135762137
 30
0.0
 10
-473.8266377114578
 20
-2658.512071006176
 30
0.0
 10
-474.0181355843582
 20
-2658.530926539584
 30
0.0
 10
-474.1138703677802
 20
-2658.540352912733
 30
0.0
 11
-472.932855159441
 21
-2658.438071035615
 31
0.0
 11
-473.2360229442236
 21
-2658.461669405159
 31
0.0
 11
-473.5390912739546
 21
-2658.486841111668
 31
0.0
 11
-473.8266219932458
 21
-2658.512540904198
 31
0.0
 11
-474.1138703677802
 21
-2658.540352912733
 31
0.0
  0
SPLINE
  5
361
330
ED
100
AcDbEntity
  8
1
  6
Continuous
 62
     7
100
AcDbSpline
210
0.0
220
0.0
230
1.0
 70
     8
 71
     3
 72
    11
 73
     7
 74
     5
 42
0.0000000001
 43
0.0000000001
 44
0.00000001
 40
0.0
 40
0.0
 40
0.0
 40
0.0
 40
0.0784031074677574
 40
0.1568095540417414
 40
0.5804416579831975
 40
1.004009499863392
 40
1.004009499863392
 40
1.004009499863392
 40
1.004009499863392
 10
-474.6138703675742
 20
-2624.694627601888
 30
0.0
 10
-474.587967749306
 20
-2624.691154832085
 30
0.0
 10
-474.5361614096042
 20
-2624.684209144577
 30
0.0
 10
-474.3443441750647
 20
-2624.658893842166
 30
0.0
 10
-474.0383148348114
 20
-2624.619616358262
 30
0.0
 10
-473.757910647764
 20
-2624.586093056406
 30
0.0
 10
-473.617719188891
 20
-2624.569332676888
 30
0.0
 11
-474.6138703675742
 21
-2624.694627601888
 31
0.0
 11
-474.5361589736777
 21
-2624.684235945655
 31
0.0
 11
-474.4584281773889
 21
-2624.673964910037
 31
0.0
 11
-474.038219066874
 21
-2624.62022048772
 31
0.0
 11
-473.617719188891
 21
-2624.569332676888
 31
0.0
  0
ARC
  5
362
330
ED
100
AcDbEntity
  8
1
  6
Continuous
 62
     7
100
AcDbCircle
 10
-450.6138703674581
 20
-2657.355855006263
 30
0.0
 40
6.000000000000527
100
AcDbArc
 50
-37.5931432743124
 51
-0.00000000000869
  0
ARC
  5
363
330
ED
100
AcDbEntity
  8
1
  6
Continuous
 62
     7
100
AcDbCircle
 10
-455.6138703673782
 20
-2635.651166291917
 30
0.0
 40
1.499999999999633
100
AcDbArc
 50
100.3169783589656
 51
179.999999999809
  0
ARC
  5
364
330
ED
100
AcDbEntity
  8
1
  6
Continuous
 62
     7
100
AcDbCircle
 10
-475.6138703678271
 20
-2635.651166291864
 30
0.0
 40
1.5
100
AcDbArc
 50
0.00000000079902
 51
79.68302164068334
  0
ARC
  5
365
330
ED
100
AcDbEntity
  8
1
  6
Continuous
 62
     7
100
AcDbCircle
 10
-480.8763703674581
 20
-2656.982358093238
 30
0.0
 40
6.353379627592573
100
AcDbArc
 50
-175.9482197656761
 51
-115.4224681937729
  0
ARC
  5
366
330
ED
100
AcDbEntity
  8
1
  6
Continuous
 62
     7
100
AcDbCircle
 10
-480.8763703674581
 20
-2632.130493230372
 30
0.0
 40
6.353379627593431
100
AcDbArc
 50
114.2053301440386
 51
175.9482197656597
  0
ARC
  5
367
330
ED
100
AcDbEntity
  8
1
  6
Continuous
 62
     7
100
AcDbCircle
 10
-450.2763703674582
 20
-2632.030733904609
 30
0.0
 40
6.272225865488058
100
AcDbArc
 50
3.19114876077596
 51
77.06352854759223
  0
ARC
  5
368
330
ED
100
AcDbEntity
  8
1
  6
Continuous
 62
     7
100
AcDbCircle
 10
-450.2763703674582
 20
-2657.082117419001
 30
0.0
 40
6.272225865490535
100
AcDbArc
 50
-77.0635285475941
 51
-3.19114876075937
  0
ARC
  5
369
330
ED
100
AcDbEntity
  8
1
  6
Continuous
 62
     7
100
AcDbCircle
 10
-450.6138703674581
 20
-2631.606156211522
 30
0.0
 40
5.999999999951489
100
AcDbArc
 50
9.49226057658663
 51
33.77958689475753
  0
ARC
  5
36A
330
ED
100
AcDbEntity
  8
1
  6
Continuous
 62
     7
100
AcDbCircle
 10
-480.6138703674581
 20
-2657.355855006263
 30
0.0
 40
6.0
100
AcDbArc
 50
-179.9999999999913
 51
-142.4068567256856
  0
ARC
  5
36B
330
ED
100
AcDbEntity
  8
1
  6
Continuous
 62
     7
100
AcDbCircle
 10
-480.6138703674581
 20
-2631.606156211522
 30
0.0
 40
5.999999999987422
100
AcDbArc
 50
146.2204131039032
 51
170.5077394245847
  0
ENDBLK
  5
EF
330
ED
100
AcDbEntity
  8
0
100
AcDbBlockEnd
  0
BLOCK
  5
F3
330
F0
100
AcDbEntity
  8
0
100
AcDbBlockBegin
  2
S32-85__49
 70
     0
 71
     0
 10
-4266.969587893206
 20
-4868.934059593044
 30
0.0
  3
S32-85__49
  1

  0
INSERT
  5
F1
330
F0
100
AcDbEntity
  8
1
100
AcDbBlockReference
  2
98-145
 10
-1868.635021861536
 20
-2238.381961732364
 30
0.0
  0
INSERT
  5
F2
330
F0
100
AcDbEntity
  8
1
100
AcDbBlockReference
  2
85-124__48
 10
1269.84292005996
 20
-2707.468763374911
 30
0.0
  0
LINE
  5
36C
330
F0
100
AcDbEntity
  8
0
  6
PHANTOM
 62
     4
100
AcDbLine
 10
-465.6138688384037
 20
-2620.481005608892
 30
0.0
 11
-465.6138688384037
 21
-2623.481005608891
 31
0.0
  0
LINE
  5
36D
330
F0
100
AcDbEntity
  8
0
  6
PHANTOM
 62
     4
100
AcDbLine
 10
-465.6138688384037
 20
-2666.981005608891
 30
0.0
 11
-465.6138688384037
 21
-2668.481005608891
 31
0.0
  0
LINE
  5
36E
330
F0
100
AcDbEntity
  8
0
  6
PHANTOM
 62
     4
100
AcDbLine
 10
-465.6138688384037
 20
-2623.481005608891
 30
0.0
 11
-465.6138688384037
 21
-2668.481005608891
 31
0.0
  0
ENDBLK
  5
F4
330
F0
100
AcDbEntity
  8
0
100
AcDbBlockEnd
  0
BLOCK
  5
F6
330
F5
100
AcDbEntity
  8
0
100
AcDbBlockBegin
  2
85-124__50
 70
     0
 71
     0
 10
1169.84292005996
 20
-2607.468763374911
 30
0.0
  3
85-124__50
  1

  0
LINE
  5
36F
330
F5
100
AcDbEntity
  8
1
  6
Continuous
 62
     7
100
AcDbLine
 10
-544.0138703674579
 20
-2557.431275059178
 30
0.0
 11
-544.0138703674579
 21
-2531.681576264433
 31
0.0
  0
LINE
  5
370
330
F5
100
AcDbEntity
  8
1
  6
Continuous
 62
     7
100
AcDbLine
 10
-587.2138703674582
 20
-2557.431275059176
 30
0.0
 11
-587.2138703674582
 21
-2531.681576264433
 31
0.0
  0
LINE
  5
371
330
F5
100
AcDbEntity
  8
1
  6
Continuous
 62
     7
100
AcDbLine
 10
-574.1138703678271
 20
-2535.651166291844
 30
0.0
 11
-574.1138703674239
 21
-2564.875870706816
 31
0.0
  0
LINE
  5
372
330
F5
100
AcDbEntity
  8
1
  6
Continuous
 62
     7
100
AcDbLine
 10
-557.1138703673782
 20
-2535.651166291913
 30
0.0
 11
-557.1138703674651
 21
-2564.875870706811
 31
0.0
  0
LINE
  5
373
330
F5
100
AcDbEntity
  8
1
  6
Continuous
 62
     7
100
AcDbLine
 10
-544.6138703674581
 20
-2531.606156211522
 30
0.0
 11
-544.6138703674581
 21
-2557.355855006264
 31
0.0
  0
LINE
  5
374
330
F5
100
AcDbEntity
  8
1
  6
Continuous
 62
     7
100
AcDbLine
 10
-586.6138703674581
 20
-2531.606156211522
 30
0.0
 11
-586.6138703674581
 21
-2557.355855006264
 31
0.0
  0
LINE
  5
375
330
F5
100
AcDbEntity
  8
1
  6
Continuous
 62
     7
100
AcDbLine
 10
-574.1138703678073
 20
-2537.100885946338
 30
0.0
 11
-574.113870367516
 21
-2537.100885946395
 31
0.0
  0
ARC
  5
376
330
F5
100
AcDbEntity
  8
1
  6
Continuous
 62
     7
100
AcDbCircle
 10
-565.6138703674581
 20
-2505.481005608892
 30
0.0
 40
60.00000000000133
100
AcDbArc
 50
-107.4475310887337
 51
-98.14430055442954
  0
ARC
  5
377
330
F5
100
AcDbEntity
  8
1
  6
Continuous
 62
     7
100
AcDbCircle
 10
-565.6138703674581
 20
-2505.481005608892
 30
0.0
 40
59.99999999999911
100
AcDbArc
 50
-81.85569944554422
 51
-73.87237978683974
  0
ARC
  5
378
330
F5
100
AcDbEntity
  8
1
  6
Continuous
 62
     7
100
AcDbCircle
 10
-565.6138703674581
 20
-2583.481005608891
 30
0.0
 40
59.99999999999748
100
AcDbArc
 50
73.87237978683938
 51
77.05211418195279
  0
ARC
  5
379
330
F5
100
AcDbEntity
  8
1
  6
Continuous
 62
     7
100
AcDbCircle
 10
-574.5229669430989
 20
-2546.429175669193
 30
0.0
 40
21.99999999999711
100
AcDbArc
 50
110.6474554359809
 51
114.0288906661935
  0
ARC
  5
37A
330
F5
100
AcDbEntity
  8
1
  6
Continuous
 62
     7
100
AcDbCircle
 10
-565.6138703674581
 20
-2583.481005608891
 30
0.0
 40
59.99999999999798
100
AcDbArc
 50
102.9478827322591
 51
106.1276202131621
  0
SPLINE
  5
37B
330
F5
100
AcDbEntity
  8
1
  6
Continuous
 62
     7
100
AcDbSpline
210
0.0
220
0.0
230
1.0
 70
     8
 71
     3
 72
    17
 73
    13
 74
    11
 42
0.0000000001
 43
0.0000000001
 44
0.00000001
 40
0.0
 40
0.0
 40
0.0
 40
0.0
 40
0.7121490178984784
 40
1.425017535257623
 40
1.637341561688446
 40
1.84948569205949
 40
2.541715794817126
 40
3.235271185113104
 40
3.948510236142517
 40
4.665875216748361
 40
4.944941733090618
 40
5.221847953317005
 40
5.221847953317005
 40
5.221847953317005
 40
5.221847953317005
 10
-579.3870612015235
 20
-2527.922859788004
 30
0.0
 10
-579.6117680512286
 20
-2527.999454035169
 30
0.0
 10
-580.0614087767993
 20
-2528.152719914312
 30
0.0
 10
-580.5701424885118
 20
-2528.350920003361
 30
0.0
 10
-580.9199848775636
 20
-2528.49700750514
 30
0.0
 10
-581.2605778873206
 20
-2528.647255740352
 30
0.0
 10
-581.7389144789141
 20
-2528.882170698907
 30
0.0
 10
-582.3509557797815
 20
-2529.222252724611
 30
0.0
 10
-582.9358201924015
 20
-2529.624121049243
 30
0.0
 10
-583.3625615766341
 20
-2530.004244724895
 30
0.0
 10
-583.6483157355315
 20
-2530.319641611697
 30
0.0
 10
-583.7494955327011
 20
-2530.475257387874
 30
0.0
 10
-583.799888858407
 20
-2530.55276294445
 30
0.0
 11
-579.3870612015235
 21
-2527.922859788004
 31
0.0
 11
-580.0594640853243
 21
-2528.157445775544
 31
0.0
 11
-580.7239574280922
 21
-2528.415573884163
 31
0.0
 11
-580.9197643003558
 21
-2528.497678457568
 31
0.0
 11
-581.1138703674069
 21
-2528.583282001799
 31
0.0
 11
-581.7358330754701
 21
-2528.887165046641
 31
0.0
 11
-582.3396619505949
 21
-2529.228353805211
 31
0.0
 11
-582.9255331082429
 21
-2529.635127612811
 31
0.0
 11
-583.4589528129764
 21
-2530.114789925278
 31
0.0
 11
-583.6428576231599
 21
-2530.324687856032
 31
0.0
 11
-583.799888858407
 21
-2530.55276294445
 31
0.0
  0
SPLINE
  5
37C
330
F5
100
AcDbEntity
  8
1
  6
Continuous
 62
     7
100
AcDbSpline
210
0.0
220
0.0
230
1.0
 70
     8
 71
     3
 72
    15
 73
    11
 74
     9
 42
0.0000000001
 43
0.0000000001
 44
0.00000001
 40
0.0
 40
0.0
 40
0.0
 40
0.0
 40
0.6678264900364443
 40
1.335966439392132
 40
2.575926675960632
 40
3.81655394740316
 40
4.83704299173055
 40
5.858545613576224
 40
6.477323809105559
 40
7.097272999466468
 40
7.097272999466468
 40
7.097272999466468
 40
7.097272999466468
 10
-552.1052517731932
 20
-2525.520718103498
 30
0.0
 10
-551.889121846669
 20
-2525.574051470277
 30
0.0
 10
-551.4567605481996
 20
-2525.680743237044
 30
0.0
 10
-550.6275920208661
 20
-2525.904081643277
 30
0.0
 10
-549.6240551031783
 20
-2526.212807980969
 30
0.0
 10
-548.526182546719
 20
-2526.610538429868
 30
0.0
 10
-547.5231172828252
 20
-2527.050009257316
 30
0.0
 10
-546.7394528114032
 20
-2527.46700976344
 30
0.0
 10
-546.1026424650836
 20
-2527.87246166144
 30
0.0
 10
-545.7854972229899
 20
-2528.137509761134
 30
0.0
 10
-545.6267746999372
 20
-2528.270159088728
 30
0.0
 11
-552.1052517731932
 21
-2525.520718103498
 31
0.0
 11
-551.4574430337295
 21
-2525.683001983994
 31
0.0
 11
-550.8123998789083
 21
-2525.857158006983
 31
0.0
 11
-549.6274476368803
 21
-2526.222383379026
 31
0.0
 11
-548.4626056674467
 21
-2526.649348498085
 31
0.0
 11
-547.52905890291
 21
-2527.061523616227
 31
0.0
 11
-546.6289700089012
 21
-2527.544542859445
 31
0.0
 11
-546.110922589452
 21
-2527.882941036841
 31
0.0
 11
-545.6267746999372
 21
-2528.270159088728
 31
0.0
  0
SPLINE
  5
37D
330
F5
100
AcDbEntity
  8
1
  6
Continuous
 62
     7
100
AcDbSpline
210
0.0
220
0.0
230
1.0
 70
     8
 71
     3
 72
    15
 73
    11
 74
     9
 42
0.0000000001
 43
0.0000000001
 44
0.00000001
 40
0.0
 40
0.0
 40
0.0
 40
0.0
 40
0.2769062201510625
 40
0.5559727364684777
 40
1.27333771707466
 40
1.986576768103887
 40
2.892061546634664
 40
3.796582485847943
 40
4.509449354648812
 40
5.221596725317349
 40
5.221596725317349
 40
5.221596725317349
 40
5.221596725317349
 10
-547.427851876562
 20
-2530.552762944365
 30
0.0
 10
-547.4782448014789
 20
-2530.475256603002
 30
0.0
 10
-547.5794237939533
 20
-2530.319639251115
 30
0.0
 10
-547.8651872107007
 20
-2530.004260493291
 30
0.0
 10
-548.2918345880087
 20
-2529.623952731341
 30
0.0
 10
-548.9354827063818
 20
-2529.182834072315
 30
0.0
 10
-549.6753730080619
 20
-2528.780389627622
 30
0.0
 10
-550.4419127715593
 20
-2528.43314529629
 30
0.0
 10
-551.1664683929067
 20
-2528.153071997501
 30
0.0
 10
-551.6160160591381
 20
-2527.999572044414
 30
0.0
 10
-551.840676402614
 20
-2527.922860819389
 30
0.0
 11
-547.427851876562
 21
-2530.552762944365
 31
0.0
 11
-547.5848831117688
 21
-2530.324687856011
 31
0.0
 11
-547.7687879219391
 21
-2530.114789925278
 31
0.0
 11
-548.302207626673
 21
-2529.635127612811
 31
0.0
 11
-548.8880787843208
 21
-2529.228353805211
 31
0.0
 11
-549.68046015849
 21
-2528.79013645957
 31
0.0
 11
-550.5037833068229
 21
-2528.415573884164
 31
0.0
 11
-551.1682751025082
 21
-2528.157446345725
 31
0.0
 11
-551.840676402614
 21
-2527.922860819389
 31
0.0
  0
SPLINE
  5
37E
330
F5
100
AcDbEntity
  8
1
  6
Continuous
 62
     7
100
AcDbSpline
210
0.0
220
0.0
230
1.0
 70
     8
 71
     3
 72
    19
 73
    15
 74
    13
 42
0.0000000001
 43
0.0000000001
 44
0.00000001
 40
0.0
 40
0.0
 40
0.0
 40
0.0
 40
0.2503596575147656
 40
0.494318646699387
 40
0.7382776358835366
 40
0.9886372933972835
 40
1.55178580260871
 40
2.108336994517343
 40
2.825701975121937
 40
3.538941026150811
 40
4.444425804681766
 40
5.348946743895215
 40
6.179008147141921
 40
7.008286888120202
 40
7.008286888120202
 40
7.008286888120202
 40
7.008286888120202
 10
-547.1934187138481
 20
-2530.039057062
 30
0.0
 10
-547.1707601215816
 20
-2529.958554176668
 30
0.0
 10
-547.1260222242042
 20
-2529.799606534195
 30
0.0
 10
-547.1076150163519
 20
-2529.552674786747
 30
0.0
 10
-547.1270681541402
 20
-2529.306276611454
 30
0.0
 10
-547.215164765821
 20
-2528.963916277425
 30
0.0
 10
-547.4059794632581
 20
-2528.543212374871
 30
0.0
 10
-547.7925977135146
 20
-2528.062693113386
 30
0.0
 10
-548.2928088336957
 20
-2527.62491011661
 30
0.0
 10
-548.9351474812697
 20
-2527.182512772807
 30
0.0
 10
-549.6754497119706
 20
-2526.780422042274
 30
0.0
 10
-550.4775804453825
 20
-2526.417227618981
 30
0.0
 10
-551.2760163373723
 20
-2526.111207408602
 30
0.0
 10
-551.8012160579151
 20
-2525.937580437752
 30
0.0
 10
-552.0636920575043
 20
-2525.850807899712
 30
0.0
 11
-547.1934187138481
 21
-2530.039057062
 31
0.0
 11
-547.1337574540555
 21
-2529.795910003225
 31
0.0
 11
-547.1138703674581
 21
-2529.552762944451
 31
0.0
 11
-547.1337574540553
 21
-2529.309615885677
 31
0.0
 11
-547.1934187138473
 21
-2529.066468826903
 31
0.0
 11
-547.427058731009
 21
-2528.554073875906
 31
0.0
 11
-547.7687879219404
 21
-2528.114789925277
 31
0.0
 11
-548.3022076266734
 21
-2527.63512761281
 31
0.0
 11
-548.8880787843211
 21
-2527.228353805211
 31
0.0
 11
-549.6804601584908
 21
-2526.79013645957
 31
0.0
 11
-550.5037833068235
 21
-2526.415573884164
 31
0.0
 11
-551.2783743491776
 21
-2526.11722735701
 31
0.0
 11
-552.0636920575043
 21
-2525.850807899712
 31
0.0
  0
SPLINE
  5
37F
330
F5
100
AcDbEntity
  8
1
  6
Continuous
 62
     7
100
AcDbSpline
210
0.0
220
0.0
230
1.0
 70
     8
 71
     3
 72
    17
 73
    13
 74
    11
 42
0.0000000001
 43
0.0000000001
 44
0.00000001
 40
0.0
 40
0.0
 40
0.0
 40
0.0
 40
0.2439589893022185
 40
0.4943186469371386
 40
1.057467156148281
 40
1.614018348057633
 40
2.33138332866265
 40
3.044622379691804
 40
3.950107158222879
 40
4.854628097436056
 40
5.68469117099858
 40
6.51397158189306
 40
6.51397158189306
 40
6.51397158189306
 40
6.51397158189306
 10
-584.1138703674581
 20
-2529.552762944692
 30
0.0
 10
-584.1100649363834
 20
-2529.471305325591
 30
0.0
 10
-584.1023542324444
 20
-2529.306252911777
 30
0.0
 10
-584.0114606479838
 20
-2528.96393199587
 30
0.0
 10
-583.8221433520447
 20
-2528.543206990147
 30
0.0
 10
-583.435007955798
 20
-2528.062695016897
 30
0.0
 10
-582.9349713040722
 20
-2527.624909561253
 30
0.0
 10
-582.2925795164863
 20
-2527.18251296659
 30
0.0
 10
-581.5522950726077
 20
-2526.780421984315
 30
0.0
 10
-580.7501588002874
 20
-2526.417227406189
 30
0.0
 10
-579.9517230709821
 20
-2526.111206811014
 30
0.0
 10
-579.4265221114401
 20
-2525.937579565977
 30
0.0
 10
-579.1640454924573
 20
-2525.850806890846
 30
0.0
 11
-584.1138703674581
 21
-2529.552762944692
 31
0.0
 11
-584.0939832808803
 21
-2529.309615885798
 31
0.0
 11
-584.034322021069
 21
-2529.066468826904
 31
0.0
 11
-583.800682003908
 21
-2528.554073875906
 31
0.0
 11
-583.4589528129766
 21
-2528.114789925277
 31
0.0
 11
-582.925533108243
 21
-2527.63512761281
 31
0.0
 11
-582.339661950595
 21
-2527.228353805211
 31
0.0
 11
-581.5472805764255
 21
-2526.79013645957
 31
0.0
 11
-580.7239574280926
 21
-2526.415573884164
 31
0.0
 11
-579.9493648148654
 21
-2526.117226788274
 31
0.0
 11
-579.1640454924573
 21
-2525.850806890846
 31
0.0
  0
SPLINE
  5
380
330
F5
100
AcDbEntity
  8
1
  6
Continuous
 62
     7
100
AcDbSpline
210
0.0
220
0.0
230
1.0
 70
     8
 71
     3
 72
    21
 73
    17
 74
    15
 42
0.0000000001
 43
0.0000000001
 44
0.00000001
 40
0.0
 40
0.0
 40
0.0
 40
0.0
 40
0.42995473938648
 40
0.8600199834557043
 40
2.128586281106566
 40
3.397399758984488
 40
4.493296636618581
 40
5.589792945710218
 40
6.494313884923376
 40
7.39979866345519
 40
8.113037714485143
 40
8.830402695089941
 40
9.386953886998146
 40
9.950102396209147
 40
10.20046205360112
 40
10.44442104266725
 40
10.44442104266725
 40
10.44442104266725
 40
10.44442104266725
 10
-575.3452297275012
 20
-2534.175418275987
 30
0.0
 10
-575.4861534342134
 20
-2534.149324040917
 30
0.0
 10
-575.7680370671003
 20
-2534.097128864177
 30
0.0
 10
-576.464155677641
 20
-2533.959747782862
 30
0.0
 10
-577.4296686079235
 20
-2533.743748178692
 30
0.0
 10
-578.6010054358487
 20
-2533.434320236311
 30
0.0
 10
-579.7013309272779
 20
-2533.086106088852
 30
0.0
 10
-580.6691712610198
 20
-2532.724914468121
 30
0.0
 10
-581.5523041801139
 20
-2532.325113150589
 30
0.0
 10
-582.2925776437405
 20
-2531.923011021089
 30
0.0
 10
-582.9349717612396
 20
-2531.480616791767
 30
0.0
 10
-583.4350078630657
 20
-2531.042830777863
 30
0.0
 10
-583.8221433750343
 20
-2530.562318922096
 30
0.0
 10
-584.0114606454448
 20
-2530.141593890565
 30
0.0
 10
-584.1023542327864
 20
-2529.799272977769
 30
0.0
 10
-584.1100649364965
 20
-2529.634220563846
 30
0.0
 10
-584.1138703674581
 20
-2529.552762944692
 30
0.0
 11
-575.3452297275012
 21
-2534.175418275987
 31
0.0
 11
-575.7678437745872
 21
-2534.096307940843
 31
0.0
 11
-576.189756624633
 21
-2534.012967307761
 31
0.0
 11
-577.4277000309315
 21
-2533.73591753906
 31
0.0
 11
-578.6536961262073
 21
-2533.409082387931
 31
0.0
 11
-579.6981906751328
 21
-2533.077388095437
 31
0.0
 11
-580.723957428092
 21
-2532.68995200474
 31
0.0
 11
-581.5472805764247
 21
-2532.315389429334
 31
0.0
 11
-582.3396619505945
 21
-2531.877172083692
 31
0.0
 11
-582.9255331082429
 21
-2531.470398276091
 31
0.0
 11
-583.4589528129766
 21
-2530.990735963625
 31
0.0
 11
-583.8006820039079
 21
-2530.551452012997
 31
0.0
 11
-584.0343220210685
 21
-2530.039057061999
 31
0.0
 11
-584.0939832808407
 21
-2529.795910003346
 31
0.0
 11
-584.1138703674581
 21
-2529.552762944692
 31
0.0
  0
SPLINE
  5
381
330
F5
100
AcDbEntity
  8
1
  6
Continuous
 62
     7
100
AcDbSpline
210
0.0
220
0.0
230
1.0
 70
     8
 71
     3
 72
    28
 73
    24
 74
    22
 42
0.0000000001
 43
0.0000000001
 44
0.00000001
 40
0.0
 40
0.0
 40
0.0
 40
0.0
 40
0.1736896559925435
 40
0.3473920441824284
 40
1.948687948627569
 40
3.550133984170829
 40
4.508603983393943
 40
5.466862704848141
 40
6.425567712041129
 40
7.252354110804038
 40
8.078933313865967
 40
8.906312474604103
 40
9.586915638093945
 40
10.26707841868378
 40
10.94858202470665
 40
11.48236116504352
 40
12.01642792691529
 40
12.5544273861845
 40
12.96822428289317
 40
13.38038857369283
 40
13.80121099737742
 40
13.81497788676496
 40
13.82871104481566
 40
13.82871104481566
 40
13.82871104481566
 40
13.82871104481566
 10
-574.113870367825
 20
-2535.583108367734
 30
0.0
 10
-574.1713088952374
 20
-2535.575839763602
 30
0.0
 10
-574.2861901605529
 20
-2535.561302022518
 30
0.0
 10
-574.930339463725
 20
-2535.477616849582
 30
0.0
 10
-576.0439473206236
 20
-2535.313189943372
 30
0.0
 10
-577.409475115702
 20
-2535.068233962291
 30
0.0
 10
-578.5574514971299
 20
-2534.827982293268
 30
0.0
 10
-579.4898787533343
 20
-2534.605562232442
 30
0.0
 10
-580.3742148356085
 20
-2534.371887274067
 30
0.0
 10
-581.2090431321331
 20
-2534.123958183525
 30
0.0
 10
-581.9925037119542
 20
-2533.858918734999
 30
0.0
 10
-582.7216430140287
 20
-2533.586562189852
 30
0.0
 10
-583.3937275032515
 20
-2533.302383602113
 30
0.0
 10
-584.0051342751935
 20
-2533.002379392731
 30
0.0
 10
-584.5597322075089
 20
-2532.699151501728
 30
0.0
 10
-585.0524271500952
 20
-2532.386014479538
 30
0.0
 10
-585.4759806460048
 20
-2532.057789884289
 30
0.0
 10
-585.8467633762335
 20
-2531.728547289852
 30
0.0
 10
-586.1502399904084
 20
-2531.387788332396
 30
0.0
 10
-586.3696655752742
 20
-2531.03251903635
 30
0.0
 10
-586.47997055612
 20
-2530.771431265686
 30
0.0
 10
-586.5274778931255
 20
-2530.629744210663
 30
0.0
 10
-586.5303055793429
 20
-2530.621024466859
 30
0.0
 10
-586.5317176882431
 20
-2530.61666994274
 30
0.0
 11
-574.113870367825
 21
-2535.583108367734
 31
0.0
 11
-574.2861737127178
 21
-2535.561207364616
 31
0.0
 11
-574.4584281773881
 21
-2535.53882614338
 31
0.0
 11
-576.042568417524
 21
-2535.305056442232
 31
0.0
 11
-577.6186108942516
 21
-2535.020944639753
 31
0.0
 11
-578.556549760178
 21
-2534.823624029589
 31
0.0
 11
-579.4887930807633
 21
-2534.601853498483
 31
0.0
 11
-580.4153408560078
 21
-2534.355633046436
 31
0.0
 11
-581.2075434920931
 21
-2534.119009436965
 31
0.0
 11
-581.9908082292471
 21
-2533.854945939932
 31
0.0
 11
-582.7651350674698
 21
-2533.563442555334
 31
0.0
 11
-583.3912171183303
 21
-2533.296530712692
 31
0.0
 11
-584.0024290045116
 21
-2532.998132592238
 31
0.0
 11
-584.5987707260133
 21
-2532.668248193973
 31
0.0
 11
-585.047573489628
 21
-2532.379291017162
 31
0.0
 11
-585.4711608717164
 21
-2532.05402030549
 31
0.0
 11
-585.8695328722786
 21
-2531.692436058956
 31
0.0
 11
-586.1409627637675
 21
-2531.380100204895
 31
0.0
 11
-586.3588165951223
 21
-2531.030215780013
 31
0.0
 11
-586.5230943663437
 21
-2530.642782784312
 31
0.0
 11
-586.5274598124478
 21
-2530.629726363527
 31
0.0
 11
-586.5317176882431
 21
-2530.61666994274
 31
0.0
  0
SPLINE
  5
382
330
F5
100
AcDbEntity
  8
1
  6
Continuous
 62
     7
100
AcDbSpline
210
0.0
220
0.0
230
1.0
 70
     8
 71
     3
 72
    19
 73
    15
 74
    13
 42
0.0000000001
 43
0.0000000001
 44
0.00000001
 40
0.0
 40
0.0
 40
0.0
 40
0.0
 40
0.5631485092106455
 40
1.119699701118641
 40
1.837064681722678
 40
2.550303732751976
 40
3.455788511283492
 40
4.360309450496857
 40
5.456805759588652
 40
6.552702637222774
 40
7.821516115100242
 40
9.090082412751769
 40
9.520147656995974
 40
9.95010239655646
 40
9.95010239655646
 40
9.95010239655646
 40
9.95010239655646
 10
-547.1934187138481
 20
-2530.039057062
 30
0.0
 10
-547.2626356954315
 20
-2530.214730400353
 30
0.0
 10
-547.4002587776625
 20
-2530.564019053755
 30
0.0
 10
-547.794620058163
 20
-2531.042229782119
 30
0.0
 10
-548.2922184486389
 20
-2531.480792112668
 30
0.0
 10
-548.9353549187616
 20
-2531.922949931433
 30
0.0
 10
-549.6753805239096
 20
-2532.325130994258
 30
0.0
 10
-550.5585880586287
 20
-2532.724908549604
 30
0.0
 10
-551.5264044589179
 20
-2533.086107792211
 30
0.0
 10
-552.6267369891928
 20
-2533.434319698072
 30
0.0
 10
-553.7980716306973
 20
-2533.743748336741
 30
0.0
 10
-554.7635850971931
 20
-2533.959747770181
 30
0.0
 10
-555.4597036624905
 20
-2534.097128865958
 30
0.0
 10
-555.7415872991568
 20
-2534.149324041553
 30
0.0
 10
-555.8825110077582
 20
-2534.175418276049
 30
0.0
 11
-547.1934187138481
 21
-2530.039057062
 31
0.0
 11
-547.4270587310099
 21
-2530.551452012997
 31
0.0
 11
-547.7687879219409
 21
-2530.990735963625
 31
0.0
 11
-548.3022076266735
 21
-2531.470398276091
 31
0.0
 11
-548.8880787843211
 21
-2531.877172083692
 31
0.0
 11
-549.6804601584906
 21
-2532.315389429334
 31
0.0
 11
-550.5037833068235
 21
-2532.68995200474
 31
0.0
 11
-551.5295500597831
 21
-2533.077388095437
 31
0.0
 11
-552.5740446087085
 21
-2533.409082387931
 31
0.0
 11
-553.800040703984
 21
-2533.735917539059
 31
0.0
 11
-555.0379841102832
 21
-2534.01296730776
 31
0.0
 11
-555.4598969605009
 21
-2534.096307940875
 31
0.0
 11
-555.8825110077582
 21
-2534.175418276049
 31
0.0
  0
SPLINE
  5
383
330
F5
100
AcDbEntity
  8
1
  6
Continuous
 62
     7
100
AcDbSpline
210
0.0
220
0.0
230
1.0
 70
     8
 71
     3
 72
     9
 73
     5
 74
     3
 42
0.0000000001
 43
0.0000000001
 44
0.00000001
 40
0.0
 40
0.0
 40
0.0
 40
0.0
 40
0.0137331584094062
 40
0.0275000481608058
 40
0.0275000481608058
 40
0.0275000481608058
 40
0.0275000481608058
 10
-544.6960230464501
 20
-2530.616669942051
 30
0.0
 10
-544.6974342754708
 20
-2530.621024745038
 30
0.0
 10
-544.7002601997685
 20
-2530.629745047265
 30
0.0
 10
-544.7031831172292
 20
-2530.63843331964
 30
0.0
 10
-544.7046463685731
 20
-2530.64278278431
 30
0.0
 11
-544.6960230464501
 21
-2530.616669942051
 31
0.0
 11
-544.7002809223538
 21
-2530.62972636318
 31
0.0
 11
-544.7046463685731
 21
-2530.64278278431
 31
0.0
  0
SPLINE
  5
384
330
F5
100
AcDbEntity
  8
1
  6
Continuous
 62
     7
100
AcDbSpline
210
0.0
220
0.0
230
1.0
 70
     8
 71
     3
 72
    15
 73
    11
 74
     9
 42
0.0000000001
 43
0.0000000001
 44
0.00000001
 40
0.0
 40
0.0
 40
0.0
 40
0.0
 40
0.6199491901183464
 40
1.238727385392312
 40
2.260230007237184
 40
3.280719051563926
 40
4.521346323005863
 40
5.761306559574555
 40
6.429448131394359
 40
7.097276242911849
 40
7.097276242911849
 40
7.097276242911849
 40
7.097276242911849
 10
-585.6009660346033
 20
-2528.270159088399
 30
0.0
 10
-585.442243511604
 20
-2528.137509760867
 30
0.0
 10
-585.1250982696197
 20
-2527.8724616613
 30
0.0
 10
-584.4882879234344
 20
-2527.467009763408
 30
0.0
 10
-583.7046234521005
 20
-2527.050009257274
 30
0.0
 10
-582.7015581881549
 20
-2526.610538430039
 30
0.0
 10
-581.6036856319333
 20
-2526.212807980181
 30
0.0
 10
-580.6001481963706
 20
-2525.904081486545
 30
0.0
 10
-579.7709786195487
 20
-2525.680742817147
 30
0.0
 10
-579.3386162631485
 20
-2525.574050823908
 30
0.0
 10
-579.1224858078192
 20
-2525.520717343929
 30
0.0
 11
-585.6009660346033
 21
-2528.270159088399
 31
0.0
 11
-585.1168181452547
 21
-2527.882941036692
 31
0.0
 11
-584.5987707260131
 21
-2527.544542859446
 31
0.0
 11
-583.6986818320052
 21
-2527.061523616227
 31
0.0
 11
-582.7651350674694
 21
-2526.649348498085
 31
0.0
 11
-581.6002930980366
 21
-2526.222383379025
 31
0.0
 11
-580.4153408560082
 21
-2525.857158006983
 31
0.0
 11
-579.7702961309528
 21
-2525.68300157537
 31
0.0
 11
-579.1224858078192
 21
-2525.520717343929
 31
0.0
  0
SPLINE
  5
385
330
F5
100
AcDbEntity
  8
1
  6
Continuous
 62
     7
100
AcDbSpline
210
0.0
220
0.0
230
1.0
 70
     8
 71
     3
 72
    21
 73
    17
 74
    15
 42
0.0000000001
 43
0.0000000001
 44
0.00000001
 40
0.0
 40
0.0
 40
0.0
 40
0.0
 40
0.6265726963795895
 40
1.245198957072949
 40
2.050215465057073
 40
2.850477046006846
 40
3.871979667850873
 40
4.892468712178686
 40
6.133095983621626
 40
7.373056220189616
 40
8.81085394461002
 40
10.24838724539074
 40
11.84983328093467
 40
13.45112918537958
 40
13.62483157340601
 40
13.79852122923492
 40
13.79852122923492
 40
13.79852122923492
 40
13.79852122923492
 10
-544.7046463685731
 20
-2530.64278278431
 30
0.0
 10
-544.7837596354474
 20
-2530.837446414601
 30
0.0
 10
-544.9409828243472
 20
-2531.224304876226
 30
0.0
 10
-545.3895208870198
 20
-2531.751226078886
 30
0.0
 10
-545.9543589114569
 20
-2532.232724948752
 30
0.0
 10
-546.6843444241829
 20
-2532.719728649159
 30
0.0
 10
-547.5236003886367
 20
-2533.162089487967
 30
0.0
 10
-548.5260289297056
 20
-2533.602455078938
 30
0.0
 10
-549.6240655436211
 20
-2534.00005697544
 30
0.0
 10
-550.8730190374356
 20
-2534.383636272227
 30
0.0
 10
-552.2022225098693
 20
-2534.724590762507
 30
0.0
 10
-553.6609441022908
 20
-2535.040589645731
 30
0.0
 10
-555.1838270232912
 20
-2535.313025730886
 30
0.0
 10
-556.2974004721266
 20
-2535.47762075351
 30
0.0
 10
-556.941550619344
 20
-2535.561301801928
 30
0.0
 10
-557.0564318544551
 20
-2535.575839690045
 30
0.0
 10
-557.1138703667662
 20
-2535.583108367691
 30
0.0
 11
-544.7046463685731
 21
-2530.64278278431
 31
0.0
 11
-544.9711540479548
 21
-2531.209851563806
 31
0.0
 11
-545.3582078626376
 21
-2531.692436058956
 31
0.0
 11
-545.9652216315532
 21
-2532.221194853184
 31
0.0
 11
-546.6289700089027
 21
-2532.668248193972
 31
0.0
 11
-547.5290589029104
 21
-2533.15126743719
 31
0.0
 11
-548.4626056674467
 21
-2533.563442555334
 31
0.0
 11
-549.6274476368801
 21
-2533.990407674394
 31
0.0
 11
-550.812399878908
 21
-2534.355633046436
 31
0.0
 11
-552.2043573712764
 21
-2534.715795004155
 31
0.0
 11
-553.6091298406634
 21
-2535.020944639753
 31
0.0
 11
-555.1851723173917
 21
-2535.305056442232
 31
0.0
 11
-556.7693125575273
 21
-2535.53882614338
 31
0.0
 11
-556.9415670220355
 21
-2535.561207364595
 31
0.0
 11
-557.1138703667662
 21
-2535.583108367691
 31
0.0
  0
SPLINE
  5
386
330
F5
100
AcDbEntity
  8
1
  6
Continuous
 62
     7
100
AcDbSpline
210
0.0
220
0.0
230
1.0
 70
    27
 71
     3
 72
     9
 73
     5
 74
     3
 42
0.0000000001
 43
0.0000000001
 44
0.00000001
 40
0.0
 40
0.0
 40
0.0
 40
0.0
 40
0.0000001715650718
 40
0.0000006060030274
 40
0.0000006060030274
 40
0.0000006060030274
 40
0.0000006060030274
 10
-548.3980728881211
 20
-2531.846222308119
 30
0.0
 10
-548.3980728894721
 20
-2531.846222250219
 30
0.0
 10
-548.3980728942439
 20
-2531.846222045705
 30
0.0
 10
-548.3980730149873
 20
-2531.846221874317
 30
0.0
 10
-548.3980731015472
 20
-2531.846221751451
 30
0.0
 11
-548.3980728881211
 21
-2531.846222308119
 31
0.0
 11
-548.3980729014692
 21
-2531.846222137074
 31
0.0
 11
-548.3980731015472
 21
-2531.846221751451
 31
0.0
  0
ARC
  5
387
330
F5
100
AcDbEntity
  8
1
  6
Continuous
 62
     7
100
AcDbCircle
 10
-580.6138703674581
 20
-2531.606156211522
 30
0.0
 40
5.99999999998728
100
AcDbArc
 50
146.2204131039023
 51
170.5077394245848
  0
ARC
  5
388
330
F5
100
AcDbEntity
  8
1
  6
Continuous
 62
     7
100
AcDbCircle
 10
-580.6138703674581
 20
-2557.355855006263
 30
0.0
 40
6.0
100
AcDbArc
 50
-179.9999999999913
 51
-142.4068567256873
  0
ARC
  5
389
330
F5
100
AcDbEntity
  8
1
  6
Continuous
 62
     7
100
AcDbCircle
 10
-550.6138703674581
 20
-2531.606156211522
 30
0.0
 40
5.999999999951433
100
AcDbArc
 50
9.49226057658672
 51
33.77958689475783
  0
ARC
  5
38A
330
F5
100
AcDbEntity
  8
1
  6
Continuous
 62
     7
100
AcDbCircle
 10
-550.2763703674582
 20
-2557.082117419001
 30
0.0
 40
6.272225865490523
100
AcDbArc
 50
-77.0635285475946
 51
-3.19114876077596
  0
ARC
  5
38B
330
F5
100
AcDbEntity
  8
1
  6
Continuous
 62
     7
100
AcDbCircle
 10
-550.2763703674582
 20
-2532.030733904609
 30
0.0
 40
6.272225865488008
100
AcDbArc
 50
3.19114876076767
 51
77.06352854759274
  0
ARC
  5
38C
330
F5
100
AcDbEntity
  8
1
  6
Continuous
 62
     7
100
AcDbCircle
 10
-580.8763703674581
 20
-2532.130493230372
 30
0.0
 40
6.353379627593431
100
AcDbArc
 50
114.2053301440386
 51
175.9482197656679
  0
ARC
  5
38D
330
F5
100
AcDbEntity
  8
1
  6
Continuous
 62
     7
100
AcDbCircle
 10
-580.8763703674581
 20
-2556.982358093238
 30
0.0
 40
6.353379627592573
100
AcDbArc
 50
-175.9482197656761
 51
-115.4224681937729
  0
ARC
  5
38E
330
F5
100
AcDbEntity
  8
1
  6
Continuous
 62
     7
100
AcDbCircle
 10
-575.6138703678271
 20
-2535.651166291864
 30
0.0
 40
1.5
100
AcDbArc
 50
0.00000000074691
 51
79.68302164068334
  0
ARC
  5
38F
330
F5
100
AcDbEntity
  8
1
  6
Continuous
 62
     7
100
AcDbCircle
 10
-555.6138703673782
 20
-2535.651166291917
 30
0.0
 40
1.499999999999633
100
AcDbArc
 50
100.3169783589656
 51
179.9999999998437
  0
ARC
  5
390
330
F5
100
AcDbEntity
  8
1
  6
Continuous
 62
     7
100
AcDbCircle
 10
-550.6138703674581
 20
-2557.355855006263
 30
0.0
 40
6.000000000000482
100
AcDbArc
 50
-37.59314327431273
 51
-0.00000000000869
  0
ENDBLK
  5
F7
330
F5
100
AcDbEntity
  8
0
100
AcDbBlockEnd
  0
BLOCK
  5
FA
330
F8
100
AcDbEntity
  8
0
100
AcDbBlockBegin
  2
S32-85__51
 70
     0
 71
     0
 10
-4366.969587893206
 20
-4768.934059593044
 30
0.0
  3
S32-85__51
  1

  0
INSERT
  5
F9
330
F8
100
AcDbEntity
  8
1
100
AcDbBlockReference
  2
85-124__50
 10
1169.84292005996
 20
-2607.468763374911
 30
0.0
  0
LINE
  5
391
330
F8
100
AcDbEntity
  8
0
  6
PHANTOM
 62
     4
100
AcDbLine
 10
-565.6138688384037
 20
-2523.481005608892
 30
0.0
 11
-565.6138688384037
 21
-2565.481005608891
 31
0.0
  0
ENDBLK
  5
FB
330
F8
100
AcDbEntity
  8
0
100
AcDbBlockEnd
  0
BLOCK
  5
120
330
FC
100
AcDbEntity
  8
0
100
AcDbBlockBegin
  2
_k____
 70
     0
 71
     0
 10
-1324.554393597417
 20
-4212.67007410138
 30
0.0
  3
_k____
  1

  0
INSERT
  5
FD
330
FC
100
AcDbEntity
  8
1
100
AcDbBlockReference
  2
SK2890-0-M1__1
 10
-1230.554393597416
 20
-4342.766377374155
 30
0.0
  0
INSERT
  5
FE
330
FC
100
AcDbEntity
  8
1
100
AcDbBlockReference
  2
88-553-M21__2
 10
-899.5543935974167
 20
-3920.766377374156
 30
0.0
  0
INSERT
  5
FF
330
FC
100
AcDbEntity
  8
1
100
AcDbBlockReference
  2
88-553-M21__3
 10
-731.0543935974154
 20
-4480.766377374157
 30
0.0
  0
INSERT
  5
100
330
FC
100
AcDbEntity
  8
1
100
AcDbBlockReference
  2
81-163X__6
 10
-1381.554393597414
 20
-4503.766377374157
 30
0.0
  0
INSERT
  5
101
330
FC
100
AcDbEntity
  8
1
100
AcDbBlockReference
  2
81-162__7
 10
-1197.554393597416
 20
-4213.766377374157
 30
0.0
  0
INSERT
  5
102
330
FC
100
AcDbEntity
  8
1
100
AcDbBlockReference
  2
81-162__8
 10
-1197.554393597416
 20
-3472.670074101382
 30
0.0
  0
INSERT
  5
103
330
FC
100
AcDbEntity
  8
1
100
AcDbBlockReference
  2
06-95-C2__9
 10
-719.5157596592933
 20
-4460.613549199147
 30
0.0
  0
INSERT
  5
104
330
FC
100
AcDbEntity
  8
1
100
AcDbBlockReference
  2
81-163X__12
 10
-1036.554393597413
 20
-3682.670074101381
 30
0.0
  0
INSERT
  5
105
330
FC
100
AcDbEntity
  8
1
100
AcDbBlockReference
  2
88-552__13
 10
-1329.554393597416
 20
-3334.670074101381
 30
0.0
  0
INSERT
  5
106
330
FC
100
AcDbEntity
  8
1
100
AcDbBlockReference
  2
30-289X__15
 10
-525.5543935974163
 20
-3755.670074101408
 30
0.0
  0
INSERT
  5
107
330
FC
100
AcDbEntity
  8
0
100
AcDbBlockReference
  2
88-489__16
 10
-252.2637490601319
 20
-3613.156908633755
 30
0.0
  0
INSERT
  5
108
330
FC
100
AcDbEntity
  8
1
100
AcDbBlockReference
  2
98-203__17
 10
-1329.554393597416
 20
-3334.670074101381
 30
0.0
  0
INSERT
  5
109
330
FC
100
AcDbEntity
  8
1
100
AcDbBlockReference
  2
76-106-C4__18
 10
-1253.554393597416
 20
-3779.670074101381
 30
0.0
  0
INSERT
  5
10A
330
FC
100
AcDbEntity
  8
1
100
AcDbBlockReference
  2
30-289X__20
 10
-1713.554393597416
 20
-3755.670074101408
 30
0.0
  0
INSERT
  5
10B
330
FC
100
AcDbEntity
  8
1
100
AcDbBlockReference
  2
76-106-C4__21
 10
-1253.554393597418
 20
-4437.766377374184
 30
0.0
  0
INSERT
  5
10C
330
FC
100
AcDbEntity
  8
1
100
AcDbBlockReference
  2
76-106-C4__22
 10
-985.054393597417
 20
-4437.766377374185
 30
0.0
  0
INSERT
  5
10D
330
FC
100
AcDbEntity
  8
1
100
AcDbBlockReference
  2
S369-80X
 10
-1137.352354113129
 20
-3882.271169478853
 30
0.0
  0
INSERT
  5
10E
330
FC
100
AcDbEntity
  8
1
100
AcDbBlockReference
  2
88-530-M21__24
 10
-802.613460174746
 20
-4105.844377711717
 30
0.0
  0
INSERT
  5
10F
330
FC
100
AcDbEntity
  8
1
100
AcDbBlockReference
  2
88-552__25
 10
-1244.554393597418
 20
-4138.766377374159
 30
0.0
  0
INSERT
  5
110
330
FC
100
AcDbEntity
  8
0
100
AcDbBlockReference
  2
88-489__26
 10
-252.2637490601335
 20
-4259.253211906535
 30
0.0
  0
INSERT
  5
111
330
FC
100
AcDbEntity
  8
1
100
AcDbBlockReference
  2
32-115
 10
-218.2204046081667
 20
-3897.030652477231
 30
0.0
  0
INSERT
  5
112
330
FC
100
AcDbEntity
  8
1
100
AcDbBlockReference
  2
S30-86BTX__29
 10
-1445.246636471075
 20
-5128.228526935717
 30
0.0
  0
INSERT
  5
113
330
FC
100
AcDbEntity
  8
1
100
AcDbBlockReference
  2
S30-86BTX__32
 10
-1937.746636471075
 20
-5128.228526935716
 30
0.0
  0
INSERT
  5
114
330
FC
100
AcDbEntity
  8
1
100
AcDbBlockReference
  2
35-309-M11__33
 10
-739.5543935974185
 20
-4030.671557167975
 30
0.0
  0
INSERT
  5
115
330
FC
100
AcDbEntity
  8
1
100
AcDbBlockReference
  2
35-309-M11__34
 10
-1232.054393597418
 20
-4030.671557167974
 30
0.0
  0
INSERT
  5
116
330
FC
100
AcDbEntity
  8
1
100
AcDbBlockReference
  2
14-48__35
 10
-415.0543935974166
 20
-4220.766377374156
 30
0.0
  0
INSERT
  5
117
330
FC
100
AcDbEntity
  8
1
100
AcDbBlockReference
  2
S30-86BTX__36
 10
-979.6078746610162
 20
-4454.118713113558
 30
0.0
  0
INSERT
  5
118
330
FC
100
AcDbEntity
  8
1
100
AcDbBlockReference
  2
14-48__37
 10
-1269.554393597417
 20
-4220.766377374158
 30
0.0
  0
INSERT
  5
119
330
FC
100
AcDbEntity
  8
1
100
AcDbBlockReference
  2
SK2890-0-M1__38
 10
-1140.054393597413
 20
-4473.766377374158
 30
0.0
  0
INSERT
  5
11A
330
FC
100
AcDbEntity
  8
1
100
AcDbBlockReference
  2
98-203__39
 10
-577.5543935974158
 20
-4412.766377374186
 30
0.0
  0
INSERT
  5
11B
330
FC
100
AcDbEntity
  8
1
100
AcDbBlockReference
  2
81-162-M21
 10
-671.2543935974156
 20
-4270.966377374158
 30
0.0
 41
5.0
 42
5.0
 43
5.0
  0
INSERT
  5
11C
330
FC
100
AcDbEntity
  8
0
100
AcDbBlockReference
  2
S32-85__43
 10
-4855.452222769928
 20
-6164.219431358329
 30
0.0
  0
INSERT
  5
11D
330
FC
100
AcDbEntity
  8
0
100
AcDbBlockReference
  2
S32-85__47
 10
-4855.452222769928
 20
-6264.219431358329
 30
0.0
  0
INSERT
  5
11E
330
FC
100
AcDbEntity
  8
0
100
AcDbBlockReference
  2
S32-85__49
 10
-4820.910112652219
 20
-6244.219431358329
 30
0.0
  0
INSERT
  5
11F
330
FC
100
AcDbEntity
  8
0
100
AcDbBlockReference
  2
S32-85__51
 10
-4920.910112652219
 20
-6144.219431358329
 30
0.0
  0
LINE
  5
392
330
FC
100
AcDbEntity
  8
1
  6
DASH_CENTER
 62
     2
100
AcDbLine
 10
-1019.554393597417
 20
-3995.766377374175
 30
0.0
 11
-1019.554393597417
 21
-4043.766377374175
 31
0.0
  0
LINE
  5
393
330
FC
100
AcDbEntity
  8
1
  6
DASH_CENTER
 62
     2
100
AcDbLine
 10
-548.5543935974173
 20
-4028.266377374179
 30
0.0
 11
-602.5543935974167
 21
-4028.266377374179
 31
0.0
  0
LINE
  5
394
330
FC
100
AcDbEntity
  8
1
  6
DASH_CENTER
 62
     2
100
AcDbLine
 10
-602.5543935974167
 20
-4007.266377374174
 30
0.0
 11
-548.5543935974173
 21
-4007.266377374174
 31
0.0
  0
LINE
  5
395
330
FC
100
AcDbEntity
  8
1
  6
DASH_CENTER
 62
     2
100
AcDbLine
 10
-548.5543935974172
 20
-3928.266377374179
 30
0.0
 11
-602.5543935974167
 21
-3928.266377374179
 31
0.0
  0
LINE
  5
396
330
FC
100
AcDbEntity
  8
1
  6
DASH_CENTER
 62
     2
100
AcDbLine
 10
-602.5543935974167
 20
-3907.266377374174
 30
0.0
 11
-548.6883466447548
 21
-3907.266377374179
 31
0.0
  0
LINE
  5
397
330
FC
100
AcDbEntity
  8
1
  6
DASH_CENTER
 62
     2
100
AcDbLine
 10
-1164.554393597417
 20
-4313.766377374155
 30
0.0
 11
-1164.554393597417
 21
-4263.766377374183
 31
0.0
  0
LINE
  5
398
330
FC
100
AcDbEntity
  8
1
  6
DASH_CENTER
 62
     2
100
AcDbLine
 10
-1204.55439359742
 20
-4325.766377374157
 30
0.0
 11
-1119.554393597417
 21
-4325.766377374157
 31
0.0
  0
LINE
  5
399
330
FC
100
AcDbEntity
  8
1
  6
DASH_CENTER
 62
     2
100
AcDbLine
 10
-1074.554393597418
 20
-4263.766377374183
 30
0.0
 11
-1074.554393597417
 21
-4313.766377374155
 31
0.0
  0
LINE
  5
39A
330
FC
100
AcDbEntity
  8
1
  6
DASH_CENTER
 62
     2
100
AcDbLine
 10
-1190.554393597417
 20
-4290.766377374171
 30
0.0
 11
-1048.554393597417
 21
-4290.766377374171
 31
0.0
  0
LINE
  5
39B
330
FC
100
AcDbEntity
  8
1
  6
DASH_CENTER
 62
     2
100
AcDbLine
 10
-1164.554393597417
 20
-3462.670074101379
 30
0.0
 11
-1164.554393597417
 21
-3362.670074101379
 31
0.0
  0
LINE
  5
39C
330
FC
100
AcDbEntity
  8
1
  6
DASH_CENTER
 62
     2
100
AcDbLine
 10
-1074.554393597418
 20
-3462.670074101379
 30
0.0
 11
-1074.55439359742
 21
-3362.670074101379
 31
0.0
  0
LINE
  5
39D
330
FC
100
AcDbEntity
  8
1
  6
PHANTOM
 62
     4
100
AcDbLine
 10
-715.5224056516809
 20
-4264.54873940642
 30
0.0
 11
-714.9865072668187
 21
-4262.54873940642
 31
0.0
  0
LINE
  5
39E
330
FC
100
AcDbEntity
  8
1
  6
PHANTOM
 62
     4
100
AcDbLine
 10
-715.5224056516809
 20
-4264.54873940642
 30
0.0
 11
-715.5224056516809
 21
-4262.54873940642
 31
0.0
  0
LINE
  5
39F
330
FC
100
AcDbEntity
  8
1
  6
DASH_CENTER
 62
     2
100
AcDbLine
 10
-674.0543935974159
 20
-4248.766377374158
 30
0.0
 11
-624.0543935974159
 21
-4248.766377374158
 31
0.0
  0
LINE
  5
3A0
330
FC
100
AcDbEntity
  8
1
  6
DASH_CENTER
 62
     2
100
AcDbLine
 10
-649.0543935974159
 20
-4223.766377374158
 30
0.0
 11
-649.0543935974159
 21
-4273.766377374158
 31
0.0
  0
LINE
  5
3A1
330
FC
100
AcDbEntity
  8
1
  6
DASH_CENTER
 62
     2
100
AcDbLine
 10
-1119.554393597417
 20
-3374.17007410138
 30
0.0
 11
-1119.554393597417
 21
-3508.670074101381
 31
0.0
  0
LINE
  5
3A2
330
FC
100
AcDbEntity
  8
1
  6
DASH_CENTER
 62
     2
100
AcDbLine
 10
-627.0543935974172
 20
-4071.414044718768
 30
0.0
 11
-627.0543935974172
 21
-3882.271224475549
 31
0.0
  0
LINE
  5
3A3
330
FC
100
AcDbEntity
  8
0
  6
DASH_CENTER
 62
     2
100
AcDbLine
 10
-736.7392256915755
 20
-3726.482813815543
 30
0.0
 11
-719.0615561619104
 21
-3708.805144285881
 31
0.0
  0
LINE
  5
3A4
330
FC
100
AcDbEntity
  8
0
  6
DASH_CENTER
 62
     2
100
AcDbLine
 10
-738.8706787811137
 20
-3728.614266905077
 30
0.0
 11
-736.7392256915755
 21
-3726.482813815543
 31
0.0
  0
LINE
  5
3A5
330
FC
100
AcDbEntity
  8
1
  6
DASH_CENTER
 62
     2
100
AcDbLine
 10
-1119.554393597417
 20
-4187.766377374155
 30
0.0
 11
-1119.554393597417
 21
-4325.766377374157
 31
0.0
  0
LINE
  5
3A6
330
FC
100
AcDbEntity
  8
1
  6
DASH_CENTER
 62
     2
100
AcDbLine
 10
-1242.554393597417
 20
-4248.766377374155
 30
0.0
 11
-996.554393597417
 21
-4248.766377374157
 31
0.0
  0
LINE
  5
3A7
330
FC
100
AcDbEntity
  8
1
  6
DASH_CENTER
 62
     2
100
AcDbLine
 10
-1242.554393597417
 20
-3437.670074101381
 30
0.0
 11
-996.554393597417
 21
-3437.67007410138
 31
0.0
  0
LINE
  5
3A8
330
FC
100
AcDbEntity
  8
1
  6
DASH_CENTER
 62
     2
100
AcDbLine
 10
-645.0543935974159
 20
-4290.766377374172
 30
0.0
 11
-574.554393597417
 21
-4290.766377374172
 31
0.0
  0
LINE
  5
3A9
330
FC
100
AcDbEntity
  8
1
  6
PHANTOM
 62
     2
100
AcDbLine
 10
-589.554393597417
 20
-4347.670074101377
 30
0.0
 11
-589.554393597417
 21
-3827.670074101377
 31
0.0
  0
LINE
  5
3AA
330
FC
100
AcDbEntity
  8
1
  6
DASH_CENTER
 62
     4
100
AcDbLine
 10
-736.7392256915755
 20
-3726.482813815543
 30
0.0
 11
-736.7392256915757
 21
-3721.482813815545
 31
0.0
  0
LINE
  5
3AB
330
FC
100
AcDbEntity
  8
1
  6
DASH_CENTER
 62
     2
100
AcDbLine
 10
-1119.554393597417
 20
-3700.670074101376
 30
0.0
 11
-1119.554393597417
 21
-3996.375488228299
 31
0.0
  0
LINE
  5
3AC
330
FC
100
AcDbEntity
  8
1
  6
Continuous
 62
     2
100
AcDbLine
 10
-1069.554393597417
 20
-4087.670074101377
 30
0.0
 11
-919.5543935974171
 21
-4087.670074101377
 31
0.0
  0
LINE
  5
3AD
330
FC
100
AcDbEntity
  8
1
  6
Continuous
 62
     2
100
AcDbLine
 10
-723.0543935974233
 20
-4169.670074101387
 30
0.0
 11
-673.0543935974233
 21
-4169.670074101387
 31
0.0
  0
LINE
  5
3AE
330
FC
100
AcDbEntity
  8
1
  6
Continuous
 62
     2
100
AcDbLine
 10
-778.0543935974233
 20
-4229.670074101388
 30
0.0
 11
-728.0543935974233
 21
-4229.670074101388
 31
0.0
  0
LINE
  5
3AF
330
FC
100
AcDbEntity
  8
1
  6
PHANTOM
 62
     4
100
AcDbLine
 10
-1239.554393597418
 20
-4248.766377374158
 30
0.0
 11
-1239.554393597418
 21
-4253.766377374157
 31
0.0
  0
LINE
  5
3B0
330
FC
100
AcDbEntity
  8
1
  6
PHANTOM
 62
     4
100
AcDbLine
 10
-999.5543935974183
 20
-4248.766377374157
 30
0.0
 11
-999.5543935974183
 21
-4253.766377374157
 31
0.0
  0
LINE
  5
3B1
330
FC
100
AcDbEntity
  8
1
  6
DASH_CENTER
 62
     2
100
AcDbLine
 10
-645.0543935974158
 20
-4173.766377374155
 30
0.0
 11
-645.0543935974159
 21
-4340.766377374183
 31
0.0
  0
LINE
  5
3B2
330
FC
100
AcDbEntity
  8
1
  6
DASH_CENTER
 62
     2
100
AcDbLine
 10
-1289.554393597422
 20
-4180.766377374155
 30
0.0
 11
-1289.554393597422
 21
-4240.766377374155
 31
0.0
  0
ARC
  5
3B3
330
FC
100
AcDbEntity
  8
1
  6
DASH_CENTER
 62
     2
100
AcDbCircle
 10
-1204.55439359742
 20
-4240.766377374155
 30
0.0
 40
85.00000000000205
100
AcDbArc
 50
180.0
 51
-90.0
  0
ARC
  5
3B4
330
FC
100
AcDbEntity
  8
0
  6
DASH_CENTER
 62
     2
100
AcDbCircle
 10
-764.4096769446808
 20
-3860.951605890949
 30
0.0
 40
138.9999999999996
100
AcDbArc
 50
-8.82274212918747
 51
77.90814131121981
  0
ARC
  5
3B5
330
FC
100
AcDbEntity
  8
1
  6
DASH_CENTER
 62
     2
100
AcDbCircle
 10
-1204.55439359742
 20
-4180.766377374155
 30
0.0
 40
84.99999999999928
100
AcDbArc
 50
94.65070900487864
 51
180.0
  0
ARC
  5
3B6
330
FC
100
AcDbEntity
  8
1
  6
Continuous
 62
     2
100
AcDbCircle
 10
-649.0543935974159
 20
-4248.766377374152
 30
0.0
 40
69.99999999999862
100
AcDbArc
 50
110.0000000000006
 51
160.0000000000023
  0
ARC
  5
3B7
330
FC
100
AcDbEntity
  8
1
  6
DASH_CENTER
 62
     2
100
AcDbCircle
 10
-495.0543935974155
 20
-4173.766377374156
 30
0.0
 40
150.0000000000002
100
AcDbArc
 50
160.0515564111982
 51
179.9999999999997
  0
ARC
  5
3B8
330
FC
100
AcDbEntity
  8
1
  6
DASH_CENTER
 62
     2
100
AcDbCircle
 10
-1219.554393597417
 20
-3996.375488228299
 30
0.0
 40
99.99999999999865
100
AcDbArc
 50
-85.34929099512075
 51
0.0
  0
ARC
  5
3B9
330
FC
100
AcDbEntity
  8
1
  6
DASH_CENTER
 62
     2
100
AcDbCircle
 10
-777.0543935974172
 20
-4071.414044718768
 30
0.0
 40
150.0000000000001
100
AcDbArc
 50
-19.94844358880203
 51
0.0
  0
SOLID
  5
3BA
330
FC
100
AcDbEntity
  8
1
 62
     2
100
AcDbTrace
 10
-1057.399645726612
 20
-3355.362670181262
 30
0.0
 11
-1053.40914146823
 21
-3357.666588889042
 31
0.0
 12
-1064.15439359742
 22
-3371.67007410138
 32
0.0
 13
-1064.15439359742
 23
-3371.67007410138
 33
0.0
  0
LEADER
  5
3BB
330
FC
100
AcDbEntity
  8
1
  6
Continuous
 62
     2
100
AcDbLeader
  3
Standard
 71
     0
 76
     3
 10
-1064.15439359742
 20
-3371.67007410138
 30
0.0
 10
-1035.864230407127
 20
-3322.670074101381
 30
0.0
 10
-955.8642304071266
 20
-3322.67007410138
 30
0.0
  0
SOLID
  5
3BC
330
FC
100
AcDbEntity
  8
1
 62
     2
100
AcDbTrace
 10
-563.799645726608
 20
-4047.573781294294
 30
0.0
 11
-568.2504748896373
 21
-4048.766377374177
 31
0.0
 12
-570.554393597417
 22
-4031.266377374177
 32
0.0
 13
-570.554393597417
 23
-4031.266377374177
 33
0.0
  0
LEADER
  5
3BD
330
FC
100
AcDbEntity
  8
1
  6
Continuous
 62
     2
100
AcDbLeader
  3
Standard
 71
     0
 76
     3
 10
-570.554393597417
 20
-4031.266377374177
 30
0.0
 10
-551.9319247234537
 20
-4100.766377374175
 30
0.0
 10
-451.9319247234535
 20
-4100.766377374175
 30
0.0
  0
SOLID
  5
3BE
330
FC
100
AcDbEntity
  8
1
 62
     2
100
AcDbTrace
 10
-687.5424605980207
 20
-4192.985534264391
 30
0.0
 11
-689.6343750090225
 21
-4188.879921064726
 31
0.0
 12
-672.9958036302129
 22
-4182.98789391914
 32
0.0
 13
-672.9958036302129
 23
-4182.98789391914
 33
0.0
  0
LEADER
  5
3BF
330
FC
100
AcDbEntity
  8
1
  6
Continuous
 62
     2
100
AcDbLeader
  3
Standard
 71
     0
 76
     2
 10
-672.9958036302129
 20
-4182.98789391914
 30
0.0
 10
-675.6688232027689
 20
-4184.349865418349
 30
0.0
  0
SOLID
  5
3C0
330
FC
100
AcDbEntity
  8
1
 62
     2
100
AcDbTrace
 10
-708.9408499068446
 20
-4208.186395962549
 30
0.0
 11
-704.8352367071792
 21
-4210.278310373551
 31
0.0
 12
-714.8328770524299
 22
-4224.824967341358
 32
0.0
 13
-714.8328770524299
 23
-4224.824967341358
 33
0.0
  0
LEADER
  5
3C1
330
FC
100
AcDbEntity
  8
1
  6
Continuous
 62
     2
100
AcDbLeader
  3
Standard
 71
     0
 76
     2
 10
-714.8328770524299
 20
-4224.824967341358
 30
0.0
 10
-713.4709055532175
 20
-4222.151947768794
 30
0.0
  0
MTEXT
  5
3C3
330
FC
100
AcDbEntity
  8
1
 62
     2
100
AcDbMText
 10
-1087.21586191252
 20
-3301.238848304769
 30
0.0
 40
10.0
 41
0.0
 71
     5
 72
     1
  1
±2
  7
CONVERTER_1
 73
     1
 44
0.7202881152461
  0
MTEXT
  5
3C4
330
FC
100
AcDbEntity
  8
1
 62
     7
100
AcDbMText
 10
-511.9319247234535
 20
-4065.766377374176
 30
0.0
 40
17.5
 41
0.0
 71
     5
 72
     1
  1
ねじサイズ
  7
CONVERTER_1
 73
     1
 44
0.7202881152461
  0
MTEXT
  5
3C6
330
FC
100
AcDbEntity
  8
1
 62
     7
100
AcDbMText
 10
-995.8642304071268
 20
-3307.67007410138
 30
0.0
 40
17.5
 41
0.0
 71
     5
 72
     1
  1
PJ1/2
  7
CONVERTER_2
 73
     1
 44
1.32052821128451
  0
MTEXT
  5
3C7
330
FC
100
AcDbEntity
  8
1
 62
     7
100
AcDbMText
 10
-501.9319247234535
 20
-4085.766377374176
 30
0.0
 40
17.5
 41
0.0
 71
     5
 72
     1
  1
{\Fgdt;n}4,5X45
  7
CONVERTER_2
 73
     1
 44
0.7202881152461
  0
MTEXT
  5
3C8
330
FC
100
AcDbEntity
  8
1
 62
     7
100
AcDbMText
 10
-994.554393597417
 20
-4072.670074101376
 30
0.0
 40
17.5
 41
0.0
 71
     5
 72
     1
  1
ホース長さ1600
  7
CONVERTER_1
 73
     1
 44
0.7202881152461
  0
MTEXT
  5
3C9
330
FC
100
AcDbEntity
  8
1
 62
     7
100
AcDbMText
 10
-753.0543935974233
 20
-4214.670074101387
 30
0.0
 40
17.5
 41
0.0
 71
     5
 72
     1
  1
カラン
  7
CONVERTER_1
 73
     1
 44
0.7202881152461
  0
MTEXT
  5
3CA
330
FC
100
AcDbEntity
  8
1
 62
     7
100
AcDbMText
 10
-698.0543935974233
 20
-4154.670074101387
 30
0.0
 40
17.5
 41
0.0
 71
     5
 72
     1
  1
シャワ
  7
CONVERTER_1
 73
     1
 44
0.7202881152461
  0
DIMENSION
  5
3D5
330
FC
100
AcDbEntity
  8
1
100
AcDbDimension
  2
*D061
 10
-1164.554393597417
 20
-3315.670074101378
 30
0.0
 11
-1119.554393597417
 21
-3301.920074101378
 31
0.0
  1
取付寸法90
 71
     5
 42
0.0
 53
0.00013888888889
  3
ME10_DIM_0
100
AcDbAlignedDimension
 13
-1074.55439359742
 23
-3362.670074101379
 33
0.0
 14
-1164.554393597417
 24
-3362.670074101379
 34
0.0
100
AcDbRotatedDimension
  0
DIMENSION
  5
3E0
330
FC
100
AcDbEntity
  8
1
100
AcDbDimension
  2
*D162
 10
-528.0543935974205
 20
-4190.766377374184
 30
0.0
 11
-541.8043935974205
 21
-4240.771377874278
 31
0.0
  1
<>
 71
     5
 42
0.0
 53
90.0
  3
ME10_DIM_1
100
AcDbAlignedDimension
 13
-574.554393597417
 23
-4290.766377374172
 33
0.0
 14
-646.0543935974164
 24
-4190.766377374184
 34
0.0
 50
90.0
100
AcDbRotatedDimension
  0
DIMENSION
  5
3ED
330
FC
100
AcDbEntity
  8
1
100
AcDbDimension
  2
*D263
 10
-627.0543935974172
 20
-3655.300439790013
 30
0.0
 11
-608.3043935974168
 21
-3641.550439790013
 31
0.0
  1
38
 71
     5
 42
0.0
 53
0.00013888888889
  3
ME10_DIM_2
100
AcDbAlignedDimension
 13
-589.554393597417
 23
-3827.670074101377
 33
0.0
 14
-627.0543935974172
 24
-3882.271224475549
 34
0.0
100
AcDbRotatedDimension
  0
DIMENSION
  5
3F8
330
FC
100
AcDbEntity
  8
1
100
AcDbDimension
  2
*D364
 10
-736.7392256915755
 20
-3615.300439790013
 30
0.0
 11
-663.1468096444962
 21
-3601.550439790013
 31
0.0
  1
147
 71
     5
 42
0.0
 53
0.00013888888889
  3
ME10_DIM_3
100
AcDbAlignedDimension
 13
-589.554393597417
 23
-3827.670074101377
 33
0.0
 14
-736.7392256915755
 24
-3726.482813815543
 34
0.0
100
AcDbRotatedDimension
  0
DIMENSION
  5
405
330
FC
100
AcDbEntity
  8
1
100
AcDbDimension
  2
*D465
 10
-501.5543935974173
 20
-3907.266377374175
 30
0.0
 11
-515.3043935974173
 21
-3851.110982013269
 31
0.0
  1
17～25
 71
     5
 42
0.0
 53
90.0
  3
ME10_DIM_4
100
AcDbAlignedDimension
 13
-548.5543935974168
 23
-3928.266377374179
 33
0.0
 14
-548.6883466447545
 24
-3907.266377374179
 34
0.0
 50
90.0
100
AcDbRotatedDimension
  0
DIMENSION
  5
410
330
FC
100
AcDbEntity
  8
1
100
AcDbDimension
  2
*D566
 10
-999.5543935974183
 20
-4110.766377374183
 30
0.0
 11
-1119.554393597417
 21
-4097.016377374183
 31
0.0
  1
<>
 71
     5
 42
0.0
 53
0.00013888888889
  3
ME10_DIM_5
100
AcDbAlignedDimension
 13
-1239.554393597418
 23
-4248.766377374158
 33
0.0
 14
-999.5543935974183
 24
-4248.766377374157
 34
0.0
100
AcDbRotatedDimension
  0
DIMENSION
  5
41B
330
FC
100
AcDbEntity
  8
1
100
AcDbDimension
  2
*D667
 10
-589.554393597417
 20
-4168.766377374156
 30
0.0
 11
-617.69036602759
 21
-4155.016377374156
 31
0.0
  1
60
 71
     5
 42
0.0
 53
0.00013888888889
  3
ME10_DIM_6
100
AcDbAlignedDimension
 13
-649.0543935974159
 23
-4223.766377374158
 33
0.0
 14
-589.554393597417
 24
-4347.670074101377
 34
0.0
100
AcDbRotatedDimension
  0
DIMENSION
  5
426
330
FC
100
AcDbEntity
  8
1
100
AcDbDimension
  2
*D768
 10
-949.5543935974183
 20
-4248.766377374158
 30
0.0
 11
-963.3043935974183
 21
-4287.266377374157
 31
0.0
  1
<>
 71
     5
 42
0.0
 53
90.0
  3
ME10_DIM_7
100
AcDbAlignedDimension
 13
-1119.554393597417
 23
-4325.766377374157
 33
0.0
 14
-996.554393597417
 24
-4248.766377374157
 34
0.0
 50
90.0
100
AcDbRotatedDimension
  0
DIMENSION
  5
431
330
FC
100
AcDbEntity
  8
1
100
AcDbDimension
  2
*D869
 10
-488.0543935974205
 20
-4190.766377374184
 30
0.0
 11
-501.8043935974205
 21
-4256.771377874285
 31
0.0
  1
<>
 71
     5
 42
0.0
 53
90.0
  3
ME10_DIM_8
100
AcDbAlignedDimension
 13
-596.0543935974164
 23
-4322.766377374184
 33
0.0
 14
-646.0543935974164
 24
-4190.766377374184
 34
0.0
 50
90.0
100
AcDbRotatedDimension
  0
DIMENSION
  5
43E
330
FC
100
AcDbEntity
  8
1
100
AcDbDimension
  2
*D970
 10
-596.0543935974174
 20
-4370.766377374172
 30
0.0
 11
-515.3283601430148
 21
-4357.016377374172
 31
0.0
  1
<>
 71
     5
 42
0.0
 53
0.00013888888889
  3
ME10_DIM_9
100
AcDbAlignedDimension
 13
-578.0543935974199
 23
-4300.086377374173
 33
0.0
 14
-596.0543935974164
 24
-4322.766377374184
 34
0.0
100
AcDbRotatedDimension
  0
DIMENSION
  5
449
330
FC
100
AcDbEntity
  8
1
100
AcDbDimension
  2
*D1071
 10
-1194.554393597418
 20
-4150.766377374183
 30
0.0
 11
-1119.554393597417
 21
-4137.016377374183
 31
0.0
  1
<>
 71
     5
 42
0.0
 53
0.00013888888889
  3
ME10_DIM_10
100
AcDbAlignedDimension
 13
-1044.554393597418
 23
-4190.766377374184
 33
0.0
 14
-1194.554393597418
 24
-4190.766377374183
 34
0.0
100
AcDbRotatedDimension
  0
DIMENSION
  5
454
330
FC
100
AcDbEntity
  8
1
100
AcDbDimension
  2
*D1172
 10
-795.0543935974159
 20
-4322.766377374184
 30
0.0
 11
-808.8043935974159
 21
-4293.899606525671
 31
0.0
  1
57
 71
     5
 42
0.0
 53
90.0
  3
ME10_DIM_11
100
AcDbAlignedDimension
 13
-714.4882343700868
 23
-4265.575237322361
 33
0.0
 14
-603.0543935974168
 24
-4322.766377374184
 34
0.0
 50
90.0
100
AcDbRotatedDimension
  0
DIMENSION
  5
45F
330
FC
100
AcDbEntity
  8
1
100
AcDbDimension
  2
*D1273
 10
-716.3052690666646
 20
-4400.62124235478
 30
0.0
 11
-657.409807388304
 21
-4386.87124235478
 31
0.0
  1
126
 71
     5
 42
0.0
 53
0.00013888888889
  3
ME10_DIM_12
100
AcDbAlignedDimension
 13
-589.554393597417
 23
-4347.670074101377
 33
0.0
 14
-716.3052690666638
 24
-4257.74000018594
 34
0.0
100
AcDbRotatedDimension
  0
DIMENSION
  5
46C
330
FC
100
AcDbEntity
  8
1
100
AcDbDimension
  2
*D1374
 10
-771.3660393854822
 20
-3810.079337057045
 30
0.0
 11
-765.3395848081178
 21
-3797.687874752526
 31
0.0
 70
     5
  1
<>
 71
     5
 42
0.0
  3
ME10_DIM_13
100
AcDb3PointAngularDimension
 13
-738.8706787811137
 23
-3728.614266905077
 33
0.0
 14
-736.7392256915748
 24
-3735.53123628836
 34
0.0
 15
-736.7392256915754
 25
-3726.482813815542
 35
0.0
  0
DIMENSION
  5
479
330
FC
100
AcDbEntity
  8
1
100
AcDbDimension
  2
*D1475
 10
-721.8905426968075
 20
-4312.919542557342
 30
0.0
 11
-743.1960225198729
 21
-4286.039339478273
 31
0.0
 70
     5
  1
<>
 71
     5
 42
0.0
  3
ME10_DIM_14
100
AcDb3PointAngularDimension
 13
-716.7851370016639
 23
-4269.261316960868
 33
0.0
 14
-715.5224056516809
 24
-4269.427558696874
 34
0.0
 15
-715.5224056516809
 25
-4264.54873940642
 35
0.0
  0
ENDBLK
  5
121
330
FC
100
AcDbEntity
  8
0
100
AcDbBlockEnd
  0
BLOCK
  5
123
330
122
100
AcDbEntity
  8
0
100
AcDbBlockBegin
  2
_J__A4
 70
     0
 71
     0
 10
0.0
 20
0.0
 30
0.0
  3
_J__A4
  1

  0
POINT
  5
47A
330
122
100
AcDbEntity
  8
1
 62
     4
100
AcDbPoint
 10
93.75
 20
17.0
 30
0.0
  0
POINT
  5
47B
330
122
100
AcDbEntity
  8
1
 62
     4
100
AcDbPoint
 10
85.25
 20
17.0
 30
0.0
  0
POINT
  5
47C
330
122
100
AcDbEntity
  8
1
 62
     4
100
AcDbPoint
 10
106.5
 20
19.00000000000001
 30
0.0
  0
POINT
  5
47D
330
122
100
AcDbEntity
  8
1
 62
     4
100
AcDbPoint
 10
106.5
 20
12.5
 30
0.0
  0
POINT
  5
47E
330
122
100
AcDbEntity
  8
1
 62
     4
100
AcDbPoint
 10
112.25
 20
12.5
 30
0.0
  0
POINT
  5
47F
330
122
100
AcDbEntity
  8
1
 62
     4
100
AcDbPoint
 10
100.75
 20
12.5
 30
0.0
  0
POINT
  5
480
330
122
100
AcDbEntity
  8
1
 62
     4
100
AcDbPoint
 10
123.5
 20
19.00000000000001
 30
0.0
  0
POINT
  5
481
330
122
100
AcDbEntity
  8
1
 62
     4
100
AcDbPoint
 10
123.5
 20
12.5
 30
0.0
  0
POINT
  5
482
330
122
100
AcDbEntity
  8
1
 62
     4
100
AcDbPoint
 10
129.25
 20
12.5
 30
0.0
  0
POINT
  5
483
330
122
100
AcDbEntity
  8
1
 62
     4
100
AcDbPoint
 10
117.75
 20
12.5
 30
0.0
  0
POINT
  5
484
330
122
100
AcDbEntity
  8
1
 62
     4
100
AcDbPoint
 10
140.5
 20
19.00000000000001
 30
0.0
  0
POINT
  5
485
330
122
100
AcDbEntity
  8
1
 62
     4
100
AcDbPoint
 10
140.5
 20
12.5
 30
0.0
  0
POINT
  5
486
330
122
100
AcDbEntity
  8
1
 62
     4
100
AcDbPoint
 10
146.25
 20
12.5
 30
0.0
  0
POINT
  5
487
330
122
100
AcDbEntity
  8
1
 62
     4
100
AcDbPoint
 10
134.75
 20
12.5
 30
0.0
  0
POINT
  5
488
330
122
100
AcDbEntity
  8
1
 62
     4
100
AcDbPoint
 10
151.75
 20
12.5
 30
0.0
  0
POINT
  5
489
330
122
100
AcDbEntity
  8
1
 62
     4
100
AcDbPoint
 10
163.25
 20
12.5
 30
0.0
  0
POINT
  5
48A
330
122
100
AcDbEntity
  8
1
 62
     4
100
AcDbPoint
 10
157.5
 20
12.5
 30
0.0
  0
POINT
  5
48B
330
122
100
AcDbEntity
  8
1
 62
     4
100
AcDbPoint
 10
57.0
 20
14.25
 30
0.0
  0
POINT
  5
48C
330
122
100
AcDbEntity
  8
1
 62
     4
100
AcDbPoint
 10
57.0
 20
22.75000000000001
 30
0.0
  0
POINT
  5
48D
330
122
100
AcDbEntity
  8
1
 62
     4
100
AcDbPoint
 10
47.5
 20
282.0000000000003
 30
0.0
  0
POINT
  5
48E
330
122
100
AcDbEntity
  8
1
 62
     4
100
AcDbPoint
 10
157.5
 20
19.00000000000001
 30
0.0
  0
POINT
  5
48F
330
122
100
AcDbEntity
  8
1
 62
     4
100
AcDbPoint
 10
57.0
 20
16.25
 30
0.0
  0
POINT
  5
490
330
122
100
AcDbEntity
  8
1
 62
     4
100
AcDbPoint
 10
57.0
 20
24.75000000000001
 30
0.0
  0
POINT
  5
491
330
122
100
AcDbEntity
  8
1
 62
     4
100
AcDbPoint
 10
57.0
 20
20.75000000000001
 30
0.0
  0
POINT
  5
492
330
122
100
AcDbEntity
  8
1
 62
     4
100
AcDbPoint
 10
57.0
 20
12.25
 30
0.0
  0
POINT
  5
493
330
122
100
AcDbEntity
  8
1
 62
     4
100
AcDbPoint
 10
34.0
 20
34.00000000000001
 30
0.0
  0
LINE
  5
494
330
122
100
AcDbEntity
  8
1
  6
Continuous
 62
     7
100
AcDbLine
 10
105.0
 20
10.0
 30
0.0
 11
200.0
 21
10.0
 31
0.0
  0
LINE
  5
495
330
122
100
AcDbEntity
  8
1
  6
Continuous
 62
     2
100
AcDbLine
 10
105.0
 20
10.0
 30
0.0
 11
105.0
 21
5.0
 31
0.0
  0
LINE
  5
496
330
122
100
AcDbEntity
  8
1
  6
Continuous
 62
     7
100
AcDbLine
 10
200.0
 20
148.5
 30
0.0
 11
200.0
 21
287.0000000000003
 31
0.0
  0
LINE
  5
497
330
122
100
AcDbEntity
  8
1
  6
Continuous
 62
     2
100
AcDbLine
 10
200.0
 20
148.5
 30
0.0
 11
205.0
 21
148.5
 31
0.0
  0
LINE
  5
498
330
122
100
AcDbEntity
  8
1
  6
Continuous
 62
     7
100
AcDbLine
 10
25.0
 20
148.5
 30
0.0
 11
25.0
 21
287.0000000000003
 31
0.0
  0
LINE
  5
499
330
122
100
AcDbEntity
  8
1
  6
Continuous
 62
     2
100
AcDbLine
 10
25.0
 20
148.5
 30
0.0
 11
20.0
 21
148.5
 31
0.0
  0
LINE
  5
49A
330
122
100
AcDbEntity
  8
1
  6
Continuous
 62
     7
100
AcDbLine
 10
105.0
 20
287.0000000000003
 30
0.0
 11
25.0
 21
287.0000000000003
 31
0.0
  0
LINE
  5
49B
330
122
100
AcDbEntity
  8
1
  6
Continuous
 62
     2
100
AcDbLine
 10
105.0
 20
287.0000000000003
 30
0.0
 11
105.0
 21
292.0000000000003
 31
0.0
  0
LINE
  5
49C
330
122
100
AcDbEntity
  8
1
  6
Continuous
 62
     2
100
AcDbLine
 10
166.0
 20
20.00000000000001
 30
0.0
 11
200.0
 21
20.00000000000001
 31
0.0
  0
LINE
  5
49D
330
122
100
AcDbEntity
  8
1
  6
Continuous
 62
     2
100
AcDbLine
 10
98.0
 20
27.00000000000001
 30
0.0
 11
98.0
 21
9.99999999999999
 31
0.0
  0
LINE
  5
49E
330
122
100
AcDbEntity
  8
1
  6
Continuous
 62
     2
100
AcDbLine
 10
115.0
 20
27.00000000000001
 30
0.0
 11
115.0
 21
9.99999999999999
 31
0.0
  0
LINE
  5
49F
330
122
100
AcDbEntity
  8
1
  6
Continuous
 62
     2
100
AcDbLine
 10
149.0
 20
27.00000000000001
 30
0.0
 11
149.0
 21
10.0
 31
0.0
  0
LINE
  5
4A0
330
122
100
AcDbEntity
  8
1
  6
Continuous
 62
     2
100
AcDbLine
 10
132.0
 20
27.00000000000001
 30
0.0
 11
132.0
 21
9.99999999999999
 31
0.0
  0
LINE
  5
4A1
330
122
100
AcDbEntity
  8
1
  6
Continuous
 62
     2
100
AcDbLine
 10
166.0
 20
27.00000000000001
 30
0.0
 11
166.0
 21
10.0
 31
0.0
  0
LINE
  5
4A2
330
122
100
AcDbEntity
  8
1
  6
Continuous
 62
     2
100
AcDbLine
 10
55.0
 20
277.0000000000003
 30
0.0
 11
25.0
 21
277.0000000000003
 31
0.0
  0
LINE
  5
4A3
330
122
100
AcDbEntity
  8
1
  6
Continuous
 62
     7
100
AcDbLine
 10
25.0
 20
10.0
 30
0.0
 11
25.0
 21
148.5
 31
0.0
  0
LINE
  5
4A4
330
122
100
AcDbEntity
  8
1
  6
Continuous
 62
     2
100
AcDbLine
 10
40.0
 20
287.0000000000003
 30
0.0
 11
40.0
 21
277.0000000000003
 31
0.0
  0
LINE
  5
4A5
330
122
100
AcDbEntity
  8
1
  6
Continuous
 62
     2
100
AcDbLine
 10
55.0
 20
287.0000000000003
 30
0.0
 11
55.0
 21
277.0000000000003
 31
0.0
  0
LINE
  5
4A6
330
122
100
AcDbEntity
  8
1
  6
Continuous
 62
     2
100
AcDbLine
 10
33.0
 20
41.00000000000001
 30
0.0
 11
33.0
 21
27.0
 31
0.0
  0
LINE
  5
4A7
330
122
100
AcDbEntity
  8
1
  6
Continuous
 62
     7
100
AcDbLine
 10
200.0
 20
27.00000000000001
 30
0.0
 11
25.0
 21
27.00000000000001
 31
0.0
  0
LINE
  5
4A8
330
122
100
AcDbEntity
  8
1
  6
Continuous
 62
     7
100
AcDbLine
 10
25.0
 20
41.0
 30
0.0
 11
200.0
 21
41.0
 31
0.0
  0
LINE
  5
4A9
330
122
100
AcDbEntity
  8
1
  6
PHANTOM
 62
     4
100
AcDbLine
 10
0.0
 20
0.0
 30
0.0
 11
210.0
 21
0.0
 31
0.0
  0
LINE
  5
4AA
330
122
100
AcDbEntity
  8
1
  6
PHANTOM
 62
     4
100
AcDbLine
 10
210.0
 20
0.0
 30
0.0
 11
210.0
 21
297.0
 31
0.0
  0
LINE
  5
4AB
330
122
100
AcDbEntity
  8
1
  6
PHANTOM
 62
     4
100
AcDbLine
 10
210.0
 20
297.0
 30
0.0
 11
0.0
 21
297.0
 31
0.0
  0
LINE
  5
4AC
330
122
100
AcDbEntity
  8
1
  6
PHANTOM
 62
     4
100
AcDbLine
 10
0.0
 20
297.0
 30
0.0
 11
0.0
 21
0.0
 31
0.0
  0
LINE
  5
4AD
330
122
100
AcDbEntity
  8
1
  6
Continuous
 62
     7
100
AcDbLine
 10
25.0
 20
10.0
 30
0.0
 11
105.0
 21
10.0
 31
0.0
  0
LINE
  5
4AE
330
122
100
AcDbEntity
  8
1
  6
Continuous
 62
     7
100
AcDbLine
 10
200.0
 20
10.0
 30
0.0
 11
200.0
 21
148.5
 31
0.0
  0
LINE
  5
4AF
330
122
100
AcDbEntity
  8
1
  6
Continuous
 62
     7
100
AcDbLine
 10
200.0
 20
287.0000000000003
 30
0.0
 11
105.0
 21
287.0000000000003
 31
0.0
  0
LINE
  5
4B0
330
122
100
AcDbEntity
  8
1
  6
Continuous
 62
     2
100
AcDbLine
 10
25.0
 20
18.50000000000001
 30
0.0
 11
81.0
 21
18.50000000000001
 31
0.0
  0
LINE
  5
4B1
330
122
100
AcDbEntity
  8
1
  6
Continuous
 62
     2
100
AcDbLine
 10
33.0
 20
27.0
 30
0.0
 11
33.0
 21
10.0
 31
0.0
  0
LINE
  5
4B2
330
122
100
AcDbEntity
  8
1
  6
Continuous
 62
     7
100
AcDbLine
 10
191.0
 20
24.70000000000001
 30
0.0
 11
191.0
 21
22.30000000000001
 31
0.0
  0
LINE
  5
4B3
330
122
100
AcDbEntity
  8
1
  6
Continuous
 62
     7
100
AcDbLine
 10
191.0
 20
24.70000000000001
 30
0.0
 11
196.0
 21
25.50000000000001
 31
0.0
  0
LINE
  5
4B4
330
122
100
AcDbEntity
  8
1
  6
Continuous
 62
     7
100
AcDbLine
 10
196.0
 20
25.50000000000001
 30
0.0
 11
196.0
 21
21.50000000000001
 31
0.0
  0
LINE
  5
4B5
330
122
100
AcDbEntity
  8
1
  6
Continuous
 62
     7
100
AcDbLine
 10
196.0
 20
21.50000000000001
 30
0.0
 11
191.0
 21
22.30000000000001
 31
0.0
  0
LINE
  5
4B6
330
122
100
AcDbEntity
  8
1
  6
DOT_CENTER
 62
     2
100
AcDbLine
 10
184.0
 20
23.50000000000001
 30
0.0
 11
197.0
 21
23.50000000000001
 31
0.0
  0
LINE
  5
4B7
330
122
100
AcDbEntity
  8
1
  6
DOT_CENTER
 62
     2
100
AcDbLine
 10
187.0
 20
26.50000000000001
 30
0.0
 11
187.0
 21
20.50000000000001
 31
0.0
  0
LINE
  5
4B8
330
122
100
AcDbEntity
  8
1
  6
Continuous
 62
     2
100
AcDbLine
 10
81.0
 20
27.00000000000001
 30
0.0
 11
81.0
 21
10.0
 31
0.0
  0
CIRCLE
  5
4B9
330
122
100
AcDbEntity
  8
1
  6
Continuous
 62
     7
100
AcDbCircle
 10
103.5
 20
12.5
 30
0.0
 40
0.2999999999999972
  0
CIRCLE
  5
4BA
330
122
100
AcDbEntity
  8
1
  6
Continuous
 62
     7
100
AcDbCircle
 10
109.5
 20
12.5
 30
0.0
 40
0.2999999999999972
  0
CIRCLE
  5
4BB
330
122
100
AcDbEntity
  8
1
  6
Continuous
 62
     7
100
AcDbCircle
 10
120.5
 20
12.5
 30
0.0
 40
0.2999999999999972
  0
CIRCLE
  5
4BC
330
122
100
AcDbEntity
  8
1
  6
Continuous
 62
     7
100
AcDbCircle
 10
126.5
 20
12.5
 30
0.0
 40
0.2999999999999972
  0
CIRCLE
  5
4BD
330
122
100
AcDbEntity
  8
1
  6
Continuous
 62
     7
100
AcDbCircle
 10
137.5
 20
12.5
 30
0.0
 40
0.3000000000000114
  0
CIRCLE
  5
4BE
330
122
100
AcDbEntity
  8
1
  6
Continuous
 62
     7
100
AcDbCircle
 10
143.5
 20
12.5
 30
0.0
 40
0.3000000000000114
  0
CIRCLE
  5
4BF
330
122
100
AcDbEntity
  8
1
  6
Continuous
 62
     7
100
AcDbCircle
 10
160.5
 20
12.5
 30
0.0
 40
0.3000000000000114
  0
CIRCLE
  5
4C0
330
122
100
AcDbEntity
  8
1
  6
Continuous
 62
     7
100
AcDbCircle
 10
154.5
 20
12.5
 30
0.0
 40
0.3000000000000114
  0
CIRCLE
  5
4C1
330
122
100
AcDbEntity
  8
1
  6
Continuous
 62
     7
100
AcDbCircle
 10
187.0
 20
23.50000000000001
 30
0.0
 40
1.200000000000102
  0
CIRCLE
  5
4C2
330
122
100
AcDbEntity
  8
1
  6
Continuous
 62
     7
100
AcDbCircle
 10
187.0
 20
23.50000000000001
 30
0.0
 40
2.0
  0
CIRCLE
  5
4C3
330
122
100
AcDbEntity
  8
1
  6
DOT_CENTER
 62
     7
100
AcDbCircle
 10
89.5
 20
16.0
 30
0.0
 40
0.1000000000000227
  0
CIRCLE
  5
4C4
330
122
100
AcDbEntity
  8
1
  6
DOT_CENTER
 62
     7
100
AcDbCircle
 10
89.5
 20
18.0
 30
0.0
 40
0.1000000000000227
  0
MTEXT
  5
4C5
330
122
100
AcDbEntity
  8
1
 62
     7
100
AcDbMText
 10
188.5
 20
15.0
 30
0.0
 40
3.0
 41
0.0
 71
     5
 72
     1
  1
三栄水栓製作所
  7
CONVERTER_1
 73
     1
 44
1.32052821128451
  0
MTEXT
  5
4C6
330
122
100
AcDbEntity
  8
1
 62
     7
100
AcDbMText
 10
171.5
 20
15.0
 30
0.0
 40
2.5
 41
0.0
 71
     5
 72
     1
  1
株式会社
  7
CONVERTER_1
 73
     1
 44
1.32052821128451
  0
MTEXT
  5
4C7
330
122
100
AcDbEntity
  8
1
 62
     2
100
AcDbMText
 10
32.5
 20
282.0000000000003
 30
0.0
 40
5.0
 41
0.0
 71
     5
 72
     1
  1
図番
  7
CONVERTER_1
 73
     1
 44
0.60024009603842
  0
MTEXT
  5
4C8
330
122
100
AcDbEntity
  8
1
 62
     2
100
AcDbMText
 10
29.0
 20
34.00000000000001
 30
0.0
 40
3.5
 41
0.0
 71
     5
 72
     1
  1
備考
  7
CONVERTER_1
 73
     1
 44
0.60024009603842
  0
MTEXT
  5
4C9
330
122
100
AcDbEntity
  8
1
 62
     2
100
AcDbMText
 10
29.0
 20
22.75
 30
0.0
 40
3.5
 41
0.0
 71
     5
 72
     1
  1
品名
  7
CONVERTER_1
 73
     1
 44
0.96038415366146
  0
MTEXT
  5
4CA
330
122
100
AcDbEntity
  8
1
 62
     2
100
AcDbMText
 10
29.0
 20
14.25
 30
0.0
 40
3.5
 41
0.0
 71
     5
 72
     1
  1
品番
  7
CONVERTER_1
 73
     1
 44
0.96038415366146
  0
MTEXT
  5
4CB
330
122
100
AcDbEntity
  8
1
 62
     2
100
AcDbMText
 10
101.5
 20
25.00000000000001
 30
0.0
 40
3.0
 41
0.0
 71
     5
 72
     1
  1
承認
  7
CONVERTER_1
 73
     1
 44
0.78031212484994
  0
MTEXT
  5
4CC
330
122
100
AcDbEntity
  8
1
 62
     2
100
AcDbMText
 10
175.0
 20
23.50000000000001
 30
0.0
 40
3.5
 41
0.0
 71
     5
 72
     1
  1
第三角法
  7
CONVERTER_1
 73
     1
 44
0.7202881152461
  0
MTEXT
  5
4CD
330
122
100
AcDbEntity
  8
1
 62
     2
100
AcDbMText
 10
118.5
 20
25.00000000000001
 30
0.0
 40
3.0
 41
0.0
 71
     5
 72
     1
  1
検図
  7
CONVERTER_1
 73
     1
 44
0.78031212484994
  0
MTEXT
  5
4CE
330
122
100
AcDbEntity
  8
1
 62
     2
100
AcDbMText
 10
152.5
 20
25.00000000000001
 30
0.0
 40
3.0
 41
0.0
 71
     5
 72
     1
  1
設計
  7
CONVERTER_1
 73
     1
 44
0.78031212484994
  0
MTEXT
  5
4CF
330
122
100
AcDbEntity
  8
1
 62
     2
100
AcDbMText
 10
135.5
 20
25.00000000000001
 30
0.0
 40
3.0
 41
0.0
 71
     5
 72
     1
  1
製図
  7
CONVERTER_1
 73
     1
 44
0.78031212484994
  0
MTEXT
  5
4D0
330
122
100
AcDbEntity
  8
1
 62
     2
100
AcDbMText
 10
89.5
 20
24.00000000000001
 30
0.0
 40
3.5
 41
0.0
 71
     5
 72
     1
  1
尺度
  7
CONVERTER_1
 73
     1
 44
0.7202881152461
  0
MTEXT
  5
4D1
330
122
100
AcDbEntity
  8
1
 62
   250
100
AcDbMText
 10
25.0
 20
5.0
 30
0.0
 40
3.5
 41
0.0
 71
     4
 72
     1
  1
備考欄の文字列 原点位置=4
  7
CONVERTER_1
 73
     1
 44
0.7202881152461
  0
ENDBLK
  5
124
330
122
100
AcDbEntity
  8
0
100
AcDbBlockEnd
  0
BLOCK
  5
3D2
330
3CB
100
AcDbEntity
  8
0
100
AcDbBlockBegin
  2
*D061
 70
     1
 71
     0
 10
0.0
 20
0.0
 30
0.0
  3
*D061
  1

  0
LINE
  5
3CC
330
3CB
100
AcDbEntity
  8
1
  6
Continuous
 62
     2
100
AcDbLine
 10
-1164.554393597417
 20
-3315.670074101378
 30
0.0
 11
-1074.55439359742
 21
-3315.670074101378
 31
0.0
  0
LINE
  5
3CD
330
3CB
100
AcDbEntity
  8
1
  6
Continuous
 62
     2
100
AcDbLine
 10
-1164.554393597417
 20
-3362.670074101379
 30
0.0
 11
-1164.554393597417
 21
-3310.670074101378
 31
0.0
  0
LINE
  5
3CE
330
3CB
100
AcDbEntity
  8
1
  6
Continuous
 62
     2
100
AcDbLine
 10
-1074.55439359742
 20
-3362.670074101379
 30
0.0
 11
-1074.55439359742
 21
-3310.670074101378
 31
0.0
  0
SOLID
  5
3CF
330
3CB
100
AcDbEntity
  8
1
 62
     2
100
AcDbTrace
 10
-1147.054393597417
 20
-3313.366155393599
 30
0.0
 11
-1147.054393597417
 21
-3317.973992809157
 31
0.0
 12
-1164.554393597417
 22
-3315.670074101378
 32
0.0
 13
-1164.554393597417
 23
-3315.670074101378
 33
0.0
  0
SOLID
  5
3D0
330
3CB
100
AcDbEntity
  8
1
 62
     2
100
AcDbTrace
 10
-1092.05439359742
 20
-3317.973992809157
 30
0.0
 11
-1092.05439359742
 21
-3313.366155393599
 31
0.0
 12
-1074.55439359742
 22
-3315.670074101378
 32
0.0
 13
-1074.55439359742
 23
-3315.670074101378
 33
0.0
  0
MTEXT
  5
3D1
330
3CB
100
AcDbEntity
  8
1
 62
     7
100
AcDbMText
 10
-1209.319671374858
 20
-3310.670352384431
 30
0.0
 40
17.5
 41
0.0
 71
     7
 72
     1
  1
\C7;取付寸法\C7;90
  7
CONVERTER_1
 11
0.9999999999970621
 21
2.424068405545307E-6
 31
0.0
 73
     1
 44
0.60024009603842
  0
ENDBLK
  5
3D3
330
3CB
100
AcDbEntity
  8
0
100
AcDbBlockEnd
  0
BLOCK
  5
3DD
330
3D6
100
AcDbEntity
  8
0
100
AcDbBlockBegin
  2
*D162
 70
     1
 71
     0
 10
0.0
 20
0.0
 30
0.0
  3
*D162
  1

  0
LINE
  5
3D7
330
3D6
100
AcDbEntity
  8
1
  6
Continuous
 62
     2
100
AcDbLine
 10
-528.0543935974205
 20
-4190.766377374184
 30
0.0
 11
-528.0543935974205
 21
-4290.766377374172
 31
0.0
  0
LINE
  5
3D8
330
3D6
100
AcDbEntity
  8
1
  6
Continuous
 62
     2
100
AcDbLine
 10
-646.0543935974174
 20
-4190.766377374184
 30
0.0
 11
-523.0543935974205
 21
-4190.766377374184
 31
0.0
  0
LINE
  5
3D9
330
3D6
100
AcDbEntity
  8
1
  6
Continuous
 62
     2
100
AcDbLine
 10
-574.554393597417
 20
-4290.766377374172
 30
0.0
 11
-523.0543935974205
 21
-4290.766377374172
 31
0.0
  0
SOLID
  5
3DA
330
3D6
100
AcDbEntity
  8
1
 62
     2
100
AcDbTrace
 10
-525.7504748896411
 20
-4208.266377374184
 30
0.0
 11
-530.3583123051999
 21
-4208.266377374184
 31
0.0
 12
-528.0543935974205
 22
-4190.766377374184
 32
0.0
 13
-528.0543935974205
 23
-4190.766377374184
 33
0.0
  0
SOLID
  5
3DB
330
3D6
100
AcDbEntity
  8
1
 62
     2
100
AcDbTrace
 10
-530.3583123051999
 20
-4273.266377374172
 30
0.0
 11
-525.7504748896411
 21
-4273.266377374172
 31
0.0
 12
-528.0543935974205
 22
-4290.766377374172
 32
0.0
 13
-528.0543935974205
 23
-4290.766377374172
 33
0.0
  0
MTEXT
  5
3DC
330
3D6
100
AcDbEntity
  8
1
 62
     7
100
AcDbMText
 10
-533.0543935974205
 20
-4259.146377874278
 30
0.0
 40
17.5
 41
0.0
 71
     7
 72
     1
  1
100
  7
CONVERTER_2
 11
0.0
 21
1.0
 31
0.0
 73
     1
 44
0.60024009603842
  0
ENDBLK
  5
3DE
330
3D6
100
AcDbEntity
  8
0
100
AcDbBlockEnd
  0
BLOCK
  5
3EA
330
3E1
100
AcDbEntity
  8
0
100
AcDbBlockBegin
  2
*D263
 70
     1
 71
     0
 10
0.0
 20
0.0
 30
0.0
  3
*D263
  1

  0
LINE
  5
3E2
330
3E1
100
AcDbEntity
  8
1
  6
Continuous
 62
     2
100
AcDbLine
 10
-589.554393597417
 20
-3655.300439790013
 30
0.0
 11
-554.554393597417
 21
-3655.300439790013
 31
0.0
  0
LINE
  5
3E3
330
3E1
100
AcDbEntity
  8
1
  6
Continuous
 62
     2
100
AcDbLine
 10
-627.0543935974172
 20
-3655.300439790013
 30
0.0
 11
-589.554393597417
 21
-3655.300439790013
 31
0.0
  0
LINE
  5
3E4
330
3E1
100
AcDbEntity
  8
1
  6
Continuous
 62
     2
100
AcDbLine
 10
-662.0543935974172
 20
-3655.300439790013
 30
0.0
 11
-627.0543935974172
 21
-3655.300439790013
 31
0.0
  0
LINE
  5
3E5
330
3E1
100
AcDbEntity
  8
1
  6
Continuous
 62
     2
100
AcDbLine
 10
-627.0543935974172
 20
-3882.271224475549
 30
0.0
 11
-627.0543935974172
 21
-3650.300439790013
 31
0.0
  0
LINE
  5
3E6
330
3E1
100
AcDbEntity
  8
1
  6
Continuous
 62
     2
100
AcDbLine
 10
-589.554393597417
 20
-3827.670074101377
 30
0.0
 11
-589.554393597417
 21
-3650.300439790013
 31
0.0
  0
SOLID
  5
3E7
330
3E1
100
AcDbEntity
  8
1
 62
     2
100
AcDbTrace
 10
-644.5543935974172
 20
-3657.604358497792
 30
0.0
 11
-644.5543935974172
 21
-3652.996521082234
 31
0.0
 12
-627.0543935974172
 22
-3655.300439790013
 32
0.0
 13
-627.0543935974172
 23
-3655.300439790013
 33
0.0
  0
SOLID
  5
3E8
330
3E1
100
AcDbEntity
  8
1
 62
     2
100
AcDbTrace
 10
-572.054393597417
 20
-3652.996521082234
 30
0.0
 11
-572.054393597417
 21
-3657.604358497792
 31
0.0
 12
-589.554393597417
 22
-3655.300439790013
 32
0.0
 13
-589.554393597417
 23
-3655.300439790013
 33
0.0
  0
MTEXT
  5
3E9
330
3E1
100
AcDbEntity
  8
1
 62
     7
100
AcDbMText
 10
-621.4293935974168
 20
-3650.300439790013
 30
0.0
 40
17.5
 41
0.0
 71
     7
 72
     1
  1
38
  7
CONVERTER_2
 11
0.9999999999970621
 21
2.424068405545307E-6
 31
0.0
 73
     1
 44
0.60024009603842
  0
ENDBLK
  5
3EB
330
3E1
100
AcDbEntity
  8
0
100
AcDbBlockEnd
  0
BLOCK
  5
3F5
330
3EE
100
AcDbEntity
  8
0
100
AcDbBlockBegin
  2
*D364
 70
     1
 71
     0
 10
0.0
 20
0.0
 30
0.0
  3
*D364
  1

  0
LINE
  5
3EF
330
3EE
100
AcDbEntity
  8
1
  6
Continuous
 62
     2
100
AcDbLine
 10
-736.7392256915755
 20
-3615.300439790013
 30
0.0
 11
-589.554393597417
 21
-3615.300439790013
 31
0.0
  0
LINE
  5
3F0
330
3EE
100
AcDbEntity
  8
1
  6
Continuous
 62
     2
100
AcDbLine
 10
-736.7392256915755
 20
-3726.482813815543
 30
0.0
 11
-736.7392256915755
 21
-3610.300439790013
 31
0.0
  0
LINE
  5
3F1
330
3EE
100
AcDbEntity
  8
1
  6
Continuous
 62
     2
100
AcDbLine
 10
-589.554393597417
 20
-3827.670074101377
 30
0.0
 11
-589.554393597417
 21
-3610.300439790013
 31
0.0
  0
SOLID
  5
3F2
330
3EE
100
AcDbEntity
  8
1
 62
     2
100
AcDbTrace
 10
-719.2392256915755
 20
-3612.996521082234
 30
0.0
 11
-719.2392256915755
 21
-3617.604358497792
 31
0.0
 12
-736.7392256915755
 22
-3615.300439790013
 32
0.0
 13
-736.7392256915755
 23
-3615.300439790013
 33
0.0
  0
SOLID
  5
3F3
330
3EE
100
AcDbEntity
  8
1
 62
     2
100
AcDbTrace
 10
-607.054393597417
 20
-3617.604358497792
 30
0.0
 11
-607.054393597417
 21
-3612.996521082234
 31
0.0
 12
-589.554393597417
 22
-3615.300439790013
 32
0.0
 13
-589.554393597417
 23
-3615.300439790013
 33
0.0
  0
MTEXT
  5
3F4
330
3EE
100
AcDbEntity
  8
1
 62
     7
100
AcDbMText
 10
-681.5218096444962
 20
-3610.300439790013
 30
0.0
 40
17.5
 41
0.0
 71
     7
 72
     1
  1
147
  7
CONVERTER_2
 11
0.9999999999970621
 21
2.424068405545307E-6
 31
0.0
 73
     1
 44
0.60024009603842
  0
ENDBLK
  5
3F6
330
3EE
100
AcDbEntity
  8
0
100
AcDbBlockEnd
  0
BLOCK
  5
402
330
3F9
100
AcDbEntity
  8
0
100
AcDbBlockBegin
  2
*D465
 70
     1
 71
     0
 10
0.0
 20
0.0
 30
0.0
  3
*D465
  1

  0
LINE
  5
3FA
330
3F9
100
AcDbEntity
  8
1
  6
Continuous
 62
     2
100
AcDbLine
 10
-501.5543935974173
 20
-3928.266377374179
 30
0.0
 11
-501.5543935974173
 21
-3963.266377374179
 31
0.0
  0
LINE
  5
3FB
330
3F9
100
AcDbEntity
  8
1
  6
Continuous
 62
     2
100
AcDbLine
 10
-501.5543935974173
 20
-3907.266377374175
 30
0.0
 11
-501.5543935974173
 21
-3928.266377374179
 31
0.0
  0
LINE
  5
3FC
330
3F9
100
AcDbEntity
  8
1
  6
Continuous
 62
     2
100
AcDbLine
 10
-501.5543935974173
 20
-3813.923482013269
 30
0.0
 11
-501.5543935974173
 21
-3907.266377374175
 31
0.0
  0
LINE
  5
3FD
330
3F9
100
AcDbEntity
  8
1
  6
Continuous
 62
     2
100
AcDbLine
 10
-548.6883466447546
 20
-3907.266377374175
 30
0.0
 11
-496.5543935974173
 21
-3907.266377374175
 31
0.0
  0
LINE
  5
3FE
330
3F9
100
AcDbEntity
  8
1
  6
Continuous
 62
     2
100
AcDbLine
 10
-548.5543935974172
 20
-3928.266377374179
 30
0.0
 11
-496.5543935974173
 21
-3928.266377374179
 31
0.0
  0
SOLID
  5
3FF
330
3F9
100
AcDbEntity
  8
1
 62
     2
100
AcDbTrace
 10
-503.8583123051967
 20
-3889.766377374175
 30
0.0
 11
-499.2504748896379
 21
-3889.766377374175
 31
0.0
 12
-501.5543935974173
 22
-3907.266377374175
 32
0.0
 13
-501.5543935974173
 23
-3907.266377374175
 33
0.0
  0
SOLID
  5
400
330
3F9
100
AcDbEntity
  8
1
 62
     2
100
AcDbTrace
 10
-499.2504748896379
 20
-3945.766377374179
 30
0.0
 11
-503.8583123051967
 21
-3945.766377374179
 31
0.0
 12
-501.5543935974173
 22
-3928.266377374179
 32
0.0
 13
-501.5543935974173
 23
-3928.266377374179
 33
0.0
  0
MTEXT
  5
401
330
3F9
100
AcDbEntity
  8
1
 62
     7
100
AcDbMText
 10
-506.5543935974173
 20
-3897.573482013269
 30
0.0
 40
17.5
 41
0.0
 71
     7
 72
     1
  1
\C7;17～\C7;25
  7
CONVERTER_1
 11
0.0
 21
1.0
 31
0.0
 73
     1
 44
0.60024009603842
  0
ENDBLK
  5
403
330
3F9
100
AcDbEntity
  8
0
100
AcDbBlockEnd
  0
BLOCK
  5
40D
330
406
100
AcDbEntity
  8
0
100
AcDbBlockBegin
  2
*D566
 70
     1
 71
     0
 10
0.0
 20
0.0
 30
0.0
  3
*D566
  1

  0
LINE
  5
407
330
406
100
AcDbEntity
  8
1
  6
Continuous
 62
     2
100
AcDbLine
 10
-999.5543935974183
 20
-4110.766377374183
 30
0.0
 11
-1239.554393597418
 21
-4110.766377374183
 31
0.0
  0
LINE
  5
408
330
406
100
AcDbEntity
  8
1
  6
Continuous
 62
     2
100
AcDbLine
 10
-999.5543935974183
 20
-4248.766377374157
 30
0.0
 11
-999.5543935974183
 21
-4105.766377374183
 31
0.0
  0
LINE
  5
409
330
406
100
AcDbEntity
  8
1
  6
Continuous
 62
     2
100
AcDbLine
 10
-1239.554393597418
 20
-4248.766377374158
 30
0.0
 11
-1239.554393597418
 21
-4105.766377374183
 31
0.0
  0
SOLID
  5
40A
330
406
100
AcDbEntity
  8
1
 62
     2
100
AcDbTrace
 10
-1017.054393597418
 20
-4113.070296081963
 30
0.0
 11
-1017.054393597418
 21
-4108.462458666404
 31
0.0
 12
-999.5543935974183
 22
-4110.766377374183
 32
0.0
 13
-999.5543935974183
 23
-4110.766377374183
 33
0.0
  0
SOLID
  5
40B
330
406
100
AcDbEntity
  8
1
 62
     2
100
AcDbTrace
 10
-1222.054393597418
 20
-4108.462458666404
 30
0.0
 11
-1222.054393597418
 21
-4113.070296081963
 31
0.0
 12
-1239.554393597418
 22
-4110.766377374183
 32
0.0
 13
-1239.554393597418
 23
-4110.766377374183
 33
0.0
  0
MTEXT
  5
40C
330
406
100
AcDbEntity
  8
1
 62
     7
100
AcDbMText
 10
-1140.554393597417
 20
-4105.766377374183
 30
0.0
 40
17.5
 41
0.0
 71
     7
 72
     1
  1
240
  7
CONVERTER_2
 11
0.9999999999970621
 21
2.424068405545307E-6
 31
0.0
 73
     1
 44
0.60024009603842
  0
ENDBLK
  5
40E
330
406
100
AcDbEntity
  8
0
100
AcDbBlockEnd
  0
BLOCK
  5
418
330
411
100
AcDbEntity
  8
0
100
AcDbBlockBegin
  2
*D667
 70
     1
 71
     0
 10
0.0
 20
0.0
 30
0.0
  3
*D667
  1

  0
LINE
  5
412
330
411
100
AcDbEntity
  8
1
  6
Continuous
 62
     2
100
AcDbLine
 10
-589.554393597417
 20
-4168.766377374156
 30
0.0
 11
-649.0543935974159
 21
-4168.766377374156
 31
0.0
  0
LINE
  5
413
330
411
100
AcDbEntity
  8
1
  6
Continuous
 62
     2
100
AcDbLine
 10
-649.0543935974159
 20
-4223.766377374158
 30
0.0
 11
-649.0543935974159
 21
-4163.766377374156
 31
0.0
  0
LINE
  5
414
330
411
100
AcDbEntity
  8
1
  6
Continuous
 62
     2
100
AcDbLine
 10
-589.554393597417
 20
-4347.670074101377
 30
0.0
 11
-589.554393597417
 21
-4163.766377374156
 31
0.0
  0
SOLID
  5
415
330
411
100
AcDbEntity
  8
1
 62
     2
100
AcDbTrace
 10
-607.054393597417
 20
-4171.070296081935
 30
0.0
 11
-607.054393597417
 21
-4166.462458666377
 31
0.0
 12
-589.554393597417
 22
-4168.766377374156
 32
0.0
 13
-589.554393597417
 23
-4168.766377374156
 33
0.0
  0
SOLID
  5
416
330
411
100
AcDbEntity
  8
1
 62
     2
100
AcDbTrace
 10
-631.5543935974159
 20
-4166.462458666377
 30
0.0
 11
-631.5543935974159
 21
-4171.070296081935
 31
0.0
 12
-649.0543935974159
 22
-4168.766377374156
 32
0.0
 13
-649.0543935974159
 23
-4168.766377374156
 33
0.0
  0
MTEXT
  5
417
330
411
100
AcDbEntity
  8
1
 62
     7
100
AcDbMText
 10
-630.81536602759
 20
-4163.766377374156
 30
0.0
 40
17.5
 41
0.0
 71
     7
 72
     1
  1
60
  7
CONVERTER_2
 11
0.9999999999970621
 21
2.424068405545307E-6
 31
0.0
 73
     1
 44
0.60024009603842
  0
ENDBLK
  5
419
330
411
100
AcDbEntity
  8
0
100
AcDbBlockEnd
  0
BLOCK
  5
423
330
41C
100
AcDbEntity
  8
0
100
AcDbBlockBegin
  2
*D768
 70
     1
 71
     0
 10
0.0
 20
0.0
 30
0.0
  3
*D768
  1

  0
LINE
  5
41D
330
41C
100
AcDbEntity
  8
1
  6
Continuous
 62
     2
100
AcDbLine
 10
-949.5543935974183
 20
-4248.766377374158
 30
0.0
 11
-949.5543935974183
 21
-4325.766377374158
 31
0.0
  0
LINE
  5
41E
330
41C
100
AcDbEntity
  8
1
  6
Continuous
 62
     2
100
AcDbLine
 10
-996.554393597417
 20
-4248.766377374158
 30
0.0
 11
-944.5543935974183
 21
-4248.766377374158
 31
0.0
  0
LINE
  5
41F
330
41C
100
AcDbEntity
  8
1
  6
Continuous
 62
     2
100
AcDbLine
 10
-1119.554393597417
 20
-4325.766377374158
 30
0.0
 11
-944.5543935974183
 21
-4325.766377374158
 31
0.0
  0
SOLID
  5
420
330
41C
100
AcDbEntity
  8
1
 62
     2
100
AcDbTrace
 10
-947.2504748896389
 20
-4266.266377374158
 30
0.0
 11
-951.8583123051977
 21
-4266.266377374158
 31
0.0
 12
-949.5543935974183
 22
-4248.766377374158
 32
0.0
 13
-949.5543935974183
 23
-4248.766377374158
 33
0.0
  0
SOLID
  5
421
330
41C
100
AcDbEntity
  8
1
 62
     2
100
AcDbTrace
 10
-951.8583123051977
 20
-4308.266377374158
 30
0.0
 11
-947.2504748896389
 21
-4308.266377374158
 31
0.0
 12
-949.5543935974183
 22
-4325.766377374158
 32
0.0
 13
-949.5543935974183
 23
-4325.766377374158
 33
0.0
  0
MTEXT
  5
422
330
41C
100
AcDbEntity
  8
1
 62
     7
100
AcDbMText
 10
-954.5543935974183
 20
-4300.391377374157
 30
0.0
 40
17.5
 41
0.0
 71
     7
 72
     1
  1
77
  7
CONVERTER_2
 11
0.0
 21
1.0
 31
0.0
 73
     1
 44
0.60024009603842
  0
ENDBLK
  5
424
330
41C
100
AcDbEntity
  8
0
100
AcDbBlockEnd
  0
BLOCK
  5
42E
330
427
100
AcDbEntity
  8
0
100
AcDbBlockBegin
  2
*D869
 70
     1
 71
     0
 10
0.0
 20
0.0
 30
0.0
  3
*D869
  1

  0
LINE
  5
428
330
427
100
AcDbEntity
  8
1
  6
Continuous
 62
     2
100
AcDbLine
 10
-488.0543935974205
 20
-4190.766377374184
 30
0.0
 11
-488.0543935974205
 21
-4322.766377374184
 31
0.0
  0
LINE
  5
429
330
427
100
AcDbEntity
  8
1
  6
Continuous
 62
     2
100
AcDbLine
 10
-646.0543935974174
 20
-4190.766377374184
 30
0.0
 11
-483.0543935974205
 21
-4190.766377374184
 31
0.0
  0
LINE
  5
42A
330
427
100
AcDbEntity
  8
1
  6
Continuous
 62
     2
100
AcDbLine
 10
-596.0543935974174
 20
-4322.766377374184
 30
0.0
 11
-483.0543935974205
 21
-4322.766377374184
 31
0.0
  0
SOLID
  5
42B
330
427
100
AcDbEntity
  8
1
 62
     2
100
AcDbTrace
 10
-485.7504748896411
 20
-4208.266377374184
 30
0.0
 11
-490.3583123052
 21
-4208.266377374184
 31
0.0
 12
-488.0543935974205
 22
-4190.766377374184
 32
0.0
 13
-488.0543935974205
 23
-4190.766377374184
 33
0.0
  0
SOLID
  5
42C
330
427
100
AcDbEntity
  8
1
 62
     2
100
AcDbTrace
 10
-490.3583123052
 20
-4305.266377374184
 30
0.0
 11
-485.7504748896411
 21
-4305.266377374184
 31
0.0
 12
-488.0543935974205
 22
-4322.766377374184
 32
0.0
 13
-488.0543935974205
 23
-4322.766377374184
 33
0.0
  0
MTEXT
  5
42D
330
427
100
AcDbEntity
  8
1
 62
     7
100
AcDbMText
 10
-493.0543935974205
 20
-4275.146377874285
 30
0.0
 40
17.5
 41
0.0
 71
     7
 72
     1
  1
132
  7
CONVERTER_2
 11
0.0
 21
1.0
 31
0.0
 73
     1
 44
0.60024009603842
  0
ENDBLK
  5
42F
330
427
100
AcDbEntity
  8
0
100
AcDbBlockEnd
  0
BLOCK
  5
43B
330
432
100
AcDbEntity
  8
0
100
AcDbBlockBegin
  2
*D970
 70
     1
 71
     0
 10
0.0
 20
0.0
 30
0.0
  3
*D970
  1

  0
LINE
  5
433
330
432
100
AcDbEntity
  8
1
  6
Continuous
 62
     2
100
AcDbLine
 10
-631.0543935974174
 20
-4370.766377374172
 30
0.0
 11
-596.0543935974174
 21
-4370.766377374172
 31
0.0
  0
LINE
  5
434
330
432
100
AcDbEntity
  8
1
  6
Continuous
 62
     2
100
AcDbLine
 10
-596.0543935974174
 20
-4370.766377374172
 30
0.0
 11
-578.0543935974206
 21
-4370.766377374172
 31
0.0
  0
LINE
  5
435
330
432
100
AcDbEntity
  8
1
  6
Continuous
 62
     2
100
AcDbLine
 10
-578.0543935974206
 20
-4370.766377374172
 30
0.0
 11
-478.5783601430148
 21
-4370.766377374172
 31
0.0
  0
LINE
  5
436
330
432
100
AcDbEntity
  8
1
  6
Continuous
 62
     2
100
AcDbLine
 10
-578.0543935974206
 20
-4300.086377374174
 30
0.0
 11
-578.0543935974206
 21
-4375.766377374172
 31
0.0
  0
LINE
  5
437
330
432
100
AcDbEntity
  8
1
  6
Continuous
 62
     2
100
AcDbLine
 10
-596.0543935974174
 20
-4322.766377374185
 30
0.0
 11
-596.0543935974174
 21
-4375.766377374172
 31
0.0
  0
SOLID
  5
438
330
432
100
AcDbEntity
  8
1
 62
     2
100
AcDbTrace
 10
-613.5543935974174
 20
-4373.070296081952
 30
0.0
 11
-613.5543935974174
 21
-4368.462458666393
 31
0.0
 12
-596.0543935974174
 22
-4370.766377374172
 32
0.0
 13
-596.0543935974174
 23
-4370.766377374172
 33
0.0
  0
SOLID
  5
439
330
432
100
AcDbEntity
  8
1
 62
     2
100
AcDbTrace
 10
-560.5543935974206
 20
-4368.462458666393
 30
0.0
 11
-560.5543935974206
 21
-4373.070296081952
 31
0.0
 12
-578.0543935974206
 22
-4370.766377374172
 32
0.0
 13
-578.0543935974206
 23
-4370.766377374172
 33
0.0
  0
MTEXT
  5
43A
330
432
100
AcDbEntity
  8
1
 62
     7
100
AcDbMText
 10
-552.0783601430148
 20
-4365.766377374172
 30
0.0
 40
17.5
 41
0.0
 71
     7
 72
     1
  1
\C7;18\C7;～28
  7
CONVERTER_1
 11
0.9999999999970621
 21
2.424068405545307E-6
 31
0.0
 73
     1
 44
0.60024009603842
  0
ENDBLK
  5
43C
330
432
100
AcDbEntity
  8
0
100
AcDbBlockEnd
  0
BLOCK
  5
446
330
43F
100
AcDbEntity
  8
0
100
AcDbBlockBegin
  2
*D1071
 70
     1
 71
     0
 10
0.0
 20
0.0
 30
0.0
  3
*D1071
  1

  0
LINE
  5
440
330
43F
100
AcDbEntity
  8
1
  6
Continuous
 62
     2
100
AcDbLine
 10
-1194.554393597418
 20
-4150.766377374183
 30
0.0
 11
-1044.554393597418
 21
-4150.766377374183
 31
0.0
  0
LINE
  5
441
330
43F
100
AcDbEntity
  8
1
  6
Continuous
 62
     2
100
AcDbLine
 10
-1194.554393597418
 20
-4190.766377374183
 30
0.0
 11
-1194.554393597418
 21
-4145.766377374183
 31
0.0
  0
LINE
  5
442
330
43F
100
AcDbEntity
  8
1
  6
Continuous
 62
     2
100
AcDbLine
 10
-1044.554393597418
 20
-4190.766377374184
 30
0.0
 11
-1044.554393597418
 21
-4145.766377374183
 31
0.0
  0
SOLID
  5
443
330
43F
100
AcDbEntity
  8
1
 62
     2
100
AcDbTrace
 10
-1177.054393597418
 20
-4148.462458666404
 30
0.0
 11
-1177.054393597418
 21
-4153.070296081963
 31
0.0
 12
-1194.554393597418
 22
-4150.766377374183
 32
0.0
 13
-1194.554393597418
 23
-4150.766377374183
 33
0.0
  0
SOLID
  5
444
330
43F
100
AcDbEntity
  8
1
 62
     2
100
AcDbTrace
 10
-1062.054393597418
 20
-4153.070296081963
 30
0.0
 11
-1062.054393597418
 21
-4148.462458666404
 31
0.0
 12
-1044.554393597418
 22
-4150.766377374183
 32
0.0
 13
-1044.554393597418
 23
-4150.766377374183
 33
0.0
  0
MTEXT
  5
445
330
43F
100
AcDbEntity
  8
1
 62
     7
100
AcDbMText
 10
-1137.929393597417
 20
-4145.766377374183
 30
0.0
 40
17.5
 41
0.0
 71
     7
 72
     1
  1
150
  7
CONVERTER_2
 11
0.9999999999970621
 21
2.424068405545307E-6
 31
0.0
 73
     1
 44
0.60024009603842
  0
ENDBLK
  5
447
330
43F
100
AcDbEntity
  8
0
100
AcDbBlockEnd
  0
BLOCK
  5
451
330
44A
100
AcDbEntity
  8
0
100
AcDbBlockBegin
  2
*D1172
 70
     1
 71
     0
 10
0.0
 20
0.0
 30
0.0
  3
*D1172
  1

  0
LINE
  5
44B
330
44A
100
AcDbEntity
  8
1
  6
Continuous
 62
     2
100
AcDbLine
 10
-795.0543935974159
 20
-4322.766377374184
 30
0.0
 11
-795.0543935974159
 21
-4265.575237322361
 31
0.0
  0
LINE
  5
44C
330
44A
100
AcDbEntity
  8
1
  6
Continuous
 62
     2
100
AcDbLine
 10
-714.4882343700874
 20
-4265.575237322361
 30
0.0
 11
-800.0543935974159
 21
-4265.575237322361
 31
0.0
  0
LINE
  5
44D
330
44A
100
AcDbEntity
  8
1
  6
Continuous
 62
     2
100
AcDbLine
 10
-603.0543935974174
 20
-4322.766377374184
 30
0.0
 11
-800.0543935974159
 21
-4322.766377374184
 31
0.0
  0
SOLID
  5
44E
330
44A
100
AcDbEntity
  8
1
 62
     2
100
AcDbTrace
 10
-797.3583123051953
 20
-4305.266377374184
 30
0.0
 11
-792.7504748896365
 21
-4305.266377374184
 31
0.0
 12
-795.0543935974159
 22
-4322.766377374184
 32
0.0
 13
-795.0543935974159
 23
-4322.766377374184
 33
0.0
  0
SOLID
  5
44F
330
44A
100
AcDbEntity
  8
1
 62
     2
100
AcDbTrace
 10
-792.7504748896365
 20
-4283.075237322361
 30
0.0
 11
-797.3583123051953
 21
-4283.075237322361
 31
0.0
 12
-795.0543935974159
 22
-4265.575237322361
 32
0.0
 13
-795.0543935974159
 23
-4265.575237322361
 33
0.0
  0
MTEXT
  5
450
330
44A
100
AcDbEntity
  8
1
 62
     7
100
AcDbMText
 10
-800.0543935974159
 20
-4307.024606525671
 30
0.0
 40
17.5
 41
0.0
 71
     7
 72
     1
  1
57
  7
CONVERTER_2
 11
0.0
 21
1.0
 31
0.0
 73
     1
 44
0.60024009603842
  0
ENDBLK
  5
452
330
44A
100
AcDbEntity
  8
0
100
AcDbBlockEnd
  0
BLOCK
  5
45C
330
455
100
AcDbEntity
  8
0
100
AcDbBlockBegin
  2
*D1273
 70
     1
 71
     0
 10
0.0
 20
0.0
 30
0.0
  3
*D1273
  1

  0
LINE
  5
456
330
455
100
AcDbEntity
  8
1
  6
Continuous
 62
     2
100
AcDbLine
 10
-716.3052690666646
 20
-4400.62124235478
 30
0.0
 11
-589.554393597417
 21
-4400.62124235478
 31
0.0
  0
LINE
  5
457
330
455
100
AcDbEntity
  8
1
  6
Continuous
 62
     2
100
AcDbLine
 10
-589.554393597417
 20
-4347.670074101377
 30
0.0
 11
-589.554393597417
 21
-4405.62124235478
 31
0.0
  0
LINE
  5
458
330
455
100
AcDbEntity
  8
1
  6
Continuous
 62
     2
100
AcDbLine
 10
-716.3052690666646
 20
-4257.74000018594
 30
0.0
 11
-716.3052690666646
 21
-4405.62124235478
 31
0.0
  0
SOLID
  5
459
330
455
100
AcDbEntity
  8
1
 62
     2
100
AcDbTrace
 10
-698.8052690666646
 20
-4398.317323647001
 30
0.0
 11
-698.8052690666646
 21
-4402.92516106256
 31
0.0
 12
-716.3052690666646
 22
-4400.62124235478
 32
0.0
 13
-716.3052690666646
 23
-4400.62124235478
 33
0.0
  0
SOLID
  5
45A
330
455
100
AcDbEntity
  8
1
 62
     2
100
AcDbTrace
 10
-607.054393597417
 20
-4402.92516106256
 30
0.0
 11
-607.054393597417
 21
-4398.317323647001
 31
0.0
 12
-589.554393597417
 22
-4400.62124235478
 32
0.0
 13
-589.554393597417
 23
-4400.62124235478
 33
0.0
  0
MTEXT
  5
45B
330
455
100
AcDbEntity
  8
1
 62
     7
100
AcDbMText
 10
-675.784807388304
 20
-4395.62124235478
 30
0.0
 40
17.5
 41
0.0
 71
     7
 72
     1
  1
126
  7
CONVERTER_2
 11
0.9999999999970621
 21
2.424068405545307E-6
 31
0.0
 73
     1
 44
0.60024009603842
  0
ENDBLK
  5
45D
330
455
100
AcDbEntity
  8
0
100
AcDbBlockEnd
  0
BLOCK
  5
469
330
460
100
AcDbEntity
  8
0
100
AcDbBlockBegin
  2
*D1374
 70
     1
 71
     0
 10
0.0
 20
0.0
 30
0.0
  3
*D1374
  1

  0
LINE
  5
461
330
460
100
AcDbEntity
  8
1
  6
Continuous
 62
     2
100
AcDbLine
 10
-736.7392256915754
 20
-3726.482813815544
 30
0.0
 11
-736.7392256915692
 21
-3816.967038543722
 31
0.0
  0
LINE
  5
462
330
460
100
AcDbEntity
  8
1
  6
Continuous
 62
     2
100
AcDbLine
 10
-738.8706787811137
 20
-3728.614266905075
 30
0.0
 11
-800.7212345873606
 21
-3790.464822711164
 31
0.0
  0
LINE
  5
463
330
460
100
AcDbEntity
  8
1
  6
Continuous
 62
     2
100
AcDbLine
 10
-736.7392256915692
 20
-3816.967038543722
 30
0.0
 11
-736.7392256915689
 21
-3821.967038543722
 31
0.0
  0
LINE
  5
464
330
460
100
AcDbEntity
  8
1
  6
Continuous
 62
     2
100
AcDbLine
 10
-800.7212345873606
 20
-3790.464822711164
 30
0.0
 11
-804.256768493298
 21
-3794.000356617092
 31
0.0
  0
ARC
  5
465
330
460
100
AcDbEntity
  8
1
  6
Continuous
 62
     2
100
AcDbCircle
 10
-736.7392256915754
 20
-3726.482813815542
 30
0.0
 40
90.48422472817987
100
AcDbArc
 50
-135.0000000000732
 51
-89.99999999999612
  0
SOLID
  5
466
330
460
100
AcDbEntity
  8
1
 62
     2
100
AcDbTrace
 10
-785.7457055061152
 20
-3799.807818491363
 30
0.0
 11
-788.6741295316708
 21
-3803.365415766882
 31
0.0
 12
-800.7212345873606
 22
-3790.464822711164
 32
0.0
 13
-800.7212345873606
 23
-3790.464822711164
 33
0.0
  0
SOLID
  5
467
330
460
100
AcDbEntity
  8
1
 62
     2
100
AcDbTrace
 10
-754.3799122011411
 20
-3817.570545696177
 30
0.0
 11
-753.9350195295449
 21
-3812.984236051269
 31
0.0
 12
-736.7392256915692
 22
-3816.967038543722
 32
0.0
 13
-736.7392256915692
 23
-3816.967038543722
 33
0.0
  0
MTEXT
  5
468
330
460
100
AcDbEntity
  8
1
 62
     7
100
AcDbMText
 10
-786.4638037736274
 20
-3798.632529767442
 30
0.0
 40
17.5
 41
0.0
 71
     7
 72
     1
  1
45{\Fgdt;~}
  7
CONVERTER_2
 11
0.9238795325110548
 21
-0.3826834323656497
 31
0.0
 73
     1
 44
0.60024009603842
  0
ENDBLK
  5
46A
330
460
100
AcDbEntity
  8
0
100
AcDbBlockEnd
  0
BLOCK
  5
476
330
46D
100
AcDbEntity
  8
0
100
AcDbBlockBegin
  2
*D1475
 70
     1
 71
     0
 10
0.0
 20
0.0
 30
0.0
  3
*D1475
  1

  0
LINE
  5
46E
330
46D
100
AcDbEntity
  8
1
  6
Continuous
 62
     2
100
AcDbLine
 10
-728.1497191515108
 20
-4311.67451495089
 30
0.0
 11
-729.4438143770234
 21
-4316.504144082335
 31
0.0
  0
LINE
  5
46F
330
46D
100
AcDbEntity
  8
1
  6
Continuous
 62
     2
100
AcDbLine
 10
-715.5224056516809
 20
-4313.336932310961
 30
0.0
 11
-715.5224056516809
 21
-4318.336932310961
 31
0.0
  0
LINE
  5
470
330
46D
100
AcDbEntity
  8
1
  6
Continuous
 62
     2
100
AcDbLine
 10
-715.5224056516809
 20
-4264.54873940642
 30
0.0
 11
-728.1497191515108
 21
-4311.67451495089
 31
0.0
  0
LINE
  5
471
330
46D
100
AcDbEntity
  8
1
  6
Continuous
 62
     2
100
AcDbLine
 10
-715.5224056516809
 20
-4264.54873940642
 30
0.0
 11
-715.5224056516809
 21
-4313.336932310961
 31
0.0
  0
ARC
  5
472
330
46D
100
AcDbEntity
  8
1
  6
Continuous
 62
     2
100
AcDbCircle
 10
-715.5224056516809
 20
-4264.54873940642
 30
0.0
 40
48.78819290454077
100
AcDbArc
 50
-174.4778309007427
 51
-59.17257798088198
  0
SOLID
  5
473
330
46D
100
AcDbEntity
  8
1
 62
     2
100
AcDbTrace
 10
-744.9580383924539
 20
-4306.285781731793
 30
0.0
 11
-742.9906020167704
 21
-4302.119085227863
 31
0.0
 12
-728.1497191515108
 22
-4311.67451495089
 32
0.0
 13
-728.1497191515108
 23
-4311.67451495089
 33
0.0
  0
SOLID
  5
474
330
46D
100
AcDbEntity
  8
1
 62
     2
100
AcDbTrace
 10
-698.7140864107386
 20
-4307.948199091861
 30
0.0
 11
-697.8921092142637
 21
-4312.48212885937
 31
0.0
 12
-715.5224056516809
 22
-4313.336932310961
 32
0.0
 13
-715.5224056516809
 23
-4313.336932310961
 33
0.0
  0
MTEXT
  5
475
330
46D
100
AcDbEntity
  8
1
 62
     7
100
AcDbMText
 10
-760.3037933294102
 20
-4278.275493593124
 30
0.0
 40
17.5
 41
0.0
 71
     7
 72
     1
  1
15{\Fgdt;~}
  7
CONVERTER_2
 11
0.8923873908494949
 21
-0.4512701459800224
 31
0.0
 73
     1
 44
0.60024009603842
  0
ENDBLK
  5
477
330
46D
100
AcDbEntity
  8
0
100
AcDbBlockEnd
  0
ENDSEC
  0
SECTION
  2
ENTITIES
  0
INSERT
  5
125
330
1F
100
AcDbEntity
  8
1
100
AcDbBlockReference
  2
_k____
 10
23.00000000000011
 20
81.00000000000023
 30
0.0
 41
0.19999999999999
 42
0.20000000000005
  0
INSERT
  5
126
330
1F
100
AcDbEntity
  8
1
100
AcDbBlockReference
  2
_J__A4
 10
0.0
 20
0.0
 30
0.0
  0
MTEXT
  5
4D2
330
1F
100
AcDbEntity
  8
1
 62
     7
100
AcDbMText
 10
34.0
 20
36.00000000000001
 30
0.0
 40
3.5
 41
0.0
 71
     4
 72
     1
  1
JIS
  7
CONVERTER_2
 73
     1
 44
0.7202881152461
  0
MTEXT
  5
4D3
330
1F
100
AcDbEntity
  8
1
 62
     7
100
AcDbMText
 10
44.0
 20
36.00000000000001
 30
0.0
 40
3.5
 41
0.0
 71
     4
 72
     1
  1
吐水口は固定式
  7
CONVERTER_1
 73
     1
 44
0.7202881152461
  0
MTEXT
  5
4D4
330
1F
100
AcDbEntity
  8
1
 62
     7
100
AcDbMText
 10
57.0
 20
22.75000000000001
 30
0.0
 40
3.5
 41
0.0
 71
     5
 72
     1
  1
サーモシャワー混合栓
  7
CONVERTER_1
 73
     1
 44
1.32052821128451
  0
MTEXT
  5
4D5
330
1F
100
AcDbEntity
  8
1
 62
     7
100
AcDbMText
 10
57.0
 20
14.25000000000001
 30
0.0
 40
3.5
 41
0.0
 71
     5
 72
     1
  1
SK2890-13
  7
CONVERTER_2
 73
     1
 44
1.32052821128451
  0
MTEXT
  5
4D6
330
1F
100
AcDbEntity
  8
1
 62
     7
100
AcDbMText
 10
85.25
 20
17.0
 30
0.0
 40
3.5
 41
0.0
 71
     5
 72
     1
  1
1
  7
CONVERTER_2
 73
     1
 44
0.7202881152461
  0
MTEXT
  5
4D7
330
1F
100
AcDbEntity
  8
1
 62
     7
100
AcDbMText
 10
93.75
 20
17.0
 30
0.0
 40
3.5
 41
0.0
 71
     5
 72
     1
  1
5
  7
CONVERTER_2
 73
     1
 44
0.7202881152461
  0
MTEXT
  5
4D8
330
1F
100
AcDbEntity
  8
1
 62
     7
100
AcDbMText
 10
34.0
 20
32.00000000000001
 30
0.0
 40
3.5
 41
0.0
 71
     4
 72
     1
  1
壁面にユニット取出し金具を使う場合は、突出部の厚み5以下、直径{\Fgdt;n}46以下として下さい。
  7
CONVERTER_1
 73
     1
 44
0.7202881152461
  0
ENDSEC
  0
SECTION
  2
OBJECTS
  0
DICTIONARY
  5
C
330
0
100
AcDbDictionary
281
     1
  3
ACAD_GROUP
350
D
  3
ACAD_LAYOUT
350
1A
  3
ACAD_MLINESTYLE
350
17
  3
ACAD_PLOTSETTINGS
350
19
  3
ACAD_PLOTSTYLENAME
350
E
  3
ACAD_TABLESTYLE
350
2A
  3
AcDbVariableDictionary
350
2C
  0
DICTIONARY
  5
D
102
{ACAD_REACTORS
330
C
102
}
330
C
100
AcDbDictionary
281
     1
  0
DICTIONARY
  5
1A
102
{ACAD_REACTORS
330
C
102
}
330
C
100
AcDbDictionary
281
     1
  3
Layout1
350
1E
  3
Layout2
350
26
  3
Model
350
22
  0
DICTIONARY
  5
17
102
{ACAD_REACTORS
330
C
102
}
330
C
100
AcDbDictionary
281
     1
  3
Standard
350
18
  0
DICTIONARY
  5
19
102
{ACAD_REACTORS
330
C
102
}
330
C
100
AcDbDictionary
281
     1
  0
ACDBDICTIONARYWDFLT
  5
E
102
{ACAD_REACTORS
330
C
102
}
330
C
100
AcDbDictionary
281
     1
  3
Normal
350
F
100
AcDbDictionaryWithDefault
340
F
  0
DICTIONARY
  5
2A
102
{ACAD_REACTORS
330
C
102
}
330
C
100
AcDbDictionary
281
     1
  3
Standard
350
2B
  0
DICTIONARY
  5
2C
102
{ACAD_REACTORS
330
C
102
}
330
C
100
AcDbDictionary
281
     1
  3
CTABLESTYLE
350
2D
  0
LAYOUT
  5
1E
102
{ACAD_REACTORS
330
1A
102
}
330
1A
100
AcDbPlotSettings
  1

  2

  4

  6

 40
0.0
 41
0.0
 42
0.0
 43
0.0
 44
0.0
 45
0.0
 46
0.0
 47
0.0
 48
0.0
 49
0.0
140
0.0
141
0.0
142
1.0
143
1.0
 70
   688
 72
     0
 73
     0
 74
     5
  7

 75
    16
147
1.0
148
0.0
149
0.0
100
AcDbLayout
  1
Layout1
 70
     1
 71
     1
 10
0.0
 20
0.0
 11
12.0
 21
9.0
 12
0.0
 22
0.0
 32
0.0
 14
1.00000000000000E+20
 24
1.00000000000000E+20
 34
1.00000000000000E+20
 15
-1.00000000000000E+20
 25
-1.00000000000000E+20
 35
-1.00000000000000E+20
146
0.0
 13
0.0
 23
0.0
 33
0.0
 16
1.0
 26
0.0
 36
0.0
 17
0.0
 27
1.0
 37
0.0
 76
     0
330
1B
  0
LAYOUT
  5
26
102
{ACAD_REACTORS
330
1A
102
}
330
1A
100
AcDbPlotSettings
  1

  2

  4

  6

 40
0.0
 41
0.0
 42
0.0
 43
0.0
 44
0.0
 45
0.0
 46
0.0
 47
0.0
 48
0.0
 49
0.0
140
0.0
141
0.0
142
1.0
143
1.0
 70
   688
 72
     0
 73
     0
 74
     5
  7

 75
    16
147
1.0
148
0.0
149
0.0
100
AcDbLayout
  1
Layout2
 70
     1
 71
     2
 10
0.0
 20
0.0
 11
0.0
 21
0.0
 12
0.0
 22
0.0
 32
0.0
 14
0.0
 24
0.0
 34
0.0
 15
0.0
 25
0.0
 35
0.0
146
0.0
 13
0.0
 23
0.0
 33
0.0
 16
1.0
 26
0.0
 36
0.0
 17
0.0
 27
1.0
 37
0.0
 76
     0
330
23
  0
LAYOUT
  5
22
102
{ACAD_REACTORS
330
1A
102
}
330
1A
100
AcDbPlotSettings
  1

  2

  4

  6

 40
0.0
 41
0.0
 42
0.0
 43
0.0
 44
0.0
 45
0.0
 46
0.0
 47
0.0
 48
0.0
 49
0.0
140
0.0
141
0.0
142
1.0
143
1.0
 70
  1712
 72
     0
 73
     0
 74
     0
  7

 75
     0
147
1.0
148
0.0
149
0.0
100
AcDbLayout
  1
Model
 70
     1
 71
     0
 10
0.0
 20
0.0
 11
0.0
 21
0.0
 12
0.0
 22
0.0
 32
0.0
 14
0.0
 24
0.0
 34
0.0
 15
210.0
 25
297.0
 35
0.0
146
0.0
 13
0.0
 23
0.0
 33
0.0
 16
1.0
 26
0.0
 36
0.0
 17
0.0
 27
1.0
 37
0.0
 76
     0
330
1F
  0
MLINESTYLE
  5
18
102
{ACAD_REACTORS
330
17
102
}
330
17
100
AcDbMlineStyle
  2
Standard
 70
     0
  3

 62
   256
 51
90.0
 52
90.0
 71
     2
 49
0.5
 62
   256
  6
BYLAYER
 49
-0.5
 62
   256
  6
BYLAYER
  0
ACDBPLACEHOLDER
  5
F
102
{ACAD_REACTORS
330
E
102
}
330
E
  0
TABLESTYLE
  5
2B
102
{ACAD_REACTORS
330
2A
102
}
330
2A
100
AcDbTableStyle
  3
Standard
 70
     0
 71
     0
 40
0.06
 41
0.06
280
     0
281
     0
  7
Standard
140
0.18
170
     2
 62
     0
 63
     7
283
     0
274
    -2
284
     1
 64
     0
275
    -2
285
     1
 65
     0
276
    -2
286
     1
 66
     0
277
    -2
287
     1
 67
     0
278
    -2
288
     1
 68
     0
279
    -2
289
     1
 69
     0
  7
Standard
140
0.25
170
     5
 62
     0
 63
     7
283
     0
274
    -2
284
     1
 64
     0
275
    -2
285
     1
 65
     0
276
    -2
286
     1
 66
     0
277
    -2
287
     1
 67
     0
278
    -2
288
     1
 68
     0
279
    -2
289
     1
 69
     0
  7
Standard
140
0.18
170
     5
 62
     0
 63
     7
283
     0
274
    -2
284
     1
 64
     0
275
    -2
285
     1
 65
     0
276
    -2
286
     1
 66
     0
277
    -2
287
     1
 67
     0
278
    -2
288
     1
 68
     0
279
    -2
289
     1
 69
     0
  0
DICTIONARYVAR
  5
2D
102
{ACAD_REACTORS
330
2C
102
}
330
2C
100
DictionaryVariables
280
     0
  1
Standard
  0
ENDSEC
  0
EOF
