  0
SECTION
  2
HEADER
  9
$ACADVER
  1
AC1015
  9
$ACADMAINTVER
 70
     6
  9
$DWGCODEPAGE
  3
ANSI_932
  9
$INSBASE
 10
0.0
 20
0.0
 30
0.0
  9
$EXTMIN
 10
0.0
 20
0.0
 30
0.0
  9
$EXTMAX
 10
209.9999999999999
 20
296.9999999999999
 30
0.0
  9
$LIMMIN
 10
0.0
 20
0.0
  9
$LIMMAX
 10
12.0
 20
9.0
  9
$ORTHOMODE
 70
     0
  9
$REGENMODE
 70
     1
  9
$FILLMODE
 70
     1
  9
$QTEXTMODE
 70
     0
  9
$MIRRTEXT
 70
     1
  9
$LTSCALE
 40
1.0
  9
$ATTMODE
 70
     1
  9
$TEXTSIZE
 40
0.2
  9
$TRACEWID
 40
0.05
  9
$TEXTSTYLE
  7
Standard
  9
$CLAYER
  8
0
  9
$CELTYPE
  6
ByLayer
  9
$CECOLOR
 62
   256
  9
$CELTSCALE
 40
1.0
  9
$DISPSILH
 70
     0
  9
$DIMSCALE
 40
1.0
  9
$DIMASZ
 40
0.18
  9
$DIMEXO
 40
0.0625
  9
$DIMDLI
 40
0.38
  9
$DIMRND
 40
0.0
  9
$DIMDLE
 40
0.0
  9
$DIMEXE
 40
0.18
  9
$DIMTP
 40
0.0
  9
$DIMTM
 40
0.0
  9
$DIMTXT
 40
0.18
  9
$DIMCEN
 40
0.09
  9
$DIMTSZ
 40
0.0
  9
$DIMTOL
 70
     0
  9
$DIMLIM
 70
     0
  9
$DIMTIH
 70
     1
  9
$DIMTOH
 70
     1
  9
$DIMSE1
 70
     0
  9
$DIMSE2
 70
     0
  9
$DIMTAD
 70
     0
  9
$DIMZIN
 70
     0
  9
$DIMBLK
  1

  9
$DIMASO
 70
     1
  9
$DIMSHO
 70
     1
  9
$DIMPOST
  1

  9
$DIMAPOST
  1

  9
$DIMALT
 70
     0
  9
$DIMALTD
 70
     2
  9
$DIMALTF
 40
25.4
  9
$DIMLFAC
 40
1.0
  9
$DIMTOFL
 70
     0
  9
$DIMTVP
 40
0.0
  9
$DIMTIX
 70
     0
  9
$DIMSOXD
 70
     0
  9
$DIMSAH
 70
     0
  9
$DIMBLK1
  1

  9
$DIMBLK2
  1

  9
$DIMSTYLE
  2
Standard
  9
$DIMCLRD
 70
     0
  9
$DIMCLRE
 70
     0
  9
$DIMCLRT
 70
     0
  9
$DIMTFAC
 40
1.0
  9
$DIMGAP
 40
0.09
  9
$DIMJUST
 70
     0
  9
$DIMSD1
 70
     0
  9
$DIMSD2
 70
     0
  9
$DIMTOLJ
 70
     1
  9
$DIMTZIN
 70
     0
  9
$DIMALTZ
 70
     0
  9
$DIMALTTZ
 70
     0
  9
$DIMUPT
 70
     0
  9
$DIMDEC
 70
     4
  9
$DIMTDEC
 70
     4
  9
$DIMALTU
 70
     2
  9
$DIMALTTD
 70
     2
  9
$DIMTXSTY
  7
Standard
  9
$DIMAUNIT
 70
     0
  9
$DIMADEC
 70
     0
  9
$DIMALTRND
 40
0.0
  9
$DIMAZIN
 70
     0
  9
$DIMDSEP
 70
    46
  9
$DIMATFIT
 70
     3
  9
$DIMFRAC
 70
     0
  9
$DIMLDRBLK
  1

  9
$DIMLUNIT
 70
     2
  9
$DIMLWD
 70
    -2
  9
$DIMLWE
 70
    -2
  9
$DIMTMOVE
 70
     0
  9
$LUNITS
 70
     2
  9
$LUPREC
 70
     4
  9
$SKETCHINC
 40
0.1
  9
$FILLETRAD
 40
0.5
  9
$AUNITS
 70
     0
  9
$AUPREC
 70
     0
  9
$MENU
  1
.
  9
$ELEVATION
 40
0.0
  9
$PELEVATION
 40
0.0
  9
$THICKNESS
 40
0.0
  9
$LIMCHECK
 70
     0
  9
$CHAMFERA
 40
0.5
  9
$CHAMFERB
 40
0.5
  9
$CHAMFERC
 40
1.0
  9
$CHAMFERD
 40
0.0
  9
$SKPOLY
 70
     0
  9
$TDCREATE
 40
2460229.584530394
  9
$TDUCREATE
 40
2460229.209530394
  9
$TDUPDATE
 40
2460229.584531667
  9
$TDUUPDATE
 40
2460229.209531667
  9
$TDINDWG
 40
0.0000000116
  9
$TDUSRTIMER
 40
0.0000000116
  9
$USRTIMER
 70
     1
  9
$ANGBASE
 50
0.0
  9
$ANGDIR
 70
     0
  9
$PDMODE
 70
     0
  9
$PDSIZE
 40
0.0
  9
$PLINEWID
 40
0.0
  9
$SPLFRAME
 70
     0
  9
$SPLINETYPE
 70
     6
  9
$SPLINESEGS
 70
     8
  9
$HANDSEED
  5
188
  9
$SURFTAB1
 70
     6
  9
$SURFTAB2
 70
     6
  9
$SURFTYPE
 70
     6
  9
$SURFU
 70
     6
  9
$SURFV
 70
     6
  9
$UCSBASE
  2

  9
$UCSNAME
  2

  9
$UCSORG
 10
0.0
 20
0.0
 30
0.0
  9
$UCSXDIR
 10
1.0
 20
0.0
 30
0.0
  9
$UCSYDIR
 10
0.0
 20
1.0
 30
0.0
  9
$UCSORTHOREF
  2

  9
$UCSORTHOVIEW
 70
     0
  9
$UCSORGTOP
 10
0.0
 20
0.0
 30
0.0
  9
$UCSORGBOTTOM
 10
0.0
 20
0.0
 30
0.0
  9
$UCSORGLEFT
 10
0.0
 20
0.0
 30
0.0
  9
$UCSORGRIGHT
 10
0.0
 20
0.0
 30
0.0
  9
$UCSORGFRONT
 10
0.0
 20
0.0
 30
0.0
  9
$UCSORGBACK
 10
0.0
 20
0.0
 30
0.0
  9
$PUCSBASE
  2

  9
$PUCSNAME
  2

  9
$PUCSORG
 10
0.0
 20
0.0
 30
0.0
  9
$PUCSXDIR
 10
1.0
 20
0.0
 30
0.0
  9
$PUCSYDIR
 10
0.0
 20
1.0
 30
0.0
  9
$PUCSORTHOREF
  2

  9
$PUCSORTHOVIEW
 70
     0
  9
$PUCSORGTOP
 10
0.0
 20
0.0
 30
0.0
  9
$PUCSORGBOTTOM
 10
0.0
 20
0.0
 30
0.0
  9
$PUCSORGLEFT
 10
0.0
 20
0.0
 30
0.0
  9
$PUCSORGRIGHT
 10
0.0
 20
0.0
 30
0.0
  9
$PUCSORGFRONT
 10
0.0
 20
0.0
 30
0.0
  9
$PUCSORGBACK
 10
0.0
 20
0.0
 30
0.0
  9
$USERI1
 70
     0
  9
$USERI2
 70
     0
  9
$USERI3
 70
     0
  9
$USERI4
 70
     0
  9
$USERI5
 70
     0
  9
$USERR1
 40
18.1
  9
$USERR2
 40
0.0
  9
$USERR3
 40
0.0
  9
$USERR4
 40
0.0
  9
$USERR5
 40
0.0
  9
$WORLDVIEW
 70
     1
  9
$SHADEDGE
 70
     3
  9
$SHADEDIF
 70
    70
  9
$TILEMODE
 70
     1
  9
$MAXACTVP
 70
    64
  9
$PINSBASE
 10
0.0
 20
0.0
 30
0.0
  9
$PLIMCHECK
 70
     0
  9
$PEXTMIN
 10
1.00000000000000E+20
 20
1.00000000000000E+20
 30
1.00000000000000E+20
  9
$PEXTMAX
 10
-1.00000000000000E+20
 20
-1.00000000000000E+20
 30
-1.00000000000000E+20
  9
$PLIMMIN
 10
0.0
 20
0.0
  9
$PLIMMAX
 10
12.0
 20
9.0
  9
$UNITMODE
 70
     0
  9
$VISRETAIN
 70
     1
  9
$PLINEGEN
 70
     0
  9
$PSLTSCALE
 70
     1
  9
$TREEDEPTH
 70
  3020
  9
$CMLSTYLE
  2
Standard
  9
$CMLJUST
 70
     0
  9
$CMLSCALE
 40
1.0
  9
$PROXYGRAPHICS
 70
     1
  9
$MEASUREMENT
 70
     1
  9
$CELWEIGHT
370
    -1
  9
$ENDCAPS
280
     0
  9
$JOINSTYLE
280
     0
  9
$LWDISPLAY
290
     0
  9
$INSUNITS
 70
     4
  9
$HYPERLINKBASE
  1

  9
$STYLESHEET
  1

  9
$XEDIT
290
     1
  9
$CEPSNTYPE
380
     0
  9
$PSTYLEMODE
290
     1
  9
$FINGERPRINTGUID
  2
{1AF7D0AE-3A13-45E3-AB68-10A209C0AD63}
  9
$VERSIONGUID
  2
{FAEB1C32-E019-11D5-929B-00C0DF256EC4}
  9
$EXTNAMES
290
     1
  9
$PSVPSCALE
 40
0.0
  9
$OLESTARTUP
290
     0
  0
ENDSEC
  0
SECTION
  2
CLASSES
  0
CLASS
  1
ACDBDICTIONARYWDFLT
  2
AcDbDictionaryWithDefault
  3
ObjectDBX Classes
 90
        0
280
     0
281
     0
  0
CLASS
  1
VISUALSTYLE
  2
AcDbVisualStyle
  3
ObjectDBX Classes
 90
     4095
280
     0
281
     0
  0
CLASS
  1
MATERIAL
  2
AcDbMaterial
  3
ObjectDBX Classes
 90
     1153
280
     0
281
     0
  0
CLASS
  1
DICTIONARYVAR
  2
AcDbDictionaryVar
  3
ObjectDBX Classes
 90
        0
280
     0
281
     0
  0
CLASS
  1
ACDBPLACEHOLDER
  2
AcDbPlaceHolder
  3
ObjectDBX Classes
 90
        0
280
     0
281
     0
  0
CLASS
  1
LAYOUT
  2
AcDbLayout
  3
ObjectDBX Classes
 90
        0
280
     0
281
     0
  0
ENDSEC
  0
SECTION
  2
TABLES
  0
TABLE
  2
VPORT
  5
8
330
0
100
AcDbSymbolTable
 70
     1
  0
VPORT
  5
29
330
8
100
AcDbSymbolTableRecord
100
AcDbViewportTableRecord
  2
*Active
 70
     0
 10
0.0
 20
0.0
 11
1.0
 21
1.0
 12
104.9999999999999
 22
148.4999999999999
 13
0.0
 23
0.0
 14
0.5
 24
0.5
 15
0.5
 25
0.5
 16
0.0
 26
0.0
 36
1.0
 17
0.0
 27
0.0
 37
0.0
 40
326.6999999999999
 41
1.60267857142857
 42
50.0
 43
0.0
 44
0.0
 50
0.0
 51
0.0
 71
     0
 72
   100
 73
     1
 74
     3
 75
     0
 76
     0
 77
     0
 78
     0
281
     0
 65
     1
110
0.0
120
0.0
130
0.0
111
1.0
121
0.0
131
0.0
112
0.0
122
1.0
132
0.0
 79
     0
146
0.0
  0
ENDTAB
  0
TABLE
  2
LTYPE
  5
5
330
0
100
AcDbSymbolTable
 70
     8
  0
LTYPE
  5
14
330
5
100
AcDbSymbolTableRecord
100
AcDbLinetypeTableRecord
  2
ByBlock
 70
     0
  3

 72
    65
 73
     0
 40
0.0
  0
LTYPE
  5
15
330
5
100
AcDbSymbolTableRecord
100
AcDbLinetypeTableRecord
  2
ByLayer
 70
     0
  3

 72
    65
 73
     0
 40
0.0
  0
LTYPE
  5
16
330
5
100
AcDbSymbolTableRecord
100
AcDbLinetypeTableRecord
  2
Continuous
 70
     0
  3
Solid line
 72
    65
 73
     0
 40
0.0
  0
LTYPE
  5
3F
330
5
100
AcDbSymbolTableRecord
100
AcDbLinetypeTableRecord
  2
DASHED
 70
     0
  3
Dashed
 72
    65
 73
     2
 40
15.0
 49
7.0
 74
     0
 49
-8.0
 74
     0
  0
LTYPE
  5
40
330
5
100
AcDbSymbolTableRecord
100
AcDbLinetypeTableRecord
  2
DOTTED
 70
     0
  3
Dotted
 72
    65
 73
     2
 40
1.0
 49
0.0
 74
     0
 49
-1.0
 74
     0
  0
LTYPE
  5
41
330
5
100
AcDbSymbolTableRecord
100
AcDbLinetypeTableRecord
  2
DOT_CENTER
 70
     0
  3
Dot_Center
 72
    65
 73
     4
 40
14.0
 49
12.0
 74
     0
 49
-1.0
 74
     0
 49
0.0
 74
     0
 49
-1.0
 74
     0
  0
LTYPE
  5
42
330
5
100
AcDbSymbolTableRecord
100
AcDbLinetypeTableRecord
  2
LONG_DASHED
 70
     0
  3
Long_Dashed
 72
    65
 73
     2
 40
15.0
 49
10.0
 74
     0
 49
-5.0
 74
     0
  0
LTYPE
  5
43
330
5
100
AcDbSymbolTableRecord
100
AcDbLinetypeTableRecord
  2
DASH_CENTER
 70
     0
  3
Dash_Center
 72
    65
 73
     4
 40
14.0
 49
11.0
 74
     0
 49
-1.0
 74
     0
 49
1.0
 74
     0
 49
-1.0
 74
     0
  0
LTYPE
  5
44
330
5
100
AcDbSymbolTableRecord
100
AcDbLinetypeTableRecord
  2
PHANTOM
 70
     0
  3
Phantom
 72
    65
 73
     6
 40
13.0
 49
10.0
 74
     0
 49
-1.0
 74
     0
 49
0.0
 74
     0
 49
-1.0
 74
     0
 49
0.0
 74
     0
 49
-1.0
 74
     0
  0
LTYPE
  5
45
330
5
100
AcDbSymbolTableRecord
100
AcDbLinetypeTableRecord
  2
CENTER_DASH_DASH
 70
     0
  3
Center_Dash_Dash
 72
    65
 73
     6
 40
14.0
 49
9.0
 74
     0
 49
-1.0
 74
     0
 49
1.0
 74
     0
 49
-1.0
 74
     0
 49
1.0
 74
     0
 49
-1.0
 74
     0
  0
ENDTAB
  0
TABLE
  2
LAYER
  5
2
330
0
100
AcDbSymbolTable
 70
     3
  0
LAYER
  5
10
330
2
100
AcDbSymbolTableRecord
100
AcDbLayerTableRecord
  2
0
 70
     0
 62
     7
  6
Continuous
370
    -3
390
F
  0
LAYER
  5
46
330
2
100
AcDbSymbolTableRecord
100
AcDbLayerTableRecord
  2
1
 70
     0
 62
     7
  6
Continuous
370
    -3
390
F
  0
LAYER
  5
47
330
2
100
AcDbSymbolTableRecord
100
AcDbLayerTableRecord
  2
_U_30EC_U_30A4_U_30E4_U_30FC_1
 70
     0
 62
     7
  6
Continuous
370
    -3
390
F
  0
ENDTAB
  0
TABLE
  2
STYLE
  5
3
330
0
100
AcDbSymbolTable
 70
     3
  0
STYLE
  5
11
330
3
100
AcDbSymbolTableRecord
100
AcDbTextStyleTableRecord
  2
Standard
 70
     0
 40
0.0
 41
1.0
 50
0.0
 71
     0
 42
0.2
  3
txt
  4

  0
STYLE
  5
B6
330
3
100
AcDbSymbolTableRecord
100
AcDbTextStyleTableRecord
  2
CONVERTER_11
 70
     0
 40
0.0
 41
0.89
 50
0.0
 71
     0
 42
0.2
  3
MS Mincho.ttf
  4

1001
ACAD
1000
MS Mincho
1071
    32785
  0
STYLE
  5
117
330
3
100
AcDbSymbolTableRecord
100
AcDbTextStyleTableRecord
  2
CONVERTER_12
 70
     0
 40
0.0
 41
0.9
 50
0.0
 71
     0
 42
0.2
  3
txt.shx
  4

  0
ENDTAB
  0
TABLE
  2
VIEW
  5
6
330
0
100
AcDbSymbolTable
 70
     0
  0
ENDTAB
  0
TABLE
  2
UCS
  5
7
330
0
100
AcDbSymbolTable
 70
     0
  0
ENDTAB
  0
TABLE
  2
APPID
  5
9
330
0
100
AcDbSymbolTable
 70
     1
  0
APPID
  5
12
330
9
100
AcDbSymbolTableRecord
100
AcDbRegAppTableRecord
  2
ACAD
 70
     0
  0
ENDTAB
  0
TABLE
  2
DIMSTYLE
  5
A
330
0
100
AcDbSymbolTable
 70
     6
100
AcDbDimStyleTable
  0
DIMSTYLE
105
27
330
A
100
AcDbSymbolTableRecord
100
AcDbDimStyleTableRecord
  2
Standard
 70
     0
178
     0
340
11
  0
DIMSTYLE
105
12F
102
{ACAD_REACTORS
330
130
102
}
330
A
100
AcDbSymbolTableRecord
100
AcDbDimStyleTableRecord
  2
ME10_DIM_10
 70
     0
 41
3.5
 42
0.0
 44
1.0
 73
     0
 74
     0
 77
     1
 78
     8
140
3.5
147
1.0
172
     1
173
     1
174
     1
175
     1
176
     2
177
     2
271
     2
178
     7
271
     2
340
117
  0
DIMSTYLE
105
13A
102
{ACAD_REACTORS
330
13B
102
}
330
A
100
AcDbSymbolTableRecord
100
AcDbDimStyleTableRecord
  2
ME10_DIM_11
 70
     0
 41
3.5
 42
0.0
 44
1.0
 73
     0
 74
     0
 77
     1
 78
     8
140
3.5
147
1.0
172
     1
173
     1
174
     1
175
     1
176
     2
177
     2
271
     2
178
     7
271
     2
340
117
  0
DIMSTYLE
105
145
102
{ACAD_REACTORS
330
146
102
}
330
A
100
AcDbSymbolTableRecord
100
AcDbDimStyleTableRecord
  2
ME10_DIM_12
 70
     0
 41
3.5
 42
0.0
 44
1.0
 73
     0
 74
     0
 77
     1
 78
     8
140
3.5
147
1.0
172
     1
173
     1
174
     1
175
     1
176
     2
177
     2
271
     2
178
     7
271
     2
340
117
  0
DIMSTYLE
105
150
102
{ACAD_REACTORS
330
151
102
}
330
A
100
AcDbSymbolTableRecord
100
AcDbDimStyleTableRecord
  2
ME10_DIM_13
 70
     0
 41
3.5
 42
0.0
 44
1.0
 73
     0
 74
     0
 77
     1
 78
     8
140
3.5
147
1.0
172
     1
173
     1
174
     1
175
     1
176
     2
177
     2
271
     2
178
     7
271
     2
340
117
  0
DIMSTYLE
105
15B
102
{ACAD_REACTORS
330
15C
102
}
330
A
100
AcDbSymbolTableRecord
100
AcDbDimStyleTableRecord
  2
ME10_DIM_14
 70
     0
 41
3.5
 42
0.0
 44
1.0
 73
     0
 74
     0
 77
     1
 78
     8
140
3.5
147
1.0
172
     1
173
     1
174
     1
175
     1
176
     2
177
     2
271
     2
178
     7
271
     2
340
117
  0
ENDTAB
  0
TABLE
  2
BLOCK_RECORD
  5
1
330
0
100
AcDbSymbolTable
 70
     9
  0
BLOCK_RECORD
  5
1F
330
1
100
AcDbSymbolTableRecord
100
AcDbBlockTableRecord
  2
*Model_Space
340
22
  0
BLOCK_RECORD
  5
1B
330
1
100
AcDbSymbolTableRecord
100
AcDbBlockTableRecord
  2
*Paper_Space
340
1E
  0
BLOCK_RECORD
  5
23
330
1
100
AcDbSymbolTableRecord
100
AcDbBlockTableRecord
  2
*Paper_Space0
340
26
  0
BLOCK_RECORD
  5
48
330
1
100
AcDbSymbolTableRecord
100
AcDbBlockTableRecord
  2
開示A4
340
0
102
{BLKREFS
331
4C
102
}
  0
BLOCK_RECORD
  5
4B
330
1
100
AcDbSymbolTableRecord
100
AcDbBlockTableRecord
  2
開示A4枠
340
0
102
{BLKREFS
331
52
102
}
  0
BLOCK_RECORD
  5
4F
330
1
100
AcDbSymbolTableRecord
100
AcDbBlockTableRecord
  2
T2010-20X13
340
0
102
{BLKREFS
331
53
102
}
  0
BLOCK_RECORD
  5
126
330
1
100
AcDbSymbolTableRecord
100
AcDbBlockTableRecord
  2
*D4
340
0
  0
BLOCK_RECORD
  5
131
330
1
100
AcDbSymbolTableRecord
100
AcDbBlockTableRecord
  2
*D5
340
0
  0
BLOCK_RECORD
  5
13C
330
1
100
AcDbSymbolTableRecord
100
AcDbBlockTableRecord
  2
*D6
340
0
  0
BLOCK_RECORD
  5
147
330
1
100
AcDbSymbolTableRecord
100
AcDbBlockTableRecord
  2
*D7
340
0
  0
BLOCK_RECORD
  5
152
330
1
100
AcDbSymbolTableRecord
100
AcDbBlockTableRecord
  2
*D8
340
0
  0
ENDTAB
  0
ENDSEC
  0
SECTION
  2
BLOCKS
  0
BLOCK
  5
20
330
1F
100
AcDbEntity
  8
0
100
AcDbBlockBegin
  2
*Model_Space
 70
     0
 10
0.0
 20
0.0
 30
0.0
  3
*Model_Space
  1

  0
ENDBLK
  5
21
330
1F
100
AcDbEntity
  8
0
100
AcDbBlockEnd
  0
BLOCK
  5
1C
330
1B
100
AcDbEntity
 67
     1
  8
0
100
AcDbBlockBegin
  2
*Paper_Space
 70
     0
 10
0.0
 20
0.0
 30
0.0
  3
*Paper_Space
  1

  0
ENDBLK
  5
1D
330
1B
100
AcDbEntity
 67
     1
  8
0
100
AcDbBlockEnd
  0
BLOCK
  5
24
330
23
100
AcDbEntity
  8
0
100
AcDbBlockBegin
  2
*Paper_Space0
 70
     0
 10
0.0
 20
0.0
 30
0.0
  3
*Paper_Space0
  1

  0
ENDBLK
  5
25
330
23
100
AcDbEntity
  8
0
100
AcDbBlockEnd
  0
BLOCK
  5
49
330
48
100
AcDbEntity
  8
0
100
AcDbBlockBegin
  2
開示A4
 70
     0
 10
0.0
 20
0.0
 30
0.0
  3
開示A4
  1

  0
POINT
  5
54
330
48
100
AcDbEntity
  8
1
 62
     4
100
AcDbPoint
 10
182.9999999999999
 20
15.00000000000001
 30
0.0
  0
POINT
  5
55
330
48
100
AcDbEntity
  8
1
 62
     4
100
AcDbPoint
 10
93.74999999999997
 20
17.0
 30
0.0
  0
POINT
  5
56
330
48
100
AcDbEntity
  8
1
 62
     4
100
AcDbPoint
 10
85.24999999999997
 20
17.0
 30
0.0
  0
POINT
  5
57
330
48
100
AcDbEntity
  8
1
 62
     4
100
AcDbPoint
 10
106.4999999999999
 20
19.00000000000001
 30
0.0
  0
POINT
  5
58
330
48
100
AcDbEntity
  8
1
 62
     4
100
AcDbPoint
 10
106.4999999999999
 20
12.5
 30
0.0
  0
POINT
  5
59
330
48
100
AcDbEntity
  8
1
 62
     4
100
AcDbPoint
 10
112.2499999999999
 20
12.5
 30
0.0
  0
POINT
  5
5A
330
48
100
AcDbEntity
  8
1
 62
     4
100
AcDbPoint
 10
100.7499999999999
 20
12.5
 30
0.0
  0
POINT
  5
5B
330
48
100
AcDbEntity
  8
1
 62
     4
100
AcDbPoint
 10
123.4999999999999
 20
19.00000000000001
 30
0.0
  0
POINT
  5
5C
330
48
100
AcDbEntity
  8
1
 62
     4
100
AcDbPoint
 10
123.4999999999999
 20
12.5
 30
0.0
  0
POINT
  5
5D
330
48
100
AcDbEntity
  8
1
 62
     4
100
AcDbPoint
 10
129.2499999999999
 20
12.5
 30
0.0
  0
POINT
  5
5E
330
48
100
AcDbEntity
  8
1
 62
     4
100
AcDbPoint
 10
117.7499999999999
 20
12.5
 30
0.0
  0
POINT
  5
5F
330
48
100
AcDbEntity
  8
1
 62
     4
100
AcDbPoint
 10
140.4999999999999
 20
19.00000000000001
 30
0.0
  0
POINT
  5
60
330
48
100
AcDbEntity
  8
1
 62
     4
100
AcDbPoint
 10
140.4999999999999
 20
12.5
 30
0.0
  0
POINT
  5
61
330
48
100
AcDbEntity
  8
1
 62
     4
100
AcDbPoint
 10
146.2499999999999
 20
12.5
 30
0.0
  0
POINT
  5
62
330
48
100
AcDbEntity
  8
1
 62
     4
100
AcDbPoint
 10
134.7499999999999
 20
12.5
 30
0.0
  0
POINT
  5
63
330
48
100
AcDbEntity
  8
1
 62
     4
100
AcDbPoint
 10
151.7499999999999
 20
12.5
 30
0.0
  0
POINT
  5
64
330
48
100
AcDbEntity
  8
1
 62
     4
100
AcDbPoint
 10
163.2499999999999
 20
12.5
 30
0.0
  0
POINT
  5
65
330
48
100
AcDbEntity
  8
1
 62
     4
100
AcDbPoint
 10
157.4999999999999
 20
12.5
 30
0.0
  0
POINT
  5
66
330
48
100
AcDbEntity
  8
1
 62
     4
100
AcDbPoint
 10
56.99999999999996
 20
14.25
 30
0.0
  0
POINT
  5
67
330
48
100
AcDbEntity
  8
1
 62
     4
100
AcDbPoint
 10
56.99999999999996
 20
22.75000000000001
 30
0.0
  0
POINT
  5
68
330
48
100
AcDbEntity
  8
1
 62
     4
100
AcDbPoint
 10
47.49999999999996
 20
282.0000000000003
 30
0.0
  0
POINT
  5
69
330
48
100
AcDbEntity
  8
1
 62
     4
100
AcDbPoint
 10
157.4999999999999
 20
19.00000000000001
 30
0.0
  0
POINT
  5
6A
330
48
100
AcDbEntity
  8
1
 62
     4
100
AcDbPoint
 10
56.99999999999996
 20
16.25
 30
0.0
  0
POINT
  5
6B
330
48
100
AcDbEntity
  8
1
 62
     4
100
AcDbPoint
 10
56.99999999999996
 20
24.75000000000001
 30
0.0
  0
POINT
  5
6C
330
48
100
AcDbEntity
  8
1
 62
     4
100
AcDbPoint
 10
56.99999999999996
 20
20.75000000000001
 30
0.0
  0
POINT
  5
6D
330
48
100
AcDbEntity
  8
1
 62
     4
100
AcDbPoint
 10
56.99999999999996
 20
12.25
 30
0.0
  0
POINT
  5
6E
330
48
100
AcDbEntity
  8
1
 62
     4
100
AcDbPoint
 10
33.99999999999996
 20
34.00000000000001
 30
0.0
  0
LINE
  5
73
330
48
100
AcDbEntity
  8
1
  6
Continuous
 62
     7
100
AcDbLine
 10
104.9999999999999
 20
10.0
 30
0.0
 11
199.9999999999999
 21
10.0
 31
0.0
  0
LINE
  5
74
330
48
100
AcDbEntity
  8
1
  6
Continuous
 62
     2
100
AcDbLine
 10
104.9999999999999
 20
10.0
 30
0.0
 11
104.9999999999999
 21
5.0
 31
0.0
  0
LINE
  5
75
330
48
100
AcDbEntity
  8
1
  6
Continuous
 62
     7
100
AcDbLine
 10
199.9999999999999
 20
148.5
 30
0.0
 11
199.9999999999999
 21
287.0000000000003
 31
0.0
  0
LINE
  5
76
330
48
100
AcDbEntity
  8
1
  6
Continuous
 62
     2
100
AcDbLine
 10
199.9999999999999
 20
148.5
 30
0.0
 11
204.9999999999999
 21
148.5
 31
0.0
  0
LINE
  5
77
330
48
100
AcDbEntity
  8
1
  6
Continuous
 62
     7
100
AcDbLine
 10
24.99999999999997
 20
148.5
 30
0.0
 11
24.99999999999997
 21
287.0000000000003
 31
0.0
  0
LINE
  5
78
330
48
100
AcDbEntity
  8
1
  6
Continuous
 62
     2
100
AcDbLine
 10
24.99999999999997
 20
148.5
 30
0.0
 11
20.0
 21
148.5
 31
0.0
  0
LINE
  5
79
330
48
100
AcDbEntity
  8
1
  6
Continuous
 62
     7
100
AcDbLine
 10
104.9999999999999
 20
287.0000000000003
 30
0.0
 11
24.99999999999997
 21
287.0000000000003
 31
0.0
  0
LINE
  5
7A
330
48
100
AcDbEntity
  8
1
  6
Continuous
 62
     2
100
AcDbLine
 10
104.9999999999999
 20
287.0000000000003
 30
0.0
 11
104.9999999999999
 21
292.0000000000003
 31
0.0
  0
LINE
  5
7B
330
48
100
AcDbEntity
  8
1
  6
Continuous
 62
     2
100
AcDbLine
 10
165.9999999999999
 20
20.00000000000001
 30
0.0
 11
199.9999999999999
 21
20.00000000000001
 31
0.0
  0
LINE
  5
7C
330
48
100
AcDbEntity
  8
1
  6
Continuous
 62
     2
100
AcDbLine
 10
97.99999999999994
 20
27.00000000000001
 30
0.0
 11
97.99999999999994
 21
10.0
 31
0.0
  0
LINE
  5
7D
330
48
100
AcDbEntity
  8
1
  6
Continuous
 62
     2
100
AcDbLine
 10
114.9999999999999
 20
27.00000000000001
 30
0.0
 11
114.9999999999999
 21
10.0
 31
0.0
  0
LINE
  5
7E
330
48
100
AcDbEntity
  8
1
  6
Continuous
 62
     2
100
AcDbLine
 10
148.9999999999999
 20
27.00000000000001
 30
0.0
 11
148.9999999999999
 21
10.0
 31
0.0
  0
LINE
  5
7F
330
48
100
AcDbEntity
  8
1
  6
Continuous
 62
     2
100
AcDbLine
 10
131.9999999999999
 20
27.00000000000001
 30
0.0
 11
131.9999999999999
 21
10.0
 31
0.0
  0
LINE
  5
80
330
48
100
AcDbEntity
  8
1
  6
Continuous
 62
     2
100
AcDbLine
 10
165.9999999999999
 20
27.00000000000001
 30
0.0
 11
165.9999999999999
 21
10.0
 31
0.0
  0
LINE
  5
81
330
48
100
AcDbEntity
  8
1
  6
Continuous
 62
     2
100
AcDbLine
 10
54.99999999999996
 20
277.0000000000003
 30
0.0
 11
24.99999999999997
 21
277.0000000000003
 31
0.0
  0
LINE
  5
82
330
48
100
AcDbEntity
  8
1
  6
Continuous
 62
     7
100
AcDbLine
 10
24.99999999999997
 20
10.0
 30
0.0
 11
24.99999999999997
 21
148.5
 31
0.0
  0
LINE
  5
83
330
48
100
AcDbEntity
  8
1
  6
Continuous
 62
     2
100
AcDbLine
 10
39.99999999999996
 20
287.0000000000003
 30
0.0
 11
39.99999999999996
 21
277.0000000000003
 31
0.0
  0
LINE
  5
84
330
48
100
AcDbEntity
  8
1
  6
Continuous
 62
     2
100
AcDbLine
 10
54.99999999999996
 20
287.0000000000003
 30
0.0
 11
54.99999999999996
 21
277.0000000000003
 31
0.0
  0
LINE
  5
85
330
48
100
AcDbEntity
  8
1
  6
Continuous
 62
     2
100
AcDbLine
 10
32.99999999999996
 20
41.00000000000001
 30
0.0
 11
32.99999999999996
 21
27.0
 31
0.0
  0
LINE
  5
86
330
48
100
AcDbEntity
  8
1
  6
Continuous
 62
     7
100
AcDbLine
 10
199.9999999999999
 20
27.00000000000001
 30
0.0
 11
24.99999999999997
 21
27.00000000000001
 31
0.0
  0
LINE
  5
87
330
48
100
AcDbEntity
  8
1
  6
Continuous
 62
     7
100
AcDbLine
 10
24.99999999999997
 20
41.0
 30
0.0
 11
199.9999999999999
 21
41.0
 31
0.0
  0
LINE
  5
88
330
48
100
AcDbEntity
  8
1
  6
PHANTOM
 62
     4
100
AcDbLine
 10
0.0
 20
0.0
 30
0.0
 11
209.9999999999999
 21
0.0
 31
0.0
  0
LINE
  5
89
330
48
100
AcDbEntity
  8
1
  6
PHANTOM
 62
     4
100
AcDbLine
 10
209.9999999999999
 20
0.0
 30
0.0
 11
209.9999999999999
 21
296.9999999999999
 31
0.0
  0
LINE
  5
8A
330
48
100
AcDbEntity
  8
1
  6
PHANTOM
 62
     4
100
AcDbLine
 10
209.9999999999999
 20
296.9999999999999
 30
0.0
 11
0.0
 21
296.9999999999999
 31
0.0
  0
LINE
  5
8B
330
48
100
AcDbEntity
  8
1
  6
PHANTOM
 62
     4
100
AcDbLine
 10
0.0
 20
296.9999999999999
 30
0.0
 11
0.0
 21
0.0
 31
0.0
  0
LINE
  5
8C
330
48
100
AcDbEntity
  8
1
  6
Continuous
 62
     7
100
AcDbLine
 10
24.99999999999997
 20
10.0
 30
0.0
 11
104.9999999999999
 21
10.0
 31
0.0
  0
LINE
  5
8D
330
48
100
AcDbEntity
  8
1
  6
Continuous
 62
     7
100
AcDbLine
 10
199.9999999999999
 20
10.0
 30
0.0
 11
199.9999999999999
 21
148.5
 31
0.0
  0
LINE
  5
8E
330
48
100
AcDbEntity
  8
1
  6
Continuous
 62
     7
100
AcDbLine
 10
199.9999999999999
 20
287.0000000000003
 30
0.0
 11
104.9999999999999
 21
287.0000000000003
 31
0.0
  0
LINE
  5
8F
330
48
100
AcDbEntity
  8
1
  6
Continuous
 62
     2
100
AcDbLine
 10
24.99999999999997
 20
18.50000000000001
 30
0.0
 11
80.99999999999997
 21
18.50000000000001
 31
0.0
  0
LINE
  5
90
330
48
100
AcDbEntity
  8
1
  6
Continuous
 62
     2
100
AcDbLine
 10
32.99999999999996
 20
27.0
 30
0.0
 11
32.99999999999996
 21
10.0
 31
0.0
  0
LINE
  5
91
330
48
100
AcDbEntity
  8
1
  6
Continuous
 62
     7
100
AcDbLine
 10
190.9999999999999
 20
24.70000000000001
 30
0.0
 11
190.9999999999999
 21
22.30000000000001
 31
0.0
  0
LINE
  5
92
330
48
100
AcDbEntity
  8
1
  6
Continuous
 62
     7
100
AcDbLine
 10
190.9999999999999
 20
24.70000000000001
 30
0.0
 11
195.9999999999999
 21
25.50000000000001
 31
0.0
  0
LINE
  5
93
330
48
100
AcDbEntity
  8
1
  6
Continuous
 62
     7
100
AcDbLine
 10
195.9999999999999
 20
25.50000000000001
 30
0.0
 11
195.9999999999999
 21
21.50000000000001
 31
0.0
  0
LINE
  5
94
330
48
100
AcDbEntity
  8
1
  6
Continuous
 62
     7
100
AcDbLine
 10
195.9999999999999
 20
21.50000000000001
 30
0.0
 11
190.9999999999999
 21
22.30000000000001
 31
0.0
  0
LINE
  5
95
330
48
100
AcDbEntity
  8
1
  6
DOT_CENTER
 62
     2
100
AcDbLine
 10
183.9999999999999
 20
23.50000000000001
 30
0.0
 11
196.9999999999999
 21
23.50000000000001
 31
0.0
  0
LINE
  5
96
330
48
100
AcDbEntity
  8
1
  6
DOT_CENTER
 62
     2
100
AcDbLine
 10
186.9999999999999
 20
26.50000000000001
 30
0.0
 11
186.9999999999999
 21
20.50000000000001
 31
0.0
  0
LINE
  5
97
330
48
100
AcDbEntity
  8
1
  6
Continuous
 62
     2
100
AcDbLine
 10
80.99999999999997
 20
27.00000000000001
 30
0.0
 11
80.99999999999997
 21
10.0
 31
0.0
  0
CIRCLE
  5
98
330
48
100
AcDbEntity
  8
1
  6
Continuous
 62
     7
100
AcDbCircle
 10
103.4999999999999
 20
12.5
 30
0.0
 40
0.3000000000000966
  0
CIRCLE
  5
99
330
48
100
AcDbEntity
  8
1
  6
Continuous
 62
     7
100
AcDbCircle
 10
109.4999999999999
 20
12.5
 30
0.0
 40
0.3000000000000966
  0
CIRCLE
  5
9A
330
48
100
AcDbEntity
  8
1
  6
Continuous
 62
     7
100
AcDbCircle
 10
120.4999999999999
 20
12.5
 30
0.0
 40
0.3000000000000966
  0
CIRCLE
  5
9B
330
48
100
AcDbEntity
  8
1
  6
Continuous
 62
     7
100
AcDbCircle
 10
126.4999999999999
 20
12.5
 30
0.0
 40
0.3000000000000966
  0
CIRCLE
  5
9C
330
48
100
AcDbEntity
  8
1
  6
Continuous
 62
     7
100
AcDbCircle
 10
137.4999999999999
 20
12.5
 30
0.0
 40
0.3000000000001251
  0
CIRCLE
  5
9D
330
48
100
AcDbEntity
  8
1
  6
Continuous
 62
     7
100
AcDbCircle
 10
143.4999999999999
 20
12.5
 30
0.0
 40
0.3000000000001251
  0
CIRCLE
  5
9E
330
48
100
AcDbEntity
  8
1
  6
Continuous
 62
     7
100
AcDbCircle
 10
160.4999999999999
 20
12.5
 30
0.0
 40
0.3000000000001251
  0
CIRCLE
  5
9F
330
48
100
AcDbEntity
  8
1
  6
Continuous
 62
     7
100
AcDbCircle
 10
154.4999999999999
 20
12.5
 30
0.0
 40
0.3000000000001251
  0
CIRCLE
  5
A0
330
48
100
AcDbEntity
  8
1
  6
Continuous
 62
     7
100
AcDbCircle
 10
186.9999999999999
 20
23.50000000000001
 30
0.0
 40
1.200000000000301
  0
CIRCLE
  5
A1
330
48
100
AcDbEntity
  8
1
  6
Continuous
 62
     7
100
AcDbCircle
 10
186.9999999999999
 20
23.50000000000001
 30
0.0
 40
2.0
  0
CIRCLE
  5
A2
330
48
100
AcDbEntity
  8
1
  6
DOT_CENTER
 62
     7
100
AcDbCircle
 10
89.49999999999997
 20
16.0
 30
0.0
 40
0.1000000000000227
  0
CIRCLE
  5
A3
330
48
100
AcDbEntity
  8
1
  6
DOT_CENTER
 62
     7
100
AcDbCircle
 10
89.49999999999997
 20
18.0
 30
0.0
 40
0.1000000000000227
  0
SPLINE
  5
A4
102
{ACAD_REACTORS
330
C3
102
}
330
48
100
AcDbEntity
  8
_U_30EC_U_30A4_U_30E4_U_30FC_1
  6
Continuous
 62
     2
100
AcDbSpline
210
0.0
220
0.0
230
1.0
 70
     8
 71
     3
 72
    24
 73
    20
 74
    18
 42
0.000000001
 43
0.0000000001
 44
0.00000001
 40
0.0
 40
0.0
 40
0.0
 40
0.0
 40
0.2211075008754146
 40
0.427321858624527
 40
0.5080174679240541
 40
0.5914835907871145
 40
0.8143265690193693
 40
1.054651302686684
 40
1.295452694023273
 40
1.518109231328929
 40
1.540864321905544
 40
1.595126460622806
 40
1.65989094789612
 40
1.714153085187479
 40
1.736908174961779
 40
1.764951100735463
 40
1.801562291220971
 40
1.953914424543664
 40
2.126104167379745
 40
2.126104167379745
 40
2.126104167379745
 40
2.126104167379745
 10
185.937536955689
 20
15.58989295113016
 30
0.0
 10
185.9112579081812
 20
15.53097628234374
 30
0.0
 10
185.8604698894425
 20
15.41711139679258
 30
0.0
 10
185.8131784839113
 20
15.14441958233117
 30
0.0
 10
185.7043482802618
 20
15.24445482575452
 30
0.0
 10
185.5514800279637
 20
15.27118593367333
 30
0.0
 10
185.7686155181199
 20
15.48518135017632
 30
0.0
 10
185.783848367438
 20
15.70332117782488
 30
0.0
 10
185.8906889492
 20
15.88451579066426
 30
0.0
 10
185.8305380947078
 20
16.16913226311404
 30
0.0
 10
185.9334317395401
 20
16.14114089222451
 30
0.0
 10
185.977993346815
 20
16.13243251602301
 30
0.0
 10
186.0380842395397
 20
16.12139654183355
 30
0.0
 10
186.0756619587438
 20
16.10767523055559
 30
0.0
 10
186.1252466928605
 20
16.10756076160222
 30
0.0
 10
186.0930158919325
 20
16.07306592398627
 30
0.0
 10
186.0171802221882
 20
16.08404104537957
 30
0.0
 10
186.0429447159693
 20
15.89858969582452
 30
0.0
 10
186.005589676385
 20
15.8070231354959
 30
0.0
 10
185.9857704961609
 20
15.75844135397705
 30
0.0
 11
185.937536955689
 21
15.58989295113016
 31
0.0
 11
185.8616471328552
 21
15.3822170831856
 31
0.0
 11
185.7717402238434
 21
15.19663392356192
 31
0.0
 11
185.7011493923109
 21
15.23573272563551
 31
0.0
 11
185.6245525192651
 21
15.26889163187719
 31
0.0
 11
185.7214026947455
 21
15.46958801203538
 31
0.0
 11
185.7994641467471
 21
15.69688163177024
 31
0.0
 11
185.858971692972
 21
15.93021436608692
 31
0.0
 11
185.9001601511226
 21
16.14902808999055
 31
0.0
 11
185.9224183822214
 21
16.14429889221396
 31
0.0
 11
185.975495702534
 21
16.133021574439
 31
0.0
 11
186.0388460525844
 21
16.11956154999792
 31
0.0
 11
186.091923372897
 21
16.10828423222296
 31
0.0
 11
186.1141816039958
 21
16.10355503444637
 31
0.0
 11
186.096409715746
 21
16.0818625084101
 31
0.0
 11
186.0606122998072
 21
16.07418628445367
 31
0.0
 11
186.028195330148
 21
15.92532288171313
 31
0.0
 11
185.9857704961609
 21
15.75844135397705
 31
0.0
  0
SPLINE
  5
A5
102
{ACAD_REACTORS
330
C3
102
}
330
48
100
AcDbEntity
  8
_U_30EC_U_30A4_U_30E4_U_30FC_1
  6
Continuous
 62
     2
100
AcDbSpline
210
0.0
220
0.0
230
1.0
 70
     8
 71
     3
 72
    70
 73
    66
 74
    64
 42
0.000000001
 43
0.0000000001
 44
0.00000001
 40
0.0
 40
0.0
 40
0.0
 40
0.0
 40
0.0241731073021472
 40
0.0846058988987582
 40
0.1631685280353852
 40
0.2417311571790608
 40
0.302163948829332
 40
0.3263370654896678
 40
0.3533118254250036
 40
0.4228783438923266
 40
0.5179999095314575
 40
0.621639823946731
 40
0.7167613891500914
 40
0.7863279069651107
 40
0.8133026791763079
 40
0.8372943998772917
 40
0.8945054261373545
 40
0.9627895541963032
 40
1.020000580349085
 40
1.043992300975183
 40
1.071934345522919
 40
1.113121768772849
 40
1.145225199332174
 40
1.225483775412712
 40
1.329819923771424
 40
1.434156071994314
 40
1.514414647795739
 40
1.546518078208347
 40
1.578974764260149
 40
1.662678849314087
 40
1.777131373668307
 40
1.901833377474698
 40
2.01628590050046
 40
2.099989982527799
 40
2.132446666570157
 40
2.158782354485879
 40
2.21672086790767
 40
2.274659381334093
 40
2.300995069256027
 40
2.333451754065999
 40
2.417155836543651
 40
2.531608358985091
 40
2.656310362283586
 40
2.77076288638869
 40
2.854466971339827
 40
2.886923657363633
 40
2.913597976833067
 40
2.982389642874871
 40
3.076451716946734
 40
3.178937260458351
 40
3.272999334739753
 40
3.341791001058976
 40
3.368465320663288
 40
3.396976080738538
 40
3.472140811845746
 40
3.578408190308435
 40
3.7002268924559
 40
3.822045594634117
 40
3.928312973256224
 40
4.003477705314621
 40
4.031988456866687
 40
4.058324144797487
 40
4.116262658236648
 40
4.174201171400444
 40
4.200536849608378
 40
4.200536849608378
 40
4.200536849608378
 40
4.200536849608378
 10
185.9857704961609
 20
15.75844135397705
 30
0.0
 10
185.9938259544679
 20
15.75844359811686
 30
0.0
 10
186.0220200663241
 20
15.75845146032797
 30
0.0
 10
186.0765534803673
 20
15.75830754828372
 30
0.0
 10
186.1482891808604
 20
15.75909120499898
 30
0.0
 10
186.2236240137063
 20
15.75627570463811
 30
0.0
 10
186.2713052366439
 20
15.76298403400957
 30
0.0
 10
186.3195071245617
 20
15.75197563692431
 30
0.0
 10
186.3062571799875
 20
15.80546402997033
 30
0.0
 10
186.3151093964539
 20
15.86049583543092
 30
0.0
 10
186.3108698036287
 20
15.95419908726109
 30
0.0
 10
186.3133483481281
 20
16.04959482218533
 30
0.0
 10
186.3090938706062
 20
16.14356821983388
 30
0.0
 10
186.3179818665847
 20
16.19795062438013
 30
0.0
 10
186.3046977409946
 20
16.25233997691462
 30
0.0
 10
186.351411927711
 20
16.23842216335359
 30
0.0
 10
186.3943254545737
 20
16.24103877374044
 30
0.0
 10
186.4605443456684
 20
16.23648422450756
 30
0.0
 10
186.5013342271799
 20
16.22778162134163
 30
0.0
 10
186.5525145690818
 20
16.23531799890196
 30
0.0
 10
186.5253720487201
 20
16.19349970223289
 30
0.0
 10
186.4803096055708
 20
16.20284992072594
 30
0.0
 10
186.4942065045051
 20
16.13841207371838
 30
0.0
 10
186.4858414431655
 20
16.073782196274
 30
0.0
 10
186.4903632178399
 20
15.97529141193888
 30
0.0
 10
186.4854741311169
 20
15.87595932842571
 30
0.0
 10
186.4950258992082
 20
15.81293115552969
 30
0.0
 10
186.4799761455201
 20
15.74964011499788
 30
0.0
 10
186.5449159457209
 20
15.76515072944268
 30
0.0
 10
186.6116246399498
 20
15.75499387697813
 30
0.0
 10
186.7241435470828
 20
15.75988800099367
 30
0.0
 10
186.8390235448954
 20
15.75691204732784
 30
0.0
 10
186.9519871999746
 20
15.7622166418499
 30
0.0
 10
187.0176267597678
 20
15.7510730647209
 30
0.0
 10
187.0816276691053
 20
15.76744532319857
 30
0.0
 10
187.070314288919
 20
15.71761689905275
 30
0.0
 10
187.077533987151
 20
15.67416715212123
 30
0.0
 10
187.0703142611269
 20
15.63071745587445
 30
0.0
 10
187.0816277175994
 20
15.58088895196876
 30
0.0
 10
187.0176263598972
 20
15.59726166091362
 30
0.0
 10
186.951992124046
 20
15.58611271661588
 30
0.0
 10
186.838997431733
 20
15.59144857206854
 30
0.0
 10
186.7242456548643
 20
15.58834345663822
 30
0.0
 10
186.6113183686861
 20
15.59364894682589
 30
0.0
 10
186.5455220903585
 20
15.58257300019593
 30
0.0
 10
186.4816097975358
 20
15.59887597847618
 30
0.0
 10
186.4936015165127
 20
15.54423524395742
 30
0.0
 10
186.4862104613006
 20
15.48854295047841
 30
0.0
 10
186.4892684841984
 20
15.3964968914057
 30
0.0
 10
186.4893422785685
 20
15.30179109873101
 30
0.0
 10
186.4860313578361
 20
15.20952782902265
 30
0.0
 10
186.4939505989904
 20
15.15435768736139
 30
0.0
 10
186.4815076611618
 20
15.10058169100135
 30
0.0
 10
186.5389116551633
 20
15.11453768862781
 30
0.0
 10
186.5994708140384
 20
15.10511457884226
 30
0.0
 10
186.7048680855082
 20
15.10942885928705
 30
0.0
 10
186.8204294070624
 20
15.10835504612032
 30
0.0
 10
186.9359688877798
 20
15.10725965900994
 30
0.0
 10
187.0414181130843
 20
15.11162525770632
 30
0.0
 10
187.1018680471805
 20
15.10209426030671
 30
0.0
 10
187.1592837739111
 20
15.11617289606379
 30
0.0
 10
187.1477773876711
 20
15.06707153265683
 30
0.0
 10
187.153756678175
 20
15.02564658018648
 30
0.0
 10
187.1520311050804
 20
14.97651677966696
 30
0.0
 10
187.1521500122972
 20
14.94854428447608
 30
0.0
 10
187.1521871691834
 20
14.9398028819595
 30
0.0
 11
185.9857704961609
 21
15.75844135397705
 31
0.0
 11
186.0099436128282
 21
15.75844135397705
 31
0.0
 11
186.0703764044963
 21
15.75844135397705
 31
0.0
 11
186.1489390336649
 21
15.75844135397705
 31
0.0
 11
186.2275016628334
 21
15.75844135397705
 31
0.0
 11
186.2879344545015
 21
15.75844135397705
 31
0.0
 11
186.3121075711688
 21
15.75844135397705
 31
0.0
 11
186.3121075711688
 21
15.78541612620063
 31
0.0
 11
186.3121075711688
 21
15.85498264404039
 31
0.0
 11
186.3121075711688
 21
15.95010420924986
 31
0.0
 11
186.3121075711688
 21
16.05374412358256
 31
0.0
 11
186.3121075711688
 21
16.14886568879203
 31
0.0
 11
186.3121075711688
 21
16.21843220663179
 31
0.0
 11
186.3121075711688
 21
16.24540697885537
 31
0.0
 11
186.3360407604893
 21
16.24373213107801
 31
0.0
 11
186.3931122119458
 21
16.23973826330122
 31
0.0
 11
186.4612297507811
 21
16.23497138885796
 31
0.0
 11
186.5183012022376
 21
16.23097752108118
 31
0.0
 11
186.5422343915581
 21
16.22930267330382
 31
0.0
 11
186.5274972731229
 21
16.20556293372641
 31
0.0
 11
186.4886640249977
 21
16.19183767331313
 31
0.0
 11
186.4886640249977
 21
16.1597342422512
 31
0.0
 11
186.4886640249977
 21
16.07947566459637
 31
0.0
 11
186.4886640249977
 21
15.97513951364509
 31
0.0
 11
186.4886640249977
 21
15.87080336269381
 31
0.0
 11
186.4886640249977
 21
15.79054478503898
 31
0.0
 11
186.4886640249977
 21
15.75844135397705
 31
0.0
 11
186.5211207110825
 21
15.75844135397705
 31
0.0
 11
186.6048247962486
 21
15.75844135397705
 31
0.0
 11
186.7192773208635
 21
15.75844135397705
 31
0.0
 11
186.8439793252946
 21
15.75844135397705
 31
0.0
 11
186.9584318499095
 21
15.75844135397705
 31
0.0
 11
187.0421359350756
 21
15.75844135397705
 31
0.0
 11
187.0745926211604
 21
15.75844135397705
 31
0.0
 11
187.0745926211604
 21
15.73210566604961
 31
0.0
 11
187.0745926211604
 21
15.67416715260924
 31
0.0
 11
187.0745926211604
 21
15.61622863916888
 31
0.0
 11
187.0745926211604
 21
15.58989295124144
 31
0.0
 11
187.0421359350756
 21
15.58989295124144
 31
0.0
 11
186.9584318499095
 21
15.58989295124144
 31
0.0
 11
186.8439793252946
 21
15.58989295124144
 31
0.0
 11
186.7192773208635
 21
15.58989295124144
 31
0.0
 11
186.6048247962486
 21
15.58989295124144
 31
0.0
 11
186.5211207110825
 21
15.58989295124144
 31
0.0
 11
186.4886640249977
 21
15.58989295124144
 31
0.0
 11
186.4886640249977
 21
15.56321863152022
 31
0.0
 11
186.4886640249977
 21
15.49442696487075
 31
0.0
 11
186.4886640249977
 21
15.40036489006434
 31
0.0
 11
186.4886640249977
 21
15.29787934587227
 31
0.0
 11
186.4886640249977
 21
15.20381727106586
 31
0.0
 11
186.4886640249977
 21
15.13502560441639
 31
0.0
 11
186.4886640249977
 21
15.10835128469517
 31
0.0
 11
186.5171747850994
 21
15.10835128469517
 31
0.0
 11
186.5923395162767
 21
15.10835128469517
 31
0.0
 11
186.6986068948377
 21
15.10835128469517
 31
0.0
 11
186.8204255970905
 21
15.10835128469517
 31
0.0
 11
186.9422442993434
 21
15.10835128469517
 31
0.0
 11
187.0485116779044
 21
15.10835128469517
 31
0.0
 11
187.1236764090817
 21
15.10835128469517
 31
0.0
 11
187.1521871691834
 21
15.10835128469517
 31
0.0
 11
187.1521871691834
 21
15.08201559676772
 31
0.0
 11
187.1521871691834
 21
15.02407708332733
 31
0.0
 11
187.1521871691834
 21
14.96613856988695
 31
0.0
 11
187.1521871691834
 21
14.9398028819595
 31
0.0
  0
SPLINE
  5
A6
102
{ACAD_REACTORS
330
C3
102
}
330
48
100
AcDbEntity
  8
_U_30EC_U_30A4_U_30E4_U_30FC_1
  6
Continuous
 62
     2
100
AcDbSpline
210
0.0
220
0.0
230
1.0
 70
     8
 71
     3
 72
    62
 73
    58
 74
    56
 42
0.000000001
 43
0.0000000001
 44
0.00000001
 40
0.0
 40
0.0
 40
0.0
 40
0.0
 40
0.0598250028309053
 40
0.2024846486898184
 40
0.3727558389222168
 40
0.5154154847937491
 40
0.5752404975787329
 40
0.9332326775489402
 40
1.290451762839706
 40
1.602077253146122
 40
1.699931634112401
 40
1.799359756425297
 40
2.270120149657332
 40
2.804661928461743
 40
2.882342287383456
 40
3.076543185719305
 40
3.329004354835763
 40
3.581465524568586
 40
3.775666424543869
 40
3.853346784558489
 40
3.899120679595263
 40
3.984129341792204
 40
4.029903236817552
 40
4.105797496059707
 40
4.295533144152665
 40
4.542189486611906
 40
4.788845828875851
 40
4.978581476410233
 40
5.054475735244476
 40
5.62173466433952
 40
6.130867242037575
 40
6.225249780948841
 40
6.318913039727573
 40
6.663579954559283
 40
7.047498900225133
 40
7.43523079157605
 40
7.498943906668462
 40
7.650875181210456
 40
7.832212509001966
 40
7.984143783697352
 40
8.047856898903479
 40
8.091554632732985
 40
8.172707566964643
 40
8.216405300768365
 40
8.28902178216125
 40
8.462184160757623
 40
8.668861838005789
 40
8.84202421526438
 40
8.914640695475605
 40
8.98988158086181
 40
9.155411528827718
 40
9.320941477744501
 40
9.396182352487754
 40
9.454709011144244
 40
9.583467660171264
 40
9.712226309013486
 40
9.770752957989968
 40
9.770752957989968
 40
9.770752957989968
 40
9.770752957989968
 10
187.1521871691834
 20
14.9398028819595
 30
0.0
 10
187.1322348171624
 20
14.93980875568671
 30
0.0
 10
187.0647037716466
 20
14.93982863806157
 30
0.0
 10
186.9410612161788
 20
14.93949362520325
 30
0.0
 10
186.7863180150056
 20
14.94107673750512
 30
0.0
 10
186.669734948248
 20
14.93686078860495
 30
0.0
 10
186.4550942634239
 20
14.95215205331627
 30
0.0
 10
186.8518948407228
 20
14.59198721286192
 30
0.0
 10
186.8945656069266
 20
14.37510503397166
 30
0.0
 10
187.3189162146612
 20
14.19325062511446
 30
0.0
 10
187.1439821496073
 20
14.08985196568075
 30
0.0
 10
187.0194523925084
 20
13.87831523212722
 30
0.0
 10
186.7666277235943
 20
14.34806081001561
 30
0.0
 10
186.4797602893626
 20
14.99511516984521
 30
0.0
 10
186.4906335926662
 20
14.68782672154694
 30
0.0
 10
186.488289277796
 20
14.52288616971779
 30
0.0
 10
186.4861096126411
 20
14.28879670711694
 30
0.0
 10
186.4980774396348
 20
14.04498072421784
 30
0.0
 10
186.4687984740632
 20
13.89855796860985
 30
0.0
 10
186.5114522625471
 20
13.75113490174538
 30
0.0
 10
186.423981400564
 20
13.76685797306221
 30
0.0
 10
186.3768527606745
 20
13.76694303543455
 30
0.0
 10
186.2898973207714
 20
13.7510942548291
 30
0.0
 10
186.3313474021724
 20
13.89527771422763
 30
0.0
 10
186.3029875004286
 20
14.03855052698456
 30
0.0
 10
186.31459737753
 20
14.27674947365265
 30
0.0
 10
186.3124175648273
 20
14.50517235240346
 30
0.0
 10
186.3103111127994
 20
14.66705729375994
 30
0.0
 10
186.3208035438325
 20
14.98153709333754
 30
0.0
 10
186.0128963252892
 20
14.29229470872433
 30
0.0
 10
185.7055258267458
 20
13.81476750243054
 30
0.0
 10
185.5851367066273
 20
14.03741112637428
 30
0.0
 10
185.4074607910721
 20
14.15011034955564
 30
0.0
 10
185.8853326362895
 20
14.32548143465458
 30
0.0
 10
185.9353959057207
 20
14.5609192925203
 30
0.0
 10
186.3583799621717
 20
14.95322989344607
 30
0.0
 10
186.127675427354
 20
14.93655307029066
 30
0.0
 10
186.004968585934
 20
14.9426951894877
 30
0.0
 10
185.8325483095661
 20
14.93312822699574
 30
0.0
 10
185.721322469445
 20
14.95448818489667
 30
0.0
 10
185.6025779627447
 20
14.92136265357419
 30
0.0
 10
185.6183169706686
 20
15.00203900606884
 30
0.0
 10
185.6178550933762
 20
15.04645414290853
 30
0.0
 10
185.6027881889931
 20
15.12967081778533
 30
0.0
 10
185.7372380935443
 20
15.09062651983882
 30
0.0
 10
185.8619755545746
 20
15.11739729328422
 30
0.0
 10
186.0628755237281
 20
15.10063949044052
 30
0.0
 10
186.1921540949354
 20
15.12204225913005
 30
0.0
 10
186.3328419928295
 20
15.08868778853419
 30
0.0
 10
186.2980927452617
 20
15.22651875785068
 30
0.0
 10
186.3222185666713
 20
15.34963257349481
 30
0.0
 10
186.2967086182393
 20
15.47024055670335
 30
0.0
 10
186.3333251146686
 20
15.60539865141493
 30
0.0
 10
186.2211417027771
 20
15.58094545781891
 30
0.0
 10
186.1280356457137
 20
15.59307749842022
 30
0.0
 10
186.0191547579821
 20
15.58957630069994
 30
0.0
 10
185.9569697640965
 20
15.58981755951602
 30
0.0
 10
185.9375369557247
 20
15.58989295124144
 30
0.0
 11
187.1521871691834
 21
14.9398028819595
 31
0.0
 11
187.0923621563983
 21
14.9398028819595
 31
0.0
 11
186.949702510526
 21
14.9398028819595
 31
0.0
 11
186.7794313202913
 21
14.9398028819595
 31
0.0
 11
186.6367716744191
 21
14.9398028819595
 31
0.0
 11
186.5769466616339
 21
14.9398028819595
 31
0.0
 11
186.7679960754842
 21
14.63705127966891
 31
0.0
 11
186.9941272785629
 21
14.36051890576685
 31
0.0
 11
187.2244526173371
 21
14.15061253493458
 31
0.0
 11
187.1521596330703
 21
14.08466403668717
 31
0.0
 11
187.0879364402643
 21
14.00876059052561
 31
0.0
 11
186.7732818215558
 21
14.35891458349363
 31
0.0
 11
186.4886640249977
 21
14.81138295143601
 31
0.0
 11
186.4886640249977
 21
14.73370259137313
 31
0.0
 11
186.4886640249977
 21
14.53950169121593
 31
0.0
 11
186.4886640249977
 21
14.28704052101157
 31
0.0
 11
186.4886640249977
 21
14.03457935080721
 31
0.0
 11
186.4886640249977
 21
13.84037845065001
 31
0.0
 11
186.4886640249977
 21
13.76269809058713
 31
0.0
 11
186.4428901295606
 21
13.76269809058713
 31
0.0
 11
186.3578814666059
 21
13.76269809058713
 31
0.0
 11
186.3121075711688
 21
13.76269809058713
 31
0.0
 11
186.3121075711688
 21
13.83859234982741
 31
0.0
 11
186.3121075711688
 21
14.02832799792812
 31
0.0
 11
186.3121075711688
 21
14.27498434045904
 31
0.0
 11
186.3121075711688
 21
14.52164068298996
 31
0.0
 11
186.3121075711688
 21
14.71137633109067
 31
0.0
 11
186.3121075711688
 21
14.78727059033095
 31
0.0
 11
185.9987626399267
 21
14.31440946197694
 31
0.0
 11
185.6352328662148
 21
13.95795177109382
 31
0.0
 11
185.5773927461627
 21
14.03253450545022
 31
0.0
 11
185.509485230534
 21
14.09704322939242
 31
0.0
 11
185.7750721898319
 21
14.3167221979589
 31
0.0
 11
186.0233764972061
 21
14.60953395971697
 31
0.0
 11
186.226498280526
 21
14.9398028819595
 31
0.0
 11
186.1627851652721
 21
14.9398028819595
 31
0.0
 11
186.0108538904359
 21
14.9398028819595
 31
0.0
 11
185.8295165624055
 21
14.9398028819595
 31
0.0
 11
185.6775852875693
 21
14.9398028819595
 31
0.0
 11
185.6138721723154
 21
14.9398028819595
 31
0.0
 11
185.6138721723154
 21
14.98350061600208
 31
0.0
 11
185.6138721723154
 21
15.06465355065259
 31
0.0
 11
185.6138721723154
 21
15.10835128469517
 31
0.0
 11
185.6864886537961
 21
15.10835128469517
 31
0.0
 11
185.8596510327118
 21
15.10835128469517
 31
0.0
 11
186.0663287107724
 21
15.10835128469517
 31
0.0
 11
186.239491089688
 21
15.10835128469517
 31
0.0
 11
186.3121075711688
 21
15.10835128469517
 31
0.0
 11
186.3121075711688
 21
15.18359217009302
 31
0.0
 11
186.3121075711688
 21
15.3491221179683
 31
0.0
 11
186.3121075711688
 21
15.51465206584358
 31
0.0
 11
186.3121075711688
 21
15.58989295124144
 31
0.0
 11
186.2535809125057
 21
15.58989295124144
 31
0.0
 11
186.1248222634468
 21
15.58989295124144
 31
0.0
 11
185.9960636143879
 21
15.58989295124144
 31
0.0
 11
185.9375369557247
 21
15.58989295124144
 31
0.0
  0
SPLINE
  5
A7
102
{ACAD_REACTORS
330
C4
102
}
330
48
100
AcDbEntity
  8
_U_30EC_U_30A4_U_30E4_U_30FC_1
  6
Continuous
 62
     2
100
AcDbSpline
210
0.0
220
0.0
230
1.0
 70
    11
 71
     3
 72
   124
 73
   120
 74
   118
 42
0.000000001
 43
0.0000000001
 44
0.00000001
 40
0.0
 40
0.0
 40
0.0
 40
0.0
 40
0.027818722962451
 40
0.1011590162384269
 40
0.2048470170590239
 40
0.3237088716559245
 40
0.4425707262522
 40
0.5462587270699547
 40
0.6195990203311798
 40
0.647417752257866
 40
0.6750060736115242
 40
0.7357003855242812
 40
0.7963946998054563
 40
0.8239830245571873
 40
0.8540933811102966
 40
0.9373396629409647
 40
1.063094687343217
 40
1.220731268638055
 40
1.39962222091473
 40
1.589140358637714
 40
1.778658496423824
 40
1.957549448940463
 40
2.115186030873084
 40
2.240941056914388
 40
2.324187341760457
 40
2.354297700109307
 40
2.381886024671815
 40
2.442580338710408
 40
2.503274652750433
 40
2.530862977314542
 40
2.560983949278495
 40
2.640393784452841
 40
2.752662861759036
 40
2.881361560118024
 40
3.010060258455042
 40
3.12232933570519
 40
3.201739170817803
 40
3.231860142753164
 40
3.264298024030219
 40
3.35234370177809
 40
3.482095226868611
 40
3.639650650172871
 40
3.811108022565326
 40
3.982565394927829
 40
4.14012081815241
 40
4.269872343141118
 40
4.357918020802178
 40
4.390355902043807
 40
4.423256253992377
 40
4.508104530072898
 40
4.624121560636666
 40
4.750528176031422
 40
4.866545206601869
 40
4.951393482691826
 40
4.984293834645228
 40
5.011450833242143
 40
5.071196230151927
 40
5.130941627057006
 40
5.15809862564867
 40
5.190998977601361
 40
5.275847253689187
 40
5.391864284256621
 40
5.518270899648166
 40
5.634287930209205
 40
5.719136206287879
 40
5.752036558235766
 40
5.782130946282792
 40
5.862783906228967
 40
5.979550131774833
 40
6.11798431664024
 40
6.263641154587785
 40
6.402075339413991
 40
6.518841564907786
 40
6.599494524815367
 40
6.629588912848605
 40
6.654403028226181
 40
6.713575149487948
 40
6.784199939329265
 40
6.843372060493367
 40
6.868186175802613
 40
6.89624624320169
 40
6.939586233758083
 40
6.967846564564711
 40
7.04358425108965
 40
7.153234334451511
 40
7.283231855734265
 40
7.420011856035298
 40
7.55000937657965
 40
7.65965945883505
 40
7.735397144417046
 40
7.763657474851218
 40
7.796409728010875
 40
7.88087606509615
 40
7.996370852465535
 40
8.12220844641843
 40
8.237703224799024
 40
8.322169562010718
 40
8.354921815205731
 40
8.382078813307512
 40
8.441824209206818
 40
8.501569605239968
 40
8.528726603485547
 40
8.561478856695595
 40
8.645945193877646
 40
8.761439980865157
 40
8.8872775807643
 40
9.00277236200082
 40
9.087238696661041
 40
9.119990949235495
 40
9.152428830613195
 40
9.240474508638409
 40
9.370226034149358
 40
9.52778145798424
 40
9.699238830981228
 40
9.870696203978415
 40
10.02825162781384
 40
10.15800315332545
 40
10.246048831351
 40
10.27848670378503
 40
10.27848670378503
 40
10.27848670378503
 40
10.27848670378503
 10
195.3821827564383
 20
14.01410517385758
 30
0.0
 10
195.3914554737523
 20
14.01410498511275
 30
0.0
 10
195.4251744536861
 20
14.01410430876715
 30
0.0
 10
195.4934706812465
 20
14.01411807243305
 30
0.0
 10
195.592014171158
 20
14.01403224219546
 30
0.0
 10
195.7062066464812
 20
14.01441755612252
 30
0.0
 10
195.818589441707
 20
14.01300835897545
 30
0.0
 10
195.9214376600118
 20
14.01719117422244
 30
0.0
 10
195.9806839874849
 20
14.00823089251984
 30
0.0
 10
196.0371265937032
 20
14.02164434526062
 30
0.0
 10
196.0246255586955
 20
13.97087198613362
 30
0.0
 10
196.0329549635703
 20
13.92589320939067
 30
0.0
 10
196.024817084112
 20
13.88056752990489
 30
0.0
 10
196.0370529214456
 20
13.82931932408466
 30
0.0
 10
195.9747773490334
 20
13.84447955365277
 30
0.0
 10
195.9060513026868
 20
13.83359750710742
 30
0.0
 10
195.7782756749591
 20
13.83911304747972
 30
0.0
 10
195.6262984511644
 20
13.83700851253698
 30
0.0
 10
195.4502695972523
 20
13.83771002588473
 30
0.0
 10
195.2644431934287
 20
13.83745237531291
 30
0.0
 10
195.0786167437176
 20
13.83771005144603
 30
0.0
 10
194.9025880142169
 20
13.83700841847731
 30
0.0
 10
194.7506104154195
 20
13.83911332229988
 30
0.0
 10
194.6228357664555
 20
13.8335968076764
 30
0.0
 10
194.5541077836582
 20
13.84448077125942
 30
0.0
 10
194.4918349042884
 20
13.82931786684209
 30
0.0
 10
194.5040616290019
 20
13.88057510805171
 30
0.0
 10
194.4960004462597
 20
13.92582473272426
 30
0.0
 10
194.5040675809893
 20
13.97106357955324
 30
0.0
 10
194.4918238487084
 20
14.02234176909959
 30
0.0
 10
194.5525017120698
 20
14.00749577363135
 30
0.0
 10
194.6162810745737
 20
14.01756448170736
 30
0.0
 10
194.7277314353503
 20
14.01294644212
 30
0.0
 10
194.8497533443823
 20
14.01413328905469
 30
0.0
 10
194.9719538137824
 20
14.01515863900635
 30
0.0
 10
195.0829794287392
 20
14.01092475623402
 30
0.0
 10
195.1476517413959
 20
14.0201858452174
 30
0.0
 10
195.2091162810501
 20
14.00604423049683
 30
0.0
 10
195.1930065601337
 20
14.07235527884517
 30
0.0
 10
195.2042980327358
 20
14.14447790121977
 30
0.0
 10
195.198740082256
 20
14.27513760888286
 30
0.0
 10
195.200803506169
 20
14.42607323708241
 30
0.0
 10
195.2000167127295
 20
14.59335873107886
 30
0.0
 10
195.2007845215628
 20
14.76061110332303
 30
0.0
 10
195.1988038785628
 20
14.91163289269914
 30
0.0
 10
195.2041306156621
 20
15.04206069552995
 30
0.0
 10
195.1933101388425
 20
15.11465442605899
 30
0.0
 10
195.2090326429875
 20
15.18150469436798
 30
0.0
 10
195.143270813249
 20
15.16580512490824
 30
0.0
 10
195.0756367830764
 20
15.17609243083995
 30
0.0
 10
194.9615885293809
 20
15.17113786847122
 30
0.0
 10
194.8451242674902
 20
15.17414128030475
 30
0.0
 10
194.7306554121477
 20
15.16880303143389
 30
0.0
 10
194.6640324657812
 20
15.18001268074824
 30
0.0
 10
194.5990769715186
 20
15.16349132665011
 30
0.0
 10
194.6107989758708
 20
15.21473720477059
 30
0.0
 10
194.6032830189121
 20
15.2595033378409
 30
0.0
 10
194.6107989878835
 20
15.30426944897961
 30
0.0
 10
194.5990769505347
 20
15.35551536129741
 30
0.0
 10
194.66403263392
 20
15.33899381766815
 30
0.0
 10
194.7306533339821
 20
15.35020571373944
 30
0.0
 10
194.8451352858063
 20
15.34485436710664
 30
0.0
 10
194.9615454436962
 20
15.34791188771117
 30
0.0
 10
195.0757660174641
 20
15.34278499010708
 30
0.0
 10
195.1430150439227
 20
15.35345733355598
 30
0.0
 10
195.2083325941438
 20
15.33742082669077
 30
0.0
 10
195.1941391448553
 20
15.39949685750054
 30
0.0
 10
195.2036059462994
 20
15.46586761628762
 30
0.0
 10
195.1990269004085
 20
15.58239972741966
 30
0.0
 10
195.2007696555948
 20
15.71426685022376
 30
0.0
 10
195.1997551495391
 20
15.85615960150273
 30
0.0
 10
195.2017191344373
 20
15.9876905070258
 30
0.0
 10
195.1964668553851
 20
16.10524577283002
 30
0.0
 10
195.2073408763474
 20
16.16947789001584
 30
0.0
 10
195.1919536641853
 20
16.23108802545047
 30
0.0
 10
195.24075915378
 20
16.21702407382111
 30
0.0
 10
195.2853995564726
 20
16.21954742075314
 30
0.0
 10
195.3538643946743
 20
16.2151279740171
 30
0.0
 10
195.3959106169102
 20
16.20613025544035
 30
0.0
 10
195.4487544758775
 20
16.21411714866511
 30
0.0
 10
195.4207035002013
 20
16.17113917611674
 30
0.0
 10
195.3749142248594
 20
16.18259552043838
 30
0.0
 10
195.3869539073265
 20
16.12173520005138
 30
0.0
 10
195.3796086070641
 20
16.05769299468774
 30
0.0
 10
195.3831195826162
 20
15.94909368863912
 30
0.0
 10
195.3819806760173
 20
15.82494319144753
 30
0.0
 10
195.3819174780262
 20
15.69189719829878
 30
0.0
 10
195.3832872966868
 20
15.56797381249556
 30
0.0
 10
195.3791638801313
 20
15.45868337849338
 30
0.0
 10
195.3877763103564
 20
15.39608580094169
 30
0.0
 10
195.3746757454402
 20
15.33740133296365
 30
0.0
 10
195.4393884328198
 20
15.35362113810902
 30
0.0
 10
195.5060405953156
 20
15.34270260383311
 30
0.0
 10
195.6198779541102
 20
15.34793740173756
 30
0.0
 10
195.7357259122097
 20
15.34485547516913
 30
0.0
 10
195.849692426328
 20
15.35018259812512
 30
0.0
 10
195.91603410181
 20
15.33904208166543
 30
0.0
 10
195.9807188525479
 20
15.35546979593178
 30
0.0
 10
195.9689820772722
 20
15.3042592521005
 30
0.0
 10
195.976516806304
 20
15.25950334121001
 30
0.0
 10
195.9689820992257
 20
15.21474739010027
 30
0.0
 10
195.9807188140736
 20
15.1635369087104
 30
0.0
 10
195.9160344075252
 20
15.1799642779422
 30
0.0
 10
195.8496886430824
 20
15.16882784447269
 30
0.0
 10
195.7357459487012
 20
15.1741311589312
 30
0.0
 10
195.6197995623054
 20
15.17114764593544
 30
0.0
 10
195.5062756882122
 20
15.17606892268393
 30
0.0
 10
195.4389231318804
 20
15.1658508751352
 30
0.0
 10
195.3734285122495
 20
15.18145996138815
 30
0.0
 10
195.3891713619218
 20
15.11463851827411
 30
0.0
 10
195.3783275998213
 20
15.04207057815879
 30
0.0
 10
195.3836581629792
 20
14.91162247614416
 30
0.0
 10
195.3817136151855
 20
14.76064558185226
 30
0.0
 10
195.3823133683215
 20
14.59322243934159
 30
0.0
 10
195.3821506559604
 20
14.42656176118372
 30
0.0
 10
195.3821895488136
 20
14.27360142921637
 30
0.0
 10
195.3821816413098
 20
14.14849178985705
 30
0.0
 10
195.3821828382745
 20
14.06507890991421
 30
0.0
 10
195.3821827716208
 20
14.02491778281976
 30
0.0
 10
195.3821827564383
 20
14.01410517385758
 30
0.0
 11
195.3821827564383
 21
14.01410517385758
 31
0.0
 11
195.4100014883675
 21
14.01410517385758
 31
0.0
 11
195.4833417816353
 21
14.01410517385758
 31
0.0
 11
195.5870297824622
 21
14.01410517385758
 31
0.0
 11
195.7058916370687
 21
14.01410517385758
 31
0.0
 11
195.8247534916751
 21
14.01410517385758
 31
0.0
 11
195.928441492502
 21
14.01410517385758
 31
0.0
 11
196.0017817857698
 21
14.01410517385758
 31
0.0
 11
196.029600517699
 21
14.01410517385758
 31
0.0
 11
196.029600517699
 21
13.9865168492117
 31
0.0
 11
196.029600517699
 21
13.92582253499077
 31
0.0
 11
196.029600517699
 21
13.86512822076985
 31
0.0
 11
196.029600517699
 21
13.83753989612397
 31
0.0
 11
195.9994901593494
 21
13.83753989612397
 31
0.0
 11
195.9162438745004
 21
13.83753989612397
 31
0.0
 11
195.7904888484521
 21
13.83753989612397
 31
0.0
 11
195.6328522665042
 21
13.83753989612397
 31
0.0
 11
195.4539613139565
 21
13.83753989612397
 31
0.0
 11
195.2644431761089
 21
13.83753989612397
 31
0.0
 11
195.0749250382613
 21
13.83753989612397
 31
0.0
 11
194.8960340857137
 21
13.83753989612397
 31
0.0
 11
194.7383975037657
 21
13.83753989612397
 31
0.0
 11
194.6126424777173
 21
13.83753989612397
 31
0.0
 11
194.5293961928684
 21
13.83753989612397
 31
0.0
 11
194.4992858345188
 21
13.83753989612397
 31
0.0
 11
194.4992858345188
 21
13.86512822076985
 31
0.0
 11
194.4992858345188
 21
13.92582253499078
 31
0.0
 11
194.4992858345188
 21
13.9865168492117
 31
0.0
 11
194.4992858345188
 21
14.01410517385758
 31
0.0
 11
194.5294068064948
 21
14.01410517385758
 31
0.0
 11
194.6088166417041
 21
14.01410517385758
 31
0.0
 11
194.7210857190691
 21
14.01410517385758
 31
0.0
 11
194.8497844175118
 21
14.01410517385758
 31
0.0
 11
194.9784831159545
 21
14.01410517385758
 31
0.0
 11
195.0907521933195
 21
14.01410517385758
 31
0.0
 11
195.1701620285289
 21
14.01410517385758
 31
0.0
 11
195.2002830005048
 21
14.01410517385758
 31
0.0
 11
195.2002830005048
 21
14.04654305523836
 31
0.0
 11
195.2002830005048
 21
14.13458873327191
 31
0.0
 11
195.2002830005048
 21
14.26434025879503
 31
0.0
 11
195.2002830005048
 21
14.42189568264454
 31
0.0
 11
195.2002830005048
 21
14.59335305565724
 31
0.0
 11
195.2002830005048
 21
14.76481042866994
 31
0.0
 11
195.2002830005048
 21
14.92236585251945
 31
0.0
 11
195.2002830005048
 21
15.05211737804257
 31
0.0
 11
195.2002830005048
 21
15.14016305607612
 31
0.0
 11
195.2002830005048
 21
15.1726009374569
 31
0.0
 11
195.1673826485529
 21
15.1726009374569
 31
0.0
 11
195.0825343724662
 21
15.1726009374569
 31
0.0
 11
194.9665173418988
 21
15.1726009374569
 31
0.0
 11
194.8401107265044
 21
15.1726009374569
 31
0.0
 11
194.724093695937
 21
15.1726009374569
 31
0.0
 11
194.6392454198503
 21
15.1726009374569
 31
0.0
 11
194.6063450678984
 21
15.1726009374569
 31
0.0
 11
194.6063450678984
 21
15.19975793614802
 31
0.0
 11
194.6063450678984
 21
15.2595033332685
 31
0.0
 11
194.6063450678984
 21
15.31924873038898
 31
0.0
 11
194.6063450678984
 21
15.3464057290801
 31
0.0
 11
194.6392454198504
 21
15.3464057290801
 31
0.0
 11
194.724093695937
 21
15.3464057290801
 31
0.0
 11
194.8401107265044
 21
15.3464057290801
 31
0.0
 11
194.9665173418988
 21
15.3464057290801
 31
0.0
 11
195.0825343724662
 21
15.3464057290801
 31
0.0
 11
195.1673826485529
 21
15.3464057290801
 31
0.0
 11
195.2002830005048
 21
15.3464057290801
 31
0.0
 11
195.2002830005048
 21
15.3765001173137
 31
0.0
 11
195.2002830005048
 21
15.45715307777974
 31
0.0
 11
195.2002830005048
 21
15.57391930412609
 31
0.0
 11
195.2002830005048
 21
15.71235349000063
 31
0.0
 11
195.2002830005048
 21
15.85801032905124
 31
0.0
 11
195.2002830005048
 21
15.99644451492578
 31
0.0
 11
195.2002830005048
 21
16.11321074127214
 31
0.0
 11
195.2002830005048
 21
16.19386370173817
 31
0.0
 11
195.2002830005048
 21
16.22395808997177
 31
0.0
 11
195.2250405288618
 21
16.22228324219442
 31
0.0
 11
195.2840777118669
 21
16.21828937441765
 31
0.0
 11
195.3545414464214
 21
16.21352249997441
 31
0.0
 11
195.4135786294265
 21
16.20952863219765
 31
0.0
 11
195.4383361577835
 21
16.20785378442029
 31
0.0
 11
195.423306722403
 21
16.1841581420651
 31
0.0
 11
195.3821827564383
 21
16.17047697887405
 31
0.0
 11
195.3821827564383
 21
16.14221664794833
 31
0.0
 11
195.3821827564383
 21
16.06647896106741
 31
0.0
 11
195.3821827564383
 21
15.95682887707562
 31
0.0
 11
195.3821827564383
 21
15.82683135481731
 31
0.0
 11
195.3821827564383
 21
15.69005135313683
 31
0.0
 11
195.3821827564383
 21
15.56005383087853
 31
0.0
 11
195.3821827564383
 21
15.45040374688675
 31
0.0
 11
195.3821827564383
 21
15.37466606000582
 31
0.0
 11
195.3821827564383
 21
15.3464057290801
 31
0.0
 11
195.4149350096115
 21
15.3464057290801
 31
0.0
 11
195.4994013467422
 21
15.3464057290801
 31
0.0
 11
195.6148961342476
 21
15.3464057290801
 31
0.0
 11
195.7407337385445
 21
15.3464057290801
 31
0.0
 11
195.8562285260498
 21
15.3464057290801
 31
0.0
 11
195.9406948631806
 21
15.3464057290801
 31
0.0
 11
195.9734471163538
 21
15.3464057290801
 31
0.0
 11
195.9734471163538
 21
15.31924873038898
 31
0.0
 11
195.9734471163538
 21
15.2595033332685
 31
0.0
 11
195.9734471163538
 21
15.19975793614802
 31
0.0
 11
195.9734471163538
 21
15.1726009374569
 31
0.0
 11
195.9406948631806
 21
15.1726009374569
 31
0.0
 11
195.8562285260498
 21
15.1726009374569
 31
0.0
 11
195.7407337385445
 21
15.1726009374569
 31
0.0
 11
195.6148961342476
 21
15.1726009374569
 31
0.0
 11
195.4994013467422
 21
15.1726009374569
 31
0.0
 11
195.4149350096114
 21
15.1726009374569
 31
0.0
 11
195.3821827564383
 21
15.1726009374569
 31
0.0
 11
195.3821827564383
 21
15.14016305607612
 31
0.0
 11
195.3821827564383
 21
15.05211737804257
 31
0.0
 11
195.3821827564383
 21
14.92236585251945
 31
0.0
 11
195.3821827564383
 21
14.76481042866994
 31
0.0
 11
195.3821827564383
 21
14.59335305565724
 31
0.0
 11
195.3821827564383
 21
14.42189568264454
 31
0.0
 11
195.3821827564383
 21
14.26434025879503
 31
0.0
 11
195.3821827564383
 21
14.13458873327191
 31
0.0
 11
195.3821827564383
 21
14.04654305523836
 31
0.0
 11
195.3821827564383
 21
14.01410517385758
 31
0.0
  0
SPLINE
  5
A8
102
{ACAD_REACTORS
330
C5
102
}
330
48
100
AcDbEntity
  8
_U_30EC_U_30A4_U_30E4_U_30FC_1
  6
Continuous
 62
     2
100
AcDbSpline
210
0.0
220
0.0
230
1.0
 70
    11
 71
     3
 72
   131
 73
   127
 74
   125
 42
0.000000001
 43
0.0000000001
 44
0.00000001
 40
0.0
 40
0.0
 40
0.0
 40
0.0
 40
0.0195577029826288
 40
0.0426490537462123
 40
0.2863607575857058
 40
0.5344948436189574
 40
0.7842238845573303
 40
0.8737315789467518
 40
0.9803832810312803
 40
1.092842274517027
 40
1.199761146656764
 40
1.289788768186492
 40
1.351573580786206
 40
1.370727117561452
 40
1.416400936017861
 40
1.470914848356022
 40
1.516588666791812
 40
1.535742203552909
 40
1.634216592293216
 40
1.760283341175011
 40
1.897966686682074
 40
2.031216387368858
 40
2.049689751137851
 40
2.101115601646788
 40
2.179502577739907
 40
2.278859318314021
 40
2.39319446225868
 40
2.516516648383796
 40
2.642834515405925
 40
2.766156701983427
 40
2.880491846754543
 40
2.979848588358585
 40
3.058235565443765
 40
3.109661416668919
 40
3.128134780704094
 40
3.146783742386411
 40
3.1912543433153
 40
3.244332157315959
 40
3.288802758225891
 40
3.307451719895163
 40
3.327717853844776
 40
3.383747753580135
 40
3.468388665924525
 40
3.574487837698834
 40
3.694892515728938
 40
3.822449946852077
 40
3.950007377920466
 40
4.070412055800558
 40
4.176511227368113
 40
4.26115213950156
 40
4.317182039076753
 40
4.337448172964672
 40
4.62001100269628
 40
4.885096638397455
 40
4.945373043518316
 40
5.01410771048867
 40
5.070481727652063
 40
5.31924695563661
 40
5.584812164506125
 40
5.859000912056976
 40
6.133746937542158
 40
6.401732212968961
 40
6.420736683995552
 40
6.472845717451202
 40
6.55070274389413
 40
6.646951193874338
 40
6.754234497930662
 40
6.86519608658744
 40
6.972479390357899
 40
7.068727839772061
 40
7.14658486545107
 40
7.198693898189299
 40
7.21769836890544
 40
7.234950401630918
 40
7.276089864269963
 40
7.325191803516072
 40
7.366331266090459
 40
7.38358329876981
 40
7.402779163492188
 40
7.453386443254619
 40
7.52493466644562
 40
7.60695336140596
 40
7.688972056429112
 40
7.760520279784362
 40
7.811127559734604
 40
7.830323424546226
 40
7.847844055299857
 40
7.894799345666897
 40
7.962779392744586
 40
8.043374293560637
 40
8.128174145149545
 40
8.208769044817346
 40
8.27674909037705
 40
8.323704379669616
 40
8.341225010056347
 40
8.358497614800495
 40
8.4016791266867
 40
8.457815092185758
 40
8.513951057728162
 40
8.557132569708118
 40
8.574405174505161
 40
8.602340668616513
 40
8.643455660539999
 40
8.663225271966667
 40
8.715345156564315
 40
8.789031889628653
 40
8.873502045520384
 40
8.95797219432401
 40
9.031658925567903
 40
9.083778811234595
 40
9.103548423003057
 40
9.119550083123594
 40
9.160817522379896
 40
9.217244429110233
 40
9.27872449164469
 40
9.335151398295475
 40
9.376418837357742
 40
9.39242049730053
 40
9.401196302734748
 40
9.417494229384225
 40
9.426270027749498
 40
9.44087507547753
 40
9.475702496998712
 40
9.517270709865878
 40
9.552098131994049
 40
9.566703169884256
 40
9.566703169884256
 40
9.566703169884256
 40
9.566703169884256
 10
194.6170254148479
 20
15.67015871511027
 30
0.0
 10
194.6134345093371
 20
15.66453690702159
 30
0.0
 10
194.6056039123624
 20
15.65227754419111
 30
0.0
 10
194.5129968974547
 20
15.61601916040983
 30
0.0
 10
194.4887622233246
 20
15.40148444212711
 30
0.0
 10
194.3858709845937
 20
15.22197284509709
 30
0.0
 10
194.1220492364306
 20
15.03615573798146
 30
0.0
 10
194.2845471569179
 20
14.95959336566082
 30
0.0
 10
194.3607225760838
 20
14.89856693195441
 30
0.0
 10
194.4492171072757
 20
14.8351580454476
 30
0.0
 10
194.5389930233111
 20
14.77525634219559
 30
0.0
 10
194.5883817636045
 20
14.72102154849207
 30
0.0
 10
194.6745708157382
 20
14.69286240541833
 30
0.0
 10
194.6411260674228
 20
14.65713309652812
 30
0.0
 10
194.621467116631
 20
14.62550387991905
 30
0.0
 10
194.5919888217882
 20
14.58475872796071
 30
0.0
 10
194.5688989446031
 20
14.55504663489642
 30
0.0
 10
194.5380205968355
 20
14.50211422668497
 30
0.0
 10
194.472919336574
 20
14.627403349389
 30
0.0
 10
194.3796000122415
 20
14.68213900233936
 30
0.0
 10
194.295063628514
 20
14.73916423939341
 30
0.0
 10
194.1722498125741
 20
14.89675287427522
 30
0.0
 10
194.1764450847303
 20
14.82035806766838
 30
0.0
 10
194.1751478652678
 20
14.77361280161296
 30
0.0
 10
194.1758126448078
 20
14.69584785812602
 30
0.0
 10
194.1755549986958
 20
14.59902068324423
 30
0.0
 10
194.1756431239923
 20
14.4865027907881
 30
0.0
 10
194.175607730228
 20
14.36524085945699
 30
0.0
 10
194.1756511758281
 20
14.24086897858962
 30
0.0
 10
194.1755199942406
 20
14.11967683631336
 30
0.0
 10
194.1759477562048
 20
14.00691148919744
 30
0.0
 10
194.174667820231
 20
13.91082913768744
 30
0.0
 10
194.1779759851044
 20
13.831138264687
 30
0.0
 10
194.1715197740087
 20
13.78815175788784
 30
0.0
 10
194.1806208705557
 20
13.74955432372042
 30
0.0
 10
194.1447910339936
 20
13.75810887724071
 30
0.0
 10
194.1115223815253
 20
13.75342519985446
 30
0.0
 10
194.0604562576041
 20
13.75351298759784
 30
0.0
 10
194.0269723972813
 20
13.75794430283821
 30
0.0
 10
193.9907585408754
 20
13.74960793842509
 30
0.0
 10
194.0009782568665
 20
13.79145277179284
 30
0.0
 10
193.9936487887773
 20
13.83778560820173
 30
0.0
 10
193.9973633136103
 20
13.92374831106014
 30
0.0
 10
193.9959480554896
 20
14.02605142704849
 30
0.0
 10
193.9964105554638
 20
14.14453223931512
 30
0.0
 10
193.996277368623
 20
14.26957683153356
 30
0.0
 10
193.9963015910045
 20
14.3947582810705
 30
0.0
 10
193.9963354925551
 20
14.51286645379058
 30
0.0
 10
193.9962060293132
 20
14.61628748709516
 30
0.0
 10
193.9965507549081
 20
14.69932036153667
 30
0.0
 10
193.995869827869
 20
14.75143368521243
 30
0.0
 10
193.9994586600623
 20
14.87912907821359
 30
0.0
 10
193.7826171386436
 20
14.58048716819624
 30
0.0
 10
193.6021354921953
 20
14.35263981511525
 30
0.0
 10
193.5490322295611
 20
14.49373443289814
 30
0.0
 10
193.5200429133148
 20
14.54325767560941
 30
0.0
 10
193.4196648062819
 20
14.64641779790107
 30
0.0
 10
193.7405127723261
 20
14.72695035023779
 30
0.0
 10
193.8689897005429
 20
14.91066283036432
 30
0.0
 10
194.0906454325358
 20
15.11931995771762
 30
0.0
 10
194.1770224894069
 20
15.29339211228344
 30
0.0
 10
194.4549394229074
 20
15.5696705134251
 30
0.0
 10
194.3346247839284
 20
15.56534559551114
 30
0.0
 10
194.2863197351348
 20
15.56614856202552
 30
0.0
 10
194.2102377454905
 20
15.56574582146584
 30
0.0
 10
194.116701000975
 20
15.56590275611609
 30
0.0
 10
194.0117594788557
 20
15.56582502576224
 30
0.0
 10
193.9033887738717
 20
15.56595464378554
 30
0.0
 10
193.7981454235897
 20
15.56554393490692
 30
0.0
 10
193.7056237819412
 20
15.56682073671591
 30
0.0
 10
193.6268130800708
 20
15.5634076653485
 30
0.0
 10
193.5839674565379
 20
15.5702335003632
 30
0.0
 10
193.5449499586516
 20
15.56065064201123
 30
0.0
 10
193.5526365271863
 20
15.59420779565543
 30
0.0
 10
193.5485464404312
 20
15.62523550322233
 30
0.0
 10
193.5485531368814
 20
15.672365292709
 30
0.0
 10
193.5526239724911
 20
15.70340941646779
 30
0.0
 10
193.5449495574582
 20
15.73701861635901
 30
0.0
 10
193.5834819405494
 20
15.72748410420872
 30
0.0
 10
193.624122801448
 20
15.73397435498071
 30
0.0
 10
193.6951471850463
 20
15.73100150650254
 30
0.0
 10
193.7729318149633
 20
15.73174761399158
 30
0.0
 10
193.8507292246474
 20
15.73247814044525
 30
0.0
 10
193.9217232089907
 20
15.7295423551416
 30
0.0
 10
193.962427979182
 20
15.73595468772952
 30
0.0
 10
194.0009853489909
 20
15.72650524176004
 30
0.0
 10
193.9927342754928
 20
15.76264692158785
 30
0.0
 10
193.9982346669358
 20
15.80129837613226
 30
0.0
 10
193.9955754206163
 20
15.86913528561839
 30
0.0
 10
193.9965815471533
 20
15.9459164153874
 30
0.0
 10
193.9960178018319
 20
16.02849393582757
 30
0.0
 10
193.9970714526593
 20
16.10517329229879
 30
0.0
 10
193.994267586313
 20
16.173319907767
 30
0.0
 10
194.0000702721302
 20
16.21132399809347
 30
0.0
 10
193.9915654551159
 20
16.24758448077647
 30
0.0
 10
194.0255610233125
 20
16.23755723771853
 30
0.0
 10
194.0594575683099
 20
16.24073266813707
 30
0.0
 10
194.1126669060346
 20
16.2350896564061
 30
0.0
 10
194.1660768574483
 20
16.23434774436426
 30
0.0
 10
194.1995914649491
 20
16.22819223482981
 30
0.0
 10
194.2388086183039
 20
16.23346029773594
 30
0.0
 10
194.2120263698492
 20
16.19253380793491
 30
0.0
 10
194.1708111001724
 20
16.20371204538109
 30
0.0
 10
194.1782641540875
 20
16.15867056192126
 30
0.0
 10
194.1742227952185
 20
16.11412278028145
 30
0.0
 10
194.1761714049641
 20
16.04223572621704
 30
0.0
 10
194.175236484976
 20
15.96168630588771
 30
0.0
 10
194.176510719003
 20
15.88173995404995
 30
0.0
 10
194.1732043793865
 20
15.80841837083183
 30
0.0
 10
194.1802106179961
 20
15.76688643002568
 30
0.0
 10
194.1701440380126
 20
15.72752418568113
 30
0.0
 10
194.2029814803922
 20
15.73468063430981
 30
0.0
 10
194.2364577296482
 20
15.73027243137945
 30
0.0
 10
194.2915053476019
 20
15.73217943347897
 30
0.0
 10
194.3489502595316
 20
15.73185366407289
 30
0.0
 10
194.402302624831
 20
15.73106308733081
 30
0.0
 10
194.4398540896638
 20
15.73313959118074
 30
0.0
 10
194.4623172523237
 20
15.73022338167109
 30
0.0
 10
194.4751678073731
 20
15.73572552644056
 30
0.0
 10
194.4858255685888
 20
15.73801118197791
 30
0.0
 10
194.4986635650143
 20
15.74494972588054
 30
0.0
 10
194.5145991033071
 20
15.72853046313672
 30
0.0
 10
194.5410623920892
 20
15.71709122319449
 30
0.0
 10
194.5726805253758
 20
15.69644687835191
 30
0.0
 10
194.5987255892151
 20
15.68116869628294
 30
0.0
 10
194.6128517723973
 20
15.67266976323183
 30
0.0
 10
194.6170254148479
 20
15.67015871511027
 30
0.0
 11
194.6170254148479
 21
15.67015871511027
 31
0.0
 11
194.6049990002243
 21
15.65473571164188
 31
0.0
 11
194.5848961795564
 21
15.64337406233917
 31
0.0
 11
194.4778986355813
 21
15.42440620231159
 31
0.0
 11
194.3477039934324
 21
15.21317201512161
 31
0.0
 11
194.1996540366071
 21
15.0120605902748
 31
0.0
 11
194.2734958253735
 21
14.96147384935379
 31
0.0
 11
194.36056643118
 21
14.89988411653739
 31
0.0
 11
194.4518003750404
 21
14.83413160594425
 31
0.0
 11
194.5381321779687
 21
14.77105653169304
 31
0.0
 11
194.6104963609787
 21
14.71749910790242
 31
0.0
 11
194.6598274450843
 21
14.68029954869104
 31
0.0
 11
194.6486940702213
 21
14.66471410869494
 31
0.0
 11
194.6221452532403
 21
14.62754882870424
 31
0.0
 11
194.5904579555532
 21
14.58319026871533
 31
0.0
 11
194.5639091385722
 21
14.54602498872462
 31
0.0
 11
194.5527757637092
 21
14.53043954872852
 31
0.0
 11
194.4807013362947
 21
14.59754008690617
 31
0.0
 11
194.3852856985381
 21
14.67993354174669
 31
0.0
 11
194.279326415217
 21
14.76785017366916
 31
0.0
 11
194.1756210511091
 21
14.85152024309268
 31
0.0
 11
194.1756210511091
 21
14.83304687900864
 31
0.0
 11
194.1756210511091
 21
14.78162102763956
 31
0.0
 11
194.1756210511091
 21
14.70323405030999
 31
0.0
 11
194.1756210511091
 21
14.60387730834449
 31
0.0
 11
194.1756210511091
 21
14.48954216306761
 31
0.0
 11
194.1756210511091
 21
14.36621997580389
 31
0.0
 11
194.1756210511091
 21
14.2399021078779
 31
0.0
 11
194.1756210511091
 21
14.11657992061419
 31
0.0
 11
194.1756210511091
 21
14.0022447753373
 31
0.0
 11
194.1756210511091
 21
13.9028880333718
 31
0.0
 11
194.1756210511091
 21
13.82450105604223
 31
0.0
 11
194.1756210511091
 21
13.77307520467316
 31
0.0
 11
194.1756210511091
 21
13.75460184058912
 31
0.0
 11
194.1569720893627
 21
13.75460184058912
 31
0.0
 11
194.112501488275
 21
13.75460184058912
 31
0.0
 11
194.0594236740736
 21
13.75460184058912
 31
0.0
 11
194.0149530729859
 21
13.75460184058912
 31
0.0
 11
193.9963041112395
 21
13.75460184058912
 31
0.0
 11
193.9963041112395
 21
13.77486797460219
 31
0.0
 11
193.9963041112395
 21
13.83089787452066
 31
0.0
 11
193.9963041112395
 21
13.91553878716347
 31
0.0
 11
193.9963041112395
 21
14.02163795934953
 31
0.0
 11
193.9963041112395
 21
14.14204263789775
 31
0.0
 11
193.9963041112395
 21
14.26960006962705
 31
0.0
 11
193.9963041112395
 21
14.39715750135636
 31
0.0
 11
193.9963041112395
 21
14.51756217990458
 31
0.0
 11
193.9963041112395
 21
14.62366135209064
 31
0.0
 11
193.9963041112395
 21
14.70830226473344
 31
0.0
 11
193.9963041112395
 21
14.76433216465193
 31
0.0
 11
193.9963041112395
 21
14.78459829866499
 31
0.0
 11
193.7883272849481
 21
14.59331998274057
 31
0.0
 11
193.5763486358426
 21
14.43414885430812
 31
0.0
 11
193.5495629014482
 21
14.48814671952095
 31
0.0
 11
193.5138765415023
 21
14.54689140572026
 31
0.0
 11
193.4799697494123
 21
14.59192871537976
 31
0.0
 11
193.6830287742318
 21
14.73563387201053
 31
0.0
 11
193.881853195826
 21
14.91168423529988
 31
0.0
 11
194.0677041444178
 21
15.1132751452495
 31
0.0
 11
194.2318427502303
 21
15.33360194186109
 31
0.0
 11
194.3655301434864
 21
15.56585996513635
 31
0.0
 11
194.3465256724482
 21
15.56585996513635
 31
0.0
 11
194.2944166389562
 21
15.56585996513635
 31
0.0
 11
194.2165596124447
 21
15.56585996513635
 31
0.0
 11
194.1203111623478
 21
15.56585996513635
 31
0.0
 11
194.0130278580997
 21
15.56585996513635
 31
0.0
 11
193.9020662691345
 21
15.56585996513635
 31
0.0
 11
193.7947829648864
 21
15.56585996513635
 31
0.0
 11
193.6985345147895
 21
15.56585996513635
 31
0.0
 11
193.620677488278
 21
15.56585996513635
 31
0.0
 11
193.568568454786
 21
15.56585996513635
 31
0.0
 11
193.5495639837478
 21
15.56585996513635
 31
0.0
 11
193.5495639837478
 21
15.58311199790982
 31
0.0
 11
193.5495639837478
 21
15.62425146067731
 31
0.0
 11
193.5495639837478
 21
15.67335340010949
 31
0.0
 11
193.5495639837478
 21
15.71449286287698
 31
0.0
 11
193.5495639837478
 21
15.73174489565045
 31
0.0
 11
193.5687598486009
 21
15.73174489565045
 31
0.0
 11
193.6193671286684
 21
15.73174489565045
 31
0.0
 11
193.690915352212
 21
15.73174489565045
 31
0.0
 11
193.7729340474937
 21
15.73174489565045
 31
0.0
 11
193.8549527427753
 21
15.73174489565045
 31
0.0
 11
193.9265009663189
 21
15.73174489565045
 31
0.0
 11
193.9771082463864
 21
15.73174489565045
 31
0.0
 11
193.9963041112395
 21
15.73174489565045
 31
0.0
 11
193.9963041112395
 21
15.74926552655218
 31
0.0
 11
193.9963041112395
 21
15.79622081736882
 31
0.0
 11
193.9963041112395
 21
15.86420086526753
 31
0.0
 11
193.9963041112395
 21
15.94479576741549
 31
0.0
 11
193.9963041112395
 21
16.02959562097987
 31
0.0
 11
193.9963041112395
 21
16.11019052312783
 31
0.0
 11
193.9963041112395
 21
16.17817057102654
 31
0.0
 11
193.9963041112395
 21
16.22512586184318
 31
0.0
 11
193.9963041112395
 21
16.24264649274491
 31
0.0
 11
194.0135484112111
 21
16.2416580616752
 31
0.0
 11
194.0566591611401
 21
16.23918698400092
 31
0.0
 11
194.1127031360477
 21
16.23597458302437
 31
0.0
 11
194.1687471109553
 21
16.23276218204781
 31
0.0
 11
194.2118578608843
 21
16.23029110437353
 31
0.0
 11
194.2291021608559
 21
16.22930267330382
 31
0.0
 11
194.2143774674851
 21
16.20556293372641
 31
0.0
 11
194.1756210511091
 21
16.19183767331313
 31
0.0
 11
194.1756210511091
 21
16.17206806177294
 31
0.0
 11
194.1756210511091
 21
16.11994817680334
 31
0.0
 11
194.1756210511091
 21
16.0462614428808
 31
0.0
 11
194.1756210511091
 21
15.96179128448179
 31
0.0
 11
194.1756210511091
 21
15.87732112608278
 31
0.0
 11
194.1756210511091
 21
15.80363439216024
 31
0.0
 11
194.1756210511091
 21
15.75151450719064
 31
0.0
 11
194.1756210511091
 21
15.73174489565045
 31
0.0
 11
194.1916227112936
 21
15.73174489565045
 31
0.0
 11
194.2328901507171
 21
15.73174489565045
 31
0.0
 11
194.2893170576837
 21
15.73174489565045
 31
0.0
 11
194.3507971204982
 21
15.73174489565045
 31
0.0
 11
194.4072240274648
 21
15.73174489565045
 31
0.0
 11
194.4484914668882
 21
15.73174489565045
 31
0.0
 11
194.4644931270728
 21
15.73174489565045
 31
0.0
 11
194.4728206422924
 21
15.73451387455921
 31
0.0
 11
194.4882860277004
 21
15.73965626396119
 31
0.0
 11
194.49661354292
 21
15.74242524286995
 31
0.0
 11
194.5091363776005
 21
15.73490952398294
 31
0.0
 11
194.5389985218386
 21
15.71698742509854
 31
0.0
 11
194.5746404359293
 21
15.69559653288168
 31
0.0
 11
194.6045025801674
 21
15.67767443399728
 31
0.0
 11
194.6170254148479
 21
15.67015871511027
 31
0.0
  0
SPLINE
  5
A9
102
{ACAD_REACTORS
330
C6
102
}
330
48
100
AcDbEntity
  8
_U_30EC_U_30A4_U_30E4_U_30FC_1
  6
Continuous
 62
     2
100
AcDbSpline
210
0.0
220
0.0
230
1.0
 70
    11
 71
     3
 72
    91
 73
    87
 74
    85
 42
0.000000001
 43
0.0000000001
 44
0.00000001
 40
0.0
 40
0.0
 40
0.0
 40
0.0
 40
0.0267532254356666
 40
0.0856103386464049
 40
0.1444674521996532
 40
0.1712206856618408
 40
0.203941600564243
 40
0.2955601971652377
 40
0.4362601844616811
 40
0.6162252844507143
 40
0.8256392189704591
 40
1.0546857098444
 40
1.293548478893464
 40
1.532411247938207
 40
1.761457738799472
 40
1.970871673298441
 40
2.150836773256636
 40
2.291536760495469
 40
2.383155356836576
 40
2.415876284101196
 40
2.442629517487837
 40
2.501486630948965
 40
2.560343744424109
 40
2.58709697782638
 40
2.617068194440779
 40
2.69924733675592
 40
2.822032643466232
 40
2.973822353257733
 40
3.143014704823176
 40
3.318007936879726
 40
3.48720028818656
 40
3.63898999754804
 40
3.761775303794511
 40
3.843954445752845
 40
3.873925662229541
 40
3.890812773500249
 40
3.907699884771401
 40
3.937960767857029
 40
3.980983618142118
 40
4.19908591522826
 40
4.439444339237015
 40
4.67758824126066
 40
5.050698317837488
 40
5.448212454762874
 40
5.855291218044371
 40
6.138575438885062
 40
6.417434507583888
 40
6.44455110439357
 40
6.50420761736287
 40
6.563864130314194
 40
6.590980727103787
 40
6.848609460381194
 40
7.109611990668175
 40
7.352910904445841
 40
7.557830220705179
 40
7.587518925913097
 40
7.652834077375539
 40
7.718149228845548
 40
7.747837934061828
 40
7.854880190300737
 40
7.97651125740328
 40
8.369487896592025
 40
8.757514959223318
 40
9.12607241933078
 40
9.460639380391815
 40
9.746695593035527
 40
9.777569943118353
 40
9.807050320931479
 40
9.830377336128604
 40
9.886003295435692
 40
9.952395569429592
 40
10.00802152870595
 40
10.03134854388187
 40
10.21356951009552
 40
10.42203479292843
 40
10.66154556731032
 40
10.91693789564269
 40
11.15832906556527
 40
11.18982674596582
 40
11.27286608520366
 40
11.39026653033308
 40
11.52484752840839
 40
11.65942852648389
 40
11.77682897161428
 40
11.85986831085621
 40
11.89136598230367
 40
11.89136598230367
 40
11.89136598230367
 40
11.89136598230367
 10
190.7027885008197
 20
14.70699600701773
 30
0.0
 10
190.7028237765289
 20
14.71587847311986
 30
0.0
 10
190.7029366710797
 20
14.74430237047347
 30
0.0
 10
190.701298456849
 20
14.79409639169804
 30
0.0
 10
190.7069750292911
 20
14.83657564478154
 30
0.0
 10
190.6956928731708
 20
14.88730154856847
 30
0.0
 10
190.7632296979033
 20
14.87012900740108
 30
0.0
 10
190.8388029210701
 20
14.88290227165996
 30
0.0
 10
190.9828357056001
 20
14.87629729457382
 30
0.0
 10
191.1569419185428
 20
14.87888462206466
 30
0.0
 10
191.3639599611004
 20
14.87800591955553
 30
0.0
 10
191.5894688172378
 20
14.87828207920026
 30
0.0
 10
191.8251162293406
 20
14.87818339658663
 30
0.0
 10
192.0607640531349
 20
14.87828184412767
 30
0.0
 10
192.2862717580626
 20
14.87800678190789
 30
0.0
 10
192.4932934632805
 20
14.87888186270735
 30
0.0
 10
192.6673888915288
 20
14.87630522678446
 30
0.0
 10
192.8114492071986
 20
14.88288290449213
 30
0.0
 10
192.8869691915293
 20
14.87016243405605
 30
0.0
 10
192.9545776037029
 20
14.88726400191686
 30
0.0
 10
192.9430840140676
 20
14.83674785802941
 30
0.0
 10
192.9505104581733
 20
14.79253252226502
 30
0.0
 10
192.9428838927986
 20
14.74867966503611
 30
0.0
 10
192.9546489459425
 20
14.6987837447933
 30
0.0
 10
192.8930788491983
 20
14.71393227712513
 30
0.0
 10
192.8256791738672
 20
14.70310665350675
 30
0.0
 10
192.7013004056221
 20
14.70852031626236
 30
0.0
 10
192.5554428236571
 20
14.70649205390786
 30
0.0
 10
192.3893576440086
 20
14.70715777578388
 30
0.0
 10
192.2188412621725
 20
14.70689643521243
 30
0.0
 10
192.051979085539
 20
14.70721553391095
 30
0.0
 10
191.9087346827106
 20
14.70635302590763
 30
0.0
 10
191.7773313869835
 20
14.70863300482989
 30
0.0
 10
191.7239859134657
 20
14.70407704374203
 30
0.0
 10
191.6485188456913
 20
14.70999914992878
 30
0.0
 10
191.6769075779233
 20
14.70094169343354
 30
0.0
 10
191.7033652409544
 20
14.69725912268929
 30
0.0
 10
191.6633522907701
 20
14.66654271968274
 30
0.0
 10
191.5713663691869
 20
14.67667591174636
 30
0.0
 10
191.5439396207068
 20
14.43032502247788
 30
0.0
 10
191.4478793967236
 20
14.27499558764373
 30
0.0
 10
191.1917277964474
 20
13.9452541793157
 30
0.0
 10
191.7627537732763
 20
14.08430022210452
 30
0.0
 10
192.0173656320516
 20
14.08291779973363
 30
0.0
 10
192.6279647048617
 20
13.99790569242088
 30
0.0
 10
192.3340698578083
 20
14.29685417558201
 30
0.0
 10
192.0133304286517
 20
14.44330856901782
 30
0.0
 10
192.1313543360433
 20
14.50025540818288
 30
0.0
 10
192.1724716466261
 20
14.52420099873349
 30
0.0
 10
192.2156812394411
 20
14.54599758811231
 30
0.0
 10
192.317457409445
 20
14.60928721253905
 30
0.0
 10
192.4328867625248
 20
14.35147151408781
 30
0.0
 10
192.6329591642278
 20
14.21616041113683
 30
0.0
 10
192.7269077387228
 20
14.03792795138884
 30
0.0
 10
192.9558829746392
 20
13.87997821027048
 30
0.0
 10
192.8596031846708
 20
13.82915972576299
 30
0.0
 10
192.8167959763779
 20
13.79881292523053
 30
0.0
 10
192.7718243528778
 20
13.77466130281462
 30
0.0
 10
192.7121720925213
 20
13.72552146747567
 30
0.0
 10
192.6789731061325
 20
13.85997475673613
 30
0.0
 10
192.5582013350796
 20
14.01594265286576
 30
0.0
 10
192.1970976005979
 20
13.88569928059557
 30
0.0
 10
191.8385061955541
 20
13.90224694409484
 30
0.0
 10
191.4570920450081
 20
13.89331229351862
 30
0.0
 10
191.1703455282891
 20
13.82882671672416
 30
0.0
 10
190.8592055599715
 20
13.94230668192812
 30
0.0
 10
190.8268737818788
 20
13.83122259927769
 30
0.0
 10
190.7896178253318
 20
13.81196313850012
 30
0.0
 10
190.7865737632754
 20
13.85874784087298
 30
0.0
 10
190.7679892860606
 20
13.89806853919133
 30
0.0
 10
190.7512436616778
 20
13.95765983478235
 30
0.0
 10
190.7383730915754
 20
14.00201969871284
 30
0.0
 10
190.7042327806429
 20
14.09106331120202
 30
0.0
 10
190.9482714457754
 20
14.02181042943768
 30
0.0
 10
191.1441394486673
 20
14.00030369057743
 30
0.0
 10
191.2395426381277
 20
14.28226484478463
 30
0.0
 10
191.2945135769598
 20
14.44363045421124
 30
0.0
 10
191.5159619357153
 20
14.71391177589738
 30
0.0
 10
191.3849239381216
 20
14.70548446853736
 30
0.0
 10
191.3110026555853
 20
14.70779008496971
 30
0.0
 10
191.1977459876242
 20
14.70671378321658
 30
0.0
 10
191.0694251807485
 20
14.70707639076511
 30
0.0
 10
190.9404252030416
 20
14.70697724466087
 30
0.0
 10
190.8287840946291
 20
14.70699932712573
 30
0.0
 10
190.7514663970027
 20
14.70699579189672
 30
0.0
 10
190.7132876532011
 20
14.70699595845082
 30
0.0
 10
190.7027885008197
 20
14.70699600701773
 30
0.0
 11
190.7027885008197
 21
14.70699600701773
 31
0.0
 11
190.7027885008197
 21
14.73374924051798
 31
0.0
 11
190.7027885008197
 21
14.79260635421854
 31
0.0
 11
190.7027885008197
 21
14.8514634679191
 31
0.0
 11
190.7027885008197
 21
14.87821670141935
 31
0.0
 11
190.735509428099
 21
14.87821670141935
 31
0.0
 11
190.827128024481
 21
14.87821670141935
 31
0.0
 11
190.967828011782
 21
14.87821670141935
 31
0.0
 11
191.1477931118181
 21
14.87821670141935
 31
0.0
 11
191.3572070464055
 21
14.87821670141935
 31
0.0
 11
191.5862535373605
 21
14.87821670141935
 31
0.0
 11
191.8251163064993
 21
14.87821670141935
 31
0.0
 11
192.0639790756381
 21
14.87821670141935
 31
0.0
 11
192.2930255665931
 21
14.87821670141935
 31
0.0
 11
192.5024395011806
 21
14.87821670141935
 31
0.0
 11
192.6824046012167
 21
14.87821670141935
 31
0.0
 11
192.8231045885176
 21
14.87821670141935
 31
0.0
 11
192.9147231848996
 21
14.87821670141935
 31
0.0
 11
192.9474441121789
 21
14.87821670141935
 31
0.0
 11
192.9474441121789
 21
14.8514634679191
 31
0.0
 11
192.9474441121789
 21
14.79260635421854
 31
0.0
 11
192.9474441121789
 21
14.73374924051798
 31
0.0
 11
192.9474441121789
 21
14.70699600701773
 31
0.0
 11
192.9174728954758
 21
14.70699600701773
 31
0.0
 11
192.8352937529027
 21
14.70699600701773
 31
0.0
 11
192.712508445764
 21
14.70699600701773
 31
0.0
 11
192.5607187353642
 21
14.70699600701773
 31
0.0
 11
192.3915263830078
 21
14.70699600701773
 31
0.0
 11
192.2165331499992
 21
14.70699600701773
 31
0.0
 11
192.0473407976427
 21
14.70699600701773
 31
0.0
 11
191.8955510872429
 21
14.70699600701773
 31
0.0
 11
191.7727657801043
 21
14.70699600701773
 31
0.0
 11
191.6905866375311
 21
14.70699600701773
 31
0.0
 11
191.660615420828
 21
14.70699600701773
 31
0.0
 11
191.6766359412526
 21
14.70165583340794
 31
0.0
 11
191.6926564616772
 21
14.69631565979816
 31
0.0
 11
191.6706155681421
 21
14.67558114591443
 31
0.0
 11
191.6284861855363
 21
14.6668587153611
 31
0.0
 11
191.5365235541377
 21
14.46909247312657
 31
0.0
 11
191.4279078521764
 21
14.25467511978509
 31
0.0
 11
191.3127500824808
 21
14.0462255905162
 31
0.0
 11
191.685736667502
 21
14.05582441253029
 31
0.0
 11
192.083070003615
 21
14.06781232404995
 31
0.0
 11
192.4899342191145
 21
14.08102711828532
 31
0.0
 11
192.2983119496978
 21
14.28966761302481
 31
0.0
 11
192.0966752013698
 21
14.48229420151833
 31
0.0
 11
192.1204947794749
 21
14.49525327269565
 31
0.0
 11
192.1728978513061
 21
14.52376322928577
 31
0.0
 11
192.2253009231374
 21
14.55227318587589
 31
0.0
 11
192.2491205012425
 21
14.56523225705321
 31
0.0
 11
192.4387101558627
 21
14.39079508370268
 31
0.0
 11
192.6200310940436
 21
14.20305846374091
 31
0.0
 11
192.7777729231148
 21
14.01782380992436
 31
0.0
 11
192.8966252504058
 21
13.85089253500949
 31
0.0
 11
192.8715408217923
 21
13.83501202286069
 31
0.0
 11
192.8163550788425
 21
13.80007489613332
 31
0.0
 11
192.7611693358927
 21
13.76513776940595
 31
0.0
 11
192.7360849072792
 21
13.74925725725715
 31
0.0
 11
192.6775518151612
 21
13.83887824681809
 31
0.0
 11
192.6050015078457
 21
13.93650288221032
 31
0.0
 11
192.2125412924095
 21
13.91636286943759
 31
0.0
 11
191.8249474069561
 21
13.89803302999773
 31
0.0
 11
191.4567378976213
 21
13.88202178722396
 31
0.0
 11
191.1224308105413
 21
13.86883756444948
 31
0.0
 11
190.8365441918519
 21
13.85898878500751
 31
0.0
 11
190.821186232174
 21
13.83220523466695
 31
0.0
 11
190.7937434290546
 21
13.82143559057245
 31
0.0
 11
190.786792719232
 21
13.84370299445577
 31
0.0
 11
190.7702179496548
 21
13.89680218833139
 31
0.0
 11
190.7504351601596
 21
13.96017864553777
 31
0.0
 11
190.7338603905825
 21
14.01327783941339
 31
0.0
 11
190.7269096807599
 21
14.03554524329671
 31
0.0
 11
190.9091199859153
 21
14.03751638912953
 31
0.0
 11
191.1174975848589
 21
14.04356211829473
 31
0.0
 11
191.2303203127216
 21
14.25483550301554
 31
0.0
 11
191.3407936722035
 21
14.4850981315588
 31
0.0
 11
191.4358254265626
 21
14.70699600701773
 31
0.0
 11
191.4043277461596
 21
14.70699600701773
 31
0.0
 11
191.3212884069152
 21
14.70699600701773
 31
0.0
 11
191.2038879617767
 21
14.70699600701773
 31
0.0
 11
191.0693069636911
 21
14.70699600701773
 31
0.0
 11
190.9347259656056
 21
14.70699600701773
 31
0.0
 11
190.817325520467
 21
14.70699600701773
 31
0.0
 11
190.7342861812227
 21
14.70699600701773
 31
0.0
 11
190.7027885008197
 21
14.70699600701773
 31
0.0
  0
SPLINE
  5
AA
102
{ACAD_REACTORS
330
C7
102
}
330
48
100
AcDbEntity
  8
_U_30EC_U_30A4_U_30E4_U_30FC_1
  6
Continuous
 62
     2
100
AcDbSpline
210
0.0
220
0.0
230
1.0
 70
    11
 71
     3
 72
    35
 73
    31
 74
    29
 42
0.000000001
 43
0.0000000001
 44
0.00000001
 40
0.0
 40
0.0
 40
0.0
 40
0.0
 40
0.0335231036621208
 40
0.071321857171181
 40
0.427886668148631
 40
0.8116865841963128
 40
1.198190237999972
 40
1.561379546812601
 40
1.659983174621965
 40
1.759315573807053
 40
2.132719617230984
 40
2.525233363588735
 40
2.910815397779627
 40
3.265244364303219
 40
3.592606723582
 40
3.964386154603928
 40
4.359942131737752
 40
4.758154118639164
 40
4.843846538699795
 40
4.936650065543146
 40
5.256616602537228
 40
5.581707404415965
 40
5.899719158308063
 40
6.198363494280625
 40
6.466301046615638
 40
6.493895311536988
 40
6.559697020196809
 40
6.638234543442413
 40
6.704036252154279
 40
6.731630508423085
 40
6.731630508423085
 40
6.731630508423085
 40
6.731630508423085
 10
191.973601056867
 20
16.23463843719135
 30
0.0
 10
191.967600609779
 20
16.22480690542324
 30
0.0
 10
191.9548344099157
 20
16.20388988579803
 30
0.0
 10
191.7949362006556
 20
16.17127126532673
 30
0.0
 10
192.2322025842337
 20
15.88206680336707
 30
0.0
 10
192.4345394828262
 20
15.68041138358437
 30
0.0
 10
192.6819564267973
 20
15.43749387603277
 30
0.0
 10
193.1831513624605
 20
15.36047662757775
 30
0.0
 10
193.012556219897
 20
15.21876939174659
 30
0.0
 10
192.9383299463203
 20
15.01710366209103
 30
0.0
 10
192.6131432248187
 20
15.36956287174727
 30
0.0
 10
192.3277741670664
 20
15.53175212559562
 30
0.0
 10
192.0337604077658
 20
15.73687130053048
 30
0.0
 10
191.8084452691133
 20
16.21827488595456
 30
0.0
 10
191.5993085055521
 20
15.75343046609226
 30
0.0
 10
191.3207873674834
 20
15.54350952252911
 30
0.0
 10
191.0371383177209
 20
15.37424456359988
 30
0.0
 10
190.7078639527832
 20
15.0014236090794
 30
0.0
 10
190.6277012318224
 20
15.19708014459003
 30
0.0
 10
190.4759724909744
 20
15.3249110419059
 30
0.0
 10
190.9083395826794
 20
15.40454031765937
 30
0.0
 10
191.0962565329766
 20
15.60026634915473
 30
0.0
 10
191.3468477420503
 20
15.81632996916754
 30
0.0
 10
191.5714350470161
 20
15.98190992300061
 30
0.0
 10
191.6259775409711
 20
16.26133964636828
 30
0.0
 10
191.7494661029011
 20
16.24737950408078
 30
0.0
 10
191.806027334452
 20
16.24521268867648
 30
0.0
 10
191.8761870984945
 20
16.24046859881359
 30
0.0
 10
191.9333414022106
 20
16.23709429350543
 30
0.0
 10
191.964419032084
 20
16.2351985471112
 30
0.0
 10
191.973601056867
 20
16.23463843719135
 30
0.0
 11
191.973601056867
 21
16.23463843719135
 31
0.0
 11
191.9525319069884
 21
16.20856374969786
 31
0.0
 11
191.9174464559426
 21
16.1945011455347
 31
0.0
 11
192.1512374769095
 21
15.92527961131382
 31
0.0
 11
192.4414585957566
 21
15.6741340796926
 31
0.0
 11
192.7612797483684
 21
15.45710987618784
 31
0.0
 11
193.0838708706289
 21
15.29025232631637
 31
0.0
 11
193.0213299868076
 21
15.21402035584929
 31
0.0
 11
192.9688035818976
 21
15.12971197913425
 31
0.0
 11
192.6436279095814
 21
15.3132640483158
 31
0.0
 11
192.3237227768436
 21
15.54070139743428
 31
0.0
 11
192.0354200158608
 21
15.7967385512331
 31
0.0
 11
191.8050514588095
 21
16.06609003445567
 31
0.0
 11
191.5995531719515
 21
15.81126348721036
 31
0.0
 11
191.3288301341535
 21
15.55645182277756
 31
0.0
 11
191.0119538423246
 21
15.31969466354856
 31
0.0
 11
190.6679957933742
 21
15.11903163191466
 31
0.0
 11
190.6218855341338
 21
15.19126067703554
 31
0.0
 11
190.5636970460348
 21
15.26355586798966
 31
0.0
 11
190.8433040489015
 21
15.41911456961745
 31
0.0
 11
191.1093004621154
 21
15.60601009790405
 31
0.0
 11
191.3499997459746
 21
15.81384496285209
 31
0.0
 11
191.5537153607773
 21
16.03222167446416
 31
0.0
 11
191.7087607668217
 21
16.25074274274287
 31
0.0
 11
191.7363041569864
 21
16.24906789496551
 31
0.0
 11
191.8019845489177
 21
16.24507402718874
 31
0.0
 11
191.880377274771
 21
16.24030715274548
 31
0.0
 11
191.9460576667023
 21
16.23631328496871
 31
0.0
 11
191.973601056867
 21
16.23463843719135
 31
0.0
  0
SPLINE
  5
AB
102
{ACAD_REACTORS
330
C8
102
}
330
48
100
AcDbEntity
  8
_U_30EC_U_30A4_U_30E4_U_30FC_1
  6
Continuous
 62
     2
100
AcDbSpline
210
0.0
220
0.0
230
1.0
 70
    11
 71
     3
 72
    15
 73
    11
 74
     9
 42
0.000000001
 43
0.0000000001
 44
0.00000001
 40
0.0
 40
0.0
 40
0.0
 40
0.0
 40
0.2785535985096574
 40
0.5215624748198886
 40
0.6076917376040546
 40
0.6938210001741316
 40
0.9405019146455154
 40
1.22169140348921
 40
1.300471877081156
 40
1.379252341684969
 40
1.379252341684969
 40
1.379252341684969
 40
1.379252341684969
 10
189.5681493630999
 20
16.22930267330382
 30
0.0
 10
189.6296017794178
 20
16.17691646592716
 30
0.0
 10
189.7446649974113
 20
16.07882876798223
 30
0.0
 10
190.0397348497243
 20
15.92889785897223
 30
0.0
 10
189.9025147631857
 20
15.84343227515015
 30
0.0
 10
189.8041227843778
 20
15.71085785201554
 30
0.0
 10
189.713003359065
 20
16.01616985781424
 30
0.0
 10
189.3636839480654
 20
16.07967869465374
 30
0.0
 10
189.5119258376569
 20
16.17896509880879
 30
0.0
 10
189.5494081874237
 20
16.21252348402384
 30
0.0
 10
189.5681493630999
 20
16.22930267330382
 30
0.0
 11
189.5681493630999
 21
16.22930267330382
 31
0.0
 11
189.7919222440596
 21
16.06341774278973
 31
0.0
 11
189.9695046306383
 21
15.89753281227565
 31
0.0
 11
189.9066308127979
 21
15.83866743034593
 31
0.0
 11
189.8437569949575
 21
15.7798020484162
 31
0.0
 11
189.6688535117725
 21
15.95375677059491
 31
0.0
 11
189.4478256856139
 21
16.12757920110702
 31
0.0
 11
189.5079875243569
 21
16.17844093720542
 31
0.0
 11
189.5681493630999
 21
16.22930267330382
 31
0.0
  0
SPLINE
  5
AC
102
{ACAD_REACTORS
330
C9
102
}
330
48
100
AcDbEntity
  8
_U_30EC_U_30A4_U_30E4_U_30FC_1
  6
Continuous
 62
     2
100
AcDbSpline
210
0.0
220
0.0
230
1.0
 70
    11
 71
     3
 72
    75
 73
    71
 74
    69
 42
0.000000001
 43
0.0000000001
 44
0.00000001
 40
0.0
 40
0.0
 40
0.0
 40
0.0
 40
0.0342546099129691
 40
0.1245622414432364
 40
0.2522385480897518
 40
0.398599192294068
 40
0.5449598364980839
 40
0.6726361431438834
 40
0.7629437746736942
 40
0.7971983935297973
 40
1.101723623449717
 40
1.408591244036666
 40
1.433332471690372
 40
1.487763172450168
 40
1.542193873081999
 40
1.566935100592549
 40
1.92352393182186
 40
2.271755704953715
 40
2.590579755100902
 40
2.85894330558116
 40
2.889120339309177
 40
2.918305855191125
 40
2.941366645531247
 40
2.99635776097314
 40
3.061992318140685
 40
3.11698343362688
 40
3.14004422399756
 40
3.411273122936453
 40
3.732441619741258
 40
3.761068217532956
 40
3.837787499630514
 40
3.948858699126157
 40
4.08054104910453
 40
4.219093782625913
 40
4.350776132722459
 40
4.461847332405791
 40
4.538566614678524
 40
4.56719321254477
 40
4.594907573999028
 40
4.666381453557595
 40
4.764111044011234
 40
4.870592538126066
 40
4.968322128642517
 40
5.03979600828723
 40
5.067510369784689
 40
5.094263603185905
 40
5.153120716668544
 40
5.211977830150995
 40
5.238731063552001
 40
5.27229053513924
 40
5.363380529445101
 40
5.497618415781779
 40
5.660621563454021
 40
5.838007341749722
 40
6.015393119911074
 40
6.178396267038699
 40
6.312634151842651
 40
6.40372414305964
 40
6.437283612672736
 40
6.464036846261354
 40
6.522893960004972
 40
6.581751071484244
 40
6.60850430159119
 40
6.637253941281338
 40
6.711397748903189
 40
6.812778057283801
 40
6.923237199249578
 40
7.024617507624222
 40
7.098761315207875
 40
7.127510946007825
 40
7.127510946007825
 40
7.127510946007825
 40
7.127510946007825
 10
188.4418622390564
 20
14.95849128473264
 30
0.0
 10
188.4418622819707
 20
14.9470731340872
 30
0.0
 10
188.4418624481128
 20
14.90555257842628
 30
0.0
 10
188.4418593081787
 20
14.82146922003771
 30
0.0
 10
188.44187882798
 20
14.70004497322328
 30
0.0
 10
188.4417912187737
 20
14.55980494047448
 30
0.0
 10
188.442111623523
 20
14.42006556794576
 30
0.0
 10
188.4411605909741
 20
14.29745038894929
 30
0.0
 10
188.4431978595967
 20
14.21587074438043
 30
0.0
 10
188.4349433178745
 20
14.06271267077695
 30
0.0
 10
188.7430797940901
 20
14.22560236054718
 30
0.0
 10
189.0350645173737
 20
14.39482938688001
 30
0.0
 10
189.0408354448707
 20
14.25973235781911
 30
0.0
 10
189.0455471719891
 20
14.21617221160444
 30
0.0
 10
189.0482535411917
 20
14.17211249350544
 30
0.0
 10
189.0672545672961
 20
14.02272590363134
 30
0.0
 10
188.6583942247301
 20
14.08681172241261
 30
0.0
 10
188.3793710348832
 20
13.97296341411019
 30
0.0
 10
188.1018081587166
 20
13.87364095811142
 30
0.0
 10
187.80998371844
 20
13.91630687596354
 30
0.0
 10
187.7869144678658
 20
13.81321679744541
 30
0.0
 10
187.7537474383333
 20
13.78691091244469
 30
0.0
 10
187.7480653962738
 20
13.83455309036304
 30
0.0
 10
187.7284214559044
 20
13.87180336115069
 30
0.0
 10
187.7095089485623
 20
13.93007387847564
 30
0.0
 10
187.6942849867707
 20
13.97385201007804
 30
0.0
 10
187.6477246372936
 20
14.0875942104631
 30
0.0
 10
187.9890897312449
 20
14.05576301120048
 30
0.0
 10
188.2679649367389
 20
14.02161435106477
 30
0.0
 10
188.2617753034907
 20
14.16913976479652
 30
0.0
 10
188.2630935452775
 20
14.24013150908834
 30
0.0
 10
188.2624831689949
 20
14.34719767958662
 30
0.0
 10
188.2625871570726
 20
14.47398529785998
 30
0.0
 10
188.2629987964057
 20
14.6084924349605
 30
0.0
 10
188.261390784197
 20
14.73395549951184
 30
0.0
 10
188.2659902567926
 20
14.84505246719117
 30
0.0
 10
188.2564186502211
 20
14.90761886800689
 30
0.0
 10
188.2704001783692
 20
14.96595388295001
 30
0.0
 10
188.2147384386706
 20
14.95289710582238
 30
0.0
 10
188.1575655197822
 20
14.96136307749499
 30
0.0
 10
188.0616048925648
 20
14.95729976080636
 30
0.0
 10
187.9633767522821
 20
14.95970889852474
 30
0.0
 10
187.867258245756
 20
14.95551600613387
 30
0.0
 10
187.8104648525812
 20
14.96429346441163
 30
0.0
 10
187.7550356873384
 20
14.9509493685012
 30
0.0
 10
187.7670679427917
 20
15.00036910959257
 30
0.0
 10
187.7592003173937
 20
15.04393988030396
 30
0.0
 10
187.766629556383
 20
15.08830469118526
 30
0.0
 10
187.7551930564143
 20
15.13902297763992
 30
0.0
 10
187.8232102370133
 20
15.12162460757744
 30
0.0
 10
187.8968496879747
 20
15.13417450237189
 30
0.0
 10
188.0325064058211
 20
15.12799677011098
 30
0.0
 10
188.1884909024525
 20
15.13029203093085
 30
0.0
 10
188.3615926358143
 20
15.1294096826253
 30
0.0
 10
188.5346942964182
 20
15.13029207142409
 30
0.0
 10
188.6906789811216
 20
15.12799662955551
 30
0.0
 10
188.8263351889798
 20
15.13417486262432
 30
0.0
 10
188.8999756705651
 20
15.12162394218335
 30
0.0
 10
188.9679914174724
 20
15.13902373012144
 30
0.0
 10
188.9565590885922
 20
15.08830130414556
 30
0.0
 10
188.9639539458298
 20
15.04397060811108
 30
0.0
 10
188.9562039912271
 20
15.00028307550197
 30
0.0
 10
188.9681203741876
 20
14.95063590098476
 30
0.0
 10
188.9108170223617
 20
14.96461411338426
 30
0.0
 10
188.8520145789772
 20
14.95539755673254
 30
0.0
 10
188.7525293633199
 20
14.95952268164929
 30
0.0
 10
188.649428009835
 20
14.95822760025887
 30
0.0
 10
188.5537846354573
 20
14.95854077077641
 30
0.0
 10
188.4857467971617
 20
14.95848776697145
 30
0.0
 10
188.4514462213443
 20
14.95849051871656
 30
0.0
 10
188.4418622390564
 20
14.95849128473264
 30
0.0
 11
188.4418622390564
 21
14.95849128473264
 31
0.0
 11
188.4418622390564
 21
14.92423666587185
 31
0.0
 11
188.4418622390564
 21
14.83392903432975
 31
0.0
 11
188.4418622390564
 21
14.70625272766679
 31
0.0
 11
188.4418622390564
 21
14.55989208344339
 31
0.0
 11
188.4418622390564
 21
14.41353143922
 31
0.0
 11
188.4418622390564
 21
14.28585513255704
 31
0.0
 11
188.4418622390564
 21
14.19554750101494
 31
0.0
 11
188.4418622390564
 21
14.16129288215415
 31
0.0
 11
188.7391932644568
 21
14.22709475713768
 31
0.0
 11
189.0384623627245
 21
14.29496038212072
 31
0.0
 11
189.0405487124976
 21
14.27030727882827
 31
0.0
 11
189.0451386819987
 21
14.2160704515849
 31
0.0
 11
189.0497286514996
 21
14.16183362434152
 31
0.0
 11
189.0518150012728
 21
14.13718052104907
 31
0.0
 11
188.705639688924
 21
14.05163370140897
 31
0.0
 11
188.3669653138837
 21
13.97060877629901
 31
0.0
 11
188.0563731516688
 21
13.89862764024929
 31
0.0
 11
187.7944444777955
 21
13.84021218778991
 31
0.0
 11
187.7817515029292
 21
13.81283442738013
 31
0.0
 11
187.7569794787513
 21
13.79740260446735
 31
0.0
 11
187.7491867589501
 21
13.81910683390636
 31
0.0
 11
187.7306041194242
 21
13.87086307333786
 31
0.0
 11
187.70842483999
 21
13.93263664943351
 31
0.0
 11
187.689842200464
 21
13.98439288886501
 31
0.0
 11
187.6820494806628
 21
14.00609711830402
 31
0.0
 11
187.9482776335931
 21
14.05794001759666
 31
0.0
 11
188.262633493629
 21
14.12373968771911
 31
0.0
 11
188.262633493629
 21
14.15236628569625
 31
0.0
 11
188.262633493629
 21
14.229085568275
 31
0.0
 11
188.262633493629
 21
14.34015676842632
 31
0.0
 11
188.262633493629
 21
14.47183911912119
 31
0.0
 11
188.262633493629
 21
14.61039185333057
 31
0.0
 11
188.262633493629
 21
14.74207420402543
 31
0.0
 11
188.262633493629
 21
14.85314540417675
 31
0.0
 11
188.262633493629
 21
14.9298646867555
 31
0.0
 11
188.262633493629
 21
14.95849128473264
 31
0.0
 11
188.2349191321109
 21
14.95849128473264
 31
0.0
 11
188.1634452524064
 21
14.95849128473264
 31
0.0
 11
188.0657156617901
 21
14.95849128473264
 31
0.0
 11
187.9592341675364
 21
14.95849128473264
 31
0.0
 11
187.8615045769201
 21
14.95849128473264
 31
0.0
 11
187.7900306972156
 21
14.95849128473264
 31
0.0
 11
187.7623163356975
 21
14.95849128473264
 31
0.0
 11
187.7623163356975
 21
14.98524451823289
 31
0.0
 11
187.7623163356975
 21
15.04410163193344
 31
0.0
 11
187.7623163356975
 21
15.102958745634
 31
0.0
 11
187.7623163356975
 21
15.12971197913425
 31
0.0
 11
187.7958758072874
 21
15.12971197913425
 31
0.0
 11
187.8869658016031
 21
15.12971197913425
 31
0.0
 11
188.0212036879629
 21
15.12971197913425
 31
0.0
 11
188.1842068356856
 21
15.12971197913425
 31
0.0
 11
188.3615926140897
 21
15.12971197913425
 31
0.0
 11
188.5389783924938
 21
15.12971197913425
 31
0.0
 11
188.7019815402164
 21
15.12971197913425
 31
0.0
 11
188.8362194265763
 21
15.12971197913425
 31
0.0
 11
188.9273094208918
 21
15.12971197913425
 31
0.0
 11
188.9608688924818
 21
15.12971197913425
 31
0.0
 11
188.9608688924818
 21
15.102958745634
 31
0.0
 11
188.9608688924818
 21
15.04410163193345
 31
0.0
 11
188.9608688924818
 21
14.98524451823289
 31
0.0
 11
188.9608688924818
 21
14.95849128473264
 31
0.0
 11
188.9321192527877
 21
14.95849128473264
 31
0.0
 11
188.8579754451555
 21
14.95849128473264
 31
0.0
 11
188.7565951367604
 21
14.95849128473264
 31
0.0
 11
188.6461359947778
 21
14.95849128473264
 31
0.0
 11
188.5447556863827
 21
14.95849128473264
 31
0.0
 11
188.4706118787505
 21
14.95849128473264
 31
0.0
 11
188.4418622390564
 21
14.95849128473264
 31
0.0
  0
SPLINE
  5
AD
102
{ACAD_REACTORS
330
CA
102
}
330
48
100
AcDbEntity
  8
_U_30EC_U_30A4_U_30E4_U_30FC_1
  6
Continuous
 62
     2
100
AcDbSpline
210
0.0
220
0.0
230
1.0
 70
    11
 71
     3
 72
    91
 73
    87
 74
    85
 42
0.000000001
 43
0.0000000001
 44
0.00000001
 40
0.0
 40
0.0
 40
0.0
 40
0.0
 40
0.0345987051695718
 40
0.1258134969461369
 40
0.2547723404888987
 40
0.4026032099154125
 40
0.5504340793416704
 40
0.679392922883608
 40
0.7706077146571035
 40
0.8052064287780925
 40
1.124852390615277
 40
1.42740223630887
 40
1.706356627453511
 40
1.955541417875194
 40
2.169485938566338
 40
2.344350786664809
 40
2.480568411561958
 40
2.59044055742898
 40
2.649189927151109
 40
2.749320643306322
 40
2.912632739880026
 40
3.147745656000241
 40
3.24482749638505
 40
3.33849005694664
 40
3.583815413207068
 40
3.761423943238426
 40
3.886956104362585
 40
3.985855451886791
 40
4.091766255337703
 40
4.250186473811869
 40
4.42273431508449
 40
4.628285684838583
 40
4.8720932277584
 40
5.15254965214551
 40
5.464967135837489
 40
5.803201477852404
 40
6.160362988813879
 40
6.193449448275934
 40
6.284170385501588
 40
6.419718138764458
 40
6.587285046385708
 40
6.774063446723622
 40
6.967245678113605
 40
7.154024078817591
 40
7.321590987025977
 40
7.457138740890335
 40
7.547859678556072
 40
7.580946138182632
 40
7.608533084714682
 40
7.66922436707766
 40
7.729915649429874
 40
7.757502595949927
 40
7.790278062553381
 40
7.880146277430879
 40
8.014419963180341
 40
8.180411842397842
 40
8.36543463767931
 40
8.556801071622612
 40
8.741823866830725
 40
8.907815745916235
 40
9.042089431507389
 40
9.131957646249514
 40
9.16473311279709
 40
9.415425063140026
 40
9.667986180958497
 40
9.694169807462636
 40
9.756607686047651
 40
9.831130315322543
 40
9.893568193900036
 40
9.919751820398881
 40
9.950967964690694
 40
9.996421631210858
 40
10.22087981037474
 40
10.44341866197564
 40
10.47847970788876
 40
10.57091337438777
 40
10.70159545461251
 40
10.85140174170382
 40
11.00120802880499
 40
11.13189010907405
 40
11.22432377583032
 40
11.25938480938979
 40
11.28697175596167
 40
11.34766303835941
 40
11.40835432042091
 40
11.43594125892126
 40
11.43594125892126
 40
11.43594125892126
 40
11.43594125892126
 10
190.0818114333289
 20
15.55242795125077
 30
0.0
 10
190.0702785844941
 20
15.55242790287915
 30
0.0
 10
190.0283409444998
 20
15.55242773704164
 30
0.0
 10
189.9434129719026
 20
15.55243125800909
 30
0.0
 10
189.8207688553128
 20
15.55240926435879
 30
0.0
 10
189.6791206916993
 20
15.55250801177054
 30
0.0
 10
189.537975369849
 20
15.55214686232421
 30
0.0
 10
189.4141351317905
 20
15.55321883609088
 30
0.0
 10
189.3317217825382
 20
15.55092249091268
 30
0.0
 10
189.1727791229692
 20
15.5604856937342
 30
0.0
 10
189.3503402353375
 20
15.1978539431137
 30
0.0
 10
189.3379739205452
 20
14.95243127723114
 30
0.0
 10
189.4064519473864
 20
14.66862501324835
 30
0.0
 10
189.469302432097
 20
14.43250999939036
 30
0.0
 10
189.5452253431728
 20
14.23326740396129
 30
0.0
 10
189.6303189577016
 20
14.07745347451374
 30
0.0
 10
189.7244607592935
 20
13.97657857781393
 30
0.0
 10
189.8282648207727
 20
13.92465852638964
 30
0.0
 10
189.9125872030774
 20
13.97606484379619
 30
0.0
 10
189.9351322179452
 20
14.09144544037516
 30
0.0
 10
189.974573097537
 20
14.2188514970238
 30
0.0
 10
189.9202919734944
 20
14.5362232808676
 30
0.0
 10
190.0451218072473
 20
14.38982180140903
 30
0.0
 10
190.2019291513604
 20
14.35795300331173
 30
0.0
 10
190.0947720007056
 20
14.12421357767628
 30
0.0
 10
190.0808711209867
 20
13.95972776583657
 30
0.0
 10
190.0234709467225
 20
13.83130869122481
 30
0.0
 10
189.9335020145008
 20
13.76018802352828
 30
0.0
 10
189.8095274657877
 20
13.74432324142255
 30
0.0
 10
189.663427319686
 20
13.77993797554173
 30
0.0
 10
189.5243894320283
 20
13.90000570500279
 30
0.0
 10
189.4102003962143
 20
14.07435682550319
 30
0.0
 10
189.3146141301486
 20
14.29946603111242
 30
0.0
 10
189.2318652572627
 20
14.56388246006443
 30
0.0
 10
189.1807179256411
 20
14.88187933098543
 30
0.0
 10
189.0770189207339
 20
15.15543728488913
 30
0.0
 10
189.2042841208519
 20
15.56005818612865
 30
0.0
 10
189.0357890623019
 20
15.55112367849679
 30
0.0
 10
188.9511995787077
 20
15.55315961418363
 30
0.0
 10
188.8189876387627
 20
15.55213937388406
 30
0.0
 10
188.6560505094104
 20
15.55253230318429
 30
0.0
 10
188.4733759170532
 20
15.55235696313368
 30
0.0
 10
188.2847057373383
 20
15.55260105307468
 30
0.0
 10
188.1014469020189
 20
15.55185657906236
 30
0.0
 10
187.9404746832718
 20
15.55416360522425
 30
0.0
 10
187.8029808335276
 20
15.54799804883663
 30
0.0
 10
187.728959037231
 20
15.56032838458211
 30
0.0
 10
187.6613215186856
 20
15.54329323723556
 30
0.0
 10
187.673237371927
 20
15.59524438447527
 30
0.0
 10
187.6655677285693
 20
15.64071424966528
 30
0.0
 10
187.6732592225116
 20
15.68614453703705
 30
0.0
 10
187.6613141797761
 20
15.73802395984569
 30
0.0
 10
187.7283588305867
 20
15.72119143490263
 30
0.0
 10
187.8017375665676
 20
15.7333540909267
 30
0.0
 10
187.9379128305272
 20
15.72727231074958
 30
0.0
 10
188.0973811801512
 20
15.72954834315057
 30
0.0
 10
188.2789173085836
 20
15.72881233998961
 30
0.0
 10
188.4658034862179
 20
15.72905954196132
 30
0.0
 10
188.6468012316836
 20
15.72886400799253
 30
0.0
 10
188.8080802578878
 20
15.72932234714838
 30
0.0
 10
188.9393882124887
 20
15.72812673751205
 30
0.0
 10
189.0225051322596
 20
15.73051347319742
 30
0.0
 10
189.1556236547814
 20
15.72230605725463
 30
0.0
 10
189.0645893502657
 20
15.97752868952654
 30
0.0
 10
188.978963307442
 20
16.24164358328249
 30
0.0
 10
189.0990589003454
 20
16.22904442969165
 30
0.0
 10
189.1514264948543
 20
16.22694235763076
 30
0.0
 10
189.2214497569716
 20
16.22535399889659
 30
0.0
 10
189.2671922337818
 20
16.21602567538112
 30
0.0
 10
189.3220812646933
 20
16.22545966915429
 30
0.0
 10
189.2963574785683
 20
16.1773302865517
 30
0.0
 10
189.1825397571452
 20
16.18266829744176
 30
0.0
 10
189.3159346621137
 20
15.95449174576774
 30
0.0
 10
189.1943658735471
 20
15.72156856595922
 30
0.0
 10
189.3223188769413
 20
15.73087258884438
 30
0.0
 10
189.4049048406461
 20
15.72801001754679
 30
0.0
 10
189.5307214850824
 20
15.72923437412301
 30
0.0
 10
189.6741469838057
 20
15.72932431888963
 30
0.0
 10
189.8157420951728
 20
15.72746163183853
 30
0.0
 10
189.9459127249967
 20
15.73333075937161
 30
0.0
 10
190.0193452286191
 20
15.72070340823202
 30
0.0
 10
190.0891112922096
 20
15.73877563110411
 30
0.0
 10
190.0775772605396
 20
15.68612850546325
 30
0.0
 10
190.0833184346682
 20
15.64221317686547
 30
0.0
 10
190.0816615770911
 20
15.59089982676549
 30
0.0
 10
190.081775756167
 20
15.56158792021635
 30
0.0
 10
190.0818114333289
 20
15.55242795125077
 30
0.0
 11
190.0818114333289
 21
15.55242795125077
 31
0.0
 11
190.0472127192051
 21
15.55242795125077
 31
0.0
 11
189.9559979274241
 21
15.55242795125077
 31
0.0
 11
189.8270390838717
 21
15.55242795125077
 31
0.0
 11
189.6792082144335
 21
15.55242795125077
 31
0.0
 11
189.5313773449954
 21
15.55242795125077
 31
0.0
 11
189.402418501443
 21
15.55242795125077
 31
0.0
 11
189.311203709662
 21
15.55242795125077
 31
0.0
 11
189.2766049955382
 21
15.55242795125077
 31
0.0
 11
189.3083140497693
 21
15.23435864930121
 31
0.0
 11
189.3527866656865
 21
14.9350952278808
 31
0.0
 11
189.4092389118319
 21
14.66191269512576
 31
0.0
 11
189.4768868567478
 21
14.42208605917227
 31
0.0
 11
189.5549465689761
 21
14.22289032815655
 31
0.0
 11
189.6426341170591
 21
14.07160051021477
 31
0.0
 11
189.7391655695388
 21
13.97549161348317
 31
0.0
 11
189.8437569949575
 21
13.94183864609792
 31
0.0
 11
189.8943077302785
 21
13.97177376978835
 31
0.0
 11
189.9310588991551
 21
14.06491619815047
 31
0.0
 11
189.9562640977527
 21
14.22627151712055
 31
0.0
 11
189.9721769222369
 21
14.46084531263483
 31
0.0
 11
190.0494082682583
 21
14.40202182306618
 31
0.0
 11
190.1327184184385
 21
14.3592188543269
 31
0.0
 11
190.1066365811217
 21
14.1152838866101
 31
0.0
 11
190.0673317805105
 21
13.94207902887562
 31
0.0
 11
190.0105702596765
 21
13.83011272445918
 31
0.0
 11
189.932118261691
 21
13.76989341669646
 31
0.0
 11
189.8277420296255
 21
13.75192954892318
 31
0.0
 11
189.6738595065096
 21
13.78957440012362
 31
0.0
 11
189.5388902376747
 21
13.89707348877404
 31
0.0
 11
189.4221739916162
 21
14.06627361744809
 31
0.0
 11
189.32305053683
 21
14.28902158871944
 31
0.0
 11
189.2408596418113
 21
14.55716420516172
 31
0.0
 11
189.1749410750559
 21
14.8625482693486
 31
0.0
 11
189.1246346050593
 21
15.19702058385374
 31
0.0
 11
189.0892800003171
 21
15.55242795125077
 31
0.0
 11
189.0561935405844
 21
15.55242795125077
 31
0.0
 11
188.9654726026075
 21
15.55242795125077
 31
0.0
 11
188.8299248482185
 21
15.55242795125077
 31
0.0
 11
188.6623579392495
 21
15.55242795125077
 31
0.0
 11
188.4755795375324
 21
15.55242795125077
 31
0.0
 11
188.2823973048992
 21
15.55242795125077
 31
0.0
 11
188.0956189031822
 21
15.55242795125077
 31
0.0
 11
187.9280519942131
 21
15.55242795125077
 31
0.0
 11
187.7925042398241
 21
15.55242795125077
 31
0.0
 11
187.7017833018473
 21
15.55242795125077
 31
0.0
 11
187.6686968421145
 21
15.55242795125077
 31
0.0
 11
187.6686968421145
 21
15.58001489785846
 31
0.0
 11
187.6686968421145
 21
15.64070618039537
 31
0.0
 11
187.6686968421145
 21
15.70139746293228
 31
0.0
 11
187.6686968421145
 21
15.72898440953997
 31
0.0
 11
187.7014723087631
 21
15.72898440953997
 31
0.0
 11
187.7913405237673
 21
15.72898440953997
 31
0.0
 11
187.9256142097148
 21
15.72898440953997
 31
0.0
 11
188.0916060891932
 21
15.72898440953997
 31
0.0
 11
188.2766288847901
 21
15.72898440953997
 31
0.0
 11
188.4679953190932
 21
15.72898440953997
 31
0.0
 11
188.6530181146902
 21
15.72898440953997
 31
0.0
 11
188.8190099941685
 21
15.72898440953997
 31
0.0
 11
188.953283680116
 21
15.72898440953997
 31
0.0
 11
189.0431518951202
 21
15.72898440953997
 31
0.0
 11
189.0759273617688
 21
15.72898440953997
 31
0.0
 11
189.0659183950103
 21
15.97947647544959
 31
0.0
 11
189.0599112510662
 21
16.23196614552532
 31
0.0
 11
189.0860575870658
 21
16.23056921608122
 31
0.0
 11
189.1484065421419
 21
16.22723807663762
 31
0.0
 11
189.22282303691
 21
16.2232622005275
 31
0.0
 11
189.285171991986
 21
16.21993106108389
 31
0.0
 11
189.3113183279856
 21
16.2185341316398
 31
0.0
 11
189.2982931113041
 21
16.1901652861608
 31
0.0
 11
189.2551649266406
 21
16.17581274276165
 31
0.0
 11
189.2574991961822
 21
15.95136670115109
 31
0.0
 11
189.2658452735903
 21
15.72898440953997
 31
0.0
 11
189.3009063195165
 21
15.72898440953997
 31
0.0
 11
189.3933399860495
 21
15.72898440953997
 31
0.0
 11
189.5240220663201
 21
15.72898440953997
 31
0.0
 11
189.6738283534596
 21
15.72898440953997
 31
0.0
 11
189.8236346405991
 21
15.72898440953997
 31
0.0
 11
189.9543167208697
 21
15.72898440953997
 31
0.0
 11
190.0467503874027
 21
15.72898440953997
 31
0.0
 11
190.0818114333289
 21
15.72898440953997
 31
0.0
 11
190.0818114333289
 21
15.70139746293228
 31
0.0
 11
190.0818114333289
 21
15.64070618039537
 31
0.0
 11
190.0818114333289
 21
15.58001489785846
 31
0.0
 11
190.0818114333289
 21
15.55242795125077
 31
0.0
  0
SPLINE
  5
AE
102
{ACAD_REACTORS
330
CB
102
}
330
48
100
AcDbEntity
  8
_U_30EC_U_30A4_U_30E4_U_30FC_1
  6
Continuous
 62
     2
100
AcDbSpline
210
0.0
220
0.0
230
1.0
 70
    11
 71
     3
 72
   118
 73
   114
 74
   112
 42
0.000000001
 43
0.0000000001
 44
0.00000001
 40
0.0
 40
0.0
 40
0.0
 40
0.0
 40
0.1054708162973078
 40
0.2466098270051564
 40
0.3965912874590722
 40
0.5285525069753421
 40
0.6156245055641443
 40
0.6431434105796755
 40
0.7036850037985628
 40
0.7642265984504194
 40
0.7917455052354666
 40
0.9287404319989269
 40
1.106572819087933
 40
1.287544879680902
 40
1.31757830803042
 40
1.399928030857056
 40
1.522968204799831
 40
1.67507298659045
 40
1.844616533180525
 40
2.01997300163859
 40
2.189516548879902
 40
2.341621331585239
 40
2.464661506320373
 40
2.547011229646937
 40
2.577044658167901
 40
2.603797890893
 40
2.662655002908801
 40
2.721512114949698
 40
2.748265347702878
 40
2.774215307344954
 40
2.845959313407282
 40
2.954338556588481
 40
3.090194227585657
 40
3.244367517100622
 40
3.40769961584438
 40
3.571031714539529
 40
3.725205003920201
 40
3.861060674729703
 40
3.969439917716394
 40
4.041183923629067
 40
4.06713388321306
 40
4.311886746012207
 40
4.547897258335549
 40
4.764747083044016
 40
4.952749679951824
 40
5.045772974195953
 40
5.137862019645042
 40
5.330543169793089
 40
5.553448265244078
 40
5.795083855888235
 40
6.043293412177295
 40
6.285761695541242
 40
6.313902908752726
 40
6.384255941793316
 40
6.475714884766904
 40
6.567173827758967
 40
6.637526860839745
 40
6.665668074074108
 40
6.692018920328084
 40
6.749990782071156
 40
6.807962643790527
 40
6.834313490018004
 40
6.856393084245254
 40
6.913335195649906
 40
6.991194817302541
 40
7.076026942283746
 40
7.153886563725265
 40
7.21082867484479
 40
7.232908268931125
 40
7.258199334923646
 40
7.324875781592296
 40
7.419142481924951
 40
7.527204308841895
 40
7.635266135230471
 40
7.729532834168457
 40
7.796209279292779
 40
7.821500344594726
 40
7.844652988850853
 40
7.89986314054166
 40
7.965759128053882
 40
8.020969279771252
 40
8.044121924046719
 40
8.069356610160858
 40
8.109134395441547
 40
8.132238100191259
 40
8.193147867786621
 40
8.279261678876797
 40
8.377977512674011
 40
8.476693347146796
 40
8.562807160411847
 40
8.623716930826633
 40
8.646820636853587
 40
8.6719887937744
 40
8.734909185828254
 40
8.816705695188968
 40
8.898502204815511
 40
8.961422597377943
 40
8.986590754551056
 40
9.012941600733212
 40
9.070913462380302
 40
9.1288853240818
 40
9.155236170325121
 40
9.180404327929164
 40
9.243324721948209
 40
9.325121234211945
 40
9.4069177466376
 40
9.469838141978055
 40
9.495006288270801
 40
9.517811184378944
 40
9.572192090486944
 40
9.637098333281173
 40
9.691479239515372
 40
9.714284125643411
 40
9.714284125643411
 40
9.714284125643411
 40
9.714284125643411
 10
185.2874469028654
 20
15.26889163187719
 30
0.0
 10
185.3090990569038
 20
15.24111869242811
 30
0.0
 10
185.3597257109474
 20
15.17618054561234
 30
0.0
 10
185.4349383202592
 20
15.06891060312899
 30
0.0
 10
185.5248482274346
 20
14.95377438266624
 30
0.0
 10
185.5709169676674
 20
14.85357045748321
 30
0.0
 10
185.6655825294654
 20
14.78434006814943
 30
0.0
 10
185.6204439320412
 20
14.73771639678274
 30
0.0
 10
185.5947047785789
 20
14.6966030886604
 30
0.0
 10
185.5645196708011
 20
14.6606597172794
 30
0.0
 10
185.519368473056
 20
14.58579782596096
 30
0.0
 10
185.4710504458562
 20
14.80782524253603
 30
0.0
 10
185.3968539713073
 20
14.84510677337711
 30
0.0
 10
185.2836047324607
 20
15.11610202130599
 30
0.0
 10
185.2885133578171
 20
15.00095328446229
 30
0.0
 10
185.2868486556306
 20
14.92836675781627
 30
0.0
 10
185.2876830076715
 20
14.80625588483986
 30
0.0
 10
185.2873609540266
 20
14.65913800810461
 30
0.0
 10
185.2875076912457
 20
14.49307063956558
 30
0.0
 10
185.2872950092723
 20
14.32187554608602
 30
0.0
 10
185.2879497252035
 20
14.15552828635499
 30
0.0
 10
185.285919246114
 20
14.00935173055694
 30
0.0
 10
185.2913460399931
 20
13.88471047474612
 30
0.0
 10
185.2804930868709
 20
13.81718656540627
 30
0.0
 10
185.2956739155556
 20
13.75549061417022
 30
0.0
 10
185.2457895108134
 20
13.76727503897004
 30
0.0
 10
185.2017150342521
 20
13.75943822779969
 30
0.0
 10
185.1582371630201
 20
13.76760441372705
 30
0.0
 10
185.1092346786487
 20
13.75538056738469
 30
0.0
 10
185.1218731234824
 20
13.80960667249314
 30
0.0
 10
185.1130182968448
 20
13.86936918907558
 30
0.0
 10
185.1175058770312
 20
13.97922029044371
 30
0.0
 10
185.115796013599
 20
14.11029975405679
 30
0.0
 10
185.1163550915986
 20
14.26198011444329
 30
0.0
 10
185.1161928768692
 20
14.42211074929954
 30
0.0
 10
185.1162269924674
 20
14.58236865674567
 30
0.0
 10
185.1162514960125
 20
14.73370247520439
 30
0.0
 10
185.1161453543224
 20
14.86582156338601
 30
0.0
 10
185.116429914193
 20
14.97294802533193
 30
0.0
 10
185.1158675547567
 20
15.03808619579474
 30
0.0
 10
185.1180765083687
 20
15.16618957858673
 30
0.0
 10
185.0319435998602
 20
14.79097610391575
 30
0.0
 10
184.9555140818501
 20
14.63918193123394
 30
0.0
 10
184.8660040767832
 20
14.47766206446308
 30
0.0
 10
184.7640413217327
 20
14.20471848820171
 30
0.0
 10
184.7187976491038
 20
14.36717346596511
 30
0.0
 10
184.610235594167
 20
14.45605432058121
 30
0.0
 10
184.7995791751753
 20
14.6054979496141
 30
0.0
 10
184.85653405457
 20
14.79749136974926
 30
0.0
 10
184.9717520993352
 20
15.02899622906757
 30
0.0
 10
184.9940151630132
 20
15.21797259759063
 30
0.0
 10
185.1771905152141
 20
15.49454089325929
 30
0.0
 10
185.0538033597552
 20
15.48698978832094
 30
0.0
 10
184.9925684166834
 20
15.48856772366119
 30
0.0
 10
184.9081999617064
 20
15.48882592573672
 30
0.0
 10
184.8204235085966
 20
15.48544845751206
 30
0.0
 10
184.7656768696122
 20
15.4939481498202
 30
0.0
 10
184.7104703026025
 20
15.48048561049788
 30
0.0
 10
184.7222823035536
 20
15.52931442126764
 30
0.0
 10
184.7142496151794
 20
15.57269004896709
 30
0.0
 10
184.7228186104678
 20
15.61509438309573
 30
0.0
 10
184.7102943409157
 20
15.66267796552118
 30
0.0
 10
184.7555101538735
 20
15.6526721299511
 30
0.0
 10
184.8014815562723
 20
15.65894105174061
 30
0.0
 10
184.877722204771
 20
15.65593561405874
 30
0.0
 10
184.9561296131993
 20
15.65770448278542
 30
0.0
 10
185.0323992648932
 20
15.65464793981661
 30
0.0
 10
185.0783009459473
 20
15.66103971376178
 30
0.0
 10
185.1231733965399
 20
15.65093822978897
 30
0.0
 10
185.1105552275633
 20
15.701572015819
 30
0.0
 10
185.1191936582705
 20
15.75501261882071
 30
0.0
 10
185.1152361595441
 20
15.84863255131681
 30
0.0
 10
185.1162325068333
 20
15.95112606688925
 30
0.0
 10
185.1171927413072
 20
16.05353270248165
 30
0.0
 10
185.1133211458004
 20
16.14735929609321
 30
0.0
 10
185.1217789814364
 20
16.20036542840355
 30
0.0
 10
185.1093075932834
 20
16.25211435651191
 30
0.0
 10
185.1542106389849
 20
16.23850747226758
 30
0.0
 10
185.1955083836772
 20
16.24100480320587
 30
0.0
 10
185.259534428105
 20
16.23648060574487
 30
0.0
 10
185.2986111148787
 20
16.2278100304331
 30
0.0
 10
185.3476543498743
 20
16.23515102070686
 30
0.0
 10
185.322508003059
 20
16.19602896051764
 30
0.0
 10
185.2815901333724
 20
16.20563842455805
 30
0.0
 10
185.2910109616605
 20
16.1554014816978
 30
0.0
 10
185.2855647318747
 20
16.10385945639491
 30
0.0
 10
185.2881699601805
 20
16.01959707584522
 30
0.0
 10
185.2870102202155
 20
15.92559135583409
 30
0.0
 10
185.2883591064232
 20
15.83196865395527
 30
0.0
 10
185.2849970101509
 20
15.74679517552224
 30
0.0
 10
185.292095991777
 20
15.69716856072045
 30
0.0
 10
185.2812569154547
 20
15.6499369496999
 30
0.0
 10
185.3304010225246
 20
15.66201674936852
 30
0.0
 10
185.3794877630148
 20
15.65447393363012
 30
0.0
 10
185.4573714280641
 20
15.65686070361433
 30
0.0
 10
185.5350365172897
 20
15.65899381905416
 30
0.0
 10
185.5845393931354
 20
15.65193391922455
 30
0.0
 10
185.6344594750639
 20
15.66360151936215
 30
0.0
 10
185.6223198516881
 20
15.61540235371394
 30
0.0
 10
185.6305838229144
 20
15.57249219801236
 30
0.0
 10
185.6223198650782
 20
15.52958201851385
 30
0.0
 10
185.6344594549855
 20
15.48138288754865
 30
0.0
 10
185.5845395158746
 20
15.4930503447151
 30
0.0
 10
185.5350350651203
 20
15.48599202435046
 30
0.0
 10
185.4573784382973
 20
15.48811665228604
 30
0.0
 10
185.379464386576
 20
15.4905338936576
 30
0.0
 10
185.3304500352718
 20
15.48291848194486
 30
0.0
 10
185.2813246108943
 20
15.49507952557591
 30
0.0
 10
185.2915559988573
 20
15.45073013424158
 30
0.0
 10
185.2856677678054
 20
15.40925436202911
 30
0.0
 10
185.287878830557
 20
15.34915394315302
 30
0.0
 10
185.2874109346147
 20
15.30225782762889
 30
0.0
 10
185.2874386992914
 20
15.27650146418196
 30
0.0
 10
185.2874469028654
 20
15.26889163187719
 30
0.0
 11
185.2874469028654
 21
15.26889163187719
 31
0.0
 11
185.3516977534485
 21
15.18524999634256
 31
0.0
 11
185.43482588355
 21
15.07118889748221
 31
0.0
 11
185.5216831568896
 21
14.94891767195723
 31
0.0
 11
185.5971214371872
 21
14.84064565642877
 31
0.0
 11
185.6459925881626
 21
14.76858218755791
 31
0.0
 11
185.6296821285093
 21
14.746417821244
 31
0.0
 11
185.5937991172719
 21
14.6976562153534
 31
0.0
 11
185.5579161060346
 21
14.64889460946281
 31
0.0
 11
185.5416056463812
 21
14.6267302431489
 31
0.0
 11
185.4763067109446
 21
14.74716139023813
 31
0.0
 11
185.3848434243235
 21
14.89966983670207
 31
0.0
 11
185.2874469028654
 21
15.05219788193142
 31
0.0
 11
185.2874469028654
 21
15.02216445328253
 31
0.0
 11
185.2874469028654
 21
14.93981472956783
 31
0.0
 11
185.2874469028654
 21
14.81677455413528
 31
0.0
 11
185.2874469028654
 21
14.66466977033284
 31
0.0
 11
185.2874469028654
 21
14.49512622150846
 31
0.0
 11
185.2874469028654
 21
14.3197697510101
 31
0.0
 11
185.2874469028654
 21
14.15022620218571
 31
0.0
 11
185.2874469028654
 21
13.99812141838327
 31
0.0
 11
185.2874469028654
 21
13.87508124295072
 31
0.0
 11
185.2874469028654
 21
13.79273151923602
 31
0.0
 11
185.2874469028654
 21
13.76269809058713
 31
0.0
 11
185.260693670041
 21
13.76269809058713
 31
0.0
 11
185.2018365578271
 21
13.76269809058713
 31
0.0
 11
185.1429794456133
 21
13.76269809058713
 31
0.0
 11
185.1162262127889
 21
13.76269809058713
 31
0.0
 11
185.1162262127889
 21
13.78864805031251
 31
0.0
 11
185.1162262127889
 21
13.86039205661208
 31
0.0
 11
185.1162262127889
 21
13.96877130017102
 31
0.0
 11
185.1162262127889
 21
14.10462697167448
 31
0.0
 11
185.1162262127889
 21
14.25880026180761
 31
0.0
 11
185.1162262127889
 21
14.42213236125559
 31
0.0
 11
185.1162262127889
 21
14.58546446070357
 31
0.0
 11
185.1162262127889
 21
14.7396377508367
 31
0.0
 11
185.1162262127889
 21
14.87549342234016
 31
0.0
 11
185.1162262127889
 21
14.98387266589909
 31
0.0
 11
185.1162262127889
 21
15.05561667219867
 31
0.0
 11
185.1162262127889
 21
15.08156663192405
 31
0.0
 11
185.0379865861721
 21
14.84965603302372
 31
0.0
 11
184.9497110789304
 21
14.63077616328679
 31
0.0
 11
184.8544106930045
 21
14.43598991333547
 31
0.0
 11
184.7550964303356
 21
14.27636017379202
 31
0.0
 11
184.7109198342406
 21
14.35822446196599
 31
0.0
 11
184.658805738348
 21
14.43414885430812
 31
0.0
 11
184.7627302590299
 21
14.59640087926758
 31
0.0
 11
184.8629319864735
 21
14.79551465421781
 31
0.0
 11
184.9550446607901
 21
15.01890447916196
 31
0.0
 11
185.0347020220912
 21
15.25398465410319
 31
0.0
 11
185.097537810488
 21
15.48816947904465
 31
0.0
 11
185.0693965972142
 21
15.48816947904465
 31
0.0
 11
184.9990435640297
 21
15.48816947904465
 31
0.0
 11
184.9075846208898
 21
15.48816947904465
 31
0.0
 11
184.8161256777499
 21
15.48816947904465
 31
0.0
 11
184.7457726445654
 21
15.48816947904465
 31
0.0
 11
184.7176314312916
 21
15.48816947904465
 31
0.0
 11
184.7176314312916
 21
15.51452032539223
 31
0.0
 11
184.7176314312916
 21
15.57249218735689
 31
0.0
 11
184.7176314312916
 21
15.63046404932155
 31
0.0
 11
184.7176314312916
 21
15.65681489566913
 31
0.0
 11
184.7397110256019
 21
15.65681489566913
 31
0.0
 11
184.7966531372444
 21
15.65681489566913
 31
0.0
 11
184.8745127592862
 21
15.65681489566913
 31
0.0
 11
184.9593448847943
 21
15.65681489566913
 31
0.0
 11
185.0372045068361
 21
15.65681489566913
 31
0.0
 11
185.0941466184785
 21
15.65681489566913
 31
0.0
 11
185.1162262127889
 21
15.65681489566913
 31
0.0
 11
185.1162262127889
 21
15.68210596174354
 31
0.0
 11
185.1162262127889
 21
15.74878240866698
 31
0.0
 11
185.1162262127889
 21
15.84304910948978
 31
0.0
 11
185.1162262127889
 21
15.95111093726225
 31
0.0
 11
185.1162262127889
 21
16.05917276503472
 31
0.0
 11
185.1162262127889
 21
16.15343946585752
 31
0.0
 11
185.1162262127889
 21
16.22011591278096
 31
0.0
 11
185.1162262127889
 21
16.24540697885537
 31
0.0
 11
185.1393181988665
 21
16.24373213107801
 31
0.0
 11
185.1943837041284
 21
16.23973826330123
 31
0.0
 11
185.2601070491184
 21
16.23497138885797
 31
0.0
 11
185.3151725543804
 21
16.23097752108118
 31
0.0
 11
185.3382645404579
 21
16.22930267330382
 31
0.0
 11
185.3249012644362
 21
16.20789677921192
 31
0.0
 11
185.2874469028654
 21
16.1945011455347
 31
0.0
 11
185.2874469028654
 21
16.17139743948579
 31
0.0
 11
185.2874469028654
 21
16.11048766899321
 31
0.0
 11
185.2874469028654
 21
16.02437385553817
 31
0.0
 11
185.2874469028654
 21
15.92565802060192
 31
0.0
 11
185.2874469028654
 21
15.82694218566566
 31
0.0
 11
185.2874469028654
 21
15.74082837221063
 31
0.0
 11
185.2874469028654
 21
15.67991860171804
 31
0.0
 11
185.2874469028654
 21
15.65681489566913
 31
0.0
 11
185.312615060481
 21
15.65681489566913
 31
0.0
 11
185.3755354545199
 21
15.65681489566913
 31
0.0
 11
185.4573319667706
 21
15.65681489566913
 31
0.0
 11
185.5391284790213
 21
15.65681489566913
 31
0.0
 11
185.6020488730602
 21
15.65681489566913
 31
0.0
 11
185.6272170306758
 21
15.65681489566913
 31
0.0
 11
185.6272170306758
 21
15.63046404932156
 31
0.0
 11
185.6272170306758
 21
15.57249218735689
 31
0.0
 11
185.6272170306758
 21
15.51452032539222
 31
0.0
 11
185.6272170306758
 21
15.48816947904465
 31
0.0
 11
185.6020488730602
 21
15.48816947904465
 31
0.0
 11
185.5391284790213
 21
15.48816947904465
 31
0.0
 11
185.4573319667706
 21
15.48816947904465
 31
0.0
 11
185.37553545452
 21
15.48816947904465
 31
0.0
 11
185.312615060481
 21
15.48816947904465
 31
0.0
 11
185.2874469028654
 21
15.48816947904465
 31
0.0
 11
185.2874469028654
 21
15.46536458293923
 31
0.0
 11
185.2874469028654
 21
15.4109836768417
 31
0.0
 11
185.2874469028654
 21
15.34607743408013
 31
0.0
 11
185.2874469028654
 21
15.29169652798261
 31
0.0
 11
185.2874469028654
 21
15.26889163187719
 31
0.0
  0
SPLINE
  5
AF
102
{ACAD_REACTORS
330
CC
102
}
330
48
100
AcDbEntity
  8
_U_30EC_U_30A4_U_30E4_U_30FC_1
  6
Continuous
 62
     2
100
AcDbSpline
210
0.0
220
0.0
230
1.0
 70
    11
 71
     3
 72
    47
 73
    43
 74
    41
 42
0.000000001
 43
0.0000000001
 44
0.00000001
 40
0.0
 40
0.0
 40
0.0
 40
0.0
 40
0.2207912809957213
 40
0.4459404186303082
 40
0.4902387190459854
 40
0.5327473892721971
 40
0.5742260451226139
 40
0.6155432630561717
 40
0.6568164066317489
 40
0.6982511618781557
 40
0.7407663929318076
 40
0.7851366743177256
 40
1.010288833836526
 40
1.231080507002383
 40
1.451765243652607
 40
1.676638205891888
 40
1.720461045359857
 40
1.830018144043722
 40
1.972442372353353
 40
2.114866600677722
 40
2.224423699395347
 40
2.268246538883588
 40
2.493628801207429
 40
2.715602830286828
 40
2.934211330706586
 40
3.149502369855584
 40
3.231387784851314
 40
3.318231873854378
 40
3.405143198198366
 40
3.486970301720887
 40
3.702258172494337
 40
3.920866283534564
 40
4.142839325932355
 40
4.368221903865826
 40
4.412044743360306
 40
4.521601842096321
 40
4.664026070452802
 40
4.806450298809511
 40
4.916007397547204
 40
4.959830237043525
 40
5.184703515847553
 40
5.405387250767925
 40
5.405387250767925
 40
5.405387250767925
 40
5.405387250767925
 10
182.6507427258645
 20
15.73406440953872
 30
0.0
 10
182.6568139420003
 20
15.79758482501211
 30
0.0
 10
182.6690762107244
 20
15.92587938689629
 30
0.0
 10
182.5604706879413
 20
16.20166220174076
 30
0.0
 10
182.6761985896603
 20
16.17188133432055
 30
0.0
 10
182.7171842509015
 20
16.16765556262818
 30
0.0
 10
182.7591205797518
 20
16.16310446389608
 30
0.0
 10
182.800419662571
 20
16.16201982929484
 30
0.0
 10
182.8417032115556
 20
16.16310338195227
 30
0.0
 10
182.8836148270647
 20
16.16766112711343
 30
0.0
 10
182.924598354902
 20
16.1718743020973
 30
0.0
 10
183.0404922843489
 20
16.20177611317531
 30
0.0
 10
182.9295652727456
 20
15.92339806609892
 30
0.0
 10
182.9574856365265
 20
15.74283140824952
 30
0.0
 10
182.940426734697
 20
15.50961042346473
 30
0.0
 10
182.9414637282101
 20
15.34906622543146
 30
0.0
 10
182.9414099399404
 20
15.22284817558723
 30
0.0
 10
182.9414277372479
 20
15.12428963336242
 30
0.0
 10
182.9414188581079
 20
14.99280702442964
 30
0.0
 10
182.9414263928033
 20
14.86132844968651
 30
0.0
 10
182.9414129405127
 20
14.76276222694091
 30
0.0
 10
182.9414531717491
 20
14.63639735624153
 30
0.0
 10
182.9406746403816
 20
14.4748206882287
 30
0.0
 10
182.9565958319265
 20
14.24361821892914
 30
0.0
 10
182.9333468885407
 20
14.05874351972001
 30
0.0
 10
183.0360183444367
 20
13.78935602770052
 30
0.0
 10
182.8820238362837
 20
13.82660112685818
 30
0.0
 10
182.8004129802832
 20
13.82137994680534
 30
0.0
 10
182.7188192292582
 20
13.82660620378351
 30
0.0
 10
182.5648513666841
 20
13.78937069885384
 30
0.0
 10
182.6674183421919
 20
14.05875129862878
 30
0.0
 10
182.6442045316087
 20
14.24361585325415
 30
0.0
 10
182.6600444655139
 20
14.47482218565639
 30
0.0
 10
182.6593296313426
 20
14.63639712308503
 30
0.0
 10
182.6593664569907
 20
14.76276231210521
 30
0.0
 10
182.659354900027
 20
14.86132756635982
 30
0.0
 10
182.6593575019214
 20
14.99281127417221
 30
0.0
 10
182.6593648531779
 20
15.124275480312
 30
0.0
 10
182.6593442541351
 20
15.22287786275328
 30
0.0
 10
182.6594082192027
 20
15.34896149354426
 30
0.0
 10
182.6581733947591
 20
15.51210091383772
 30
0.0
 10
182.6532040396745
 20
15.6605418377755
 30
0.0
 10
182.6507427258645
 20
15.73406440953872
 30
0.0
 11
182.6507427258645
 21
15.73406440953872
 31
0.0
 11
182.641732820038
 21
15.95467178795577
 31
0.0
 11
182.6318769706145
 21
16.17960510387179
 31
0.0
 11
182.6756985840801
 21
16.17312391463729
 31
0.0
 11
182.7178400934214
 21
16.16754892331924
 31
0.0
 11
182.759137140979
 21
16.16367167505631
 31
0.0
 11
182.8004341885365
 21
16.16238072887607
 31
0.0
 11
182.8416871388731
 21
16.16367167505631
 31
0.0
 11
182.8829400892097
 21
16.16754892331924
 31
0.0
 11
182.9250882131343
 21
16.17312391463729
 31
0.0
 11
182.9689825870146
 21
16.17960510387179
 31
0.0
 11
182.9590577693891
 21
15.95467178795577
 31
0.0
 11
182.9500384208309
 21
15.73406440953872
 31
0.0
 11
182.9435638463434
 21
15.51347467001055
 31
0.0
 11
182.9414218238285
 21
15.28861190965008
 31
0.0
 11
182.9414218238285
 21
15.24478907015487
 31
0.0
 11
182.9414218238285
 21
15.13523197141683
 31
0.0
 11
182.9414218238285
 21
14.99280774305738
 31
0.0
 11
182.9414218238285
 21
14.85038351469793
 31
0.0
 11
182.9414218238285
 21
14.74082641595989
 31
0.0
 11
182.9414218238285
 21
14.69700357646468
 31
0.0
 11
182.9435638463434
 21
14.47163149318766
 31
0.0
 11
182.9500384208309
 21
14.2497519099098
 31
0.0
 11
182.9590577693891
 21
14.03132954885329
 31
0.0
 11
182.9689825870146
 21
13.81626739612927
 31
0.0
 11
182.887261616877
 21
13.82145433189185
 31
0.0
 11
182.8004341885365
 21
13.82315538223862
 31
0.0
 11
182.7135395119339
 21
13.82145433189185
 31
0.0
 11
182.6318769706145
 21
13.81626739612927
 31
0.0
 11
182.641732820038
 21
14.03132954885329
 31
0.0
 11
182.6507427258645
 21
14.2497519099098
 31
0.0
 11
182.6571833838798
 21
14.47163149318766
 31
0.0
 11
182.6593583588023
 21
14.69700357646468
 31
0.0
 11
182.6593583588023
 21
14.74082641595989
 31
0.0
 11
182.6593583588023
 21
14.85038351469793
 31
0.0
 11
182.6593583588023
 21
14.99280774305738
 31
0.0
 11
182.6593583588023
 21
15.13523197141683
 31
0.0
 11
182.6593583588023
 21
15.24478907015487
 31
0.0
 11
182.6593583588023
 21
15.28861190965008
 31
0.0
 11
182.6571833838798
 21
15.51347467001055
 31
0.0
 11
182.6507427258645
 21
15.73406440953872
 31
0.0
  0
SPLINE
  5
B0
102
{ACAD_REACTORS
330
CD
102
}
330
48
100
AcDbEntity
  8
_U_30EC_U_30A4_U_30E4_U_30FC_1
  6
Continuous
 62
     2
100
AcDbSpline
210
0.0
220
0.0
230
1.0
 70
    11
 71
     3
 72
   110
 73
   106
 74
   104
 42
0.000000001
 43
0.0000000001
 44
0.00000001
 40
0.0
 40
0.0
 40
0.0
 40
0.0
 40
0.2203406257277732
 40
0.4407808782838093
 40
0.5952494494615354
 40
0.7488431659393077
 40
0.9023581831309059
 40
1.056801968670404
 40
1.210736449100019
 40
1.363041386539783
 40
1.515315729683126
 40
1.669377239148077
 40
1.721611652756555
 40
1.773199502942937
 40
1.824933793209982
 40
1.877110426487958
 40
1.982682281206694
 40
2.07878166708753
 40
2.172809640822195
 40
2.271937807378906
 40
2.378349933379327
 40
2.494131557736373
 40
2.626681683943564
 40
2.783145050796048
 40
2.890701232940915
 40
2.993130312454817
 40
3.099869730691793
 40
3.22023781669128
 40
3.352695482737573
 40
3.481732806389819
 40
3.593499473690351
 40
3.674323013331875
 40
3.817951711952825
 40
3.946167120793822
 40
4.06140505345348
 40
4.166480796003149
 40
4.262478775059185
 40
4.350736673551056
 40
4.433071991253999
 40
4.511216293814544
 40
4.564262454117853
 40
4.618474415571477
 40
4.670128488754062
 40
4.722296879126259
 40
4.819540945314015
 40
4.931194984127901
 40
5.049996040257514
 40
5.168643755414974
 40
5.283970811762271
 40
5.392260784910125
 40
5.486512254876171
 40
5.559178233949599
 40
5.591425852853269
 40
5.626215969637664
 40
5.667155838674196
 40
5.717449290214013
 40
5.738402360944626
 40
5.784499116553588
 40
5.830595872164555
 40
5.851548942897411
 40
5.873019280661525
 40
5.924217778408073
 40
5.985325662817454
 40
6.03652416056747
 40
6.057994498334001
 40
6.236847789607253
 40
6.381409928945424
 40
6.493190424178456
 40
6.574067534230266
 40
6.691018086205331
 40
6.814881554220164
 40
6.94430782324023
 40
7.071266716065854
 40
7.193488604461699
 40
7.309042773127926
 40
7.414007203170608
 40
7.50514044188631
 40
7.531150360599481
 40
7.559221645322064
 40
7.587202218920727
 40
7.612569159498944
 40
7.662550809480817
 40
7.702878875763951
 40
7.857328205230794
 40
8.010799568088496
 40
8.165256399657418
 40
8.3222326987137
 40
8.479564855016386
 40
8.63521623029059
 40
8.790882550925508
 40
8.948305154947073
 40
9.168271839032762
 40
9.387358980987035
 40
9.608047961033279
 40
9.83291423479248
 40
9.858338694962814
 40
9.925366817229822
 40
10.02013071422741
 40
10.12876249858979
 40
10.2373942829523
 40
10.33215817995172
 40
10.39918630222375
 40
10.42461076239764
 40
10.64992019336924
 40
10.87188524531169
 40
10.87188524531169
 40
10.87188524531169
 40
10.87188524531169
 10
179.9057788376618
 20
15.7392326039819
 30
0.0
 10
179.9092864933542
 20
15.80616462073804
 30
0.0
 10
179.9163033987663
 20
15.94005891915859
 30
0.0
 10
179.8198027599073
 20
16.22548554971471
 30
0.0
 10
180.0510134726109
 20
16.16284386190284
 30
0.0
 10
180.1919290057156
 20
16.1700155405599
 30
0.0
 10
180.3490417757588
 20
16.16235883078245
 30
0.0
 10
180.5025913427288
 20
16.16252752283039
 30
0.0
 10
180.6545104935081
 20
16.16182040535433
 30
0.0
 10
180.8142214813232
 20
16.17210158351638
 30
0.0
 10
180.9408972601117
 20
16.15496511080751
 30
0.0
 10
181.1370821122081
 20
16.22727260107147
 30
0.0
 10
181.1034395279078
 20
16.12640699080116
 30
0.0
 10
181.1052011317185
 20
16.07619253947671
 30
0.0
 10
181.1027342073458
 20
16.02712335586466
 30
0.0
 10
181.1347076966011
 20
15.94063490846999
 30
0.0
 10
181.0010399903255
 20
15.98997438608339
 30
0.0
 10
180.9172208688057
 20
15.98430634314168
 30
0.0
 10
180.8173861139324
 20
15.99465516706299
 30
0.0
 10
180.7186576720146
 20
16.00086450411088
 30
0.0
 10
180.6121532771111
 20
16.00697763816777
 30
0.0
 10
180.4910511698059
 20
16.01588883484585
 30
0.0
 10
180.3703381502454
 20
16.00521605912383
 30
0.0
 10
180.1812553843436
 20
16.06468503080369
 30
0.0
 10
180.2129028505312
 20
15.9055832007754
 30
0.0
 10
180.1995563316833
 20
15.80839128339903
 30
0.0
 10
180.1974958426449
 20
15.69634065110104
 30
0.0
 10
180.195818804467
 20
15.57699685629351
 30
0.0
 10
180.1973336794233
 20
15.45032592155111
 30
0.0
 10
180.1956582478668
 20
15.32301588016118
 30
0.0
 10
180.2058844271657
 20
15.22451566404465
 30
0.0
 10
180.1779006596582
 20
15.0838870262563
 30
0.0
 10
180.3508029999304
 20
15.13989551134095
 30
0.0
 10
180.4645020202772
 20
15.12719951478498
 30
0.0
 10
180.5840151672239
 20
15.13448377051256
 30
0.0
 10
180.6888491425072
 20
15.13878017056757
 30
0.0
 10
180.7843084898611
 20
15.14330568258977
 30
0.0
 10
180.8763823507032
 20
15.151492011462
 30
0.0
 10
180.9476551782438
 20
15.1464385063811
 30
0.0
 10
181.0544931705684
 20
15.18536425031673
 30
0.0
 10
181.0226603598036
 20
15.10517122005878
 30
0.0
 10
181.026616450393
 20
15.05562936846033
 30
0.0
 10
181.0234502392013
 20
15.0055747803982
 30
0.0
 10
181.0550791490583
 20
14.92128847612025
 30
0.0
 10
180.9210133677691
 20
14.97425365495159
 30
0.0
 10
180.82923227932
 20
14.96540080890442
 30
0.0
 10
180.7079729189603
 20
14.97570049965154
 30
0.0
 10
180.5914113119772
 20
14.97748911767504
 30
0.0
 10
180.4783375745879
 20
14.97787017109695
 30
0.0
 10
180.3679246308471
 20
14.9841544947218
 30
0.0
 10
180.289812406784
 20
14.97189133255364
 30
0.0
 10
180.1913625833644
 20
15.00453887616128
 30
0.0
 10
180.2012355173561
 20
14.94769748054206
 30
0.0
 10
180.1973923244402
 20
14.91392130557985
 30
0.0
 10
180.1966789884269
 20
14.8711960470941
 30
0.0
 10
180.1963369642976
 20
14.83401607262154
 30
0.0
 10
180.1963834255345
 20
14.7948723737077
 30
0.0
 10
180.1963649429927
 20
14.75716849497686
 30
0.0
 10
180.1963703431807
 20
14.71944955232403
 30
0.0
 10
180.19636972142
 20
14.6899432474515
 30
0.0
 10
180.1963698151545
 20
14.65873577699302
 30
0.0
 10
180.1963704287921
 20
14.61414424908085
 30
0.0
 10
180.1963671499336
 20
14.55963956508851
 30
0.0
 10
180.196375962348
 20
14.51505540201448
 30
0.0
 10
180.1963359653418
 20
14.4311780858574
 30
0.0
 10
180.1976024270256
 20
14.31737520677678
 30
0.0
 10
180.195027411784
 20
14.16830395933709
 30
0.0
 10
180.206500938172
 20
14.06597203813906
 30
0.0
 10
180.1823506222263
 20
13.93338903885834
 30
0.0
 10
180.3332993946476
 20
13.9789573227202
 30
0.0
 10
180.4428436671554
 20
13.96427012162348
 30
0.0
 10
180.573397047392
 20
13.96920435125063
 30
0.0
 10
180.6990312209513
 20
13.97257705323361
 30
0.0
 10
180.8188730625601
 20
13.97711497498773
 30
0.0
 10
180.9391362611426
 20
13.99048536182006
 30
0.0
 10
181.0222761663514
 20
13.98068712782593
 30
0.0
 10
181.1456080421074
 20
14.04126214623318
 30
0.0
 10
181.1244269203956
 20
13.98532460134022
 30
0.0
 10
181.1235950270114
 20
13.95939249372346
 30
0.0
 10
181.1218963707558
 20
13.9319725619094
 30
0.0
 10
181.1217974888829
 20
13.89738195206385
 30
0.0
 10
181.1203659301329
 20
13.86050408220767
 30
0.0
 10
181.153280419219
 20
13.76846841021806
 30
0.0
 10
180.9551306988107
 20
13.84132015974832
 30
0.0
 10
180.830054829489
 20
13.81825726508605
 30
0.0
 10
180.6673071295156
 20
13.82454021985786
 30
0.0
 10
180.5129366450001
 20
13.82260943909926
 30
0.0
 10
180.3566670436944
 20
13.82393762599268
 30
0.0
 10
180.1970544465282
 20
13.82059872487862
 30
0.0
 10
180.0540326342237
 20
13.8326579572824
 30
0.0
 10
179.8197144881628
 20
13.76952001976918
 30
0.0
 10
179.9173810751197
 20
14.05620527466317
 30
0.0
 10
179.9006868780058
 20
14.2498830814266
 30
0.0
 10
179.9146296709686
 20
14.47848242880295
 30
0.0
 10
179.9142987846633
 20
14.63384593955048
 30
0.0
 10
179.9143078119263
 20
14.73966336444126
 30
0.0
 10
179.9143055876316
 20
14.80205784124214
 30
0.0
 10
179.9143065551888
 20
14.89220425248327
 30
0.0
 10
179.9143065473261
 20
14.99621167157438
 30
0.0
 10
179.9143053861102
 20
15.10022131375296
 30
0.0
 10
179.9143090971502
 20
15.19036243688768
 30
0.0
 10
179.9143011051051
 20
15.25276803097215
 30
0.0
 10
179.9143334275018
 20
15.35868835961119
 30
0.0
 10
179.913144078832
 20
15.5162671654474
 30
0.0
 10
179.9082216489256
 20
15.66528219822066
 30
0.0
 10
179.9057788376618
 20
15.7392326039819
 30
0.0
 11
179.9057788376618
 21
15.7392326039819
 31
0.0
 11
179.8966918223741
 21
15.95938578101018
 31
0.0
 11
179.8868249573133
 21
16.17960510387179
 31
0.0
 11
180.04115751414
 21
16.17312391463729
 31
0.0
 11
180.1946500189046
 21
16.16754892331924
 31
0.0
 11
180.3481160653366
 21
16.16367167505631
 31
0.0
 11
180.5025544554939
 21
16.16238072887607
 31
0.0
 11
180.6564835227474
 21
16.16367167505631
 31
0.0
 11
180.80873910046
 21
16.16754892331924
 31
0.0
 11
180.9609113551074
 21
16.17312391463729
 31
0.0
 11
181.1148364762483
 21
16.17960510387179
 31
0.0
 11
181.1070811703124
 21
16.12794961777358
 31
0.0
 11
181.1044991623592
 21
16.07642642334204
 31
0.0
 11
181.1070811703124
 21
16.0247566056466
 31
0.0
 11
181.1148364762483
 21
15.97315954836784
 31
0.0
 11
181.0094874054411
 21
15.98001446156058
 31
0.0
 11
180.913637570006
 21
15.98693552058657
 31
0.0
 11
180.8198593171904
 21
15.99378381919599
 31
0.0
 11
180.7209679915881
 21
16.00063211780541
 31
0.0
 11
180.6147532199923
 21
16.00710999974824
 31
0.0
 11
180.4991060528039
 21
16.01268829835794
 31
0.0
 11
180.3666126447258
 21
16.01656554662088
 31
0.0
 11
180.2101546018423
 21
16.01785649280113
 31
0.0
 11
180.2062663293721
 21
15.91037061609186
 31
0.0
 11
180.20153800484
 21
15.80805072896464
 31
0.0
 11
180.1976607566749
 21
15.70138175329688
 31
0.0
 11
180.1963698105272
 21
15.58102059013251
 31
0.0
 11
180.1967799146836
 21
15.44856355891565
 31
0.0
 11
180.1980896021501
 21
15.31953288186456
 31
0.0
 11
180.1994074577049
 21
15.2077739843231
 31
0.0
 11
180.199819115366
 21
15.12695149302384
 31
0.0
 11
180.3434452935874
 21
15.1278025694125
 31
0.0
 11
180.4716343930758
 21
15.13039989580077
 31
0.0
 11
180.5868078221795
 21
15.13425509545255
 31
0.0
 11
180.691775631222
 21
15.13901649302077
 31
0.0
 11
180.7876346289421
 21
15.14418027774176
 31
0.0
 11
180.8757413374192
 21
15.14934406246267
 31
0.0
 11
180.9578881438496
 21
15.15491243919739
 31
0.0
 11
181.035769233557
 21
15.16132086801524
 31
0.0
 11
181.0280180445185
 21
15.10884407115337
 31
0.0
 11
181.0254328449317
 21
15.05469378470857
 31
0.0
 11
181.0280180445185
 21
15.00310444444367
 31
0.0
 11
181.035769233557
 21
14.95151510417882
 31
0.0
 11
180.9389813454014
 21
14.96092324653757
 31
0.0
 11
180.8275950722015
 21
14.96865128473013
 31
0.0
 11
180.7089261429373
 21
14.97425273438146
 31
0.0
 11
180.5903167449214
 21
14.97726788195012
 31
0.0
 11
180.4750025117521
 21
14.97898767361639
 31
0.0
 11
180.36672619507
 21
14.98070746528257
 31
0.0
 11
180.2724839317708
 21
14.98202486979617
 31
0.0
 11
180.199819115366
 21
14.9824360763933
 31
0.0
 11
180.1994074577049
 21
14.95019108508192
 31
0.0
 11
180.1980896021501
 21
14.91542593752117
 31
0.0
 11
180.1967799146836
 21
14.87450702260085
 31
0.0
 11
180.1963698105272
 21
14.82421524309951
 31
0.0
 11
180.1963698105272
 21
14.80326217235821
 31
0.0
 11
180.1963698105272
 21
14.75716541672736
 31
0.0
 11
180.1963698105272
 21
14.71106866109652
 31
0.0
 11
180.1963698105272
 21
14.69011559035522
 31
0.0
 11
180.1963698105272
 21
14.66864525258281
 31
0.0
 11
180.1963698105272
 21
14.61744675481784
 31
0.0
 11
180.1963698105272
 21
14.55633887038868
 31
0.0
 11
180.1963698105272
 21
14.50514037262371
 31
0.0
 11
180.1963698105272
 21
14.4836700348513
 31
0.0
 11
180.1967799146836
 21
14.30481721371547
 31
0.0
 11
180.1980896021501
 21
14.16026100715442
 31
0.0
 11
180.2002868589709
 21
14.04850210961289
 31
0.0
 11
180.2032586986985
 21
13.96767961831365
 31
0.0
 11
180.3202092517447
 21
13.96767961831365
 31
0.0
 11
180.4440727208745
 21
13.96767961831365
 31
0.0
 11
180.5734925526422
 21
13.9689705644939
 31
0.0
 11
180.7003922282244
 21
13.97284781275682
 31
0.0
 11
180.8224658067973
 21
13.97886708358865
 31
0.0
 11
180.9377587499463
 21
13.98663260442002
 31
0.0
 11
181.0421754573519
 21
13.99734161483402
 31
0.0
 11
181.1320599255448
 21
14.01237656274693
 31
0.0
 11
181.126425403119
 21
13.98698427976715
 31
0.0
 11
181.1234433285422
 21
13.95907184053803
 31
0.0
 11
181.1221339881199
 21
13.93112191867003
 31
0.0
 11
181.1217235369195
 21
13.90575829888472
 31
0.0
 11
181.1243087365064
 21
13.85584355063326
 31
0.0
 11
181.1320599255448
 21
13.81626739612927
 31
0.0
 11
180.9776977178344
 21
13.82145433189185
 31
0.0
 11
180.8242357818764
 21
13.82315538223862
 31
0.0
 11
180.6697789496482
 21
13.82315538223862
 31
0.0
 11
180.5128026496768
 21
13.82315538223862
 31
0.0
 11
180.3554704921536
 21
13.82315538223862
 31
0.0
 11
180.199819115366
 21
13.82315538223862
 31
0.0
 11
180.0441620874241
 21
13.82145433189185
 31
0.0
 11
179.8868249573133
 21
13.81626739612927
 31
0.0
 11
179.896691822374
 21
14.0360126738521
 31
0.0
 11
179.9057788376618
 21
14.25491128490851
 31
0.0
 11
179.9121721518401
 21
14.47550763902002
 31
0.0
 11
179.9143063455009
 21
14.70036378479715
 31
0.0
 11
179.9143063455009
 21
14.72578824496874
 31
0.0
 11
179.9143063455009
 21
14.79281636723931
 31
0.0
 11
179.9143063455009
 21
14.88758026424253
 31
0.0
 11
179.9143063455009
 21
14.99621204861207
 31
0.0
 11
179.9143063455009
 21
15.10484383298162
 31
0.0
 11
179.9143063455009
 21
15.19960772998484
 31
0.0
 11
179.9143063455009
 21
15.2666358522554
 31
0.0
 11
179.9143063455009
 21
15.292060312427
 31
0.0
 11
179.9121721518401
 21
15.51735963528735
 31
0.0
 11
179.9057788376618
 21
15.7392326039819
 31
0.0
  0
SPLINE
  5
B1
102
{ACAD_REACTORS
330
CE
102
}
330
48
100
AcDbEntity
  8
_U_30EC_U_30A4_U_30E4_U_30FC_1
  6
Continuous
 62
     2
100
AcDbSpline
210
0.0
220
0.0
230
1.0
 70
    11
 71
     3
 72
    95
 73
    91
 74
    89
 42
0.000000001
 43
0.0000000001
 44
0.00000001
 40
0.0
 40
0.0
 40
0.0
 40
0.0
 40
0.6550406656911172
 40
1.308087289031889
 40
1.420803739835768
 40
1.566130759770773
 40
1.757067341888433
 40
2.006513545026432
 40
2.087328263121526
 40
2.185328872295602
 40
2.294612454748342
 40
2.408936380534775
 40
2.526802767798535
 40
2.646360524615573
 40
2.762535723971558
 40
2.870057342870133
 40
2.966883448431624
 40
3.050803243518271
 40
3.115818222436584
 40
3.156030057150219
 40
3.213914225080121
 40
3.276689026450437
 40
3.342960320981299
 40
3.404230667150548
 40
3.453822809493361
 40
3.532499827188422
 40
3.634775188507154
 40
3.754909333008152
 40
3.88973676166065
 40
4.035769602175217
 40
4.187256681197604
 40
4.338733685675957
 40
4.488478734676117
 40
4.63470831783158
 40
4.771493189921268
 40
4.892686571561214
 40
5.199775528944448
 40
5.460353566929631
 40
5.667603142345506
 40
5.814722905404484
 40
5.82899080621981
 40
5.855488336304422
 40
5.869756237118725
 40
6.189796507762763
 40
6.53189046987291
 40
6.883053637016948
 40
7.230512024911318
 40
7.566966656764524
 40
7.885203559707252
 40
8.172887439719075
 40
8.418011594062666
 40
8.443926721190588
 40
8.510760470613075
 40
8.602145393795585
 40
8.701714041647023
 40
8.793098965075256
 40
8.859932715057829
 40
8.885847842603477
 40
9.242301256612688
 40
9.589275455016647
 40
9.921808543164046
 40
10.23479624298454
 40
10.29968150889154
 40
10.35323493887734
 40
10.40154625355121
 40
10.46482922477802
 40
10.55973900668382
 40
10.69239545985596
 40
10.84920353475649
 40
11.01626328594758
 40
11.18672024367421
 40
11.35372582577188
 40
11.50257442292404
 40
11.61866495023268
 40
11.71329869152852
 40
11.82511050573884
 40
11.94464880845693
 40
12.06929242642484
 40
12.19707290435153
 40
12.32562632860505
 40
12.45034565331256
 40
12.56646595170305
 40
12.67099007414612
 40
12.7607762593676
 40
12.82703233506672
 40
12.87429132785971
 40
12.8983199032331
 40
12.92234847859998
 40
13.53984767410296
 40
14.18294284359349
 40
14.18294284359349
 40
14.18294284359349
 40
14.18294284359349
 10
177.306793564802
 20
14.70898038201724
 30
0.0
 10
177.175201975855
 20
14.82265058603232
 30
0.0
 10
176.9124193802729
 20
15.04964496316158
 30
0.0
 10
176.3997393441019
 20
15.89214462956288
 30
0.0
 10
176.4106654595363
 20
15.5342337757702
 30
0.0
 10
176.4041226527989
 20
15.39267392272133
 30
0.0
 10
176.4028026631773
 20
15.1942130529928
 30
0.0
 10
176.4018117602538
 20
15.02150296045982
 30
0.0
 10
176.4024101751974
 20
14.8786537325758
 30
0.0
 10
176.4038994301882
 20
14.78265005413358
 30
0.0
 10
176.4055683588472
 20
14.67545503263142
 30
0.0
 10
176.4071934954616
 20
14.56164211517582
 30
0.0
 10
176.4092429501686
 20
14.4444157260459
 30
0.0
 10
176.4123165501927
 20
14.3265641123297
 30
0.0
 10
176.4156339697042
 20
14.2122808732062
 30
0.0
 10
176.419360534028
 20
14.10521401867276
 30
0.0
 10
176.4217338161424
 20
14.01007408766921
 30
0.0
 10
176.4278718888357
 20
13.92558557205695
 30
0.0
 10
176.4239784495946
 20
13.86923087298141
 30
0.0
 10
176.4455230443077
 20
13.79825022472355
 30
0.0
 10
176.3680940058618
 20
13.82902677604482
 30
0.0
 10
176.3116353240191
 20
13.82011242517613
 30
0.0
 10
176.2540495896807
 20
13.82896218398276
 30
0.0
 10
176.1690163478473
 20
13.79738225225945
 30
0.0
 10
176.2009714146382
 20
13.88095155992191
 30
0.0
 10
176.199070528254
 20
13.94882608968308
 30
0.0
 10
176.2107960047299
 20
14.05233256764419
 30
0.0
 10
176.2164241053001
 20
14.17002125616694
 30
0.0
 10
176.223790217894
 20
14.30388609164423
 30
0.0
 10
176.2320759701611
 20
14.44764152872632
 30
0.0
 10
176.2398851897426
 20
14.59714022843444
 30
0.0
 10
176.2457571222657
 20
14.74792549402079
 30
0.0
 10
176.2503667817969
 20
14.89699943878438
 30
0.0
 10
176.2542632117544
 20
15.04122913163022
 30
0.0
 10
176.2570715126564
 20
15.17583905213018
 30
0.0
 10
176.2576698755023
 20
15.36469614347355
 30
0.0
 10
176.2616023867151
 20
15.58975494313154
 30
0.0
 10
176.2442175378498
 20
15.86367091125707
 30
0.0
 10
176.2850417342583
 20
16.02787112098598
 30
0.0
 10
176.1995153256002
 20
16.22749661465095
 30
0.0
 10
176.2660558907689
 20
16.22385458403978
 30
0.0
 10
176.2838724273231
 20
16.22413447160854
 30
0.0
 10
176.4056801797503
 20
16.22632927398616
 30
0.0
 10
176.5080770335463
 20
15.94675118721518
 30
0.0
 10
176.7580021509356
 20
15.74563008535998
 30
0.0
 10
176.9870035331111
 20
15.47792614987925
 30
0.0
 10
177.2245151213108
 20
15.22646413862365
 30
0.0
 10
177.4486090740773
 20
14.9896997406137
 30
0.0
 10
177.6750716283008
 20
14.73218692583074
 30
0.0
 10
177.8325687886514
 20
14.61649335056922
 30
0.0
 10
178.0472129612673
 20
14.27997152538792
 30
0.0
 10
178.0422645974619
 20
14.40464754091605
 30
0.0
 10
178.0433931602546
 20
14.46327691935738
 30
0.0
 10
178.0428877841517
 20
14.55043662371978
 30
0.0
 10
178.0430475158114
 20
14.64416143182873
 30
0.0
 10
178.0430054891318
 20
14.73018971297035
 30
0.0
 10
178.0430202040372
 20
14.79153891945496
 30
0.0
 10
178.0429706255986
 20
14.94135231520995
 30
0.0
 10
178.045881152281
 20
15.17989612510104
 30
0.0
 10
178.0259521041161
 20
15.54486509868703
 30
0.0
 10
178.0750433936248
 20
15.80799631993409
 30
0.0
 10
177.9177951509181
 20
16.21928904947753
 30
0.0
 10
178.0762112872421
 20
16.16398282551748
 30
0.0
 10
178.1311680478628
 20
16.16199686500175
 30
0.0
 10
178.182788776674
 20
16.16264778248252
 30
0.0
 10
178.2713198965366
 20
16.20369527738247
 30
0.0
 10
178.2204898303169
 20
16.05696326622987
 30
0.0
 10
178.2313389930282
 20
15.95019971954434
 30
0.0
 10
178.2166036994848
 20
15.7908570541411
 30
0.0
 10
178.2099976446203
 20
15.62853061652875
 30
0.0
 10
178.2014961399913
 20
15.45992521892395
 30
0.0
 10
178.1943227202198
 20
15.29814814703541
 30
0.0
 10
178.1889063215389
 20
15.15422331457932
 30
0.0
 10
178.1871713967649
 20
15.03437493466925
 30
0.0
 10
178.1875440672319
 20
14.92686101590515
 30
0.0
 10
178.1873656126264
 20
14.81820024645586
 30
0.0
 10
178.187701086314
 20
14.69953570165531
 30
0.0
 10
178.1890040622185
 20
14.57555163512741
 30
0.0
 10
178.1908887351574
 20
14.44858294171105
 30
0.0
 10
178.1925004454849
 20
14.32153861551032
 30
0.0
 10
178.1941403137431
 20
14.19854884492178
 30
0.0
 10
178.1962570745751
 20
14.08300931383759
 30
0.0
 10
178.1963848422364
 20
13.98090903955837
 30
0.0
 10
178.2006514396554
 20
13.89009848838156
 30
0.0
 10
178.1908440085289
 20
13.83213621208786
 30
0.0
 10
178.2118474771689
 20
13.76517130132029
 30
0.0
 10
178.1725639739897
 20
13.77291153966688
 30
0.0
 10
177.9595307117744
 20
13.75755254145193
 30
0.0
 10
177.7636297943188
 20
14.31403058094475
 30
0.0
 10
177.4611197631544
 20
14.57556035348511
 30
0.0
 10
177.306793564802
 20
14.70898038201724
 30
0.0
 11
177.306793564802
 21
14.70898038201724
 31
0.0
 11
176.859552933851
 21
15.18757635411977
 31
0.0
 11
176.4124049070643
 21
15.66352649288971
 31
0.0
 11
176.4089664262494
 21
15.55086249986232
 31
0.0
 11
176.4055610183499
 21
15.4055753818431
 31
0.0
 11
176.4029636920274
 21
15.21465645827968
 31
0.0
 11
176.4021126156603
 21
14.96521170139757
 31
0.0
 11
176.4025239230289
 21
14.8843980295428
 31
0.0
 11
176.4038420329817
 21
14.78640628477561
 31
0.0
 11
176.4055192267718
 21
14.67713557299739
 31
0.0
 11
176.4072367127517
 21
14.5628245487204
 31
0.0
 11
176.4094007838772
 21
14.44497802965266
 31
0.0
 11
176.4124049070643
 21
14.325458021002
 31
0.0
 11
176.4158359733138
 21
14.20933349846156
 31
0.0
 11
176.4192928929998
 21
14.10186746550229
 31
0.0
 11
176.4227085253088
 21
14.00510162351264
 31
0.0
 11
176.4261896983793
 21
13.92125406276972
 31
0.0
 11
176.4296006184313
 21
13.85632862007759
 31
0.0
 11
176.4330776843148
 21
13.81626739612927
 31
0.0
 11
176.3754263821571
 21
13.82145433189185
 31
0.0
 11
176.312674631831
 21
13.82315538223862
 31
0.0
 11
176.2464251717157
 21
13.82145433189185
 31
0.0
 11
176.1853747739675
 21
13.81626739612927
 31
0.0
 11
176.1926772737812
 21
13.8653189412559
 31
0.0
 11
176.2008793569055
 21
13.94356725720855
 31
0.0
 11
176.2090098822348
 21
14.04551893253029
 31
0.0
 11
176.2163406441397
 21
14.16542920159752
 31
0.0
 11
176.2236358280421
 21
14.3000591234389
 31
0.0
 11
176.2318444255596
 21
14.44586107652745
 31
0.0
 11
176.2395504149466
 21
14.59715203135073
 31
0.0
 11
176.2455763002093
 21
14.74850913200735
 31
0.0
 11
176.2503046247416
 21
14.89817951391436
 31
0.0
 11
176.2541928972121
 21
15.04435739582222
 31
0.0
 11
176.2567527408965
 21
15.18111831592696
 31
0.0
 11
176.2576324804575
 21
15.30230850686891
 31
0.0
 11
176.257192610677
 21
15.60939715262545
 31
0.0
 11
176.2559126888347
 21
15.86997204839365
 31
0.0
 11
176.2528658717893
 21
16.07719922716125
 31
0.0
 11
176.2473049112764
 21
16.22421385386062
 31
0.0
 11
176.261572812147
 21
16.22421385386062
 31
0.0
 11
176.2880703423352
 21
16.22421385386062
 31
0.0
 11
176.3023382432058
 21
16.22421385386062
 31
0.0
 11
176.5194743650277
 21
15.98910179662774
 31
0.0
 11
176.7512744123079
 21
15.73751281231563
 31
0.0
 11
176.989481601884
 21
15.4794955554357
 31
0.0
 11
177.226007455752
 21
15.2249707985549
 31
0.0
 11
177.4555698717706
 21
14.97899759549138
 31
0.0
 11
177.6731797360102
 21
14.74678934034108
 31
0.0
 11
177.8713724913706
 21
14.53826680567101
 31
0.0
 11
178.0430143099086
 21
14.3632669793259
 31
0.0
 11
178.0430143099086
 21
14.38918210687044
 31
0.0
 11
178.0430143099086
 21
14.45601585685372
 31
0.0
 11
178.0430143099086
 21
14.54740078030026
 31
0.0
 11
178.0430143099086
 21
14.64696942823454
 31
0.0
 11
178.0430143099086
 21
14.73835435168107
 31
0.0
 11
178.0430143099086
 21
14.80518810166436
 31
0.0
 11
178.0430143099086
 21
14.8311032292089
 31
0.0
 11
178.0417233637609
 21
15.18755430550868
 31
0.0
 11
178.0378461155958
 21
15.53450684014416
 31
0.0
 11
178.0296197790002
 21
15.86693815950552
 31
0.0
 11
178.0154535467229
 21
16.17960510387179
 31
0.0
 11
178.0790351249618
 21
16.16666367158334
 31
0.0
 11
178.132417015961
 21
16.16238072887607
 31
0.0
 11
178.1805381084832
 21
16.16666367158334
 31
0.0
 11
178.2424836798197
 21
16.17960510387179
 31
0.0
 11
178.2351216487575
 21
16.08498128445101
 31
0.0
 11
178.2269790968817
 21
15.95257496503964
 31
0.0
 11
178.2183705364004
 21
15.79600336785656
 31
0.0
 11
178.2097547223214
 21
15.6291659373427
 31
0.0
 11
178.2016187850288
 21
15.4589032550936
 31
0.0
 11
178.1942501393835
 21
15.292060312427
 31
0.0
 11
178.1891406931522
 21
15.1432994357281
 31
0.0
 11
178.1874503478905
 21
15.02722121527102
 31
0.0
 11
178.1874503478905
 21
14.93258747397519
 31
0.0
 11
178.1874503478905
 21
14.82077565976708
 31
0.0
 11
178.1878461204497
 21
14.70123801222749
 31
0.0
 11
178.1890819450709
 21
14.57660052093919
 31
0.0
 11
178.1908392193317
 21
14.44883212687392
 31
0.0
 11
178.1925303477607
 21
14.3202898265588
 31
0.0
 11
178.1942876220215
 21
14.19558288214555
 31
0.0
 11
178.1959787504505
 21
14.07947489606349
 31
0.0
 11
178.1972884379172
 21
13.97495896727017
 31
0.0
 11
178.1976985420735
 21
13.88517371555652
 31
0.0
 11
178.1976985420735
 21
13.81891763918416
 31
0.0
 11
178.1976985420735
 21
13.77165864614041
 31
0.0
 11
178.1736699662976
 21
13.77165864614041
 31
0.0
 11
178.1496413905217
 21
13.77165864614041
 31
0.0
 11
177.7410729200423
 21
14.2346673526219
 31
0.0
 11
177.306793564802
 21
14.70898038201724
 31
0.0
  0
SPLINE
  5
B2
102
{ACAD_REACTORS
330
CF
102
}
330
48
100
AcDbEntity
  8
_U_30EC_U_30A4_U_30E4_U_30FC_1
  6
Continuous
 62
     2
100
AcDbSpline
210
0.0
220
0.0
230
1.0
 70
    11
 71
     3
 72
    25
 73
    21
 74
    19
 42
0.000000001
 43
0.0000000001
 44
0.00000001
 40
0.0
 40
0.0
 40
0.0
 40
0.0
 40
0.0911479969064253
 40
0.1858117896202961
 40
0.280412839973307
 40
0.3715889190713658
 40
0.4679080494217855
 40
0.5642683809228378
 40
0.6605683222643856
 40
0.7569653015809403
 40
0.8561348172521887
 40
1.092615965104196
 40
1.374867658141778
 40
1.61134881201147
 40
1.71051832842513
 40
1.809403163726437
 40
2.045205463293962
 40
2.326646917622011
 40
2.562449217190484
 40
2.661334043833792
 40
2.661334043833792
 40
2.661334043833792
 40
2.661334043833792
 10
173.26837005672
 20
14.88614538197292
 30
0.0
 10
173.2987525917923
 20
14.88598079714554
 30
0.0
 10
173.3606895889112
 20
14.88564528689921
 30
0.0
 10
173.454135696033
 20
14.88269055452
 30
0.0
 10
173.5475095236357
 20
14.87977752877151
 30
0.0
 10
173.6417760753476
 20
14.87894201643416
 30
0.0
 10
173.7354964790967
 20
14.87996644658047
 30
0.0
 10
173.8352040303204
 20
14.87916977470971
 30
0.0
 10
173.9188949546312
 20
14.8892141023522
 30
0.0
 10
174.0637996315045
 20
14.86234617674164
 30
0.0
 10
173.9396132444801
 20
15.03665530280048
 30
0.0
 10
173.8965867286282
 20
15.19651711006092
 30
0.0
 10
173.780892214221
 20
15.45518458550213
 30
0.0
 10
173.7017565431258
 20
15.5923105286186
 30
0.0
 10
173.6431576621816
 20
15.80937033134077
 30
0.0
 10
173.586480393944
 20
15.59266134213426
 30
0.0
 10
173.5052809900477
 20
15.45327012438239
 30
0.0
 10
173.4063701281489
 20
15.20406969370192
 30
0.0
 10
173.3253625094259
 20
15.01925830226075
 30
0.0
 10
173.2813683325839
 20
14.91650446856117
 30
0.0
 10
173.26837005672
 20
14.88614538197292
 30
0.0
 11
173.26837005672
 21
14.88614538197292
 31
0.0
 11
173.359513773782
 21
14.88526123266759
 31
0.0
 11
173.454142829758
 21
14.88269697919599
 31
0.0
 11
173.5487082179705
 21
14.88009965280777
 31
0.0
 11
173.6398803250196
 21
14.8792485764191
 31
0.0
 11
173.7361985777706
 21
14.87965978301621
 31
0.0
 11
173.8325499034376
 21
14.88097718752971
 31
0.0
 11
173.9288262638286
 21
14.88310818579313
 31
0.0
 11
174.0251753846343
 21
14.88614538197292
 31
0.0
 11
173.9854633323141
 21
14.9770164219502
 31
0.0
 11
173.8907653613968
 21
15.19370890189602
 31
0.0
 11
173.7777387509471
 21
15.45234186183135
 31
0.0
 11
173.6830407800298
 21
15.66903434177717
 31
0.0
 11
173.6433287277096
 21
15.75990538175445
 31
0.0
 11
173.6043330259267
 21
15.66903434177717
 31
0.0
 11
173.5113432755213
 21
15.45234186183135
 31
0.0
 11
173.4003555089083
 21
15.19370890189602
 31
0.0
 11
173.3073657585029
 21
14.9770164219502
 31
0.0
 11
173.26837005672
 21
14.88614538197292
 31
0.0
  0
SPLINE
  5
B3
102
{ACAD_REACTORS
330
CF
102
}
330
48
100
AcDbEntity
  8
_U_30EC_U_30A4_U_30E4_U_30FC_1
  6
Continuous
 62
     2
100
AcDbSpline
210
0.0
220
0.0
230
1.0
 70
    11
 71
     3
 72
    57
 73
    53
 74
    51
 42
0.000000001
 43
0.0000000001
 44
0.00000001
 40
0.0
 40
0.0
 40
0.0
 40
0.0
 40
0.0471632082809517
 40
0.0914861054633003
 40
0.135776251970267
 40
0.1826527001611534
 40
0.2295203288573442
 40
0.2737751972220475
 40
0.3181310461544204
 40
0.3652607198398515
 40
0.4571007286314697
 40
0.5671851029165469
 40
0.6894623283868622
 40
0.8181758272546241
 40
0.951008722927448
 40
1.085852229674051
 40
1.218126164475323
 40
1.34354513114241
 40
1.454537202956827
 40
1.567187607530836
 40
1.680710966642483
 40
1.794226869736819
 40
1.900009184247618
 40
2.004085860447812
 40
2.108162674451786
 40
2.214000150155245
 40
2.496038577352108
 40
2.762350745479242
 40
2.997275353279373
 40
3.185110082137706
 40
3.246407890063876
 40
3.312607550212749
 40
3.378877742711595
 40
3.44014039965142
 40
4.100501696006446
 40
4.754913085563497
 40
5.411331693423915
 40
6.077890432568684
 40
6.110575292670963
 40
6.143260152775743
 40
6.36798936339511
 40
6.610525374951532
 40
6.863389136467299
 40
7.119380025547534
 40
7.376036605091088
 40
7.631164770966238
 40
7.876722425456417
 40
8.104953735855986
 40
8.312916685924288
 40
8.497730294941308
 40
8.651018984313838
 40
8.764738853624603
 40
8.764738853624603
 40
8.764738853624603
 40
8.764738853624603
 10
174.7922649500514
 20
13.81626739612927
 30
0.0
 10
174.7766616726931
 20
13.81826231079078
 30
0.0
 10
174.7463947960303
 20
13.82213201360299
 30
0.0
 10
174.7010994202253
 20
13.82341984967268
 30
0.0
 10
174.6559553129349
 20
13.8230868355405
 30
0.0
 10
174.60990171234
 20
13.82314658674224
 30
0.0
 10
174.5640496172096
 20
13.8232581365
 30
0.0
 10
174.5183711648165
 20
13.8227783345659
 30
0.0
 10
174.4750811541608
 20
13.82461109618722
 30
0.0
 10
174.4039947951514
 20
13.8004955681466
 30
0.0
 10
174.4057477261441
 20
13.92184693977252
 30
0.0
 10
174.3586196370569
 20
14.00726239751232
 30
0.0
 10
174.3191478251761
 20
14.12486929345135
 30
0.0
 10
174.2706635532645
 20
14.2423275254044
 30
0.0
 10
174.2201017402521
 20
14.36405935761505
 30
0.0
 10
174.1718634610478
 20
14.49075967862469
 30
0.0
 10
174.1135232947595
 20
14.59933687784953
 30
0.0
 10
174.0980892667261
 20
14.75620657134409
 30
0.0
 10
173.9566586330635
 20
14.72373446548323
 30
0.0
 10
173.8508397414903
 20
14.73512888682181
 30
0.0
 10
173.7358569725222
 20
14.73392591514616
 30
0.0
 10
173.6253142252141
 20
14.73506945347407
 30
0.0
 10
173.5176583522783
 20
14.73418350037527
 30
0.0
 10
173.4121322529243
 20
14.73416602390519
 30
0.0
 10
173.3109192682013
 20
14.72714032472416
 30
0.0
 10
173.1266804827754
 20
14.75135859859864
 30
0.0
 10
173.115739368541
 20
14.44741691121887
 30
0.0
 10
173.008769163475
 20
14.22353177253398
 30
0.0
 10
172.9098148604347
 20
14.03895314292497
 30
0.0
 10
172.9225090524007
 20
13.79530204804207
 30
0.0
 10
172.8050091716397
 20
13.82508046753198
 30
0.0
 10
172.742205586831
 20
13.82258089509603
 30
0.0
 10
172.6785872093399
 20
13.82344075102804
 30
0.0
 10
172.3946014194076
 20
13.78098039941945
 30
0.0
 10
173.0251638499381
 20
14.50081952444787
 30
0.0
 10
173.1087645289071
 20
15.0127653943573
 30
0.0
 10
173.4929252789339
 20
15.5335374355004
 30
0.0
 10
173.4777208288567
 20
16.23519626253216
 30
0.0
 10
173.7239265722696
 20
16.22345633081256
 30
0.0
 10
173.8256346157562
 20
16.23225004452773
 30
0.0
 10
173.8249752035816
 20
15.98059650730343
 30
0.0
 10
173.9428317155828
 20
15.79818020733958
 30
0.0
 10
174.0315515260485
 20
15.55563740662871
 30
0.0
 10
174.1322292485257
 20
15.32340030530119
 30
0.0
 10
174.2311142712244
 20
15.08674644566922
 30
0.0
 10
174.3299676990667
 20
14.85461739170086
 30
0.0
 10
174.4256166390926
 20
14.6312222278879
 30
0.0
 10
174.5159904573273
 20
14.4227254904932
 30
0.0
 10
174.5989944568188
 20
14.23308448529316
 30
0.0
 10
174.67260885828
 20
14.06663106068104
 30
0.0
 10
174.7342815895545
 20
13.92917699626095
 30
0.0
 10
174.7749458885604
 20
13.84999239430033
 30
0.0
 10
174.7922649500514
 20
13.81626739612927
 30
0.0
 11
174.7922649500514
 21
13.81626739612927
 31
0.0
 11
174.7453878317448
 21
13.82145433189185
 31
0.0
 11
174.7010975896125
 21
13.82315538223862
 31
0.0
 11
174.656807443173
 21
13.82315538223862
 31
0.0
 11
174.6099309947159
 21
13.82315538223862
 31
0.0
 11
174.5630633657033
 21
13.82315538223862
 31
0.0
 11
174.5188084970409
 21
13.82315538223862
 31
0.0
 11
174.4744852776853
 21
13.82145433189185
 31
0.0
 11
174.4276419021444
 21
13.81626739612927
 31
0.0
 11
174.3992532136325
 21
13.90360966173245
 31
0.0
 11
174.3622721815898
 21
14.00729656274819
 31
0.0
 11
174.3188386236701
 21
14.12159987001127
 31
0.0
 11
174.2711055866936
 21
14.24113531268969
 31
0.0
 11
174.2208160133236
 21
14.36408057307565
 31
0.0
 11
174.1696467003933
 21
14.48883822929446
 31
0.0
 11
174.1197531801326
 21
14.61134141502772
 31
0.0
 11
174.0733119111841
 21
14.72784517367917
 31
0.0
 11
173.9623611907589
 21
14.73087465284506
 31
0.0
 11
173.8497309225089
 21
14.73300454867791
 31
0.0
 11
173.7362152069449
 21
14.73432195319141
 31
0.0
 11
173.62270004768
 21
14.73473315978852
 31
0.0
 11
173.5169185312816
 21
14.73432195319141
 31
0.0
 11
173.4128501919226
 21
14.73300454867791
 31
0.0
 11
173.3087951724045
 21
14.73087465284506
 31
0.0
 11
173.2030010615597
 21
14.72784517367917
 31
0.0
 11
173.0980914750139
 21
14.46604437513351
 31
0.0
 11
173.0034868690331
 21
14.21710232658461
 31
0.0
 11
172.9252231210298
 21
13.99559756969557
 31
0.0
 11
172.8693431224555
 21
13.81626739612927
 31
0.0
 11
172.8082651639442
 21
13.82145433189185
 31
0.0
 11
172.7420873618129
 21
13.82315538223862
 31
0.0
 11
172.6758390041282
 21
13.82145433189185
 31
0.0
 11
172.6147963233938
 21
13.81626739612927
 31
0.0
 11
172.889968495193
 21
14.41656508695143
 31
0.0
 11
173.158294573417
 21
15.01343642360775
 31
0.0
 11
173.4240277350405
 21
15.61366245644381
 31
0.0
 11
173.6914740737033
 21
16.22421385386062
 31
0.0
 11
173.7241589339806
 21
16.22421385386062
 31
0.0
 11
173.7568437942579
 21
16.22421385386062
 31
0.0
 11
173.8428300681057
 21
16.01658539037084
 31
0.0
 11
173.9357285813609
 21
15.79254614563517
 31
0.0
 11
174.0328714521464
 21
15.55908663180469
 31
0.0
 11
174.131793645803
 21
15.32298128464145
 31
0.0
 11
174.2315341249927
 21
15.08649780379784
 31
0.0
 11
174.3313071129352
 21
14.8516878125371
 31
0.0
 11
174.4280608257449
 21
14.6259949219685
 31
0.0
 11
174.5188084970409
 21
14.41658052097919
 31
0.0
 11
174.6022150834546
 21
14.22607611130461
 31
0.0
 11
174.6770293263378
 21
14.05708232662468
 31
0.0
 11
174.7410729186603
 21
13.91781337700668
 31
0.0
 11
174.7922649500514
 21
13.81626739612927
 31
0.0
  0
SPLINE
  5
B4
102
{ACAD_REACTORS
330
D0
102
}
330
48
100
AcDbEntity
  8
_U_30EC_U_30A4_U_30E4_U_30FC_1
  6
Continuous
 62
     2
100
AcDbSpline
210
0.0
220
0.0
230
1.0
 70
    11
 71
     3
 72
    99
 73
    95
 74
    93
 42
0.000000001
 43
0.0000000001
 44
0.00000001
 40
0.0
 40
0.0
 40
0.0
 40
0.0
 40
0.0796417172272426
 40
0.1621768542355948
 40
0.2486489160957173
 40
0.3404969668524657
 40
0.438191251116468
 40
0.5434463660244981
 40
0.6518115192846736
 40
0.7530190937886847
 40
0.8492196919725633
 40
0.9419290312998231
 40
1.034249663570082
 40
1.129078600620208
 40
1.226697027573269
 40
1.327220425421726
 40
1.470572134938044
 40
1.595489863371241
 40
1.719934125348381
 40
1.850576620127445
 40
1.989059629987335
 40
2.134139054226849
 40
2.28069800720727
 40
2.424529739039516
 40
2.565929576985836
 40
2.708239260773569
 40
2.861717887443678
 40
3.04516854034739
 40
3.18379830113863
 40
3.314813961455461
 40
3.44208347044736
 40
3.569912708373075
 40
3.702177512509384
 40
3.842307559659629
 40
3.992872223245976
 40
4.156750662218252
 40
4.310981861107501
 40
4.4458599093226
 40
4.57239393613162
 40
4.701656719781999
 40
4.768279086008484
 40
4.835960697898432
 40
4.912788918729372
 40
5.006285208481541
 40
5.026909478751675
 40
5.047533749021296
 40
5.101808031471369
 40
5.162325165538658
 40
5.226919745995967
 40
5.294231806596861
 40
5.364544852555009
 40
5.438319055468055
 40
5.517877651324389
 40
5.607647714861701
 40
5.700449642544519
 40
5.788251142364195
 40
5.872714706039908
 40
5.955167292575489
 40
6.037192395190508
 40
6.12066918146921
 40
6.206848616686472
 40
6.296680855416895
 40
6.442558392872714
 40
6.568190371608423
 40
6.692904567360473
 40
6.824220446557278
 40
6.963121850329464
 40
7.107843738851225
 40
7.253431663907388
 40
7.395187468036837
 40
7.533140753237864
 40
7.670550457175369
 40
7.816236511769388
 40
7.987691657359352
 40
8.142277421969396
 40
8.293662615415117
 40
8.442962460879397
 40
8.591598316185486
 40
8.743678992361911
 40
8.903725323699266
 40
9.076307008890698
 40
9.265578604680753
 40
9.459203795360871
 40
9.617619810273796
 40
9.753609671362101
 40
9.874873300004255
 40
9.954520184977948
 40
10.02416413719264
 40
10.09769764405463
 40
10.18909955924992
 40
10.20974586420148
 40
10.23039218263387
 40
10.30057101881272
 40
10.37632012987554
 40
10.37632012987554
 40
10.37632012987554
 40
10.37632012987554
 10
170.1465954835851
 20
14.13795663215994
 30
0.0
 10
170.1632217851219
 20
14.11720608845313
 30
0.0
 10
170.1970784206577
 20
14.07495111711902
 30
0.0
 10
170.2599822541036
 20
14.02029811392075
 30
0.0
 10
170.3332500940392
 20
13.97299025121047
 30
0.0
 10
170.4175969238636
 20
13.93527231437937
 30
0.0
 10
170.513224061546
 20
13.91040619731951
 30
0.0
 10
170.6171853775346
 20
13.90309559345937
 30
0.0
 10
170.7224020220405
 20
13.91142322794054
 30
0.0
 10
170.8206626371334
 20
13.94149179651529
 30
0.0
 10
170.9058986427548
 20
13.98848822971872
 30
0.0
 10
170.9779220206103
 20
14.04952991250862
 30
0.0
 10
171.0350917709097
 20
14.12412969578579
 30
0.0
 10
171.0767868747439
 20
14.21002464660177
 30
0.0
 10
171.1026952846293
 20
14.30485850432209
 30
0.0
 10
171.1118037332653
 20
14.41854979038368
 30
0.0
 10
171.0986864796486
 20
14.54332587770778
 30
0.0
 10
171.0325330334414
 20
14.66014719171891
 30
0.0
 10
170.9369370919569
 20
14.74512539577376
 30
0.0
 10
170.8249681022369
 20
14.81416684459159
 30
0.0
 10
170.699365958327
 20
14.87204142045887
 30
0.0
 10
170.5656691620857
 20
14.92373723284346
 30
0.0
 10
170.431312281883
 20
14.97899092397177
 30
0.0
 10
170.3051983986877
 20
15.0493977064165
 30
0.0
 10
170.1926579987535
 20
15.13785540731254
 30
0.0
 10
170.0969963064458
 20
15.2498106786847
 30
0.0
 10
170.0334157151826
 20
15.39949910101384
 30
0.0
 10
170.0200706505015
 20
15.55932794385141
 30
0.0
 10
170.0320510987449
 20
15.71048405306844
 30
0.0
 10
170.0712298928839
 20
15.83809244591543
 30
0.0
 10
170.1354987750911
 20
15.95080874030845
 30
0.0
 10
170.2238204999741
 20
16.04648609268679
 30
0.0
 10
170.3338091207628
 20
16.1235421498576
 30
0.0
 10
170.4632284401265
 20
16.18151396936275
 30
0.0
 10
170.6111838967793
 20
16.21739177588822
 30
0.0
 10
170.7682069455486
 20
16.22746719050564
 30
0.0
 10
170.917494046643
 20
16.2186363776259
 30
0.0
 10
171.059625361417
 20
16.19074899340354
 30
0.0
 10
171.1595922609625
 20
16.1341331470114
 30
0.0
 10
171.3125074736184
 20
16.08674602105506
 30
0.0
 10
171.2455131717168
 20
16.00197553001185
 30
0.0
 10
171.2296479120269
 20
15.93438901873483
 30
0.0
 10
171.1978750531295
 20
15.86926092793193
 30
0.0
 10
171.2150202209573
 20
15.7672345325695
 30
0.0
 10
171.1666427208232
 20
15.77493211681902
 30
0.0
 10
171.1315789440767
 20
15.76806771724806
 30
0.0
 10
171.1296697985718
 20
15.83263831158195
 30
0.0
 10
171.0985692931989
 20
15.87825639621395
 30
0.0
 10
171.0664551628456
 20
15.93561036628457
 30
0.0
 10
171.0208038475168
 20
15.98540462692559
 30
0.0
 10
170.9658508218386
 20
16.02994813718996
 30
0.0
 10
170.9010841173007
 20
16.06763988836551
 30
0.0
 10
170.8232377310597
 20
16.09283375791352
 30
0.0
 10
170.7355160553352
 20
16.09931230998112
 30
0.0
 10
170.6452903277807
 20
16.09235709285609
 30
0.0
 10
170.5594594694065
 20
16.0690919046092
 30
0.0
 10
170.4828343638596
 20
16.03131644107543
 30
0.0
 10
170.41652656362
 20
15.9805164108958
 30
0.0
 10
170.3622560536964
 20
15.91731143407207
 30
0.0
 10
170.322492534546
 20
15.84276455710365
 30
0.0
 10
170.2976775510588
 20
15.75917313997765
 30
0.0
 10
170.289212426287
 20
15.65192948382285
 30
0.0
 10
170.3019697987102
 20
15.52965457267557
 30
0.0
 10
170.3681548409273
 20
15.41149724291213
 30
0.0
 10
170.4640977399832
 20
15.32606325709526
 30
0.0
 10
170.5757914963182
 20
15.25583362306724
 30
0.0
 10
170.7010863668701
 20
15.19659162305302
 30
0.0
 10
170.8349823941446
 20
15.1461670808613
 30
0.0
 10
170.968993033315
 20
15.09322516984383
 30
0.0
 10
171.0950885316915
 20
15.02750170625177
 30
0.0
 10
171.2076216638417
 20
14.9448035253732
 30
0.0
 10
171.3031370284233
 20
14.83996006310076
 30
0.0
 10
171.3672706486962
 20
14.6993711725157
 30
0.0
 10
171.3811103725279
 20
14.54065409451592
 30
0.0
 10
171.3673954712229
 20
14.38153155217879
 30
0.0
 10
171.3244739153986
 20
14.23483828819207
 30
0.0
 10
171.2545906329066
 20
14.10119796587141
 30
0.0
 10
171.1574592213829
 20
13.98532387699295
 30
0.0
 10
171.0347806023658
 20
13.89089981770086
 30
0.0
 10
170.8874408413168
 20
13.8217927065198
 30
0.0
 10
170.7177132497125
 20
13.77953210858854
 30
0.0
 10
170.5317404979596
 20
13.76781736230406
 30
0.0
 10
170.3528955926183
 20
13.7780948668344
 30
0.0
 10
170.1881733753743
 20
13.8196657376915
 30
0.0
 10
170.0834410841056
 20
13.88797642883942
 30
0.0
 10
169.9350960790365
 20
13.93675219032107
 30
0.0
 10
169.9980378194729
 20
14.02976591290843
 30
0.0
 10
170.0072274430061
 20
14.10296536248278
 30
0.0
 10
170.0303711301231
 20
14.16936294501348
 30
0.0
 10
170.0034588335318
 20
14.2697480952758
 30
0.0
 10
170.0521338956339
 20
14.2623403351738
 30
0.0
 10
170.0916530580697
 20
14.26894063620894
 30
0.0
 10
170.0996204944701
 20
14.1907870321893
 30
0.0
 10
170.1305436967923
 20
14.15600927375856
 30
0.0
 10
170.1465954835851
 20
14.13795663215994
 30
0.0
 11
170.1465954835851
 21
14.13795663215994
 31
0.0
 11
170.1982038075864
 21
14.07729869814737
 31
0.0
 11
170.2601105501335
 21
14.02271295163321
 31
0.0
 11
170.3327764009802
 21
13.97583980928383
 31
0.0
 11
170.4166468655843
 21
13.93839906276537
 31
0.0
 11
170.511221073241
 21
13.91390636311877
 31
0.0
 11
170.6161603327165
 21
13.90575829888472
 31
0.0
 11
170.7240739497551
 21
13.91564048638223
 31
0.0
 11
170.8208419941616
 21
13.94528704887482
 31
0.0
 11
170.9050776083319
 21
13.99175118948819
 31
0.0
 11
170.9756144207686
 21
14.0519141321815
 31
0.0
 11
171.031944210998
 21
14.1250581946632
 31
0.0
 11
171.0736690016003
 21
14.21021434047522
 31
0.0
 11
171.0994680808033
 21
14.30436190989612
 31
0.0
 11
171.1080824729446
 21
14.4045155209822
 31
0.0
 11
171.0878517703357
 21
14.54643250879398
 31
0.0
 11
171.0272522666731
 21
14.65566684036387
 31
0.0
 11
170.9364971286286
 21
14.74081306430094
 31
0.0
 11
170.826010188474
 21
14.81052746532516
 31
0.0
 11
170.7008523531254
 21
14.86979854169922
 31
0.0
 11
170.5662951950999
 21
14.9240425347412
 31
0.0
 11
170.4316884277007
 21
14.98201274306004
 31
0.0
 11
170.3065802017258
 21
15.05297399304233
 31
0.0
 11
170.196027609828
 21
15.14113315968695
 31
0.0
 11
170.1053381235265
 21
15.25080295132618
 31
0.0
 11
170.0447055469484
 21
15.39179720476315
 31
0.0
 11
170.0245079172553
 21
15.57413260402314
 31
0.0
 11
170.0374030471347
 21
15.71216131926642
 31
0.0
 11
170.076101665939
 21
15.8373312845129
 31
0.0
 11
170.1393141731507
 21
15.94779262129084
 31
0.0
 11
170.2257499954546
 21
16.04196885390621
 31
0.0
 11
170.3336492808962
 21
16.11846540770651
 31
0.0
 11
170.4613526283329
 21
16.17615670109488
 31
0.0
 11
170.6075393259923
 21
16.21220066809973
 31
0.0
 11
170.7709768565449
 21
16.22421385386062
 31
0.0
 11
170.9248918431289
 21
16.21434269066864
 31
0.0
 11
171.0564887242607
 21
16.18477329831498
 31
0.0
 11
171.172563634494
 21
16.13439993895253
 31
0.0
 11
171.2800792741122
 21
16.06264163167877
 31
0.0
 11
171.2516994050444
 21
16.00236624106886
 31
0.0
 11
171.2284855254283
 21
15.93879017337647
 31
0.0
 11
171.20783810408
 21
15.86478841992269
 31
0.0
 11
171.1871840681488
 21
15.77360197897327
 31
0.0
 11
171.1665597978416
 21
15.77360197897327
 31
0.0
 11
171.1459355275343
 21
15.77360197897327
 31
0.0
 11
171.1256706495791
 21
15.82395108486346
 31
0.0
 11
171.0994658759421
 21
15.87850045116929
 31
0.0
 11
171.0650468924451
 21
15.93316116296115
 31
0.0
 11
171.0203554612937
 21
15.98349593725412
 31
0.0
 11
170.9657333359511
 21
16.0277717532153
 31
0.0
 11
170.9016722004326
 21
16.06436142334502
 31
0.0
 11
170.825968296114
 21
16.08882545979727
 31
0.0
 11
170.7365722046449
 21
16.09701100667023
 31
0.0
 11
170.6440937174208
 21
16.08926973931102
 31
0.0
 11
170.5594072091646
 21
16.06609003445567
 31
0.0
 11
170.483702448884
 21
16.02863495634008
 31
0.0
 11
170.4183754766515
 21
15.97832774281102
 31
0.0
 11
170.3650487887664
 21
15.91600293379879
 31
0.0
 11
170.3254809233902
 21
15.84249947895607
 31
0.0
 11
170.3009523754711
 21
15.75988443557391
 31
0.0
 11
170.2927954104108
 21
15.67042329844352
 31
0.0
 11
170.3130095765617
 21
15.52595308146573
 31
0.0
 11
170.373625616682
 21
15.41591177072936
 31
0.0
 11
170.4643479320758
 21
15.33033670130632
 31
0.0
 11
170.5748676948813
 21
15.25941954854625
 31
0.0
 11
170.7000089937719
 21
15.19914305550579
 31
0.0
 11
170.8345826882552
 21
15.14590447913021
 31
0.0
 11
170.9691729191967
 21
15.09039489581074
 31
0.0
 11
171.0942976816297
 21
15.0237728124941
 31
0.0
 11
171.204800907977
 21
14.9411886371675
 31
0.0
 11
171.2955397598288
 21
14.83800003476273
 31
0.0
 11
171.3561557999489
 21
14.70552315979585
 31
0.0
 11
171.3763699660998
 21
14.5352637848384
 31
0.0
 11
171.3621839747998
 21
14.38133030397412
 31
0.0
 11
171.3196087009194
 21
14.23605531269098
 31
0.0
 11
171.2499752884266
 21
14.10398854189068
 31
0.0
 11
171.1544992078713
 21
13.99007218775247
 31
0.0
 11
171.0341060772624
 21
13.89715272597017
 31
0.0
 11
170.8896160201847
 21
13.82832357668181
 31
0.0
 11
170.7223519532713
 21
13.78581275203967
 31
0.0
 11
170.5336103348226
 21
13.77165864614041
 31
0.0
 11
170.3405031726388
 21
13.78581275203967
 31
0.0
 11
170.187897590091
 21
13.82832357668181
 31
0.0
 11
170.0661897942203
 21
13.8889903301389
 31
0.0
 11
169.9660261826363
 21
13.95734322942738
 31
0.0
 11
169.9922320587039
 21
14.03255545163076
 31
0.0
 11
170.0090121537619
 21
14.10014767383612
 31
0.0
 11
170.0206196447852
 21
14.17275926235962
 31
0.0
 11
170.031360625414
 21
14.2635278821286
 31
0.0
 11
170.0520069443316
 21
14.2635278821286
 31
0.0
 11
170.0726532632492
 21
14.2635278821286
 31
0.0
 11
170.1048916391629
 21
14.20119204881084
 31
0.0
 11
170.1465954835851
 21
14.13795663215994
 31
0.0
  0
LWPOLYLINE
  5
B5
102
{ACAD_REACTORS
330
C2
102
}
330
48
100
AcDbEntity
  8
_U_30EC_U_30A4_U_30E4_U_30FC_1
  6
Continuous
 62
     2
100
AcDbPolyline
 90
        5
 70
     1
 43
0.0
 10
192.4578138032672
 20
15.39722336795625
 10
192.4578138032672
 20
15.22875434022057
 10
191.1602971697031
 20
15.22875434022057
 10
191.1602971697031
 20
15.39722336795625
 10
192.4578138032672
 20
15.39722336795625
  0
MTEXT
  5
B7
330
48
100
AcDbEntity
  8
1
 62
     2
100
AcDbMText
 10
32.49999999999996
 20
282.0000000000003
 30
0.0
 40
5.0
 41
0.0
 71
     5
 72
     1
  1
図番
  7
CONVERTER_11
 73
     1
 44
0.45454545454545
  0
MTEXT
  5
B8
330
48
100
AcDbEntity
  8
1
 62
     2
100
AcDbMText
 10
28.99999999999996
 20
34.00000000000001
 30
0.0
 40
3.5
 41
0.0
 71
     5
 72
     1
  1
備考
  7
CONVERTER_11
 73
     1
 44
0.45454545454545
  0
MTEXT
  5
B9
330
48
100
AcDbEntity
  8
1
 62
     2
100
AcDbMText
 10
28.99999999999996
 20
22.75
 30
0.0
 40
3.5
 41
0.0
 71
     5
 72
     1
  1
品名
  7
CONVERTER_11
 73
     1
 44
0.72727272727273
  0
MTEXT
  5
BA
330
48
100
AcDbEntity
  8
1
 62
     2
100
AcDbMText
 10
28.99999999999996
 20
14.25
 30
0.0
 40
3.5
 41
0.0
 71
     5
 72
     1
  1
品番
  7
CONVERTER_11
 73
     1
 44
0.72727272727273
  0
MTEXT
  5
BB
330
48
100
AcDbEntity
  8
1
 62
     2
100
AcDbMText
 10
101.4999999999999
 20
25.00000000000001
 30
0.0
 40
3.0
 41
0.0
 71
     5
 72
     1
  1
承認
  7
CONVERTER_11
 73
     1
 44
0.59090909090909
  0
MTEXT
  5
BC
330
48
100
AcDbEntity
  8
1
 62
     2
100
AcDbMText
 10
174.9999999999999
 20
23.50000000000001
 30
0.0
 40
3.5
 41
0.0
 71
     5
 72
     1
  1
第三角法
  7
CONVERTER_11
 73
     1
 44
0.54545454545455
  0
MTEXT
  5
BD
330
48
100
AcDbEntity
  8
1
 62
     2
100
AcDbMText
 10
118.4999999999999
 20
25.00000000000001
 30
0.0
 40
3.0
 41
0.0
 71
     5
 72
     1
  1
検図
  7
CONVERTER_11
 73
     1
 44
0.59090909090909
  0
MTEXT
  5
BE
330
48
100
AcDbEntity
  8
1
 62
     2
100
AcDbMText
 10
152.4999999999999
 20
25.00000000000001
 30
0.0
 40
3.0
 41
0.0
 71
     5
 72
     1
  1
設計
  7
CONVERTER_11
 73
     1
 44
0.59090909090909
  0
MTEXT
  5
BF
330
48
100
AcDbEntity
  8
1
 62
     2
100
AcDbMText
 10
135.4999999999999
 20
25.00000000000001
 30
0.0
 40
3.0
 41
0.0
 71
     5
 72
     1
  1
製図
  7
CONVERTER_11
 73
     1
 44
0.59090909090909
  0
MTEXT
  5
C0
330
48
100
AcDbEntity
  8
1
 62
     2
100
AcDbMText
 10
89.49999999999997
 20
24.00000000000001
 30
0.0
 40
3.5
 41
0.0
 71
     5
 72
     1
  1
尺度
  7
CONVERTER_11
 73
     1
 44
0.54545454545455
  0
MTEXT
  5
C1
330
48
100
AcDbEntity
  8
1
 62
   250
100
AcDbMText
 10
24.99999999999997
 20
5.0
 30
0.0
 40
3.5
 41
0.0
 71
     4
 72
     1
  1
備考欄の文字列 原点位置=4
  7
CONVERTER_11
 73
     1
 44
0.54545454545455
  0
HATCH
  5
C2
330
48
100
AcDbEntity
  8
1
  6
Continuous
 62
     2
100
AcDbHatch
 10
0.0
 20
0.0
 30
0.0
210
0.0
220
0.0
230
1.0
  2
CUSTOM0
 70
     0
 71
     1
 91
        1
 92
        1
 93
        4
 72
     1
 10
192.4578138032672
 20
15.39722336795625
 11
192.4578138032672
 21
15.22875434022057
 72
     1
 10
192.4578138032672
 20
15.22875434022057
 11
191.1602971697031
 21
15.22875434022057
 72
     1
 10
191.1602971697031
 20
15.22875434022057
 11
191.1602971697031
 21
15.39722336795625
 72
     1
 10
191.1602971697031
 20
15.39722336795625
 11
192.4578138032672
 21
15.39722336795625
 97
        1
330
B5
 75
     1
 76
     2
 52
45.0
 41
0.1
 77
     0
 78
     1
 53
45.0
 43
0.0
 44
0.0
 45
-0.282842712474619
 46
0.0
 79
     0
 98
        1
 10
0.0
 20
0.0
  0
HATCH
  5
C3
330
48
100
AcDbEntity
  8
1
  6
Continuous
 62
     2
100
AcDbHatch
 10
0.0
 20
0.0
 30
0.0
210
0.0
220
0.0
230
1.0
  2
CUSTOM1
 70
     0
 71
     1
 91
        1
 92
        1
 93
        3
 72
     4
 94
        3
 73
     0
 74
     0
 95
       24
 96
       20
 40
0.0
 40
0.0
 40
0.0
 40
0.0
 40
0.2211075008754146
 40
0.427321858624527
 40
0.5080174679240541
 40
0.5914835907871145
 40
0.8143265690193693
 40
1.054651302686684
 40
1.295452694023273
 40
1.518109231328929
 40
1.540864321905544
 40
1.595126460622806
 40
1.65989094789612
 40
1.714153085187479
 40
1.736908174961779
 40
1.764951100735463
 40
1.801562291220971
 40
1.953914424543664
 40
2.126104167379745
 40
2.126104167379745
 40
2.126104167379745
 40
2.126104167379745
 10
185.937536955689
 20
15.58989295113016
 10
185.9112579081812
 20
15.53097628234374
 10
185.8604698894425
 20
15.41711139679258
 10
185.8131784839113
 20
15.14441958233117
 10
185.7043482802618
 20
15.24445482575452
 10
185.5514800279637
 20
15.27118593367333
 10
185.7686155181199
 20
15.48518135017632
 10
185.783848367438
 20
15.70332117782488
 10
185.8906889492
 20
15.88451579066426
 10
185.8305380947078
 20
16.16913226311404
 10
185.9334317395401
 20
16.14114089222451
 10
185.977993346815
 20
16.13243251602301
 10
186.0380842395397
 20
16.12139654183355
 10
186.0756619587438
 20
16.10767523055559
 10
186.1252466928605
 20
16.10756076160222
 10
186.0930158919325
 20
16.07306592398627
 10
186.0171802221882
 20
16.08404104537957
 10
186.0429447159693
 20
15.89858969582452
 10
186.005589676385
 20
15.8070231354959
 10
185.9857704961609
 20
15.75844135397705
 72
     4
 94
        3
 73
     0
 74
     0
 95
       70
 96
       66
 40
0.0
 40
0.0
 40
0.0
 40
0.0
 40
0.0241731073021472
 40
0.0846058988987582
 40
0.1631685280353852
 40
0.2417311571790608
 40
0.302163948829332
 40
0.3263370654896678
 40
0.3533118254250036
 40
0.4228783438923266
 40
0.5179999095314575
 40
0.621639823946731
 40
0.7167613891500914
 40
0.7863279069651107
 40
0.8133026791763079
 40
0.8372943998772917
 40
0.8945054261373545
 40
0.9627895541963032
 40
1.020000580349085
 40
1.043992300975183
 40
1.071934345522919
 40
1.113121768772849
 40
1.145225199332174
 40
1.225483775412712
 40
1.329819923771424
 40
1.434156071994314
 40
1.514414647795739
 40
1.546518078208347
 40
1.578974764260149
 40
1.662678849314087
 40
1.777131373668307
 40
1.901833377474698
 40
2.01628590050046
 40
2.099989982527799
 40
2.132446666570157
 40
2.158782354485879
 40
2.21672086790767
 40
2.274659381334093
 40
2.300995069256027
 40
2.333451754065999
 40
2.417155836543651
 40
2.531608358985091
 40
2.656310362283586
 40
2.77076288638869
 40
2.854466971339827
 40
2.886923657363633
 40
2.913597976833067
 40
2.982389642874871
 40
3.076451716946734
 40
3.178937260458351
 40
3.272999334739753
 40
3.341791001058976
 40
3.368465320663288
 40
3.396976080738538
 40
3.472140811845746
 40
3.578408190308435
 40
3.7002268924559
 40
3.822045594634117
 40
3.928312973256224
 40
4.003477705314621
 40
4.031988456866687
 40
4.058324144797487
 40
4.116262658236648
 40
4.174201171400444
 40
4.200536849608378
 40
4.200536849608378
 40
4.200536849608378
 40
4.200536849608378
 10
185.9857704961609
 20
15.75844135397705
 10
185.9938259544679
 20
15.75844359811686
 10
186.0220200663241
 20
15.75845146032797
 10
186.0765534803673
 20
15.75830754828372
 10
186.1482891808604
 20
15.75909120499898
 10
186.2236240137063
 20
15.75627570463811
 10
186.2713052366439
 20
15.76298403400957
 10
186.3195071245617
 20
15.75197563692431
 10
186.3062571799875
 20
15.80546402997033
 10
186.3151093964539
 20
15.86049583543092
 10
186.3108698036287
 20
15.95419908726109
 10
186.3133483481281
 20
16.04959482218533
 10
186.3090938706062
 20
16.14356821983388
 10
186.3179818665847
 20
16.19795062438013
 10
186.3046977409946
 20
16.25233997691462
 10
186.351411927711
 20
16.23842216335359
 10
186.3943254545737
 20
16.24103877374044
 10
186.4605443456684
 20
16.23648422450756
 10
186.5013342271799
 20
16.22778162134163
 10
186.5525145690818
 20
16.23531799890196
 10
186.5253720487201
 20
16.19349970223289
 10
186.4803096055708
 20
16.20284992072594
 10
186.4942065045051
 20
16.13841207371838
 10
186.4858414431655
 20
16.073782196274
 10
186.4903632178399
 20
15.97529141193888
 10
186.4854741311169
 20
15.87595932842571
 10
186.4950258992082
 20
15.81293115552969
 10
186.4799761455201
 20
15.74964011499788
 10
186.5449159457209
 20
15.76515072944268
 10
186.6116246399498
 20
15.75499387697813
 10
186.7241435470828
 20
15.75988800099367
 10
186.8390235448954
 20
15.75691204732784
 10
186.9519871999746
 20
15.7622166418499
 10
187.0176267597678
 20
15.7510730647209
 10
187.0816276691053
 20
15.76744532319857
 10
187.070314288919
 20
15.71761689905275
 10
187.077533987151
 20
15.67416715212123
 10
187.0703142611269
 20
15.63071745587445
 10
187.0816277175994
 20
15.58088895196876
 10
187.0176263598972
 20
15.59726166091362
 10
186.951992124046
 20
15.58611271661588
 10
186.838997431733
 20
15.59144857206854
 10
186.7242456548643
 20
15.58834345663822
 10
186.6113183686861
 20
15.59364894682589
 10
186.5455220903585
 20
15.58257300019593
 10
186.4816097975358
 20
15.59887597847618
 10
186.4936015165127
 20
15.54423524395742
 10
186.4862104613006
 20
15.48854295047841
 10
186.4892684841984
 20
15.3964968914057
 10
186.4893422785685
 20
15.30179109873101
 10
186.4860313578361
 20
15.20952782902265
 10
186.4939505989904
 20
15.15435768736139
 10
186.4815076611618
 20
15.10058169100135
 10
186.5389116551633
 20
15.11453768862781
 10
186.5994708140384
 20
15.10511457884226
 10
186.7048680855082
 20
15.10942885928705
 10
186.8204294070624
 20
15.10835504612032
 10
186.9359688877798
 20
15.10725965900994
 10
187.0414181130843
 20
15.11162525770632
 10
187.1018680471805
 20
15.10209426030671
 10
187.1592837739111
 20
15.11617289606379
 10
187.1477773876711
 20
15.06707153265683
 10
187.153756678175
 20
15.02564658018648
 10
187.1520311050804
 20
14.97651677966696
 10
187.1521500122972
 20
14.94854428447608
 10
187.1521871691834
 20
14.9398028819595
 72
     4
 94
        3
 73
     0
 74
     0
 95
       62
 96
       58
 40
0.0
 40
0.0
 40
0.0
 40
0.0
 40
0.0598250028309053
 40
0.2024846486898184
 40
0.3727558389222168
 40
0.5154154847937491
 40
0.5752404975787329
 40
0.9332326775489402
 40
1.290451762839706
 40
1.602077253146122
 40
1.699931634112401
 40
1.799359756425297
 40
2.270120149657332
 40
2.804661928461743
 40
2.882342287383456
 40
3.076543185719305
 40
3.329004354835763
 40
3.581465524568586
 40
3.775666424543869
 40
3.853346784558489
 40
3.899120679595263
 40
3.984129341792204
 40
4.029903236817552
 40
4.105797496059707
 40
4.295533144152665
 40
4.542189486611906
 40
4.788845828875851
 40
4.978581476410233
 40
5.054475735244476
 40
5.62173466433952
 40
6.130867242037575
 40
6.225249780948841
 40
6.318913039727573
 40
6.663579954559283
 40
7.047498900225133
 40
7.43523079157605
 40
7.498943906668462
 40
7.650875181210456
 40
7.832212509001966
 40
7.984143783697352
 40
8.047856898903479
 40
8.091554632732985
 40
8.172707566964643
 40
8.216405300768365
 40
8.28902178216125
 40
8.462184160757623
 40
8.668861838005789
 40
8.84202421526438
 40
8.914640695475605
 40
8.98988158086181
 40
9.155411528827718
 40
9.320941477744501
 40
9.396182352487754
 40
9.454709011144244
 40
9.583467660171264
 40
9.712226309013486
 40
9.770752957989968
 40
9.770752957989968
 40
9.770752957989968
 40
9.770752957989968
 10
187.1521871691834
 20
14.9398028819595
 10
187.1322348171624
 20
14.93980875568671
 10
187.0647037716466
 20
14.93982863806157
 10
186.9410612161788
 20
14.93949362520325
 10
186.7863180150056
 20
14.94107673750512
 10
186.669734948248
 20
14.93686078860495
 10
186.4550942634239
 20
14.95215205331627
 10
186.8518948407228
 20
14.59198721286192
 10
186.8945656069266
 20
14.37510503397166
 10
187.3189162146612
 20
14.19325062511446
 10
187.1439821496073
 20
14.08985196568075
 10
187.0194523925084
 20
13.87831523212722
 10
186.7666277235943
 20
14.34806081001561
 10
186.4797602893626
 20
14.99511516984521
 10
186.4906335926662
 20
14.68782672154694
 10
186.488289277796
 20
14.52288616971779
 10
186.4861096126411
 20
14.28879670711694
 10
186.4980774396348
 20
14.04498072421784
 10
186.4687984740632
 20
13.89855796860985
 10
186.5114522625471
 20
13.75113490174538
 10
186.423981400564
 20
13.76685797306221
 10
186.3768527606745
 20
13.76694303543455
 10
186.2898973207714
 20
13.7510942548291
 10
186.3313474021724
 20
13.89527771422763
 10
186.3029875004286
 20
14.03855052698456
 10
186.31459737753
 20
14.27674947365265
 10
186.3124175648273
 20
14.50517235240346
 10
186.3103111127994
 20
14.66705729375994
 10
186.3208035438325
 20
14.98153709333754
 10
186.0128963252892
 20
14.29229470872433
 10
185.7055258267458
 20
13.81476750243054
 10
185.5851367066273
 20
14.03741112637428
 10
185.4074607910721
 20
14.15011034955564
 10
185.8853326362895
 20
14.32548143465458
 10
185.9353959057207
 20
14.5609192925203
 10
186.3583799621717
 20
14.95322989344607
 10
186.127675427354
 20
14.93655307029066
 10
186.004968585934
 20
14.9426951894877
 10
185.8325483095661
 20
14.93312822699574
 10
185.721322469445
 20
14.95448818489667
 10
185.6025779627447
 20
14.92136265357419
 10
185.6183169706686
 20
15.00203900606884
 10
185.6178550933762
 20
15.04645414290853
 10
185.6027881889931
 20
15.12967081778533
 10
185.7372380935443
 20
15.09062651983882
 10
185.8619755545746
 20
15.11739729328422
 10
186.0628755237281
 20
15.10063949044052
 10
186.1921540949354
 20
15.12204225913005
 10
186.3328419928295
 20
15.08868778853419
 10
186.2980927452617
 20
15.22651875785068
 10
186.3222185666713
 20
15.34963257349481
 10
186.2967086182393
 20
15.47024055670335
 10
186.3333251146686
 20
15.60539865141493
 10
186.2211417027771
 20
15.58094545781891
 10
186.1280356457137
 20
15.59307749842022
 10
186.0191547579821
 20
15.58957630069994
 10
185.9569697640965
 20
15.58981755951602
 10
185.9375369557247
 20
15.58989295124144
 97
        3
330
A6
330
A4
330
A5
 75
     1
 76
     2
 52
45.0
 41
0.1
 77
     0
 78
     1
 53
45.0
 43
0.0
 44
0.0
 45
-0.282842712474619
 46
0.0
 79
     0
 98
        1
 10
0.0
 20
0.0
  0
HATCH
  5
C4
330
48
100
AcDbEntity
  8
1
  6
Continuous
 62
     2
100
AcDbHatch
 10
0.0
 20
0.0
 30
0.0
210
0.0
220
0.0
230
1.0
  2
CUSTOM2
 70
     0
 71
     1
 91
        1
 92
        1
 93
        1
 72
     4
 94
        3
 73
     0
 74
     0
 95
      124
 96
      120
 40
0.0
 40
0.0
 40
0.0
 40
0.0
 40
0.027818722962451
 40
0.1011590162384269
 40
0.2048470170590239
 40
0.3237088716559245
 40
0.4425707262522
 40
0.5462587270699547
 40
0.6195990203311798
 40
0.647417752257866
 40
0.6750060736115242
 40
0.7357003855242812
 40
0.7963946998054563
 40
0.8239830245571873
 40
0.8540933811102966
 40
0.9373396629409647
 40
1.063094687343217
 40
1.220731268638055
 40
1.39962222091473
 40
1.589140358637714
 40
1.778658496423824
 40
1.957549448940463
 40
2.115186030873084
 40
2.240941056914388
 40
2.324187341760457
 40
2.354297700109307
 40
2.381886024671815
 40
2.442580338710408
 40
2.503274652750433
 40
2.530862977314542
 40
2.560983949278495
 40
2.640393784452841
 40
2.752662861759036
 40
2.881361560118024
 40
3.010060258455042
 40
3.12232933570519
 40
3.201739170817803
 40
3.231860142753164
 40
3.264298024030219
 40
3.35234370177809
 40
3.482095226868611
 40
3.639650650172871
 40
3.811108022565326
 40
3.982565394927829
 40
4.14012081815241
 40
4.269872343141118
 40
4.357918020802178
 40
4.390355902043807
 40
4.423256253992377
 40
4.508104530072898
 40
4.624121560636666
 40
4.750528176031422
 40
4.866545206601869
 40
4.951393482691826
 40
4.984293834645228
 40
5.011450833242143
 40
5.071196230151927
 40
5.130941627057006
 40
5.15809862564867
 40
5.190998977601361
 40
5.275847253689187
 40
5.391864284256621
 40
5.518270899648166
 40
5.634287930209205
 40
5.719136206287879
 40
5.752036558235766
 40
5.782130946282792
 40
5.862783906228967
 40
5.979550131774833
 40
6.11798431664024
 40
6.263641154587785
 40
6.402075339413991
 40
6.518841564907786
 40
6.599494524815367
 40
6.629588912848605
 40
6.654403028226181
 40
6.713575149487948
 40
6.784199939329265
 40
6.843372060493367
 40
6.868186175802613
 40
6.89624624320169
 40
6.939586233758083
 40
6.967846564564711
 40
7.04358425108965
 40
7.153234334451511
 40
7.283231855734265
 40
7.420011856035298
 40
7.55000937657965
 40
7.65965945883505
 40
7.735397144417046
 40
7.763657474851218
 40
7.796409728010875
 40
7.88087606509615
 40
7.996370852465535
 40
8.12220844641843
 40
8.237703224799024
 40
8.322169562010718
 40
8.354921815205731
 40
8.382078813307512
 40
8.441824209206818
 40
8.501569605239968
 40
8.528726603485547
 40
8.561478856695595
 40
8.645945193877646
 40
8.761439980865157
 40
8.8872775807643
 40
9.00277236200082
 40
9.087238696661041
 40
9.119990949235495
 40
9.152428830613195
 40
9.240474508638409
 40
9.370226034149358
 40
9.52778145798424
 40
9.699238830981228
 40
9.870696203978415
 40
10.02825162781384
 40
10.15800315332545
 40
10.246048831351
 40
10.27848670378503
 40
10.27848670378503
 40
10.27848670378503
 40
10.27848670378503
 10
195.3821827564383
 20
14.01410517385758
 10
195.3914554737523
 20
14.01410498511275
 10
195.4251744536861
 20
14.01410430876715
 10
195.4934706812465
 20
14.01411807243305
 10
195.592014171158
 20
14.01403224219546
 10
195.7062066464812
 20
14.01441755612252
 10
195.818589441707
 20
14.01300835897545
 10
195.9214376600118
 20
14.01719117422244
 10
195.9806839874849
 20
14.00823089251984
 10
196.0371265937032
 20
14.02164434526062
 10
196.0246255586955
 20
13.97087198613362
 10
196.0329549635703
 20
13.92589320939067
 10
196.024817084112
 20
13.88056752990489
 10
196.0370529214456
 20
13.82931932408466
 10
195.9747773490334
 20
13.84447955365277
 10
195.9060513026868
 20
13.83359750710742
 10
195.7782756749591
 20
13.83911304747972
 10
195.6262984511644
 20
13.83700851253698
 10
195.4502695972523
 20
13.83771002588473
 10
195.2644431934287
 20
13.83745237531291
 10
195.0786167437176
 20
13.83771005144603
 10
194.9025880142169
 20
13.83700841847731
 10
194.7506104154195
 20
13.83911332229988
 10
194.6228357664555
 20
13.8335968076764
 10
194.5541077836582
 20
13.84448077125942
 10
194.4918349042884
 20
13.82931786684209
 10
194.5040616290019
 20
13.88057510805171
 10
194.4960004462597
 20
13.92582473272426
 10
194.5040675809893
 20
13.97106357955324
 10
194.4918238487084
 20
14.02234176909959
 10
194.5525017120698
 20
14.00749577363135
 10
194.6162810745737
 20
14.01756448170736
 10
194.7277314353503
 20
14.01294644212
 10
194.8497533443823
 20
14.01413328905469
 10
194.9719538137824
 20
14.01515863900635
 10
195.0829794287392
 20
14.01092475623402
 10
195.1476517413959
 20
14.0201858452174
 10
195.2091162810501
 20
14.00604423049683
 10
195.1930065601337
 20
14.07235527884517
 10
195.2042980327358
 20
14.14447790121977
 10
195.198740082256
 20
14.27513760888286
 10
195.200803506169
 20
14.42607323708241
 10
195.2000167127295
 20
14.59335873107886
 10
195.2007845215628
 20
14.76061110332303
 10
195.1988038785628
 20
14.91163289269914
 10
195.2041306156621
 20
15.04206069552995
 10
195.1933101388425
 20
15.11465442605899
 10
195.2090326429875
 20
15.18150469436798
 10
195.143270813249
 20
15.16580512490824
 10
195.0756367830764
 20
15.17609243083995
 10
194.9615885293809
 20
15.17113786847122
 10
194.8451242674902
 20
15.17414128030475
 10
194.7306554121477
 20
15.16880303143389
 10
194.6640324657812
 20
15.18001268074824
 10
194.5990769715186
 20
15.16349132665011
 10
194.6107989758708
 20
15.21473720477059
 10
194.6032830189121
 20
15.2595033378409
 10
194.6107989878835
 20
15.30426944897961
 10
194.5990769505347
 20
15.35551536129741
 10
194.66403263392
 20
15.33899381766815
 10
194.7306533339821
 20
15.35020571373944
 10
194.8451352858063
 20
15.34485436710664
 10
194.9615454436962
 20
15.34791188771117
 10
195.0757660174641
 20
15.34278499010708
 10
195.1430150439227
 20
15.35345733355598
 10
195.2083325941438
 20
15.33742082669077
 10
195.1941391448553
 20
15.39949685750054
 10
195.2036059462994
 20
15.46586761628762
 10
195.1990269004085
 20
15.58239972741966
 10
195.2007696555948
 20
15.71426685022376
 10
195.1997551495391
 20
15.85615960150273
 10
195.2017191344373
 20
15.9876905070258
 10
195.1964668553851
 20
16.10524577283002
 10
195.2073408763474
 20
16.16947789001584
 10
195.1919536641853
 20
16.23108802545047
 10
195.24075915378
 20
16.21702407382111
 10
195.2853995564726
 20
16.21954742075314
 10
195.3538643946743
 20
16.2151279740171
 10
195.3959106169102
 20
16.20613025544035
 10
195.4487544758775
 20
16.21411714866511
 10
195.4207035002013
 20
16.17113917611674
 10
195.3749142248594
 20
16.18259552043838
 10
195.3869539073265
 20
16.12173520005138
 10
195.3796086070641
 20
16.05769299468774
 10
195.3831195826162
 20
15.94909368863912
 10
195.3819806760173
 20
15.82494319144753
 10
195.3819174780262
 20
15.69189719829878
 10
195.3832872966868
 20
15.56797381249556
 10
195.3791638801313
 20
15.45868337849338
 10
195.3877763103564
 20
15.39608580094169
 10
195.3746757454402
 20
15.33740133296365
 10
195.4393884328198
 20
15.35362113810902
 10
195.5060405953156
 20
15.34270260383311
 10
195.6198779541102
 20
15.34793740173756
 10
195.7357259122097
 20
15.34485547516913
 10
195.849692426328
 20
15.35018259812512
 10
195.91603410181
 20
15.33904208166543
 10
195.9807188525479
 20
15.35546979593178
 10
195.9689820772722
 20
15.3042592521005
 10
195.976516806304
 20
15.25950334121001
 10
195.9689820992257
 20
15.21474739010027
 10
195.9807188140736
 20
15.1635369087104
 10
195.9160344075252
 20
15.1799642779422
 10
195.8496886430824
 20
15.16882784447269
 10
195.7357459487012
 20
15.1741311589312
 10
195.6197995623054
 20
15.17114764593544
 10
195.5062756882122
 20
15.17606892268393
 10
195.4389231318804
 20
15.1658508751352
 10
195.3734285122495
 20
15.18145996138815
 10
195.3891713619218
 20
15.11463851827411
 10
195.3783275998213
 20
15.04207057815879
 10
195.3836581629792
 20
14.91162247614416
 10
195.3817136151855
 20
14.76064558185226
 10
195.3823133683215
 20
14.59322243934159
 10
195.3821506559604
 20
14.42656176118372
 10
195.3821895488136
 20
14.27360142921637
 10
195.3821816413098
 20
14.14849178985705
 10
195.3821828382745
 20
14.06507890991421
 10
195.3821827716208
 20
14.02491778281976
 10
195.3821827564383
 20
14.01410517385758
 97
        1
330
A7
 75
     1
 76
     2
 52
45.0
 41
0.1
 77
     0
 78
     1
 53
45.0
 43
0.0
 44
0.0
 45
-0.282842712474619
 46
0.0
 79
     0
 98
        1
 10
0.0
 20
0.0
  0
HATCH
  5
C5
330
48
100
AcDbEntity
  8
1
  6
Continuous
 62
     2
100
AcDbHatch
 10
0.0
 20
0.0
 30
0.0
210
0.0
220
0.0
230
1.0
  2
CUSTOM3
 70
     0
 71
     1
 91
        1
 92
        1
 93
        1
 72
     4
 94
        3
 73
     0
 74
     0
 95
      131
 96
      127
 40
0.0
 40
0.0
 40
0.0
 40
0.0
 40
0.0195577029826288
 40
0.0426490537462123
 40
0.2863607575857058
 40
0.5344948436189574
 40
0.7842238845573303
 40
0.8737315789467518
 40
0.9803832810312803
 40
1.092842274517027
 40
1.199761146656764
 40
1.289788768186492
 40
1.351573580786206
 40
1.370727117561452
 40
1.416400936017861
 40
1.470914848356022
 40
1.516588666791812
 40
1.535742203552909
 40
1.634216592293216
 40
1.760283341175011
 40
1.897966686682074
 40
2.031216387368858
 40
2.049689751137851
 40
2.101115601646788
 40
2.179502577739907
 40
2.278859318314021
 40
2.39319446225868
 40
2.516516648383796
 40
2.642834515405925
 40
2.766156701983427
 40
2.880491846754543
 40
2.979848588358585
 40
3.058235565443765
 40
3.109661416668919
 40
3.128134780704094
 40
3.146783742386411
 40
3.1912543433153
 40
3.244332157315959
 40
3.288802758225891
 40
3.307451719895163
 40
3.327717853844776
 40
3.383747753580135
 40
3.468388665924525
 40
3.574487837698834
 40
3.694892515728938
 40
3.822449946852077
 40
3.950007377920466
 40
4.070412055800558
 40
4.176511227368113
 40
4.26115213950156
 40
4.317182039076753
 40
4.337448172964672
 40
4.62001100269628
 40
4.885096638397455
 40
4.945373043518316
 40
5.01410771048867
 40
5.070481727652063
 40
5.31924695563661
 40
5.584812164506125
 40
5.859000912056976
 40
6.133746937542158
 40
6.401732212968961
 40
6.420736683995552
 40
6.472845717451202
 40
6.55070274389413
 40
6.646951193874338
 40
6.754234497930662
 40
6.86519608658744
 40
6.972479390357899
 40
7.068727839772061
 40
7.14658486545107
 40
7.198693898189299
 40
7.21769836890544
 40
7.234950401630918
 40
7.276089864269963
 40
7.325191803516072
 40
7.366331266090459
 40
7.38358329876981
 40
7.402779163492188
 40
7.453386443254619
 40
7.52493466644562
 40
7.60695336140596
 40
7.688972056429112
 40
7.760520279784362
 40
7.811127559734604
 40
7.830323424546226
 40
7.847844055299857
 40
7.894799345666897
 40
7.962779392744586
 40
8.043374293560637
 40
8.128174145149545
 40
8.208769044817346
 40
8.27674909037705
 40
8.323704379669616
 40
8.341225010056347
 40
8.358497614800495
 40
8.4016791266867
 40
8.457815092185758
 40
8.513951057728162
 40
8.557132569708118
 40
8.574405174505161
 40
8.602340668616513
 40
8.643455660539999
 40
8.663225271966667
 40
8.715345156564315
 40
8.789031889628653
 40
8.873502045520384
 40
8.95797219432401
 40
9.031658925567903
 40
9.083778811234595
 40
9.103548423003057
 40
9.119550083123594
 40
9.160817522379896
 40
9.217244429110233
 40
9.27872449164469
 40
9.335151398295475
 40
9.376418837357742
 40
9.39242049730053
 40
9.401196302734748
 40
9.417494229384225
 40
9.426270027749498
 40
9.44087507547753
 40
9.475702496998712
 40
9.517270709865878
 40
9.552098131994049
 40
9.566703169884256
 40
9.566703169884256
 40
9.566703169884256
 40
9.566703169884256
 10
194.6170254148479
 20
15.67015871511027
 10
194.6134345093371
 20
15.66453690702159
 10
194.6056039123624
 20
15.65227754419111
 10
194.5129968974547
 20
15.61601916040983
 10
194.4887622233246
 20
15.40148444212711
 10
194.3858709845937
 20
15.22197284509709
 10
194.1220492364306
 20
15.03615573798146
 10
194.2845471569179
 20
14.95959336566082
 10
194.3607225760838
 20
14.89856693195441
 10
194.4492171072757
 20
14.8351580454476
 10
194.5389930233111
 20
14.77525634219559
 10
194.5883817636045
 20
14.72102154849207
 10
194.6745708157382
 20
14.69286240541833
 10
194.6411260674228
 20
14.65713309652812
 10
194.621467116631
 20
14.62550387991905
 10
194.5919888217882
 20
14.58475872796071
 10
194.5688989446031
 20
14.55504663489642
 10
194.5380205968355
 20
14.50211422668497
 10
194.472919336574
 20
14.627403349389
 10
194.3796000122415
 20
14.68213900233936
 10
194.295063628514
 20
14.73916423939341
 10
194.1722498125741
 20
14.89675287427522
 10
194.1764450847303
 20
14.82035806766838
 10
194.1751478652678
 20
14.77361280161296
 10
194.1758126448078
 20
14.69584785812602
 10
194.1755549986958
 20
14.59902068324423
 10
194.1756431239923
 20
14.4865027907881
 10
194.175607730228
 20
14.36524085945699
 10
194.1756511758281
 20
14.24086897858962
 10
194.1755199942406
 20
14.11967683631336
 10
194.1759477562048
 20
14.00691148919744
 10
194.174667820231
 20
13.91082913768744
 10
194.1779759851044
 20
13.831138264687
 10
194.1715197740087
 20
13.78815175788784
 10
194.1806208705557
 20
13.74955432372042
 10
194.1447910339936
 20
13.75810887724071
 10
194.1115223815253
 20
13.75342519985446
 10
194.0604562576041
 20
13.75351298759784
 10
194.0269723972813
 20
13.75794430283821
 10
193.9907585408754
 20
13.74960793842509
 10
194.0009782568665
 20
13.79145277179284
 10
193.9936487887773
 20
13.83778560820173
 10
193.9973633136103
 20
13.92374831106014
 10
193.9959480554896
 20
14.02605142704849
 10
193.9964105554638
 20
14.14453223931512
 10
193.996277368623
 20
14.26957683153356
 10
193.9963015910045
 20
14.3947582810705
 10
193.9963354925551
 20
14.51286645379058
 10
193.9962060293132
 20
14.61628748709516
 10
193.9965507549081
 20
14.69932036153667
 10
193.995869827869
 20
14.75143368521243
 10
193.9994586600623
 20
14.87912907821359
 10
193.7826171386436
 20
14.58048716819624
 10
193.6021354921953
 20
14.35263981511525
 10
193.5490322295611
 20
14.49373443289814
 10
193.5200429133148
 20
14.54325767560941
 10
193.4196648062819
 20
14.64641779790107
 10
193.7405127723261
 20
14.72695035023779
 10
193.8689897005429
 20
14.91066283036432
 10
194.0906454325358
 20
15.11931995771762
 10
194.1770224894069
 20
15.29339211228344
 10
194.4549394229074
 20
15.5696705134251
 10
194.3346247839284
 20
15.56534559551114
 10
194.2863197351348
 20
15.56614856202552
 10
194.2102377454905
 20
15.56574582146584
 10
194.116701000975
 20
15.56590275611609
 10
194.0117594788557
 20
15.56582502576224
 10
193.9033887738717
 20
15.56595464378554
 10
193.7981454235897
 20
15.56554393490692
 10
193.7056237819412
 20
15.56682073671591
 10
193.6268130800708
 20
15.5634076653485
 10
193.5839674565379
 20
15.5702335003632
 10
193.5449499586516
 20
15.56065064201123
 10
193.5526365271863
 20
15.59420779565543
 10
193.5485464404312
 20
15.62523550322233
 10
193.5485531368814
 20
15.672365292709
 10
193.5526239724911
 20
15.70340941646779
 10
193.5449495574582
 20
15.73701861635901
 10
193.5834819405494
 20
15.72748410420872
 10
193.624122801448
 20
15.73397435498071
 10
193.6951471850463
 20
15.73100150650254
 10
193.7729318149633
 20
15.73174761399158
 10
193.8507292246474
 20
15.73247814044525
 10
193.9217232089907
 20
15.7295423551416
 10
193.962427979182
 20
15.73595468772952
 10
194.0009853489909
 20
15.72650524176004
 10
193.9927342754928
 20
15.76264692158785
 10
193.9982346669358
 20
15.80129837613226
 10
193.9955754206163
 20
15.86913528561839
 10
193.9965815471533
 20
15.9459164153874
 10
193.9960178018319
 20
16.02849393582757
 10
193.9970714526593
 20
16.10517329229879
 10
193.994267586313
 20
16.173319907767
 10
194.0000702721302
 20
16.21132399809347
 10
193.9915654551159
 20
16.24758448077647
 10
194.0255610233125
 20
16.23755723771853
 10
194.0594575683099
 20
16.24073266813707
 10
194.1126669060346
 20
16.2350896564061
 10
194.1660768574483
 20
16.23434774436426
 10
194.1995914649491
 20
16.22819223482981
 10
194.2388086183039
 20
16.23346029773594
 10
194.2120263698492
 20
16.19253380793491
 10
194.1708111001724
 20
16.20371204538109
 10
194.1782641540875
 20
16.15867056192126
 10
194.1742227952185
 20
16.11412278028145
 10
194.1761714049641
 20
16.04223572621704
 10
194.175236484976
 20
15.96168630588771
 10
194.176510719003
 20
15.88173995404995
 10
194.1732043793865
 20
15.80841837083183
 10
194.1802106179961
 20
15.76688643002568
 10
194.1701440380126
 20
15.72752418568113
 10
194.2029814803922
 20
15.73468063430981
 10
194.2364577296482
 20
15.73027243137945
 10
194.2915053476019
 20
15.73217943347897
 10
194.3489502595316
 20
15.73185366407289
 10
194.402302624831
 20
15.73106308733081
 10
194.4398540896638
 20
15.73313959118074
 10
194.4623172523237
 20
15.73022338167109
 10
194.4751678073731
 20
15.73572552644056
 10
194.4858255685888
 20
15.73801118197791
 10
194.4986635650143
 20
15.74494972588054
 10
194.5145991033071
 20
15.72853046313672
 10
194.5410623920892
 20
15.71709122319449
 10
194.5726805253758
 20
15.69644687835191
 10
194.5987255892151
 20
15.68116869628294
 10
194.6128517723973
 20
15.67266976323183
 10
194.6170254148479
 20
15.67015871511027
 97
        1
330
A8
 75
     1
 76
     2
 52
45.0
 41
0.1
 77
     0
 78
     1
 53
45.0
 43
0.0
 44
0.0
 45
-0.282842712474619
 46
0.0
 79
     0
 98
        1
 10
0.0
 20
0.0
  0
HATCH
  5
C6
330
48
100
AcDbEntity
  8
1
  6
Continuous
 62
     2
100
AcDbHatch
 10
0.0
 20
0.0
 30
0.0
210
0.0
220
0.0
230
1.0
  2
CUSTOM4
 70
     0
 71
     1
 91
        1
 92
        1
 93
        1
 72
     4
 94
        3
 73
     0
 74
     0
 95
       91
 96
       87
 40
0.0
 40
0.0
 40
0.0
 40
0.0
 40
0.0267532254356666
 40
0.0856103386464049
 40
0.1444674521996532
 40
0.1712206856618408
 40
0.203941600564243
 40
0.2955601971652377
 40
0.4362601844616811
 40
0.6162252844507143
 40
0.8256392189704591
 40
1.0546857098444
 40
1.293548478893464
 40
1.532411247938207
 40
1.761457738799472
 40
1.970871673298441
 40
2.150836773256636
 40
2.291536760495469
 40
2.383155356836576
 40
2.415876284101196
 40
2.442629517487837
 40
2.501486630948965
 40
2.560343744424109
 40
2.58709697782638
 40
2.617068194440779
 40
2.69924733675592
 40
2.822032643466232
 40
2.973822353257733
 40
3.143014704823176
 40
3.318007936879726
 40
3.48720028818656
 40
3.63898999754804
 40
3.761775303794511
 40
3.843954445752845
 40
3.873925662229541
 40
3.890812773500249
 40
3.907699884771401
 40
3.937960767857029
 40
3.980983618142118
 40
4.19908591522826
 40
4.439444339237015
 40
4.67758824126066
 40
5.050698317837488
 40
5.448212454762874
 40
5.855291218044371
 40
6.138575438885062
 40
6.417434507583888
 40
6.44455110439357
 40
6.50420761736287
 40
6.563864130314194
 40
6.590980727103787
 40
6.848609460381194
 40
7.109611990668175
 40
7.352910904445841
 40
7.557830220705179
 40
7.587518925913097
 40
7.652834077375539
 40
7.718149228845548
 40
7.747837934061828
 40
7.854880190300737
 40
7.97651125740328
 40
8.369487896592025
 40
8.757514959223318
 40
9.12607241933078
 40
9.460639380391815
 40
9.746695593035527
 40
9.777569943118353
 40
9.807050320931479
 40
9.830377336128604
 40
9.886003295435692
 40
9.952395569429592
 40
10.00802152870595
 40
10.03134854388187
 40
10.21356951009552
 40
10.42203479292843
 40
10.66154556731032
 40
10.91693789564269
 40
11.15832906556527
 40
11.18982674596582
 40
11.27286608520366
 40
11.39026653033308
 40
11.52484752840839
 40
11.65942852648389
 40
11.77682897161428
 40
11.85986831085621
 40
11.89136598230367
 40
11.89136598230367
 40
11.89136598230367
 40
11.89136598230367
 10
190.7027885008197
 20
14.70699600701773
 10
190.7028237765289
 20
14.71587847311986
 10
190.7029366710797
 20
14.74430237047347
 10
190.701298456849
 20
14.79409639169804
 10
190.7069750292911
 20
14.83657564478154
 10
190.6956928731708
 20
14.88730154856847
 10
190.7632296979033
 20
14.87012900740108
 10
190.8388029210701
 20
14.88290227165996
 10
190.9828357056001
 20
14.87629729457382
 10
191.1569419185428
 20
14.87888462206466
 10
191.3639599611004
 20
14.87800591955553
 10
191.5894688172378
 20
14.87828207920026
 10
191.8251162293406
 20
14.87818339658663
 10
192.0607640531349
 20
14.87828184412767
 10
192.2862717580626
 20
14.87800678190789
 10
192.4932934632805
 20
14.87888186270735
 10
192.6673888915288
 20
14.87630522678446
 10
192.8114492071986
 20
14.88288290449213
 10
192.8869691915293
 20
14.87016243405605
 10
192.9545776037029
 20
14.88726400191686
 10
192.9430840140676
 20
14.83674785802941
 10
192.9505104581733
 20
14.79253252226502
 10
192.9428838927986
 20
14.74867966503611
 10
192.9546489459425
 20
14.6987837447933
 10
192.8930788491983
 20
14.71393227712513
 10
192.8256791738672
 20
14.70310665350675
 10
192.7013004056221
 20
14.70852031626236
 10
192.5554428236571
 20
14.70649205390786
 10
192.3893576440086
 20
14.70715777578388
 10
192.2188412621725
 20
14.70689643521243
 10
192.051979085539
 20
14.70721553391095
 10
191.9087346827106
 20
14.70635302590763
 10
191.7773313869835
 20
14.70863300482989
 10
191.7239859134657
 20
14.70407704374203
 10
191.6485188456913
 20
14.70999914992878
 10
191.6769075779233
 20
14.70094169343354
 10
191.7033652409544
 20
14.69725912268929
 10
191.6633522907701
 20
14.66654271968274
 10
191.5713663691869
 20
14.67667591174636
 10
191.5439396207068
 20
14.43032502247788
 10
191.4478793967236
 20
14.27499558764373
 10
191.1917277964474
 20
13.9452541793157
 10
191.7627537732763
 20
14.08430022210452
 10
192.0173656320516
 20
14.08291779973363
 10
192.6279647048617
 20
13.99790569242088
 10
192.3340698578083
 20
14.29685417558201
 10
192.0133304286517
 20
14.44330856901782
 10
192.1313543360433
 20
14.50025540818288
 10
192.1724716466261
 20
14.52420099873349
 10
192.2156812394411
 20
14.54599758811231
 10
192.317457409445
 20
14.60928721253905
 10
192.4328867625248
 20
14.35147151408781
 10
192.6329591642278
 20
14.21616041113683
 10
192.7269077387228
 20
14.03792795138884
 10
192.9558829746392
 20
13.87997821027048
 10
192.8596031846708
 20
13.82915972576299
 10
192.8167959763779
 20
13.79881292523053
 10
192.7718243528778
 20
13.77466130281462
 10
192.7121720925213
 20
13.72552146747567
 10
192.6789731061325
 20
13.85997475673613
 10
192.5582013350796
 20
14.01594265286576
 10
192.1970976005979
 20
13.88569928059557
 10
191.8385061955541
 20
13.90224694409484
 10
191.4570920450081
 20
13.89331229351862
 10
191.1703455282891
 20
13.82882671672416
 10
190.8592055599715
 20
13.94230668192812
 10
190.8268737818788
 20
13.83122259927769
 10
190.7896178253318
 20
13.81196313850012
 10
190.7865737632754
 20
13.85874784087298
 10
190.7679892860606
 20
13.89806853919133
 10
190.7512436616778
 20
13.95765983478235
 10
190.7383730915754
 20
14.00201969871284
 10
190.7042327806429
 20
14.09106331120202
 10
190.9482714457754
 20
14.02181042943768
 10
191.1441394486673
 20
14.00030369057743
 10
191.2395426381277
 20
14.28226484478463
 10
191.2945135769598
 20
14.44363045421124
 10
191.5159619357153
 20
14.71391177589738
 10
191.3849239381216
 20
14.70548446853736
 10
191.3110026555853
 20
14.70779008496971
 10
191.1977459876242
 20
14.70671378321658
 10
191.0694251807485
 20
14.70707639076511
 10
190.9404252030416
 20
14.70697724466087
 10
190.8287840946291
 20
14.70699932712573
 10
190.7514663970027
 20
14.70699579189672
 10
190.7132876532011
 20
14.70699595845082
 10
190.7027885008197
 20
14.70699600701773
 97
        1
330
A9
 75
     1
 76
     2
 52
45.0
 41
0.1
 77
     0
 78
     1
 53
45.0
 43
0.0
 44
0.0
 45
-0.282842712474619
 46
0.0
 79
     0
 98
        1
 10
0.0
 20
0.0
  0
HATCH
  5
C7
330
48
100
AcDbEntity
  8
1
  6
Continuous
 62
     2
100
AcDbHatch
 10
0.0
 20
0.0
 30
0.0
210
0.0
220
0.0
230
1.0
  2
CUSTOM5
 70
     0
 71
     1
 91
        1
 92
        1
 93
        1
 72
     4
 94
        3
 73
     0
 74
     0
 95
       35
 96
       31
 40
0.0
 40
0.0
 40
0.0
 40
0.0
 40
0.0335231036621208
 40
0.071321857171181
 40
0.427886668148631
 40
0.8116865841963128
 40
1.198190237999972
 40
1.561379546812601
 40
1.659983174621965
 40
1.759315573807053
 40
2.132719617230984
 40
2.525233363588735
 40
2.910815397779627
 40
3.265244364303219
 40
3.592606723582
 40
3.964386154603928
 40
4.359942131737752
 40
4.758154118639164
 40
4.843846538699795
 40
4.936650065543146
 40
5.256616602537228
 40
5.581707404415965
 40
5.899719158308063
 40
6.198363494280625
 40
6.466301046615638
 40
6.493895311536988
 40
6.559697020196809
 40
6.638234543442413
 40
6.704036252154279
 40
6.731630508423085
 40
6.731630508423085
 40
6.731630508423085
 40
6.731630508423085
 10
191.973601056867
 20
16.23463843719135
 10
191.967600609779
 20
16.22480690542324
 10
191.9548344099157
 20
16.20388988579803
 10
191.7949362006556
 20
16.17127126532673
 10
192.2322025842337
 20
15.88206680336707
 10
192.4345394828262
 20
15.68041138358437
 10
192.6819564267973
 20
15.43749387603277
 10
193.1831513624605
 20
15.36047662757775
 10
193.012556219897
 20
15.21876939174659
 10
192.9383299463203
 20
15.01710366209103
 10
192.6131432248187
 20
15.36956287174727
 10
192.3277741670664
 20
15.53175212559562
 10
192.0337604077658
 20
15.73687130053048
 10
191.8084452691133
 20
16.21827488595456
 10
191.5993085055521
 20
15.75343046609226
 10
191.3207873674834
 20
15.54350952252911
 10
191.0371383177209
 20
15.37424456359988
 10
190.7078639527832
 20
15.0014236090794
 10
190.6277012318224
 20
15.19708014459003
 10
190.4759724909744
 20
15.3249110419059
 10
190.9083395826794
 20
15.40454031765937
 10
191.0962565329766
 20
15.60026634915473
 10
191.3468477420503
 20
15.81632996916754
 10
191.5714350470161
 20
15.98190992300061
 10
191.6259775409711
 20
16.26133964636828
 10
191.7494661029011
 20
16.24737950408078
 10
191.806027334452
 20
16.24521268867648
 10
191.8761870984945
 20
16.24046859881359
 10
191.9333414022106
 20
16.23709429350543
 10
191.964419032084
 20
16.2351985471112
 10
191.973601056867
 20
16.23463843719135
 97
        1
330
AA
 75
     1
 76
     2
 52
45.0
 41
0.1
 77
     0
 78
     1
 53
45.0
 43
0.0
 44
0.0
 45
-0.282842712474619
 46
0.0
 79
     0
 98
        1
 10
0.0
 20
0.0
  0
HATCH
  5
C8
330
48
100
AcDbEntity
  8
1
  6
Continuous
 62
     2
100
AcDbHatch
 10
0.0
 20
0.0
 30
0.0
210
0.0
220
0.0
230
1.0
  2
CUSTOM6
 70
     0
 71
     1
 91
        1
 92
        1
 93
        1
 72
     4
 94
        3
 73
     0
 74
     0
 95
       15
 96
       11
 40
0.0
 40
0.0
 40
0.0
 40
0.0
 40
0.2785535985096574
 40
0.5215624748198886
 40
0.6076917376040546
 40
0.6938210001741316
 40
0.9405019146455154
 40
1.22169140348921
 40
1.300471877081156
 40
1.379252341684969
 40
1.379252341684969
 40
1.379252341684969
 40
1.379252341684969
 10
189.5681493630999
 20
16.22930267330382
 10
189.6296017794178
 20
16.17691646592716
 10
189.7446649974113
 20
16.07882876798223
 10
190.0397348497243
 20
15.92889785897223
 10
189.9025147631857
 20
15.84343227515015
 10
189.8041227843778
 20
15.71085785201554
 10
189.713003359065
 20
16.01616985781424
 10
189.3636839480654
 20
16.07967869465374
 10
189.5119258376569
 20
16.17896509880879
 10
189.5494081874237
 20
16.21252348402384
 10
189.5681493630999
 20
16.22930267330382
 97
        1
330
AB
 75
     1
 76
     2
 52
45.0
 41
0.1
 77
     0
 78
     1
 53
45.0
 43
0.0
 44
0.0
 45
-0.282842712474619
 46
0.0
 79
     0
 98
        1
 10
0.0
 20
0.0
  0
HATCH
  5
C9
330
48
100
AcDbEntity
  8
1
  6
Continuous
 62
     2
100
AcDbHatch
 10
0.0
 20
0.0
 30
0.0
210
0.0
220
0.0
230
1.0
  2
CUSTOM7
 70
     0
 71
     1
 91
        1
 92
        1
 93
        1
 72
     4
 94
        3
 73
     0
 74
     0
 95
       75
 96
       71
 40
0.0
 40
0.0
 40
0.0
 40
0.0
 40
0.0342546099129691
 40
0.1245622414432364
 40
0.2522385480897518
 40
0.398599192294068
 40
0.5449598364980839
 40
0.6726361431438834
 40
0.7629437746736942
 40
0.7971983935297973
 40
1.101723623449717
 40
1.408591244036666
 40
1.433332471690372
 40
1.487763172450168
 40
1.542193873081999
 40
1.566935100592549
 40
1.92352393182186
 40
2.271755704953715
 40
2.590579755100902
 40
2.85894330558116
 40
2.889120339309177
 40
2.918305855191125
 40
2.941366645531247
 40
2.99635776097314
 40
3.061992318140685
 40
3.11698343362688
 40
3.14004422399756
 40
3.411273122936453
 40
3.732441619741258
 40
3.761068217532956
 40
3.837787499630514
 40
3.948858699126157
 40
4.08054104910453
 40
4.219093782625913
 40
4.350776132722459
 40
4.461847332405791
 40
4.538566614678524
 40
4.56719321254477
 40
4.594907573999028
 40
4.666381453557595
 40
4.764111044011234
 40
4.870592538126066
 40
4.968322128642517
 40
5.03979600828723
 40
5.067510369784689
 40
5.094263603185905
 40
5.153120716668544
 40
5.211977830150995
 40
5.238731063552001
 40
5.27229053513924
 40
5.363380529445101
 40
5.497618415781779
 40
5.660621563454021
 40
5.838007341749722
 40
6.015393119911074
 40
6.178396267038699
 40
6.312634151842651
 40
6.40372414305964
 40
6.437283612672736
 40
6.464036846261354
 40
6.522893960004972
 40
6.581751071484244
 40
6.60850430159119
 40
6.637253941281338
 40
6.711397748903189
 40
6.812778057283801
 40
6.923237199249578
 40
7.024617507624222
 40
7.098761315207875
 40
7.127510946007825
 40
7.127510946007825
 40
7.127510946007825
 40
7.127510946007825
 10
188.4418622390564
 20
14.95849128473264
 10
188.4418622819707
 20
14.9470731340872
 10
188.4418624481128
 20
14.90555257842628
 10
188.4418593081787
 20
14.82146922003771
 10
188.44187882798
 20
14.70004497322328
 10
188.4417912187737
 20
14.55980494047448
 10
188.442111623523
 20
14.42006556794576
 10
188.4411605909741
 20
14.29745038894929
 10
188.4431978595967
 20
14.21587074438043
 10
188.4349433178745
 20
14.06271267077695
 10
188.7430797940901
 20
14.22560236054718
 10
189.0350645173737
 20
14.39482938688001
 10
189.0408354448707
 20
14.25973235781911
 10
189.0455471719891
 20
14.21617221160444
 10
189.0482535411917
 20
14.17211249350544
 10
189.0672545672961
 20
14.02272590363134
 10
188.6583942247301
 20
14.08681172241261
 10
188.3793710348832
 20
13.97296341411019
 10
188.1018081587166
 20
13.87364095811142
 10
187.80998371844
 20
13.91630687596354
 10
187.7869144678658
 20
13.81321679744541
 10
187.7537474383333
 20
13.78691091244469
 10
187.7480653962738
 20
13.83455309036304
 10
187.7284214559044
 20
13.87180336115069
 10
187.7095089485623
 20
13.93007387847564
 10
187.6942849867707
 20
13.97385201007804
 10
187.6477246372936
 20
14.0875942104631
 10
187.9890897312449
 20
14.05576301120048
 10
188.2679649367389
 20
14.02161435106477
 10
188.2617753034907
 20
14.16913976479652
 10
188.2630935452775
 20
14.24013150908834
 10
188.2624831689949
 20
14.34719767958662
 10
188.2625871570726
 20
14.47398529785998
 10
188.2629987964057
 20
14.6084924349605
 10
188.261390784197
 20
14.73395549951184
 10
188.2659902567926
 20
14.84505246719117
 10
188.2564186502211
 20
14.90761886800689
 10
188.2704001783692
 20
14.96595388295001
 10
188.2147384386706
 20
14.95289710582238
 10
188.1575655197822
 20
14.96136307749499
 10
188.0616048925648
 20
14.95729976080636
 10
187.9633767522821
 20
14.95970889852474
 10
187.867258245756
 20
14.95551600613387
 10
187.8104648525812
 20
14.96429346441163
 10
187.7550356873384
 20
14.9509493685012
 10
187.7670679427917
 20
15.00036910959257
 10
187.7592003173937
 20
15.04393988030396
 10
187.766629556383
 20
15.08830469118526
 10
187.7551930564143
 20
15.13902297763992
 10
187.8232102370133
 20
15.12162460757744
 10
187.8968496879747
 20
15.13417450237189
 10
188.0325064058211
 20
15.12799677011098
 10
188.1884909024525
 20
15.13029203093085
 10
188.3615926358143
 20
15.1294096826253
 10
188.5346942964182
 20
15.13029207142409
 10
188.6906789811216
 20
15.12799662955551
 10
188.8263351889798
 20
15.13417486262432
 10
188.8999756705651
 20
15.12162394218335
 10
188.9679914174724
 20
15.13902373012144
 10
188.9565590885922
 20
15.08830130414556
 10
188.9639539458298
 20
15.04397060811108
 10
188.9562039912271
 20
15.00028307550197
 10
188.9681203741876
 20
14.95063590098476
 10
188.9108170223617
 20
14.96461411338426
 10
188.8520145789772
 20
14.95539755673254
 10
188.7525293633199
 20
14.95952268164929
 10
188.649428009835
 20
14.95822760025887
 10
188.5537846354573
 20
14.95854077077641
 10
188.4857467971617
 20
14.95848776697145
 10
188.4514462213443
 20
14.95849051871656
 10
188.4418622390564
 20
14.95849128473264
 97
        1
330
AC
 75
     1
 76
     2
 52
45.0
 41
0.1
 77
     0
 78
     1
 53
45.0
 43
0.0
 44
0.0
 45
-0.282842712474619
 46
0.0
 79
     0
 98
        1
 10
0.0
 20
0.0
  0
HATCH
  5
CA
330
48
100
AcDbEntity
  8
1
  6
Continuous
 62
     2
100
AcDbHatch
 10
0.0
 20
0.0
 30
0.0
210
0.0
220
0.0
230
1.0
  2
CUSTOM8
 70
     0
 71
     1
 91
        1
 92
        1
 93
        1
 72
     4
 94
        3
 73
     0
 74
     0
 95
       91
 96
       87
 40
0.0
 40
0.0
 40
0.0
 40
0.0
 40
0.0345987051695718
 40
0.1258134969461369
 40
0.2547723404888987
 40
0.4026032099154125
 40
0.5504340793416704
 40
0.679392922883608
 40
0.7706077146571035
 40
0.8052064287780925
 40
1.124852390615277
 40
1.42740223630887
 40
1.706356627453511
 40
1.955541417875194
 40
2.169485938566338
 40
2.344350786664809
 40
2.480568411561958
 40
2.59044055742898
 40
2.649189927151109
 40
2.749320643306322
 40
2.912632739880026
 40
3.147745656000241
 40
3.24482749638505
 40
3.33849005694664
 40
3.583815413207068
 40
3.761423943238426
 40
3.886956104362585
 40
3.985855451886791
 40
4.091766255337703
 40
4.250186473811869
 40
4.42273431508449
 40
4.628285684838583
 40
4.8720932277584
 40
5.15254965214551
 40
5.464967135837489
 40
5.803201477852404
 40
6.160362988813879
 40
6.193449448275934
 40
6.284170385501588
 40
6.419718138764458
 40
6.587285046385708
 40
6.774063446723622
 40
6.967245678113605
 40
7.154024078817591
 40
7.321590987025977
 40
7.457138740890335
 40
7.547859678556072
 40
7.580946138182632
 40
7.608533084714682
 40
7.66922436707766
 40
7.729915649429874
 40
7.757502595949927
 40
7.790278062553381
 40
7.880146277430879
 40
8.014419963180341
 40
8.180411842397842
 40
8.36543463767931
 40
8.556801071622612
 40
8.741823866830725
 40
8.907815745916235
 40
9.042089431507389
 40
9.131957646249514
 40
9.16473311279709
 40
9.415425063140026
 40
9.667986180958497
 40
9.694169807462636
 40
9.756607686047651
 40
9.831130315322543
 40
9.893568193900036
 40
9.919751820398881
 40
9.950967964690694
 40
9.996421631210858
 40
10.22087981037474
 40
10.44341866197564
 40
10.47847970788876
 40
10.57091337438777
 40
10.70159545461251
 40
10.85140174170382
 40
11.00120802880499
 40
11.13189010907405
 40
11.22432377583032
 40
11.25938480938979
 40
11.28697175596167
 40
11.34766303835941
 40
11.40835432042091
 40
11.43594125892126
 40
11.43594125892126
 40
11.43594125892126
 40
11.43594125892126
 10
190.0818114333289
 20
15.55242795125077
 10
190.0702785844941
 20
15.55242790287915
 10
190.0283409444998
 20
15.55242773704164
 10
189.9434129719026
 20
15.55243125800909
 10
189.8207688553128
 20
15.55240926435879
 10
189.6791206916993
 20
15.55250801177054
 10
189.537975369849
 20
15.55214686232421
 10
189.4141351317905
 20
15.55321883609088
 10
189.3317217825382
 20
15.55092249091268
 10
189.1727791229692
 20
15.5604856937342
 10
189.3503402353375
 20
15.1978539431137
 10
189.3379739205452
 20
14.95243127723114
 10
189.4064519473864
 20
14.66862501324835
 10
189.469302432097
 20
14.43250999939036
 10
189.5452253431728
 20
14.23326740396129
 10
189.6303189577016
 20
14.07745347451374
 10
189.7244607592935
 20
13.97657857781393
 10
189.8282648207727
 20
13.92465852638964
 10
189.9125872030774
 20
13.97606484379619
 10
189.9351322179452
 20
14.09144544037516
 10
189.974573097537
 20
14.2188514970238
 10
189.9202919734944
 20
14.5362232808676
 10
190.0451218072473
 20
14.38982180140903
 10
190.2019291513604
 20
14.35795300331173
 10
190.0947720007056
 20
14.12421357767628
 10
190.0808711209867
 20
13.95972776583657
 10
190.0234709467225
 20
13.83130869122481
 10
189.9335020145008
 20
13.76018802352828
 10
189.8095274657877
 20
13.74432324142255
 10
189.663427319686
 20
13.77993797554173
 10
189.5243894320283
 20
13.90000570500279
 10
189.4102003962143
 20
14.07435682550319
 10
189.3146141301486
 20
14.29946603111242
 10
189.2318652572627
 20
14.56388246006443
 10
189.1807179256411
 20
14.88187933098543
 10
189.0770189207339
 20
15.15543728488913
 10
189.2042841208519
 20
15.56005818612865
 10
189.0357890623019
 20
15.55112367849679
 10
188.9511995787077
 20
15.55315961418363
 10
188.8189876387627
 20
15.55213937388406
 10
188.6560505094104
 20
15.55253230318429
 10
188.4733759170532
 20
15.55235696313368
 10
188.2847057373383
 20
15.55260105307468
 10
188.1014469020189
 20
15.55185657906236
 10
187.9404746832718
 20
15.55416360522425
 10
187.8029808335276
 20
15.54799804883663
 10
187.728959037231
 20
15.56032838458211
 10
187.6613215186856
 20
15.54329323723556
 10
187.673237371927
 20
15.59524438447527
 10
187.6655677285693
 20
15.64071424966528
 10
187.6732592225116
 20
15.68614453703705
 10
187.6613141797761
 20
15.73802395984569
 10
187.7283588305867
 20
15.72119143490263
 10
187.8017375665676
 20
15.7333540909267
 10
187.9379128305272
 20
15.72727231074958
 10
188.0973811801512
 20
15.72954834315057
 10
188.2789173085836
 20
15.72881233998961
 10
188.4658034862179
 20
15.72905954196132
 10
188.6468012316836
 20
15.72886400799253
 10
188.8080802578878
 20
15.72932234714838
 10
188.9393882124887
 20
15.72812673751205
 10
189.0225051322596
 20
15.73051347319742
 10
189.1556236547814
 20
15.72230605725463
 10
189.0645893502657
 20
15.97752868952654
 10
188.978963307442
 20
16.24164358328249
 10
189.0990589003454
 20
16.22904442969165
 10
189.1514264948543
 20
16.22694235763076
 10
189.2214497569716
 20
16.22535399889659
 10
189.2671922337818
 20
16.21602567538112
 10
189.3220812646933
 20
16.22545966915429
 10
189.2963574785683
 20
16.1773302865517
 10
189.1825397571452
 20
16.18266829744176
 10
189.3159346621137
 20
15.95449174576774
 10
189.1943658735471
 20
15.72156856595922
 10
189.3223188769413
 20
15.73087258884438
 10
189.4049048406461
 20
15.72801001754679
 10
189.5307214850824
 20
15.72923437412301
 10
189.6741469838057
 20
15.72932431888963
 10
189.8157420951728
 20
15.72746163183853
 10
189.9459127249967
 20
15.73333075937161
 10
190.0193452286191
 20
15.72070340823202
 10
190.0891112922096
 20
15.73877563110411
 10
190.0775772605396
 20
15.68612850546325
 10
190.0833184346682
 20
15.64221317686547
 10
190.0816615770911
 20
15.59089982676549
 10
190.081775756167
 20
15.56158792021635
 10
190.0818114333289
 20
15.55242795125077
 97
        1
330
AD
 75
     1
 76
     2
 52
45.0
 41
0.1
 77
     0
 78
     1
 53
45.0
 43
0.0
 44
0.0
 45
-0.282842712474619
 46
0.0
 79
     0
 98
        1
 10
0.0
 20
0.0
  0
HATCH
  5
CB
330
48
100
AcDbEntity
  8
1
  6
Continuous
 62
     2
100
AcDbHatch
 10
0.0
 20
0.0
 30
0.0
210
0.0
220
0.0
230
1.0
  2
CUSTOM9
 70
     0
 71
     1
 91
        1
 92
        1
 93
        1
 72
     4
 94
        3
 73
     0
 74
     0
 95
      118
 96
      114
 40
0.0
 40
0.0
 40
0.0
 40
0.0
 40
0.1054708162973078
 40
0.2466098270051564
 40
0.3965912874590722
 40
0.5285525069753421
 40
0.6156245055641443
 40
0.6431434105796755
 40
0.7036850037985628
 40
0.7642265984504194
 40
0.7917455052354666
 40
0.9287404319989269
 40
1.106572819087933
 40
1.287544879680902
 40
1.31757830803042
 40
1.399928030857056
 40
1.522968204799831
 40
1.67507298659045
 40
1.844616533180525
 40
2.01997300163859
 40
2.189516548879902
 40
2.341621331585239
 40
2.464661506320373
 40
2.547011229646937
 40
2.577044658167901
 40
2.603797890893
 40
2.662655002908801
 40
2.721512114949698
 40
2.748265347702878
 40
2.774215307344954
 40
2.845959313407282
 40
2.954338556588481
 40
3.090194227585657
 40
3.244367517100622
 40
3.40769961584438
 40
3.571031714539529
 40
3.725205003920201
 40
3.861060674729703
 40
3.969439917716394
 40
4.041183923629067
 40
4.06713388321306
 40
4.311886746012207
 40
4.547897258335549
 40
4.764747083044016
 40
4.952749679951824
 40
5.045772974195953
 40
5.137862019645042
 40
5.330543169793089
 40
5.553448265244078
 40
5.795083855888235
 40
6.043293412177295
 40
6.285761695541242
 40
6.313902908752726
 40
6.384255941793316
 40
6.475714884766904
 40
6.567173827758967
 40
6.637526860839745
 40
6.665668074074108
 40
6.692018920328084
 40
6.749990782071156
 40
6.807962643790527
 40
6.834313490018004
 40
6.856393084245254
 40
6.913335195649906
 40
6.991194817302541
 40
7.076026942283746
 40
7.153886563725265
 40
7.21082867484479
 40
7.232908268931125
 40
7.258199334923646
 40
7.324875781592296
 40
7.419142481924951
 40
7.527204308841895
 40
7.635266135230471
 40
7.729532834168457
 40
7.796209279292779
 40
7.821500344594726
 40
7.844652988850853
 40
7.89986314054166
 40
7.965759128053882
 40
8.020969279771252
 40
8.044121924046719
 40
8.069356610160858
 40
8.109134395441547
 40
8.132238100191259
 40
8.193147867786621
 40
8.279261678876797
 40
8.377977512674011
 40
8.476693347146796
 40
8.562807160411847
 40
8.623716930826633
 40
8.646820636853587
 40
8.6719887937744
 40
8.734909185828254
 40
8.816705695188968
 40
8.898502204815511
 40
8.961422597377943
 40
8.986590754551056
 40
9.012941600733212
 40
9.070913462380302
 40
9.1288853240818
 40
9.155236170325121
 40
9.180404327929164
 40
9.243324721948209
 40
9.325121234211945
 40
9.4069177466376
 40
9.469838141978055
 40
9.495006288270801
 40
9.517811184378944
 40
9.572192090486944
 40
9.637098333281173
 40
9.691479239515372
 40
9.714284125643411
 40
9.714284125643411
 40
9.714284125643411
 40
9.714284125643411
 10
185.2874469028654
 20
15.26889163187719
 10
185.3090990569038
 20
15.24111869242811
 10
185.3597257109474
 20
15.17618054561234
 10
185.4349383202592
 20
15.06891060312899
 10
185.5248482274346
 20
14.95377438266624
 10
185.5709169676674
 20
14.85357045748321
 10
185.6655825294654
 20
14.78434006814943
 10
185.6204439320412
 20
14.73771639678274
 10
185.5947047785789
 20
14.6966030886604
 10
185.5645196708011
 20
14.6606597172794
 10
185.519368473056
 20
14.58579782596096
 10
185.4710504458562
 20
14.80782524253603
 10
185.3968539713073
 20
14.84510677337711
 10
185.2836047324607
 20
15.11610202130599
 10
185.2885133578171
 20
15.00095328446229
 10
185.2868486556306
 20
14.92836675781627
 10
185.2876830076715
 20
14.80625588483986
 10
185.2873609540266
 20
14.65913800810461
 10
185.2875076912457
 20
14.49307063956558
 10
185.2872950092723
 20
14.32187554608602
 10
185.2879497252035
 20
14.15552828635499
 10
185.285919246114
 20
14.00935173055694
 10
185.2913460399931
 20
13.88471047474612
 10
185.2804930868709
 20
13.81718656540627
 10
185.2956739155556
 20
13.75549061417022
 10
185.2457895108134
 20
13.76727503897004
 10
185.2017150342521
 20
13.75943822779969
 10
185.1582371630201
 20
13.76760441372705
 10
185.1092346786487
 20
13.75538056738469
 10
185.1218731234824
 20
13.80960667249314
 10
185.1130182968448
 20
13.86936918907558
 10
185.1175058770312
 20
13.97922029044371
 10
185.115796013599
 20
14.11029975405679
 10
185.1163550915986
 20
14.26198011444329
 10
185.1161928768692
 20
14.42211074929954
 10
185.1162269924674
 20
14.58236865674567
 10
185.1162514960125
 20
14.73370247520439
 10
185.1161453543224
 20
14.86582156338601
 10
185.116429914193
 20
14.97294802533193
 10
185.1158675547567
 20
15.03808619579474
 10
185.1180765083687
 20
15.16618957858673
 10
185.0319435998602
 20
14.79097610391575
 10
184.9555140818501
 20
14.63918193123394
 10
184.8660040767832
 20
14.47766206446308
 10
184.7640413217327
 20
14.20471848820171
 10
184.7187976491038
 20
14.36717346596511
 10
184.610235594167
 20
14.45605432058121
 10
184.7995791751753
 20
14.6054979496141
 10
184.85653405457
 20
14.79749136974926
 10
184.9717520993352
 20
15.02899622906757
 10
184.9940151630132
 20
15.21797259759063
 10
185.1771905152141
 20
15.49454089325929
 10
185.0538033597552
 20
15.48698978832094
 10
184.9925684166834
 20
15.48856772366119
 10
184.9081999617064
 20
15.48882592573672
 10
184.8204235085966
 20
15.48544845751206
 10
184.7656768696122
 20
15.4939481498202
 10
184.7104703026025
 20
15.48048561049788
 10
184.7222823035536
 20
15.52931442126764
 10
184.7142496151794
 20
15.57269004896709
 10
184.7228186104678
 20
15.61509438309573
 10
184.7102943409157
 20
15.66267796552118
 10
184.7555101538735
 20
15.6526721299511
 10
184.8014815562723
 20
15.65894105174061
 10
184.877722204771
 20
15.65593561405874
 10
184.9561296131993
 20
15.65770448278542
 10
185.0323992648932
 20
15.65464793981661
 10
185.0783009459473
 20
15.66103971376178
 10
185.1231733965399
 20
15.65093822978897
 10
185.1105552275633
 20
15.701572015819
 10
185.1191936582705
 20
15.75501261882071
 10
185.1152361595441
 20
15.84863255131681
 10
185.1162325068333
 20
15.95112606688925
 10
185.1171927413072
 20
16.05353270248165
 10
185.1133211458004
 20
16.14735929609321
 10
185.1217789814364
 20
16.20036542840355
 10
185.1093075932834
 20
16.25211435651191
 10
185.1542106389849
 20
16.23850747226758
 10
185.1955083836772
 20
16.24100480320587
 10
185.259534428105
 20
16.23648060574487
 10
185.2986111148787
 20
16.2278100304331
 10
185.3476543498743
 20
16.23515102070686
 10
185.322508003059
 20
16.19602896051764
 10
185.2815901333724
 20
16.20563842455805
 10
185.2910109616605
 20
16.1554014816978
 10
185.2855647318747
 20
16.10385945639491
 10
185.2881699601805
 20
16.01959707584522
 10
185.2870102202155
 20
15.92559135583409
 10
185.2883591064232
 20
15.83196865395527
 10
185.2849970101509
 20
15.74679517552224
 10
185.292095991777
 20
15.69716856072045
 10
185.2812569154547
 20
15.6499369496999
 10
185.3304010225246
 20
15.66201674936852
 10
185.3794877630148
 20
15.65447393363012
 10
185.4573714280641
 20
15.65686070361433
 10
185.5350365172897
 20
15.65899381905416
 10
185.5845393931354
 20
15.65193391922455
 10
185.6344594750639
 20
15.66360151936215
 10
185.6223198516881
 20
15.61540235371394
 10
185.6305838229144
 20
15.57249219801236
 10
185.6223198650782
 20
15.52958201851385
 10
185.6344594549855
 20
15.48138288754865
 10
185.5845395158746
 20
15.4930503447151
 10
185.5350350651203
 20
15.48599202435046
 10
185.4573784382973
 20
15.48811665228604
 10
185.379464386576
 20
15.4905338936576
 10
185.3304500352718
 20
15.48291848194486
 10
185.2813246108943
 20
15.49507952557591
 10
185.2915559988573
 20
15.45073013424158
 10
185.2856677678054
 20
15.40925436202911
 10
185.287878830557
 20
15.34915394315302
 10
185.2874109346147
 20
15.30225782762889
 10
185.2874386992914
 20
15.27650146418196
 10
185.2874469028654
 20
15.26889163187719
 97
        1
330
AE
 75
     1
 76
     2
 52
45.0
 41
0.1
 77
     0
 78
     1
 53
45.0
 43
0.0
 44
0.0
 45
-0.282842712474619
 46
0.0
 79
     0
 98
        1
 10
0.0
 20
0.0
  0
HATCH
  5
CC
330
48
100
AcDbEntity
  8
1
  6
Continuous
 62
     2
100
AcDbHatch
 10
0.0
 20
0.0
 30
0.0
210
0.0
220
0.0
230
1.0
  2
CUSTOM10
 70
     0
 71
     1
 91
        1
 92
        1
 93
        1
 72
     4
 94
        3
 73
     0
 74
     0
 95
       47
 96
       43
 40
0.0
 40
0.0
 40
0.0
 40
0.0
 40
0.2207912809957213
 40
0.4459404186303082
 40
0.4902387190459854
 40
0.5327473892721971
 40
0.5742260451226139
 40
0.6155432630561717
 40
0.6568164066317489
 40
0.6982511618781557
 40
0.7407663929318076
 40
0.7851366743177256
 40
1.010288833836526
 40
1.231080507002383
 40
1.451765243652607
 40
1.676638205891888
 40
1.720461045359857
 40
1.830018144043722
 40
1.972442372353353
 40
2.114866600677722
 40
2.224423699395347
 40
2.268246538883588
 40
2.493628801207429
 40
2.715602830286828
 40
2.934211330706586
 40
3.149502369855584
 40
3.231387784851314
 40
3.318231873854378
 40
3.405143198198366
 40
3.486970301720887
 40
3.702258172494337
 40
3.920866283534564
 40
4.142839325932355
 40
4.368221903865826
 40
4.412044743360306
 40
4.521601842096321
 40
4.664026070452802
 40
4.806450298809511
 40
4.916007397547204
 40
4.959830237043525
 40
5.184703515847553
 40
5.405387250767925
 40
5.405387250767925
 40
5.405387250767925
 40
5.405387250767925
 10
182.6507427258645
 20
15.73406440953872
 10
182.6568139420003
 20
15.79758482501211
 10
182.6690762107244
 20
15.92587938689629
 10
182.5604706879413
 20
16.20166220174076
 10
182.6761985896603
 20
16.17188133432055
 10
182.7171842509015
 20
16.16765556262818
 10
182.7591205797518
 20
16.16310446389608
 10
182.800419662571
 20
16.16201982929484
 10
182.8417032115556
 20
16.16310338195227
 10
182.8836148270647
 20
16.16766112711343
 10
182.924598354902
 20
16.1718743020973
 10
183.0404922843489
 20
16.20177611317531
 10
182.9295652727456
 20
15.92339806609892
 10
182.9574856365265
 20
15.74283140824952
 10
182.940426734697
 20
15.50961042346473
 10
182.9414637282101
 20
15.34906622543146
 10
182.9414099399404
 20
15.22284817558723
 10
182.9414277372479
 20
15.12428963336242
 10
182.9414188581079
 20
14.99280702442964
 10
182.9414263928033
 20
14.86132844968651
 10
182.9414129405127
 20
14.76276222694091
 10
182.9414531717491
 20
14.63639735624153
 10
182.9406746403816
 20
14.4748206882287
 10
182.9565958319265
 20
14.24361821892914
 10
182.9333468885407
 20
14.05874351972001
 10
183.0360183444367
 20
13.78935602770052
 10
182.8820238362837
 20
13.82660112685818
 10
182.8004129802832
 20
13.82137994680534
 10
182.7188192292582
 20
13.82660620378351
 10
182.5648513666841
 20
13.78937069885384
 10
182.6674183421919
 20
14.05875129862878
 10
182.6442045316087
 20
14.24361585325415
 10
182.6600444655139
 20
14.47482218565639
 10
182.6593296313426
 20
14.63639712308503
 10
182.6593664569907
 20
14.76276231210521
 10
182.659354900027
 20
14.86132756635982
 10
182.6593575019214
 20
14.99281127417221
 10
182.6593648531779
 20
15.124275480312
 10
182.6593442541351
 20
15.22287786275328
 10
182.6594082192027
 20
15.34896149354426
 10
182.6581733947591
 20
15.51210091383772
 10
182.6532040396745
 20
15.6605418377755
 10
182.6507427258645
 20
15.73406440953872
 97
        1
330
AF
 75
     1
 76
     2
 52
45.0
 41
0.1
 77
     0
 78
     1
 53
45.0
 43
0.0
 44
0.0
 45
-0.282842712474619
 46
0.0
 79
     0
 98
        1
 10
0.0
 20
0.0
  0
HATCH
  5
CD
330
48
100
AcDbEntity
  8
1
  6
Continuous
 62
     2
100
AcDbHatch
 10
0.0
 20
0.0
 30
0.0
210
0.0
220
0.0
230
1.0
  2
CUSTOM11
 70
     0
 71
     1
 91
        1
 92
        1
 93
        1
 72
     4
 94
        3
 73
     0
 74
     0
 95
      110
 96
      106
 40
0.0
 40
0.0
 40
0.0
 40
0.0
 40
0.2203406257277732
 40
0.4407808782838093
 40
0.5952494494615354
 40
0.7488431659393077
 40
0.9023581831309059
 40
1.056801968670404
 40
1.210736449100019
 40
1.363041386539783
 40
1.515315729683126
 40
1.669377239148077
 40
1.721611652756555
 40
1.773199502942937
 40
1.824933793209982
 40
1.877110426487958
 40
1.982682281206694
 40
2.07878166708753
 40
2.172809640822195
 40
2.271937807378906
 40
2.378349933379327
 40
2.494131557736373
 40
2.626681683943564
 40
2.783145050796048
 40
2.890701232940915
 40
2.993130312454817
 40
3.099869730691793
 40
3.22023781669128
 40
3.352695482737573
 40
3.481732806389819
 40
3.593499473690351
 40
3.674323013331875
 40
3.817951711952825
 40
3.946167120793822
 40
4.06140505345348
 40
4.166480796003149
 40
4.262478775059185
 40
4.350736673551056
 40
4.433071991253999
 40
4.511216293814544
 40
4.564262454117853
 40
4.618474415571477
 40
4.670128488754062
 40
4.722296879126259
 40
4.819540945314015
 40
4.931194984127901
 40
5.049996040257514
 40
5.168643755414974
 40
5.283970811762271
 40
5.392260784910125
 40
5.486512254876171
 40
5.559178233949599
 40
5.591425852853269
 40
5.626215969637664
 40
5.667155838674196
 40
5.717449290214013
 40
5.738402360944626
 40
5.784499116553588
 40
5.830595872164555
 40
5.851548942897411
 40
5.873019280661525
 40
5.924217778408073
 40
5.985325662817454
 40
6.03652416056747
 40
6.057994498334001
 40
6.236847789607253
 40
6.381409928945424
 40
6.493190424178456
 40
6.574067534230266
 40
6.691018086205331
 40
6.814881554220164
 40
6.94430782324023
 40
7.071266716065854
 40
7.193488604461699
 40
7.309042773127926
 40
7.414007203170608
 40
7.50514044188631
 40
7.531150360599481
 40
7.559221645322064
 40
7.587202218920727
 40
7.612569159498944
 40
7.662550809480817
 40
7.702878875763951
 40
7.857328205230794
 40
8.010799568088496
 40
8.165256399657418
 40
8.3222326987137
 40
8.479564855016386
 40
8.63521623029059
 40
8.790882550925508
 40
8.948305154947073
 40
9.168271839032762
 40
9.387358980987035
 40
9.608047961033279
 40
9.83291423479248
 40
9.858338694962814
 40
9.925366817229822
 40
10.02013071422741
 40
10.12876249858979
 40
10.2373942829523
 40
10.33215817995172
 40
10.39918630222375
 40
10.42461076239764
 40
10.64992019336924
 40
10.87188524531169
 40
10.87188524531169
 40
10.87188524531169
 40
10.87188524531169
 10
179.9057788376618
 20
15.7392326039819
 10
179.9092864933542
 20
15.80616462073804
 10
179.9163033987663
 20
15.94005891915859
 10
179.8198027599073
 20
16.22548554971471
 10
180.0510134726109
 20
16.16284386190284
 10
180.1919290057156
 20
16.1700155405599
 10
180.3490417757588
 20
16.16235883078245
 10
180.5025913427288
 20
16.16252752283039
 10
180.6545104935081
 20
16.16182040535433
 10
180.8142214813232
 20
16.17210158351638
 10
180.9408972601117
 20
16.15496511080751
 10
181.1370821122081
 20
16.22727260107147
 10
181.1034395279078
 20
16.12640699080116
 10
181.1052011317185
 20
16.07619253947671
 10
181.1027342073458
 20
16.02712335586466
 10
181.1347076966011
 20
15.94063490846999
 10
181.0010399903255
 20
15.98997438608339
 10
180.9172208688057
 20
15.98430634314168
 10
180.8173861139324
 20
15.99465516706299
 10
180.7186576720146
 20
16.00086450411088
 10
180.6121532771111
 20
16.00697763816777
 10
180.4910511698059
 20
16.01588883484585
 10
180.3703381502454
 20
16.00521605912383
 10
180.1812553843436
 20
16.06468503080369
 10
180.2129028505312
 20
15.9055832007754
 10
180.1995563316833
 20
15.80839128339903
 10
180.1974958426449
 20
15.69634065110104
 10
180.195818804467
 20
15.57699685629351
 10
180.1973336794233
 20
15.45032592155111
 10
180.1956582478668
 20
15.32301588016118
 10
180.2058844271657
 20
15.22451566404465
 10
180.1779006596582
 20
15.0838870262563
 10
180.3508029999304
 20
15.13989551134095
 10
180.4645020202772
 20
15.12719951478498
 10
180.5840151672239
 20
15.13448377051256
 10
180.6888491425072
 20
15.13878017056757
 10
180.7843084898611
 20
15.14330568258977
 10
180.8763823507032
 20
15.151492011462
 10
180.9476551782438
 20
15.1464385063811
 10
181.0544931705684
 20
15.18536425031673
 10
181.0226603598036
 20
15.10517122005878
 10
181.026616450393
 20
15.05562936846033
 10
181.0234502392013
 20
15.0055747803982
 10
181.0550791490583
 20
14.92128847612025
 10
180.9210133677691
 20
14.97425365495159
 10
180.82923227932
 20
14.96540080890442
 10
180.7079729189603
 20
14.97570049965154
 10
180.5914113119772
 20
14.97748911767504
 10
180.4783375745879
 20
14.97787017109695
 10
180.3679246308471
 20
14.9841544947218
 10
180.289812406784
 20
14.97189133255364
 10
180.1913625833644
 20
15.00453887616128
 10
180.2012355173561
 20
14.94769748054206
 10
180.1973923244402
 20
14.91392130557985
 10
180.1966789884269
 20
14.8711960470941
 10
180.1963369642976
 20
14.83401607262154
 10
180.1963834255345
 20
14.7948723737077
 10
180.1963649429927
 20
14.75716849497686
 10
180.1963703431807
 20
14.71944955232403
 10
180.19636972142
 20
14.6899432474515
 10
180.1963698151545
 20
14.65873577699302
 10
180.1963704287921
 20
14.61414424908085
 10
180.1963671499336
 20
14.55963956508851
 10
180.196375962348
 20
14.51505540201448
 10
180.1963359653418
 20
14.4311780858574
 10
180.1976024270256
 20
14.31737520677678
 10
180.195027411784
 20
14.16830395933709
 10
180.206500938172
 20
14.06597203813906
 10
180.1823506222263
 20
13.93338903885834
 10
180.3332993946476
 20
13.9789573227202
 10
180.4428436671554
 20
13.96427012162348
 10
180.573397047392
 20
13.96920435125063
 10
180.6990312209513
 20
13.97257705323361
 10
180.8188730625601
 20
13.97711497498773
 10
180.9391362611426
 20
13.99048536182006
 10
181.0222761663514
 20
13.98068712782593
 10
181.1456080421074
 20
14.04126214623318
 10
181.1244269203956
 20
13.98532460134022
 10
181.1235950270114
 20
13.95939249372346
 10
181.1218963707558
 20
13.9319725619094
 10
181.1217974888829
 20
13.89738195206385
 10
181.1203659301329
 20
13.86050408220767
 10
181.153280419219
 20
13.76846841021806
 10
180.9551306988107
 20
13.84132015974832
 10
180.830054829489
 20
13.81825726508605
 10
180.6673071295156
 20
13.82454021985786
 10
180.5129366450001
 20
13.82260943909926
 10
180.3566670436944
 20
13.82393762599268
 10
180.1970544465282
 20
13.82059872487862
 10
180.0540326342237
 20
13.8326579572824
 10
179.8197144881628
 20
13.76952001976918
 10
179.9173810751197
 20
14.05620527466317
 10
179.9006868780058
 20
14.2498830814266
 10
179.9146296709686
 20
14.47848242880295
 10
179.9142987846633
 20
14.63384593955048
 10
179.9143078119263
 20
14.73966336444126
 10
179.9143055876316
 20
14.80205784124214
 10
179.9143065551888
 20
14.89220425248327
 10
179.9143065473261
 20
14.99621167157438
 10
179.9143053861102
 20
15.10022131375296
 10
179.9143090971502
 20
15.19036243688768
 10
179.9143011051051
 20
15.25276803097215
 10
179.9143334275018
 20
15.35868835961119
 10
179.913144078832
 20
15.5162671654474
 10
179.9082216489256
 20
15.66528219822066
 10
179.9057788376618
 20
15.7392326039819
 97
        1
330
B0
 75
     1
 76
     2
 52
45.0
 41
0.1
 77
     0
 78
     1
 53
45.0
 43
0.0
 44
0.0
 45
-0.282842712474619
 46
0.0
 79
     0
 98
        1
 10
0.0
 20
0.0
  0
HATCH
  5
CE
330
48
100
AcDbEntity
  8
1
  6
Continuous
 62
     2
100
AcDbHatch
 10
0.0
 20
0.0
 30
0.0
210
0.0
220
0.0
230
1.0
  2
CUSTOM12
 70
     0
 71
     1
 91
        1
 92
        1
 93
        1
 72
     4
 94
        3
 73
     0
 74
     0
 95
       95
 96
       91
 40
0.0
 40
0.0
 40
0.0
 40
0.0
 40
0.6550406656911172
 40
1.308087289031889
 40
1.420803739835768
 40
1.566130759770773
 40
1.757067341888433
 40
2.006513545026432
 40
2.087328263121526
 40
2.185328872295602
 40
2.294612454748342
 40
2.408936380534775
 40
2.526802767798535
 40
2.646360524615573
 40
2.762535723971558
 40
2.870057342870133
 40
2.966883448431624
 40
3.050803243518271
 40
3.115818222436584
 40
3.156030057150219
 40
3.213914225080121
 40
3.276689026450437
 40
3.342960320981299
 40
3.404230667150548
 40
3.453822809493361
 40
3.532499827188422
 40
3.634775188507154
 40
3.754909333008152
 40
3.88973676166065
 40
4.035769602175217
 40
4.187256681197604
 40
4.338733685675957
 40
4.488478734676117
 40
4.63470831783158
 40
4.771493189921268
 40
4.892686571561214
 40
5.199775528944448
 40
5.460353566929631
 40
5.667603142345506
 40
5.814722905404484
 40
5.82899080621981
 40
5.855488336304422
 40
5.869756237118725
 40
6.189796507762763
 40
6.53189046987291
 40
6.883053637016948
 40
7.230512024911318
 40
7.566966656764524
 40
7.885203559707252
 40
8.172887439719075
 40
8.418011594062666
 40
8.443926721190588
 40
8.510760470613075
 40
8.602145393795585
 40
8.701714041647023
 40
8.793098965075256
 40
8.859932715057829
 40
8.885847842603477
 40
9.242301256612688
 40
9.589275455016647
 40
9.921808543164046
 40
10.23479624298454
 40
10.29968150889154
 40
10.35323493887734
 40
10.40154625355121
 40
10.46482922477802
 40
10.55973900668382
 40
10.69239545985596
 40
10.84920353475649
 40
11.01626328594758
 40
11.18672024367421
 40
11.35372582577188
 40
11.50257442292404
 40
11.61866495023268
 40
11.71329869152852
 40
11.82511050573884
 40
11.94464880845693
 40
12.06929242642484
 40
12.19707290435153
 40
12.32562632860505
 40
12.45034565331256
 40
12.56646595170305
 40
12.67099007414612
 40
12.7607762593676
 40
12.82703233506672
 40
12.87429132785971
 40
12.8983199032331
 40
12.92234847859998
 40
13.53984767410296
 40
14.18294284359349
 40
14.18294284359349
 40
14.18294284359349
 40
14.18294284359349
 10
177.306793564802
 20
14.70898038201724
 10
177.175201975855
 20
14.82265058603232
 10
176.9124193802729
 20
15.04964496316158
 10
176.3997393441019
 20
15.89214462956288
 10
176.4106654595363
 20
15.5342337757702
 10
176.4041226527989
 20
15.39267392272133
 10
176.4028026631773
 20
15.1942130529928
 10
176.4018117602538
 20
15.02150296045982
 10
176.4024101751974
 20
14.8786537325758
 10
176.4038994301882
 20
14.78265005413358
 10
176.4055683588472
 20
14.67545503263142
 10
176.4071934954616
 20
14.56164211517582
 10
176.4092429501686
 20
14.4444157260459
 10
176.4123165501927
 20
14.3265641123297
 10
176.4156339697042
 20
14.2122808732062
 10
176.419360534028
 20
14.10521401867276
 10
176.4217338161424
 20
14.01007408766921
 10
176.4278718888357
 20
13.92558557205695
 10
176.4239784495946
 20
13.86923087298141
 10
176.4455230443077
 20
13.79825022472355
 10
176.3680940058618
 20
13.82902677604482
 10
176.3116353240191
 20
13.82011242517613
 10
176.2540495896807
 20
13.82896218398276
 10
176.1690163478473
 20
13.79738225225945
 10
176.2009714146382
 20
13.88095155992191
 10
176.199070528254
 20
13.94882608968308
 10
176.2107960047299
 20
14.05233256764419
 10
176.2164241053001
 20
14.17002125616694
 10
176.223790217894
 20
14.30388609164423
 10
176.2320759701611
 20
14.44764152872632
 10
176.2398851897426
 20
14.59714022843444
 10
176.2457571222657
 20
14.74792549402079
 10
176.2503667817969
 20
14.89699943878438
 10
176.2542632117544
 20
15.04122913163022
 10
176.2570715126564
 20
15.17583905213018
 10
176.2576698755023
 20
15.36469614347355
 10
176.2616023867151
 20
15.58975494313154
 10
176.2442175378498
 20
15.86367091125707
 10
176.2850417342583
 20
16.02787112098598
 10
176.1995153256002
 20
16.22749661465095
 10
176.2660558907689
 20
16.22385458403978
 10
176.2838724273231
 20
16.22413447160854
 10
176.4056801797503
 20
16.22632927398616
 10
176.5080770335463
 20
15.94675118721518
 10
176.7580021509356
 20
15.74563008535998
 10
176.9870035331111
 20
15.47792614987925
 10
177.2245151213108
 20
15.22646413862365
 10
177.4486090740773
 20
14.9896997406137
 10
177.6750716283008
 20
14.73218692583074
 10
177.8325687886514
 20
14.61649335056922
 10
178.0472129612673
 20
14.27997152538792
 10
178.0422645974619
 20
14.40464754091605
 10
178.0433931602546
 20
14.46327691935738
 10
178.0428877841517
 20
14.55043662371978
 10
178.0430475158114
 20
14.64416143182873
 10
178.0430054891318
 20
14.73018971297035
 10
178.0430202040372
 20
14.79153891945496
 10
178.0429706255986
 20
14.94135231520995
 10
178.045881152281
 20
15.17989612510104
 10
178.0259521041161
 20
15.54486509868703
 10
178.0750433936248
 20
15.80799631993409
 10
177.9177951509181
 20
16.21928904947753
 10
178.0762112872421
 20
16.16398282551748
 10
178.1311680478628
 20
16.16199686500175
 10
178.182788776674
 20
16.16264778248252
 10
178.2713198965366
 20
16.20369527738247
 10
178.2204898303169
 20
16.05696326622987
 10
178.2313389930282
 20
15.95019971954434
 10
178.2166036994848
 20
15.7908570541411
 10
178.2099976446203
 20
15.62853061652875
 10
178.2014961399913
 20
15.45992521892395
 10
178.1943227202198
 20
15.29814814703541
 10
178.1889063215389
 20
15.15422331457932
 10
178.1871713967649
 20
15.03437493466925
 10
178.1875440672319
 20
14.92686101590515
 10
178.1873656126264
 20
14.81820024645586
 10
178.187701086314
 20
14.69953570165531
 10
178.1890040622185
 20
14.57555163512741
 10
178.1908887351574
 20
14.44858294171105
 10
178.1925004454849
 20
14.32153861551032
 10
178.1941403137431
 20
14.19854884492178
 10
178.1962570745751
 20
14.08300931383759
 10
178.1963848422364
 20
13.98090903955837
 10
178.2006514396554
 20
13.89009848838156
 10
178.1908440085289
 20
13.83213621208786
 10
178.2118474771689
 20
13.76517130132029
 10
178.1725639739897
 20
13.77291153966688
 10
177.9595307117744
 20
13.75755254145193
 10
177.7636297943188
 20
14.31403058094475
 10
177.4611197631544
 20
14.57556035348511
 10
177.306793564802
 20
14.70898038201724
 97
        1
330
B1
 75
     1
 76
     2
 52
45.0
 41
0.1
 77
     0
 78
     1
 53
45.0
 43
0.0
 44
0.0
 45
-0.282842712474619
 46
0.0
 79
     0
 98
        1
 10
0.0
 20
0.0
  0
HATCH
  5
CF
330
48
100
AcDbEntity
  8
1
  6
Continuous
 62
     2
100
AcDbHatch
 10
0.0
 20
0.0
 30
0.0
210
0.0
220
0.0
230
1.0
  2
CUSTOM13
 70
     0
 71
     1
 91
        2
 92
        1
 93
        1
 72
     4
 94
        3
 73
     0
 74
     0
 95
       57
 96
       53
 40
0.0
 40
0.0
 40
0.0
 40
0.0
 40
0.0471632082809517
 40
0.0914861054633003
 40
0.135776251970267
 40
0.1826527001611534
 40
0.2295203288573442
 40
0.2737751972220475
 40
0.3181310461544204
 40
0.3652607198398515
 40
0.4571007286314697
 40
0.5671851029165469
 40
0.6894623283868622
 40
0.8181758272546241
 40
0.951008722927448
 40
1.085852229674051
 40
1.218126164475323
 40
1.34354513114241
 40
1.454537202956827
 40
1.567187607530836
 40
1.680710966642483
 40
1.794226869736819
 40
1.900009184247618
 40
2.004085860447812
 40
2.108162674451786
 40
2.214000150155245
 40
2.496038577352108
 40
2.762350745479242
 40
2.997275353279373
 40
3.185110082137706
 40
3.246407890063876
 40
3.312607550212749
 40
3.378877742711595
 40
3.44014039965142
 40
4.100501696006446
 40
4.754913085563497
 40
5.411331693423915
 40
6.077890432568684
 40
6.110575292670963
 40
6.143260152775743
 40
6.36798936339511
 40
6.610525374951532
 40
6.863389136467299
 40
7.119380025547534
 40
7.376036605091088
 40
7.631164770966238
 40
7.876722425456417
 40
8.104953735855986
 40
8.312916685924288
 40
8.497730294941308
 40
8.651018984313838
 40
8.764738853624603
 40
8.764738853624603
 40
8.764738853624603
 40
8.764738853624603
 10
174.7922649500514
 20
13.81626739612927
 10
174.7766616726931
 20
13.81826231079078
 10
174.7463947960303
 20
13.82213201360299
 10
174.7010994202253
 20
13.82341984967268
 10
174.6559553129349
 20
13.8230868355405
 10
174.60990171234
 20
13.82314658674224
 10
174.5640496172096
 20
13.8232581365
 10
174.5183711648165
 20
13.8227783345659
 10
174.4750811541608
 20
13.82461109618722
 10
174.4039947951514
 20
13.8004955681466
 10
174.4057477261441
 20
13.92184693977252
 10
174.3586196370569
 20
14.00726239751232
 10
174.3191478251761
 20
14.12486929345135
 10
174.2706635532645
 20
14.2423275254044
 10
174.2201017402521
 20
14.36405935761505
 10
174.1718634610478
 20
14.49075967862469
 10
174.1135232947595
 20
14.59933687784953
 10
174.0980892667261
 20
14.75620657134409
 10
173.9566586330635
 20
14.72373446548323
 10
173.8508397414903
 20
14.73512888682181
 10
173.7358569725222
 20
14.73392591514616
 10
173.6253142252141
 20
14.73506945347407
 10
173.5176583522783
 20
14.73418350037527
 10
173.4121322529243
 20
14.73416602390519
 10
173.3109192682013
 20
14.72714032472416
 10
173.1266804827754
 20
14.75135859859864
 10
173.115739368541
 20
14.44741691121887
 10
173.008769163475
 20
14.22353177253398
 10
172.9098148604347
 20
14.03895314292497
 10
172.9225090524007
 20
13.79530204804207
 10
172.8050091716397
 20
13.82508046753198
 10
172.742205586831
 20
13.82258089509603
 10
172.6785872093399
 20
13.82344075102804
 10
172.3946014194076
 20
13.78098039941945
 10
173.0251638499381
 20
14.50081952444787
 10
173.1087645289071
 20
15.0127653943573
 10
173.4929252789339
 20
15.5335374355004
 10
173.4777208288567
 20
16.23519626253216
 10
173.7239265722696
 20
16.22345633081256
 10
173.8256346157562
 20
16.23225004452773
 10
173.8249752035816
 20
15.98059650730343
 10
173.9428317155828
 20
15.79818020733958
 10
174.0315515260485
 20
15.55563740662871
 10
174.1322292485257
 20
15.32340030530119
 10
174.2311142712244
 20
15.08674644566922
 10
174.3299676990667
 20
14.85461739170086
 10
174.4256166390926
 20
14.6312222278879
 10
174.5159904573273
 20
14.4227254904932
 10
174.5989944568188
 20
14.23308448529316
 10
174.67260885828
 20
14.06663106068104
 10
174.7342815895545
 20
13.92917699626095
 10
174.7749458885604
 20
13.84999239430033
 10
174.7922649500514
 20
13.81626739612927
 97
        1
330
B3
 92
       16
 93
        1
 72
     4
 94
        3
 73
     0
 74
     0
 95
       25
 96
       21
 40
0.0
 40
0.0
 40
0.0
 40
0.0
 40
0.0911479969064253
 40
0.1858117896202961
 40
0.280412839973307
 40
0.3715889190713658
 40
0.4679080494217855
 40
0.5642683809228378
 40
0.6605683222643856
 40
0.7569653015809403
 40
0.8561348172521887
 40
1.092615965104196
 40
1.374867658141778
 40
1.61134881201147
 40
1.71051832842513
 40
1.809403163726437
 40
2.045205463293962
 40
2.326646917622011
 40
2.562449217190484
 40
2.661334043833792
 40
2.661334043833792
 40
2.661334043833792
 40
2.661334043833792
 10
173.26837005672
 20
14.88614538197292
 10
173.2987525917923
 20
14.88598079714554
 10
173.3606895889112
 20
14.88564528689921
 10
173.454135696033
 20
14.88269055452
 10
173.5475095236357
 20
14.87977752877151
 10
173.6417760753476
 20
14.87894201643416
 10
173.7354964790967
 20
14.87996644658047
 10
173.8352040303204
 20
14.87916977470971
 10
173.9188949546312
 20
14.8892141023522
 10
174.0637996315045
 20
14.86234617674164
 10
173.9396132444801
 20
15.03665530280048
 10
173.8965867286282
 20
15.19651711006092
 10
173.780892214221
 20
15.45518458550213
 10
173.7017565431258
 20
15.5923105286186
 10
173.6431576621816
 20
15.80937033134077
 10
173.586480393944
 20
15.59266134213426
 10
173.5052809900477
 20
15.45327012438239
 10
173.4063701281489
 20
15.20406969370192
 10
173.3253625094259
 20
15.01925830226075
 10
173.2813683325839
 20
14.91650446856117
 10
173.26837005672
 20
14.88614538197292
 97
        1
330
B2
 75
     1
 76
     2
 52
45.0
 41
0.1
 77
     0
 78
     1
 53
45.0
 43
0.0
 44
0.0
 45
-0.282842712474619
 46
0.0
 79
     0
 98
        1
 10
0.0
 20
0.0
  0
HATCH
  5
D0
330
48
100
AcDbEntity
  8
1
  6
Continuous
 62
     2
100
AcDbHatch
 10
0.0
 20
0.0
 30
0.0
210
0.0
220
0.0
230
1.0
  2
CUSTOM14
 70
     0
 71
     1
 91
        1
 92
        1
 93
        1
 72
     4
 94
        3
 73
     0
 74
     0
 95
       99
 96
       95
 40
0.0
 40
0.0
 40
0.0
 40
0.0
 40
0.0796417172272426
 40
0.1621768542355948
 40
0.2486489160957173
 40
0.3404969668524657
 40
0.438191251116468
 40
0.5434463660244981
 40
0.6518115192846736
 40
0.7530190937886847
 40
0.8492196919725633
 40
0.9419290312998231
 40
1.034249663570082
 40
1.129078600620208
 40
1.226697027573269
 40
1.327220425421726
 40
1.470572134938044
 40
1.595489863371241
 40
1.719934125348381
 40
1.850576620127445
 40
1.989059629987335
 40
2.134139054226849
 40
2.28069800720727
 40
2.424529739039516
 40
2.565929576985836
 40
2.708239260773569
 40
2.861717887443678
 40
3.04516854034739
 40
3.18379830113863
 40
3.314813961455461
 40
3.44208347044736
 40
3.569912708373075
 40
3.702177512509384
 40
3.842307559659629
 40
3.992872223245976
 40
4.156750662218252
 40
4.310981861107501
 40
4.4458599093226
 40
4.57239393613162
 40
4.701656719781999
 40
4.768279086008484
 40
4.835960697898432
 40
4.912788918729372
 40
5.006285208481541
 40
5.026909478751675
 40
5.047533749021296
 40
5.101808031471369
 40
5.162325165538658
 40
5.226919745995967
 40
5.294231806596861
 40
5.364544852555009
 40
5.438319055468055
 40
5.517877651324389
 40
5.607647714861701
 40
5.700449642544519
 40
5.788251142364195
 40
5.872714706039908
 40
5.955167292575489
 40
6.037192395190508
 40
6.12066918146921
 40
6.206848616686472
 40
6.296680855416895
 40
6.442558392872714
 40
6.568190371608423
 40
6.692904567360473
 40
6.824220446557278
 40
6.963121850329464
 40
7.107843738851225
 40
7.253431663907388
 40
7.395187468036837
 40
7.533140753237864
 40
7.670550457175369
 40
7.816236511769388
 40
7.987691657359352
 40
8.142277421969396
 40
8.293662615415117
 40
8.442962460879397
 40
8.591598316185486
 40
8.743678992361911
 40
8.903725323699266
 40
9.076307008890698
 40
9.265578604680753
 40
9.459203795360871
 40
9.617619810273796
 40
9.753609671362101
 40
9.874873300004255
 40
9.954520184977948
 40
10.02416413719264
 40
10.09769764405463
 40
10.18909955924992
 40
10.20974586420148
 40
10.23039218263387
 40
10.30057101881272
 40
10.37632012987554
 40
10.37632012987554
 40
10.37632012987554
 40
10.37632012987554
 10
170.1465954835851
 20
14.13795663215994
 10
170.1632217851219
 20
14.11720608845313
 10
170.1970784206577
 20
14.07495111711902
 10
170.2599822541036
 20
14.02029811392075
 10
170.3332500940392
 20
13.97299025121047
 10
170.4175969238636
 20
13.93527231437937
 10
170.513224061546
 20
13.91040619731951
 10
170.6171853775346
 20
13.90309559345937
 10
170.7224020220405
 20
13.91142322794054
 10
170.8206626371334
 20
13.94149179651529
 10
170.9058986427548
 20
13.98848822971872
 10
170.9779220206103
 20
14.04952991250862
 10
171.0350917709097
 20
14.12412969578579
 10
171.0767868747439
 20
14.21002464660177
 10
171.1026952846293
 20
14.30485850432209
 10
171.1118037332653
 20
14.41854979038368
 10
171.0986864796486
 20
14.54332587770778
 10
171.0325330334414
 20
14.66014719171891
 10
170.9369370919569
 20
14.74512539577376
 10
170.8249681022369
 20
14.81416684459159
 10
170.699365958327
 20
14.87204142045887
 10
170.5656691620857
 20
14.92373723284346
 10
170.431312281883
 20
14.97899092397177
 10
170.3051983986877
 20
15.0493977064165
 10
170.1926579987535
 20
15.13785540731254
 10
170.0969963064458
 20
15.2498106786847
 10
170.0334157151826
 20
15.39949910101384
 10
170.0200706505015
 20
15.55932794385141
 10
170.0320510987449
 20
15.71048405306844
 10
170.0712298928839
 20
15.83809244591543
 10
170.1354987750911
 20
15.95080874030845
 10
170.2238204999741
 20
16.04648609268679
 10
170.3338091207628
 20
16.1235421498576
 10
170.4632284401265
 20
16.18151396936275
 10
170.6111838967793
 20
16.21739177588822
 10
170.7682069455486
 20
16.22746719050564
 10
170.917494046643
 20
16.2186363776259
 10
171.059625361417
 20
16.19074899340354
 10
171.1595922609625
 20
16.1341331470114
 10
171.3125074736184
 20
16.08674602105506
 10
171.2455131717168
 20
16.00197553001185
 10
171.2296479120269
 20
15.93438901873483
 10
171.1978750531295
 20
15.86926092793193
 10
171.2150202209573
 20
15.7672345325695
 10
171.1666427208232
 20
15.77493211681902
 10
171.1315789440767
 20
15.76806771724806
 10
171.1296697985718
 20
15.83263831158195
 10
171.0985692931989
 20
15.87825639621395
 10
171.0664551628456
 20
15.93561036628457
 10
171.0208038475168
 20
15.98540462692559
 10
170.9658508218386
 20
16.02994813718996
 10
170.9010841173007
 20
16.06763988836551
 10
170.8232377310597
 20
16.09283375791352
 10
170.7355160553352
 20
16.09931230998112
 10
170.6452903277807
 20
16.09235709285609
 10
170.5594594694065
 20
16.0690919046092
 10
170.4828343638596
 20
16.03131644107543
 10
170.41652656362
 20
15.9805164108958
 10
170.3622560536964
 20
15.91731143407207
 10
170.322492534546
 20
15.84276455710365
 10
170.2976775510588
 20
15.75917313997765
 10
170.289212426287
 20
15.65192948382285
 10
170.3019697987102
 20
15.52965457267557
 10
170.3681548409273
 20
15.41149724291213
 10
170.4640977399832
 20
15.32606325709526
 10
170.5757914963182
 20
15.25583362306724
 10
170.7010863668701
 20
15.19659162305302
 10
170.8349823941446
 20
15.1461670808613
 10
170.968993033315
 20
15.09322516984383
 10
171.0950885316915
 20
15.02750170625177
 10
171.2076216638417
 20
14.9448035253732
 10
171.3031370284233
 20
14.83996006310076
 10
171.3672706486962
 20
14.6993711725157
 10
171.3811103725279
 20
14.54065409451592
 10
171.3673954712229
 20
14.38153155217879
 10
171.3244739153986
 20
14.23483828819207
 10
171.2545906329066
 20
14.10119796587141
 10
171.1574592213829
 20
13.98532387699295
 10
171.0347806023658
 20
13.89089981770086
 10
170.8874408413168
 20
13.8217927065198
 10
170.7177132497125
 20
13.77953210858854
 10
170.5317404979596
 20
13.76781736230406
 10
170.3528955926183
 20
13.7780948668344
 10
170.1881733753743
 20
13.8196657376915
 10
170.0834410841056
 20
13.88797642883942
 10
169.9350960790365
 20
13.93675219032107
 10
169.9980378194729
 20
14.02976591290843
 10
170.0072274430061
 20
14.10296536248278
 10
170.0303711301231
 20
14.16936294501348
 10
170.0034588335318
 20
14.2697480952758
 10
170.0521338956339
 20
14.2623403351738
 10
170.0916530580697
 20
14.26894063620894
 10
170.0996204944701
 20
14.1907870321893
 10
170.1305436967923
 20
14.15600927375856
 10
170.1465954835851
 20
14.13795663215994
 97
        1
330
B4
 75
     1
 76
     2
 52
45.0
 41
0.1
 77
     0
 78
     1
 53
45.0
 43
0.0
 44
0.0
 45
-0.282842712474619
 46
0.0
 79
     0
 98
        1
 10
0.0
 20
0.0
  0
ENDBLK
  5
4A
330
48
100
AcDbEntity
  8
0
100
AcDbBlockEnd
  0
BLOCK
  5
4D
330
4B
100
AcDbEntity
  8
0
100
AcDbBlockBegin
  2
開示A4枠
 70
     0
 10
0.0
 20
0.0
 30
0.0
  3
開示A4枠
  1

  0
INSERT
  5
4C
330
4B
100
AcDbEntity
  8
1
100
AcDbBlockReference
  2
開示A4
 10
0.0
 20
0.0
 30
0.0
  0
ENDBLK
  5
4E
330
4B
100
AcDbEntity
  8
0
100
AcDbBlockEnd
  0
BLOCK
  5
50
330
4F
100
AcDbEntity
  8
0
100
AcDbBlockBegin
  2
T2010-20X13
 70
     0
 10
96.91154273187955
 20
97.52107879824928
 30
0.0
  3
T2010-20X13
  1

  0
LINE
  5
D1
330
4F
100
AcDbEntity
  8
0
  6
Continuous
 62
     7
100
AcDbLine
 10
104.7057713659394
 20
187.8893010960753
 30
0.0
 11
120.2942286340594
 21
187.8893010960753
 31
0.0
  0
LINE
  5
D2
330
4F
100
AcDbEntity
  8
0
  6
Continuous
 62
     7
100
AcDbLine
 10
120.2942286340594
 20
187.8893010960753
 30
0.0
 11
128.0884572681194
 21
201.3893010960753
 31
0.0
  0
LINE
  5
D3
330
4F
100
AcDbEntity
  8
0
  6
Continuous
 62
     7
100
AcDbLine
 10
128.0884572681194
 20
201.3893010960753
 30
0.0
 11
120.2942286340594
 21
214.8893010960753
 31
0.0
  0
LINE
  5
D4
330
4F
100
AcDbEntity
  8
0
  6
Continuous
 62
     7
100
AcDbLine
 10
120.2942286340594
 20
214.8893010960753
 30
0.0
 11
104.7057713659394
 21
214.8893010960753
 31
0.0
  0
LINE
  5
D5
330
4F
100
AcDbEntity
  8
0
  6
Continuous
 62
     7
100
AcDbLine
 10
104.7057713659394
 20
214.8893010960753
 30
0.0
 11
96.91154273187955
 21
201.3893010960753
 31
0.0
  0
LINE
  5
D6
330
4F
100
AcDbEntity
  8
0
  6
Continuous
 62
     7
100
AcDbLine
 10
96.91154273187955
 20
201.3893010960753
 30
0.0
 11
104.7057713659394
 21
187.8893010960753
 31
0.0
  0
LINE
  5
D7
330
4F
100
AcDbEntity
  8
0
  6
Continuous
 62
     7
100
AcDbLine
 10
98.99999999999945
 20
116.5210787982493
 30
0.0
 11
96.91154273187955
 21
115.3153074323093
 31
0.0
  0
LINE
  5
D8
330
4F
100
AcDbEntity
  8
0
  6
Continuous
 62
     7
100
AcDbLine
 10
98.99999999999945
 20
110.5210787982493
 30
0.0
 11
96.91154273187955
 21
111.7268501641894
 31
0.0
  0
LINE
  5
D9
330
4F
100
AcDbEntity
  8
0
  6
Continuous
 62
     7
100
AcDbLine
 10
96.91154273187955
 20
111.7268501641894
 30
0.0
 11
96.91154273187955
 21
115.3153074323093
 31
0.0
  0
LINE
  5
DA
330
4F
100
AcDbEntity
  8
0
  6
Continuous
 62
     7
100
AcDbLine
 10
98.99999999999945
 20
116.5210787982493
 30
0.0
 11
125.9999999999995
 21
116.5210787982493
 31
0.0
  0
LINE
  5
DB
330
4F
100
AcDbEntity
  8
0
  6
Continuous
 62
     7
100
AcDbLine
 10
98.99999999999945
 20
110.5210787982493
 30
0.0
 11
125.9999999999995
 21
110.5210787982493
 31
0.0
  0
LINE
  5
DC
330
4F
100
AcDbEntity
  8
0
  6
Continuous
 62
     7
100
AcDbLine
 10
104.7057713659394
 20
111.7268501641894
 30
0.0
 11
104.7057713659394
 21
115.3153074323093
 31
0.0
  0
LINE
  5
DD
330
4F
100
AcDbEntity
  8
0
  6
Continuous
 62
     2
100
AcDbLine
 10
102.9059739234492
 20
108.689913247857
 30
0.0
 11
103.2388709677414
 21
98.03720783050738
 31
0.0
  0
LINE
  5
DE
330
4F
100
AcDbEntity
  8
0
  6
Continuous
 62
     7
100
AcDbLine
 10
101.8487499999994
 20
110.5210787982493
 30
0.0
 11
101.9059739234492
 21
108.689913247857
 31
0.0
  0
LINE
  5
DF
330
4F
100
AcDbEntity
  8
0
  6
Continuous
 62
     2
100
AcDbLine
 10
102.9059739234492
 20
108.689913247857
 30
0.0
 11
101.8487499999994
 21
110.5210787982493
 31
0.0
  0
LINE
  5
E0
330
4F
100
AcDbEntity
  8
0
  6
Continuous
 62
     7
100
AcDbLine
 10
103.2388709677414
 20
98.03720783050738
 30
0.0
 11
103.7549999999994
 21
97.52107879824928
 31
0.0
  0
LINE
  5
E1
330
4F
100
AcDbEntity
  8
0
  6
Continuous
 62
     7
100
AcDbLine
 10
102.2066129032253
 20
99.06946589502348
 30
0.0
 11
103.2388709677414
 21
98.03720783050738
 31
0.0
  0
LINE
  5
E2
330
4F
100
AcDbEntity
  8
0
  6
Continuous
 62
     7
100
AcDbLine
 10
98.99999999999945
 20
116.5210787982493
 30
0.0
 11
100.9999999999995
 21
116.5210787982493
 31
0.0
  0
LINE
  5
E3
330
4F
100
AcDbEntity
  8
0
  6
Continuous
 62
     7
100
AcDbLine
 10
100.9999999999995
 20
116.5210787982493
 30
0.0
 11
100.9999999999995
 21
119.5210787982493
 31
0.0
  0
LINE
  5
E4
330
4F
100
AcDbEntity
  8
0
  6
Continuous
 62
     7
100
AcDbLine
 10
99.99999999999945
 20
129.0210787982493
 30
0.0
 11
98.99999999999945
 21
128.0210787982493
 31
0.0
  0
LINE
  5
E5
330
4F
100
AcDbEntity
  8
0
  6
Continuous
 62
     7
100
AcDbLine
 10
99.99999999999945
 20
120.0984290674389
 30
0.0
 11
100.9999999999995
 21
119.5210787982493
 31
0.0
  0
LINE
  5
E6
330
4F
100
AcDbEntity
  8
0
  6
Continuous
 62
     7
100
AcDbLine
 10
98.99999999999945
 20
128.0210787982493
 30
0.0
 11
98.99999999999945
 21
120.6757793366286
 31
0.0
  0
LINE
  5
E7
330
4F
100
AcDbEntity
  8
0
  6
Continuous
 62
     7
100
AcDbLine
 10
100.4999999999995
 20
129.5210787982493
 30
0.0
 11
99.99999999999945
 21
129.0210787982493
 31
0.0
  0
LINE
  5
E8
330
4F
100
AcDbEntity
  8
0
  6
Continuous
 62
     2
100
AcDbLine
 10
99.99999999999945
 20
129.0210787982493
 30
0.0
 11
99.99999999999945
 21
120.0984290674389
 31
0.0
  0
LINE
  5
E9
330
4F
100
AcDbEntity
  8
0
  6
Continuous
 62
     7
100
AcDbLine
 10
98.99999999999945
 20
120.6757793366286
 30
0.0
 11
99.99999999999945
 21
120.0984290674389
 31
0.0
  0
LINE
  5
EA
330
4F
100
AcDbEntity
  8
0
  6
Continuous
 62
     7
100
AcDbLine
 10
124.4999999999995
 20
129.5210787982493
 30
0.0
 11
100.4999999999995
 21
129.5210787982493
 31
0.0
  0
LINE
  5
EB
330
4F
100
AcDbEntity
  8
0
  6
Continuous
 62
     7
100
AcDbLine
 10
98.99999999999945
 20
128.0210787982493
 30
0.0
 11
125.9999999999995
 21
128.0210787982493
 31
0.0
  0
LINE
  5
EC
330
4F
100
AcDbEntity
  8
0
  6
Continuous
 62
     7
100
AcDbLine
 10
98.99999999999945
 20
120.6757793366286
 30
0.0
 11
125.9999999999995
 21
120.6757793366286
 31
0.0
  0
LINE
  5
ED
330
4F
100
AcDbEntity
  8
0
  6
Continuous
 62
     7
100
AcDbLine
 10
100.9999999999995
 20
119.5210787982493
 30
0.0
 11
123.9999999999995
 21
119.5210787982493
 31
0.0
  0
LINE
  5
EE
330
4F
100
AcDbEntity
  8
0
  6
Continuous
 62
     7
100
AcDbLine
 10
101.9059739234492
 20
108.689913247857
 30
0.0
 11
102.2066129032253
 21
99.06946589502348
 31
0.0
  0
LINE
  5
EF
330
4F
100
AcDbEntity
  8
0
  6
Continuous
 62
     7
100
AcDbLine
 10
102.2066129032253
 20
99.06946589502348
 30
0.0
 11
122.7933870967736
 21
99.06946589502348
 31
0.0
  0
LINE
  5
F0
330
4F
100
AcDbEntity
  8
0
  6
Continuous
 62
     7
100
AcDbLine
 10
128.0884572681194
 20
115.3153074323093
 30
0.0
 11
125.9999999999995
 21
116.5210787982493
 31
0.0
  0
LINE
  5
F1
330
4F
100
AcDbEntity
  8
0
  6
Continuous
 62
     7
100
AcDbLine
 10
128.0884572681194
 20
111.7268501641894
 30
0.0
 11
125.9999999999995
 21
110.5210787982493
 31
0.0
  0
LINE
  5
F2
330
4F
100
AcDbEntity
  8
0
  6
Continuous
 62
     7
100
AcDbLine
 10
128.0884572681194
 20
115.3153074323093
 30
0.0
 11
128.0884572681194
 21
111.7268501641894
 31
0.0
  0
LINE
  5
F3
330
4F
100
AcDbEntity
  8
0
  6
Continuous
 62
     7
100
AcDbLine
 10
120.2942286340594
 20
115.3153074323093
 30
0.0
 11
120.2942286340594
 21
111.7268501641894
 31
0.0
  0
LINE
  5
F4
330
4F
100
AcDbEntity
  8
0
  6
Continuous
 62
     7
100
AcDbLine
 10
103.7549999999994
 20
97.52107879824928
 30
0.0
 11
121.2449999999995
 21
97.52107879824928
 31
0.0
  0
LINE
  5
F5
330
4F
100
AcDbEntity
  8
0
  6
Continuous
 62
     2
100
AcDbLine
 10
121.7611290322575
 20
98.03720783050738
 30
0.0
 11
122.0940260765497
 21
108.689913247857
 31
0.0
  0
LINE
  5
F6
330
4F
100
AcDbEntity
  8
0
  6
Continuous
 62
     7
100
AcDbLine
 10
123.0940260765497
 20
108.689913247857
 30
0.0
 11
123.1512499999995
 21
110.5210787982493
 31
0.0
  0
LINE
  5
F7
330
4F
100
AcDbEntity
  8
0
  6
Continuous
 62
     2
100
AcDbLine
 10
123.1512499999995
 20
110.5210787982493
 30
0.0
 11
122.0940260765497
 21
108.689913247857
 31
0.0
  0
LINE
  5
F8
330
4F
100
AcDbEntity
  8
0
  6
Continuous
 62
     7
100
AcDbLine
 10
121.2449999999995
 20
97.52107879824928
 30
0.0
 11
121.7611290322575
 21
98.03720783050738
 31
0.0
  0
LINE
  5
F9
330
4F
100
AcDbEntity
  8
0
  6
Continuous
 62
     7
100
AcDbLine
 10
121.7611290322575
 20
98.03720783050738
 30
0.0
 11
122.7933870967736
 21
99.06946589502348
 31
0.0
  0
LINE
  5
FA
330
4F
100
AcDbEntity
  8
0
  6
Continuous
 62
     7
100
AcDbLine
 10
123.9999999999995
 20
116.5210787982493
 30
0.0
 11
125.9999999999995
 21
116.5210787982493
 31
0.0
  0
LINE
  5
FB
330
4F
100
AcDbEntity
  8
0
  6
Continuous
 62
     7
100
AcDbLine
 10
123.9999999999995
 20
119.5210787982493
 30
0.0
 11
123.9999999999995
 21
116.5210787982493
 31
0.0
  0
LINE
  5
FC
330
4F
100
AcDbEntity
  8
0
  6
Continuous
 62
     7
100
AcDbLine
 10
125.9999999999995
 20
128.0210787982493
 30
0.0
 11
124.9999999999995
 21
129.0210787982493
 31
0.0
  0
LINE
  5
FD
330
4F
100
AcDbEntity
  8
0
  6
Continuous
 62
     7
100
AcDbLine
 10
123.9999999999995
 20
119.5210787982493
 30
0.0
 11
124.9999999999995
 21
120.0984290674389
 31
0.0
  0
LINE
  5
FE
330
4F
100
AcDbEntity
  8
0
  6
Continuous
 62
     7
100
AcDbLine
 10
125.9999999999995
 20
120.6757793366286
 30
0.0
 11
125.9999999999995
 21
128.0210787982493
 31
0.0
  0
LINE
  5
FF
330
4F
100
AcDbEntity
  8
0
  6
Continuous
 62
     7
100
AcDbLine
 10
124.9999999999995
 20
129.0210787982493
 30
0.0
 11
124.4999999999995
 21
129.5210787982493
 31
0.0
  0
LINE
  5
100
330
4F
100
AcDbEntity
  8
0
  6
Continuous
 62
     2
100
AcDbLine
 10
124.9999999999995
 20
120.0984290674389
 30
0.0
 11
124.9999999999995
 21
129.0210787982493
 31
0.0
  0
LINE
  5
101
330
4F
100
AcDbEntity
  8
0
  6
Continuous
 62
     7
100
AcDbLine
 10
124.9999999999995
 20
120.0984290674389
 30
0.0
 11
125.9999999999995
 21
120.6757793366286
 31
0.0
  0
LINE
  5
102
330
4F
100
AcDbEntity
  8
0
  6
Continuous
 62
     7
100
AcDbLine
 10
101.9059739234492
 20
108.689913247857
 30
0.0
 11
123.0940260765497
 21
108.689913247857
 31
0.0
  0
LINE
  5
103
330
4F
100
AcDbEntity
  8
0
  6
Continuous
 62
     7
100
AcDbLine
 10
122.7933870967736
 20
99.06946589502348
 30
0.0
 11
123.0940260765497
 21
108.689913247857
 31
0.0
  0
ARC
  5
104
330
4F
100
AcDbEntity
  8
0
  6
Continuous
 62
     7
100
AcDbCircle
 10
100.8086570489096
 20
109.6203573775067
 30
0.0
 40
6.900721420742522
100
AcDbArc
 50
55.61575253195984
 51
124.3842474680418
  0
ARC
  5
105
330
4F
100
AcDbEntity
  8
0
  6
Continuous
 62
     7
100
AcDbCircle
 10
112.4999999999995
 20
90.72685016418909
 30
0.0
 40
25.79422863406023
100
AcDbArc
 50
72.41204622600657
 51
107.5879537739939
  0
ARC
  5
106
330
4F
100
AcDbEntity
  8
0
  6
Continuous
 62
     7
100
AcDbCircle
 10
100.8086570489096
 20
117.4218002189935
 30
0.0
 40
6.900721420743902
100
AcDbArc
 50
235.6157525319652
 51
304.3842474680331
  0
ARC
  5
107
330
4F
100
AcDbEntity
  8
0
  6
Continuous
 62
     7
100
AcDbCircle
 10
124.1913429510894
 20
109.6203573775067
 30
0.0
 40
6.900721420742642
100
AcDbArc
 50
55.61575253195839
 51
124.3842474680415
  0
ARC
  5
108
330
4F
100
AcDbEntity
  8
0
  6
Continuous
 62
     7
100
AcDbCircle
 10
124.1913429510894
 20
117.4218002189935
 30
0.0
 40
6.900721420743877
100
AcDbArc
 50
235.6157525319655
 51
304.3842474680346
  0
ARC
  5
109
330
4F
100
AcDbEntity
  8
0
  6
Continuous
 62
     7
100
AcDbCircle
 10
112.4999999999995
 20
136.3153074323096
 30
0.0
 40
25.79422863406028
100
AcDbArc
 50
252.4120462260061
 51
287.5879537739934
  0
CIRCLE
  5
10A
330
4F
100
AcDbEntity
  8
0
  6
Continuous
 62
     7
100
AcDbCircle
 10
112.4999999999995
 20
201.3893010960753
 30
0.0
 40
13.50000000000006
  0
CIRCLE
  5
10B
330
4F
100
AcDbEntity
  8
0
  6
Continuous
 62
     7
100
AcDbCircle
 10
112.4999999999995
 20
201.3893010960753
 30
0.0
 40
12.0
  0
CIRCLE
  5
10C
330
4F
100
AcDbEntity
  8
0
  6
Continuous
 62
     7
100
AcDbCircle
 10
112.4999999999995
 20
201.3893010960753
 30
0.0
 40
9.200000000000003
  0
CIRCLE
  5
10D
330
4F
100
AcDbEntity
  8
0
  6
Continuous
 62
     7
100
AcDbCircle
 10
112.4999999999995
 20
201.3893010960753
 30
0.0
 40
9.0
  0
CIRCLE
  5
10E
330
4F
100
AcDbEntity
  8
0
  6
Continuous
 62
     7
100
AcDbCircle
 10
112.4999999999995
 20
201.3893010960753
 30
0.0
 40
7.0
  0
CIRCLE
  5
10F
330
4F
100
AcDbEntity
  8
0
  6
Continuous
 62
     2
100
AcDbCircle
 10
112.4999999999995
 20
201.3893010960753
 30
0.0
 40
12.5
  0
ENDBLK
  5
51
330
4F
100
AcDbEntity
  8
0
100
AcDbBlockEnd
  0
BLOCK
  5
12D
330
126
100
AcDbEntity
  8
0
100
AcDbBlockBegin
  2
*D4
 70
     1
 10
0.0
 20
0.0
 30
0.0
  3
*D4
  1

  0
LINE
  5
127
330
126
100
AcDbEntity
  8
0
  6
Continuous
 62
     2
100
AcDbLine
 10
85.91154273187955
 20
110.5210787982493
 30
0.0
 11
85.91154273187955
 21
97.52107879824929
 31
0.0
  0
LINE
  5
128
330
126
100
AcDbEntity
  8
0
  6
Continuous
 62
     2
100
AcDbLine
 10
103.7549999999994
 20
97.52107879824929
 30
0.0
 11
84.91154273187955
 21
97.52107879824929
 31
0.0
  0
LINE
  5
129
330
126
100
AcDbEntity
  8
0
  6
Continuous
 62
     2
100
AcDbLine
 10
98.99999999999945
 20
110.5210787982493
 30
0.0
 11
84.91154273187955
 21
110.5210787982493
 31
0.0
  0
SOLID
  5
12A
330
126
100
AcDbEntity
  8
0
 62
     2
100
AcDbTrace
 10
86.37232647343544
 20
107.0210787982493
 30
0.0
 11
85.45075899032366
 21
107.0210787982493
 31
0.0
 12
85.91154273187955
 22
110.5210787982493
 32
0.0
 13
85.91154273187955
 23
110.5210787982493
 33
0.0
  0
SOLID
  5
12B
330
126
100
AcDbEntity
  8
0
 62
     2
100
AcDbTrace
 10
85.45075899032366
 20
101.0210787982493
 30
0.0
 11
86.37232647343544
 21
101.0210787982493
 31
0.0
 12
85.91154273187955
 22
97.52107879824929
 32
0.0
 13
85.91154273187955
 23
97.52107879824929
 33
0.0
  0
MTEXT
  5
12C
330
126
100
AcDbEntity
  8
0
 62
     7
100
AcDbMText
 10
84.91154273187955
 20
101.6113816370279
 30
0.0
 40
3.5
 41
0.0
 71
     7
 72
     1
  1
13
  7
CONVERTER_12
 11
0.0
 21
1.0
 31
0.0
 73
     1
 44
0.60024009603842
  0
ENDBLK
  5
12E
330
126
100
AcDbEntity
  8
0
100
AcDbBlockEnd
  0
BLOCK
  5
138
330
131
100
AcDbEntity
  8
0
100
AcDbBlockBegin
  2
*D5
 70
     1
 10
0.0
 20
0.0
 30
0.0
  3
*D5
  1

  0
LINE
  5
132
330
131
100
AcDbEntity
  8
0
  6
Continuous
 62
     2
100
AcDbLine
 10
85.91154273187955
 20
129.5210787982493
 30
0.0
 11
85.91154273187955
 21
116.5210787982493
 31
0.0
  0
LINE
  5
133
330
131
100
AcDbEntity
  8
0
  6
Continuous
 62
     2
100
AcDbLine
 10
98.99999999999945
 20
116.5210787982493
 30
0.0
 11
84.91154273187955
 21
116.5210787982493
 31
0.0
  0
LINE
  5
134
330
131
100
AcDbEntity
  8
0
  6
Continuous
 62
     2
100
AcDbLine
 10
100.4999999999994
 20
129.5210787982493
 30
0.0
 11
84.91154273187955
 21
129.5210787982493
 31
0.0
  0
SOLID
  5
135
330
131
100
AcDbEntity
  8
0
 62
     2
100
AcDbTrace
 10
86.37232647343544
 20
126.0210787982493
 30
0.0
 11
85.45075899032366
 21
126.0210787982493
 31
0.0
 12
85.91154273187955
 22
129.5210787982493
 32
0.0
 13
85.91154273187955
 23
129.5210787982493
 33
0.0
  0
SOLID
  5
136
330
131
100
AcDbEntity
  8
0
 62
     2
100
AcDbTrace
 10
85.45075899032366
 20
120.0210787982493
 30
0.0
 11
86.37232647343544
 21
120.0210787982493
 31
0.0
 12
85.91154273187955
 22
116.5210787982493
 32
0.0
 13
85.91154273187955
 23
116.5210787982493
 33
0.0
  0
MTEXT
  5
137
330
131
100
AcDbEntity
  8
0
 62
     7
100
AcDbMText
 10
84.91154273187955
 20
120.3867489216689
 30
0.0
 40
3.5
 41
0.0
 71
     7
 72
     1
  1
13
  7
CONVERTER_12
 11
0.0
 21
1.0
 31
0.0
 73
     1
 44
0.60024009603842
  0
ENDBLK
  5
139
330
131
100
AcDbEntity
  8
0
100
AcDbBlockEnd
  0
BLOCK
  5
143
330
13C
100
AcDbEntity
  8
0
100
AcDbBlockBegin
  2
*D6
 70
     1
 10
0.0
 20
0.0
 30
0.0
  3
*D6
  1

  0
LINE
  5
13D
330
13C
100
AcDbEntity
  8
0
  6
Continuous
 62
     2
100
AcDbLine
 10
85.91154273187955
 20
214.8893010960753
 30
0.0
 11
85.91154273187955
 21
187.8893010960753
 31
0.0
  0
LINE
  5
13E
330
13C
100
AcDbEntity
  8
0
  6
Continuous
 62
     2
100
AcDbLine
 10
104.7057713659394
 20
187.8893010960753
 30
0.0
 11
84.91154273187955
 21
187.8893010960753
 31
0.0
  0
LINE
  5
13F
330
13C
100
AcDbEntity
  8
0
  6
Continuous
 62
     2
100
AcDbLine
 10
104.7057713659394
 20
214.8893010960753
 30
0.0
 11
84.91154273187955
 21
214.8893010960753
 31
0.0
  0
SOLID
  5
140
330
13C
100
AcDbEntity
  8
0
 62
     2
100
AcDbTrace
 10
86.37232647343544
 20
211.3893010960753
 30
0.0
 11
85.45075899032366
 21
211.3893010960753
 31
0.0
 12
85.91154273187955
 22
214.8893010960753
 32
0.0
 13
85.91154273187955
 23
214.8893010960753
 33
0.0
  0
SOLID
  5
141
330
13C
100
AcDbEntity
  8
0
 62
     2
100
AcDbTrace
 10
85.45075899032366
 20
191.3893010960753
 30
0.0
 11
86.37232647343544
 21
191.3893010960753
 31
0.0
 12
85.91154273187955
 22
187.8893010960753
 32
0.0
 13
85.91154273187955
 23
187.8893010960753
 33
0.0
  0
MTEXT
  5
142
330
13C
100
AcDbEntity
  8
0
 62
     7
100
AcDbMText
 10
84.91154273187955
 20
198.7643010960753
 30
0.0
 40
3.5
 41
0.0
 71
     7
 72
     1
  1
27
  7
CONVERTER_12
 11
0.0
 21
1.0
 31
0.0
 73
     1
 44
0.60024009603842
  0
ENDBLK
  5
144
330
13C
100
AcDbEntity
  8
0
100
AcDbBlockEnd
  0
BLOCK
  5
14E
330
147
100
AcDbEntity
  8
0
100
AcDbBlockBegin
  2
*D7
 70
     1
 10
0.0
 20
0.0
 30
0.0
  3
*D7
  1

  0
LINE
  5
148
330
147
100
AcDbEntity
  8
0
  6
Continuous
 62
     2
100
AcDbLine
 10
96.9115427318796
 20
225.6853285536409
 30
0.0
 11
128.0884572681194
 21
225.6853285536409
 31
0.0
  0
LINE
  5
149
330
147
100
AcDbEntity
  8
0
  6
Continuous
 62
     2
100
AcDbLine
 10
128.0884572681194
 20
201.3893010960753
 30
0.0
 11
128.0884572681194
 21
226.6853285536409
 31
0.0
  0
LINE
  5
14A
330
147
100
AcDbEntity
  8
0
  6
Continuous
 62
     2
100
AcDbLine
 10
96.9115427318796
 20
201.3893010960753
 30
0.0
 11
96.9115427318796
 21
226.6853285536409
 31
0.0
  0
SOLID
  5
14B
330
147
100
AcDbEntity
  8
0
 62
     2
100
AcDbTrace
 10
100.4115427318796
 20
226.1461122951968
 30
0.0
 11
100.4115427318796
 21
225.224544812085
 31
0.0
 12
96.9115427318796
 22
225.6853285536409
 32
0.0
 13
96.9115427318796
 23
225.6853285536409
 33
0.0
  0
SOLID
  5
14C
330
147
100
AcDbEntity
  8
0
 62
     2
100
AcDbTrace
 10
124.5884572681194
 20
225.224544812085
 30
0.0
 11
124.5884572681194
 21
226.1461122951968
 31
0.0
 12
128.0884572681194
 22
225.6853285536409
 32
0.0
 13
128.0884572681194
 23
225.6853285536409
 33
0.0
  0
MTEXT
  5
14D
330
147
100
AcDbEntity
  8
0
 62
     7
100
AcDbMText
 10
109.8769307969501
 20
226.6853285536409
 30
0.0
 40
3.5
 41
0.0
 71
     7
 72
     1
  1
32
  7
CONVERTER_12
 11
0.9999999999970619
 21
2.424068405545306E-6
 31
0.0
 73
     1
 44
0.60024009603842
  0
ENDBLK
  5
14F
330
147
100
AcDbEntity
  8
0
100
AcDbBlockEnd
  0
BLOCK
  5
159
330
152
100
AcDbEntity
  8
0
100
AcDbBlockBegin
  2
*D8
 70
     1
 10
0.0
 20
0.0
 30
0.0
  3
*D8
  1

  0
LINE
  5
153
330
152
100
AcDbEntity
  8
0
  6
Continuous
 62
     2
100
AcDbLine
 10
77.91154273187955
 20
129.5210787982493
 30
0.0
 11
77.91154273187955
 21
97.52107879824929
 31
0.0
  0
LINE
  5
154
330
152
100
AcDbEntity
  8
0
  6
Continuous
 62
     2
100
AcDbLine
 10
103.7549999999994
 20
97.52107879824929
 30
0.0
 11
76.91154273187955
 21
97.52107879824929
 31
0.0
  0
LINE
  5
155
330
152
100
AcDbEntity
  8
0
  6
Continuous
 62
     2
100
AcDbLine
 10
100.4999999999994
 20
129.5210787982493
 30
0.0
 11
76.91154273187955
 21
129.5210787982493
 31
0.0
  0
SOLID
  5
156
330
152
100
AcDbEntity
  8
0
 62
     2
100
AcDbTrace
 10
78.37232647343544
 20
126.0210787982493
 30
0.0
 11
77.45075899032366
 21
126.0210787982493
 31
0.0
 12
77.91154273187955
 22
129.5210787982493
 32
0.0
 13
77.91154273187955
 23
129.5210787982493
 33
0.0
  0
SOLID
  5
157
330
152
100
AcDbEntity
  8
0
 62
     2
100
AcDbTrace
 10
77.45075899032366
 20
101.0210787982493
 30
0.0
 11
78.37232647343544
 21
101.0210787982493
 31
0.0
 12
77.91154273187955
 22
97.52107879824929
 32
0.0
 13
77.91154273187955
 23
97.52107879824929
 33
0.0
  0
MTEXT
  5
158
330
152
100
AcDbEntity
  8
0
 62
     7
100
AcDbMText
 10
76.91154273187955
 20
110.7823292211249
 30
0.0
 40
3.5
 41
0.0
 71
     7
 72
     1
  1
32
  7
CONVERTER_12
 11
0.0
 21
1.0
 31
0.0
 73
     1
 44
0.60024009603842
  0
ENDBLK
  5
15A
330
152
100
AcDbEntity
  8
0
100
AcDbBlockEnd
  0
ENDSEC
  0
SECTION
  2
ENTITIES
  0
INSERT
  5
52
330
1F
100
AcDbEntity
  8
0
100
AcDbBlockReference
  2
開示A4枠
 10
0.0
 20
0.0
 30
0.0
  0
INSERT
  5
53
330
1F
100
AcDbEntity
  8
0
100
AcDbBlockReference
  2
T2010-20X13
 10
96.91154273187955
 20
97.52107879824928
 30
0.0
  0
LINE
  5
110
330
1F
100
AcDbEntity
  8
0
  6
DASH_CENTER
 62
     2
100
AcDbLine
 10
112.4999999999995
 20
184.0210787982493
 30
0.0
 11
112.4999999999995
 21
217.0141592392014
 31
0.0
  0
LINE
  5
111
330
1F
100
AcDbEntity
  8
0
  6
DASH_CENTER
 62
     2
100
AcDbLine
 10
130.7024762712393
 20
201.3893010960753
 30
0.0
 11
93.7024762712394
 21
201.3893010960753
 31
0.0
  0
LINE
  5
112
330
1F
100
AcDbEntity
  8
0
  6
DASH_CENTER
 62
     2
100
AcDbLine
 10
112.4999999999994
 20
94.01415923920139
 30
0.0
 11
112.4999999999994
 21
133.0210787982493
 31
0.0
  0
SOLID
  5
113
330
1F
100
AcDbEntity
  8
0
 62
     2
100
AcDbTrace
 10
127.4230696678865
 20
126.8273460589159
 30
0.0
 11
128.2107372964389
 21
126.3489462963119
 31
0.0
 12
125.9999999999995
 22
123.5966813630952
 32
0.0
 13
125.9999999999995
 23
123.5966813630952
 33
0.0
  0
LEADER
  5
114
330
1F
100
AcDbEntity
  8
0
  6
Continuous
 62
     2
100
AcDbLeader
  3
Standard
 71
     0
 76
     3
 10
125.9999999999995
 20
123.5966813630952
 30
0.0
 10
135.6718814845682
 20
139.5210787982493
 30
0.0
 10
147.3474415139677
 20
139.5210787982493
 30
0.0
  0
SOLID
  5
115
330
1F
100
AcDbEntity
  8
0
 62
     2
100
AcDbTrace
 10
125.0904198003754
 20
101.0042017409891
 30
0.0
 11
124.292318948699
 21
100.5434179994332
 31
0.0
 12
122.9413693745372
 22
103.8048987834567
 32
0.0
 13
122.9413693745372
 23
103.8048987834567
 33
0.0
  0
LEADER
  5
116
330
1F
100
AcDbEntity
  8
0
  6
Continuous
 62
     2
100
AcDbLeader
  3
Standard
 71
     0
 76
     3
 10
122.9413693745372
 20
103.8048987834567
 30
0.0
 10
132.342837226432
 20
87.52107879824928
 30
0.0
 10
143.2854944981598
 20
87.52107879824928
 30
0.0
  0
MTEXT
  5
118
330
1F
100
AcDbEntity
  8
1
 62
     7
100
AcDbMText
 10
106.4999999999999
 20
12.5
 30
0.0
 40
2.5
 41
0.0
 71
     5
 72
     1
  1
10
  7
CONVERTER_12
 73
     1
 44
0.7202881152461
  0
MTEXT
  5
119
330
1F
100
AcDbEntity
  8
1
 62
     7
100
AcDbMText
 10
100.7499999999999
 20
12.5
 30
0.0
 40
2.5
 41
0.0
 71
     5
 72
     1
  1
03
  7
CONVERTER_12
 73
     1
 44
0.7202881152461
  0
MTEXT
  5
11A
330
1F
100
AcDbEntity
  8
1
 62
     7
100
AcDbMText
 10
123.4999999999999
 20
12.5
 30
0.0
 40
2.5
 41
0.0
 71
     5
 72
     1
  1
10
  7
CONVERTER_12
 73
     1
 44
0.7202881152461
  0
MTEXT
  5
11B
330
1F
100
AcDbEntity
  8
1
 62
     7
100
AcDbMText
 10
117.7499999999999
 20
12.5
 30
0.0
 40
2.5
 41
0.0
 71
     5
 72
     1
  1
03
  7
CONVERTER_12
 73
     1
 44
0.7202881152461
  0
MTEXT
  5
11C
330
1F
100
AcDbEntity
  8
1
 62
     7
100
AcDbMText
 10
140.4999999999999
 20
12.5
 30
0.0
 40
2.5
 41
0.0
 71
     5
 72
     1
  1
10
  7
CONVERTER_12
 73
     1
 44
0.7202881152461
  0
MTEXT
  5
11D
330
1F
100
AcDbEntity
  8
1
 62
     7
100
AcDbMText
 10
134.7499999999999
 20
12.5
 30
0.0
 40
2.5
 41
0.0
 71
     5
 72
     1
  1
03
  7
CONVERTER_12
 73
     1
 44
0.7202881152461
  0
MTEXT
  5
11E
330
1F
100
AcDbEntity
  8
1
 62
     7
100
AcDbMText
 10
151.7499999999999
 20
12.5
 30
0.0
 40
2.5
 41
0.0
 71
     5
 72
     1
  1
03
  7
CONVERTER_12
 73
     1
 44
0.7202881152461
  0
MTEXT
  5
11F
330
1F
100
AcDbEntity
  8
1
 62
     7
100
AcDbMText
 10
157.4999999999999
 20
12.5
 30
0.0
 40
2.5
 41
0.0
 71
     5
 72
     1
  1
10
  7
CONVERTER_12
 73
     1
 44
0.7202881152461
  0
MTEXT
  5
120
330
1F
100
AcDbEntity
  8
0
 62
     7
100
AcDbMText
 10
140.950173648422
 20
141.9252659996644
 30
0.0
 40
3.0
 41
0.0
 71
     5
 72
     1
  1
G3/4
  7
CONVERTER_12
 73
     1
 44
0.7202881152461
  0
MTEXT
  5
121
330
1F
100
AcDbEntity
  8
0
 62
     7
100
AcDbMText
 10
137.589178899908
 20
90.44363126449169
 30
0.0
 40
3.0
 41
0.0
 71
     5
 72
     1
  1
R1/2
  7
CONVERTER_12
 73
     1
 44
0.7202881152461
  0
MTEXT
  5
122
330
1F
100
AcDbEntity
  8
1
 62
     7
100
AcDbMText
 10
85.24999999999997
 20
17.00000000000001
 30
0.0
 40
3.5
 41
0.0
 71
     5
 72
     1
  1
1
  7
CONVERTER_12
 73
     1
 44
0.7202881152461
  0
MTEXT
  5
123
330
1F
100
AcDbEntity
  8
1
 62
     7
100
AcDbMText
 10
56.99999999999996
 20
22.75000000000002
 30
0.0
 40
3.5
 41
0.0
 71
     5
 72
     1
  1
異径ニップル
  7
CONVERTER_11
 73
     1
 44
0.54545454545455
  0
MTEXT
  5
124
330
1F
100
AcDbEntity
  8
1
 62
     7
100
AcDbMText
 10
56.99999999999996
 20
14.25000000000001
 30
0.0
 40
3.5
 41
0.0
 71
     5
 72
     1
  1
T2010-20X13
  7
CONVERTER_12
 73
     1
 44
0.7202881152461
  0
MTEXT
  5
125
330
1F
100
AcDbEntity
  8
1
 62
     7
100
AcDbMText
 10
93.74999999999997
 20
17.00000000000001
 30
0.0
 40
3.5
 41
0.0
 71
     5
 72
     1
  1
1
  7
CONVERTER_12
 73
     1
 44
0.7202881152461
  0
DIMENSION
  5
130
330
1F
100
AcDbEntity
  8
0
100
AcDbDimension
  2
*D4
 10
85.91154273187955
 20
110.5210787982493
 30
0.0
 11
83.16154273187955
 21
103.7113816370279
 31
0.0
 70
    32
  1
<>
 71
     5
 42
-1.0
 53
90.0
  3
ME10_DIM_10
100
AcDbAlignedDimension
 13
103.7549999999994
 23
97.52107879824928
 33
0.0
 14
98.99999999999945
 24
110.5210787982493
 34
0.0
 50
90.0
100
AcDbRotatedDimension
  0
DIMENSION
  5
13B
330
1F
100
AcDbEntity
  8
0
100
AcDbDimension
  2
*D5
 10
85.91154273187955
 20
129.5210787982493
 30
0.0
 11
83.16154273187955
 21
122.4867489216689
 31
0.0
 70
    32
  1
<>
 71
     5
 42
-1.0
 53
90.0
  3
ME10_DIM_11
100
AcDbAlignedDimension
 13
98.99999999999945
 23
116.5210787982493
 33
0.0
 14
100.4999999999995
 24
129.5210787982493
 34
0.0
 50
90.0
100
AcDbRotatedDimension
  0
DIMENSION
  5
146
330
1F
100
AcDbEntity
  8
0
100
AcDbDimension
  2
*D6
 10
85.91154273187955
 20
214.8893010960753
 30
0.0
 11
83.16154273187955
 21
201.3893010960753
 31
0.0
 70
    32
  1
<>
 71
     5
 42
-1.0
 53
90.0
  3
ME10_DIM_12
100
AcDbAlignedDimension
 13
104.7057713659394
 23
187.8893010960753
 33
0.0
 14
104.7057713659394
 24
214.8893010960753
 34
0.0
 50
90.0
100
AcDbRotatedDimension
  0
DIMENSION
  5
151
330
1F
100
AcDbEntity
  8
0
100
AcDbDimension
  2
*D7
 10
96.9115427318796
 20
225.6853285536409
 30
0.0
 11
112.5019307969501
 21
228.4353285536409
 31
0.0
 70
    32
  1
32
 71
     5
 42
-1.0
 53
0.00013888888889
  3
ME10_DIM_13
100
AcDbAlignedDimension
 13
128.0884572681194
 23
201.3893010960753
 33
0.0
 14
96.91154273187955
 24
201.3893010960753
 34
0.0
100
AcDbRotatedDimension
  0
DIMENSION
  5
15C
330
1F
100
AcDbEntity
  8
0
100
AcDbDimension
  2
*D8
 10
77.91154273187955
 20
129.5210787982493
 30
0.0
 11
75.16154273187955
 21
113.4073292211249
 31
0.0
 70
    32
  1
<>
 71
     5
 42
-1.0
 53
90.0
  3
ME10_DIM_14
100
AcDbAlignedDimension
 13
103.7549999999994
 23
97.52107879824928
 33
0.0
 14
100.4999999999995
 24
129.5210787982493
 34
0.0
 50
90.0
100
AcDbRotatedDimension
  0
ENDSEC
  0
SECTION
  2
OBJECTS
  0
DICTIONARY
  5
C
330
0
100
AcDbDictionary
281
     1
  3
ACAD_GROUP
350
D
  3
ACAD_LAYOUT
350
1A
  3
ACAD_MATERIAL
350
3B
  3
ACAD_MLEADERSTYLE
350
15F
  3
ACAD_MLINESTYLE
350
17
  3
ACAD_PLOTSETTINGS
350
19
  3
ACAD_PLOTSTYLENAME
350
E
  3
ACAD_VISUALSTYLE
350
2A
  3
AcDbVariableDictionary
350
15D
  0
DICTIONARY
  5
D
102
{ACAD_REACTORS
330
C
102
}
330
C
100
AcDbDictionary
281
     1
  0
DICTIONARY
  5
1A
102
{ACAD_REACTORS
330
C
102
}
330
C
100
AcDbDictionary
281
     1
  3
Layout1
350
1E
  3
Layout2
350
26
  3
Model
350
22
  0
DICTIONARY
  5
3B
102
{ACAD_REACTORS
330
C
102
}
330
C
100
AcDbDictionary
281
     1
  3
ByBlock
350
3D
  3
ByLayer
350
3C
  3
Global
350
3E
  0
DICTIONARY
  5
15F
102
{ACAD_REACTORS
330
C
102
}
330
C
100
AcDbDictionary
281
     1
  0
DICTIONARY
  5
17
102
{ACAD_REACTORS
330
C
102
}
330
C
100
AcDbDictionary
281
     1
  3
Standard
350
18
  0
DICTIONARY
  5
19
102
{ACAD_REACTORS
330
C
102
}
330
C
100
AcDbDictionary
281
     1
  0
ACDBDICTIONARYWDFLT
  5
E
102
{ACAD_REACTORS
330
C
102
}
330
C
100
AcDbDictionary
281
     1
  3
Normal
350
F
100
AcDbDictionaryWithDefault
340
F
  0
DICTIONARY
  5
2A
102
{ACAD_REACTORS
330
C
102
}
330
C
100
AcDbDictionary
281
     1
  3
2dWireframe
350
2F
  3
3D Hidden
350
31
  3
3dWireframe
350
30
  3
Basic
350
32
  3
Brighten
350
36
  3
ColorChange
350
3A
  3
Conceptual
350
34
  3
Dim
350
35
  3
Facepattern
350
39
  3
Flat
350
2B
  3
FlatWithEdges
350
2C
  3
Gouraud
350
2D
  3
GouraudWithEdges
350
2E
  3
Linepattern
350
38
  3
Realistic
350
33
  3
Thicken
350
37
  0
DICTIONARY
  5
15D
102
{ACAD_REACTORS
330
C
102
}
330
C
100
AcDbDictionary
281
     1
  3
DIMASSOC
350
160
  3
HIDETEXT
350
161
  0
LAYOUT
  5
1E
102
{ACAD_REACTORS
330
1A
102
}
330
1A
100
AcDbPlotSettings
  1

  2
none_device
  4

  6

 40
0.0
 41
0.0
 42
0.0
 43
0.0
 44
0.0
 45
0.0
 46
0.0
 47
0.0
 48
0.0
 49
0.0
140
0.0
141
0.0
142
1.0
143
1.0
 70
   688
 72
     0
 73
     0
 74
     5
  7

 75
    16
147
1.0
148
0.0
149
0.0
100
AcDbLayout
  1
Layout1
 70
     1
 71
     1
 10
0.0
 20
0.0
 11
12.0
 21
9.0
 12
0.0
 22
0.0
 32
0.0
 14
1.00000000000000E+20
 24
1.00000000000000E+20
 34
1.00000000000000E+20
 15
-1.00000000000000E+20
 25
-1.00000000000000E+20
 35
-1.00000000000000E+20
146
0.0
 13
0.0
 23
0.0
 33
0.0
 16
1.0
 26
0.0
 36
0.0
 17
0.0
 27
1.0
 37
0.0
 76
     0
330
1B
  0
LAYOUT
  5
26
102
{ACAD_REACTORS
330
1A
102
}
330
1A
100
AcDbPlotSettings
  1

  2
none_device
  4

  6

 40
0.0
 41
0.0
 42
0.0
 43
0.0
 44
0.0
 45
0.0
 46
0.0
 47
0.0
 48
0.0
 49
0.0
140
0.0
141
0.0
142
1.0
143
1.0
 70
   688
 72
     0
 73
     0
 74
     5
  7

 75
    16
147
1.0
148
0.0
149
0.0
100
AcDbLayout
  1
Layout2
 70
     1
 71
     2
 10
0.0
 20
0.0
 11
0.0
 21
0.0
 12
0.0
 22
0.0
 32
0.0
 14
0.0
 24
0.0
 34
0.0
 15
0.0
 25
0.0
 35
0.0
146
0.0
 13
0.0
 23
0.0
 33
0.0
 16
1.0
 26
0.0
 36
0.0
 17
0.0
 27
1.0
 37
0.0
 76
     0
330
23
  0
LAYOUT
  5
22
102
{ACAD_REACTORS
330
1A
102
}
330
1A
100
AcDbPlotSettings
  1

  2
none_device
  4

  6

 40
0.0
 41
0.0
 42
0.0
 43
0.0
 44
0.0
 45
0.0
 46
0.0
 47
0.0
 48
0.0
 49
0.0
140
0.0
141
0.0
142
1.0
143
1.0
 70
  1712
 72
     0
 73
     0
 74
     0
  7

 75
     0
147
1.0
148
0.0
149
0.0
100
AcDbLayout
  1
Model
 70
     1
 71
     0
 10
0.0
 20
0.0
 11
12.0
 21
9.0
 12
0.0
 22
0.0
 32
0.0
 14
0.0
 24
0.0
 34
0.0
 15
209.9999999999999
 25
296.9999999999999
 35
0.0
146
0.0
 13
0.0
 23
0.0
 33
0.0
 16
1.0
 26
0.0
 36
0.0
 17
0.0
 27
1.0
 37
0.0
 76
     0
330
1F
331
29
  0
MATERIAL
  5
3D
102
{ACAD_REACTORS
330
3B
102
}
102
{ACAD_XDICTIONARY
360
184
102
}
330
3B
100
AcDbMaterial
  1
ByBlock
  0
MATERIAL
  5
3C
102
{ACAD_REACTORS
330
3B
102
}
102
{ACAD_XDICTIONARY
360
182
102
}
330
3B
100
AcDbMaterial
  1
ByLayer
  0
MATERIAL
  5
3E
102
{ACAD_REACTORS
330
3B
102
}
102
{ACAD_XDICTIONARY
360
186
102
}
330
3B
100
AcDbMaterial
  1
Global
  0
MLINESTYLE
  5
18
102
{ACAD_REACTORS
330
17
102
}
330
17
100
AcDbMlineStyle
  2
Standard
 70
     0
  3

 62
   256
 51
90.0
 52
90.0
 71
     2
 49
0.5
 62
   256
  6
BYLAYER
 49
-0.5
 62
   256
  6
BYLAYER
  0
ACDBPLACEHOLDER
  5
F
102
{ACAD_REACTORS
330
E
102
}
330
E
  0
VISUALSTYLE
  5
2F
102
{ACAD_REACTORS
330
2A
102
}
102
{ACAD_XDICTIONARY
360
16A
102
}
330
2A
100
AcDbVisualStyle
  2
2dWireframe
 70
     4
 71
     0
 72
     2
 73
     0
 90
        0
 40
-0.6
 41
-30.0
 62
     5
 63
     7
 74
     1
 91
        4
 64
     7
 65
   257
 75
     1
175
     1
 42
1.0
 92
        0
 66
   257
 43
1.0
 76
     1
 77
     6
 78
     2
 67
     7
 79
     5
170
     0
171
     0
290
     0
174
     0
 93
        1
 44
0.0
173
     0
291
     0
 45
0.0
1001
ACAD
1000
AcDbSavedByObjectVersion
1070
     0
  0
VISUALSTYLE
  5
31
102
{ACAD_REACTORS
330
2A
102
}
102
{ACAD_XDICTIONARY
360
16E
102
}
330
2A
100
AcDbVisualStyle
  2
3D Hidden
 70
     6
 71
     1
 72
     2
 73
     2
 90
        0
 40
-0.6
 41
-30.0
 62
     5
 63
     7
 74
     2
 91
        2
 64
     7
 65
   257
 75
     2
175
     1
 42
40.0
 92
        0
 66
   257
 43
1.0
 76
     1
 77
     6
 78
     2
 67
     7
 79
     3
170
     0
171
     0
290
     0
174
     0
 93
        1
 44
0.0
173
     0
291
     0
 45
0.0
1001
ACAD
1000
AcDbSavedByObjectVersion
1070
     0
  0
VISUALSTYLE
  5
30
102
{ACAD_REACTORS
330
2A
102
}
102
{ACAD_XDICTIONARY
360
16C
102
}
330
2A
100
AcDbVisualStyle
  2
3dWireframe
 70
     5
 71
     0
 72
     2
 73
     0
 90
        0
 40
-0.6
 41
-30.0
 62
     5
 63
     7
 74
     1
 91
        4
 64
     7
 65
   257
 75
     1
175
     1
 42
1.0
 92
        0
 66
   257
 43
1.0
 76
     1
 77
     6
 78
     2
 67
     7
 79
     5
170
     0
171
     0
290
     0
174
     0
 93
        1
 44
0.0
173
     0
291
     0
 45
0.0
1001
ACAD
1000
AcDbSavedByObjectVersion
1070
     0
  0
VISUALSTYLE
  5
32
102
{ACAD_REACTORS
330
2A
102
}
102
{ACAD_XDICTIONARY
360
170
102
}
330
2A
100
AcDbVisualStyle
  2
Basic
 70
     7
 71
     1
 72
     0
 73
     1
 90
        0
 40
-0.6
 41
-30.0
 62
     5
 63
     7
 74
     0
 91
        4
 64
     7
 65
   257
 75
     1
175
     1
 42
1.0
 92
        8
 66
     7
 43
1.0
 76
     1
 77
     6
 78
     2
 67
     7
 79
     5
170
     0
171
     0
290
     0
174
     0
 93
        1
 44
0.0
173
     0
291
     1
 45
0.0
1001
ACAD
1000
AcDbSavedByObjectVersion
1070
     0
  0
VISUALSTYLE
  5
36
102
{ACAD_REACTORS
330
2A
102
}
102
{ACAD_XDICTIONARY
360
178
102
}
330
2A
100
AcDbVisualStyle
  2
Brighten
 70
    12
 71
     2
 72
     2
 73
     0
 90
        0
 40
-0.6
 41
-30.0
 62
     5
 63
     7
 74
     1
 91
        4
 64
     7
 65
   257
 75
     1
175
     1
 42
1.0
 92
        8
 66
     7
 43
1.0
 76
     1
 77
     6
 78
     2
 67
     7
 79
     5
170
     0
171
     0
290
     0
174
     0
 93
        1
 44
50.0
173
     0
291
     1
 45
0.0
1001
ACAD
1000
AcDbSavedByObjectVersion
1070
     0
  0
VISUALSTYLE
  5
3A
102
{ACAD_REACTORS
330
2A
102
}
102
{ACAD_XDICTIONARY
360
180
102
}
330
2A
100
AcDbVisualStyle
  2
ColorChange
 70
    16
 71
     2
 72
     2
 73
     3
 90
        0
 40
-0.6
 41
-30.0
 62
     5
 63
     8
 74
     1
 91
        4
 64
     7
 65
   257
 75
     1
175
     1
 42
1.0
 92
        8
 66
     8
 43
1.0
 76
     1
 77
     6
 78
     2
 67
     7
 79
     5
170
     0
171
     0
290
     0
174
     0
 93
        1
 44
0.0
173
     0
291
     1
 45
0.0
1001
ACAD
1000
AcDbSavedByObjectVersion
1070
     0
  0
VISUALSTYLE
  5
34
102
{ACAD_REACTORS
330
2A
102
}
102
{ACAD_XDICTIONARY
360
174
102
}
330
2A
100
AcDbVisualStyle
  2
Conceptual
 70
     9
 71
     3
 72
     2
 73
     0
 90
        0
 40
-0.6
 41
-30.0
 62
     5
 63
     7
 74
     2
 91
        2
 64
     7
 65
   257
 75
     1
175
     1
 42
40.0
 92
        8
 66
     7
 43
1.0
 76
     1
 77
     6
 78
     2
 67
     7
 79
     3
170
     0
171
     0
290
     0
174
     0
 93
        1
 44
0.0
173
     0
291
     0
 45
0.0
1001
ACAD
1000
AcDbSavedByObjectVersion
1070
     0
  0
VISUALSTYLE
  5
35
102
{ACAD_REACTORS
330
2A
102
}
102
{ACAD_XDICTIONARY
360
176
102
}
330
2A
100
AcDbVisualStyle
  2
Dim
 70
    11
 71
     2
 72
     2
 73
     0
 90
        0
 40
-0.6
 41
-30.0
 62
     5
 63
     7
 74
     1
 91
        4
 64
     7
 65
   257
 75
     1
175
     1
 42
1.0
 92
        8
 66
     7
 43
1.0
 76
     1
 77
     6
 78
     2
 67
     7
 79
     5
170
     0
171
     0
290
     0
174
     0
 93
        1
 44
-50.0
173
     0
291
     1
 45
0.0
1001
ACAD
1000
AcDbSavedByObjectVersion
1070
     0
  0
VISUALSTYLE
  5
39
102
{ACAD_REACTORS
330
2A
102
}
102
{ACAD_XDICTIONARY
360
17E
102
}
330
2A
100
AcDbVisualStyle
  2
Facepattern
 70
    15
 71
     2
 72
     2
 73
     0
 90
        0
 40
-0.6
 41
-30.0
 62
     5
 63
     7
 74
     1
 91
        4
 64
     7
 65
   257
 75
     1
175
     1
 42
1.0
 92
        8
 66
     7
 43
1.0
 76
     1
 77
     6
 78
     2
 67
     7
 79
     5
170
     0
171
     0
290
     0
174
     0
 93
        1
 44
0.0
173
     0
291
     1
 45
0.0
1001
ACAD
1000
AcDbSavedByObjectVersion
1070
     0
  0
VISUALSTYLE
  5
2B
102
{ACAD_REACTORS
330
2A
102
}
102
{ACAD_XDICTIONARY
360
162
102
}
330
2A
100
AcDbVisualStyle
  2
Flat
 70
     0
 71
     2
 72
     1
 73
     1
 90
        2
 40
-0.6
 41
30.0
 62
     5
 63
     7
 74
     0
 91
        4
 64
     7
 65
   257
 75
     1
175
     1
 42
1.0
 92
        8
 66
     7
 43
1.0
 76
     1
 77
     6
 78
     2
 67
     7
 79
     5
170
     0
171
     0
290
     0
174
     0
 93
       13
 44
0.0
173
     0
291
     1
 45
0.0
1001
ACAD
1000
AcDbSavedByObjectVersion
1070
     0
  0
VISUALSTYLE
  5
2C
102
{ACAD_REACTORS
330
2A
102
}
102
{ACAD_XDICTIONARY
360
164
102
}
330
2A
100
AcDbVisualStyle
  2
FlatWithEdges
 70
     1
 71
     2
 72
     1
 73
     1
 90
        2
 40
-0.6
 41
30.0
 62
     5
 63
     7
 74
     1
 91
        4
 64
     7
 65
   257
 75
     1
175
     1
 42
1.0
 92
        0
 66
   257
 43
1.0
 76
     1
 77
     6
 78
     2
 67
     7
 79
     5
170
     0
171
     0
290
     0
174
     0
 93
       13
 44
0.0
173
     0
291
     1
 45
0.0
1001
ACAD
1000
AcDbSavedByObjectVersion
1070
     0
  0
VISUALSTYLE
  5
2D
102
{ACAD_REACTORS
330
2A
102
}
102
{ACAD_XDICTIONARY
360
166
102
}
330
2A
100
AcDbVisualStyle
  2
Gouraud
 70
     2
 71
     2
 72
     2
 73
     1
 90
        2
 40
-0.6
 41
30.0
 62
     5
 63
     7
 74
     0
 91
        4
 64
     7
 65
   257
 75
     1
175
     1
 42
1.0
 92
        0
 66
     7
 43
1.0
 76
     1
 77
     6
 78
     2
 67
     7
 79
     5
170
     0
171
     0
290
     0
174
     0
 93
       13
 44
0.0
173
     0
291
     1
 45
0.0
1001
ACAD
1000
AcDbSavedByObjectVersion
1070
     0
  0
VISUALSTYLE
  5
2E
102
{ACAD_REACTORS
330
2A
102
}
102
{ACAD_XDICTIONARY
360
168
102
}
330
2A
100
AcDbVisualStyle
  2
GouraudWithEdges
 70
     3
 71
     2
 72
     2
 73
     1
 90
        2
 40
-0.6
 41
30.0
 62
     5
 63
     7
 74
     1
 91
        4
 64
     7
 65
   257
 75
     1
175
     1
 42
1.0
 92
        0
 66
   257
 43
1.0
 76
     1
 77
     6
 78
     2
 67
     7
 79
     5
170
     0
171
     0
290
     0
174
     0
 93
       13
 44
0.0
173
     0
291
     1
 45
0.0
1001
ACAD
1000
AcDbSavedByObjectVersion
1070
     0
  0
VISUALSTYLE
  5
38
102
{ACAD_REACTORS
330
2A
102
}
102
{ACAD_XDICTIONARY
360
17C
102
}
330
2A
100
AcDbVisualStyle
  2
Linepattern
 70
    14
 71
     2
 72
     2
 73
     0
 90
        0
 40
-0.6
 41
-30.0
 62
     5
 63
     7
 74
     1
 91
        4
 64
     7
 65
   257
 75
     7
175
     7
 42
1.0
 92
        8
 66
     7
 43
1.0
 76
     1
 77
     6
 78
     2
 67
     7
 79
     5
170
     0
171
     0
290
     0
174
     0
 93
        1
 44
0.0
173
     0
291
     1
 45
0.0
1001
ACAD
1000
AcDbSavedByObjectVersion
1070
     0
  0
VISUALSTYLE
  5
33
102
{ACAD_REACTORS
330
2A
102
}
102
{ACAD_XDICTIONARY
360
172
102
}
330
2A
100
AcDbVisualStyle
  2
Realistic
 70
     8
 71
     2
 72
     2
 73
     0
 90
        0
 40
-0.6
 41
-30.0
 62
     5
 63
     7
 74
     1
 91
        0
 64
     7
 65
   257
 75
     1
175
     1
 42
1.0
 92
        8
 66
     8
 43
1.0
 76
     1
 77
     6
 78
     2
 67
     7
 79
     5
170
     0
171
     0
290
     0
174
     0
 93
       13
 44
0.0
173
     0
291
     0
 45
0.0
1001
ACAD
1000
AcDbSavedByObjectVersion
1070
     0
  0
VISUALSTYLE
  5
37
102
{ACAD_REACTORS
330
2A
102
}
102
{ACAD_XDICTIONARY
360
17A
102
}
330
2A
100
AcDbVisualStyle
  2
Thicken
 70
    13
 71
     2
 72
     2
 73
     0
 90
        0
 40
-0.6
 41
-30.0
 62
     5
 63
     7
 74
     1
 91
        4
 64
     7
 65
   257
 75
     1
175
     1
 42
1.0
 92
       12
 66
     7
 43
1.0
 76
     1
 77
     6
 78
     2
 67
     7
 79
     5
170
     0
171
     0
290
     0
174
     0
 93
        1
 44
0.0
173
     0
291
     1
 45
0.0
1001
ACAD
1000
AcDbSavedByObjectVersion
1070
     0
  0
DICTIONARYVAR
  5
160
102
{ACAD_REACTORS
330
15D
102
}
330
15D
100
DictionaryVariables
280
     0
  1
2
  0
DICTIONARYVAR
  5
161
102
{ACAD_REACTORS
330
15D
102
}
330
15D
100
DictionaryVariables
280
     0
  1
1
  0
DICTIONARY
  5
184
330
3D
100
AcDbDictionary
280
     1
281
     1
  3
ACAD_XREC_ROUNDTRIP
360
185
  0
DICTIONARY
  5
182
330
3C
100
AcDbDictionary
280
     1
281
     1
  3
ACAD_XREC_ROUNDTRIP
360
183
  0
DICTIONARY
  5
186
330
3E
100
AcDbDictionary
280
     1
281
     1
  3
ACAD_XREC_ROUNDTRIP
360
187
  0
DICTIONARY
  5
16A
330
2F
100
AcDbDictionary
280
     1
281
     1
  3
ACAD_XREC_ROUNDTRIP
360
16B
  0
DICTIONARY
  5
16E
330
31
100
AcDbDictionary
280
     1
281
     1
  3
ACAD_XREC_ROUNDTRIP
360
16F
  0
DICTIONARY
  5
16C
330
30
100
AcDbDictionary
280
     1
281
     1
  3
ACAD_XREC_ROUNDTRIP
360
16D
  0
DICTIONARY
  5
170
330
32
100
AcDbDictionary
280
     1
281
     1
  3
ACAD_XREC_ROUNDTRIP
360
171
  0
DICTIONARY
  5
178
330
36
100
AcDbDictionary
280
     1
281
     1
  3
ACAD_XREC_ROUNDTRIP
360
179
  0
DICTIONARY
  5
180
330
3A
100
AcDbDictionary
280
     1
281
     1
  3
ACAD_XREC_ROUNDTRIP
360
181
  0
DICTIONARY
  5
174
330
34
100
AcDbDictionary
280
     1
281
     1
  3
ACAD_XREC_ROUNDTRIP
360
175
  0
DICTIONARY
  5
176
330
35
100
AcDbDictionary
280
     1
281
     1
  3
ACAD_XREC_ROUNDTRIP
360
177
  0
DICTIONARY
  5
17E
330
39
100
AcDbDictionary
280
     1
281
     1
  3
ACAD_XREC_ROUNDTRIP
360
17F
  0
DICTIONARY
  5
162
330
2B
100
AcDbDictionary
280
     1
281
     1
  3
ACAD_XREC_ROUNDTRIP
360
163
  0
DICTIONARY
  5
164
330
2C
100
AcDbDictionary
280
     1
281
     1
  3
ACAD_XREC_ROUNDTRIP
360
165
  0
DICTIONARY
  5
166
330
2D
100
AcDbDictionary
280
     1
281
     1
  3
ACAD_XREC_ROUNDTRIP
360
167
  0
DICTIONARY
  5
168
330
2E
100
AcDbDictionary
280
     1
281
     1
  3
ACAD_XREC_ROUNDTRIP
360
169
  0
DICTIONARY
  5
17C
330
38
100
AcDbDictionary
280
     1
281
     1
  3
ACAD_XREC_ROUNDTRIP
360
17D
  0
DICTIONARY
  5
172
330
33
100
AcDbDictionary
280
     1
281
     1
  3
ACAD_XREC_ROUNDTRIP
360
173
  0
DICTIONARY
  5
17A
330
37
100
AcDbDictionary
280
     1
281
     1
  3
ACAD_XREC_ROUNDTRIP
360
17B
  0
XRECORD
  5
185
102
{ACAD_REACTORS
330
184
102
}
330
184
100
AcDbXrecord
280
     1
102
MATERIAL
148
0.0
149
0.0
149
0.0
 93
        0
 94
      127
282
     0
 72
     1
 77
     1
171
     1
175
     1
179
     1
273
     0
  0
XRECORD
  5
183
102
{ACAD_REACTORS
330
182
102
}
330
182
100
AcDbXrecord
280
     1
102
MATERIAL
148
0.0
149
0.0
149
0.0
 93
        0
 94
      127
282
     0
 72
     1
 77
     1
171
     1
175
     1
179
     1
273
     0
  0
XRECORD
  5
187
102
{ACAD_REACTORS
330
186
102
}
330
186
100
AcDbXrecord
280
     1
102
MATERIAL
148
0.0
149
0.0
149
0.0
 93
        0
 94
      127
282
     0
 72
     1
 77
     1
171
     1
175
     1
179
     1
273
     0
  0
XRECORD
  5
16B
102
{ACAD_REACTORS
330
16A
102
}
330
16A
100
AcDbXrecord
280
     1
102
RTVSPropertyOp0
 70
     1
102
RTVSPropertyOp1
 70
     1
102
RTVSPropertyOp2
 70
     1
102
RTVSPropertyOp3
 70
     1
102
RTVSPropertyOp4
 70
     1
102
RTVSPropertyOp5
 70
     1
102
RTVSPropertyOp6
 70
     1
102
RTVSPropertyOp7
 70
     1
102
RTVSPropertyOp8
 70
     1
102
RTVSPropertyOp9
 70
     1
102
RTVSPropertyOp10
 70
     1
102
RTVSPropertyOp11
 70
     1
102
RTVSPropertyOp12
 70
     1
102
RTVSPropertyOp13
 70
     1
102
RTVSPropertyOp14
 70
     1
102
RTVSPropertyOp15
 70
     1
102
RTVSPropertyOp16
 70
     1
102
RTVSPropertyOp17
 70
     1
102
RTVSPropertyOp18
 70
     1
102
RTVSPropertyOp19
 70
     1
102
RTVSPropertyOp20
 70
     1
102
RTVSPropertyOp21
 70
     1
102
RTVSPropertyOp22
 70
     1
102
RTVSPropertyOp23
 70
     1
102
RTVSPropertyOp24
 70
     1
102
RTVSPropertyOp25
 70
     1
102
RTVSPropertyOp26
 70
     1
102
RTVSPropertyOp27
 70
     1
102
RTVSPropertyOp28
 70
     1
102
RTVSPropertyOp29
 70
     1
102
RTVSPropertyOp30
 70
     1
102
RTVSPropertyOp31
 70
     1
102
RTVSPropertyOp32
 70
     1
  0
XRECORD
  5
16F
102
{ACAD_REACTORS
330
16E
102
}
330
16E
100
AcDbXrecord
280
     1
102
RTVSPropertyOp0
 70
     1
102
RTVSPropertyOp1
 70
     1
102
RTVSPropertyOp2
 70
     1
102
RTVSPropertyOp3
 70
     1
102
RTVSPropertyOp4
 70
     1
102
RTVSPropertyOp5
 70
     1
102
RTVSPropertyOp6
 70
     1
102
RTVSPropertyOp7
 70
     1
102
RTVSPropertyOp8
 70
     1
102
RTVSPropertyOp9
 70
     1
102
RTVSPropertyOp10
 70
     1
102
RTVSPropertyOp11
 70
     1
102
RTVSPropertyOp12
 70
     1
102
RTVSPropertyOp13
 70
     1
102
RTVSPropertyOp14
 70
     1
102
RTVSPropertyOp15
 70
     1
102
RTVSPropertyOp16
 70
     1
102
RTVSPropertyOp17
 70
     1
102
RTVSPropertyOp18
 70
     1
102
RTVSPropertyOp19
 70
     1
102
RTVSPropertyOp20
 70
     1
102
RTVSPropertyOp21
 70
     1
102
RTVSPropertyOp22
 70
     1
102
RTVSPropertyOp23
 70
     1
102
RTVSPropertyOp24
 70
     1
102
RTVSPropertyOp25
 70
     1
102
RTVSPropertyOp26
 70
     1
102
RTVSPropertyOp27
 70
     1
102
RTVSPropertyOp28
 70
     1
102
RTVSPropertyOp29
 70
     1
102
RTVSPropertyOp30
 70
     1
102
RTVSPropertyOp31
 70
     1
102
RTVSPropertyOp32
 70
     1
  0
XRECORD
  5
16D
102
{ACAD_REACTORS
330
16C
102
}
330
16C
100
AcDbXrecord
280
     1
102
RTVSPropertyOp0
 70
     1
102
RTVSPropertyOp1
 70
     1
102
RTVSPropertyOp2
 70
     1
102
RTVSPropertyOp3
 70
     1
102
RTVSPropertyOp4
 70
     1
102
RTVSPropertyOp5
 70
     1
102
RTVSPropertyOp6
 70
     1
102
RTVSPropertyOp7
 70
     1
102
RTVSPropertyOp8
 70
     1
102
RTVSPropertyOp9
 70
     1
102
RTVSPropertyOp10
 70
     1
102
RTVSPropertyOp11
 70
     1
102
RTVSPropertyOp12
 70
     1
102
RTVSPropertyOp13
 70
     1
102
RTVSPropertyOp14
 70
     1
102
RTVSPropertyOp15
 70
     1
102
RTVSPropertyOp16
 70
     1
102
RTVSPropertyOp17
 70
     1
102
RTVSPropertyOp18
 70
     1
102
RTVSPropertyOp19
 70
     1
102
RTVSPropertyOp20
 70
     1
102
RTVSPropertyOp21
 70
     1
102
RTVSPropertyOp22
 70
     1
102
RTVSPropertyOp23
 70
     1
102
RTVSPropertyOp24
 70
     1
102
RTVSPropertyOp25
 70
     1
102
RTVSPropertyOp26
 70
     1
102
RTVSPropertyOp27
 70
     1
102
RTVSPropertyOp28
 70
     1
102
RTVSPropertyOp29
 70
     1
102
RTVSPropertyOp30
 70
     1
102
RTVSPropertyOp31
 70
     1
102
RTVSPropertyOp32
 70
     1
  0
XRECORD
  5
171
102
{ACAD_REACTORS
330
170
102
}
330
170
100
AcDbXrecord
280
     1
102
RTVSPropertyOp0
 70
     1
102
RTVSPropertyOp1
 70
     1
102
RTVSPropertyOp2
 70
     1
102
RTVSPropertyOp3
 70
     1
102
RTVSPropertyOp4
 70
     1
102
RTVSPropertyOp5
 70
     1
102
RTVSPropertyOp6
 70
     1
102
RTVSPropertyOp7
 70
     1
102
RTVSPropertyOp8
 70
     1
102
RTVSPropertyOp9
 70
     1
102
RTVSPropertyOp10
 70
     1
102
RTVSPropertyOp11
 70
     1
102
RTVSPropertyOp12
 70
     1
102
RTVSPropertyOp13
 70
     1
102
RTVSPropertyOp14
 70
     1
102
RTVSPropertyOp15
 70
     1
102
RTVSPropertyOp16
 70
     1
102
RTVSPropertyOp17
 70
     1
102
RTVSPropertyOp18
 70
     1
102
RTVSPropertyOp19
 70
     1
102
RTVSPropertyOp20
 70
     1
102
RTVSPropertyOp21
 70
     1
102
RTVSPropertyOp22
 70
     1
102
RTVSPropertyOp23
 70
     1
102
RTVSPropertyOp24
 70
     1
102
RTVSPropertyOp25
 70
     1
102
RTVSPropertyOp26
 70
     1
102
RTVSPropertyOp27
 70
     1
102
RTVSPropertyOp28
 70
     1
102
RTVSPropertyOp29
 70
     1
102
RTVSPropertyOp30
 70
     1
102
RTVSPropertyOp31
 70
     1
102
RTVSPropertyOp32
 70
     1
  0
XRECORD
  5
179
102
{ACAD_REACTORS
330
178
102
}
330
178
100
AcDbXrecord
280
     1
102
RTVSPropertyOp0
 70
     1
102
RTVSPropertyOp1
 70
     1
102
RTVSPropertyOp2
 70
     1
102
RTVSPropertyOp3
 70
     1
102
RTVSPropertyOp4
 70
     1
102
RTVSPropertyOp5
 70
     1
102
RTVSPropertyOp6
 70
     1
102
RTVSPropertyOp7
 70
     1
102
RTVSPropertyOp8
 70
     1
102
RTVSPropertyOp9
 70
     1
102
RTVSPropertyOp10
 70
     1
102
RTVSPropertyOp11
 70
     1
102
RTVSPropertyOp12
 70
     1
102
RTVSPropertyOp13
 70
     1
102
RTVSPropertyOp14
 70
     1
102
RTVSPropertyOp15
 70
     1
102
RTVSPropertyOp16
 70
     1
102
RTVSPropertyOp17
 70
     1
102
RTVSPropertyOp18
 70
     1
102
RTVSPropertyOp19
 70
     1
102
RTVSPropertyOp20
 70
     1
102
RTVSPropertyOp21
 70
     1
102
RTVSPropertyOp22
 70
     1
102
RTVSPropertyOp23
 70
     1
102
RTVSPropertyOp24
 70
     1
102
RTVSPropertyOp25
 70
     1
102
RTVSPropertyOp26
 70
     1
102
RTVSPropertyOp27
 70
     1
102
RTVSPropertyOp28
 70
     1
102
RTVSPropertyOp29
 70
     1
102
RTVSPropertyOp30
 70
     1
102
RTVSPropertyOp31
 70
     1
102
RTVSPropertyOp32
 70
     1
  0
XRECORD
  5
181
102
{ACAD_REACTORS
330
180
102
}
330
180
100
AcDbXrecord
280
     1
102
RTVSPropertyOp0
 70
     1
102
RTVSPropertyOp1
 70
     1
102
RTVSPropertyOp2
 70
     1
102
RTVSPropertyOp3
 70
     1
102
RTVSPropertyOp4
 70
     1
102
RTVSPropertyOp5
 70
     1
102
RTVSPropertyOp6
 70
     1
102
RTVSPropertyOp7
 70
     1
102
RTVSPropertyOp8
 70
     1
102
RTVSPropertyOp9
 70
     1
102
RTVSPropertyOp10
 70
     1
102
RTVSPropertyOp11
 70
     1
102
RTVSPropertyOp12
 70
     1
102
RTVSPropertyOp13
 70
     1
102
RTVSPropertyOp14
 70
     1
102
RTVSPropertyOp15
 70
     1
102
RTVSPropertyOp16
 70
     1
102
RTVSPropertyOp17
 70
     1
102
RTVSPropertyOp18
 70
     1
102
RTVSPropertyOp19
 70
     1
102
RTVSPropertyOp20
 70
     1
102
RTVSPropertyOp21
 70
     1
102
RTVSPropertyOp22
 70
     1
102
RTVSPropertyOp23
 70
     1
102
RTVSPropertyOp24
 70
     1
102
RTVSPropertyOp25
 70
     1
102
RTVSPropertyOp26
 70
     1
102
RTVSPropertyOp27
 70
     1
102
RTVSPropertyOp28
 70
     1
102
RTVSPropertyOp29
 70
     1
102
RTVSPropertyOp30
 70
     1
102
RTVSPropertyOp31
 70
     1
102
RTVSPropertyOp32
 70
     1
  0
XRECORD
  5
175
102
{ACAD_REACTORS
330
174
102
}
330
174
100
AcDbXrecord
280
     1
102
RTVSPropertyOp0
 70
     1
102
RTVSPropertyOp1
 70
     1
102
RTVSPropertyOp2
 70
     1
102
RTVSPropertyOp3
 70
     1
102
RTVSPropertyOp4
 70
     1
102
RTVSPropertyOp5
 70
     1
102
RTVSPropertyOp6
 70
     1
102
RTVSPropertyOp7
 70
     1
102
RTVSPropertyOp8
 70
     1
102
RTVSPropertyOp9
 70
     1
102
RTVSPropertyOp10
 70
     1
102
RTVSPropertyOp11
 70
     1
102
RTVSPropertyOp12
 70
     1
102
RTVSPropertyOp13
 70
     1
102
RTVSPropertyOp14
 70
     1
102
RTVSPropertyOp15
 70
     1
102
RTVSPropertyOp16
 70
     1
102
RTVSPropertyOp17
 70
     1
102
RTVSPropertyOp18
 70
     1
102
RTVSPropertyOp19
 70
     1
102
RTVSPropertyOp20
 70
     1
102
RTVSPropertyOp21
 70
     1
102
RTVSPropertyOp22
 70
     1
102
RTVSPropertyOp23
 70
     1
102
RTVSPropertyOp24
 70
     1
102
RTVSPropertyOp25
 70
     1
102
RTVSPropertyOp26
 70
     1
102
RTVSPropertyOp27
 70
     1
102
RTVSPropertyOp28
 70
     1
102
RTVSPropertyOp29
 70
     1
102
RTVSPropertyOp30
 70
     1
102
RTVSPropertyOp31
 70
     1
102
RTVSPropertyOp32
 70
     1
  0
XRECORD
  5
177
102
{ACAD_REACTORS
330
176
102
}
330
176
100
AcDbXrecord
280
     1
102
RTVSPropertyOp0
 70
     1
102
RTVSPropertyOp1
 70
     1
102
RTVSPropertyOp2
 70
     1
102
RTVSPropertyOp3
 70
     1
102
RTVSPropertyOp4
 70
     1
102
RTVSPropertyOp5
 70
     1
102
RTVSPropertyOp6
 70
     1
102
RTVSPropertyOp7
 70
     1
102
RTVSPropertyOp8
 70
     1
102
RTVSPropertyOp9
 70
     1
102
RTVSPropertyOp10
 70
     1
102
RTVSPropertyOp11
 70
     1
102
RTVSPropertyOp12
 70
     1
102
RTVSPropertyOp13
 70
     1
102
RTVSPropertyOp14
 70
     1
102
RTVSPropertyOp15
 70
     1
102
RTVSPropertyOp16
 70
     1
102
RTVSPropertyOp17
 70
     1
102
RTVSPropertyOp18
 70
     1
102
RTVSPropertyOp19
 70
     1
102
RTVSPropertyOp20
 70
     1
102
RTVSPropertyOp21
 70
     1
102
RTVSPropertyOp22
 70
     1
102
RTVSPropertyOp23
 70
     1
102
RTVSPropertyOp24
 70
     1
102
RTVSPropertyOp25
 70
     1
102
RTVSPropertyOp26
 70
     1
102
RTVSPropertyOp27
 70
     1
102
RTVSPropertyOp28
 70
     1
102
RTVSPropertyOp29
 70
     1
102
RTVSPropertyOp30
 70
     1
102
RTVSPropertyOp31
 70
     1
102
RTVSPropertyOp32
 70
     1
  0
XRECORD
  5
17F
102
{ACAD_REACTORS
330
17E
102
}
330
17E
100
AcDbXrecord
280
     1
102
RTVSPropertyOp0
 70
     1
102
RTVSPropertyOp1
 70
     1
102
RTVSPropertyOp2
 70
     1
102
RTVSPropertyOp3
 70
     1
102
RTVSPropertyOp4
 70
     1
102
RTVSPropertyOp5
 70
     1
102
RTVSPropertyOp6
 70
     1
102
RTVSPropertyOp7
 70
     1
102
RTVSPropertyOp8
 70
     1
102
RTVSPropertyOp9
 70
     1
102
RTVSPropertyOp10
 70
     1
102
RTVSPropertyOp11
 70
     1
102
RTVSPropertyOp12
 70
     1
102
RTVSPropertyOp13
 70
     1
102
RTVSPropertyOp14
 70
     1
102
RTVSPropertyOp15
 70
     1
102
RTVSPropertyOp16
 70
     1
102
RTVSPropertyOp17
 70
     1
102
RTVSPropertyOp18
 70
     1
102
RTVSPropertyOp19
 70
     1
102
RTVSPropertyOp20
 70
     1
102
RTVSPropertyOp21
 70
     1
102
RTVSPropertyOp22
 70
     1
102
RTVSPropertyOp23
 70
     1
102
RTVSPropertyOp24
 70
     1
102
RTVSPropertyOp25
 70
     1
102
RTVSPropertyOp26
 70
     1
102
RTVSPropertyOp27
 70
     1
102
RTVSPropertyOp28
 70
     1
102
RTVSPropertyOp29
 70
     1
102
RTVSPropertyOp30
 70
     1
102
RTVSPropertyOp31
 70
     1
102
RTVSPropertyOp32
 70
     1
  0
XRECORD
  5
163
102
{ACAD_REACTORS
330
162
102
}
330
162
100
AcDbXrecord
280
     1
102
RTVSPropertyOp0
 70
     1
102
RTVSPropertyOp1
 70
     1
102
RTVSPropertyOp2
 70
     1
102
RTVSPropertyOp3
 70
     1
102
RTVSPropertyOp4
 70
     1
102
RTVSPropertyOp5
 70
     1
102
RTVSPropertyOp6
 70
     1
102
RTVSPropertyOp7
 70
     1
102
RTVSPropertyOp8
 70
     1
102
RTVSPropertyOp9
 70
     1
102
RTVSPropertyOp10
 70
     1
102
RTVSPropertyOp11
 70
     1
102
RTVSPropertyOp12
 70
     1
102
RTVSPropertyOp13
 70
     1
102
RTVSPropertyOp14
 70
     1
102
RTVSPropertyOp15
 70
     1
102
RTVSPropertyOp16
 70
     1
102
RTVSPropertyOp17
 70
     1
102
RTVSPropertyOp18
 70
     1
102
RTVSPropertyOp19
 70
     1
102
RTVSPropertyOp20
 70
     1
102
RTVSPropertyOp21
 70
     1
102
RTVSPropertyOp22
 70
     1
102
RTVSPropertyOp23
 70
     1
102
RTVSPropertyOp24
 70
     1
102
RTVSPropertyOp25
 70
     1
102
RTVSPropertyOp26
 70
     1
102
RTVSPropertyOp27
 70
     1
102
RTVSPropertyOp28
 70
     1
102
RTVSPropertyOp29
 70
     1
102
RTVSPropertyOp30
 70
     1
102
RTVSPropertyOp31
 70
     1
102
RTVSPropertyOp32
 70
     1
  0
XRECORD
  5
165
102
{ACAD_REACTORS
330
164
102
}
330
164
100
AcDbXrecord
280
     1
102
RTVSPropertyOp0
 70
     1
102
RTVSPropertyOp1
 70
     1
102
RTVSPropertyOp2
 70
     1
102
RTVSPropertyOp3
 70
     1
102
RTVSPropertyOp4
 70
     1
102
RTVSPropertyOp5
 70
     1
102
RTVSPropertyOp6
 70
     1
102
RTVSPropertyOp7
 70
     1
102
RTVSPropertyOp8
 70
     1
102
RTVSPropertyOp9
 70
     1
102
RTVSPropertyOp10
 70
     1
102
RTVSPropertyOp11
 70
     1
102
RTVSPropertyOp12
 70
     1
102
RTVSPropertyOp13
 70
     1
102
RTVSPropertyOp14
 70
     1
102
RTVSPropertyOp15
 70
     1
102
RTVSPropertyOp16
 70
     1
102
RTVSPropertyOp17
 70
     1
102
RTVSPropertyOp18
 70
     1
102
RTVSPropertyOp19
 70
     1
102
RTVSPropertyOp20
 70
     1
102
RTVSPropertyOp21
 70
     1
102
RTVSPropertyOp22
 70
     1
102
RTVSPropertyOp23
 70
     1
102
RTVSPropertyOp24
 70
     1
102
RTVSPropertyOp25
 70
     1
102
RTVSPropertyOp26
 70
     1
102
RTVSPropertyOp27
 70
     1
102
RTVSPropertyOp28
 70
     1
102
RTVSPropertyOp29
 70
     1
102
RTVSPropertyOp30
 70
     1
102
RTVSPropertyOp31
 70
     1
102
RTVSPropertyOp32
 70
     1
  0
XRECORD
  5
167
102
{ACAD_REACTORS
330
166
102
}
330
166
100
AcDbXrecord
280
     1
102
RTVSPropertyOp0
 70
     1
102
RTVSPropertyOp1
 70
     1
102
RTVSPropertyOp2
 70
     1
102
RTVSPropertyOp3
 70
     1
102
RTVSPropertyOp4
 70
     1
102
RTVSPropertyOp5
 70
     1
102
RTVSPropertyOp6
 70
     1
102
RTVSPropertyOp7
 70
     1
102
RTVSPropertyOp8
 70
     1
102
RTVSPropertyOp9
 70
     1
102
RTVSPropertyOp10
 70
     1
102
RTVSPropertyOp11
 70
     1
102
RTVSPropertyOp12
 70
     1
102
RTVSPropertyOp13
 70
     1
102
RTVSPropertyOp14
 70
     1
102
RTVSPropertyOp15
 70
     1
102
RTVSPropertyOp16
 70
     1
102
RTVSPropertyOp17
 70
     1
102
RTVSPropertyOp18
 70
     1
102
RTVSPropertyOp19
 70
     1
102
RTVSPropertyOp20
 70
     1
102
RTVSPropertyOp21
 70
     1
102
RTVSPropertyOp22
 70
     1
102
RTVSPropertyOp23
 70
     1
102
RTVSPropertyOp24
 70
     1
102
RTVSPropertyOp25
 70
     1
102
RTVSPropertyOp26
 70
     1
102
RTVSPropertyOp27
 70
     1
102
RTVSPropertyOp28
 70
     1
102
RTVSPropertyOp29
 70
     1
102
RTVSPropertyOp30
 70
     1
102
RTVSPropertyOp31
 70
     1
102
RTVSPropertyOp32
 70
     1
  0
XRECORD
  5
169
102
{ACAD_REACTORS
330
168
102
}
330
168
100
AcDbXrecord
280
     1
102
RTVSPropertyOp0
 70
     1
102
RTVSPropertyOp1
 70
     1
102
RTVSPropertyOp2
 70
     1
102
RTVSPropertyOp3
 70
     1
102
RTVSPropertyOp4
 70
     1
102
RTVSPropertyOp5
 70
     1
102
RTVSPropertyOp6
 70
     1
102
RTVSPropertyOp7
 70
     1
102
RTVSPropertyOp8
 70
     1
102
RTVSPropertyOp9
 70
     1
102
RTVSPropertyOp10
 70
     1
102
RTVSPropertyOp11
 70
     1
102
RTVSPropertyOp12
 70
     1
102
RTVSPropertyOp13
 70
     1
102
RTVSPropertyOp14
 70
     1
102
RTVSPropertyOp15
 70
     1
102
RTVSPropertyOp16
 70
     1
102
RTVSPropertyOp17
 70
     1
102
RTVSPropertyOp18
 70
     1
102
RTVSPropertyOp19
 70
     1
102
RTVSPropertyOp20
 70
     1
102
RTVSPropertyOp21
 70
     1
102
RTVSPropertyOp22
 70
     1
102
RTVSPropertyOp23
 70
     1
102
RTVSPropertyOp24
 70
     1
102
RTVSPropertyOp25
 70
     1
102
RTVSPropertyOp26
 70
     1
102
RTVSPropertyOp27
 70
     1
102
RTVSPropertyOp28
 70
     1
102
RTVSPropertyOp29
 70
     1
102
RTVSPropertyOp30
 70
     1
102
RTVSPropertyOp31
 70
     1
102
RTVSPropertyOp32
 70
     1
  0
XRECORD
  5
17D
102
{ACAD_REACTORS
330
17C
102
}
330
17C
100
AcDbXrecord
280
     1
102
RTVSPropertyOp0
 70
     1
102
RTVSPropertyOp1
 70
     1
102
RTVSPropertyOp2
 70
     1
102
RTVSPropertyOp3
 70
     1
102
RTVSPropertyOp4
 70
     1
102
RTVSPropertyOp5
 70
     1
102
RTVSPropertyOp6
 70
     1
102
RTVSPropertyOp7
 70
     1
102
RTVSPropertyOp8
 70
     1
102
RTVSPropertyOp9
 70
     1
102
RTVSPropertyOp10
 70
     1
102
RTVSPropertyOp11
 70
     1
102
RTVSPropertyOp12
 70
     1
102
RTVSPropertyOp13
 70
     1
102
RTVSPropertyOp14
 70
     1
102
RTVSPropertyOp15
 70
     1
102
RTVSPropertyOp16
 70
     1
102
RTVSPropertyOp17
 70
     1
102
RTVSPropertyOp18
 70
     1
102
RTVSPropertyOp19
 70
     1
102
RTVSPropertyOp20
 70
     1
102
RTVSPropertyOp21
 70
     1
102
RTVSPropertyOp22
 70
     1
102
RTVSPropertyOp23
 70
     1
102
RTVSPropertyOp24
 70
     1
102
RTVSPropertyOp25
 70
     1
102
RTVSPropertyOp26
 70
     1
102
RTVSPropertyOp27
 70
     1
102
RTVSPropertyOp28
 70
     1
102
RTVSPropertyOp29
 70
     1
102
RTVSPropertyOp30
 70
     1
102
RTVSPropertyOp31
 70
     1
102
RTVSPropertyOp32
 70
     1
  0
XRECORD
  5
173
102
{ACAD_REACTORS
330
172
102
}
330
172
100
AcDbXrecord
280
     1
102
RTVSPropertyOp0
 70
     1
102
RTVSPropertyOp1
 70
     1
102
RTVSPropertyOp2
 70
     1
102
RTVSPropertyOp3
 70
     1
102
RTVSPropertyOp4
 70
     1
102
RTVSPropertyOp5
 70
     1
102
RTVSPropertyOp6
 70
     1
102
RTVSPropertyOp7
 70
     1
102
RTVSPropertyOp8
 70
     1
102
RTVSPropertyOp9
 70
     1
102
RTVSPropertyOp10
 70
     1
102
RTVSPropertyOp11
 70
     1
102
RTVSPropertyOp12
 70
     1
102
RTVSPropertyOp13
 70
     1
102
RTVSPropertyOp14
 70
     1
102
RTVSPropertyOp15
 70
     1
102
RTVSPropertyOp16
 70
     1
102
RTVSPropertyOp17
 70
     1
102
RTVSPropertyOp18
 70
     1
102
RTVSPropertyOp19
 70
     1
102
RTVSPropertyOp20
 70
     1
102
RTVSPropertyOp21
 70
     1
102
RTVSPropertyOp22
 70
     1
102
RTVSPropertyOp23
 70
     1
102
RTVSPropertyOp24
 70
     1
102
RTVSPropertyOp25
 70
     1
102
RTVSPropertyOp26
 70
     1
102
RTVSPropertyOp27
 70
     1
102
RTVSPropertyOp28
 70
     1
102
RTVSPropertyOp29
 70
     1
102
RTVSPropertyOp30
 70
     1
102
RTVSPropertyOp31
 70
     1
102
RTVSPropertyOp32
 70
     1
  0
XRECORD
  5
17B
102
{ACAD_REACTORS
330
17A
102
}
330
17A
100
AcDbXrecord
280
     1
102
RTVSPropertyOp0
 70
     1
102
RTVSPropertyOp1
 70
     1
102
RTVSPropertyOp2
 70
     1
102
RTVSPropertyOp3
 70
     1
102
RTVSPropertyOp4
 70
     1
102
RTVSPropertyOp5
 70
     1
102
RTVSPropertyOp6
 70
     1
102
RTVSPropertyOp7
 70
     1
102
RTVSPropertyOp8
 70
     1
102
RTVSPropertyOp9
 70
     1
102
RTVSPropertyOp10
 70
     1
102
RTVSPropertyOp11
 70
     1
102
RTVSPropertyOp12
 70
     1
102
RTVSPropertyOp13
 70
     1
102
RTVSPropertyOp14
 70
     1
102
RTVSPropertyOp15
 70
     1
102
RTVSPropertyOp16
 70
     1
102
RTVSPropertyOp17
 70
     1
102
RTVSPropertyOp18
 70
     1
102
RTVSPropertyOp19
 70
     1
102
RTVSPropertyOp20
 70
     1
102
RTVSPropertyOp21
 70
     1
102
RTVSPropertyOp22
 70
     1
102
RTVSPropertyOp23
 70
     1
102
RTVSPropertyOp24
 70
     1
102
RTVSPropertyOp25
 70
     1
102
RTVSPropertyOp26
 70
     1
102
RTVSPropertyOp27
 70
     1
102
RTVSPropertyOp28
 70
     1
102
RTVSPropertyOp29
 70
     1
102
RTVSPropertyOp30
 70
     1
102
RTVSPropertyOp31
 70
     1
102
RTVSPropertyOp32
 70
     1
  0
ENDSEC
  0
EOF
