  0
SECTION
  2
HEADER
  9
$ACADVER
  1
AC1015
  9
$ACADMAINTVER
 70
     6
  9
$DWGCODEPAGE
  3
ANSI_932
  9
$INSBASE
 10
0.0
 20
0.0
 30
0.0
  9
$EXTMIN
 10
0.0
 20
0.0
 30
0.0
  9
$EXTMAX
 10
210.0
 20
297.0
 30
0.0
  9
$LIMMIN
 10
0.0
 20
0.0
  9
$LIMMAX
 10
12.0
 20
9.0
  9
$ORTHOMODE
 70
     0
  9
$REGENMODE
 70
     1
  9
$FILLMODE
 70
     1
  9
$QTEXTMODE
 70
     0
  9
$MIRRTEXT
 70
     1
  9
$LTSCALE
 40
1.0
  9
$ATTMODE
 70
     1
  9
$TEXTSIZE
 40
0.2
  9
$TRACEWID
 40
0.05
  9
$TEXTSTYLE
  7
Standard
  9
$CLAYER
  8
0
  9
$CELTYPE
  6
ByLayer
  9
$CECOLOR
 62
   256
  9
$CELTSCALE
 40
1.0
  9
$DISPSILH
 70
     0
  9
$DIMSCALE
 40
1.0
  9
$DIMASZ
 40
0.18
  9
$DIMEXO
 40
0.0625
  9
$DIMDLI
 40
0.38
  9
$DIMRND
 40
0.0
  9
$DIMDLE
 40
0.0
  9
$DIMEXE
 40
0.18
  9
$DIMTP
 40
0.0
  9
$DIMTM
 40
0.0
  9
$DIMTXT
 40
0.18
  9
$DIMCEN
 40
0.09
  9
$DIMTSZ
 40
0.0
  9
$DIMTOL
 70
     0
  9
$DIMLIM
 70
     0
  9
$DIMTIH
 70
     1
  9
$DIMTOH
 70
     1
  9
$DIMSE1
 70
     0
  9
$DIMSE2
 70
     0
  9
$DIMTAD
 70
     0
  9
$DIMZIN
 70
     0
  9
$DIMBLK
  1

  9
$DIMASO
 70
     1
  9
$DIMSHO
 70
     1
  9
$DIMPOST
  1

  9
$DIMAPOST
  1

  9
$DIMALT
 70
     0
  9
$DIMALTD
 70
     2
  9
$DIMALTF
 40
25.4
  9
$DIMLFAC
 40
1.0
  9
$DIMTOFL
 70
     0
  9
$DIMTVP
 40
0.0
  9
$DIMTIX
 70
     0
  9
$DIMSOXD
 70
     0
  9
$DIMSAH
 70
     0
  9
$DIMBLK1
  1

  9
$DIMBLK2
  1

  9
$DIMSTYLE
  2
Standard
  9
$DIMCLRD
 70
     0
  9
$DIMCLRE
 70
     0
  9
$DIMCLRT
 70
     0
  9
$DIMTFAC
 40
1.0
  9
$DIMGAP
 40
0.09
  9
$DIMJUST
 70
     0
  9
$DIMSD1
 70
     0
  9
$DIMSD2
 70
     0
  9
$DIMTOLJ
 70
     1
  9
$DIMTZIN
 70
     0
  9
$DIMALTZ
 70
     0
  9
$DIMALTTZ
 70
     0
  9
$DIMUPT
 70
     0
  9
$DIMDEC
 70
     4
  9
$DIMTDEC
 70
     4
  9
$DIMALTU
 70
     2
  9
$DIMALTTD
 70
     2
  9
$DIMTXSTY
  7
Standard
  9
$DIMAUNIT
 70
     0
  9
$DIMADEC
 70
     0
  9
$DIMALTRND
 40
0.0
  9
$DIMAZIN
 70
     0
  9
$DIMDSEP
 70
    46
  9
$DIMATFIT
 70
     3
  9
$DIMFRAC
 70
     0
  9
$DIMLDRBLK
  1

  9
$DIMLUNIT
 70
     2
  9
$DIMLWD
 70
    -2
  9
$DIMLWE
 70
    -2
  9
$DIMTMOVE
 70
     0
  9
$LUNITS
 70
     2
  9
$LUPREC
 70
     4
  9
$SKETCHINC
 40
0.1
  9
$FILLETRAD
 40
0.5
  9
$AUNITS
 70
     0
  9
$AUPREC
 70
     0
  9
$MENU
  1
.
  9
$ELEVATION
 40
0.0
  9
$PELEVATION
 40
0.0
  9
$THICKNESS
 40
0.0
  9
$LIMCHECK
 70
     0
  9
$CHAMFERA
 40
0.5
  9
$CHAMFERB
 40
0.5
  9
$CHAMFERC
 40
1.0
  9
$CHAMFERD
 40
0.0
  9
$SKPOLY
 70
     0
  9
$TDCREATE
 40
2460264.602454028
  9
$TDUCREATE
 40
2460264.227454028
  9
$TDUPDATE
 40
2460264.602455116
  9
$TDUUPDATE
 40
2460264.227455116
  9
$TDINDWG
 40
0.0000000116
  9
$TDUSRTIMER
 40
0.0000000116
  9
$USRTIMER
 70
     1
  9
$ANGBASE
 50
0.0
  9
$ANGDIR
 70
     0
  9
$PDMODE
 70
     0
  9
$PDSIZE
 40
0.0
  9
$PLINEWID
 40
0.0
  9
$SPLFRAME
 70
     0
  9
$SPLINETYPE
 70
     6
  9
$SPLINESEGS
 70
     8
  9
$HANDSEED
  5
1D6
  9
$SURFTAB1
 70
     6
  9
$SURFTAB2
 70
     6
  9
$SURFTYPE
 70
     6
  9
$SURFU
 70
     6
  9
$SURFV
 70
     6
  9
$UCSBASE
  2

  9
$UCSNAME
  2

  9
$UCSORG
 10
0.0
 20
0.0
 30
0.0
  9
$UCSXDIR
 10
1.0
 20
0.0
 30
0.0
  9
$UCSYDIR
 10
0.0
 20
1.0
 30
0.0
  9
$UCSORTHOREF
  2

  9
$UCSORTHOVIEW
 70
     0
  9
$UCSORGTOP
 10
0.0
 20
0.0
 30
0.0
  9
$UCSORGBOTTOM
 10
0.0
 20
0.0
 30
0.0
  9
$UCSORGLEFT
 10
0.0
 20
0.0
 30
0.0
  9
$UCSORGRIGHT
 10
0.0
 20
0.0
 30
0.0
  9
$UCSORGFRONT
 10
0.0
 20
0.0
 30
0.0
  9
$UCSORGBACK
 10
0.0
 20
0.0
 30
0.0
  9
$PUCSBASE
  2

  9
$PUCSNAME
  2

  9
$PUCSORG
 10
0.0
 20
0.0
 30
0.0
  9
$PUCSXDIR
 10
1.0
 20
0.0
 30
0.0
  9
$PUCSYDIR
 10
0.0
 20
1.0
 30
0.0
  9
$PUCSORTHOREF
  2

  9
$PUCSORTHOVIEW
 70
     0
  9
$PUCSORGTOP
 10
0.0
 20
0.0
 30
0.0
  9
$PUCSORGBOTTOM
 10
0.0
 20
0.0
 30
0.0
  9
$PUCSORGLEFT
 10
0.0
 20
0.0
 30
0.0
  9
$PUCSORGRIGHT
 10
0.0
 20
0.0
 30
0.0
  9
$PUCSORGFRONT
 10
0.0
 20
0.0
 30
0.0
  9
$PUCSORGBACK
 10
0.0
 20
0.0
 30
0.0
  9
$USERI1
 70
     0
  9
$USERI2
 70
     0
  9
$USERI3
 70
     0
  9
$USERI4
 70
     0
  9
$USERI5
 70
     0
  9
$USERR1
 40
18.1
  9
$USERR2
 40
0.0
  9
$USERR3
 40
0.0
  9
$USERR4
 40
0.0
  9
$USERR5
 40
0.0
  9
$WORLDVIEW
 70
     1
  9
$SHADEDGE
 70
     3
  9
$SHADEDIF
 70
    70
  9
$TILEMODE
 70
     1
  9
$MAXACTVP
 70
    64
  9
$PINSBASE
 10
0.0
 20
0.0
 30
0.0
  9
$PLIMCHECK
 70
     0
  9
$PEXTMIN
 10
1.00000000000000E+20
 20
1.00000000000000E+20
 30
1.00000000000000E+20
  9
$PEXTMAX
 10
-1.00000000000000E+20
 20
-1.00000000000000E+20
 30
-1.00000000000000E+20
  9
$PLIMMIN
 10
0.0
 20
0.0
  9
$PLIMMAX
 10
12.0
 20
9.0
  9
$UNITMODE
 70
     0
  9
$VISRETAIN
 70
     1
  9
$PLINEGEN
 70
     0
  9
$PSLTSCALE
 70
     1
  9
$TREEDEPTH
 70
  3020
  9
$CMLSTYLE
  2
Standard
  9
$CMLJUST
 70
     0
  9
$CMLSCALE
 40
1.0
  9
$PROXYGRAPHICS
 70
     1
  9
$MEASUREMENT
 70
     1
  9
$CELWEIGHT
370
    -1
  9
$ENDCAPS
280
     0
  9
$JOINSTYLE
280
     0
  9
$LWDISPLAY
290
     0
  9
$INSUNITS
 70
     4
  9
$HYPERLINKBASE
  1

  9
$STYLESHEET
  1

  9
$XEDIT
290
     1
  9
$CEPSNTYPE
380
     0
  9
$PSTYLEMODE
290
     1
  9
$FINGERPRINTGUID
  2
{8799304D-B9A8-4DA0-8A88-903ECD24F9E7}
  9
$VERSIONGUID
  2
{FAEB1C32-E019-11D5-929B-00C0DF256EC4}
  9
$EXTNAMES
290
     1
  9
$PSVPSCALE
 40
0.0
  9
$OLESTARTUP
290
     0
  0
ENDSEC
  0
SECTION
  2
CLASSES
  0
CLASS
  1
ACDBDICTIONARYWDFLT
  2
AcDbDictionaryWithDefault
  3
ObjectDBX Classes
 90
        0
280
     0
281
     0
  0
CLASS
  1
VISUALSTYLE
  2
AcDbVisualStyle
  3
ObjectDBX Classes
 90
     4095
280
     0
281
     0
  0
CLASS
  1
MATERIAL
  2
AcDbMaterial
  3
ObjectDBX Classes
 90
     1153
280
     0
281
     0
  0
CLASS
  1
DICTIONARYVAR
  2
AcDbDictionaryVar
  3
ObjectDBX Classes
 90
        0
280
     0
281
     0
  0
CLASS
  1
ACDBPLACEHOLDER
  2
AcDbPlaceHolder
  3
ObjectDBX Classes
 90
        0
280
     0
281
     0
  0
CLASS
  1
LAYOUT
  2
AcDbLayout
  3
ObjectDBX Classes
 90
        0
280
     0
281
     0
  0
ENDSEC
  0
SECTION
  2
TABLES
  0
TABLE
  2
VPORT
  5
8
330
0
100
AcDbSymbolTable
 70
     1
  0
VPORT
  5
29
330
8
100
AcDbSymbolTableRecord
100
AcDbViewportTableRecord
  2
*Active
 70
     0
 10
0.0
 20
0.0
 11
1.0
 21
1.0
 12
105.0
 22
148.5
 13
0.0
 23
0.0
 14
0.5
 24
0.5
 15
0.5
 25
0.5
 16
0.0
 26
0.0
 36
1.0
 17
0.0
 27
0.0
 37
0.0
 40
326.7
 41
1.60267857142857
 42
50.0
 43
0.0
 44
0.0
 50
0.0
 51
0.0
 71
     0
 72
   100
 73
     1
 74
     3
 75
     0
 76
     0
 77
     0
 78
     0
281
     0
 65
     1
110
0.0
120
0.0
130
0.0
111
1.0
121
0.0
131
0.0
112
0.0
122
1.0
132
0.0
 79
     0
146
0.0
  0
ENDTAB
  0
TABLE
  2
LTYPE
  5
5
330
0
100
AcDbSymbolTable
 70
     8
  0
LTYPE
  5
14
330
5
100
AcDbSymbolTableRecord
100
AcDbLinetypeTableRecord
  2
ByBlock
 70
     0
  3

 72
    65
 73
     0
 40
0.0
  0
LTYPE
  5
15
330
5
100
AcDbSymbolTableRecord
100
AcDbLinetypeTableRecord
  2
ByLayer
 70
     0
  3

 72
    65
 73
     0
 40
0.0
  0
LTYPE
  5
16
330
5
100
AcDbSymbolTableRecord
100
AcDbLinetypeTableRecord
  2
Continuous
 70
     0
  3
Solid line
 72
    65
 73
     0
 40
0.0
  0
LTYPE
  5
3F
330
5
100
AcDbSymbolTableRecord
100
AcDbLinetypeTableRecord
  2
DASHED
 70
     0
  3
Dashed
 72
    65
 73
     2
 40
15.0
 49
7.0
 74
     0
 49
-8.0
 74
     0
  0
LTYPE
  5
40
330
5
100
AcDbSymbolTableRecord
100
AcDbLinetypeTableRecord
  2
DOTTED
 70
     0
  3
Dotted
 72
    65
 73
     2
 40
1.0
 49
0.0
 74
     0
 49
-1.0
 74
     0
  0
LTYPE
  5
41
330
5
100
AcDbSymbolTableRecord
100
AcDbLinetypeTableRecord
  2
DOT_CENTER
 70
     0
  3
Dot_Center
 72
    65
 73
     4
 40
14.0
 49
12.0
 74
     0
 49
-1.0
 74
     0
 49
0.0
 74
     0
 49
-1.0
 74
     0
  0
LTYPE
  5
42
330
5
100
AcDbSymbolTableRecord
100
AcDbLinetypeTableRecord
  2
LONG_DASHED
 70
     0
  3
Long_Dashed
 72
    65
 73
     2
 40
15.0
 49
10.0
 74
     0
 49
-5.0
 74
     0
  0
LTYPE
  5
43
330
5
100
AcDbSymbolTableRecord
100
AcDbLinetypeTableRecord
  2
DASH_CENTER
 70
     0
  3
Dash_Center
 72
    65
 73
     4
 40
14.0
 49
11.0
 74
     0
 49
-1.0
 74
     0
 49
1.0
 74
     0
 49
-1.0
 74
     0
  0
LTYPE
  5
44
330
5
100
AcDbSymbolTableRecord
100
AcDbLinetypeTableRecord
  2
PHANTOM
 70
     0
  3
Phantom
 72
    65
 73
     6
 40
13.0
 49
10.0
 74
     0
 49
-1.0
 74
     0
 49
0.0
 74
     0
 49
-1.0
 74
     0
 49
0.0
 74
     0
 49
-1.0
 74
     0
  0
LTYPE
  5
45
330
5
100
AcDbSymbolTableRecord
100
AcDbLinetypeTableRecord
  2
CENTER_DASH_DASH
 70
     0
  3
Center_Dash_Dash
 72
    65
 73
     6
 40
14.0
 49
9.0
 74
     0
 49
-1.0
 74
     0
 49
1.0
 74
     0
 49
-1.0
 74
     0
 49
1.0
 74
     0
 49
-1.0
 74
     0
  0
ENDTAB
  0
TABLE
  2
LAYER
  5
2
330
0
100
AcDbSymbolTable
 70
     3
  0
LAYER
  5
10
330
2
100
AcDbSymbolTableRecord
100
AcDbLayerTableRecord
  2
0
 70
     0
 62
     7
  6
Continuous
370
    -3
390
F
  0
LAYER
  5
46
330
2
100
AcDbSymbolTableRecord
100
AcDbLayerTableRecord
  2
1
 70
     0
 62
     7
  6
Continuous
370
    -3
390
F
  0
LAYER
  5
47
330
2
100
AcDbSymbolTableRecord
100
AcDbLayerTableRecord
  2
_U_30EC_U_30A4_U_30E4_U_30FC_1
 70
     0
 62
     7
  6
Continuous
370
    -3
390
F
  0
ENDTAB
  0
TABLE
  2
STYLE
  5
3
330
0
100
AcDbSymbolTable
 70
     3
  0
STYLE
  5
11
330
3
100
AcDbSymbolTableRecord
100
AcDbTextStyleTableRecord
  2
Standard
 70
     0
 40
0.0
 41
1.0
 50
0.0
 71
     0
 42
0.2
  3
txt
  4

  0
STYLE
  5
B2
330
3
100
AcDbSymbolTableRecord
100
AcDbTextStyleTableRecord
  2
CONVERTER_11
 70
     0
 40
0.0
 41
0.89
 50
0.0
 71
     0
 42
0.2
  3
MS Mincho.ttf
  4

1001
ACAD
1000
MS Mincho
1071
    32785
  0
STYLE
  5
15D
330
3
100
AcDbSymbolTableRecord
100
AcDbTextStyleTableRecord
  2
CONVERTER_12
 70
     0
 40
0.0
 41
0.9
 50
0.0
 71
     0
 42
0.2
  3
txt.shx
  4

  0
ENDTAB
  0
TABLE
  2
VIEW
  5
6
330
0
100
AcDbSymbolTable
 70
     0
  0
ENDTAB
  0
TABLE
  2
UCS
  5
7
330
0
100
AcDbSymbolTable
 70
     0
  0
ENDTAB
  0
TABLE
  2
APPID
  5
9
330
0
100
AcDbSymbolTable
 70
     1
  0
APPID
  5
12
330
9
100
AcDbSymbolTableRecord
100
AcDbRegAppTableRecord
  2
ACAD
 70
     0
  0
ENDTAB
  0
TABLE
  2
DIMSTYLE
  5
A
330
0
100
AcDbSymbolTable
 70
     6
100
AcDbDimStyleTable
  0
DIMSTYLE
105
27
330
A
100
AcDbSymbolTableRecord
100
AcDbDimStyleTableRecord
  2
Standard
 70
     0
178
     0
340
11
  0
DIMSTYLE
105
175
102
{ACAD_REACTORS
330
176
102
}
330
A
100
AcDbSymbolTableRecord
100
AcDbDimStyleTableRecord
  2
ME10_DIM_10
 70
     0
 41
3.5
 42
0.0
 44
1.0
 73
     0
 74
     0
 77
     1
 78
     8
140
3.5
147
1.0
172
     1
173
     1
174
     1
175
     1
176
     2
177
     2
271
     2
178
     7
271
     2
340
15D
  0
DIMSTYLE
105
180
102
{ACAD_REACTORS
330
181
102
}
330
A
100
AcDbSymbolTableRecord
100
AcDbDimStyleTableRecord
  2
ME10_DIM_11
 70
     0
 41
3.5
 42
0.0
 44
1.0
 73
     0
 74
     0
 77
     1
 78
     8
140
3.5
147
1.0
172
     1
173
     1
174
     1
175
     1
176
     2
177
     2
271
     2
178
     7
271
     2
340
15D
  0
DIMSTYLE
105
18B
102
{ACAD_REACTORS
330
18C
102
}
330
A
100
AcDbSymbolTableRecord
100
AcDbDimStyleTableRecord
  2
ME10_DIM_12
 70
     0
 41
3.5
 42
0.0
 44
1.0
 73
     0
 74
     0
 77
     1
 78
     8
140
3.5
147
1.0
172
     1
173
     1
174
     1
175
     1
176
     2
177
     2
271
     2
178
     7
271
     2
340
15D
  0
DIMSTYLE
105
196
102
{ACAD_REACTORS
330
197
102
}
330
A
100
AcDbSymbolTableRecord
100
AcDbDimStyleTableRecord
  2
ME10_DIM_13
 70
     0
 41
3.5
 42
0.0
 44
1.0
 73
     0
 74
     0
 77
     1
 78
     8
140
3.5
147
1.0
172
     1
173
     1
174
     1
175
     1
176
     2
177
     2
271
     2
178
     7
271
     2
340
15D
  0
DIMSTYLE
105
1A1
102
{ACAD_REACTORS
330
1A2
102
}
330
A
100
AcDbSymbolTableRecord
100
AcDbDimStyleTableRecord
  2
ME10_DIM_14
 70
     0
 41
3.5
 42
0.0
 44
1.0
 73
     0
 74
     0
 77
     1
 78
     8
140
3.5
147
1.0
172
     1
173
     1
174
     1
175
     1
176
     2
177
     2
271
     2
178
     7
271
     2
340
15D
  0
ENDTAB
  0
TABLE
  2
BLOCK_RECORD
  5
1
330
0
100
AcDbSymbolTable
 70
     9
  0
BLOCK_RECORD
  5
1F
330
1
100
AcDbSymbolTableRecord
100
AcDbBlockTableRecord
  2
*Model_Space
340
22
  0
BLOCK_RECORD
  5
1B
330
1
100
AcDbSymbolTableRecord
100
AcDbBlockTableRecord
  2
*Paper_Space
340
1E
  0
BLOCK_RECORD
  5
23
330
1
100
AcDbSymbolTableRecord
100
AcDbBlockTableRecord
  2
*Paper_Space0
340
26
  0
BLOCK_RECORD
  5
48
330
1
100
AcDbSymbolTableRecord
100
AcDbBlockTableRecord
  2
開示A4
340
0
102
{BLKREFS
331
4C
102
}
  0
BLOCK_RECORD
  5
4B
330
1
100
AcDbSymbolTableRecord
100
AcDbBlockTableRecord
  2
開示A4枠
340
0
102
{BLKREFS
331
4F
102
}
  0
BLOCK_RECORD
  5
16C
330
1
100
AcDbSymbolTableRecord
100
AcDbBlockTableRecord
  2
*D3
340
0
  0
BLOCK_RECORD
  5
177
330
1
100
AcDbSymbolTableRecord
100
AcDbBlockTableRecord
  2
*D4
340
0
  0
BLOCK_RECORD
  5
182
330
1
100
AcDbSymbolTableRecord
100
AcDbBlockTableRecord
  2
*D5
340
0
  0
BLOCK_RECORD
  5
18D
330
1
100
AcDbSymbolTableRecord
100
AcDbBlockTableRecord
  2
*D6
340
0
  0
BLOCK_RECORD
  5
198
330
1
100
AcDbSymbolTableRecord
100
AcDbBlockTableRecord
  2
*D7
340
0
  0
BLOCK_RECORD
  5
1A3
330
1
100
AcDbSymbolTableRecord
100
AcDbBlockTableRecord
  2
*D8
340
0
102
{BLKREFS
331
1AA
102
}
  0
ENDTAB
  0
ENDSEC
  0
SECTION
  2
BLOCKS
  0
BLOCK
  5
20
330
1F
100
AcDbEntity
  8
0
100
AcDbBlockBegin
  2
*Model_Space
 70
     0
 10
0.0
 20
0.0
 30
0.0
  3
*Model_Space
  1

  0
ENDBLK
  5
21
330
1F
100
AcDbEntity
  8
0
100
AcDbBlockEnd
  0
BLOCK
  5
1C
330
1B
100
AcDbEntity
 67
     1
  8
0
100
AcDbBlockBegin
  2
*Paper_Space
 70
     0
 10
0.0
 20
0.0
 30
0.0
  3
*Paper_Space
  1

  0
ENDBLK
  5
1D
330
1B
100
AcDbEntity
 67
     1
  8
0
100
AcDbBlockEnd
  0
BLOCK
  5
24
330
23
100
AcDbEntity
  8
0
100
AcDbBlockBegin
  2
*Paper_Space0
 70
     0
 10
0.0
 20
0.0
 30
0.0
  3
*Paper_Space0
  1

  0
ENDBLK
  5
25
330
23
100
AcDbEntity
  8
0
100
AcDbBlockEnd
  0
BLOCK
  5
49
330
48
100
AcDbEntity
  8
0
100
AcDbBlockBegin
  2
開示A4
 70
     0
 10
0.0
 20
0.0
 30
0.0
  3
開示A4
  1

  0
POINT
  5
50
330
48
100
AcDbEntity
  8
1
 62
     4
100
AcDbPoint
 10
34.0
 20
34.0
 30
0.0
  0
POINT
  5
51
330
48
100
AcDbEntity
  8
1
 62
     4
100
AcDbPoint
 10
57.0
 20
12.25
 30
0.0
  0
POINT
  5
52
330
48
100
AcDbEntity
  8
1
 62
     4
100
AcDbPoint
 10
57.0
 20
20.75
 30
0.0
  0
POINT
  5
53
330
48
100
AcDbEntity
  8
1
 62
     4
100
AcDbPoint
 10
57.0
 20
24.75
 30
0.0
  0
POINT
  5
54
330
48
100
AcDbEntity
  8
1
 62
     4
100
AcDbPoint
 10
57.0
 20
16.25
 30
0.0
  0
POINT
  5
55
330
48
100
AcDbEntity
  8
1
 62
     4
100
AcDbPoint
 10
157.5
 20
19.0
 30
0.0
  0
POINT
  5
56
330
48
100
AcDbEntity
  8
1
 62
     4
100
AcDbPoint
 10
47.5
 20
282.0000000000003
 30
0.0
  0
POINT
  5
57
330
48
100
AcDbEntity
  8
1
 62
     4
100
AcDbPoint
 10
57.0
 20
22.75
 30
0.0
  0
POINT
  5
58
330
48
100
AcDbEntity
  8
1
 62
     4
100
AcDbPoint
 10
57.0
 20
14.25
 30
0.0
  0
POINT
  5
59
330
48
100
AcDbEntity
  8
1
 62
     4
100
AcDbPoint
 10
157.5
 20
12.5
 30
0.0
  0
POINT
  5
5A
330
48
100
AcDbEntity
  8
1
 62
     4
100
AcDbPoint
 10
163.25
 20
12.5
 30
0.0
  0
POINT
  5
5B
330
48
100
AcDbEntity
  8
1
 62
     4
100
AcDbPoint
 10
151.75
 20
12.5
 30
0.0
  0
POINT
  5
5C
330
48
100
AcDbEntity
  8
1
 62
     4
100
AcDbPoint
 10
134.75
 20
12.5
 30
0.0
  0
POINT
  5
5D
330
48
100
AcDbEntity
  8
1
 62
     4
100
AcDbPoint
 10
146.25
 20
12.5
 30
0.0
  0
POINT
  5
5E
330
48
100
AcDbEntity
  8
1
 62
     4
100
AcDbPoint
 10
140.5
 20
12.5
 30
0.0
  0
POINT
  5
5F
330
48
100
AcDbEntity
  8
1
 62
     4
100
AcDbPoint
 10
140.5
 20
19.0
 30
0.0
  0
POINT
  5
60
330
48
100
AcDbEntity
  8
1
 62
     4
100
AcDbPoint
 10
117.75
 20
12.5
 30
0.0
  0
POINT
  5
61
330
48
100
AcDbEntity
  8
1
 62
     4
100
AcDbPoint
 10
129.25
 20
12.5
 30
0.0
  0
POINT
  5
62
330
48
100
AcDbEntity
  8
1
 62
     4
100
AcDbPoint
 10
123.5
 20
12.5
 30
0.0
  0
POINT
  5
63
330
48
100
AcDbEntity
  8
1
 62
     4
100
AcDbPoint
 10
123.5
 20
19.0
 30
0.0
  0
POINT
  5
64
330
48
100
AcDbEntity
  8
1
 62
     4
100
AcDbPoint
 10
100.75
 20
12.5
 30
0.0
  0
POINT
  5
65
330
48
100
AcDbEntity
  8
1
 62
     4
100
AcDbPoint
 10
112.25
 20
12.5
 30
0.0
  0
POINT
  5
66
330
48
100
AcDbEntity
  8
1
 62
     4
100
AcDbPoint
 10
106.5
 20
12.5
 30
0.0
  0
POINT
  5
67
330
48
100
AcDbEntity
  8
1
 62
     4
100
AcDbPoint
 10
106.5
 20
19.0
 30
0.0
  0
POINT
  5
68
330
48
100
AcDbEntity
  8
1
 62
     4
100
AcDbPoint
 10
85.24999999999997
 20
17.0
 30
0.0
  0
POINT
  5
69
330
48
100
AcDbEntity
  8
1
 62
     4
100
AcDbPoint
 10
93.74999999999997
 20
17.0
 30
0.0
  0
POINT
  5
6A
330
48
100
AcDbEntity
  8
1
 62
     4
100
AcDbPoint
 10
183.0
 20
15.0
 30
0.0
  0
LINE
  5
6B
330
48
100
AcDbEntity
  8
1
  6
Continuous
 62
     2
100
AcDbLine
 10
80.99999999999997
 20
27.0
 30
0.0
 11
80.99999999999997
 21
10.0
 31
0.0
  0
LINE
  5
6C
330
48
100
AcDbEntity
  8
1
  6
DOT_CENTER
 62
     2
100
AcDbLine
 10
187.0
 20
26.5
 30
0.0
 11
187.0
 21
20.5
 31
0.0
  0
LINE
  5
6D
330
48
100
AcDbEntity
  8
1
  6
DOT_CENTER
 62
     2
100
AcDbLine
 10
184.0
 20
23.5
 30
0.0
 11
197.0
 21
23.5
 31
0.0
  0
LINE
  5
6E
330
48
100
AcDbEntity
  8
1
  6
Continuous
 62
     7
100
AcDbLine
 10
196.0
 20
21.5
 30
0.0
 11
191.0
 21
22.29999999999998
 31
0.0
  0
LINE
  5
6F
330
48
100
AcDbEntity
  8
1
  6
Continuous
 62
     7
100
AcDbLine
 10
196.0
 20
25.5
 30
0.0
 11
196.0
 21
21.5
 31
0.0
  0
LINE
  5
70
330
48
100
AcDbEntity
  8
1
  6
Continuous
 62
     7
100
AcDbLine
 10
191.0
 20
24.69999999999999
 30
0.0
 11
196.0
 21
25.5
 31
0.0
  0
LINE
  5
71
330
48
100
AcDbEntity
  8
1
  6
Continuous
 62
     7
100
AcDbLine
 10
191.0
 20
24.69999999999999
 30
0.0
 11
191.0
 21
22.29999999999998
 31
0.0
  0
LINE
  5
72
330
48
100
AcDbEntity
  8
1
  6
Continuous
 62
     2
100
AcDbLine
 10
33.0
 20
27.0
 30
0.0
 11
33.0
 21
10.0
 31
0.0
  0
LINE
  5
73
330
48
100
AcDbEntity
  8
1
  6
Continuous
 62
     2
100
AcDbLine
 10
25.0
 20
18.5
 30
0.0
 11
80.99999999999997
 21
18.5
 31
0.0
  0
LINE
  5
74
330
48
100
AcDbEntity
  8
1
  6
Continuous
 62
     7
100
AcDbLine
 10
200.0
 20
287.0000000000003
 30
0.0
 11
105.0
 21
287.0000000000003
 31
0.0
  0
LINE
  5
75
330
48
100
AcDbEntity
  8
1
  6
Continuous
 62
     7
100
AcDbLine
 10
200.0
 20
10.0
 30
0.0
 11
200.0
 21
148.5
 31
0.0
  0
LINE
  5
76
330
48
100
AcDbEntity
  8
1
  6
Continuous
 62
     7
100
AcDbLine
 10
25.0
 20
10.0
 30
0.0
 11
105.0
 21
10.0
 31
0.0
  0
LINE
  5
77
330
48
100
AcDbEntity
  8
1
  6
PHANTOM
 62
     4
100
AcDbLine
 10
0.0
 20
297.0
 30
0.0
 11
0.0
 21
0.0
 31
0.0
  0
LINE
  5
78
330
48
100
AcDbEntity
  8
1
  6
PHANTOM
 62
     4
100
AcDbLine
 10
210.0
 20
297.0
 30
0.0
 11
0.0
 21
297.0
 31
0.0
  0
LINE
  5
79
330
48
100
AcDbEntity
  8
1
  6
PHANTOM
 62
     4
100
AcDbLine
 10
210.0
 20
0.0
 30
0.0
 11
210.0
 21
297.0
 31
0.0
  0
LINE
  5
7A
330
48
100
AcDbEntity
  8
1
  6
PHANTOM
 62
     4
100
AcDbLine
 10
0.0
 20
0.0
 30
0.0
 11
210.0
 21
0.0
 31
0.0
  0
LINE
  5
7B
330
48
100
AcDbEntity
  8
1
  6
Continuous
 62
     7
100
AcDbLine
 10
25.0
 20
41.0
 30
0.0
 11
200.0
 21
41.0
 31
0.0
  0
LINE
  5
7C
330
48
100
AcDbEntity
  8
1
  6
Continuous
 62
     7
100
AcDbLine
 10
200.0
 20
27.0
 30
0.0
 11
25.0
 21
27.0
 31
0.0
  0
LINE
  5
7D
330
48
100
AcDbEntity
  8
1
  6
Continuous
 62
     2
100
AcDbLine
 10
33.0
 20
41.0
 30
0.0
 11
33.0
 21
27.0
 31
0.0
  0
LINE
  5
7E
330
48
100
AcDbEntity
  8
1
  6
Continuous
 62
     2
100
AcDbLine
 10
55.0
 20
287.0000000000003
 30
0.0
 11
55.0
 21
277.0000000000003
 31
0.0
  0
LINE
  5
7F
330
48
100
AcDbEntity
  8
1
  6
Continuous
 62
     2
100
AcDbLine
 10
40.0
 20
287.0000000000003
 30
0.0
 11
40.0
 21
277.0000000000003
 31
0.0
  0
LINE
  5
80
330
48
100
AcDbEntity
  8
1
  6
Continuous
 62
     7
100
AcDbLine
 10
25.0
 20
10.0
 30
0.0
 11
25.0
 21
148.5
 31
0.0
  0
LINE
  5
81
330
48
100
AcDbEntity
  8
1
  6
Continuous
 62
     2
100
AcDbLine
 10
55.0
 20
277.0000000000003
 30
0.0
 11
25.0
 21
277.0000000000003
 31
0.0
  0
LINE
  5
82
330
48
100
AcDbEntity
  8
1
  6
Continuous
 62
     2
100
AcDbLine
 10
166.0
 20
27.0
 30
0.0
 11
166.0
 21
10.0
 31
0.0
  0
LINE
  5
83
330
48
100
AcDbEntity
  8
1
  6
Continuous
 62
     2
100
AcDbLine
 10
132.0
 20
27.0
 30
0.0
 11
132.0
 21
10.0
 31
0.0
  0
LINE
  5
84
330
48
100
AcDbEntity
  8
1
  6
Continuous
 62
     2
100
AcDbLine
 10
149.0
 20
27.0
 30
0.0
 11
149.0
 21
10.0
 31
0.0
  0
LINE
  5
85
330
48
100
AcDbEntity
  8
1
  6
Continuous
 62
     2
100
AcDbLine
 10
115.0
 20
27.0
 30
0.0
 11
115.0
 21
10.0
 31
0.0
  0
LINE
  5
86
330
48
100
AcDbEntity
  8
1
  6
Continuous
 62
     2
100
AcDbLine
 10
97.99999999999997
 20
27.0
 30
0.0
 11
97.99999999999997
 21
10.0
 31
0.0
  0
LINE
  5
87
330
48
100
AcDbEntity
  8
1
  6
Continuous
 62
     2
100
AcDbLine
 10
166.0
 20
20.0
 30
0.0
 11
200.0
 21
20.0
 31
0.0
  0
LINE
  5
88
330
48
100
AcDbEntity
  8
1
  6
Continuous
 62
     2
100
AcDbLine
 10
105.0
 20
287.0000000000003
 30
0.0
 11
105.0
 21
292.0000000000003
 31
0.0
  0
LINE
  5
89
330
48
100
AcDbEntity
  8
1
  6
Continuous
 62
     7
100
AcDbLine
 10
105.0
 20
287.0000000000003
 30
0.0
 11
25.0
 21
287.0000000000003
 31
0.0
  0
LINE
  5
8A
330
48
100
AcDbEntity
  8
1
  6
Continuous
 62
     2
100
AcDbLine
 10
25.0
 20
148.5
 30
0.0
 11
20.0
 21
148.5
 31
0.0
  0
LINE
  5
8B
330
48
100
AcDbEntity
  8
1
  6
Continuous
 62
     7
100
AcDbLine
 10
25.0
 20
148.5
 30
0.0
 11
25.0
 21
287.0000000000003
 31
0.0
  0
LINE
  5
8C
330
48
100
AcDbEntity
  8
1
  6
Continuous
 62
     2
100
AcDbLine
 10
200.0
 20
148.5
 30
0.0
 11
205.0
 21
148.5
 31
0.0
  0
LINE
  5
8D
330
48
100
AcDbEntity
  8
1
  6
Continuous
 62
     7
100
AcDbLine
 10
200.0
 20
148.5
 30
0.0
 11
200.0
 21
287.0000000000003
 31
0.0
  0
LINE
  5
8E
330
48
100
AcDbEntity
  8
1
  6
Continuous
 62
     2
100
AcDbLine
 10
105.0
 20
10.0
 30
0.0
 11
105.0
 21
5.0
 31
0.0
  0
LINE
  5
8F
330
48
100
AcDbEntity
  8
1
  6
Continuous
 62
     7
100
AcDbLine
 10
105.0
 20
10.0
 30
0.0
 11
200.0
 21
10.0
 31
0.0
  0
CIRCLE
  5
94
330
48
100
AcDbEntity
  8
1
  6
DOT_CENTER
 62
     7
100
AcDbCircle
 10
89.49999999999997
 20
18.0
 30
0.0
 40
0.1000000000000227
  0
CIRCLE
  5
95
330
48
100
AcDbEntity
  8
1
  6
DOT_CENTER
 62
     7
100
AcDbCircle
 10
89.49999999999997
 20
16.0
 30
0.0
 40
0.1000000000000227
  0
CIRCLE
  5
96
330
48
100
AcDbEntity
  8
1
  6
Continuous
 62
     7
100
AcDbCircle
 10
187.0
 20
23.5
 30
0.0
 40
2.0
  0
CIRCLE
  5
97
330
48
100
AcDbEntity
  8
1
  6
Continuous
 62
     7
100
AcDbCircle
 10
187.0
 20
23.5
 30
0.0
 40
1.200000000000188
  0
CIRCLE
  5
98
330
48
100
AcDbEntity
  8
1
  6
Continuous
 62
     7
100
AcDbCircle
 10
154.5
 20
12.5
 30
0.0
 40
0.3000000000000966
  0
CIRCLE
  5
99
330
48
100
AcDbEntity
  8
1
  6
Continuous
 62
     7
100
AcDbCircle
 10
160.5
 20
12.5
 30
0.0
 40
0.3000000000000966
  0
CIRCLE
  5
9A
330
48
100
AcDbEntity
  8
1
  6
Continuous
 62
     7
100
AcDbCircle
 10
143.5
 20
12.5
 30
0.0
 40
0.3000000000000966
  0
CIRCLE
  5
9B
330
48
100
AcDbEntity
  8
1
  6
Continuous
 62
     7
100
AcDbCircle
 10
137.5
 20
12.5
 30
0.0
 40
0.3000000000000114
  0
CIRCLE
  5
9C
330
48
100
AcDbEntity
  8
1
  6
Continuous
 62
     7
100
AcDbCircle
 10
126.5
 20
12.5
 30
0.0
 40
0.2999999999999972
  0
CIRCLE
  5
9D
330
48
100
AcDbEntity
  8
1
  6
Continuous
 62
     7
100
AcDbCircle
 10
120.5
 20
12.5
 30
0.0
 40
0.2999999999999972
  0
CIRCLE
  5
9E
330
48
100
AcDbEntity
  8
1
  6
Continuous
 62
     7
100
AcDbCircle
 10
109.5
 20
12.5
 30
0.0
 40
0.2999999999999972
  0
CIRCLE
  5
9F
330
48
100
AcDbEntity
  8
1
  6
Continuous
 62
     7
100
AcDbCircle
 10
103.5
 20
12.5
 30
0.0
 40
0.2999999999999972
  0
SPLINE
  5
A0
102
{ACAD_REACTORS
330
BE
102
}
330
48
100
AcDbEntity
  8
_U_30EC_U_30A4_U_30E4_U_30FC_1
  6
Continuous
 62
     2
100
AcDbSpline
210
0.0
220
0.0
230
1.0
 70
    11
 71
     3
 72
    99
 73
    95
 74
    93
 42
0.000000001
 43
0.0000000001
 44
0.00000001
 40
0.0
 40
0.0
 40
0.0
 40
0.0
 40
0.0796417172272007
 40
0.1621768542355705
 40
0.2486489160957147
 40
0.3404969668524141
 40
0.4381912511164217
 40
0.5434463660244534
 40
0.6518115192846867
 40
0.7530190937886372
 40
0.8492196919724712
 40
0.9419290312997868
 40
1.034249663569994
 40
1.129078600620175
 40
1.226697027573232
 40
1.32722042542167
 40
1.470572134937972
 40
1.595489863371209
 40
1.719934125348401
 40
1.850576620127425
 40
1.989059629987302
 40
2.134139054226913
 40
2.280698007207183
 40
2.424529739039377
 40
2.565929576985796
 40
2.708239260773538
 40
2.861717887443602
 40
3.045168540347323
 40
3.183798301138563
 40
3.31481396145544
 40
3.442083470447301
 40
3.569912708372928
 40
3.70217751250934
 40
3.842307559659598
 40
3.992872223245964
 40
4.156750662218295
 40
4.310981861107515
 40
4.445859909322549
 40
4.572393936131556
 40
4.701656719782019
 40
4.768279086008524
 40
4.835960697898445
 40
4.912788918729401
 40
5.006285208481607
 40
5.026909478751683
 40
5.047533749021248
 40
5.101808031471278
 40
5.162325165538594
 40
5.226919745995917
 40
5.294231806596787
 40
5.364544852554914
 40
5.438319055467967
 40
5.517877651324246
 40
5.607647714861614
 40
5.700449642544459
 40
5.788251142364208
 40
5.872714706039762
 40
5.955167292575329
 40
6.037192395190371
 40
6.120669181469058
 40
6.206848616686318
 40
6.296680855416781
 40
6.442558392872627
 40
6.568190371608259
 40
6.692904567360365
 40
6.824220446557167
 40
6.963121850329373
 40
7.107843738851168
 40
7.2534316639073
 40
7.395187468036779
 40
7.533140753237785
 40
7.670550457175257
 40
7.816236511769268
 40
7.987691657359201
 40
8.142277421969261
 40
8.293662615414982
 40
8.44296246087927
 40
8.591598316185248
 40
8.743678992361763
 40
8.903725323699183
 40
9.076307008890504
 40
9.265578604680588
 40
9.459203795360764
 40
9.61761981027355
 40
9.75360967136192
 40
9.874873300004028
 40
9.954520184977664
 40
10.0241641371923
 40
10.0976976440543
 40
10.18909955924961
 40
10.20974586420122
 40
10.23039218263368
 40
10.30057101881254
 40
10.37632012987537
 40
10.37632012987537
 40
10.37632012987537
 40
10.37632012987537
 10
170.1465954835851
 20
14.1379566321599
 30
0.0
 10
170.1632217851219
 20
14.11720608845311
 30
0.0
 10
170.1970784206578
 20
14.07495111711904
 30
0.0
 10
170.2599822541035
 20
14.02029811392071
 30
0.0
 10
170.3332500940393
 20
13.97299025121055
 30
0.0
 10
170.4175969238635
 20
13.93527231437937
 30
0.0
 10
170.513224061546
 20
13.91040619731952
 30
0.0
 10
170.6171853775346
 20
13.90309559345935
 30
0.0
 10
170.7224020220404
 20
13.91142322794054
 30
0.0
 10
170.8206626371333
 20
13.94149179651525
 30
0.0
 10
170.9058986427548
 20
13.98848822971875
 30
0.0
 10
170.9779220206103
 20
14.04952991250858
 30
0.0
 10
171.0350917709096
 20
14.12412969578585
 30
0.0
 10
171.0767868747441
 20
14.21002464660169
 30
0.0
 10
171.1026952846292
 20
14.30485850432213
 30
0.0
 10
171.1118037332653
 20
14.41854979038366
 30
0.0
 10
171.0986864796486
 20
14.54332587770777
 30
0.0
 10
171.0325330334414
 20
14.66014719171894
 30
0.0
 10
170.9369370919568
 20
14.74512539577376
 30
0.0
 10
170.8249681022369
 20
14.81416684459167
 30
0.0
 10
170.6993659583269
 20
14.87204142045892
 30
0.0
 10
170.5656691620856
 20
14.92373723284339
 30
0.0
 10
170.4313122818831
 20
14.97899092397183
 30
0.0
 10
170.3051983986877
 20
15.04939770641649
 30
0.0
 10
170.1926579987535
 20
15.13785540731247
 30
0.0
 10
170.0969963064458
 20
15.24981067868472
 30
0.0
 10
170.0334157151826
 20
15.39949910101381
 30
0.0
 10
170.0200706505015
 20
15.55932794385138
 30
0.0
 10
170.0320510987449
 20
15.71048405306843
 30
0.0
 10
170.071229892884
 20
15.83809244591538
 30
0.0
 10
170.135498775091
 20
15.95080874030845
 30
0.0
 10
170.2238204999741
 20
16.04648609268683
 30
0.0
 10
170.3338091207627
 20
16.12354214985754
 30
0.0
 10
170.4632284401265
 20
16.18151396936279
 30
0.0
 10
170.6111838967794
 20
16.2173917758882
 30
0.0
 10
170.7682069455486
 20
16.22746719050561
 30
0.0
 10
170.917494046643
 20
16.21863637762588
 30
0.0
 10
171.059625361417
 20
16.1907489934036
 30
0.0
 10
171.1595922609624
 20
16.13413314701135
 30
0.0
 10
171.3125074736187
 20
16.0867460210551
 30
0.0
 10
171.2455131717168
 20
16.00197553001188
 30
0.0
 10
171.229647912027
 20
15.93438901873485
 30
0.0
 10
171.1978750531297
 20
15.86926092793191
 30
0.0
 10
171.2150202209572
 20
15.76723453256955
 30
0.0
 10
171.1666427208231
 20
15.77493211681903
 30
0.0
 10
171.1315789440766
 20
15.76806771724809
 30
0.0
 10
171.1296697985719
 20
15.83263831158198
 30
0.0
 10
171.0985692931988
 20
15.87825639621393
 30
0.0
 10
171.0664551628456
 20
15.93561036628455
 30
0.0
 10
171.0208038475168
 20
15.98540462692559
 30
0.0
 10
170.9658508218386
 20
16.02994813718991
 30
0.0
 10
170.9010841173007
 20
16.06763988836548
 30
0.0
 10
170.8232377310597
 20
16.09283375791351
 30
0.0
 10
170.7355160553352
 20
16.09931230998106
 30
0.0
 10
170.6452903277806
 20
16.09235709285609
 30
0.0
 10
170.5594594694065
 20
16.06909190460911
 30
0.0
 10
170.4828343638596
 20
16.0313164410754
 30
0.0
 10
170.4165265636202
 20
15.98051641089575
 30
0.0
 10
170.3622560536965
 20
15.91731143407208
 30
0.0
 10
170.322492534546
 20
15.84276455710366
 30
0.0
 10
170.2976775510587
 20
15.75917313997765
 30
0.0
 10
170.289212426287
 20
15.65192948382283
 30
0.0
 10
170.3019697987103
 20
15.52965457267556
 30
0.0
 10
170.3681548409274
 20
15.41149724291212
 30
0.0
 10
170.4640977399832
 20
15.32606325709526
 30
0.0
 10
170.5757914963182
 20
15.25583362306714
 30
0.0
 10
170.7010863668702
 20
15.19659162305307
 30
0.0
 10
170.8349823941448
 20
15.14616708086129
 30
0.0
 10
170.9689930333149
 20
15.09322516984382
 30
0.0
 10
171.0950885316916
 20
15.02750170625179
 30
0.0
 10
171.2076216638417
 20
14.94480352537313
 30
0.0
 10
171.3031370284233
 20
14.83996006310073
 30
0.0
 10
171.3672706486963
 20
14.69937117251569
 30
0.0
 10
171.3811103725278
 20
14.54065409451592
 30
0.0
 10
171.367395471223
 20
14.38153155217876
 30
0.0
 10
171.3244739153984
 20
14.23483828819212
 30
0.0
 10
171.2545906329066
 20
14.10119796587146
 30
0.0
 10
171.157459221383
 20
13.98532387699289
 30
0.0
 10
171.0347806023658
 20
13.89089981770093
 30
0.0
 10
170.8874408413168
 20
13.82179270651982
 30
0.0
 10
170.7177132497125
 20
13.77953210858854
 30
0.0
 10
170.5317404979597
 20
13.76781736230405
 30
0.0
 10
170.3528955926183
 20
13.77809486683437
 30
0.0
 10
170.1881733753743
 20
13.81966573769154
 30
0.0
 10
170.0834410841056
 20
13.88797642883942
 30
0.0
 10
169.9350960790367
 20
13.9367521903211
 30
0.0
 10
169.9980378194729
 20
14.02976591290843
 30
0.0
 10
170.0072274430059
 20
14.10296536248278
 30
0.0
 10
170.0303711301231
 20
14.16936294501343
 30
0.0
 10
170.0034588335317
 20
14.26974809527581
 30
0.0
 10
170.0521338956338
 20
14.26234033517378
 30
0.0
 10
170.0916530580697
 20
14.26894063620896
 30
0.0
 10
170.0996204944701
 20
14.19078703218929
 30
0.0
 10
170.1305436967923
 20
14.15600927375854
 30
0.0
 10
170.1465954835851
 20
14.1379566321599
 30
0.0
 11
170.1465954835851
 21
14.1379566321599
 31
0.0
 11
170.1982038075864
 21
14.07729869814738
 31
0.0
 11
170.2601105501335
 21
14.0227129516332
 31
0.0
 11
170.3327764009802
 21
13.97583980928387
 31
0.0
 11
170.4166468655843
 21
13.9383990627654
 31
0.0
 11
170.511221073241
 21
13.91390636311878
 31
0.0
 11
170.6161603327165
 21
13.90575829888471
 31
0.0
 11
170.7240739497552
 21
13.91564048638223
 31
0.0
 11
170.8208419941616
 21
13.9452870488748
 31
0.0
 11
170.9050776083319
 21
13.99175118948818
 31
0.0
 11
170.9756144207686
 21
14.05191413218151
 31
0.0
 11
171.031944210998
 21
14.12505819466319
 31
0.0
 11
171.0736690016004
 21
14.2102143404752
 31
0.0
 11
171.0994680808032
 21
14.30436190989614
 31
0.0
 11
171.1080824729446
 21
14.40451552098219
 31
0.0
 11
171.0878517703357
 21
14.54643250879395
 31
0.0
 11
171.0272522666731
 21
14.65566684036389
 31
0.0
 11
170.9364971286285
 21
14.74081306430098
 31
0.0
 11
170.826010188474
 21
14.81052746532521
 31
0.0
 11
170.7008523531254
 21
14.86979854169924
 31
0.0
 11
170.5662951950998
 21
14.9240425347412
 31
0.0
 11
170.4316884277007
 21
14.98201274306006
 31
0.0
 11
170.3065802017259
 21
15.05297399304229
 31
0.0
 11
170.196027609828
 21
15.14113315968692
 31
0.0
 11
170.1053381235265
 21
15.25080295132619
 31
0.0
 11
170.0447055469484
 21
15.39179720476311
 31
0.0
 11
170.0245079172553
 21
15.57413260402311
 31
0.0
 11
170.0374030471347
 21
15.71216131926639
 31
0.0
 11
170.0761016659391
 21
15.83733128451289
 31
0.0
 11
170.1393141731506
 21
15.94779262129085
 31
0.0
 11
170.2257499954545
 21
16.04196885390618
 31
0.0
 11
170.3336492808962
 21
16.1184654077065
 31
0.0
 11
170.4613526283329
 21
16.1761567010949
 31
0.0
 11
170.6075393259923
 21
16.21220066809972
 31
0.0
 11
170.770976856545
 21
16.22421385386059
 31
0.0
 11
170.9248918431289
 21
16.21434269066863
 31
0.0
 11
171.0564887242607
 21
16.18477329831501
 31
0.0
 11
171.172563634494
 21
16.13439993895253
 31
0.0
 11
171.2800792741123
 21
16.06264163167879
 31
0.0
 11
171.2516994050445
 21
16.00236624106887
 31
0.0
 11
171.2284855254284
 21
15.9387901733765
 31
0.0
 11
171.2078381040801
 21
15.86478841992269
 31
0.0
 11
171.1871840681487
 21
15.77360197897329
 31
0.0
 11
171.1665597978415
 21
15.77360197897329
 31
0.0
 11
171.1459355275343
 21
15.77360197897329
 31
0.0
 11
171.1256706495791
 21
15.82395108486346
 31
0.0
 11
171.0994658759421
 21
15.87850045116929
 31
0.0
 11
171.0650468924451
 21
15.93316116296115
 31
0.0
 11
171.0203554612937
 21
15.98349593725411
 31
0.0
 11
170.9657333359511
 21
16.02777175321526
 31
0.0
 11
170.9016722004326
 21
16.06436142334499
 31
0.0
 11
170.8259682961141
 21
16.08882545979724
 31
0.0
 11
170.7365722046449
 21
16.09701100667019
 31
0.0
 11
170.6440937174207
 21
16.089269739311
 31
0.0
 11
170.5594072091645
 21
16.06609003445558
 31
0.0
 11
170.483702448884
 21
16.02863495634006
 31
0.0
 11
170.4183754766516
 21
15.97832774281099
 31
0.0
 11
170.3650487887665
 21
15.91600293379878
 31
0.0
 11
170.3254809233902
 21
15.84249947895609
 31
0.0
 11
170.3009523754711
 21
15.75988443557394
 31
0.0
 11
170.2927954104108
 21
15.6704232984435
 31
0.0
 11
170.3130095765617
 21
15.52595308146569
 31
0.0
 11
170.373625616682
 21
15.41591177072939
 31
0.0
 11
170.4643479320758
 21
15.3303367013063
 31
0.0
 11
170.5748676948813
 21
15.25941954854619
 31
0.0
 11
170.7000089937719
 21
15.1991430555058
 31
0.0
 11
170.8345826882553
 21
15.1459044791302
 31
0.0
 11
170.9691729191968
 21
15.09039489581074
 31
0.0
 11
171.0942976816298
 21
15.02377281249409
 31
0.0
 11
171.204800907977
 21
14.94118863716745
 31
0.0
 11
171.2955397598288
 21
14.8380000347627
 31
0.0
 11
171.3561557999489
 21
14.70552315979583
 31
0.0
 11
171.3763699660998
 21
14.53526378483841
 31
0.0
 11
171.3621839747998
 21
14.38133030397411
 31
0.0
 11
171.3196087009193
 21
14.23605531269101
 31
0.0
 11
171.2499752884265
 21
14.10398854189068
 31
0.0
 11
171.1544992078714
 21
13.9900721877525
 31
0.0
 11
171.0341060772624
 21
13.89715272597021
 31
0.0
 11
170.8896160201846
 21
13.82832357668181
 31
0.0
 11
170.7223519532714
 21
13.78581275203967
 31
0.0
 11
170.5336103348226
 21
13.7716586461404
 31
0.0
 11
170.3405031726387
 21
13.78581275203967
 31
0.0
 11
170.1878975900911
 21
13.82832357668181
 31
0.0
 11
170.0661897942203
 21
13.88899033013892
 31
0.0
 11
169.9660261826364
 21
13.95734322942741
 31
0.0
 11
169.9922320587039
 21
14.03255545163076
 31
0.0
 11
170.0090121537618
 21
14.10014767383609
 31
0.0
 11
170.0206196447852
 21
14.17275926235959
 31
0.0
 11
170.0313606254139
 21
14.26352788212859
 31
0.0
 11
170.0520069443315
 21
14.26352788212859
 31
0.0
 11
170.0726532632492
 21
14.26352788212859
 31
0.0
 11
170.1048916391629
 21
14.20119204881082
 31
0.0
 11
170.1465954835851
 21
14.1379566321599
 31
0.0
  0
SPLINE
  5
A1
102
{ACAD_REACTORS
330
BF
102
}
330
48
100
AcDbEntity
  8
_U_30EC_U_30A4_U_30E4_U_30FC_1
  6
Continuous
 62
     2
100
AcDbSpline
210
0.0
220
0.0
230
1.0
 70
    11
 71
     3
 72
    57
 73
    53
 74
    51
 42
0.000000001
 43
0.0000000001
 44
0.00000001
 40
0.0
 40
0.0
 40
0.0
 40
0.0
 40
0.047163208280866
 40
0.0914861054632138
 40
0.1357762519702374
 40
0.1826527001610669
 40
0.2295203288572578
 40
0.2737751972220747
 40
0.3181310461543049
 40
0.3652607198398482
 40
0.4571007286314403
 40
0.567185102916508
 40
0.6894623283868115
 40
0.8181758272545758
 40
0.9510087229273683
 40
1.085852229674063
 40
1.218126164475294
 40
1.343545131142382
 40
1.454537202956799
 40
1.567187607530807
 40
1.680710966642426
 40
1.79422686973679
 40
1.900009184247589
 40
2.004085860447869
 40
2.108162674451728
 40
2.214000150155301
 40
2.496038577352152
 40
2.762350745479256
 40
2.997275353279422
 40
3.185110082137729
 40
3.246407890063899
 40
3.312607550212686
 40
3.378877742711559
 40
3.440140399651441
 40
4.100501696006431
 40
4.754913085563444
 40
5.411331693423879
 40
6.077890432568661
 40
6.11057529267094
 40
6.14326015277572
 40
6.367989363395073
 40
6.610525374951463
 40
6.863389136467241
 40
7.119380025547492
 40
7.376036605091022
 40
7.631164770966213
 40
7.876722425456371
 40
8.104953735855872
 40
8.312916685924266
 40
8.497730294941196
 40
8.651018984313783
 40
8.764738853624502
 40
8.764738853624502
 40
8.764738853624502
 40
8.764738853624502
 10
174.7922649500513
 20
13.81626739612929
 30
0.0
 10
174.7766616726931
 20
13.81826231079079
 30
0.0
 10
174.7463947960302
 20
13.82213201360301
 30
0.0
 10
174.7010994202252
 20
13.82341984967266
 30
0.0
 10
174.6559553129349
 20
13.8230868355405
 30
0.0
 10
174.6099017123399
 20
13.82314658674223
 30
0.0
 10
174.5640496172097
 20
13.8232581365
 30
0.0
 10
174.5183711648164
 20
13.82277833456588
 30
0.0
 10
174.4750811541608
 20
13.82461109618723
 30
0.0
 10
174.4039947951514
 20
13.80049556814659
 30
0.0
 10
174.4057477261441
 20
13.92184693977253
 30
0.0
 10
174.358619637057
 20
14.00726239751234
 30
0.0
 10
174.3191478251762
 20
14.12486929345136
 30
0.0
 10
174.2706635532645
 20
14.24232752540438
 30
0.0
 10
174.2201017402523
 20
14.3640593576151
 30
0.0
 10
174.1718634610477
 20
14.49075967862466
 30
0.0
 10
174.1135232947594
 20
14.59933687784954
 30
0.0
 10
174.0980892667261
 20
14.75620657134411
 30
0.0
 10
173.9566586330636
 20
14.72373446548327
 30
0.0
 10
173.8508397414903
 20
14.73512888682175
 30
0.0
 10
173.7358569725222
 20
14.73392591514615
 30
0.0
 10
173.625314225214
 20
14.73506945347406
 30
0.0
 10
173.5176583522783
 20
14.73418350037526
 30
0.0
 10
173.4121322529243
 20
14.73416602390514
 30
0.0
 10
173.3109192682013
 20
14.7271403247242
 30
0.0
 10
173.1266804827753
 20
14.75135859859868
 30
0.0
 10
173.1157393685411
 20
14.4474169112189
 30
0.0
 10
173.0087691634751
 20
14.22353177253394
 30
0.0
 10
172.9098148604347
 20
14.038953142925
 30
0.0
 10
172.9225090524007
 20
13.79530204804209
 30
0.0
 10
172.8050091716397
 20
13.82508046753199
 30
0.0
 10
172.742205586831
 20
13.82258089509601
 30
0.0
 10
172.67858720934
 20
13.82344075102806
 30
0.0
 10
172.3946014194076
 20
13.7809803994195
 30
0.0
 10
173.025163849938
 20
14.50081952444782
 30
0.0
 10
173.1087645289072
 20
15.01276539435725
 30
0.0
 10
173.4929252789339
 20
15.5335374355004
 30
0.0
 10
173.4777208288565
 20
16.2351962625321
 30
0.0
 10
173.7239265722697
 20
16.22345633081254
 30
0.0
 10
173.8256346157562
 20
16.2322500445277
 30
0.0
 10
173.8249752035817
 20
15.98059650730347
 30
0.0
 10
173.9428317155829
 20
15.7981802073396
 30
0.0
 10
174.0315515260484
 20
15.55563740662867
 30
0.0
 10
174.1322292485259
 20
15.32340030530129
 30
0.0
 10
174.2311142712243
 20
15.08674644566914
 30
0.0
 10
174.3299676990669
 20
14.85461739170092
 30
0.0
 10
174.4256166390927
 20
14.63122222788792
 30
0.0
 10
174.5159904573271
 20
14.42272549049314
 30
0.0
 10
174.598994456819
 20
14.23308448529323
 30
0.0
 10
174.6726088582798
 20
14.06663106068099
 30
0.0
 10
174.7342815895545
 20
13.92917699626099
 30
0.0
 10
174.7749458885604
 20
13.84999239430035
 30
0.0
 10
174.7922649500513
 20
13.81626739612929
 30
0.0
 11
174.7922649500513
 21
13.81626739612929
 31
0.0
 11
174.7453878317448
 21
13.82145433189186
 31
0.0
 11
174.7010975896125
 21
13.82315538223861
 31
0.0
 11
174.6568074431729
 21
13.82315538223861
 31
0.0
 11
174.6099309947159
 21
13.82315538223861
 31
0.0
 11
174.5630633657033
 21
13.82315538223861
 31
0.0
 11
174.5188084970408
 21
13.82315538223861
 31
0.0
 11
174.4744852776854
 21
13.82145433189186
 31
0.0
 11
174.4276419021443
 21
13.81626739612929
 31
0.0
 11
174.3992532136325
 21
13.90360966173246
 31
0.0
 11
174.3622721815898
 21
14.0072965627482
 31
0.0
 11
174.3188386236701
 21
14.12159987001128
 31
0.0
 11
174.2711055866936
 21
14.24113531268969
 31
0.0
 11
174.2208160133237
 21
14.36408057307564
 31
0.0
 11
174.1696467003932
 21
14.48883822929449
 31
0.0
 11
174.1197531801326
 21
14.61134141502772
 31
0.0
 11
174.0733119111841
 21
14.72784517367919
 31
0.0
 11
173.9623611907589
 21
14.73087465284508
 31
0.0
 11
173.8497309225089
 21
14.73300454867788
 31
0.0
 11
173.7362152069449
 21
14.73432195319139
 31
0.0
 11
173.62270004768
 21
14.73473315978851
 31
0.0
 11
173.5169185312816
 21
14.73432195319139
 31
0.0
 11
173.4128501919225
 21
14.73300454867788
 31
0.0
 11
173.3087951724045
 21
14.73087465284508
 31
0.0
 11
173.2030010615596
 21
14.72784517367919
 31
0.0
 11
173.0980914750139
 21
14.46604437513351
 31
0.0
 11
173.0034868690332
 21
14.21710232658461
 31
0.0
 11
172.9252231210298
 21
13.99559756969556
 31
0.0
 11
172.8693431224555
 21
13.81626739612929
 31
0.0
 11
172.8082651639442
 21
13.82145433189186
 31
0.0
 11
172.742087361813
 21
13.82315538223861
 31
0.0
 11
172.6758390041282
 21
13.82145433189186
 31
0.0
 11
172.6147963233938
 21
13.81626739612929
 31
0.0
 11
172.889968495193
 21
14.41656508695141
 31
0.0
 11
173.158294573417
 21
15.01343642360769
 31
0.0
 11
173.4240277350405
 21
15.61366245644378
 31
0.0
 11
173.6914740737033
 21
16.22421385386059
 31
0.0
 11
173.7241589339806
 21
16.22421385386059
 31
0.0
 11
173.7568437942579
 21
16.22421385386059
 31
0.0
 11
173.8428300681057
 21
16.01658539037085
 31
0.0
 11
173.9357285813609
 21
15.79254614563519
 31
0.0
 11
174.0328714521463
 21
15.55908663180469
 31
0.0
 11
174.1317936458031
 21
15.32298128464149
 31
0.0
 11
174.2315341249927
 21
15.08649780379784
 31
0.0
 11
174.3313071129353
 21
14.85168781253711
 31
0.0
 11
174.4280608257449
 21
14.6259949219685
 31
0.0
 11
174.5188084970408
 21
14.41658052097921
 31
0.0
 11
174.6022150834546
 21
14.22607611130459
 31
0.0
 11
174.6770293263377
 21
14.05708232662471
 31
0.0
 11
174.7410729186603
 21
13.91781337700668
 31
0.0
 11
174.7922649500513
 21
13.81626739612929
 31
0.0
  0
SPLINE
  5
A2
102
{ACAD_REACTORS
330
BF
102
}
330
48
100
AcDbEntity
  8
_U_30EC_U_30A4_U_30E4_U_30FC_1
  6
Continuous
 62
     2
100
AcDbSpline
210
0.0
220
0.0
230
1.0
 70
    11
 71
     3
 72
    25
 73
    21
 74
    19
 42
0.000000001
 43
0.0000000001
 44
0.00000001
 40
0.0
 40
0.0
 40
0.0
 40
0.0
 40
0.0911479969063967
 40
0.1858117896203811
 40
0.2804128399734205
 40
0.3715889190713657
 40
0.4679080494217855
 40
0.5642683809229231
 40
0.6605683222644139
 40
0.7569653015809401
 40
0.8561348172521934
 40
1.092615965104212
 40
1.374867658141809
 40
1.611348812011511
 40
1.710518328425175
 40
1.809403163726486
 40
2.045205463294024
 40
2.326646917622086
 40
2.562449217190572
 40
2.661334043833883
 40
2.661334043833883
 40
2.661334043833883
 40
2.661334043833883
 10
173.26837005672
 20
14.88614538197291
 30
0.0
 10
173.2987525917923
 20
14.88598079714554
 30
0.0
 10
173.3606895889111
 20
14.88564528689923
 30
0.0
 10
173.454135696033
 20
14.88269055452001
 30
0.0
 10
173.5475095236358
 20
14.87977752877152
 30
0.0
 10
173.6417760753476
 20
14.87894201643415
 30
0.0
 10
173.7354964790966
 20
14.87996644658046
 30
0.0
 10
173.8352040303205
 20
14.87916977470972
 30
0.0
 10
173.9188949546312
 20
14.88921410235218
 30
0.0
 10
174.0637996315046
 20
14.86234617674164
 30
0.0
 10
173.93961324448
 20
15.03665530280048
 30
0.0
 10
173.8965867286283
 20
15.19651711006093
 30
0.0
 10
173.7808922142209
 20
15.45518458550215
 30
0.0
 10
173.7017565431257
 20
15.59231052861863
 30
0.0
 10
173.6431576621817
 20
15.80937033134081
 30
0.0
 10
173.5864803939438
 20
15.59266134213429
 30
0.0
 10
173.5052809900477
 20
15.45327012438241
 30
0.0
 10
173.406370128149
 20
15.20406969370194
 30
0.0
 10
173.3253625094259
 20
15.01925830226074
 30
0.0
 10
173.2813683325839
 20
14.91650446856116
 30
0.0
 10
173.26837005672
 20
14.88614538197291
 30
0.0
 11
173.26837005672
 21
14.88614538197291
 31
0.0
 11
173.359513773782
 21
14.8852612326676
 31
0.0
 11
173.4541428297581
 21
14.882696979196
 31
0.0
 11
173.5487082179706
 21
14.88009965280778
 31
0.0
 11
173.6398803250196
 21
14.87924857641909
 31
0.0
 11
173.7361985777706
 21
14.8796597830162
 31
0.0
 11
173.8325499034377
 21
14.88097718752971
 31
0.0
 11
173.9288262638286
 21
14.88310818579312
 31
0.0
 11
174.0251753846343
 21
14.88614538197291
 31
0.0
 11
173.9854633323141
 21
14.97701642195019
 31
0.0
 11
173.8907653613968
 21
15.19370890189603
 31
0.0
 11
173.7777387509471
 21
15.45234186183137
 31
0.0
 11
173.6830407800298
 21
15.66903434177721
 31
0.0
 11
173.6433287277096
 21
15.75990538175449
 31
0.0
 11
173.6043330259267
 21
15.66903434177721
 31
0.0
 11
173.5113432755213
 21
15.45234186183137
 31
0.0
 11
173.4003555089083
 21
15.19370890189603
 31
0.0
 11
173.3073657585029
 21
14.97701642195019
 31
0.0
 11
173.26837005672
 21
14.88614538197291
 31
0.0
  0
SPLINE
  5
A3
102
{ACAD_REACTORS
330
C0
102
}
330
48
100
AcDbEntity
  8
_U_30EC_U_30A4_U_30E4_U_30FC_1
  6
Continuous
 62
     2
100
AcDbSpline
210
0.0
220
0.0
230
1.0
 70
    11
 71
     3
 72
    95
 73
    91
 74
    89
 42
0.000000001
 43
0.0000000001
 44
0.00000001
 40
0.0
 40
0.0
 40
0.0
 40
0.0
 40
0.6550406656911859
 40
1.308087289031976
 40
1.420803739835814
 40
1.566130759770836
 40
1.757067341888535
 40
2.006513545026467
 40
2.087328263121571
 40
2.185328872295678
 40
2.294612454748441
 40
2.408936380534862
 40
2.526802767798614
 40
2.646360524615657
 40
2.762535723971627
 40
2.870057342870197
 40
2.966883448431697
 40
3.050803243518376
 40
3.115818222436655
 40
3.156030057150282
 40
3.213914225080268
 40
3.276689026450668
 40
3.342960320981387
 40
3.404230667150693
 40
3.453822809493482
 40
3.532499827188479
 40
3.634775188507269
 40
3.754909333008265
 40
3.889736761660775
 40
4.03576960217528
 40
4.187256681197733
 40
4.338733685676022
 40
4.488478734676226
 40
4.634708317831681
 40
4.771493189921348
 40
4.892686571561306
 40
5.199775528944537
 40
5.460353566929713
 40
5.667603142345619
 40
5.814722905404581
 40
5.828990806219879
 40
5.855488336304576
 40
5.869756237118908
 40
6.189796507762917
 40
6.531890469873094
 40
6.883053637017055
 40
7.230512024911545
 40
7.566966656764711
 40
7.88520355970745
 40
8.17288743971927
 40
8.418011594062833
 40
8.443926721190754
 40
8.510760470613246
 40
8.602145393795759
 40
8.701714041647204
 40
8.79309896507544
 40
8.859932715058015
 40
8.885847842603665
 40
9.242301256612853
 40
9.589275455016766
 40
9.921808543164225
 40
10.23479624298475
 40
10.29968150889186
 40
10.35323493887774
 40
10.40154625355158
 40
10.46482922477843
 40
10.55973900668424
 40
10.69239545985644
 40
10.84920353475693
 40
11.01626328594802
 40
11.18672024367462
 40
11.35372582577231
 40
11.5025744229245
 40
11.61866495023313
 40
11.71329869152898
 40
11.82511050573926
 40
11.94464880845736
 40
12.06929242642527
 40
12.19707290435197
 40
12.3256263286055
 40
12.45034565331303
 40
12.56646595170348
 40
12.67099007414657
 40
12.76077625936805
 40
12.82703233506715
 40
12.87429132786015
 40
12.89831990323354
 40
12.92234847860043
 40
13.53984767410349
 40
14.1829428435939
 40
14.1829428435939
 40
14.1829428435939
 40
14.1829428435939
 10
177.3067935648021
 20
14.70898038201719
 30
0.0
 10
177.1752019758551
 20
14.82265058603229
 30
0.0
 10
176.9124193802728
 20
15.0496449631616
 30
0.0
 10
176.399739344102
 20
15.89214462956286
 30
0.0
 10
176.4106654595363
 20
15.53423377577021
 30
0.0
 10
176.4041226527991
 20
15.39267392272133
 30
0.0
 10
176.4028026631772
 20
15.19421305299281
 30
0.0
 10
176.4018117602538
 20
15.02150296045984
 30
0.0
 10
176.4024101751974
 20
14.87865373257582
 30
0.0
 10
176.4038994301883
 20
14.78265005413358
 30
0.0
 10
176.4055683588472
 20
14.6754550326314
 30
0.0
 10
176.4071934954617
 20
14.56164211517581
 30
0.0
 10
176.4092429501686
 20
14.44441572604589
 30
0.0
 10
176.4123165501926
 20
14.3265641123297
 30
0.0
 10
176.4156339697044
 20
14.21228087320621
 30
0.0
 10
176.419360534028
 20
14.10521401867277
 30
0.0
 10
176.4217338161424
 20
14.01007408766921
 30
0.0
 10
176.4278718888357
 20
13.92558557205694
 30
0.0
 10
176.4239784495946
 20
13.8692308729814
 30
0.0
 10
176.4455230443079
 20
13.79825022472355
 30
0.0
 10
176.3680940058618
 20
13.82902677604485
 30
0.0
 10
176.3116353240191
 20
13.82011242517611
 30
0.0
 10
176.2540495896807
 20
13.82896218398276
 30
0.0
 10
176.1690163478472
 20
13.79738225225945
 30
0.0
 10
176.2009714146382
 20
13.88095155992187
 30
0.0
 10
176.1990705282539
 20
13.94882608968307
 30
0.0
 10
176.2107960047301
 20
14.05233256764415
 30
0.0
 10
176.2164241052999
 20
14.17002125616694
 30
0.0
 10
176.2237902178941
 20
14.30388609164421
 30
0.0
 10
176.232075970161
 20
14.4476415287263
 30
0.0
 10
176.2398851897428
 20
14.59714022843441
 30
0.0
 10
176.2457571222657
 20
14.74792549402076
 30
0.0
 10
176.2503667817968
 20
14.89699943878435
 30
0.0
 10
176.2542632117542
 20
15.0412291316302
 30
0.0
 10
176.2570715126564
 20
15.17583905213014
 30
0.0
 10
176.2576698755023
 20
15.36469614347351
 30
0.0
 10
176.2616023867151
 20
15.58975494313151
 30
0.0
 10
176.2442175378498
 20
15.86367091125705
 30
0.0
 10
176.2850417342585
 20
16.02787112098594
 30
0.0
 10
176.1995153256
 20
16.22749661465093
 30
0.0
 10
176.2660558907688
 20
16.22385458403976
 30
0.0
 10
176.283872427323
 20
16.2241344716085
 30
0.0
 10
176.4056801797508
 20
16.22632927398613
 30
0.0
 10
176.5080770335459
 20
15.9467511872151
 30
0.0
 10
176.7580021509356
 20
15.74563008536
 30
0.0
 10
176.987003533111
 20
15.47792614987918
 30
0.0
 10
177.2245151213108
 20
15.22646413862374
 30
0.0
 10
177.4486090740772
 20
14.9896997406136
 30
0.0
 10
177.675071628301
 20
14.73218692583082
 30
0.0
 10
177.8325687886513
 20
14.61649335056922
 30
0.0
 10
178.0472129612676
 20
14.27997152538795
 30
0.0
 10
178.0422645974618
 20
14.40464754091603
 30
0.0
 10
178.0433931602545
 20
14.46327691935737
 30
0.0
 10
178.0428877841517
 20
14.55043662371978
 30
0.0
 10
178.0430475158113
 20
14.64416143182873
 30
0.0
 10
178.0430054891318
 20
14.73018971297036
 30
0.0
 10
178.0430202040372
 20
14.79153891945497
 30
0.0
 10
178.0429706255985
 20
14.94135231520995
 30
0.0
 10
178.0458811522811
 20
15.17989612510103
 30
0.0
 10
178.0259521041162
 20
15.54486509868699
 30
0.0
 10
178.0750433936247
 20
15.80799631993409
 30
0.0
 10
177.917795150918
 20
16.21928904947755
 30
0.0
 10
178.0762112872421
 20
16.16398282551749
 30
0.0
 10
178.1311680478628
 20
16.16199686500178
 30
0.0
 10
178.182788776674
 20
16.16264778248253
 30
0.0
 10
178.2713198965367
 20
16.2036952773825
 30
0.0
 10
178.2204898303168
 20
16.05696326622986
 30
0.0
 10
178.2313389930283
 20
15.95019971954431
 30
0.0
 10
178.2166036994847
 20
15.79085705414109
 30
0.0
 10
178.2099976446204
 20
15.62853061652874
 30
0.0
 10
178.2014961399914
 20
15.45992521892395
 30
0.0
 10
178.1943227202199
 20
15.29814814703541
 30
0.0
 10
178.1889063215389
 20
15.15422331457931
 30
0.0
 10
178.1871713967648
 20
15.03437493466922
 30
0.0
 10
178.1875440672319
 20
14.92686101590514
 30
0.0
 10
178.1873656126263
 20
14.81820024645586
 30
0.0
 10
178.187701086314
 20
14.69953570165531
 30
0.0
 10
178.1890040622184
 20
14.57555163512741
 30
0.0
 10
178.1908887351574
 20
14.44858294171105
 30
0.0
 10
178.1925004454851
 20
14.32153861551031
 30
0.0
 10
178.194140313743
 20
14.19854884492176
 30
0.0
 10
178.1962570745751
 20
14.08300931383758
 30
0.0
 10
178.1963848422364
 20
13.98090903955836
 30
0.0
 10
178.2006514396555
 20
13.89009848838156
 30
0.0
 10
178.190844008529
 20
13.83213621208786
 30
0.0
 10
178.211847477169
 20
13.76517130132028
 30
0.0
 10
178.1725639739898
 20
13.77291153966687
 30
0.0
 10
177.9595307117745
 20
13.75755254145191
 30
0.0
 10
177.7636297943187
 20
14.31403058094466
 30
0.0
 10
177.4611197631544
 20
14.57556035348506
 30
0.0
 10
177.3067935648021
 20
14.70898038201719
 30
0.0
 11
177.3067935648021
 21
14.70898038201719
 31
0.0
 11
176.8595529338511
 21
15.18757635411979
 31
0.0
 11
176.4124049070643
 21
15.6635264928897
 31
0.0
 11
176.4089664262494
 21
15.55086249986235
 31
0.0
 11
176.40556101835
 21
15.40557538184311
 31
0.0
 11
176.4029636920274
 21
15.21465645827965
 31
0.0
 11
176.4021126156603
 21
14.96521170139761
 31
0.0
 11
176.4025239230289
 21
14.88439802954283
 31
0.0
 11
176.4038420329817
 21
14.78640628477561
 31
0.0
 11
176.4055192267718
 21
14.67713557299736
 31
0.0
 11
176.4072367127518
 21
14.56282454872039
 31
0.0
 11
176.4094007838772
 21
14.44497802965265
 31
0.0
 11
176.4124049070643
 21
14.32545802100199
 31
0.0
 11
176.4158359733138
 21
14.20933349846156
 31
0.0
 11
176.4192928929998
 21
14.1018674655023
 31
0.0
 11
176.4227085253088
 21
14.00510162351264
 31
0.0
 11
176.4261896983793
 21
13.92125406276969
 31
0.0
 11
176.4296006184313
 21
13.8563286200776
 31
0.0
 11
176.4330776843149
 21
13.81626739612929
 31
0.0
 11
176.3754263821571
 21
13.82145433189186
 31
0.0
 11
176.3126746318309
 21
13.82315538223861
 31
0.0
 11
176.2464251717157
 21
13.82145433189186
 31
0.0
 11
176.1853747739675
 21
13.81626739612929
 31
0.0
 11
176.1926772737812
 21
13.8653189412559
 31
0.0
 11
176.2008793569054
 21
13.94356725720849
 31
0.0
 11
176.2090098822349
 21
14.04551893253027
 31
0.0
 11
176.2163406441397
 21
14.16542920159751
 31
0.0
 11
176.2236358280421
 21
14.3000591234389
 31
0.0
 11
176.2318444255596
 21
14.44586107652739
 31
0.0
 11
176.2395504149466
 21
14.59715203135073
 31
0.0
 11
176.2455763002093
 21
14.74850913200729
 31
0.0
 11
176.2503046247416
 21
14.89817951391435
 31
0.0
 11
176.254192897212
 21
15.0443573958222
 31
0.0
 11
176.2567527408965
 21
15.18111831592692
 31
0.0
 11
176.2576324804575
 21
15.30230850686888
 31
0.0
 11
176.257192610677
 21
15.60939715262541
 31
0.0
 11
176.2559126888348
 21
15.86997204839361
 31
0.0
 11
176.2528658717893
 21
16.07719922716124
 31
0.0
 11
176.2473049112763
 21
16.22421385386059
 31
0.0
 11
176.2615728121469
 21
16.22421385386059
 31
0.0
 11
176.2880703423352
 21
16.22421385386059
 31
0.0
 11
176.3023382432058
 21
16.22421385386059
 31
0.0
 11
176.5194743650277
 21
15.98910179662769
 31
0.0
 11
176.7512744123079
 21
15.7375128123156
 31
0.0
 11
176.9894816018839
 21
15.47949555543573
 31
0.0
 11
177.2260074557521
 21
15.22497079855489
 31
0.0
 11
177.4555698717706
 21
14.97899759549135
 31
0.0
 11
177.6731797360103
 21
14.74678934034111
 31
0.0
 11
177.8713724913707
 21
14.53826680567101
 31
0.0
 11
178.0430143099086
 21
14.36326697932589
 31
0.0
 11
178.0430143099086
 21
14.38918210687043
 31
0.0
 11
178.0430143099086
 21
14.45601585685372
 31
0.0
 11
178.0430143099086
 21
14.54740078030025
 31
0.0
 11
178.0430143099086
 21
14.64696942823455
 31
0.0
 11
178.0430143099086
 21
14.73835435168108
 31
0.0
 11
178.0430143099086
 21
14.80518810166437
 31
0.0
 11
178.0430143099086
 21
14.83110322920891
 31
0.0
 11
178.0417233637609
 21
15.18755430550866
 31
0.0
 11
178.0378461155958
 21
15.5345068401441
 31
0.0
 11
178.0296197790002
 21
15.86693815950552
 31
0.0
 11
178.0154535467228
 21
16.17960510387181
 31
0.0
 11
178.0790351249618
 21
16.16666367158335
 31
0.0
 11
178.1324170159611
 21
16.16238072887609
 31
0.0
 11
178.1805381084833
 21
16.16666367158335
 31
0.0
 11
178.2424836798198
 21
16.17960510387181
 31
0.0
 11
178.2351216487575
 21
16.08498128445102
 31
0.0
 11
178.2269790968818
 21
15.95257496503959
 31
0.0
 11
178.2183705364004
 21
15.79600336785654
 31
0.0
 11
178.2097547223215
 21
15.62916593734269
 31
0.0
 11
178.2016187850288
 21
15.45890325509362
 31
0.0
 11
178.1942501393835
 21
15.292060312427
 31
0.0
 11
178.1891406931522
 21
15.14329943572807
 31
0.0
 11
178.1874503478904
 21
15.027221215271
 31
0.0
 11
178.1874503478904
 21
14.93258747397516
 31
0.0
 11
178.1874503478904
 21
14.82077565976709
 31
0.0
 11
178.1878461204497
 21
14.70123801222749
 31
0.0
 11
178.1890819450708
 21
14.5766005209392
 31
0.0
 11
178.1908392193317
 21
14.44883212687392
 31
0.0
 11
178.1925303477608
 21
14.32028982655879
 31
0.0
 11
178.1942876220214
 21
14.19558288214552
 31
0.0
 11
178.1959787504505
 21
14.07947489606349
 31
0.0
 11
178.1972884379173
 21
13.97495896727016
 31
0.0
 11
178.1976985420736
 21
13.88517371555651
 31
0.0
 11
178.1976985420736
 21
13.81891763918416
 31
0.0
 11
178.1976985420736
 21
13.7716586461404
 31
0.0
 11
178.1736699662977
 21
13.7716586461404
 31
0.0
 11
178.1496413905218
 21
13.7716586461404
 31
0.0
 11
177.7410729200423
 21
14.2346673526219
 31
0.0
 11
177.3067935648021
 21
14.70898038201719
 31
0.0
  0
SPLINE
  5
A4
102
{ACAD_REACTORS
330
C1
102
}
330
48
100
AcDbEntity
  8
_U_30EC_U_30A4_U_30E4_U_30FC_1
  6
Continuous
 62
     2
100
AcDbSpline
210
0.0
220
0.0
230
1.0
 70
    11
 71
     3
 72
   110
 73
   106
 74
   104
 42
0.000000001
 43
0.0000000001
 44
0.00000001
 40
0.0
 40
0.0
 40
0.0
 40
0.0
 40
0.2203406257277737
 40
0.4407808782838372
 40
0.5952494494614795
 40
0.748843165939338
 40
0.90235818313085
 40
1.056801968670434
 40
1.210736449099849
 40
1.363041386539726
 40
1.51531572968307
 40
1.669377239148022
 40
1.721611652756528
 40
1.773199502942948
 40
1.824933793209998
 40
1.877110426487967
 40
1.982682281206707
 40
2.078781667087545
 40
2.172809640822233
 40
2.271937807378833
 40
2.37834993337931
 40
2.494131557736497
 40
2.626681683943632
 40
2.783145050796059
 40
2.890701232940895
 40
2.993130312454838
 40
3.099869730691783
 40
3.220237816691249
 40
3.352695482737537
 40
3.48173280638986
 40
3.593499473690343
 40
3.674323013331886
 40
3.817951711952864
 40
3.946167120793833
 40
4.061405053453518
 40
4.166480796003159
 40
4.262478775059251
 40
4.350736673551152
 40
4.433071991254035
 40
4.511216293814636
 40
4.564262454117963
 40
4.618474415571507
 40
4.670128488754133
 40
4.722296879126341
 40
4.819540945314214
 40
4.931194984128067
 40
5.049996040257681
 40
5.168643755415254
 40
5.283970811762466
 40
5.392260784910292
 40
5.486512254876367
 40
5.559178233949766
 40
5.591425852853416
 40
5.62621596963779
 40
5.667155838674345
 40
5.717449290214192
 40
5.738402360944807
 40
5.784499116553777
 40
5.830595872164752
 40
5.85154894289761
 40
5.873019280661723
 40
5.924217778408265
 40
5.98532566281764
 40
6.036524160567652
 40
6.05799449833418
 40
6.236847789607424
 40
6.381409928945624
 40
6.493190424178627
 40
6.574067534230383
 40
6.691018086205506
 40
6.814881554220395
 40
6.944307823240347
 40
7.07126671606597
 40
7.193488604461815
 40
7.309042773128043
 40
7.414007203170668
 40
7.505140441886425
 40
7.531150360599585
 40
7.559221645322178
 40
7.587202218920824
 40
7.612569159499039
 40
7.662550809480892
 40
7.702878875764017
 40
7.857328205230831
 40
8.010799568088476
 40
8.165256399657427
 40
8.322232698713766
 40
8.479564855016452
 40
8.635216230290656
 40
8.790882550925545
 40
8.948305154947054
 40
9.168271839032702
 40
9.387358980986983
 40
9.608047961033206
 40
9.832914234792398
 40
9.858338694962733
 40
9.925366817229747
 40
10.02013071422734
 40
10.12876249858973
 40
10.23739428295224
 40
10.33215817995167
 40
10.3991863022237
 40
10.4246107623976
 40
10.64992019336921
 40
10.87188524531163
 40
10.87188524531163
 40
10.87188524531163
 40
10.87188524531163
 10
179.9057788376618
 20
15.73923260398189
 30
0.0
 10
179.909286493354
 20
15.80616462073802
 30
0.0
 10
179.9163033987662
 20
15.94005891915858
 30
0.0
 10
179.8198027599072
 20
16.2254855497147
 30
0.0
 10
180.0510134726109
 20
16.16284386190283
 30
0.0
 10
180.1919290057156
 20
16.17001554055984
 30
0.0
 10
180.3490417757589
 20
16.16235883078245
 30
0.0
 10
180.5025913427287
 20
16.16252752283043
 30
0.0
 10
180.6545104935082
 20
16.16182040535433
 30
0.0
 10
180.8142214813231
 20
16.17210158351632
 30
0.0
 10
180.9408972601118
 20
16.1549651108075
 30
0.0
 10
181.137082112208
 20
16.2272726010715
 30
0.0
 10
181.1034395279079
 20
16.12640699080114
 30
0.0
 10
181.1052011317184
 20
16.07619253947666
 30
0.0
 10
181.1027342073459
 20
16.02712335586461
 30
0.0
 10
181.134707696601
 20
15.94063490846992
 30
0.0
 10
181.0010399903256
 20
15.98997438608339
 30
0.0
 10
180.9172208688056
 20
15.98430634314173
 30
0.0
 10
180.8173861139325
 20
15.99465516706291
 30
0.0
 10
180.7186576720146
 20
16.00086450411089
 30
0.0
 10
180.6121532771111
 20
16.00697763816775
 30
0.0
 10
180.4910511698059
 20
16.01588883484579
 30
0.0
 10
180.3703381502453
 20
16.00521605912383
 30
0.0
 10
180.1812553843437
 20
16.06468503080364
 30
0.0
 10
180.212902850531
 20
15.90558320077536
 30
0.0
 10
180.1995563316834
 20
15.80839128339902
 30
0.0
 10
180.1974958426449
 20
15.696340651101
 30
0.0
 10
180.1958188044671
 20
15.57699685629351
 30
0.0
 10
180.1973336794234
 20
15.45032592155108
 30
0.0
 10
180.195658247867
 20
15.32301588016115
 30
0.0
 10
180.2058844271658
 20
15.22451566404459
 30
0.0
 10
180.1779006596582
 20
15.08388702625625
 30
0.0
 10
180.3508029999305
 20
15.13989551134094
 30
0.0
 10
180.4645020202772
 20
15.12719951478502
 30
0.0
 10
180.5840151672239
 20
15.13448377051252
 30
0.0
 10
180.6888491425072
 20
15.13878017056762
 30
0.0
 10
180.7843084898612
 20
15.14330568258972
 30
0.0
 10
180.8763823507033
 20
15.15149201146205
 30
0.0
 10
180.9476551782438
 20
15.14643850638108
 30
0.0
 10
181.0544931705685
 20
15.1853642503167
 30
0.0
 10
181.0226603598036
 20
15.10517122005878
 30
0.0
 10
181.0266164503929
 20
15.05562936846033
 30
0.0
 10
181.0234502392013
 20
15.0055747803982
 30
0.0
 10
181.0550791490585
 20
14.92128847612021
 30
0.0
 10
180.9210133677691
 20
14.97425365495163
 30
0.0
 10
180.82923227932
 20
14.96540080890436
 30
0.0
 10
180.7079729189602
 20
14.97570049965157
 30
0.0
 10
180.5914113119772
 20
14.977489117675
 30
0.0
 10
180.4783375745879
 20
14.97787017109695
 30
0.0
 10
180.3679246308471
 20
14.98415449472183
 30
0.0
 10
180.289812406784
 20
14.97189133255363
 30
0.0
 10
180.1913625833643
 20
15.00453887616127
 30
0.0
 10
180.2012355173561
 20
14.94769748054208
 30
0.0
 10
180.1973923244402
 20
14.91392130557987
 30
0.0
 10
180.1966789884268
 20
14.87119604709412
 30
0.0
 10
180.1963369642975
 20
14.83401607262153
 30
0.0
 10
180.1963834255345
 20
14.79487237370769
 30
0.0
 10
180.1963649429927
 20
14.75716849497684
 30
0.0
 10
180.1963703431807
 20
14.71944955232401
 30
0.0
 10
180.19636972142
 20
14.68994324745147
 30
0.0
 10
180.1963698151546
 20
14.658735776993
 30
0.0
 10
180.196370428792
 20
14.61414424908083
 30
0.0
 10
180.1963671499337
 20
14.5596395650885
 30
0.0
 10
180.196375962348
 20
14.51505540201446
 30
0.0
 10
180.1963359653418
 20
14.4311780858574
 30
0.0
 10
180.1976024270256
 20
14.31737520677676
 30
0.0
 10
180.1950274117841
 20
14.16830395933708
 30
0.0
 10
180.2065009381721
 20
14.06597203813906
 30
0.0
 10
180.1823506222263
 20
13.93338903885837
 30
0.0
 10
180.3332993946476
 20
13.97895732272026
 30
0.0
 10
180.4428436671556
 20
13.96427012162355
 30
0.0
 10
180.573397047392
 20
13.96920435125065
 30
0.0
 10
180.6990312209514
 20
13.97257705323355
 30
0.0
 10
180.8188730625601
 20
13.97711497498771
 30
0.0
 10
180.9391362611426
 20
13.99048536182004
 30
0.0
 10
181.0222761663516
 20
13.98068712782593
 30
0.0
 10
181.1456080421074
 20
14.04126214623319
 30
0.0
 10
181.1244269203956
 20
13.98532460134019
 30
0.0
 10
181.1235950270117
 20
13.95939249372345
 30
0.0
 10
181.1218963707558
 20
13.93197256190938
 30
0.0
 10
181.1217974888829
 20
13.89738195206385
 30
0.0
 10
181.120365930133
 20
13.86050408220768
 30
0.0
 10
181.153280419219
 20
13.76846841021808
 30
0.0
 10
180.9551306988107
 20
13.84132015974832
 30
0.0
 10
180.8300548294891
 20
13.81825726508604
 30
0.0
 10
180.6673071295155
 20
13.82454021985784
 30
0.0
 10
180.5129366450001
 20
13.82260943909925
 30
0.0
 10
180.3566670436944
 20
13.82393762599267
 30
0.0
 10
180.1970544465282
 20
13.8205987248786
 30
0.0
 10
180.0540326342236
 20
13.83265795728242
 30
0.0
 10
179.819714488163
 20
13.76952001976922
 30
0.0
 10
179.9173810751196
 20
14.05620527466317
 30
0.0
 10
179.9006868780059
 20
14.24988308142659
 30
0.0
 10
179.9146296709685
 20
14.47848242880291
 30
0.0
 10
179.9142987846633
 20
14.63384593955045
 30
0.0
 10
179.9143078119263
 20
14.73966336444122
 30
0.0
 10
179.9143055876316
 20
14.80205784124211
 30
0.0
 10
179.9143065551889
 20
14.89220425248324
 30
0.0
 10
179.9143065473262
 20
14.99621167157436
 30
0.0
 10
179.9143053861102
 20
15.10022131375294
 30
0.0
 10
179.9143090971502
 20
15.19036243688767
 30
0.0
 10
179.9143011051051
 20
15.25276803097215
 30
0.0
 10
179.9143334275018
 20
15.3586883596112
 30
0.0
 10
179.913144078832
 20
15.51626716544739
 30
0.0
 10
179.9082216489256
 20
15.66528219822065
 30
0.0
 10
179.9057788376618
 20
15.73923260398189
 30
0.0
 11
179.9057788376618
 21
15.73923260398189
 31
0.0
 11
179.896691822374
 21
15.95938578101017
 31
0.0
 11
179.8868249573134
 21
16.17960510387181
 31
0.0
 11
180.04115751414
 21
16.17312391463727
 31
0.0
 11
180.1946500189047
 21
16.1675489233192
 31
0.0
 11
180.3481160653366
 21
16.16367167505631
 31
0.0
 11
180.502554455494
 21
16.16238072887609
 31
0.0
 11
180.6564835227473
 21
16.1636716750563
 31
0.0
 11
180.80873910046
 21
16.1675489233192
 31
0.0
 11
180.9609113551074
 21
16.17312391463727
 31
0.0
 11
181.1148364762483
 21
16.17960510387181
 31
0.0
 11
181.1070811703125
 21
16.12794961777357
 31
0.0
 11
181.1044991623592
 21
16.07642642334199
 31
0.0
 11
181.1070811703124
 21
16.02475660564655
 31
0.0
 11
181.1148364762483
 21
15.97315954836779
 31
0.0
 11
181.0094874054411
 21
15.98001446156059
 31
0.0
 11
180.913637570006
 21
15.9869355205866
 31
0.0
 11
180.8198593171903
 21
15.99378381919595
 31
0.0
 11
180.7209679915882
 21
16.0006321178054
 31
0.0
 11
180.6147532199924
 21
16.00710999974822
 31
0.0
 11
180.4991060528038
 21
16.01268829835789
 31
0.0
 11
180.3666126447258
 21
16.01656554662086
 31
0.0
 11
180.2101546018423
 21
16.01785649280109
 31
0.0
 11
180.2062663293721
 21
15.91037061609186
 31
0.0
 11
180.20153800484
 21
15.80805072896459
 31
0.0
 11
180.1976607566749
 21
15.70138175329685
 31
0.0
 11
180.1963698105272
 21
15.58102059013251
 31
0.0
 11
180.1967799146836
 21
15.44856355891566
 31
0.0
 11
180.1980896021502
 21
15.31953288186449
 31
0.0
 11
180.199407457705
 21
15.20777398432307
 31
0.0
 11
180.199819115366
 21
15.1269514930238
 31
0.0
 11
180.3434452935875
 21
15.12780256941249
 31
0.0
 11
180.4716343930758
 21
15.13039989580079
 31
0.0
 11
180.5868078221795
 21
15.13425509545253
 31
0.0
 11
180.691775631222
 21
15.13901649302079
 31
0.0
 11
180.7876346289422
 21
15.14418027774174
 31
0.0
 11
180.8757413374193
 21
15.14934406246269
 31
0.0
 11
180.9578881438496
 21
15.15491243919737
 31
0.0
 11
181.0357692335571
 21
15.1613208680152
 31
0.0
 11
181.0280180445186
 21
15.10884407115332
 31
0.0
 11
181.0254328449317
 21
15.0546937847086
 31
0.0
 11
181.0280180445186
 21
15.00310444444366
 31
0.0
 11
181.0357692335571
 21
14.95151510417881
 31
0.0
 11
180.9389813454014
 21
14.96092324653759
 31
0.0
 11
180.8275950722015
 21
14.9686512847301
 31
0.0
 11
180.7089261429373
 21
14.97425273438146
 31
0.0
 11
180.5903167449213
 21
14.9772678819501
 31
0.0
 11
180.4750025117521
 21
14.97898767361639
 31
0.0
 11
180.36672619507
 21
14.98070746528259
 31
0.0
 11
180.2724839317708
 21
14.98202486979617
 31
0.0
 11
180.199819115366
 21
14.9824360763933
 31
0.0
 11
180.199407457705
 21
14.95019108508193
 31
0.0
 11
180.1980896021502
 21
14.91542593752121
 31
0.0
 11
180.1967799146836
 21
14.87450702260087
 31
0.0
 11
180.1963698105272
 21
14.8242152430995
 31
0.0
 11
180.1963698105272
 21
14.8032621723582
 31
0.0
 11
180.1963698105272
 21
14.75716541672734
 31
0.0
 11
180.1963698105272
 21
14.71106866109649
 31
0.0
 11
180.1963698105272
 21
14.69011559035519
 31
0.0
 11
180.1963698105272
 21
14.66864525258278
 31
0.0
 11
180.1963698105272
 21
14.61744675481782
 31
0.0
 11
180.1963698105272
 21
14.55633887038866
 31
0.0
 11
180.1963698105272
 21
14.5051403726237
 31
0.0
 11
180.1963698105272
 21
14.48367003485129
 31
0.0
 11
180.1967799146836
 21
14.30481721371547
 31
0.0
 11
180.1980896021502
 21
14.16026100715439
 31
0.0
 11
180.2002868589709
 21
14.04850210961289
 31
0.0
 11
180.2032586986985
 21
13.9676796183137
 31
0.0
 11
180.3202092517448
 21
13.9676796183137
 31
0.0
 11
180.4440727208746
 21
13.9676796183137
 31
0.0
 11
180.5734925526422
 21
13.96897056449391
 31
0.0
 11
180.7003922282244
 21
13.97284781275678
 31
0.0
 11
180.8224658067973
 21
13.97886708358863
 31
0.0
 11
180.9377587499463
 21
13.98663260442001
 31
0.0
 11
181.0421754573518
 21
13.997341614834
 31
0.0
 11
181.1320599255448
 21
14.01237656274691
 31
0.0
 11
181.1264254031191
 21
13.98698427976714
 31
0.0
 11
181.1234433285423
 21
13.959071840538
 31
0.0
 11
181.12213398812
 21
13.93112191867001
 31
0.0
 11
181.1217235369195
 21
13.90575829888471
 31
0.0
 11
181.1243087365064
 21
13.85584355063327
 31
0.0
 11
181.1320599255448
 21
13.81626739612929
 31
0.0
 11
180.9776977178344
 21
13.82145433189186
 31
0.0
 11
180.8242357818765
 21
13.82315538223861
 31
0.0
 11
180.6697789496483
 21
13.82315538223861
 31
0.0
 11
180.5128026496768
 21
13.82315538223861
 31
0.0
 11
180.3554704921536
 21
13.82315538223861
 31
0.0
 11
180.199819115366
 21
13.82315538223861
 31
0.0
 11
180.0441620874242
 21
13.82145433189186
 31
0.0
 11
179.8868249573134
 21
13.81626739612929
 31
0.0
 11
179.896691822374
 21
14.03601267385208
 31
0.0
 11
179.9057788376618
 21
14.2549112849085
 31
0.0
 11
179.9121721518401
 21
14.47550763901999
 31
0.0
 11
179.9143063455009
 21
14.70036378479711
 31
0.0
 11
179.9143063455009
 21
14.7257882449687
 31
0.0
 11
179.9143063455009
 21
14.79281636723928
 31
0.0
 11
179.9143063455009
 21
14.88758026424251
 31
0.0
 11
179.9143063455009
 21
14.99621204861205
 31
0.0
 11
179.9143063455009
 21
15.1048438329816
 31
0.0
 11
179.9143063455009
 21
15.19960772998483
 31
0.0
 11
179.9143063455009
 21
15.2666358522554
 31
0.0
 11
179.9143063455009
 21
15.292060312427
 31
0.0
 11
179.9121721518401
 21
15.51735963528736
 31
0.0
 11
179.9057788376618
 21
15.73923260398189
 31
0.0
  0
SPLINE
  5
A5
102
{ACAD_REACTORS
330
C2
102
}
330
48
100
AcDbEntity
  8
_U_30EC_U_30A4_U_30E4_U_30FC_1
  6
Continuous
 62
     2
100
AcDbSpline
210
0.0
220
0.0
230
1.0
 70
    11
 71
     3
 72
    47
 73
    43
 74
    41
 42
0.000000001
 43
0.0000000001
 44
0.00000001
 40
0.0
 40
0.0
 40
0.0
 40
0.0
 40
0.2207912809957408
 40
0.4459404186303557
 40
0.49023871904601
 40
0.5327473892722818
 40
0.57422604512261
 40
0.6155432630561386
 40
0.6568164066316297
 40
0.6982511618781181
 40
0.7407663929317736
 40
0.7851366743175843
 40
1.010288833836415
 40
1.231080507002285
 40
1.451765243652489
 40
1.676638205891748
 40
1.720461045359719
 40
1.830018144043577
 40
1.972442372353205
 40
2.114866600677569
 40
2.224423699395192
 40
2.268246538883429
 40
2.493628801207314
 40
2.715602830286699
 40
2.934211330706463
 40
3.149502369855426
 40
3.231387784851014
 40
3.318231873854106
 40
3.405143198198093
 40
3.486970301720529
 40
3.702258172493944
 40
3.920866283534183
 40
4.142839325931961
 40
4.368221903865476
 40
4.412044743359956
 40
4.521601842095964
 40
4.664026070452441
 40
4.806450298809145
 40
4.916007397546834
 40
4.959830237043156
 40
5.184703515847162
 40
5.405387250767515
 40
5.405387250767515
 40
5.405387250767515
 40
5.405387250767515
 10
182.6507427258645
 20
15.73406440953869
 30
0.0
 10
182.6568139420002
 20
15.79758482501208
 30
0.0
 10
182.6690762107243
 20
15.92587938689625
 30
0.0
 10
182.5604706879411
 20
16.20166220174082
 30
0.0
 10
182.6761985896604
 20
16.17188133432054
 30
0.0
 10
182.7171842509015
 20
16.16765556262813
 30
0.0
 10
182.7591205797518
 20
16.16310446389608
 30
0.0
 10
182.800419662571
 20
16.16201982929487
 30
0.0
 10
182.8417032115555
 20
16.16310338195228
 30
0.0
 10
182.8836148270647
 20
16.16766112711337
 30
0.0
 10
182.9245983549019
 20
16.17187430209728
 30
0.0
 10
183.0404922843489
 20
16.20177611317539
 30
0.0
 10
182.9295652727456
 20
15.92339806609887
 30
0.0
 10
182.9574856365267
 20
15.74283140824951
 30
0.0
 10
182.940426734697
 20
15.5096104234647
 30
0.0
 10
182.9414637282102
 20
15.34906622543147
 30
0.0
 10
182.9414099399404
 20
15.22284817558723
 30
0.0
 10
182.941427737248
 20
15.12428963336244
 30
0.0
 10
182.941418858108
 20
14.99280702442965
 30
0.0
 10
182.9414263928034
 20
14.86132844968653
 30
0.0
 10
182.9414129405127
 20
14.76276222694093
 30
0.0
 10
182.9414531717493
 20
14.63639735624154
 30
0.0
 10
182.9406746403818
 20
14.47482068822871
 30
0.0
 10
182.9565958319266
 20
14.24361821892913
 30
0.0
 10
182.9333468885409
 20
14.05874351972003
 30
0.0
 10
183.0360183444365
 20
13.78935602770058
 30
0.0
 10
182.8820238362836
 20
13.82660112685819
 30
0.0
 10
182.8004129802832
 20
13.82137994680531
 30
0.0
 10
182.7188192292583
 20
13.82660620378353
 30
0.0
 10
182.5648513666842
 20
13.78937069885388
 30
0.0
 10
182.6674183421917
 20
14.05875129862881
 30
0.0
 10
182.6442045316088
 20
14.24361585325414
 30
0.0
 10
182.6600444655139
 20
14.47482218565639
 30
0.0
 10
182.6593296313428
 20
14.63639712308505
 30
0.0
 10
182.6593664569907
 20
14.76276231210524
 30
0.0
 10
182.6593549000271
 20
14.86132756635985
 30
0.0
 10
182.6593575019215
 20
14.99281127417223
 30
0.0
 10
182.659364853178
 20
15.12427548031202
 30
0.0
 10
182.6593442541351
 20
15.22287786275328
 30
0.0
 10
182.6594082192029
 20
15.34896149354428
 30
0.0
 10
182.658173394759
 20
15.51210091383771
 30
0.0
 10
182.6532040396745
 20
15.66054183777547
 30
0.0
 10
182.6507427258645
 20
15.73406440953869
 30
0.0
 11
182.6507427258645
 21
15.73406440953869
 31
0.0
 11
182.6417328200379
 21
15.95467178795576
 31
0.0
 11
182.6318769706146
 21
16.17960510387181
 31
0.0
 11
182.6756985840801
 21
16.17312391463727
 31
0.0
 11
182.7178400934215
 21
16.1675489233192
 31
0.0
 11
182.759137140979
 21
16.16367167505631
 31
0.0
 11
182.8004341885365
 21
16.16238072887609
 31
0.0
 11
182.841687138873
 21
16.1636716750563
 31
0.0
 11
182.8829400892097
 21
16.1675489233192
 31
0.0
 11
182.9250882131343
 21
16.17312391463727
 31
0.0
 11
182.9689825870145
 21
16.17960510387181
 31
0.0
 11
182.9590577693891
 21
15.95467178795576
 31
0.0
 11
182.950038420831
 21
15.73406440953869
 31
0.0
 11
182.9435638463435
 21
15.51347467001053
 31
0.0
 11
182.9414218238286
 21
15.28861190965009
 31
0.0
 11
182.9414218238286
 21
15.24478907015487
 31
0.0
 11
182.9414218238286
 21
15.13523197141684
 31
0.0
 11
182.9414218238286
 21
14.9928077430574
 31
0.0
 11
182.9414218238286
 21
14.85038351469796
 31
0.0
 11
182.9414218238286
 21
14.74082641595992
 31
0.0
 11
182.9414218238286
 21
14.69700357646471
 31
0.0
 11
182.9435638463435
 21
14.47163149318765
 31
0.0
 11
182.950038420831
 21
14.2497519099098
 31
0.0
 11
182.9590577693892
 21
14.03132954885328
 31
0.0
 11
182.9689825870145
 21
13.81626739612929
 31
0.0
 11
182.8872616168771
 21
13.82145433189186
 31
0.0
 11
182.8004341885365
 21
13.82315538223861
 31
0.0
 11
182.7135395119339
 21
13.82145433189186
 31
0.0
 11
182.6318769706146
 21
13.81626739612929
 31
0.0
 11
182.6417328200379
 21
14.03132954885328
 31
0.0
 11
182.6507427258645
 21
14.2497519099098
 31
0.0
 11
182.6571833838798
 21
14.47163149318765
 31
0.0
 11
182.6593583588024
 21
14.69700357646471
 31
0.0
 11
182.6593583588024
 21
14.74082641595992
 31
0.0
 11
182.6593583588024
 21
14.85038351469796
 31
0.0
 11
182.6593583588024
 21
14.9928077430574
 31
0.0
 11
182.6593583588024
 21
15.13523197141684
 31
0.0
 11
182.6593583588024
 21
15.24478907015488
 31
0.0
 11
182.6593583588024
 21
15.28861190965009
 31
0.0
 11
182.6571833838798
 21
15.51347467001053
 31
0.0
 11
182.6507427258645
 21
15.73406440953869
 31
0.0
  0
SPLINE
  5
A6
102
{ACAD_REACTORS
330
C3
102
}
330
48
100
AcDbEntity
  8
_U_30EC_U_30A4_U_30E4_U_30FC_1
  6
Continuous
 62
     2
100
AcDbSpline
210
0.0
220
0.0
230
1.0
 70
    11
 71
     3
 72
   118
 73
   114
 74
   112
 42
0.000000001
 43
0.0000000001
 44
0.00000001
 40
0.0
 40
0.0
 40
0.0
 40
0.0
 40
0.1054708162973438
 40
0.2466098270052163
 40
0.396591287459153
 40
0.5285525069754287
 40
0.615624505564228
 40
0.6431434105797592
 40
0.7036850037986296
 40
0.7642265984504694
 40
0.7917455052354998
 40
0.9287404319989997
 40
1.106572819088032
 40
1.287544879681013
 40
1.31757830803053
 40
1.399928030857167
 40
1.522968204799943
 40
1.675072986590564
 40
1.844616533180643
 40
2.019973001638705
 40
2.189516548880018
 40
2.341621331585356
 40
2.464661506320491
 40
2.547011229647056
 40
2.57704465816802
 40
2.603797890893091
 40
2.662655002908778
 40
2.72151211494959
 40
2.74826534770277
 40
2.774215307344846
 40
2.845959313407182
 40
2.954338556588386
 40
3.09019422758557
 40
3.244367517100546
 40
3.407699615844312
 40
3.571031714539467
 40
3.725205003920154
 40
3.861060674729663
 40
3.969439917716361
 40
4.041183923629037
 40
4.067133883213032
 40
4.31188674601224
 40
4.547897258335602
 40
4.764747083044081
 40
4.952749679951888
 40
5.045772974196041
 40
5.137862019645051
 40
5.330543169793077
 40
5.553448265244062
 40
5.795083855888243
 40
6.04329341217729
 40
6.285761695541185
 40
6.313902908752668
 40
6.384255941793258
 40
6.475714884766846
 40
6.567173827758909
 40
6.637526860839687
 40
6.66566807407405
 40
6.69201892032803
 40
6.749990782071114
 40
6.807962643790496
 40
6.834313490017976
 40
6.856393084245255
 40
6.913335195649879
 40
6.991194817302542
 40
7.076026942283804
 40
7.153886563725294
 40
7.210828674844876
 40
7.232908268931212
 40
7.258199334923734
 40
7.32487578159239
 40
7.419142481925054
 40
7.527204308842004
 40
7.635266135230591
 40
7.729532834168584
 40
7.79620927929291
 40
7.82150034459486
 40
7.84465298885093
 40
7.89986314054171
 40
7.965759128053876
 40
8.020969279771162
 40
8.044121924046628
 40
8.069356610160721
 40
8.109134395441487
 40
8.132238100191202
 40
8.193147867786568
 40
8.279261678876747
 40
8.377977512673965
 40
8.476693347146757
 40
8.562807160411813
 40
8.623716930826602
 40
8.646820636853557
 40
8.67198879377437
 40
8.73490918582831
 40
8.816705695189023
 40
8.898502204815623
 40
8.961422597378112
 40
8.986590754551225
 40
9.012941600733386
 40
9.070913462380485
 40
9.128885324081994
 40
9.15523617032532
 40
9.180404327929363
 40
9.243324721948465
 40
9.325121234212258
 40
9.40691774663794
 40
9.469838141978425
 40
9.495006288271199
 40
9.517811184379333
 40
9.572192090487313
 40
9.637098333281518
 40
9.691479239515697
 40
9.71428412564373
 40
9.71428412564373
 40
9.71428412564373
 40
9.71428412564373
 10
185.2874469028653
 20
15.26889163187721
 30
0.0
 10
185.3090990569038
 20
15.24111869242813
 30
0.0
 10
185.3597257109473
 20
15.17618054561236
 30
0.0
 10
185.4349383202592
 20
15.068910603129
 30
0.0
 10
185.5248482274346
 20
14.95377438266625
 30
0.0
 10
185.5709169676674
 20
14.85357045748321
 30
0.0
 10
185.6655825294655
 20
14.78434006814943
 30
0.0
 10
185.6204439320412
 20
14.73771639678275
 30
0.0
 10
185.594704778579
 20
14.6966030886604
 30
0.0
 10
185.5645196708011
 20
14.6606597172794
 30
0.0
 10
185.5193684730563
 20
14.58579782596094
 30
0.0
 10
185.4710504458562
 20
14.80782524253605
 30
0.0
 10
185.3968539713074
 20
14.84510677337713
 30
0.0
 10
185.2836047324606
 20
15.11610202130597
 30
0.0
 10
185.288513357817
 20
15.00095328446226
 30
0.0
 10
185.2868486556306
 20
14.92836675781624
 30
0.0
 10
185.2876830076713
 20
14.80625588483983
 30
0.0
 10
185.2873609540264
 20
14.65913800810457
 30
0.0
 10
185.2875076912456
 20
14.49307063956554
 30
0.0
 10
185.2872950092722
 20
14.32187554608599
 30
0.0
 10
185.2879497252034
 20
14.15552828635495
 30
0.0
 10
185.2859192461139
 20
14.0093517305569
 30
0.0
 10
185.291346039993
 20
13.88471047474608
 30
0.0
 10
185.2804930868708
 20
13.81718656540623
 30
0.0
 10
185.2956739155555
 20
13.7554906141702
 30
0.0
 10
185.2457895108134
 20
13.76727503896998
 30
0.0
 10
185.2017150342522
 20
13.75943822779966
 30
0.0
 10
185.15823716302
 20
13.767604413727
 30
0.0
 10
185.1092346786489
 20
13.75538056738465
 30
0.0
 10
185.1218731234825
 20
13.8096066724931
 30
0.0
 10
185.113018296845
 20
13.86936918907555
 30
0.0
 10
185.1175058770314
 20
13.97922029044368
 30
0.0
 10
185.1157960135991
 20
14.11029975405677
 30
0.0
 10
185.1163550915986
 20
14.26198011444327
 30
0.0
 10
185.1161928768693
 20
14.42211074929953
 30
0.0
 10
185.1162269924675
 20
14.58236865674568
 30
0.0
 10
185.1162514960126
 20
14.73370247520441
 30
0.0
 10
185.1161453543225
 20
14.86582156338604
 30
0.0
 10
185.1164299141931
 20
14.97294802533197
 30
0.0
 10
185.1158675547568
 20
15.03808619579477
 30
0.0
 10
185.1180765083689
 20
15.1661895785868
 30
0.0
 10
185.0319435998601
 20
14.79097610391578
 30
0.0
 10
184.9555140818501
 20
14.63918193123393
 30
0.0
 10
184.8660040767834
 20
14.47766206446306
 30
0.0
 10
184.7640413217326
 20
14.20471848820169
 30
0.0
 10
184.7187976491039
 20
14.36717346596508
 30
0.0
 10
184.6102355941671
 20
14.45605432058121
 30
0.0
 10
184.7995791751753
 20
14.60549794961408
 30
0.0
 10
184.8565340545699
 20
14.79749136974926
 30
0.0
 10
184.9717520993353
 20
15.02899622906755
 30
0.0
 10
184.9940151630133
 20
15.21797259759059
 30
0.0
 10
185.1771905152139
 20
15.49454089325924
 30
0.0
 10
185.0538033597552
 20
15.48698978832088
 30
0.0
 10
184.9925684166834
 20
15.48856772366113
 30
0.0
 10
184.9081999617064
 20
15.48882592573666
 30
0.0
 10
184.8204235085966
 20
15.485448457512
 30
0.0
 10
184.7656768696122
 20
15.49394814982014
 30
0.0
 10
184.7104703026025
 20
15.48048561049782
 30
0.0
 10
184.7222823035536
 20
15.52931442126758
 30
0.0
 10
184.7142496151794
 20
15.57269004896704
 30
0.0
 10
184.7228186104679
 20
15.6150943830957
 30
0.0
 10
184.7102943409157
 20
15.66267796552116
 30
0.0
 10
184.7555101538735
 20
15.65267212995107
 30
0.0
 10
184.8014815562723
 20
15.65894105174059
 30
0.0
 10
184.8777222047709
 20
15.6559356140587
 30
0.0
 10
184.9561296131994
 20
15.65770448278539
 30
0.0
 10
185.0323992648932
 20
15.65464793981658
 30
0.0
 10
185.0783009459475
 20
15.66103971376176
 30
0.0
 10
185.12317339654
 20
15.65093822978894
 30
0.0
 10
185.1105552275634
 20
15.70157201581898
 30
0.0
 10
185.1191936582707
 20
15.75501261882068
 30
0.0
 10
185.1152361595442
 20
15.8486325513168
 30
0.0
 10
185.1162325068335
 20
15.95112606688924
 30
0.0
 10
185.1171927413073
 20
16.05353270248164
 30
0.0
 10
185.1133211458006
 20
16.14735929609324
 30
0.0
 10
185.1217789814364
 20
16.20036542840355
 30
0.0
 10
185.1093075932835
 20
16.25211435651191
 30
0.0
 10
185.1542106389849
 20
16.23850747226759
 30
0.0
 10
185.1955083836772
 20
16.24100480320586
 30
0.0
 10
185.259534428105
 20
16.23648060574489
 30
0.0
 10
185.2986111148787
 20
16.22781003043308
 30
0.0
 10
185.3476543498741
 20
16.23515102070687
 30
0.0
 10
185.3225080030591
 20
16.19602896051758
 30
0.0
 10
185.2815901333723
 20
16.20563842455809
 30
0.0
 10
185.2910109616604
 20
16.15540148169779
 30
0.0
 10
185.2855647318746
 20
16.10385945639491
 30
0.0
 10
185.2881699601804
 20
16.0195970758452
 30
0.0
 10
185.2870102202154
 20
15.92559135583408
 30
0.0
 10
185.2883591064231
 20
15.83196865395524
 30
0.0
 10
185.284997010151
 20
15.74679517552222
 30
0.0
 10
185.2920959917768
 20
15.69716856072042
 30
0.0
 10
185.2812569154546
 20
15.64993694969987
 30
0.0
 10
185.3304010225245
 20
15.6620167493685
 30
0.0
 10
185.3794877630147
 20
15.65447393363009
 30
0.0
 10
185.4573714280642
 20
15.65686070361431
 30
0.0
 10
185.5350365172896
 20
15.65899381905413
 30
0.0
 10
185.5845393931355
 20
15.65193391922452
 30
0.0
 10
185.634459475064
 20
15.66360151936212
 30
0.0
 10
185.6223198516882
 20
15.61540235371389
 30
0.0
 10
185.6305838229144
 20
15.57249219801232
 30
0.0
 10
185.6223198650785
 20
15.5295820185138
 30
0.0
 10
185.6344594549855
 20
15.48138288754859
 30
0.0
 10
185.5845395158747
 20
15.49305034471504
 30
0.0
 10
185.5350350651203
 20
15.4859920243504
 30
0.0
 10
185.4573784382973
 20
15.48811665228597
 30
0.0
 10
185.3794643865761
 20
15.49053389365755
 30
0.0
 10
185.3304500352716
 20
15.48291848194479
 30
0.0
 10
185.2813246108943
 20
15.49507952557586
 30
0.0
 10
185.2915559988571
 20
15.45073013424153
 30
0.0
 10
185.2856677678053
 20
15.40925436202908
 30
0.0
 10
185.2878788305569
 20
15.34915394315302
 30
0.0
 10
185.2874109346145
 20
15.3022578276289
 30
0.0
 10
185.2874386992914
 20
15.27650146418198
 30
0.0
 10
185.2874469028653
 20
15.26889163187721
 30
0.0
 11
185.2874469028653
 21
15.26889163187721
 31
0.0
 11
185.3516977534484
 21
15.18524999634258
 31
0.0
 11
185.4348258835499
 21
15.07118889748221
 31
0.0
 11
185.5216831568896
 21
14.94891767195724
 31
0.0
 11
185.5971214371872
 21
14.84064565642876
 31
0.0
 11
185.6459925881626
 21
14.76858218755791
 31
0.0
 11
185.6296821285093
 21
14.746417821244
 31
0.0
 11
185.5937991172719
 21
14.6976562153534
 31
0.0
 11
185.5579161060346
 21
14.64889460946281
 31
0.0
 11
185.5416056463813
 21
14.6267302431489
 31
0.0
 11
185.4763067109446
 21
14.74716139023815
 31
0.0
 11
185.3848434243235
 21
14.89966983670208
 31
0.0
 11
185.2874469028653
 21
15.05219788193139
 31
0.0
 11
185.2874469028653
 21
15.0221644532825
 31
0.0
 11
185.2874469028653
 21
14.9398147295678
 31
0.0
 11
185.2874469028653
 21
14.81677455413525
 31
0.0
 11
185.2874469028653
 21
14.6646697703328
 31
0.0
 11
185.2874469028653
 21
14.49512622150842
 31
0.0
 11
185.2874469028653
 21
14.31976975101006
 31
0.0
 11
185.2874469028653
 21
14.15022620218568
 31
0.0
 11
185.2874469028653
 21
13.99812141838323
 31
0.0
 11
185.2874469028653
 21
13.87508124295068
 31
0.0
 11
185.2874469028653
 21
13.79273151923598
 31
0.0
 11
185.2874469028653
 21
13.76269809058709
 31
0.0
 11
185.2606936700409
 21
13.76269809058709
 31
0.0
 11
185.2018365578272
 21
13.76269809058709
 31
0.0
 11
185.1429794456134
 21
13.76269809058709
 31
0.0
 11
185.116226212789
 21
13.76269809058709
 31
0.0
 11
185.116226212789
 21
13.78864805031247
 31
0.0
 11
185.116226212789
 21
13.86039205661205
 31
0.0
 11
185.116226212789
 21
13.968771300171
 31
0.0
 11
185.116226212789
 21
14.10462697167446
 31
0.0
 11
185.116226212789
 21
14.25880026180761
 31
0.0
 11
185.116226212789
 21
14.42213236125559
 31
0.0
 11
185.116226212789
 21
14.58546446070357
 31
0.0
 11
185.116226212789
 21
14.73963775083672
 31
0.0
 11
185.116226212789
 21
14.87549342234018
 31
0.0
 11
185.116226212789
 21
14.98387266589913
 31
0.0
 11
185.116226212789
 21
15.05561667219871
 31
0.0
 11
185.116226212789
 21
15.08156663192409
 31
0.0
 11
185.0379865861721
 21
14.84965603302374
 31
0.0
 11
184.9497110789304
 21
14.63077616328678
 31
0.0
 11
184.8544106930045
 21
14.43598991333545
 31
0.0
 11
184.7550964303356
 21
14.276360173792
 31
0.0
 11
184.7109198342406
 21
14.358224461966
 31
0.0
 11
184.6588057383481
 21
14.43414885430809
 31
0.0
 11
184.7627302590299
 21
14.59640087926756
 31
0.0
 11
184.8629319864735
 21
14.7955146542178
 31
0.0
 11
184.9550446607902
 21
15.01890447916196
 31
0.0
 11
185.0347020220912
 21
15.25398465410317
 31
0.0
 11
185.097537810488
 21
15.48816947904459
 31
0.0
 11
185.0693965972142
 21
15.48816947904459
 31
0.0
 11
184.9990435640297
 21
15.48816947904459
 31
0.0
 11
184.9075846208898
 21
15.48816947904459
 31
0.0
 11
184.8161256777499
 21
15.48816947904459
 31
0.0
 11
184.7457726445654
 21
15.48816947904459
 31
0.0
 11
184.7176314312916
 21
15.48816947904459
 31
0.0
 11
184.7176314312916
 21
15.51452032539217
 31
0.0
 11
184.7176314312916
 21
15.57249218735685
 31
0.0
 11
184.7176314312916
 21
15.63046404932152
 31
0.0
 11
184.7176314312916
 21
15.6568148956691
 31
0.0
 11
184.739711025602
 21
15.6568148956691
 31
0.0
 11
184.7966531372444
 21
15.6568148956691
 31
0.0
 11
184.8745127592862
 21
15.6568148956691
 31
0.0
 11
184.9593448847944
 21
15.6568148956691
 31
0.0
 11
185.0372045068361
 21
15.6568148956691
 31
0.0
 11
185.0941466184786
 21
15.6568148956691
 31
0.0
 11
185.116226212789
 21
15.6568148956691
 31
0.0
 11
185.116226212789
 21
15.68210596174351
 31
0.0
 11
185.116226212789
 21
15.74878240866696
 31
0.0
 11
185.116226212789
 21
15.84304910948976
 31
0.0
 11
185.116226212789
 21
15.95111093726224
 31
0.0
 11
185.116226212789
 21
16.05917276503473
 31
0.0
 11
185.116226212789
 21
16.15343946585753
 31
0.0
 11
185.116226212789
 21
16.22011591278098
 31
0.0
 11
185.116226212789
 21
16.24540697885539
 31
0.0
 11
185.1393181988665
 21
16.24373213107803
 31
0.0
 11
185.1943837041284
 21
16.23973826330123
 31
0.0
 11
185.2601070491184
 21
16.23497138885797
 31
0.0
 11
185.3151725543802
 21
16.23097752108117
 31
0.0
 11
185.3382645404578
 21
16.22930267330381
 31
0.0
 11
185.3249012644362
 21
16.20789677921191
 31
0.0
 11
185.2874469028653
 21
16.1945011455347
 31
0.0
 11
185.2874469028653
 21
16.17139743948579
 31
0.0
 11
185.2874469028653
 21
16.1104876689932
 31
0.0
 11
185.2874469028653
 21
16.02437385553816
 31
0.0
 11
185.2874469028653
 21
15.9256580206019
 31
0.0
 11
185.2874469028653
 21
15.82694218566564
 31
0.0
 11
185.2874469028653
 21
15.7408283722106
 31
0.0
 11
185.2874469028653
 21
15.67991860171801
 31
0.0
 11
185.2874469028653
 21
15.6568148956691
 31
0.0
 11
185.3126150604809
 21
15.6568148956691
 31
0.0
 11
185.3755354545199
 21
15.6568148956691
 31
0.0
 11
185.4573319667706
 21
15.6568148956691
 31
0.0
 11
185.5391284790213
 21
15.6568148956691
 31
0.0
 11
185.6020488730603
 21
15.6568148956691
 31
0.0
 11
185.6272170306759
 21
15.6568148956691
 31
0.0
 11
185.6272170306759
 21
15.63046404932152
 31
0.0
 11
185.6272170306759
 21
15.57249218735685
 31
0.0
 11
185.6272170306759
 21
15.51452032539217
 31
0.0
 11
185.6272170306759
 21
15.48816947904459
 31
0.0
 11
185.6020488730603
 21
15.48816947904459
 31
0.0
 11
185.5391284790213
 21
15.48816947904459
 31
0.0
 11
185.4573319667706
 21
15.48816947904459
 31
0.0
 11
185.3755354545199
 21
15.48816947904459
 31
0.0
 11
185.3126150604809
 21
15.48816947904459
 31
0.0
 11
185.2874469028653
 21
15.48816947904459
 31
0.0
 11
185.2874469028653
 21
15.46536458293918
 31
0.0
 11
185.2874469028653
 21
15.41098367684167
 31
0.0
 11
185.2874469028653
 21
15.34607743408013
 31
0.0
 11
185.2874469028653
 21
15.29169652798262
 31
0.0
 11
185.2874469028653
 21
15.26889163187721
 31
0.0
  0
SPLINE
  5
A7
102
{ACAD_REACTORS
330
C4
102
}
330
48
100
AcDbEntity
  8
_U_30EC_U_30A4_U_30E4_U_30FC_1
  6
Continuous
 62
     2
100
AcDbSpline
210
0.0
220
0.0
230
1.0
 70
    11
 71
     3
 72
    91
 73
    87
 74
    85
 42
0.000000001
 43
0.0000000001
 44
0.00000001
 40
0.0
 40
0.0
 40
0.0
 40
0.0
 40
0.0345987051695718
 40
0.1258134969461085
 40
0.2547723404888703
 40
0.4026032099153556
 40
0.550434079341642
 40
0.6793929228835227
 40
0.7706077146570467
 40
0.8052064287780072
 40
1.124852390615191
 40
1.427402236308785
 40
1.706356627453432
 40
1.955541417875118
 40
2.169485938566273
 40
2.344350786664735
 40
2.480568411561889
 40
2.590440557428912
 40
2.649189927151066
 40
2.749320643306272
 40
2.912632739879978
 40
3.147745656000182
 40
3.244827496385061
 40
3.338490056946662
 40
3.583815413207068
 40
3.76142394323842
 40
3.886956104362563
 40
3.985855451886767
 40
4.091766255337652
 40
4.250186473811844
 40
4.422734315084483
 40
4.628285684838551
 40
4.87209322775836
 40
5.152549652145475
 40
5.464967135837457
 40
5.80320147785239
 40
6.160362988813893
 40
6.193449448275948
 40
6.284170385501603
 40
6.419718138764472
 40
6.587285046385722
 40
6.774063446723637
 40
6.96724567811362
 40
7.154024078817605
 40
7.321590987025991
 40
7.45713874089035
 40
7.547859678556086
 40
7.580946138182646
 40
7.6085330847147
 40
7.669224367077677
 40
7.729915649429899
 40
7.757502595949952
 40
7.790278062553406
 40
7.880146277430904
 40
8.014419963180366
 40
8.180411842397866
 40
8.365434637679336
 40
8.556801071622637
 40
8.74182386683075
 40
8.90781574591626
 40
9.042089431507414
 40
9.131957646249539
 40
9.164733112797116
 40
9.415425063140024
 40
9.667986180958462
 40
9.694169807462629
 40
9.756607686047587
 40
9.831130315322394
 40
9.893568193899858
 40
9.919751820398675
 40
9.950967964690518
 40
9.99642163121064
 40
10.22087981037447
 40
10.44341866197533
 40
10.47847970788846
 40
10.57091337438746
 40
10.70159545461221
 40
10.85140174170352
 40
11.00120802880469
 40
11.13189010907374
 40
11.22432377583002
 40
11.25938480938948
 40
11.28697175596136
 40
11.34766303835911
 40
11.40835432042062
 40
11.43594125892096
 40
11.43594125892096
 40
11.43594125892096
 40
11.43594125892096
 10
190.0818114333289
 20
15.55242795125079
 30
0.0
 10
190.070278584494
 20
15.55242790287917
 30
0.0
 10
190.0283409444999
 20
15.55242773704167
 30
0.0
 10
189.9434129719025
 20
15.5524312580091
 30
0.0
 10
189.8207688553129
 20
15.55240926435881
 30
0.0
 10
189.6791206916993
 20
15.55250801177056
 30
0.0
 10
189.537975369849
 20
15.55214686232423
 30
0.0
 10
189.4141351317905
 20
15.5532188360909
 30
0.0
 10
189.3317217825382
 20
15.5509224909127
 30
0.0
 10
189.1727791229695
 20
15.56048569373421
 30
0.0
 10
189.3503402353376
 20
15.19785394311372
 30
0.0
 10
189.3379739205453
 20
14.95243127723115
 30
0.0
 10
189.4064519473865
 20
14.66862501324836
 30
0.0
 10
189.469302432097
 20
14.43250999939035
 30
0.0
 10
189.5452253431728
 20
14.23326740396129
 30
0.0
 10
189.6303189577017
 20
14.07745347451371
 30
0.0
 10
189.7244607592935
 20
13.9765785778139
 30
0.0
 10
189.8282648207728
 20
13.92465852638962
 30
0.0
 10
189.9125872030773
 20
13.97606484379614
 30
0.0
 10
189.9351322179452
 20
14.09144544037515
 30
0.0
 10
189.9745730975371
 20
14.21885149702378
 30
0.0
 10
189.9202919734941
 20
14.53622328086752
 30
0.0
 10
190.0451218072473
 20
14.38982180140906
 30
0.0
 10
190.2019291513602
 20
14.35795300331168
 30
0.0
 10
190.0947720007058
 20
14.12421357767628
 30
0.0
 10
190.0808711209867
 20
13.95972776583658
 30
0.0
 10
190.0234709467226
 20
13.83130869122482
 30
0.0
 10
189.9335020145008
 20
13.76018802352829
 30
0.0
 10
189.8095274657877
 20
13.74432324142256
 30
0.0
 10
189.663427319686
 20
13.77993797554173
 30
0.0
 10
189.5243894320284
 20
13.90000570500277
 30
0.0
 10
189.4102003962144
 20
14.07435682550319
 30
0.0
 10
189.3146141301486
 20
14.2994660311124
 30
0.0
 10
189.2318652572627
 20
14.5638824600644
 30
0.0
 10
189.1807179256411
 20
14.88187933098542
 30
0.0
 10
189.0770189207338
 20
15.15543728488911
 30
0.0
 10
189.2042841208522
 20
15.5600581861287
 30
0.0
 10
189.0357890623018
 20
15.5511236784968
 30
0.0
 10
188.9511995787077
 20
15.55315961418365
 30
0.0
 10
188.8189876387627
 20
15.55213937388408
 30
0.0
 10
188.6560505094104
 20
15.55253230318431
 30
0.0
 10
188.4733759170532
 20
15.5523569631337
 30
0.0
 10
188.2847057373383
 20
15.5526010530747
 30
0.0
 10
188.1014469020189
 20
15.55185657906239
 30
0.0
 10
187.9404746832718
 20
15.55416360522427
 30
0.0
 10
187.8029808335276
 20
15.54799804883665
 30
0.0
 10
187.728959037231
 20
15.56032838458212
 30
0.0
 10
187.6613215186857
 20
15.54329323723558
 30
0.0
 10
187.6732373719269
 20
15.59524438447529
 30
0.0
 10
187.6655677285694
 20
15.64071424966531
 30
0.0
 10
187.6732592225115
 20
15.68614453703707
 30
0.0
 10
187.6613141797762
 20
15.73802395984572
 30
0.0
 10
187.7283588305867
 20
15.72119143490266
 30
0.0
 10
187.8017375665676
 20
15.73335409092673
 30
0.0
 10
187.9379128305272
 20
15.7272723107496
 30
0.0
 10
188.0973811801512
 20
15.7295483431506
 30
0.0
 10
188.2789173085836
 20
15.72881233998964
 30
0.0
 10
188.4658034862179
 20
15.72905954196136
 30
0.0
 10
188.6468012316836
 20
15.72886400799256
 30
0.0
 10
188.8080802578878
 20
15.72932234714841
 30
0.0
 10
188.9393882124887
 20
15.72812673751208
 30
0.0
 10
189.0225051322596
 20
15.73051347319744
 30
0.0
 10
189.1556236547814
 20
15.72230605725466
 30
0.0
 10
189.0645893502657
 20
15.97752868952654
 30
0.0
 10
188.9789633074422
 20
16.24164358328246
 30
0.0
 10
189.0990589003454
 20
16.22904442969163
 30
0.0
 10
189.1514264948544
 20
16.22694235763074
 30
0.0
 10
189.2214497569715
 20
16.22535399889655
 30
0.0
 10
189.2671922337817
 20
16.21602567538113
 30
0.0
 10
189.3220812646933
 20
16.22545966915427
 30
0.0
 10
189.2963574785681
 20
16.17733028655172
 30
0.0
 10
189.1825397571453
 20
16.18266829744155
 30
0.0
 10
189.3159346621136
 20
15.95449174576778
 30
0.0
 10
189.1943658735472
 20
15.72156856595925
 30
0.0
 10
189.3223188769412
 20
15.73087258884441
 30
0.0
 10
189.4049048406461
 20
15.72801001754682
 30
0.0
 10
189.5307214850824
 20
15.72923437412305
 30
0.0
 10
189.6741469838057
 20
15.72932431888966
 30
0.0
 10
189.8157420951728
 20
15.72746163183855
 30
0.0
 10
189.9459127249967
 20
15.73333075937165
 30
0.0
 10
190.0193452286191
 20
15.72070340823206
 30
0.0
 10
190.0891112922096
 20
15.73877563110414
 30
0.0
 10
190.0775772605396
 20
15.68612850546328
 30
0.0
 10
190.0833184346682
 20
15.64221317686549
 30
0.0
 10
190.081661577091
 20
15.5908998267655
 30
0.0
 10
190.081775756167
 20
15.56158792021636
 30
0.0
 10
190.0818114333289
 20
15.55242795125079
 30
0.0
 11
190.0818114333289
 21
15.55242795125079
 31
0.0
 11
190.0472127192051
 21
15.55242795125079
 31
0.0
 11
189.9559979274241
 21
15.55242795125079
 31
0.0
 11
189.8270390838717
 21
15.55242795125079
 31
0.0
 11
189.6792082144336
 21
15.55242795125079
 31
0.0
 11
189.5313773449955
 21
15.55242795125079
 31
0.0
 11
189.4024185014431
 21
15.55242795125079
 31
0.0
 11
189.3112037096621
 21
15.55242795125079
 31
0.0
 11
189.2766049955383
 21
15.55242795125079
 31
0.0
 11
189.3083140497694
 21
15.23435864930123
 31
0.0
 11
189.3527866656866
 21
14.93509522788082
 31
0.0
 11
189.409238911832
 21
14.66191269512577
 31
0.0
 11
189.4768868567478
 21
14.42208605917227
 31
0.0
 11
189.5549465689761
 21
14.22289032815653
 31
0.0
 11
189.6426341170591
 21
14.07160051021475
 31
0.0
 11
189.7391655695388
 21
13.97549161348314
 31
0.0
 11
189.8437569949575
 21
13.94183864609789
 31
0.0
 11
189.8943077302786
 21
13.97177376978832
 31
0.0
 11
189.9310588991551
 21
14.06491619815045
 31
0.0
 11
189.9562640977528
 21
14.22627151712052
 31
0.0
 11
189.9721769222368
 21
14.4608453126348
 31
0.0
 11
190.0494082682583
 21
14.40202182306618
 31
0.0
 11
190.1327184184385
 21
14.35921885432688
 31
0.0
 11
190.1066365811217
 21
14.1152838866101
 31
0.0
 11
190.0673317805105
 21
13.94207902887563
 31
0.0
 11
190.0105702596765
 21
13.83011272445919
 31
0.0
 11
189.932118261691
 21
13.76989341669647
 31
0.0
 11
189.8277420296256
 21
13.75192954892319
 31
0.0
 11
189.6738595065097
 21
13.78957440012363
 31
0.0
 11
189.5388902376747
 21
13.89707348877404
 31
0.0
 11
189.4221739916163
 21
14.06627361744808
 31
0.0
 11
189.32305053683
 21
14.28902158871941
 31
0.0
 11
189.2408596418113
 21
14.5571642051617
 31
0.0
 11
189.1749410750559
 21
14.86254826934858
 31
0.0
 11
189.1246346050593
 21
15.19702058385373
 31
0.0
 11
189.0892800003171
 21
15.55242795125079
 31
0.0
 11
189.0561935405844
 21
15.55242795125079
 31
0.0
 11
188.9654726026075
 21
15.55242795125079
 31
0.0
 11
188.8299248482185
 21
15.55242795125079
 31
0.0
 11
188.6623579392495
 21
15.55242795125079
 31
0.0
 11
188.4755795375324
 21
15.55242795125079
 31
0.0
 11
188.2823973048992
 21
15.55242795125079
 31
0.0
 11
188.0956189031822
 21
15.55242795125079
 31
0.0
 11
187.9280519942131
 21
15.55242795125079
 31
0.0
 11
187.7925042398241
 21
15.55242795125079
 31
0.0
 11
187.7017833018473
 21
15.55242795125079
 31
0.0
 11
187.6686968421145
 21
15.55242795125079
 31
0.0
 11
187.6686968421145
 21
15.58001489785848
 31
0.0
 11
187.6686968421145
 21
15.64070618039539
 31
0.0
 11
187.6686968421145
 21
15.70139746293231
 31
0.0
 11
187.6686968421145
 21
15.72898440954
 31
0.0
 11
187.7014723087631
 21
15.72898440954
 31
0.0
 11
187.7913405237673
 21
15.72898440954
 31
0.0
 11
187.9256142097148
 21
15.72898440954
 31
0.0
 11
188.0916060891932
 21
15.72898440954
 31
0.0
 11
188.2766288847901
 21
15.72898440954
 31
0.0
 11
188.4679953190932
 21
15.72898440954
 31
0.0
 11
188.6530181146902
 21
15.72898440954
 31
0.0
 11
188.8190099941685
 21
15.72898440954
 31
0.0
 11
188.953283680116
 21
15.72898440954
 31
0.0
 11
189.0431518951202
 21
15.72898440954
 31
0.0
 11
189.0759273617688
 21
15.72898440954
 31
0.0
 11
189.0659183950103
 21
15.97947647544959
 31
0.0
 11
189.0599112510663
 21
16.23196614552529
 31
0.0
 11
189.0860575870659
 21
16.2305692160812
 31
0.0
 11
189.1484065421419
 21
16.22723807663759
 31
0.0
 11
189.2228230369099
 21
16.22326220052749
 31
0.0
 11
189.2851719919859
 21
16.21993106108388
 31
0.0
 11
189.3113183279855
 21
16.21853413163979
 31
0.0
 11
189.298293111304
 21
16.19016528616078
 31
0.0
 11
189.2551649266405
 21
16.17581274276159
 31
0.0
 11
189.2574991961821
 21
15.95136670115108
 31
0.0
 11
189.2658452735903
 21
15.72898440954
 31
0.0
 11
189.3009063195165
 21
15.72898440954
 31
0.0
 11
189.3933399860495
 21
15.72898440954
 31
0.0
 11
189.5240220663201
 21
15.72898440954
 31
0.0
 11
189.6738283534596
 21
15.72898440954
 31
0.0
 11
189.8236346405991
 21
15.72898440954
 31
0.0
 11
189.9543167208697
 21
15.72898440954
 31
0.0
 11
190.0467503874027
 21
15.72898440954
 31
0.0
 11
190.0818114333289
 21
15.72898440954
 31
0.0
 11
190.0818114333289
 21
15.70139746293231
 31
0.0
 11
190.0818114333289
 21
15.64070618039539
 31
0.0
 11
190.0818114333289
 21
15.58001489785848
 31
0.0
 11
190.0818114333289
 21
15.55242795125079
 31
0.0
  0
SPLINE
  5
A8
102
{ACAD_REACTORS
330
C5
102
}
330
48
100
AcDbEntity
  8
_U_30EC_U_30A4_U_30E4_U_30FC_1
  6
Continuous
 62
     2
100
AcDbSpline
210
0.0
220
0.0
230
1.0
 70
    11
 71
     3
 72
    75
 73
    71
 74
    69
 42
0.000000001
 43
0.0000000001
 44
0.00000001
 40
0.0
 40
0.0
 40
0.0
 40
0.0
 40
0.0342546099129638
 40
0.1245622414432222
 40
0.2522385480897234
 40
0.3985991922940218
 40
0.5449598364980217
 40
0.6726361431438088
 40
0.7629437746736107
 40
0.7971983935297084
 40
1.101723623449558
 40
1.408591244036566
 40
1.433332471690267
 40
1.487763172450052
 40
1.542193873081874
 40
1.566935100592417
 40
1.923523931821735
 40
2.271755704953511
 40
2.590579755100755
 40
2.858943305581039
 40
2.889120339309054
 40
2.918305855191025
 40
2.941366645531149
 40
2.996357760973047
 40
3.061992318140597
 40
3.116983433626798
 40
3.14004422399748
 40
3.411273122936467
 40
3.732441619741075
 40
3.761068217532772
 40
3.837787499630327
 40
3.94885869912596
 40
4.080541049104326
 40
4.2190937826257
 40
4.350776132722242
 40
4.461847332405567
 40
4.538566614678293
 40
4.567193212544538
 40
4.594907573998796
 40
4.666381453557335
 40
4.764111044010946
 40
4.870592538125749
 40
4.9683221286422
 40
5.039796008286885
 40
5.067510369784344
 40
5.094263603185558
 40
5.153120716668194
 40
5.211977830150641
 40
5.238731063551645
 40
5.272290535138884
 40
5.363380529444745
 40
5.497618415781423
 40
5.660621563453665
 40
5.838007341749366
 40
6.015393119910717
 40
6.178396267038343
 40
6.312634151842294
 40
6.403724143059284
 40
6.437283612672379
 40
6.464036846260994
 40
6.522893960004611
 40
6.581751071483877
 40
6.608504301590823
 40
6.637253941280971
 40
6.711397748902822
 40
6.812778057283435
 40
6.923237199249211
 40
7.024617507623855
 40
7.098761315207508
 40
7.127510946007458
 40
7.127510946007458
 40
7.127510946007458
 40
7.127510946007458
 10
188.4418622390564
 20
14.95849128473259
 30
0.0
 10
188.4418622819707
 20
14.94707313408715
 30
0.0
 10
188.4418624481129
 20
14.90555257842624
 30
0.0
 10
188.4418593081787
 20
14.82146922003768
 30
0.0
 10
188.4418788279801
 20
14.70004497322326
 30
0.0
 10
188.4417912187737
 20
14.55980494047447
 30
0.0
 10
188.442111623523
 20
14.42006556794577
 30
0.0
 10
188.4411605909741
 20
14.29745038894931
 30
0.0
 10
188.4431978595967
 20
14.21587074438046
 30
0.0
 10
188.4349433178746
 20
14.06271267077702
 30
0.0
 10
188.7430797940901
 20
14.22560236054715
 30
0.0
 10
189.0350645173736
 20
14.39482938688003
 30
0.0
 10
189.0408354448707
 20
14.2597323578191
 30
0.0
 10
189.0455471719891
 20
14.21617221160445
 30
0.0
 10
189.0482535411918
 20
14.17211249350546
 30
0.0
 10
189.0672545672959
 20
14.02272590363134
 30
0.0
 10
188.6583942247303
 20
14.08681172241261
 30
0.0
 10
188.3793710348832
 20
13.97296341411013
 30
0.0
 10
188.1018081587166
 20
13.87364095811141
 30
0.0
 10
187.8099837184401
 20
13.91630687596349
 30
0.0
 10
187.7869144678658
 20
13.8132167974454
 30
0.0
 10
187.7537474383333
 20
13.78691091244461
 30
0.0
 10
187.7480653962739
 20
13.83455309036299
 30
0.0
 10
187.7284214559044
 20
13.87180336115064
 30
0.0
 10
187.7095089485623
 20
13.93007387847559
 30
0.0
 10
187.6942849867707
 20
13.973852010078
 30
0.0
 10
187.6477246372936
 20
14.0875942104631
 30
0.0
 10
187.9890897312451
 20
14.05576301120051
 30
0.0
 10
188.2679649367385
 20
14.0216143510648
 30
0.0
 10
188.2617753034907
 20
14.16913976479653
 30
0.0
 10
188.2630935452773
 20
14.24013150908832
 30
0.0
 10
188.2624831689948
 20
14.34719767958661
 30
0.0
 10
188.2625871570725
 20
14.47398529785996
 30
0.0
 10
188.2629987964055
 20
14.60849243496047
 30
0.0
 10
188.2613907841969
 20
14.73395549951181
 30
0.0
 10
188.2659902567925
 20
14.84505246719113
 30
0.0
 10
188.2564186502211
 20
14.90761886800684
 30
0.0
 10
188.2704001783691
 20
14.96595388294996
 30
0.0
 10
188.2147384386705
 20
14.95289710582233
 30
0.0
 10
188.1575655197821
 20
14.96136307749493
 30
0.0
 10
188.0616048925648
 20
14.95729976080631
 30
0.0
 10
187.963376752282
 20
14.95970889852469
 30
0.0
 10
187.8672582457561
 20
14.95551600613383
 30
0.0
 10
187.8104648525811
 20
14.96429346441157
 30
0.0
 10
187.7550356873384
 20
14.95094936850116
 30
0.0
 10
187.7670679427917
 20
15.00036910959252
 30
0.0
 10
187.7592003173937
 20
15.0439398803039
 30
0.0
 10
187.7666295563828
 20
15.0883046911852
 30
0.0
 10
187.7551930564143
 20
15.13902297763985
 30
0.0
 10
187.8232102370133
 20
15.12162460757738
 30
0.0
 10
187.8968496879747
 20
15.13417450237183
 30
0.0
 10
188.0325064058211
 20
15.12799677011093
 30
0.0
 10
188.1884909024525
 20
15.13029203093079
 30
0.0
 10
188.3615926358143
 20
15.12940968262525
 30
0.0
 10
188.5346942964181
 20
15.13029207142403
 30
0.0
 10
188.6906789811216
 20
15.12799662955545
 30
0.0
 10
188.8263351889797
 20
15.13417486262426
 30
0.0
 10
188.8999756705652
 20
15.1216239421833
 30
0.0
 10
188.9679914174724
 20
15.13902373012137
 30
0.0
 10
188.9565590885922
 20
15.0883013041455
 30
0.0
 10
188.9639539458297
 20
15.04397060811103
 30
0.0
 10
188.956203991227
 20
15.0002830755019
 30
0.0
 10
188.9681203741877
 20
14.95063590098472
 30
0.0
 10
188.9108170223616
 20
14.9646141133842
 30
0.0
 10
188.8520145789773
 20
14.95539755673249
 30
0.0
 10
188.7525293633199
 20
14.95952268164924
 30
0.0
 10
188.649428009835
 20
14.95822760025883
 30
0.0
 10
188.5537846354573
 20
14.95854077077635
 30
0.0
 10
188.4857467971617
 20
14.9584877669714
 30
0.0
 10
188.4514462213443
 20
14.95849051871651
 30
0.0
 10
188.4418622390564
 20
14.95849128473259
 30
0.0
 11
188.4418622390564
 21
14.95849128473259
 31
0.0
 11
188.4418622390564
 21
14.9242366658718
 31
0.0
 11
188.4418622390564
 21
14.83392903432971
 31
0.0
 11
188.4418622390564
 21
14.70625272766677
 31
0.0
 11
188.4418622390564
 21
14.55989208344339
 31
0.0
 11
188.4418622390564
 21
14.41353143922001
 31
0.0
 11
188.4418622390564
 21
14.28585513255706
 31
0.0
 11
188.4418622390564
 21
14.19554750101498
 31
0.0
 11
188.4418622390564
 21
14.16129288215419
 31
0.0
 11
188.7391932644567
 21
14.22709475713765
 31
0.0
 11
189.0384623627245
 21
14.29496038212071
 31
0.0
 11
189.0405487124976
 21
14.27030727882827
 31
0.0
 11
189.0451386819987
 21
14.2160704515849
 31
0.0
 11
189.0497286514996
 21
14.16183362434153
 31
0.0
 11
189.0518150012728
 21
14.13718052104909
 31
0.0
 11
188.705639688924
 21
14.05163370140897
 31
0.0
 11
188.3669653138838
 21
13.97060877629899
 31
0.0
 11
188.0563731516688
 21
13.89862764024926
 31
0.0
 11
187.7944444777955
 21
13.84021218778989
 31
0.0
 11
187.7817515029292
 21
13.81283442738011
 31
0.0
 11
187.7569794787513
 21
13.79740260446729
 31
0.0
 11
187.7491867589501
 21
13.81910683390631
 31
0.0
 11
187.7306041194242
 21
13.87086307333781
 31
0.0
 11
187.70842483999
 21
13.93263664943347
 31
0.0
 11
187.689842200464
 21
13.98439288886496
 31
0.0
 11
187.6820494806628
 21
14.00609711830398
 31
0.0
 11
187.9482776335932
 21
14.05794001759667
 31
0.0
 11
188.2626334936289
 21
14.12373968771911
 31
0.0
 11
188.2626334936289
 21
14.15236628569625
 31
0.0
 11
188.2626334936289
 21
14.22908556827499
 31
0.0
 11
188.2626334936289
 21
14.34015676842631
 31
0.0
 11
188.2626334936289
 21
14.47183911912116
 31
0.0
 11
188.2626334936289
 21
14.61039185333054
 31
0.0
 11
188.2626334936289
 21
14.74207420402539
 31
0.0
 11
188.2626334936289
 21
14.8531454041767
 31
0.0
 11
188.2626334936289
 21
14.92986468675545
 31
0.0
 11
188.2626334936289
 21
14.95849128473259
 31
0.0
 11
188.2349191321108
 21
14.95849128473259
 31
0.0
 11
188.1634452524063
 21
14.95849128473259
 31
0.0
 11
188.06571566179
 21
14.95849128473259
 31
0.0
 11
187.9592341675364
 21
14.95849128473259
 31
0.0
 11
187.8615045769201
 21
14.95849128473259
 31
0.0
 11
187.7900306972156
 21
14.95849128473259
 31
0.0
 11
187.7623163356975
 21
14.95849128473259
 31
0.0
 11
187.7623163356975
 21
14.98524451823284
 31
0.0
 11
187.7623163356975
 21
15.04410163193339
 31
0.0
 11
187.7623163356975
 21
15.10295874563394
 31
0.0
 11
187.7623163356975
 21
15.12971197913419
 31
0.0
 11
187.7958758072874
 21
15.12971197913419
 31
0.0
 11
187.8869658016031
 21
15.12971197913419
 31
0.0
 11
188.0212036879629
 21
15.12971197913419
 31
0.0
 11
188.1842068356856
 21
15.12971197913419
 31
0.0
 11
188.3615926140897
 21
15.12971197913419
 31
0.0
 11
188.5389783924938
 21
15.12971197913419
 31
0.0
 11
188.7019815402164
 21
15.12971197913419
 31
0.0
 11
188.8362194265763
 21
15.12971197913419
 31
0.0
 11
188.9273094208918
 21
15.12971197913419
 31
0.0
 11
188.9608688924818
 21
15.12971197913419
 31
0.0
 11
188.9608688924818
 21
15.10295874563394
 31
0.0
 11
188.9608688924818
 21
15.04410163193339
 31
0.0
 11
188.9608688924818
 21
14.98524451823284
 31
0.0
 11
188.9608688924818
 21
14.95849128473259
 31
0.0
 11
188.9321192527877
 21
14.95849128473259
 31
0.0
 11
188.8579754451555
 21
14.95849128473259
 31
0.0
 11
188.7565951367604
 21
14.95849128473259
 31
0.0
 11
188.6461359947778
 21
14.95849128473259
 31
0.0
 11
188.5447556863827
 21
14.95849128473259
 31
0.0
 11
188.4706118787505
 21
14.95849128473259
 31
0.0
 11
188.4418622390564
 21
14.95849128473259
 31
0.0
  0
SPLINE
  5
A9
102
{ACAD_REACTORS
330
C6
102
}
330
48
100
AcDbEntity
  8
_U_30EC_U_30A4_U_30E4_U_30FC_1
  6
Continuous
 62
     2
100
AcDbSpline
210
0.0
220
0.0
230
1.0
 70
    11
 71
     3
 72
    15
 73
    11
 74
     9
 42
0.000000001
 43
0.0000000001
 44
0.00000001
 40
0.0
 40
0.0
 40
0.0
 40
0.0
 40
0.2785535985097445
 40
0.5215624748199302
 40
0.6076917376040768
 40
0.6938210001741332
 40
0.9405019146455132
 40
1.221691403489138
 40
1.300471877081062
 40
1.379252341684831
 40
1.379252341684831
 40
1.379252341684831
 40
1.379252341684831
 10
189.5681493630999
 20
16.22930267330381
 30
0.0
 10
189.6296017794179
 20
16.17691646592718
 30
0.0
 10
189.7446649974114
 20
16.07882876798231
 30
0.0
 10
190.0397348497244
 20
15.92889785897215
 30
0.0
 10
189.9025147631856
 20
15.84343227515011
 30
0.0
 10
189.8041227843778
 20
15.71085785201556
 30
0.0
 10
189.713003359065
 20
16.0161698578142
 30
0.0
 10
189.3636839480656
 20
16.07967869465372
 30
0.0
 10
189.5119258376569
 20
16.17896509880877
 30
0.0
 10
189.5494081874236
 20
16.21252348402382
 30
0.0
 10
189.5681493630999
 20
16.22930267330381
 30
0.0
 11
189.5681493630999
 21
16.22930267330381
 31
0.0
 11
189.7919222440597
 21
16.06341774278973
 31
0.0
 11
189.9695046306383
 21
15.89753281227559
 31
0.0
 11
189.9066308127979
 21
15.83866743034589
 31
0.0
 11
189.8437569949575
 21
15.7798020484162
 31
0.0
 11
189.6688535117725
 21
15.95375677059491
 31
0.0
 11
189.447825685614
 21
16.12757920110701
 31
0.0
 11
189.507987524357
 21
16.17844093720541
 31
0.0
 11
189.5681493630999
 21
16.22930267330381
 31
0.0
  0
SPLINE
  5
AA
102
{ACAD_REACTORS
330
C7
102
}
330
48
100
AcDbEntity
  8
_U_30EC_U_30A4_U_30E4_U_30FC_1
  6
Continuous
 62
     2
100
AcDbSpline
210
0.0
220
0.0
230
1.0
 70
    11
 71
     3
 72
    35
 73
    31
 74
    29
 42
0.000000001
 43
0.0000000001
 44
0.00000001
 40
0.0
 40
0.0
 40
0.0
 40
0.0
 40
0.0335231036619765
 40
0.071321857171216
 40
0.4278866681487487
 40
0.8116865841964804
 40
1.198190238000129
 40
1.561379546812787
 40
1.65998317462222
 40
1.759315573807404
 40
2.132719617231267
 40
2.525233363589003
 40
2.910815397779867
 40
3.265244364303463
 40
3.592606723582183
 40
3.964386154604111
 40
4.359942131737912
 40
4.758154118639403
 40
4.843846538699952
 40
4.936650065543336
 40
5.256616602537489
 40
5.5817074044162
 40
5.899719158308292
 40
6.198363494280872
 40
6.46630104661588
 40
6.493895311537202
 40
6.559697020196995
 40
6.638234543442572
 40
6.704036252154325
 40
6.731630508423132
 40
6.731630508423132
 40
6.731630508423132
 40
6.731630508423132
 10
191.9736010568669
 20
16.23463843719131
 30
0.0
 10
191.9676006097789
 20
16.2248069054232
 30
0.0
 10
191.9548344099157
 20
16.20388988579791
 30
0.0
 10
191.7949362006553
 20
16.17127126532721
 30
0.0
 10
192.2322025842337
 20
15.88206680336685
 30
0.0
 10
192.4345394828261
 20
15.68041138358438
 30
0.0
 10
192.6819564267973
 20
15.43749387603273
 30
0.0
 10
193.1831513624607
 20
15.36047662757772
 30
0.0
 10
193.012556219897
 20
15.21876939174659
 30
0.0
 10
192.9383299463201
 20
15.01710366209099
 30
0.0
 10
192.6131432248188
 20
15.36956287174722
 30
0.0
 10
192.3277741670665
 20
15.53175212559559
 30
0.0
 10
192.0337604077658
 20
15.73687130053046
 30
0.0
 10
191.8084452691134
 20
16.21827488595445
 30
0.0
 10
191.5993085055522
 20
15.75343046609219
 30
0.0
 10
191.3207873674834
 20
15.54350952252909
 30
0.0
 10
191.0371383177209
 20
15.37424456359986
 30
0.0
 10
190.7078639527832
 20
15.0014236090794
 30
0.0
 10
190.6277012318224
 20
15.19708014459007
 30
0.0
 10
190.4759724909744
 20
15.32491104190599
 30
0.0
 10
190.9083395826795
 20
15.40454031765937
 30
0.0
 10
191.0962565329766
 20
15.60026634915478
 30
0.0
 10
191.3468477420504
 20
15.81632996916759
 30
0.0
 10
191.5714350470161
 20
15.98190992300061
 30
0.0
 10
191.6259775409712
 20
16.2613396463683
 30
0.0
 10
191.7494661029011
 20
16.2473795040808
 30
0.0
 10
191.806027334452
 20
16.24521268867647
 30
0.0
 10
191.8761870984945
 20
16.24046859881359
 30
0.0
 10
191.9333414022105
 20
16.23709429350539
 30
0.0
 10
191.9644190320839
 20
16.23519854711116
 30
0.0
 10
191.9736010568669
 20
16.23463843719131
 30
0.0
 11
191.9736010568669
 21
16.23463843719131
 31
0.0
 11
191.9525319069885
 21
16.20856374969784
 31
0.0
 11
191.9174464559425
 21
16.1945011455347
 31
0.0
 11
192.1512374769094
 21
15.92527961131379
 31
0.0
 11
192.4414585957567
 21
15.67413407969255
 31
0.0
 11
192.7612797483684
 21
15.45710987618781
 31
0.0
 11
193.083870870629
 21
15.29025232631639
 31
0.0
 11
193.0213299868076
 21
15.21402035584929
 31
0.0
 11
192.9688035818975
 21
15.12971197913419
 31
0.0
 11
192.6436279095814
 21
15.31326404831575
 31
0.0
 11
192.3237227768436
 21
15.54070139743425
 31
0.0
 11
192.0354200158608
 21
15.79673855123306
 31
0.0
 11
191.8050514588095
 21
16.06609003445558
 31
0.0
 11
191.5995531719516
 21
15.81126348721031
 31
0.0
 11
191.3288301341535
 21
15.55645182277753
 31
0.0
 11
191.0119538423246
 21
15.31969466354857
 31
0.0
 11
190.6679957933741
 21
15.11903163191471
 31
0.0
 11
190.6218855341338
 21
15.19126067703554
 31
0.0
 11
190.5636970460348
 21
15.26355586798971
 31
0.0
 11
190.8433040489016
 21
15.41911456961749
 31
0.0
 11
191.1093004621155
 21
15.60601009790409
 31
0.0
 11
191.3499997459747
 21
15.81384496285212
 31
0.0
 11
191.5537153607774
 21
16.03222167446419
 31
0.0
 11
191.7087607668218
 21
16.25074274274289
 31
0.0
 11
191.7363041569865
 21
16.24906789496553
 31
0.0
 11
191.8019845489177
 21
16.24507402718874
 31
0.0
 11
191.880377274771
 21
16.24030715274547
 31
0.0
 11
191.9460576667022
 21
16.23631328496867
 31
0.0
 11
191.9736010568669
 21
16.23463843719131
 31
0.0
  0
SPLINE
  5
AB
102
{ACAD_REACTORS
330
C8
102
}
330
48
100
AcDbEntity
  8
_U_30EC_U_30A4_U_30E4_U_30FC_1
  6
Continuous
 62
     2
100
AcDbSpline
210
0.0
220
0.0
230
1.0
 70
    11
 71
     3
 72
    91
 73
    87
 74
    85
 42
0.000000001
 43
0.0000000001
 44
0.00000001
 40
0.0
 40
0.0
 40
0.0
 40
0.0
 40
0.0267532254356666
 40
0.085610338646396
 40
0.1444674521996372
 40
0.171220685661823
 40
0.2039416005642252
 40
0.29556019716522
 40
0.4362601844616634
 40
0.6162252844506966
 40
0.8256392189704413
 40
1.054685709844382
 40
1.293548478893503
 40
1.532411247938275
 40
1.76145773879954
 40
1.970871673298508
 40
2.150836773256704
 40
2.291536760495565
 40
2.383155356836672
 40
2.415876284101292
 40
2.442629517487931
 40
2.501486630949052
 40
2.56034374442419
 40
2.587096977826458
 40
2.617068194440885
 40
2.699247336756026
 40
2.822032643466339
 40
2.973822353257868
 40
3.143014704823311
 40
3.31800793687989
 40
3.487200288186723
 40
3.638989997548204
 40
3.761775303794702
 40
3.843954445753037
 40
3.873925662229733
 40
3.890812773500429
 40
3.907699884771597
 40
3.937960767857216
 40
3.980983618142254
 40
4.199085915228402
 40
4.439444339237186
 40
4.677588241260787
 40
5.050698317837672
 40
5.448212454763001
 40
5.855291218044497
 40
6.138575438885148
 40
6.417434507583939
 40
6.444551104393599
 40
6.504207617362876
 40
6.563864130314203
 40
6.590980727103772
 40
6.848609460381166
 40
7.109611990668127
 40
7.352910904445782
 40
7.55783022070513
 40
7.587518925913054
 40
7.652834077375489
 40
7.718149228845439
 40
7.74783793406175
 40
7.854880190300741
 40
7.976511257403291
 40
8.369487896592036
 40
8.757514959223357
 40
9.126072419330848
 40
9.46063938039191
 40
9.746695593035652
 40
9.777569943118417
 40
9.807050320931499
 40
9.830377336128628
 40
9.886003295435694
 40
9.952395569429598
 40
10.00802152870594
 40
10.03134854388187
 40
10.21356951009557
 40
10.4220347929284
 40
10.66154556731034
 40
10.91693789564276
 40
11.15832906556533
 40
11.18982674596591
 40
11.27286608520375
 40
11.39026653033317
 40
11.52484752840854
 40
11.65942852648416
 40
11.77682897161452
 40
11.85986831085651
 40
11.89136598230396
 40
11.89136598230396
 40
11.89136598230396
 40
11.89136598230396
 10
190.7027885008196
 20
14.70699600701769
 30
0.0
 10
190.7028237765288
 20
14.71587847311982
 30
0.0
 10
190.7029366710796
 20
14.74430237047342
 30
0.0
 10
190.7012984568489
 20
14.79409639169798
 30
0.0
 10
190.7069750292911
 20
14.83657564478149
 30
0.0
 10
190.6956928731706
 20
14.88730154856841
 30
0.0
 10
190.7632296979032
 20
14.87012900740102
 30
0.0
 10
190.83880292107
 20
14.8829022716599
 30
0.0
 10
190.9828357056
 20
14.87629729457376
 30
0.0
 10
191.1569419185427
 20
14.8788846220646
 30
0.0
 10
191.3639599611003
 20
14.87800591955547
 30
0.0
 10
191.5894688172378
 20
14.87828207920022
 30
0.0
 10
191.8251162293406
 20
14.87818339658656
 30
0.0
 10
192.0607640531348
 20
14.87828184412761
 30
0.0
 10
192.2862717580626
 20
14.87800678190782
 30
0.0
 10
192.4932934632805
 20
14.87888186270729
 30
0.0
 10
192.6673888915288
 20
14.8763052267844
 30
0.0
 10
192.8114492071986
 20
14.88288290449208
 30
0.0
 10
192.8869691915293
 20
14.87016243405598
 30
0.0
 10
192.954577603703
 20
14.8872640019168
 30
0.0
 10
192.9430840140676
 20
14.83674785802935
 30
0.0
 10
192.9505104581733
 20
14.79253252226497
 30
0.0
 10
192.9428838927986
 20
14.74867966503606
 30
0.0
 10
192.9546489459425
 20
14.69878374479324
 30
0.0
 10
192.8930788491983
 20
14.71393227712509
 30
0.0
 10
192.8256791738671
 20
14.7031066535067
 30
0.0
 10
192.7013004056222
 20
14.70852031626233
 30
0.0
 10
192.555442823657
 20
14.70649205390782
 30
0.0
 10
192.3893576440086
 20
14.70715777578384
 30
0.0
 10
192.2188412621724
 20
14.70689643521239
 30
0.0
 10
192.0519790855388
 20
14.7072155339109
 30
0.0
 10
191.9087346827105
 20
14.70635302590759
 30
0.0
 10
191.7773313869834
 20
14.70863300482984
 30
0.0
 10
191.7239859134656
 20
14.704077043742
 30
0.0
 10
191.6485188456912
 20
14.70999914992873
 30
0.0
 10
191.6769075779232
 20
14.70094169343353
 30
0.0
 10
191.7033652409542
 20
14.69725912268935
 30
0.0
 10
191.6633522907701
 20
14.66654271968275
 30
0.0
 10
191.5713663691868
 20
14.67667591174631
 30
0.0
 10
191.5439396207069
 20
14.43032502247786
 30
0.0
 10
191.4478793967234
 20
14.27499558764374
 30
0.0
 10
191.1917277964475
 20
13.94525417931568
 30
0.0
 10
191.7627537732763
 20
14.0843002221045
 30
0.0
 10
192.0173656320516
 20
14.08291779973364
 30
0.0
 10
192.6279647048617
 20
13.99790569242085
 30
0.0
 10
192.3340698578084
 20
14.29685417558199
 30
0.0
 10
192.0133304286516
 20
14.44330856901772
 30
0.0
 10
192.1313543360434
 20
14.50025540818287
 30
0.0
 10
192.1724716466261
 20
14.52420099873347
 30
0.0
 10
192.2156812394411
 20
14.54599758811229
 30
0.0
 10
192.317457409445
 20
14.60928721253907
 30
0.0
 10
192.4328867625247
 20
14.35147151408776
 30
0.0
 10
192.6329591642277
 20
14.21616041113682
 30
0.0
 10
192.7269077387228
 20
14.0379279513888
 30
0.0
 10
192.9558829746392
 20
13.87997821027052
 30
0.0
 10
192.8596031846708
 20
13.829159725763
 30
0.0
 10
192.8167959763779
 20
13.79881292523052
 30
0.0
 10
192.7718243528779
 20
13.77466130281455
 30
0.0
 10
192.7121720925213
 20
13.72552146747559
 30
0.0
 10
192.6789731061325
 20
13.85997475673607
 30
0.0
 10
192.5582013350796
 20
14.01594265286577
 30
0.0
 10
192.1970976005979
 20
13.88569928059555
 30
0.0
 10
191.8385061955541
 20
13.90224694409481
 30
0.0
 10
191.457092045008
 20
13.89331229351864
 30
0.0
 10
191.1703455282891
 20
13.82882671672404
 30
0.0
 10
190.8592055599714
 20
13.94230668192827
 30
0.0
 10
190.8268737818788
 20
13.83122259927766
 30
0.0
 10
190.7896178253317
 20
13.81196313850018
 30
0.0
 10
190.7865737632753
 20
13.85874784087299
 30
0.0
 10
190.7679892860607
 20
13.89806853919138
 30
0.0
 10
190.7512436616778
 20
13.95765983478233
 30
0.0
 10
190.7383730915754
 20
14.00201969871285
 30
0.0
 10
190.7042327806427
 20
14.091063311202
 30
0.0
 10
190.9482714457754
 20
14.02181042943769
 30
0.0
 10
191.1441394486671
 20
14.0003036905774
 30
0.0
 10
191.2395426381277
 20
14.28226484478463
 30
0.0
 10
191.2945135769597
 20
14.44363045421122
 30
0.0
 10
191.5159619357156
 20
14.71391177589735
 30
0.0
 10
191.3849239381216
 20
14.70548446853731
 30
0.0
 10
191.3110026555854
 20
14.70779008496967
 30
0.0
 10
191.1977459876244
 20
14.70671378321655
 30
0.0
 10
191.0694251807484
 20
14.70707639076507
 30
0.0
 10
190.9404252030415
 20
14.70697724466083
 30
0.0
 10
190.828784094629
 20
14.70699932712569
 30
0.0
 10
190.7514663970026
 20
14.70699579189667
 30
0.0
 10
190.713287653201
 20
14.70699595845078
 30
0.0
 10
190.7027885008196
 20
14.70699600701769
 30
0.0
 11
190.7027885008196
 21
14.70699600701769
 31
0.0
 11
190.7027885008196
 21
14.73374924051794
 31
0.0
 11
190.7027885008196
 21
14.79260635421849
 31
0.0
 11
190.7027885008196
 21
14.85146346791904
 31
0.0
 11
190.7027885008196
 21
14.87821670141929
 31
0.0
 11
190.7355094280989
 21
14.87821670141929
 31
0.0
 11
190.8271280244809
 21
14.87821670141929
 31
0.0
 11
190.9678280117818
 21
14.87821670141929
 31
0.0
 11
191.1477931118179
 21
14.87821670141929
 31
0.0
 11
191.3572070464054
 21
14.87821670141929
 31
0.0
 11
191.5862535373604
 21
14.87821670141929
 31
0.0
 11
191.8251163064992
 21
14.87821670141929
 31
0.0
 11
192.0639790756381
 21
14.87821670141929
 31
0.0
 11
192.2930255665931
 21
14.87821670141929
 31
0.0
 11
192.5024395011806
 21
14.87821670141929
 31
0.0
 11
192.6824046012167
 21
14.87821670141929
 31
0.0
 11
192.8231045885176
 21
14.87821670141929
 31
0.0
 11
192.9147231848996
 21
14.87821670141929
 31
0.0
 11
192.9474441121789
 21
14.87821670141929
 31
0.0
 11
192.9474441121789
 21
14.85146346791904
 31
0.0
 11
192.9474441121789
 21
14.79260635421849
 31
0.0
 11
192.9474441121789
 21
14.73374924051794
 31
0.0
 11
192.9474441121789
 21
14.70699600701769
 31
0.0
 11
192.9174728954758
 21
14.70699600701769
 31
0.0
 11
192.8352937529027
 21
14.70699600701769
 31
0.0
 11
192.7125084457639
 21
14.70699600701769
 31
0.0
 11
192.5607187353642
 21
14.70699600701769
 31
0.0
 11
192.3915263830077
 21
14.70699600701769
 31
0.0
 11
192.2165331499991
 21
14.70699600701769
 31
0.0
 11
192.0473407976426
 21
14.70699600701769
 31
0.0
 11
191.8955510872428
 21
14.70699600701769
 31
0.0
 11
191.7727657801042
 21
14.70699600701769
 31
0.0
 11
191.690586637531
 21
14.70699600701769
 31
0.0
 11
191.6606154208279
 21
14.70699600701769
 31
0.0
 11
191.6766359412525
 21
14.70165583340794
 31
0.0
 11
191.6926564616771
 21
14.69631565979819
 31
0.0
 11
191.670615568142
 21
14.67558114591445
 31
0.0
 11
191.6284861855363
 21
14.66685871536109
 31
0.0
 11
191.5365235541377
 21
14.46909247312656
 31
0.0
 11
191.4279078521764
 21
14.25467511978507
 31
0.0
 11
191.3127500824808
 21
14.0462255905162
 31
0.0
 11
191.6857366675021
 21
14.05582441253028
 31
0.0
 11
192.083070003615
 21
14.06781232404995
 31
0.0
 11
192.4899342191145
 21
14.08102711828531
 31
0.0
 11
192.2983119496978
 21
14.28966761302477
 31
0.0
 11
192.0966752013699
 21
14.4822942015183
 31
0.0
 11
192.120494779475
 21
14.49525327269563
 31
0.0
 11
192.1728978513062
 21
14.52376322928575
 31
0.0
 11
192.2253009231374
 21
14.55227318587587
 31
0.0
 11
192.2491205012425
 21
14.5652322570532
 31
0.0
 11
192.4387101558627
 21
14.39079508370266
 31
0.0
 11
192.6200310940435
 21
14.20305846374089
 31
0.0
 11
192.7777729231147
 21
14.01782380992436
 31
0.0
 11
192.8966252504058
 21
13.85089253500951
 31
0.0
 11
192.8715408217923
 21
13.8350120228607
 31
0.0
 11
192.8163550788425
 21
13.8000748961333
 31
0.0
 11
192.7611693358928
 21
13.76513776940591
 31
0.0
 11
192.7360849072793
 21
13.74925725725709
 31
0.0
 11
192.6775518151612
 21
13.83887824681807
 31
0.0
 11
192.6050015078457
 21
13.93650288221031
 31
0.0
 11
192.2125412924095
 21
13.91636286943758
 31
0.0
 11
191.8249474069561
 21
13.89803302999772
 31
0.0
 11
191.4567378976213
 21
13.88202178722394
 31
0.0
 11
191.1224308105412
 21
13.86883756444946
 31
0.0
 11
190.8365441918518
 21
13.85898878500748
 31
0.0
 11
190.821186232174
 21
13.83220523466694
 31
0.0
 11
190.7937434290546
 21
13.82143559057249
 31
0.0
 11
190.7867927192319
 21
13.84370299445581
 31
0.0
 11
190.7702179496548
 21
13.89680218833141
 31
0.0
 11
190.7504351601596
 21
13.96017864553778
 31
0.0
 11
190.7338603905825
 21
14.01327783941338
 31
0.0
 11
190.7269096807598
 21
14.0355452432967
 31
0.0
 11
190.9091199859153
 21
14.03751638912951
 31
0.0
 11
191.1174975848588
 21
14.04356211829469
 31
0.0
 11
191.2303203127216
 21
14.25483550301553
 31
0.0
 11
191.3407936722035
 21
14.4850981315588
 31
0.0
 11
191.4358254265627
 21
14.70699600701769
 31
0.0
 11
191.4043277461597
 21
14.70699600701769
 31
0.0
 11
191.3212884069153
 21
14.70699600701769
 31
0.0
 11
191.2038879617768
 21
14.70699600701769
 31
0.0
 11
191.0693069636912
 21
14.70699600701769
 31
0.0
 11
190.9347259656055
 21
14.70699600701769
 31
0.0
 11
190.817325520467
 21
14.70699600701769
 31
0.0
 11
190.7342861812226
 21
14.70699600701769
 31
0.0
 11
190.7027885008196
 21
14.70699600701769
 31
0.0
  0
SPLINE
  5
AC
102
{ACAD_REACTORS
330
C9
102
}
330
48
100
AcDbEntity
  8
_U_30EC_U_30A4_U_30E4_U_30FC_1
  6
Continuous
 62
     2
100
AcDbSpline
210
0.0
220
0.0
230
1.0
 70
    11
 71
     3
 72
   131
 73
   127
 74
   125
 42
0.000000001
 43
0.0000000001
 44
0.00000001
 40
0.0
 40
0.0
 40
0.0
 40
0.0
 40
0.0195577029826114
 40
0.0426490537461348
 40
0.2863607575856759
 40
0.5344948436189514
 40
0.7842238845573412
 40
0.8737315789467751
 40
0.9803832810313217
 40
1.092842274517068
 40
1.199761146656832
 40
1.289788768186545
 40
1.351573580786232
 40
1.370727117561457
 40
1.416400936017866
 40
1.470914848356004
 40
1.516588666791791
 40
1.535742203552869
 40
1.63421659229317
 40
1.760283341174971
 40
1.897966686682111
 40
2.031216387368963
 40
2.049689751137959
 40
2.101115601646897
 40
2.179502577740018
 40
2.278859318314137
 40
2.393194462258799
 40
2.516516648383919
 40
2.642834515406052
 40
2.766156701983561
 40
2.880491846754679
 40
2.979848588358725
 40
3.058235565443906
 40
3.109661416669062
 40
3.128134780704239
 40
3.146783742386556
 40
3.191254343315417
 40
3.244332157316076
 40
3.288802758225979
 40
3.307451719895222
 40
3.327717853844834
 40
3.383747753580198
 40
3.468388665924592
 40
3.574487837698903
 40
3.694892515729012
 40
3.822449946852156
 40
3.95000737792055
 40
4.070412055800644
 40
4.176511227368205
 40
4.261152139501653
 40
4.317182039076848
 40
4.337448172964769
 40
4.620011002696411
 40
4.88509663839767
 40
4.945373043518502
 40
5.01410771048883
 40
5.070481727652236
 40
5.319246955636747
 40
5.584812164506238
 40
5.859000912057092
 40
6.133746937542282
 40
6.401732212969125
 40
6.420736683995744
 40
6.472845717451338
 40
6.550702743894322
 40
6.646951193874531
 40
6.754234497930855
 40
6.865196086587662
 40
6.97247939035812
 40
7.06872783977231
 40
7.146584865451319
 40
7.198693898189549
 40
7.217698368905689
 40
7.234950401631157
 40
7.276089864270181
 40
7.325191803516263
 40
7.366331266090628
 40
7.383583298769969
 40
7.402779163492347
 40
7.453386443254778
 40
7.524934666445779
 40
7.606953361406119
 40
7.688972056429271
 40
7.760520279784521
 40
7.811127559734763
 40
7.830323424546385
 40
7.847844055300016
 40
7.894799345667063
 40
7.96277939274476
 40
8.04337429356082
 40
8.128174145149739
 40
8.20876904481755
 40
8.276749090377262
 40
8.323704379669831
 40
8.341225010056565
 40
8.358497614800713
 40
8.401679126686918
 40
8.457815092185976
 40
8.51395105772838
 40
8.557132569708337
 40
8.57440517450538
 40
8.602340668616725
 40
8.64345566054032
 40
8.663225271966992
 40
8.715345156564643
 40
8.789031889628982
 40
8.87350204552072
 40
8.957972194324352
 40
9.03165892556825
 40
9.083778811234941
 40
9.103548423003406
 40
9.119550083123944
 40
9.160817522380245
 40
9.217244429110611
 40
9.278724491645097
 40
9.335151398295881
 40
9.376418837358177
 40
9.392420497300964
 40
9.401196302735185
 40
9.417494229384664
 40
9.426270027749938
 40
9.440875075477967
 40
9.47570249699914
 40
9.517270709866295
 40
9.552098131994457
 40
9.566703169884661
 40
9.566703169884661
 40
9.566703169884661
 40
9.566703169884661
 10
194.6170254148479
 20
15.67015871511029
 30
0.0
 10
194.6134345093371
 20
15.66453690702161
 30
0.0
 10
194.6056039123625
 20
15.65227754419114
 30
0.0
 10
194.5129968974545
 20
15.6160191604098
 30
0.0
 10
194.4887622233248
 20
15.40148444212713
 30
0.0
 10
194.3858709845938
 20
15.22197284509709
 30
0.0
 10
194.1220492364304
 20
15.03615573798142
 30
0.0
 10
194.284547156918
 20
14.95959336566083
 30
0.0
 10
194.3607225760838
 20
14.89856693195444
 30
0.0
 10
194.4492171072758
 20
14.83515804544762
 30
0.0
 10
194.5389930233111
 20
14.77525634219561
 30
0.0
 10
194.5883817636047
 20
14.7210215484921
 30
0.0
 10
194.6745708157382
 20
14.6928624054183
 30
0.0
 10
194.6411260674229
 20
14.65713309652809
 30
0.0
 10
194.6214671166311
 20
14.62550387991904
 30
0.0
 10
194.5919888217882
 20
14.58475872796068
 30
0.0
 10
194.5688989446032
 20
14.55504663489642
 30
0.0
 10
194.5380205968356
 20
14.50211422668494
 30
0.0
 10
194.4729193365741
 20
14.62740334938899
 30
0.0
 10
194.3796000122416
 20
14.68213900233937
 30
0.0
 10
194.2950636285138
 20
14.7391642393934
 30
0.0
 10
194.1722498125744
 20
14.89675287427527
 30
0.0
 10
194.17644508473
 20
14.82035806766838
 30
0.0
 10
194.1751478652677
 20
14.77361280161298
 30
0.0
 10
194.1758126448077
 20
14.69584785812603
 30
0.0
 10
194.1755549986956
 20
14.59902068324423
 30
0.0
 10
194.1756431239922
 20
14.4865027907881
 30
0.0
 10
194.1756077302281
 20
14.36524085945699
 30
0.0
 10
194.1756511758278
 20
14.2408689785896
 30
0.0
 10
194.1755199942405
 20
14.11967683631335
 30
0.0
 10
194.1759477562046
 20
14.00691148919741
 30
0.0
 10
194.174667820231
 20
13.91082913768742
 30
0.0
 10
194.1779759851043
 20
13.83113826468697
 30
0.0
 10
194.1715197740087
 20
13.78815175788782
 30
0.0
 10
194.1806208705555
 20
13.74955432372039
 30
0.0
 10
194.1447910339935
 20
13.75810887724068
 30
0.0
 10
194.1115223815252
 20
13.75342519985444
 30
0.0
 10
194.0604562576041
 20
13.75351298759782
 30
0.0
 10
194.0269723972812
 20
13.75794430283818
 30
0.0
 10
193.9907585408754
 20
13.74960793842506
 30
0.0
 10
194.0009782568665
 20
13.79145277179282
 30
0.0
 10
193.9936487887774
 20
13.83778560820171
 30
0.0
 10
193.9973633136102
 20
13.92374831106012
 30
0.0
 10
193.9959480554896
 20
14.02605142704847
 30
0.0
 10
193.9964105554637
 20
14.1445322393151
 30
0.0
 10
193.9962773686231
 20
14.26957683153355
 30
0.0
 10
193.9963015910044
 20
14.39475828107049
 30
0.0
 10
193.9963354925551
 20
14.51286645379058
 30
0.0
 10
193.9962060293132
 20
14.61628748709516
 30
0.0
 10
193.996550754908
 20
14.69932036153667
 30
0.0
 10
193.995869827869
 20
14.75143368521244
 30
0.0
 10
193.9994586600624
 20
14.87912907821362
 30
0.0
 10
193.7826171386437
 20
14.58048716819616
 30
0.0
 10
193.602135492195
 20
14.35263981511514
 30
0.0
 10
193.5490322295611
 20
14.49373443289813
 30
0.0
 10
193.5200429133149
 20
14.54325767560944
 30
0.0
 10
193.419664806282
 20
14.64641779790109
 30
0.0
 10
193.7405127723261
 20
14.72695035023779
 30
0.0
 10
193.868989700543
 20
14.91066283036434
 30
0.0
 10
194.0906454325359
 20
15.11931995771763
 30
0.0
 10
194.1770224894068
 20
15.29339211228347
 30
0.0
 10
194.4549394229077
 20
15.56967051342517
 30
0.0
 10
194.3346247839284
 20
15.56534559551116
 30
0.0
 10
194.286319735135
 20
15.56614856202556
 30
0.0
 10
194.2102377454905
 20
15.56574582146587
 30
0.0
 10
194.1167010009751
 20
15.56590275611613
 30
0.0
 10
194.0117594788557
 20
15.56582502576227
 30
0.0
 10
193.9033887738718
 20
15.56595464378557
 30
0.0
 10
193.7981454235897
 20
15.56554393490694
 30
0.0
 10
193.7056237819413
 20
15.56682073671594
 30
0.0
 10
193.6268130800707
 20
15.56340766534853
 30
0.0
 10
193.5839674565379
 20
15.57023350036323
 30
0.0
 10
193.5449499586516
 20
15.56065064201127
 30
0.0
 10
193.5526365271863
 20
15.59420779565543
 30
0.0
 10
193.5485464404312
 20
15.62523550322233
 30
0.0
 10
193.5485531368815
 20
15.67236529270897
 30
0.0
 10
193.5526239724911
 20
15.70340941646774
 30
0.0
 10
193.5449495574583
 20
15.73701861635896
 30
0.0
 10
193.5834819405494
 20
15.72748410420866
 30
0.0
 10
193.624122801448
 20
15.73397435498065
 30
0.0
 10
193.6951471850462
 20
15.73100150650248
 30
0.0
 10
193.7729318149633
 20
15.73174761399151
 30
0.0
 10
193.8507292246474
 20
15.73247814044519
 30
0.0
 10
193.9217232089907
 20
15.72954235514154
 30
0.0
 10
193.962427979182
 20
15.73595468772946
 30
0.0
 10
194.0009853489909
 20
15.72650524175998
 30
0.0
 10
193.9927342754927
 20
15.76264692158779
 30
0.0
 10
193.9982346669358
 20
15.80129837613221
 30
0.0
 10
193.9955754206163
 20
15.86913528561834
 30
0.0
 10
193.9965815471533
 20
15.94591641538737
 30
0.0
 10
193.9960178018319
 20
16.02849393582755
 30
0.0
 10
193.9970714526593
 20
16.10517329229877
 30
0.0
 10
193.994267586313
 20
16.17331990776699
 30
0.0
 10
194.0000702721304
 20
16.21132399809348
 30
0.0
 10
193.9915654551158
 20
16.24758448077647
 30
0.0
 10
194.0255610233125
 20
16.23755723771854
 30
0.0
 10
194.0594575683099
 20
16.24073266813706
 30
0.0
 10
194.1126669060346
 20
16.2350896564061
 30
0.0
 10
194.1660768574483
 20
16.23434774436425
 30
0.0
 10
194.199591464949
 20
16.2281922348298
 30
0.0
 10
194.2388086183039
 20
16.23346029773593
 30
0.0
 10
194.2120263698492
 20
16.19253380793483
 30
0.0
 10
194.1708111001723
 20
16.20371204538111
 30
0.0
 10
194.1782641540874
 20
16.15867056192121
 30
0.0
 10
194.1742227952184
 20
16.11412278028141
 30
0.0
 10
194.176171404964
 20
16.04223572621699
 30
0.0
 10
194.1752364849758
 20
15.96168630588766
 30
0.0
 10
194.176510719003
 20
15.8817399540499
 30
0.0
 10
194.1732043793863
 20
15.80841837083176
 30
0.0
 10
194.1802106179962
 20
15.76688643002563
 30
0.0
 10
194.1701440380125
 20
15.72752418568107
 30
0.0
 10
194.2029814803921
 20
15.73468063430975
 30
0.0
 10
194.236457729648
 20
15.73027243137938
 30
0.0
 10
194.2915053476019
 20
15.73217943347891
 30
0.0
 10
194.3489502595314
 20
15.73185366407282
 30
0.0
 10
194.4023026248309
 20
15.73106308733075
 30
0.0
 10
194.4398540896639
 20
15.73313959118069
 30
0.0
 10
194.4623172523236
 20
15.73022338167102
 30
0.0
 10
194.4751678073731
 20
15.73572552644051
 30
0.0
 10
194.4858255685889
 20
15.73801118197785
 30
0.0
 10
194.4986635650143
 20
15.74494972588049
 30
0.0
 10
194.5145991033071
 20
15.72853046313669
 30
0.0
 10
194.5410623920891
 20
15.71709122319446
 30
0.0
 10
194.5726805253757
 20
15.6964468783519
 30
0.0
 10
194.5987255892151
 20
15.68116869628295
 30
0.0
 10
194.6128517723973
 20
15.67266976323185
 30
0.0
 10
194.6170254148479
 20
15.67015871511029
 30
0.0
 11
194.6170254148479
 21
15.67015871511029
 31
0.0
 11
194.6049990002243
 21
15.6547357116419
 31
0.0
 11
194.5848961795565
 21
15.64337406233921
 31
0.0
 11
194.4778986355813
 21
15.4244062023116
 31
0.0
 11
194.3477039934324
 21
15.21317201512161
 31
0.0
 11
194.1996540366071
 21
15.01206059027479
 31
0.0
 11
194.2734958253735
 21
14.9614738493538
 31
0.0
 11
194.36056643118
 21
14.89988411653741
 31
0.0
 11
194.4518003750405
 21
14.83413160594428
 31
0.0
 11
194.5381321779688
 21
14.77105653169306
 31
0.0
 11
194.6104963609787
 21
14.71749910790242
 31
0.0
 11
194.6598274450843
 21
14.68029954869101
 31
0.0
 11
194.6486940702213
 21
14.66471410869491
 31
0.0
 11
194.6221452532403
 21
14.62754882870421
 31
0.0
 11
194.5904579555533
 21
14.58319026871531
 31
0.0
 11
194.5639091385723
 21
14.54602498872461
 31
0.0
 11
194.5527757637093
 21
14.53043954872851
 31
0.0
 11
194.4807013362948
 21
14.59754008690615
 31
0.0
 11
194.3852856985382
 21
14.67993354174668
 31
0.0
 11
194.279326415217
 21
14.76785017366917
 31
0.0
 11
194.175621051109
 21
14.85152024309269
 31
0.0
 11
194.175621051109
 21
14.83304687900865
 31
0.0
 11
194.175621051109
 21
14.78162102763957
 31
0.0
 11
194.175621051109
 21
14.70323405031
 31
0.0
 11
194.175621051109
 21
14.60387730834449
 31
0.0
 11
194.175621051109
 21
14.48954216306761
 31
0.0
 11
194.175621051109
 21
14.36621997580389
 31
0.0
 11
194.175621051109
 21
14.23990210787789
 31
0.0
 11
194.175621051109
 21
14.11657992061417
 31
0.0
 11
194.175621051109
 21
14.00224477533729
 31
0.0
 11
194.175621051109
 21
13.90288803337178
 31
0.0
 11
194.175621051109
 21
13.82450105604221
 31
0.0
 11
194.175621051109
 21
13.77307520467313
 31
0.0
 11
194.175621051109
 21
13.75460184058909
 31
0.0
 11
194.1569720893626
 21
13.75460184058909
 31
0.0
 11
194.1125014882749
 21
13.75460184058909
 31
0.0
 11
194.0594236740736
 21
13.75460184058909
 31
0.0
 11
194.0149530729859
 21
13.75460184058909
 31
0.0
 11
193.9963041112395
 21
13.75460184058909
 31
0.0
 11
193.9963041112395
 21
13.77486797460216
 31
0.0
 11
193.9963041112395
 21
13.83089787452064
 31
0.0
 11
193.9963041112395
 21
13.91553878716345
 31
0.0
 11
193.9963041112395
 21
14.02163795934951
 31
0.0
 11
193.9963041112395
 21
14.14204263789774
 31
0.0
 11
193.9963041112395
 21
14.26960006962705
 31
0.0
 11
193.9963041112395
 21
14.39715750135635
 31
0.0
 11
193.9963041112395
 21
14.51756217990458
 31
0.0
 11
193.9963041112395
 21
14.62366135209064
 31
0.0
 11
193.9963041112395
 21
14.70830226473345
 31
0.0
 11
193.9963041112395
 21
14.76433216465193
 31
0.0
 11
193.9963041112395
 21
14.784598298665
 31
0.0
 11
193.7883272849481
 21
14.59331998274053
 31
0.0
 11
193.5763486358425
 21
14.43414885430809
 31
0.0
 11
193.5495629014482
 21
14.48814671952095
 31
0.0
 11
193.5138765415024
 21
14.54689140572028
 31
0.0
 11
193.4799697494124
 21
14.59192871537979
 31
0.0
 11
193.6830287742319
 21
14.73563387201054
 31
0.0
 11
193.881853195826
 21
14.91168423529988
 31
0.0
 11
194.0677041444178
 21
15.1132751452495
 31
0.0
 11
194.2318427502303
 21
15.3336019418611
 31
0.0
 11
194.3655301434865
 21
15.56585996513638
 31
0.0
 11
194.3465256724482
 21
15.56585996513638
 31
0.0
 11
194.2944166389563
 21
15.56585996513638
 31
0.0
 11
194.2165596124448
 21
15.56585996513638
 31
0.0
 11
194.1203111623479
 21
15.56585996513638
 31
0.0
 11
194.0130278580997
 21
15.56585996513638
 31
0.0
 11
193.9020662691345
 21
15.56585996513638
 31
0.0
 11
193.7947829648864
 21
15.56585996513638
 31
0.0
 11
193.6985345147895
 21
15.56585996513638
 31
0.0
 11
193.620677488278
 21
15.56585996513638
 31
0.0
 11
193.568568454786
 21
15.56585996513638
 31
0.0
 11
193.5495639837478
 21
15.56585996513638
 31
0.0
 11
193.5495639837478
 21
15.58311199790984
 31
0.0
 11
193.5495639837478
 21
15.62425146067731
 31
0.0
 11
193.5495639837478
 21
15.67335340010946
 31
0.0
 11
193.5495639837478
 21
15.71449286287693
 31
0.0
 11
193.5495639837478
 21
15.73174489565039
 31
0.0
 11
193.5687598486009
 21
15.73174489565039
 31
0.0
 11
193.6193671286684
 21
15.73174489565039
 31
0.0
 11
193.690915352212
 21
15.73174489565039
 31
0.0
 11
193.7729340474937
 21
15.73174489565039
 31
0.0
 11
193.8549527427753
 21
15.73174489565039
 31
0.0
 11
193.9265009663189
 21
15.73174489565039
 31
0.0
 11
193.9771082463864
 21
15.73174489565039
 31
0.0
 11
193.9963041112395
 21
15.73174489565039
 31
0.0
 11
193.9963041112395
 21
15.74926552655212
 31
0.0
 11
193.9963041112395
 21
15.79622081736876
 31
0.0
 11
193.9963041112395
 21
15.86420086526749
 31
0.0
 11
193.9963041112395
 21
15.94479576741546
 31
0.0
 11
193.9963041112395
 21
16.02959562097984
 31
0.0
 11
193.9963041112395
 21
16.11019052312781
 31
0.0
 11
193.9963041112395
 21
16.17817057102653
 31
0.0
 11
193.9963041112395
 21
16.22512586184318
 31
0.0
 11
193.9963041112395
 21
16.24264649274491
 31
0.0
 11
194.0135484112111
 21
16.2416580616752
 31
0.0
 11
194.0566591611401
 21
16.23918698400092
 31
0.0
 11
194.1127031360477
 21
16.23597458302436
 31
0.0
 11
194.1687471109553
 21
16.2327621820478
 31
0.0
 11
194.2118578608843
 21
16.23029110437352
 31
0.0
 11
194.2291021608559
 21
16.22930267330381
 31
0.0
 11
194.2143774674852
 21
16.20556293372638
 31
0.0
 11
194.175621051109
 21
16.1918376733131
 31
0.0
 11
194.175621051109
 21
16.1720680617729
 31
0.0
 11
194.175621051109
 21
16.1199481768033
 31
0.0
 11
194.175621051109
 21
16.04626144288076
 31
0.0
 11
194.175621051109
 21
15.96179128448174
 31
0.0
 11
194.175621051109
 21
15.87732112608273
 31
0.0
 11
194.175621051109
 21
15.80363439216019
 31
0.0
 11
194.175621051109
 21
15.75151450719058
 31
0.0
 11
194.175621051109
 21
15.73174489565039
 31
0.0
 11
194.1916227112935
 21
15.73174489565039
 31
0.0
 11
194.232890150717
 21
15.73174489565039
 31
0.0
 11
194.2893170576837
 21
15.73174489565039
 31
0.0
 11
194.3507971204981
 21
15.73174489565039
 31
0.0
 11
194.4072240274648
 21
15.73174489565039
 31
0.0
 11
194.4484914668882
 21
15.73174489565039
 31
0.0
 11
194.4644931270728
 21
15.73174489565039
 31
0.0
 11
194.4728206422924
 21
15.73451387455915
 31
0.0
 11
194.4882860277004
 21
15.73965626396114
 31
0.0
 11
194.49661354292
 21
15.7424252428699
 31
0.0
 11
194.5091363776005
 21
15.7349095239829
 31
0.0
 11
194.5389985218386
 21
15.71698742509852
 31
0.0
 11
194.5746404359293
 21
15.69559653288167
 31
0.0
 11
194.6045025801674
 21
15.67767443399729
 31
0.0
 11
194.6170254148479
 21
15.67015871511029
 31
0.0
  0
SPLINE
  5
AD
102
{ACAD_REACTORS
330
CA
102
}
330
48
100
AcDbEntity
  8
_U_30EC_U_30A4_U_30E4_U_30FC_1
  6
Continuous
 62
     2
100
AcDbSpline
210
0.0
220
0.0
230
1.0
 70
    11
 71
     3
 72
   124
 73
   120
 74
   118
 42
0.000000001
 43
0.0000000001
 44
0.00000001
 40
0.0
 40
0.0
 40
0.0
 40
0.0
 40
0.027818722962451
 40
0.1011590162384269
 40
0.2048470170590239
 40
0.3237088716559245
 40
0.4425707262522
 40
0.5462587270699547
 40
0.6195990203311798
 40
0.647417752257866
 40
0.6750060736115242
 40
0.7357003855242759
 40
0.7963946998054474
 40
0.8239830245571766
 40
0.854093381110286
 40
0.937339662940954
 40
1.063094687343235
 40
1.220731268638073
 40
1.399622220914748
 40
1.589140358637732
 40
1.778658496423898
 40
1.957549448940509
 40
2.115186030873159
 40
2.240941056914463
 40
2.324187341760532
 40
2.354297700109382
 40
2.38188602467189
 40
2.442580338710475
 40
2.503274652750497
 40
2.530862977314606
 40
2.560983949278559
 40
2.640393784452905
 40
2.752662861759128
 40
2.881361560118145
 40
3.010060258455192
 40
3.122329335705339
 40
3.201739170817953
 40
3.231860142753313
 40
3.26429802403037
 40
3.352343701778238
 40
3.48209522686876
 40
3.639650650173018
 40
3.811108022565473
 40
3.982565394927978
 40
4.140120818152558
 40
4.269872343141267
 40
4.357918020802328
 40
4.390355902043955
 40
4.423256253992524
 40
4.508104530073045
 40
4.624121560636813
 40
4.75052817603157
 40
4.866545206602017
 40
4.951393482691974
 40
4.984293834645375
 40
5.011450833242287
 40
5.071196230152066
 40
5.130941627057136
 40
5.158098625648798
 40
5.190998977601489
 40
5.275847253689315
 40
5.391864284256749
 40
5.518270899648294
 40
5.634287930209333
 40
5.719136206288007
 40
5.752036558235894
 40
5.782130946282922
 40
5.862783906229098
 40
5.979550131774972
 40
6.117984316640382
 40
6.263641154587932
 40
6.402075339414146
 40
6.518841564907949
 40
6.599494524815534
 40
6.629588912848772
 40
6.654403028226349
 40
6.713575149488116
 40
6.784199939329434
 40
6.843372060493536
 40
6.868186175802782
 40
6.896246243201886
 40
6.939586233758288
 40
6.967846564564915
 40
7.043584251089854
 40
7.153234334451707
 40
7.283231855734455
 40
7.420011856035485
 40
7.550009376579832
 40
7.659659458835232
 40
7.735397144417222
 40
7.763657474851394
 40
7.796409728011051
 40
7.880876065096325
 40
7.996370852465711
 40
8.122208446418606
 40
8.2377032247992
 40
8.322169562010894
 40
8.354921815205907
 40
8.382078813307684
 40
8.441824209206985
 40
8.501569605240126
 40
8.528726603485703
 40
8.561478856695752
 40
8.645945193877802
 40
8.761439980865314
 40
8.887277580764456
 40
9.002772362000977
 40
9.087238696661197
 40
9.119990949235651
 40
9.152428830613351
 40
9.240474508638565
 40
9.370226034149514
 40
9.527781457984396
 40
9.699238830981383
 40
9.87069620397857
 40
10.02825162781399
 40
10.15800315332561
 40
10.24604883135116
 40
10.27848670378518
 40
10.27848670378518
 40
10.27848670378518
 40
10.27848670378518
 10
195.3821827564383
 20
14.01410517385759
 30
0.0
 10
195.3914554737523
 20
14.01410498511276
 30
0.0
 10
195.4251744536861
 20
14.01410430876716
 30
0.0
 10
195.4934706812465
 20
14.01411807243307
 30
0.0
 10
195.592014171158
 20
14.01403224219547
 30
0.0
 10
195.7062066464812
 20
14.01441755612253
 30
0.0
 10
195.818589441707
 20
14.01300835897547
 30
0.0
 10
195.9214376600118
 20
14.01719117422245
 30
0.0
 10
195.9806839874849
 20
14.00823089251985
 30
0.0
 10
196.0371265937033
 20
14.02164434526063
 30
0.0
 10
196.0246255586954
 20
13.97087198613363
 30
0.0
 10
196.0329549635703
 20
13.92589320939069
 30
0.0
 10
196.024817084112
 20
13.8805675299049
 30
0.0
 10
196.0370529214457
 20
13.82931932408468
 30
0.0
 10
195.9747773490333
 20
13.84447955365278
 30
0.0
 10
195.9060513026868
 20
13.83359750710744
 30
0.0
 10
195.7782756749592
 20
13.83911304747975
 30
0.0
 10
195.6262984511643
 20
13.837008512537
 30
0.0
 10
195.4502695972523
 20
13.83771002588475
 30
0.0
 10
195.2644431934287
 20
13.83745237531293
 30
0.0
 10
195.0786167437175
 20
13.83771005144606
 30
0.0
 10
194.9025880142168
 20
13.83700841847732
 30
0.0
 10
194.7506104154195
 20
13.83911332229991
 30
0.0
 10
194.6228357664554
 20
13.83359680767642
 30
0.0
 10
194.5541077836581
 20
13.84448077125944
 30
0.0
 10
194.4918349042883
 20
13.82931786684211
 30
0.0
 10
194.5040616290017
 20
13.88057510805173
 30
0.0
 10
194.4960004462597
 20
13.92582473272427
 30
0.0
 10
194.5040675809893
 20
13.97106357955325
 30
0.0
 10
194.4918238487083
 20
14.0223417690996
 30
0.0
 10
194.5525017120697
 20
14.00749577363136
 30
0.0
 10
194.6162810745736
 20
14.01756448170737
 30
0.0
 10
194.7277314353502
 20
14.01294644212001
 30
0.0
 10
194.8497533443824
 20
14.01413328905471
 30
0.0
 10
194.9719538137823
 20
14.01515863900637
 30
0.0
 10
195.0829794287392
 20
14.01092475623403
 30
0.0
 10
195.1476517413958
 20
14.02018584521741
 30
0.0
 10
195.2091162810501
 20
14.00604423049684
 30
0.0
 10
195.1930065601337
 20
14.07235527884519
 30
0.0
 10
195.2042980327358
 20
14.14447790121977
 30
0.0
 10
195.1987400822561
 20
14.27513760888288
 30
0.0
 10
195.200803506169
 20
14.42607323708242
 30
0.0
 10
195.2000167127295
 20
14.59335873107887
 30
0.0
 10
195.2007845215628
 20
14.76061110332304
 30
0.0
 10
195.1988038785628
 20
14.91163289269915
 30
0.0
 10
195.204130615662
 20
15.04206069552995
 30
0.0
 10
195.1933101388425
 20
15.114654426059
 30
0.0
 10
195.2090326429875
 20
15.18150469436799
 30
0.0
 10
195.143270813249
 20
15.16580512490825
 30
0.0
 10
195.0756367830763
 20
15.17609243083996
 30
0.0
 10
194.9615885293809
 20
15.17113786847123
 30
0.0
 10
194.8451242674902
 20
15.17414128030475
 30
0.0
 10
194.7306554121477
 20
15.16880303143389
 30
0.0
 10
194.6640324657812
 20
15.18001268074826
 30
0.0
 10
194.5990769715186
 20
15.16349132665012
 30
0.0
 10
194.6107989758707
 20
15.21473720477059
 30
0.0
 10
194.6032830189122
 20
15.25950333784091
 30
0.0
 10
194.6107989878835
 20
15.3042694489796
 30
0.0
 10
194.5990769505347
 20
15.3555153612974
 30
0.0
 10
194.66403263392
 20
15.33899381766814
 30
0.0
 10
194.7306533339822
 20
15.35020571373943
 30
0.0
 10
194.8451352858063
 20
15.34485436710663
 30
0.0
 10
194.9615454436962
 20
15.34791188771116
 30
0.0
 10
195.0757660174641
 20
15.34278499010707
 30
0.0
 10
195.1430150439226
 20
15.35345733355597
 30
0.0
 10
195.2083325941438
 20
15.33742082669076
 30
0.0
 10
195.1941391448552
 20
15.39949685750052
 30
0.0
 10
195.2036059462994
 20
15.46586761628762
 30
0.0
 10
195.1990269004085
 20
15.58239972741966
 30
0.0
 10
195.2007696555948
 20
15.71426685022376
 30
0.0
 10
195.1997551495392
 20
15.85615960150274
 30
0.0
 10
195.2017191344372
 20
15.98769050702581
 30
0.0
 10
195.1964668553851
 20
16.10524577283005
 30
0.0
 10
195.2073408763474
 20
16.16947789001586
 30
0.0
 10
195.1919536641853
 20
16.2310880254505
 30
0.0
 10
195.24075915378
 20
16.21702407382113
 30
0.0
 10
195.2853995564725
 20
16.21954742075317
 30
0.0
 10
195.3538643946742
 20
16.21512797401711
 30
0.0
 10
195.3959106169102
 20
16.20613025544037
 30
0.0
 10
195.4487544758775
 20
16.21411714866512
 30
0.0
 10
195.4207035002014
 20
16.17113917611672
 30
0.0
 10
195.3749142248594
 20
16.18259552043833
 30
0.0
 10
195.3869539073265
 20
16.12173520005134
 30
0.0
 10
195.3796086070641
 20
16.0576929946877
 30
0.0
 10
195.3831195826161
 20
15.94909368863908
 30
0.0
 10
195.3819806760173
 20
15.82494319144751
 30
0.0
 10
195.3819174780262
 20
15.69189719829876
 30
0.0
 10
195.3832872966868
 20
15.56797381249554
 30
0.0
 10
195.3791638801313
 20
15.45868337849337
 30
0.0
 10
195.3877763103564
 20
15.39608580094168
 30
0.0
 10
195.3746757454402
 20
15.33740133296364
 30
0.0
 10
195.4393884328198
 20
15.35362113810901
 30
0.0
 10
195.5060405953156
 20
15.34270260383311
 30
0.0
 10
195.6198779541102
 20
15.34793740173754
 30
0.0
 10
195.7357259122097
 20
15.34485547516912
 30
0.0
 10
195.849692426328
 20
15.35018259812511
 30
0.0
 10
195.9160341018099
 20
15.33904208166541
 30
0.0
 10
195.980718852548
 20
15.35546979593177
 30
0.0
 10
195.9689820772722
 20
15.30425925210049
 30
0.0
 10
195.9765168063041
 20
15.25950334121001
 30
0.0
 10
195.9689820992257
 20
15.21474739010027
 30
0.0
 10
195.9807188140736
 20
15.16353690871041
 30
0.0
 10
195.9160344075252
 20
15.1799642779422
 30
0.0
 10
195.8496886430824
 20
15.1688278444727
 30
0.0
 10
195.7357459487012
 20
15.17413115893121
 30
0.0
 10
195.6197995623054
 20
15.17114764593544
 30
0.0
 10
195.5062756882122
 20
15.17606892268395
 30
0.0
 10
195.4389231318804
 20
15.1658508751352
 30
0.0
 10
195.3734285122495
 20
15.18145996138817
 30
0.0
 10
195.3891713619218
 20
15.11463851827412
 30
0.0
 10
195.3783275998213
 20
15.0420705781588
 30
0.0
 10
195.3836581629792
 20
14.91162247614417
 30
0.0
 10
195.3817136151855
 20
14.76064558185227
 30
0.0
 10
195.3823133683214
 20
14.5932224393416
 30
0.0
 10
195.3821506559604
 20
14.42656176118373
 30
0.0
 10
195.3821895488136
 20
14.27360142921638
 30
0.0
 10
195.38218164131
 20
14.14849178985707
 30
0.0
 10
195.3821828382744
 20
14.06507890991422
 30
0.0
 10
195.3821827716208
 20
14.02491778281978
 30
0.0
 10
195.3821827564383
 20
14.01410517385759
 30
0.0
 11
195.3821827564383
 21
14.01410517385759
 31
0.0
 11
195.4100014883675
 21
14.01410517385759
 31
0.0
 11
195.4833417816353
 21
14.01410517385759
 31
0.0
 11
195.5870297824622
 21
14.01410517385759
 31
0.0
 11
195.7058916370687
 21
14.01410517385759
 31
0.0
 11
195.8247534916751
 21
14.01410517385759
 31
0.0
 11
195.928441492502
 21
14.01410517385759
 31
0.0
 11
196.0017817857698
 21
14.01410517385759
 31
0.0
 11
196.029600517699
 21
14.01410517385759
 31
0.0
 11
196.029600517699
 21
13.98651684921171
 31
0.0
 11
196.029600517699
 21
13.92582253499079
 31
0.0
 11
196.029600517699
 21
13.86512822076986
 31
0.0
 11
196.029600517699
 21
13.83753989612399
 31
0.0
 11
195.9994901593494
 21
13.83753989612399
 31
0.0
 11
195.9162438745004
 21
13.83753989612399
 31
0.0
 11
195.7904888484521
 21
13.83753989612399
 31
0.0
 11
195.6328522665041
 21
13.83753989612399
 31
0.0
 11
195.4539613139564
 21
13.83753989612399
 31
0.0
 11
195.2644431761089
 21
13.83753989612399
 31
0.0
 11
195.0749250382613
 21
13.83753989612399
 31
0.0
 11
194.8960340857136
 21
13.83753989612399
 31
0.0
 11
194.7383975037656
 21
13.83753989612399
 31
0.0
 11
194.6126424777172
 21
13.83753989612399
 31
0.0
 11
194.5293961928683
 21
13.83753989612399
 31
0.0
 11
194.4992858345187
 21
13.83753989612399
 31
0.0
 11
194.4992858345187
 21
13.86512822076987
 31
0.0
 11
194.4992858345187
 21
13.92582253499079
 31
0.0
 11
194.4992858345187
 21
13.98651684921171
 31
0.0
 11
194.4992858345187
 21
14.01410517385759
 31
0.0
 11
194.5294068064947
 21
14.01410517385759
 31
0.0
 11
194.608816641704
 21
14.01410517385759
 31
0.0
 11
194.721085719069
 21
14.01410517385759
 31
0.0
 11
194.8497844175118
 21
14.01410517385759
 31
0.0
 11
194.9784831159545
 21
14.01410517385759
 31
0.0
 11
195.0907521933195
 21
14.01410517385759
 31
0.0
 11
195.1701620285289
 21
14.01410517385759
 31
0.0
 11
195.2002830005048
 21
14.01410517385759
 31
0.0
 11
195.2002830005048
 21
14.04654305523837
 31
0.0
 11
195.2002830005048
 21
14.13458873327192
 31
0.0
 11
195.2002830005048
 21
14.26434025879504
 31
0.0
 11
195.2002830005048
 21
14.42189568264455
 31
0.0
 11
195.2002830005048
 21
14.59335305565725
 31
0.0
 11
195.2002830005048
 21
14.76481042866995
 31
0.0
 11
195.2002830005048
 21
14.92236585251946
 31
0.0
 11
195.2002830005048
 21
15.05211737804258
 31
0.0
 11
195.2002830005048
 21
15.14016305607613
 31
0.0
 11
195.2002830005048
 21
15.17260093745691
 31
0.0
 11
195.1673826485529
 21
15.17260093745691
 31
0.0
 11
195.0825343724662
 21
15.17260093745691
 31
0.0
 11
194.9665173418988
 21
15.17260093745691
 31
0.0
 11
194.8401107265044
 21
15.17260093745691
 31
0.0
 11
194.724093695937
 21
15.17260093745691
 31
0.0
 11
194.6392454198503
 21
15.17260093745691
 31
0.0
 11
194.6063450678984
 21
15.17260093745691
 31
0.0
 11
194.6063450678984
 21
15.19975793614803
 31
0.0
 11
194.6063450678984
 21
15.2595033332685
 31
0.0
 11
194.6063450678984
 21
15.31924873038897
 31
0.0
 11
194.6063450678984
 21
15.34640572908009
 31
0.0
 11
194.6392454198504
 21
15.34640572908009
 31
0.0
 11
194.724093695937
 21
15.34640572908009
 31
0.0
 11
194.8401107265044
 21
15.34640572908009
 31
0.0
 11
194.9665173418988
 21
15.34640572908009
 31
0.0
 11
195.0825343724662
 21
15.34640572908009
 31
0.0
 11
195.1673826485529
 21
15.34640572908009
 31
0.0
 11
195.2002830005048
 21
15.34640572908009
 31
0.0
 11
195.2002830005048
 21
15.37650011731369
 31
0.0
 11
195.2002830005048
 21
15.45715307777973
 31
0.0
 11
195.2002830005048
 21
15.57391930412609
 31
0.0
 11
195.2002830005048
 21
15.71235349000064
 31
0.0
 11
195.2002830005048
 21
15.85801032905125
 31
0.0
 11
195.2002830005048
 21
15.9964445149258
 31
0.0
 11
195.2002830005048
 21
16.11321074127216
 31
0.0
 11
195.2002830005048
 21
16.1938637017382
 31
0.0
 11
195.2002830005048
 21
16.2239580899718
 31
0.0
 11
195.2250405288618
 21
16.22228324219444
 31
0.0
 11
195.2840777118669
 21
16.21828937441768
 31
0.0
 11
195.3545414464214
 21
16.21352249997443
 31
0.0
 11
195.4135786294265
 21
16.20952863219766
 31
0.0
 11
195.4383361577835
 21
16.20785378442031
 31
0.0
 11
195.423306722403
 21
16.18415814206509
 31
0.0
 11
195.3821827564383
 21
16.17047697887401
 31
0.0
 11
195.3821827564383
 21
16.1422166479483
 31
0.0
 11
195.3821827564383
 21
16.06647896106737
 31
0.0
 11
195.3821827564383
 21
15.95682887707559
 31
0.0
 11
195.3821827564383
 21
15.82683135481729
 31
0.0
 11
195.3821827564383
 21
15.69005135313681
 31
0.0
 11
195.3821827564383
 21
15.56005383087852
 31
0.0
 11
195.3821827564383
 21
15.45040374688673
 31
0.0
 11
195.3821827564383
 21
15.37466606000581
 31
0.0
 11
195.3821827564383
 21
15.34640572908009
 31
0.0
 11
195.4149350096115
 21
15.34640572908009
 31
0.0
 11
195.4994013467422
 21
15.34640572908009
 31
0.0
 11
195.6148961342476
 21
15.34640572908009
 31
0.0
 11
195.7407337385445
 21
15.34640572908009
 31
0.0
 11
195.8562285260498
 21
15.34640572908009
 31
0.0
 11
195.9406948631806
 21
15.34640572908009
 31
0.0
 11
195.9734471163538
 21
15.34640572908009
 31
0.0
 11
195.9734471163538
 21
15.31924873038897
 31
0.0
 11
195.9734471163538
 21
15.2595033332685
 31
0.0
 11
195.9734471163538
 21
15.19975793614803
 31
0.0
 11
195.9734471163538
 21
15.17260093745691
 31
0.0
 11
195.9406948631806
 21
15.17260093745691
 31
0.0
 11
195.8562285260498
 21
15.17260093745691
 31
0.0
 11
195.7407337385445
 21
15.17260093745691
 31
0.0
 11
195.6148961342476
 21
15.17260093745691
 31
0.0
 11
195.4994013467422
 21
15.17260093745691
 31
0.0
 11
195.4149350096114
 21
15.17260093745691
 31
0.0
 11
195.3821827564383
 21
15.17260093745691
 31
0.0
 11
195.3821827564383
 21
15.14016305607613
 31
0.0
 11
195.3821827564383
 21
15.05211737804258
 31
0.0
 11
195.3821827564383
 21
14.92236585251946
 31
0.0
 11
195.3821827564383
 21
14.76481042866995
 31
0.0
 11
195.3821827564383
 21
14.59335305565725
 31
0.0
 11
195.3821827564383
 21
14.42189568264455
 31
0.0
 11
195.3821827564383
 21
14.26434025879504
 31
0.0
 11
195.3821827564383
 21
14.13458873327192
 31
0.0
 11
195.3821827564383
 21
14.04654305523837
 31
0.0
 11
195.3821827564383
 21
14.01410517385759
 31
0.0
  0
SPLINE
  5
AE
102
{ACAD_REACTORS
330
CB
102
}
330
48
100
AcDbEntity
  8
_U_30EC_U_30A4_U_30E4_U_30FC_1
  6
Continuous
 62
     2
100
AcDbSpline
210
0.0
220
0.0
230
1.0
 70
     8
 71
     3
 72
    62
 73
    58
 74
    56
 42
0.000000001
 43
0.0000000001
 44
0.00000001
 40
0.0
 40
0.0
 40
0.0
 40
0.0
 40
0.0598250028308485
 40
0.2024846486897331
 40
0.3727558389221031
 40
0.515415484793607
 40
0.5752404975785339
 40
0.9332326775487306
 40
1.290451762839476
 40
1.602077253145863
 40
1.699931634112125
 40
1.799359756425068
 40
2.270120149657139
 40
2.804661928461527
 40
2.88234228738324
 40
3.076543185719096
 40
3.329004354835563
 40
3.581465524568395
 40
3.775666424543681
 40
3.853346784558302
 40
3.899120679595077
 40
3.984129341792103
 40
4.02990323681748
 40
4.10579749605964
 40
4.295533144152614
 40
4.542189486611873
 40
4.788845828875839
 40
4.978581476410236
 40
5.054475735244484
 40
5.621734664339552
 40
6.130867242037563
 40
6.225249780948805
 40
6.31891303972751
 40
6.663579954559131
 40
7.04749890022501
 40
7.435230791575946
 40
7.498943906668358
 40
7.650875181210352
 40
7.832212509001862
 40
7.984143783697248
 40
8.047856898903376
 40
8.091554632732887
 40
8.172707566964554
 40
8.216405300768281
 40
8.289021782161166
 40
8.46218416075754
 40
8.66886183800562
 40
8.842024215264212
 40
8.914640695475407
 40
8.989881580861603
 40
9.155411528827491
 40
9.320941477744254
 40
9.396182352487497
 40
9.454709011144043
 40
9.583467660170978
 40
9.712226309013257
 40
9.77075295798971
 40
9.77075295798971
 40
9.77075295798971
 40
9.77075295798971
 10
187.1521871691833
 20
14.93980288195951
 30
0.0
 10
187.1322348171623
 20
14.93980875568673
 30
0.0
 10
187.0647037716466
 20
14.93982863806158
 30
0.0
 10
186.9410612161788
 20
14.93949362520326
 30
0.0
 10
186.7863180150056
 20
14.94107673750513
 30
0.0
 10
186.669734948248
 20
14.93686078860496
 30
0.0
 10
186.455094263424
 20
14.95215205331627
 30
0.0
 10
186.8518948407228
 20
14.59198721286193
 30
0.0
 10
186.8945656069267
 20
14.37510503397164
 30
0.0
 10
187.3189162146611
 20
14.19325062511454
 30
0.0
 10
187.1439821496074
 20
14.08985196568069
 30
0.0
 10
187.0194523925083
 20
13.87831523212724
 30
0.0
 10
186.7666277235944
 20
14.34806081001557
 30
0.0
 10
186.4797602893627
 20
14.99511516984519
 30
0.0
 10
186.4906335926661
 20
14.68782672154692
 30
0.0
 10
186.488289277796
 20
14.52288616971777
 30
0.0
 10
186.4861096126411
 20
14.28879670711691
 30
0.0
 10
186.4980774396348
 20
14.04498072421781
 30
0.0
 10
186.4687984740631
 20
13.89855796860981
 30
0.0
 10
186.5114522625471
 20
13.75113490174534
 30
0.0
 10
186.423981400564
 20
13.76685797306217
 30
0.0
 10
186.3768527606745
 20
13.76694303543452
 30
0.0
 10
186.2898973207713
 20
13.75109425482906
 30
0.0
 10
186.3313474021723
 20
13.8952777142276
 30
0.0
 10
186.3029875004285
 20
14.03855052698454
 30
0.0
 10
186.31459737753
 20
14.27674947365266
 30
0.0
 10
186.3124175648272
 20
14.50517235240348
 30
0.0
 10
186.3103111127994
 20
14.66705729375998
 30
0.0
 10
186.3208035438323
 20
14.98153709333757
 30
0.0
 10
186.0128963252894
 20
14.29229470872441
 30
0.0
 10
185.7055258267453
 20
13.81476750243039
 30
0.0
 10
185.5851367066275
 20
14.03741112637432
 30
0.0
 10
185.407460791072
 20
14.15011034955555
 30
0.0
 10
185.8853326362895
 20
14.32548143465463
 30
0.0
 10
185.9353959057208
 20
14.56091929252026
 30
0.0
 10
186.3583799621716
 20
14.95322989344608
 30
0.0
 10
186.127675427354
 20
14.93655307029067
 30
0.0
 10
186.004968585934
 20
14.94269518948772
 30
0.0
 10
185.8325483095661
 20
14.93312822699574
 30
0.0
 10
185.7213224694448
 20
14.95448818489667
 30
0.0
 10
185.6025779627448
 20
14.92136265357421
 30
0.0
 10
185.6183169706686
 20
15.00203900606885
 30
0.0
 10
185.6178550933763
 20
15.04645414290856
 30
0.0
 10
185.6027881889931
 20
15.12967081778536
 30
0.0
 10
185.7372380935444
 20
15.09062651983886
 30
0.0
 10
185.8619755545747
 20
15.11739729328425
 30
0.0
 10
186.062875523728
 20
15.10063949044055
 30
0.0
 10
186.1921540949352
 20
15.12204225913007
 30
0.0
 10
186.3328419928295
 20
15.08868778853424
 30
0.0
 10
186.2980927452615
 20
15.22651875785069
 30
0.0
 10
186.3222185666713
 20
15.34963257349481
 30
0.0
 10
186.2967086182392
 20
15.47024055670334
 30
0.0
 10
186.3333251146685
 20
15.60539865141492
 30
0.0
 10
186.2211417027769
 20
15.58094545781888
 30
0.0
 10
186.1280356457136
 20
15.59307749842019
 30
0.0
 10
186.0191547579819
 20
15.58957630069991
 30
0.0
 10
185.9569697640964
 20
15.589817559516
 30
0.0
 10
185.9375369557246
 20
15.58989295124141
 30
0.0
 11
187.1521871691833
 21
14.93980288195951
 31
0.0
 11
187.0923621563982
 21
14.93980288195951
 31
0.0
 11
186.949702510526
 21
14.93980288195951
 31
0.0
 11
186.7794313202913
 21
14.93980288195951
 31
0.0
 11
186.6367716744191
 21
14.93980288195951
 31
0.0
 11
186.576946661634
 21
14.93980288195951
 31
0.0
 11
186.7679960754842
 21
14.63705127966891
 31
0.0
 11
186.994127278563
 21
14.36051890576685
 31
0.0
 11
187.2244526173371
 21
14.1506125349346
 31
0.0
 11
187.1521596330704
 21
14.08466403668715
 31
0.0
 11
187.0879364402643
 21
14.00876059052558
 31
0.0
 11
186.7732818215558
 21
14.35891458349365
 31
0.0
 11
186.4886640249977
 21
14.811382951436
 31
0.0
 11
186.4886640249977
 21
14.73370259137312
 31
0.0
 11
186.4886640249977
 21
14.53950169121591
 31
0.0
 11
186.4886640249977
 21
14.28704052101154
 31
0.0
 11
186.4886640249977
 21
14.03457935080718
 31
0.0
 11
186.4886640249977
 21
13.84037845064997
 31
0.0
 11
186.4886640249977
 21
13.76269809058709
 31
0.0
 11
186.4428901295606
 21
13.76269809058709
 31
0.0
 11
186.3578814666058
 21
13.76269809058709
 31
0.0
 11
186.3121075711687
 21
13.76269809058709
 31
0.0
 11
186.3121075711687
 21
13.83859234982738
 31
0.0
 11
186.3121075711687
 21
14.0283279979281
 31
0.0
 11
186.3121075711687
 21
14.27498434045904
 31
0.0
 11
186.3121075711687
 21
14.52164068298998
 31
0.0
 11
186.3121075711687
 21
14.7113763310907
 31
0.0
 11
186.3121075711687
 21
14.78727059033099
 31
0.0
 11
185.9987626399266
 21
14.31440946197691
 31
0.0
 11
185.6352328662148
 21
13.9579517710938
 31
0.0
 11
185.5773927461628
 21
14.03253450545024
 31
0.0
 11
185.5094852305341
 21
14.0970432293924
 31
0.0
 11
185.7750721898319
 21
14.31672219795887
 31
0.0
 11
186.0233764972061
 21
14.60953395971696
 31
0.0
 11
186.226498280526
 21
14.93980288195951
 31
0.0
 11
186.1627851652721
 21
14.93980288195951
 31
0.0
 11
186.0108538904359
 21
14.93980288195951
 31
0.0
 11
185.8295165624055
 21
14.93980288195951
 31
0.0
 11
185.6775852875693
 21
14.93980288195951
 31
0.0
 11
185.6138721723154
 21
14.93980288195951
 31
0.0
 11
185.6138721723154
 21
14.9835006160021
 31
0.0
 11
185.6138721723154
 21
15.06465355065261
 31
0.0
 11
185.6138721723154
 21
15.1083512846952
 31
0.0
 11
185.6864886537961
 21
15.1083512846952
 31
0.0
 11
185.8596510327118
 21
15.1083512846952
 31
0.0
 11
186.0663287107723
 21
15.1083512846952
 31
0.0
 11
186.239491089688
 21
15.1083512846952
 31
0.0
 11
186.3121075711687
 21
15.1083512846952
 31
0.0
 11
186.3121075711687
 21
15.18359217009304
 31
0.0
 11
186.3121075711687
 21
15.3491221179683
 31
0.0
 11
186.3121075711687
 21
15.51465206584357
 31
0.0
 11
186.3121075711687
 21
15.58989295124141
 31
0.0
 11
186.2535809125055
 21
15.58989295124141
 31
0.0
 11
186.1248222634467
 21
15.58989295124141
 31
0.0
 11
185.9960636143877
 21
15.58989295124141
 31
0.0
 11
185.9375369557246
 21
15.58989295124141
 31
0.0
  0
SPLINE
  5
AF
102
{ACAD_REACTORS
330
CB
102
}
330
48
100
AcDbEntity
  8
_U_30EC_U_30A4_U_30E4_U_30FC_1
  6
Continuous
 62
     2
100
AcDbSpline
210
0.0
220
0.0
230
1.0
 70
     8
 71
     3
 72
    70
 73
    66
 74
    64
 42
0.000000001
 43
0.0000000001
 44
0.00000001
 40
0.0
 40
0.0
 40
0.0
 40
0.0
 40
0.0241731073021472
 40
0.0846058988986729
 40
0.1631685280352999
 40
0.2417311571788903
 40
0.3021639488291898
 40
0.3263370654894688
 40
0.3533118254248082
 40
0.4228783438921419
 40
0.5179999095312923
 40
0.6216398239465782
 40
0.7167613891499564
 40
0.7863279069649863
 40
0.8133026791761871
 40
0.8372943998771711
 40
0.8945054261372909
 40
0.962789554196297
 40
1.020000580349164
 40
1.043992300975263
 40
1.071934345523053
 40
1.113121768772986
 40
1.145225199332311
 40
1.225483775412856
 40
1.329819923771576
 40
1.434156071994473
 40
1.514414647795903
 40
1.546518078208513
 40
1.578974764260314
 40
1.662678849314253
 40
1.777131373668473
 40
1.901833377474864
 40
2.016285900500626
 40
2.099989982527964
 40
2.132446666570323
 40
2.158782354486043
 40
2.216720867907819
 40
2.274659381334232
 40
2.300995069256162
 40
2.333451754066135
 40
2.417155836543787
 40
2.531608358985226
 40
2.656310362283721
 40
2.770762886388825
 40
2.854466971339962
 40
2.886923657363769
 40
2.913597976833199
 40
2.982389642874992
 40
3.076451716946848
 40
3.178937260458449
 40
3.27299933473984
 40
3.341791001059056
 40
3.368465320663363
 40
3.396976080738585
 40
3.472140811845792
 40
3.578408190308482
 40
3.70022689245589
 40
3.822045594634107
 40
3.928312973256185
 40
4.003477705314583
 40
4.031988456866649
 40
4.05832414479745
 40
4.116262658236617
 40
4.174201171400424
 40
4.200536849608359
 40
4.200536849608359
 40
4.200536849608359
 40
4.200536849608359
 10
185.985770496161
 20
15.75844135397699
 30
0.0
 10
185.993825954468
 20
15.7584435981168
 30
0.0
 10
186.0220200663241
 20
15.75845146032791
 30
0.0
 10
186.0765534803674
 20
15.75830754828366
 30
0.0
 10
186.1482891808604
 20
15.75909120499892
 30
0.0
 10
186.2236240137062
 20
15.75627570463806
 30
0.0
 10
186.2713052366439
 20
15.76298403400951
 30
0.0
 10
186.3195071245616
 20
15.75197563692427
 30
0.0
 10
186.3062571799873
 20
15.80546402997028
 30
0.0
 10
186.3151093964538
 20
15.86049583543087
 30
0.0
 10
186.3108698036285
 20
15.95419908726107
 30
0.0
 10
186.313348348128
 20
16.04959482218531
 30
0.0
 10
186.309093870606
 20
16.14356821983388
 30
0.0
 10
186.3179818665846
 20
16.19795062438013
 30
0.0
 10
186.3046977409945
 20
16.25233997691464
 30
0.0
 10
186.3514119277109
 20
16.2384221633536
 30
0.0
 10
186.3943254545736
 20
16.24103877374045
 30
0.0
 10
186.4605443456686
 20
16.23648422450755
 30
0.0
 10
186.5013342271798
 20
16.22778162134162
 30
0.0
 10
186.552514569082
 20
16.23531799890193
 30
0.0
 10
186.5253720487201
 20
16.1934997022329
 30
0.0
 10
186.4803096055708
 20
16.2028499207259
 30
0.0
 10
186.4942065045051
 20
16.13841207371835
 30
0.0
 10
186.4858414431655
 20
16.07378219627395
 30
0.0
 10
186.4903632178399
 20
15.97529141193883
 30
0.0
 10
186.4854741311167
 20
15.87595932842565
 30
0.0
 10
186.4950258992082
 20
15.81293115552963
 30
0.0
 10
186.4799761455201
 20
15.74964011499782
 30
0.0
 10
186.5449159457209
 20
15.76515072944263
 30
0.0
 10
186.6116246399498
 20
15.75499387697806
 30
0.0
 10
186.7241435470828
 20
15.75988800099361
 30
0.0
 10
186.8390235448954
 20
15.75691204732777
 30
0.0
 10
186.9519871999746
 20
15.76221664184985
 30
0.0
 10
187.0176267597679
 20
15.75107306472083
 30
0.0
 10
187.0816276691052
 20
15.76744532319851
 30
0.0
 10
187.070314288919
 20
15.7176168990527
 30
0.0
 10
187.0775339871509
 20
15.67416715212118
 30
0.0
 10
187.0703142611269
 20
15.63071745587441
 30
0.0
 10
187.0816277175994
 20
15.58088895196873
 30
0.0
 10
187.0176263598972
 20
15.59726166091359
 30
0.0
 10
186.9519921240459
 20
15.58611271661585
 30
0.0
 10
186.838997431733
 20
15.59144857206851
 30
0.0
 10
186.7242456548643
 20
15.58834345663819
 30
0.0
 10
186.6113183686861
 20
15.59364894682585
 30
0.0
 10
186.5455220903585
 20
15.58257300019591
 30
0.0
 10
186.4816097975358
 20
15.59887597847614
 30
0.0
 10
186.4936015165127
 20
15.54423524395739
 30
0.0
 10
186.4862104613006
 20
15.4885429504784
 30
0.0
 10
186.4892684841984
 20
15.39649689140569
 30
0.0
 10
186.4893422785684
 20
15.30179109873102
 30
0.0
 10
186.486031357836
 20
15.20952782902267
 30
0.0
 10
186.4939505989904
 20
15.15435768736142
 30
0.0
 10
186.4815076611618
 20
15.10058169100139
 30
0.0
 10
186.5389116551632
 20
15.11453768862784
 30
0.0
 10
186.5994708140383
 20
15.10511457884229
 30
0.0
 10
186.7048680855081
 20
15.10942885928707
 30
0.0
 10
186.8204294070623
 20
15.10835504612034
 30
0.0
 10
186.9359688877797
 20
15.10725965900998
 30
0.0
 10
187.0414181130841
 20
15.11162525770635
 30
0.0
 10
187.1018680471803
 20
15.10209426030674
 30
0.0
 10
187.159283773911
 20
15.11617289606382
 30
0.0
 10
187.1477773876708
 20
15.06707153265685
 30
0.0
 10
187.153756678175
 20
15.02564658018651
 30
0.0
 10
187.1520311050801
 20
14.97651677966697
 30
0.0
 10
187.1521500122971
 20
14.94854428447609
 30
0.0
 10
187.1521871691833
 20
14.93980288195951
 30
0.0
 11
185.985770496161
 21
15.75844135397699
 31
0.0
 11
186.0099436128282
 21
15.75844135397699
 31
0.0
 11
186.0703764044963
 21
15.75844135397699
 31
0.0
 11
186.1489390336649
 21
15.75844135397699
 31
0.0
 11
186.2275016628334
 21
15.75844135397699
 31
0.0
 11
186.2879344545015
 21
15.75844135397699
 31
0.0
 11
186.3121075711687
 21
15.75844135397699
 31
0.0
 11
186.3121075711687
 21
15.78541612620057
 31
0.0
 11
186.3121075711687
 21
15.85498264404034
 31
0.0
 11
186.3121075711687
 21
15.95010420924983
 31
0.0
 11
186.3121075711687
 21
16.05374412358255
 31
0.0
 11
186.3121075711687
 21
16.14886568879203
 31
0.0
 11
186.3121075711687
 21
16.2184322066318
 31
0.0
 11
186.3121075711687
 21
16.24540697885539
 31
0.0
 11
186.3360407604892
 21
16.24373213107803
 31
0.0
 11
186.3931122119458
 21
16.23973826330123
 31
0.0
 11
186.4612297507811
 21
16.23497138885796
 31
0.0
 11
186.5183012022377
 21
16.23097752108117
 31
0.0
 11
186.5422343915582
 21
16.22930267330381
 31
0.0
 11
186.5274972731229
 21
16.20556293372638
 31
0.0
 11
186.4886640249977
 21
16.1918376733131
 31
0.0
 11
186.4886640249977
 21
16.15973424225117
 31
0.0
 11
186.4886640249977
 21
16.07947566459633
 31
0.0
 11
186.4886640249977
 21
15.97513951364504
 31
0.0
 11
186.4886640249977
 21
15.87080336269376
 31
0.0
 11
186.4886640249977
 21
15.79054478503892
 31
0.0
 11
186.4886640249977
 21
15.75844135397699
 31
0.0
 11
186.5211207110825
 21
15.75844135397699
 31
0.0
 11
186.6048247962486
 21
15.75844135397699
 31
0.0
 11
186.7192773208635
 21
15.75844135397699
 31
0.0
 11
186.8439793252946
 21
15.75844135397699
 31
0.0
 11
186.9584318499095
 21
15.75844135397699
 31
0.0
 11
187.0421359350756
 21
15.75844135397699
 31
0.0
 11
187.0745926211604
 21
15.75844135397699
 31
0.0
 11
187.0745926211604
 21
15.73210566604955
 31
0.0
 11
187.0745926211604
 21
15.6741671526092
 31
0.0
 11
187.0745926211604
 21
15.61622863916885
 31
0.0
 11
187.0745926211604
 21
15.58989295124141
 31
0.0
 11
187.0421359350756
 21
15.58989295124141
 31
0.0
 11
186.9584318499095
 21
15.58989295124141
 31
0.0
 11
186.8439793252946
 21
15.58989295124141
 31
0.0
 11
186.7192773208635
 21
15.58989295124141
 31
0.0
 11
186.6048247962486
 21
15.58989295124141
 31
0.0
 11
186.5211207110825
 21
15.58989295124141
 31
0.0
 11
186.4886640249977
 21
15.58989295124141
 31
0.0
 11
186.4886640249977
 21
15.56321863152019
 31
0.0
 11
186.4886640249977
 21
15.49442696487073
 31
0.0
 11
186.4886640249977
 21
15.40036489006433
 31
0.0
 11
186.4886640249977
 21
15.29787934587228
 31
0.0
 11
186.4886640249977
 21
15.20381727106588
 31
0.0
 11
186.4886640249977
 21
15.13502560441642
 31
0.0
 11
186.4886640249977
 21
15.1083512846952
 31
0.0
 11
186.5171747850994
 21
15.1083512846952
 31
0.0
 11
186.5923395162767
 21
15.1083512846952
 31
0.0
 11
186.6986068948377
 21
15.1083512846952
 31
0.0
 11
186.8204255970905
 21
15.1083512846952
 31
0.0
 11
186.9422442993433
 21
15.1083512846952
 31
0.0
 11
187.0485116779043
 21
15.1083512846952
 31
0.0
 11
187.1236764090816
 21
15.1083512846952
 31
0.0
 11
187.1521871691833
 21
15.1083512846952
 31
0.0
 11
187.1521871691833
 21
15.08201559676775
 31
0.0
 11
187.1521871691833
 21
15.02407708332736
 31
0.0
 11
187.1521871691833
 21
14.96613856988696
 31
0.0
 11
187.1521871691833
 21
14.93980288195951
 31
0.0
  0
SPLINE
  5
B0
102
{ACAD_REACTORS
330
CB
102
}
330
48
100
AcDbEntity
  8
_U_30EC_U_30A4_U_30E4_U_30FC_1
  6
Continuous
 62
     2
100
AcDbSpline
210
0.0
220
0.0
230
1.0
 70
     8
 71
     3
 72
    24
 73
    20
 74
    18
 42
0.000000001
 43
0.0000000001
 44
0.00000001
 40
0.0
 40
0.0
 40
0.0
 40
0.0
 40
0.221107500875392
 40
0.4273218586245799
 40
0.508017467923999
 40
0.5914835907870841
 40
0.8143265690192973
 40
1.05465130268661
 40
1.295452694023207
 40
1.518109231328841
 40
1.540864321905455
 40
1.595126460622712
 40
1.659890947896023
 40
1.714153085187377
 40
1.736908174961676
 40
1.764951100735382
 40
1.801562291220967
 40
1.9539144245437
 40
2.126104167379789
 40
2.126104167379789
 40
2.126104167379789
 40
2.126104167379789
 10
185.9375369556889
 20
15.5898929511302
 30
0.0
 10
185.9112579081811
 20
15.53097628234378
 30
0.0
 10
185.8604698894426
 20
15.41711139679261
 30
0.0
 10
185.8131784839111
 20
15.1444195823311
 30
0.0
 10
185.7043482802617
 20
15.24445482575458
 30
0.0
 10
185.5514800279638
 20
15.27118593367331
 30
0.0
 10
185.7686155181199
 20
15.48518135017632
 30
0.0
 10
185.7838483674381
 20
15.70332117782485
 30
0.0
 10
185.8906889492
 20
15.88451579066424
 30
0.0
 10
185.8305380947078
 20
16.16913226311397
 30
0.0
 10
185.9334317395402
 20
16.14114089222448
 30
0.0
 10
185.9779933468149
 20
16.13243251602299
 30
0.0
 10
186.0380842395397
 20
16.12139654183356
 30
0.0
 10
186.0756619587438
 20
16.10767523055561
 30
0.0
 10
186.1252466928606
 20
16.10756076160226
 30
0.0
 10
186.0930158919325
 20
16.07306592398623
 30
0.0
 10
186.0171802221881
 20
16.08404104537971
 30
0.0
 10
186.0429447159693
 20
15.89858969582446
 30
0.0
 10
186.005589676385
 20
15.80702313549583
 30
0.0
 10
185.985770496161
 20
15.75844135397699
 30
0.0
 11
185.9375369556889
 21
15.5898929511302
 31
0.0
 11
185.8616471328552
 21
15.38221708318563
 31
0.0
 11
185.7717402238433
 21
15.19663392356191
 31
0.0
 11
185.701149392311
 21
15.23573272563553
 31
0.0
 11
185.6245525192651
 21
15.26889163187721
 31
0.0
 11
185.7214026947455
 21
15.46958801203536
 31
0.0
 11
185.7994641467471
 21
15.69688163177022
 31
0.0
 11
185.858971692972
 21
15.9302143660869
 31
0.0
 11
185.9001601511226
 21
16.14902808999051
 31
0.0
 11
185.9224183822214
 21
16.14429889221392
 31
0.0
 11
185.975495702534
 21
16.13302157443898
 31
0.0
 11
186.0388460525844
 21
16.11956154999793
 31
0.0
 11
186.091923372897
 21
16.10828423222299
 31
0.0
 11
186.1141816039958
 21
16.1035550344464
 31
0.0
 11
186.096409715746
 21
16.0818625084101
 31
0.0
 11
186.0606122998071
 21
16.0741862844537
 31
0.0
 11
186.028195330148
 21
15.9253228817131
 31
0.0
 11
185.985770496161
 21
15.75844135397699
 31
0.0
  0
LWPOLYLINE
  5
B1
102
{ACAD_REACTORS
330
CC
102
}
330
48
100
AcDbEntity
  8
_U_30EC_U_30A4_U_30E4_U_30FC_1
  6
Continuous
 62
     2
100
AcDbPolyline
 90
        5
 70
     1
 43
0.0
 10
191.1602971697031
 20
15.39722336795629
 10
192.4578138032672
 20
15.39722336795629
 10
192.4578138032672
 20
15.2287543402206
 10
191.1602971697031
 20
15.2287543402206
 10
191.1602971697031
 20
15.39722336795629
  0
MTEXT
  5
B3
330
48
100
AcDbEntity
  8
1
 62
   250
100
AcDbMText
 10
25.0
 20
5.0
 30
0.0
 40
3.5
 41
0.0
 71
     4
 72
     1
  1
備考欄の文字列 原点位置=4
  7
CONVERTER_11
 73
     1
 44
0.54545454545455
  0
MTEXT
  5
B4
330
48
100
AcDbEntity
  8
1
 62
     2
100
AcDbMText
 10
89.49999999999997
 20
24.0
 30
0.0
 40
3.5
 41
0.0
 71
     5
 72
     1
  1
尺度
  7
CONVERTER_11
 73
     1
 44
0.54545454545455
  0
MTEXT
  5
B5
330
48
100
AcDbEntity
  8
1
 62
     2
100
AcDbMText
 10
135.5
 20
25.0
 30
0.0
 40
3.0
 41
0.0
 71
     5
 72
     1
  1
製図
  7
CONVERTER_11
 73
     1
 44
0.59090909090909
  0
MTEXT
  5
B6
330
48
100
AcDbEntity
  8
1
 62
     2
100
AcDbMText
 10
152.5
 20
25.0
 30
0.0
 40
3.0
 41
0.0
 71
     5
 72
     1
  1
設計
  7
CONVERTER_11
 73
     1
 44
0.59090909090909
  0
MTEXT
  5
B7
330
48
100
AcDbEntity
  8
1
 62
     2
100
AcDbMText
 10
118.5
 20
25.0
 30
0.0
 40
3.0
 41
0.0
 71
     5
 72
     1
  1
検図
  7
CONVERTER_11
 73
     1
 44
0.59090909090909
  0
MTEXT
  5
B8
330
48
100
AcDbEntity
  8
1
 62
     2
100
AcDbMText
 10
175.0
 20
23.5
 30
0.0
 40
3.5
 41
0.0
 71
     5
 72
     1
  1
第三角法
  7
CONVERTER_11
 73
     1
 44
0.54545454545455
  0
MTEXT
  5
B9
330
48
100
AcDbEntity
  8
1
 62
     2
100
AcDbMText
 10
101.5
 20
25.0
 30
0.0
 40
3.0
 41
0.0
 71
     5
 72
     1
  1
承認
  7
CONVERTER_11
 73
     1
 44
0.59090909090909
  0
MTEXT
  5
BA
330
48
100
AcDbEntity
  8
1
 62
     2
100
AcDbMText
 10
29.0
 20
14.25
 30
0.0
 40
3.5
 41
0.0
 71
     5
 72
     1
  1
品番
  7
CONVERTER_11
 73
     1
 44
0.72727272727273
  0
MTEXT
  5
BB
330
48
100
AcDbEntity
  8
1
 62
     2
100
AcDbMText
 10
29.0
 20
22.75
 30
0.0
 40
3.5
 41
0.0
 71
     5
 72
     1
  1
品名
  7
CONVERTER_11
 73
     1
 44
0.72727272727273
  0
MTEXT
  5
BC
330
48
100
AcDbEntity
  8
1
 62
     2
100
AcDbMText
 10
29.0
 20
34.0
 30
0.0
 40
3.5
 41
0.0
 71
     5
 72
     1
  1
備考
  7
CONVERTER_11
 73
     1
 44
0.45454545454545
  0
MTEXT
  5
BD
330
48
100
AcDbEntity
  8
1
 62
     2
100
AcDbMText
 10
32.5
 20
282.0000000000003
 30
0.0
 40
5.0
 41
0.0
 71
     5
 72
     1
  1
図番
  7
CONVERTER_11
 73
     1
 44
0.45454545454545
  0
HATCH
  5
BE
330
48
100
AcDbEntity
  8
1
  6
Continuous
 62
     2
100
AcDbHatch
 10
0.0
 20
0.0
 30
0.0
210
0.0
220
0.0
230
1.0
  2
CUSTOM0
 70
     0
 71
     1
 91
        1
 92
        1
 93
        1
 72
     4
 94
        3
 73
     0
 74
     0
 95
       99
 96
       95
 40
0.0
 40
0.0
 40
0.0
 40
0.0
 40
0.0796417172272007
 40
0.1621768542355705
 40
0.2486489160957147
 40
0.3404969668524141
 40
0.4381912511164217
 40
0.5434463660244534
 40
0.6518115192846867
 40
0.7530190937886372
 40
0.8492196919724712
 40
0.9419290312997868
 40
1.034249663569994
 40
1.129078600620175
 40
1.226697027573232
 40
1.32722042542167
 40
1.470572134937972
 40
1.595489863371209
 40
1.719934125348401
 40
1.850576620127425
 40
1.989059629987302
 40
2.134139054226913
 40
2.280698007207183
 40
2.424529739039377
 40
2.565929576985796
 40
2.708239260773538
 40
2.861717887443602
 40
3.045168540347323
 40
3.183798301138563
 40
3.31481396145544
 40
3.442083470447301
 40
3.569912708372928
 40
3.70217751250934
 40
3.842307559659598
 40
3.992872223245964
 40
4.156750662218295
 40
4.310981861107515
 40
4.445859909322549
 40
4.572393936131556
 40
4.701656719782019
 40
4.768279086008524
 40
4.835960697898445
 40
4.912788918729401
 40
5.006285208481607
 40
5.026909478751683
 40
5.047533749021248
 40
5.101808031471278
 40
5.162325165538594
 40
5.226919745995917
 40
5.294231806596787
 40
5.364544852554914
 40
5.438319055467967
 40
5.517877651324246
 40
5.607647714861614
 40
5.700449642544459
 40
5.788251142364208
 40
5.872714706039762
 40
5.955167292575329
 40
6.037192395190371
 40
6.120669181469058
 40
6.206848616686318
 40
6.296680855416781
 40
6.442558392872627
 40
6.568190371608259
 40
6.692904567360365
 40
6.824220446557167
 40
6.963121850329373
 40
7.107843738851168
 40
7.2534316639073
 40
7.395187468036779
 40
7.533140753237785
 40
7.670550457175257
 40
7.816236511769268
 40
7.987691657359201
 40
8.142277421969261
 40
8.293662615414982
 40
8.44296246087927
 40
8.591598316185248
 40
8.743678992361763
 40
8.903725323699183
 40
9.076307008890504
 40
9.265578604680588
 40
9.459203795360764
 40
9.61761981027355
 40
9.75360967136192
 40
9.874873300004028
 40
9.954520184977664
 40
10.0241641371923
 40
10.0976976440543
 40
10.18909955924961
 40
10.20974586420122
 40
10.23039218263368
 40
10.30057101881254
 40
10.37632012987537
 40
10.37632012987537
 40
10.37632012987537
 40
10.37632012987537
 10
170.1465954835851
 20
14.1379566321599
 10
170.1632217851219
 20
14.11720608845311
 10
170.1970784206578
 20
14.07495111711904
 10
170.2599822541035
 20
14.02029811392071
 10
170.3332500940393
 20
13.97299025121055
 10
170.4175969238635
 20
13.93527231437937
 10
170.513224061546
 20
13.91040619731952
 10
170.6171853775346
 20
13.90309559345935
 10
170.7224020220404
 20
13.91142322794054
 10
170.8206626371333
 20
13.94149179651525
 10
170.9058986427548
 20
13.98848822971875
 10
170.9779220206103
 20
14.04952991250858
 10
171.0350917709096
 20
14.12412969578585
 10
171.0767868747441
 20
14.21002464660169
 10
171.1026952846292
 20
14.30485850432213
 10
171.1118037332653
 20
14.41854979038366
 10
171.0986864796486
 20
14.54332587770777
 10
171.0325330334414
 20
14.66014719171894
 10
170.9369370919568
 20
14.74512539577376
 10
170.8249681022369
 20
14.81416684459167
 10
170.6993659583269
 20
14.87204142045892
 10
170.5656691620856
 20
14.92373723284339
 10
170.4313122818831
 20
14.97899092397183
 10
170.3051983986877
 20
15.04939770641649
 10
170.1926579987535
 20
15.13785540731247
 10
170.0969963064458
 20
15.24981067868472
 10
170.0334157151826
 20
15.39949910101381
 10
170.0200706505015
 20
15.55932794385138
 10
170.0320510987449
 20
15.71048405306843
 10
170.071229892884
 20
15.83809244591538
 10
170.135498775091
 20
15.95080874030845
 10
170.2238204999741
 20
16.04648609268683
 10
170.3338091207627
 20
16.12354214985754
 10
170.4632284401265
 20
16.18151396936279
 10
170.6111838967794
 20
16.2173917758882
 10
170.7682069455486
 20
16.22746719050561
 10
170.917494046643
 20
16.21863637762588
 10
171.059625361417
 20
16.1907489934036
 10
171.1595922609624
 20
16.13413314701135
 10
171.3125074736187
 20
16.0867460210551
 10
171.2455131717168
 20
16.00197553001188
 10
171.229647912027
 20
15.93438901873485
 10
171.1978750531297
 20
15.86926092793191
 10
171.2150202209572
 20
15.76723453256955
 10
171.1666427208231
 20
15.77493211681903
 10
171.1315789440766
 20
15.76806771724809
 10
171.1296697985719
 20
15.83263831158198
 10
171.0985692931988
 20
15.87825639621393
 10
171.0664551628456
 20
15.93561036628455
 10
171.0208038475168
 20
15.98540462692559
 10
170.9658508218386
 20
16.02994813718991
 10
170.9010841173007
 20
16.06763988836548
 10
170.8232377310597
 20
16.09283375791351
 10
170.7355160553352
 20
16.09931230998106
 10
170.6452903277806
 20
16.09235709285609
 10
170.5594594694065
 20
16.06909190460911
 10
170.4828343638596
 20
16.0313164410754
 10
170.4165265636202
 20
15.98051641089575
 10
170.3622560536965
 20
15.91731143407208
 10
170.322492534546
 20
15.84276455710366
 10
170.2976775510587
 20
15.75917313997765
 10
170.289212426287
 20
15.65192948382283
 10
170.3019697987103
 20
15.52965457267556
 10
170.3681548409274
 20
15.41149724291212
 10
170.4640977399832
 20
15.32606325709526
 10
170.5757914963182
 20
15.25583362306714
 10
170.7010863668702
 20
15.19659162305307
 10
170.8349823941448
 20
15.14616708086129
 10
170.9689930333149
 20
15.09322516984382
 10
171.0950885316916
 20
15.02750170625179
 10
171.2076216638417
 20
14.94480352537313
 10
171.3031370284233
 20
14.83996006310073
 10
171.3672706486963
 20
14.69937117251569
 10
171.3811103725278
 20
14.54065409451592
 10
171.367395471223
 20
14.38153155217876
 10
171.3244739153984
 20
14.23483828819212
 10
171.2545906329066
 20
14.10119796587146
 10
171.157459221383
 20
13.98532387699289
 10
171.0347806023658
 20
13.89089981770093
 10
170.8874408413168
 20
13.82179270651982
 10
170.7177132497125
 20
13.77953210858854
 10
170.5317404979597
 20
13.76781736230405
 10
170.3528955926183
 20
13.77809486683437
 10
170.1881733753743
 20
13.81966573769154
 10
170.0834410841056
 20
13.88797642883942
 10
169.9350960790367
 20
13.9367521903211
 10
169.9980378194729
 20
14.02976591290843
 10
170.0072274430059
 20
14.10296536248278
 10
170.0303711301231
 20
14.16936294501343
 10
170.0034588335317
 20
14.26974809527581
 10
170.0521338956338
 20
14.26234033517378
 10
170.0916530580697
 20
14.26894063620896
 10
170.0996204944701
 20
14.19078703218929
 10
170.1305436967923
 20
14.15600927375854
 10
170.1465954835851
 20
14.1379566321599
 97
        1
330
A0
 75
     1
 76
     2
 52
45.0
 41
0.1
 77
     0
 78
     1
 53
45.0
 43
0.0
 44
0.0
 45
-0.282842712474619
 46
0.0
 79
     0
 98
        1
 10
0.0
 20
0.0
  0
HATCH
  5
BF
330
48
100
AcDbEntity
  8
1
  6
Continuous
 62
     2
100
AcDbHatch
 10
0.0
 20
0.0
 30
0.0
210
0.0
220
0.0
230
1.0
  2
CUSTOM1
 70
     0
 71
     1
 91
        2
 92
        1
 93
        1
 72
     4
 94
        3
 73
     0
 74
     0
 95
       57
 96
       53
 40
0.0
 40
0.0
 40
0.0
 40
0.0
 40
0.047163208280866
 40
0.0914861054632138
 40
0.1357762519702374
 40
0.1826527001610669
 40
0.2295203288572578
 40
0.2737751972220747
 40
0.3181310461543049
 40
0.3652607198398482
 40
0.4571007286314403
 40
0.567185102916508
 40
0.6894623283868115
 40
0.8181758272545758
 40
0.9510087229273683
 40
1.085852229674063
 40
1.218126164475294
 40
1.343545131142382
 40
1.454537202956799
 40
1.567187607530807
 40
1.680710966642426
 40
1.79422686973679
 40
1.900009184247589
 40
2.004085860447869
 40
2.108162674451728
 40
2.214000150155301
 40
2.496038577352152
 40
2.762350745479256
 40
2.997275353279422
 40
3.185110082137729
 40
3.246407890063899
 40
3.312607550212686
 40
3.378877742711559
 40
3.440140399651441
 40
4.100501696006431
 40
4.754913085563444
 40
5.411331693423879
 40
6.077890432568661
 40
6.11057529267094
 40
6.14326015277572
 40
6.367989363395073
 40
6.610525374951463
 40
6.863389136467241
 40
7.119380025547492
 40
7.376036605091022
 40
7.631164770966213
 40
7.876722425456371
 40
8.104953735855872
 40
8.312916685924266
 40
8.497730294941196
 40
8.651018984313783
 40
8.764738853624502
 40
8.764738853624502
 40
8.764738853624502
 40
8.764738853624502
 10
174.7922649500513
 20
13.81626739612929
 10
174.7766616726931
 20
13.81826231079079
 10
174.7463947960302
 20
13.82213201360301
 10
174.7010994202252
 20
13.82341984967266
 10
174.6559553129349
 20
13.8230868355405
 10
174.6099017123399
 20
13.82314658674223
 10
174.5640496172097
 20
13.8232581365
 10
174.5183711648164
 20
13.82277833456588
 10
174.4750811541608
 20
13.82461109618723
 10
174.4039947951514
 20
13.80049556814659
 10
174.4057477261441
 20
13.92184693977253
 10
174.358619637057
 20
14.00726239751234
 10
174.3191478251762
 20
14.12486929345136
 10
174.2706635532645
 20
14.24232752540438
 10
174.2201017402523
 20
14.3640593576151
 10
174.1718634610477
 20
14.49075967862466
 10
174.1135232947594
 20
14.59933687784954
 10
174.0980892667261
 20
14.75620657134411
 10
173.9566586330636
 20
14.72373446548327
 10
173.8508397414903
 20
14.73512888682175
 10
173.7358569725222
 20
14.73392591514615
 10
173.625314225214
 20
14.73506945347406
 10
173.5176583522783
 20
14.73418350037526
 10
173.4121322529243
 20
14.73416602390514
 10
173.3109192682013
 20
14.7271403247242
 10
173.1266804827753
 20
14.75135859859868
 10
173.1157393685411
 20
14.4474169112189
 10
173.0087691634751
 20
14.22353177253394
 10
172.9098148604347
 20
14.038953142925
 10
172.9225090524007
 20
13.79530204804209
 10
172.8050091716397
 20
13.82508046753199
 10
172.742205586831
 20
13.82258089509601
 10
172.67858720934
 20
13.82344075102806
 10
172.3946014194076
 20
13.7809803994195
 10
173.025163849938
 20
14.50081952444782
 10
173.1087645289072
 20
15.01276539435725
 10
173.4929252789339
 20
15.5335374355004
 10
173.4777208288565
 20
16.2351962625321
 10
173.7239265722697
 20
16.22345633081254
 10
173.8256346157562
 20
16.2322500445277
 10
173.8249752035817
 20
15.98059650730347
 10
173.9428317155829
 20
15.7981802073396
 10
174.0315515260484
 20
15.55563740662867
 10
174.1322292485259
 20
15.32340030530129
 10
174.2311142712243
 20
15.08674644566914
 10
174.3299676990669
 20
14.85461739170092
 10
174.4256166390927
 20
14.63122222788792
 10
174.5159904573271
 20
14.42272549049314
 10
174.598994456819
 20
14.23308448529323
 10
174.6726088582798
 20
14.06663106068099
 10
174.7342815895545
 20
13.92917699626099
 10
174.7749458885604
 20
13.84999239430035
 10
174.7922649500513
 20
13.81626739612929
 97
        1
330
A1
 92
       16
 93
        1
 72
     4
 94
        3
 73
     0
 74
     0
 95
       25
 96
       21
 40
0.0
 40
0.0
 40
0.0
 40
0.0
 40
0.0911479969063967
 40
0.1858117896203811
 40
0.2804128399734205
 40
0.3715889190713657
 40
0.4679080494217855
 40
0.5642683809229231
 40
0.6605683222644139
 40
0.7569653015809401
 40
0.8561348172521934
 40
1.092615965104212
 40
1.374867658141809
 40
1.611348812011511
 40
1.710518328425175
 40
1.809403163726486
 40
2.045205463294024
 40
2.326646917622086
 40
2.562449217190572
 40
2.661334043833883
 40
2.661334043833883
 40
2.661334043833883
 40
2.661334043833883
 10
173.26837005672
 20
14.88614538197291
 10
173.2987525917923
 20
14.88598079714554
 10
173.3606895889111
 20
14.88564528689923
 10
173.454135696033
 20
14.88269055452001
 10
173.5475095236358
 20
14.87977752877152
 10
173.6417760753476
 20
14.87894201643415
 10
173.7354964790966
 20
14.87996644658046
 10
173.8352040303205
 20
14.87916977470972
 10
173.9188949546312
 20
14.88921410235218
 10
174.0637996315046
 20
14.86234617674164
 10
173.93961324448
 20
15.03665530280048
 10
173.8965867286283
 20
15.19651711006093
 10
173.7808922142209
 20
15.45518458550215
 10
173.7017565431257
 20
15.59231052861863
 10
173.6431576621817
 20
15.80937033134081
 10
173.5864803939438
 20
15.59266134213429
 10
173.5052809900477
 20
15.45327012438241
 10
173.406370128149
 20
15.20406969370194
 10
173.3253625094259
 20
15.01925830226074
 10
173.2813683325839
 20
14.91650446856116
 10
173.26837005672
 20
14.88614538197291
 97
        1
330
A2
 75
     1
 76
     2
 52
45.0
 41
0.1
 77
     0
 78
     1
 53
45.0
 43
0.0
 44
0.0
 45
-0.282842712474619
 46
0.0
 79
     0
 98
        1
 10
0.0
 20
0.0
  0
HATCH
  5
C0
330
48
100
AcDbEntity
  8
1
  6
Continuous
 62
     2
100
AcDbHatch
 10
0.0
 20
0.0
 30
0.0
210
0.0
220
0.0
230
1.0
  2
CUSTOM2
 70
     0
 71
     1
 91
        1
 92
        1
 93
        1
 72
     4
 94
        3
 73
     0
 74
     0
 95
       95
 96
       91
 40
0.0
 40
0.0
 40
0.0
 40
0.0
 40
0.6550406656911859
 40
1.308087289031976
 40
1.420803739835814
 40
1.566130759770836
 40
1.757067341888535
 40
2.006513545026467
 40
2.087328263121571
 40
2.185328872295678
 40
2.294612454748441
 40
2.408936380534862
 40
2.526802767798614
 40
2.646360524615657
 40
2.762535723971627
 40
2.870057342870197
 40
2.966883448431697
 40
3.050803243518376
 40
3.115818222436655
 40
3.156030057150282
 40
3.213914225080268
 40
3.276689026450668
 40
3.342960320981387
 40
3.404230667150693
 40
3.453822809493482
 40
3.532499827188479
 40
3.634775188507269
 40
3.754909333008265
 40
3.889736761660775
 40
4.03576960217528
 40
4.187256681197733
 40
4.338733685676022
 40
4.488478734676226
 40
4.634708317831681
 40
4.771493189921348
 40
4.892686571561306
 40
5.199775528944537
 40
5.460353566929713
 40
5.667603142345619
 40
5.814722905404581
 40
5.828990806219879
 40
5.855488336304576
 40
5.869756237118908
 40
6.189796507762917
 40
6.531890469873094
 40
6.883053637017055
 40
7.230512024911545
 40
7.566966656764711
 40
7.88520355970745
 40
8.17288743971927
 40
8.418011594062833
 40
8.443926721190754
 40
8.510760470613246
 40
8.602145393795759
 40
8.701714041647204
 40
8.79309896507544
 40
8.859932715058015
 40
8.885847842603665
 40
9.242301256612853
 40
9.589275455016766
 40
9.921808543164225
 40
10.23479624298475
 40
10.29968150889186
 40
10.35323493887774
 40
10.40154625355158
 40
10.46482922477843
 40
10.55973900668424
 40
10.69239545985644
 40
10.84920353475693
 40
11.01626328594802
 40
11.18672024367462
 40
11.35372582577231
 40
11.5025744229245
 40
11.61866495023313
 40
11.71329869152898
 40
11.82511050573926
 40
11.94464880845736
 40
12.06929242642527
 40
12.19707290435197
 40
12.3256263286055
 40
12.45034565331303
 40
12.56646595170348
 40
12.67099007414657
 40
12.76077625936805
 40
12.82703233506715
 40
12.87429132786015
 40
12.89831990323354
 40
12.92234847860043
 40
13.53984767410349
 40
14.1829428435939
 40
14.1829428435939
 40
14.1829428435939
 40
14.1829428435939
 10
177.3067935648021
 20
14.70898038201719
 10
177.1752019758551
 20
14.82265058603229
 10
176.9124193802728
 20
15.0496449631616
 10
176.399739344102
 20
15.89214462956286
 10
176.4106654595363
 20
15.53423377577021
 10
176.4041226527991
 20
15.39267392272133
 10
176.4028026631772
 20
15.19421305299281
 10
176.4018117602538
 20
15.02150296045984
 10
176.4024101751974
 20
14.87865373257582
 10
176.4038994301883
 20
14.78265005413358
 10
176.4055683588472
 20
14.6754550326314
 10
176.4071934954617
 20
14.56164211517581
 10
176.4092429501686
 20
14.44441572604589
 10
176.4123165501926
 20
14.3265641123297
 10
176.4156339697044
 20
14.21228087320621
 10
176.419360534028
 20
14.10521401867277
 10
176.4217338161424
 20
14.01007408766921
 10
176.4278718888357
 20
13.92558557205694
 10
176.4239784495946
 20
13.8692308729814
 10
176.4455230443079
 20
13.79825022472355
 10
176.3680940058618
 20
13.82902677604485
 10
176.3116353240191
 20
13.82011242517611
 10
176.2540495896807
 20
13.82896218398276
 10
176.1690163478472
 20
13.79738225225945
 10
176.2009714146382
 20
13.88095155992187
 10
176.1990705282539
 20
13.94882608968307
 10
176.2107960047301
 20
14.05233256764415
 10
176.2164241052999
 20
14.17002125616694
 10
176.2237902178941
 20
14.30388609164421
 10
176.232075970161
 20
14.4476415287263
 10
176.2398851897428
 20
14.59714022843441
 10
176.2457571222657
 20
14.74792549402076
 10
176.2503667817968
 20
14.89699943878435
 10
176.2542632117542
 20
15.0412291316302
 10
176.2570715126564
 20
15.17583905213014
 10
176.2576698755023
 20
15.36469614347351
 10
176.2616023867151
 20
15.58975494313151
 10
176.2442175378498
 20
15.86367091125705
 10
176.2850417342585
 20
16.02787112098594
 10
176.1995153256
 20
16.22749661465093
 10
176.2660558907688
 20
16.22385458403976
 10
176.283872427323
 20
16.2241344716085
 10
176.4056801797508
 20
16.22632927398613
 10
176.5080770335459
 20
15.9467511872151
 10
176.7580021509356
 20
15.74563008536
 10
176.987003533111
 20
15.47792614987918
 10
177.2245151213108
 20
15.22646413862374
 10
177.4486090740772
 20
14.9896997406136
 10
177.675071628301
 20
14.73218692583082
 10
177.8325687886513
 20
14.61649335056922
 10
178.0472129612676
 20
14.27997152538795
 10
178.0422645974618
 20
14.40464754091603
 10
178.0433931602545
 20
14.46327691935737
 10
178.0428877841517
 20
14.55043662371978
 10
178.0430475158113
 20
14.64416143182873
 10
178.0430054891318
 20
14.73018971297036
 10
178.0430202040372
 20
14.79153891945497
 10
178.0429706255985
 20
14.94135231520995
 10
178.0458811522811
 20
15.17989612510103
 10
178.0259521041162
 20
15.54486509868699
 10
178.0750433936247
 20
15.80799631993409
 10
177.917795150918
 20
16.21928904947755
 10
178.0762112872421
 20
16.16398282551749
 10
178.1311680478628
 20
16.16199686500178
 10
178.182788776674
 20
16.16264778248253
 10
178.2713198965367
 20
16.2036952773825
 10
178.2204898303168
 20
16.05696326622986
 10
178.2313389930283
 20
15.95019971954431
 10
178.2166036994847
 20
15.79085705414109
 10
178.2099976446204
 20
15.62853061652874
 10
178.2014961399914
 20
15.45992521892395
 10
178.1943227202199
 20
15.29814814703541
 10
178.1889063215389
 20
15.15422331457931
 10
178.1871713967648
 20
15.03437493466922
 10
178.1875440672319
 20
14.92686101590514
 10
178.1873656126263
 20
14.81820024645586
 10
178.187701086314
 20
14.69953570165531
 10
178.1890040622184
 20
14.57555163512741
 10
178.1908887351574
 20
14.44858294171105
 10
178.1925004454851
 20
14.32153861551031
 10
178.194140313743
 20
14.19854884492176
 10
178.1962570745751
 20
14.08300931383758
 10
178.1963848422364
 20
13.98090903955836
 10
178.2006514396555
 20
13.89009848838156
 10
178.190844008529
 20
13.83213621208786
 10
178.211847477169
 20
13.76517130132028
 10
178.1725639739898
 20
13.77291153966687
 10
177.9595307117745
 20
13.75755254145191
 10
177.7636297943187
 20
14.31403058094466
 10
177.4611197631544
 20
14.57556035348506
 10
177.3067935648021
 20
14.70898038201719
 97
        1
330
A3
 75
     1
 76
     2
 52
45.0
 41
0.1
 77
     0
 78
     1
 53
45.0
 43
0.0
 44
0.0
 45
-0.282842712474619
 46
0.0
 79
     0
 98
        1
 10
0.0
 20
0.0
  0
HATCH
  5
C1
330
48
100
AcDbEntity
  8
1
  6
Continuous
 62
     2
100
AcDbHatch
 10
0.0
 20
0.0
 30
0.0
210
0.0
220
0.0
230
1.0
  2
CUSTOM3
 70
     0
 71
     1
 91
        1
 92
        1
 93
        1
 72
     4
 94
        3
 73
     0
 74
     0
 95
      110
 96
      106
 40
0.0
 40
0.0
 40
0.0
 40
0.0
 40
0.2203406257277737
 40
0.4407808782838372
 40
0.5952494494614795
 40
0.748843165939338
 40
0.90235818313085
 40
1.056801968670434
 40
1.210736449099849
 40
1.363041386539726
 40
1.51531572968307
 40
1.669377239148022
 40
1.721611652756528
 40
1.773199502942948
 40
1.824933793209998
 40
1.877110426487967
 40
1.982682281206707
 40
2.078781667087545
 40
2.172809640822233
 40
2.271937807378833
 40
2.37834993337931
 40
2.494131557736497
 40
2.626681683943632
 40
2.783145050796059
 40
2.890701232940895
 40
2.993130312454838
 40
3.099869730691783
 40
3.220237816691249
 40
3.352695482737537
 40
3.48173280638986
 40
3.593499473690343
 40
3.674323013331886
 40
3.817951711952864
 40
3.946167120793833
 40
4.061405053453518
 40
4.166480796003159
 40
4.262478775059251
 40
4.350736673551152
 40
4.433071991254035
 40
4.511216293814636
 40
4.564262454117963
 40
4.618474415571507
 40
4.670128488754133
 40
4.722296879126341
 40
4.819540945314214
 40
4.931194984128067
 40
5.049996040257681
 40
5.168643755415254
 40
5.283970811762466
 40
5.392260784910292
 40
5.486512254876367
 40
5.559178233949766
 40
5.591425852853416
 40
5.62621596963779
 40
5.667155838674345
 40
5.717449290214192
 40
5.738402360944807
 40
5.784499116553777
 40
5.830595872164752
 40
5.85154894289761
 40
5.873019280661723
 40
5.924217778408265
 40
5.98532566281764
 40
6.036524160567652
 40
6.05799449833418
 40
6.236847789607424
 40
6.381409928945624
 40
6.493190424178627
 40
6.574067534230383
 40
6.691018086205506
 40
6.814881554220395
 40
6.944307823240347
 40
7.07126671606597
 40
7.193488604461815
 40
7.309042773128043
 40
7.414007203170668
 40
7.505140441886425
 40
7.531150360599585
 40
7.559221645322178
 40
7.587202218920824
 40
7.612569159499039
 40
7.662550809480892
 40
7.702878875764017
 40
7.857328205230831
 40
8.010799568088476
 40
8.165256399657427
 40
8.322232698713766
 40
8.479564855016452
 40
8.635216230290656
 40
8.790882550925545
 40
8.948305154947054
 40
9.168271839032702
 40
9.387358980986983
 40
9.608047961033206
 40
9.832914234792398
 40
9.858338694962733
 40
9.925366817229747
 40
10.02013071422734
 40
10.12876249858973
 40
10.23739428295224
 40
10.33215817995167
 40
10.3991863022237
 40
10.4246107623976
 40
10.64992019336921
 40
10.87188524531163
 40
10.87188524531163
 40
10.87188524531163
 40
10.87188524531163
 10
179.9057788376618
 20
15.73923260398189
 10
179.909286493354
 20
15.80616462073802
 10
179.9163033987662
 20
15.94005891915858
 10
179.8198027599072
 20
16.2254855497147
 10
180.0510134726109
 20
16.16284386190283
 10
180.1919290057156
 20
16.17001554055984
 10
180.3490417757589
 20
16.16235883078245
 10
180.5025913427287
 20
16.16252752283043
 10
180.6545104935082
 20
16.16182040535433
 10
180.8142214813231
 20
16.17210158351632
 10
180.9408972601118
 20
16.1549651108075
 10
181.137082112208
 20
16.2272726010715
 10
181.1034395279079
 20
16.12640699080114
 10
181.1052011317184
 20
16.07619253947666
 10
181.1027342073459
 20
16.02712335586461
 10
181.134707696601
 20
15.94063490846992
 10
181.0010399903256
 20
15.98997438608339
 10
180.9172208688056
 20
15.98430634314173
 10
180.8173861139325
 20
15.99465516706291
 10
180.7186576720146
 20
16.00086450411089
 10
180.6121532771111
 20
16.00697763816775
 10
180.4910511698059
 20
16.01588883484579
 10
180.3703381502453
 20
16.00521605912383
 10
180.1812553843437
 20
16.06468503080364
 10
180.212902850531
 20
15.90558320077536
 10
180.1995563316834
 20
15.80839128339902
 10
180.1974958426449
 20
15.696340651101
 10
180.1958188044671
 20
15.57699685629351
 10
180.1973336794234
 20
15.45032592155108
 10
180.195658247867
 20
15.32301588016115
 10
180.2058844271658
 20
15.22451566404459
 10
180.1779006596582
 20
15.08388702625625
 10
180.3508029999305
 20
15.13989551134094
 10
180.4645020202772
 20
15.12719951478502
 10
180.5840151672239
 20
15.13448377051252
 10
180.6888491425072
 20
15.13878017056762
 10
180.7843084898612
 20
15.14330568258972
 10
180.8763823507033
 20
15.15149201146205
 10
180.9476551782438
 20
15.14643850638108
 10
181.0544931705685
 20
15.1853642503167
 10
181.0226603598036
 20
15.10517122005878
 10
181.0266164503929
 20
15.05562936846033
 10
181.0234502392013
 20
15.0055747803982
 10
181.0550791490585
 20
14.92128847612021
 10
180.9210133677691
 20
14.97425365495163
 10
180.82923227932
 20
14.96540080890436
 10
180.7079729189602
 20
14.97570049965157
 10
180.5914113119772
 20
14.977489117675
 10
180.4783375745879
 20
14.97787017109695
 10
180.3679246308471
 20
14.98415449472183
 10
180.289812406784
 20
14.97189133255363
 10
180.1913625833643
 20
15.00453887616127
 10
180.2012355173561
 20
14.94769748054208
 10
180.1973923244402
 20
14.91392130557987
 10
180.1966789884268
 20
14.87119604709412
 10
180.1963369642975
 20
14.83401607262153
 10
180.1963834255345
 20
14.79487237370769
 10
180.1963649429927
 20
14.75716849497684
 10
180.1963703431807
 20
14.71944955232401
 10
180.19636972142
 20
14.68994324745147
 10
180.1963698151546
 20
14.658735776993
 10
180.196370428792
 20
14.61414424908083
 10
180.1963671499337
 20
14.5596395650885
 10
180.196375962348
 20
14.51505540201446
 10
180.1963359653418
 20
14.4311780858574
 10
180.1976024270256
 20
14.31737520677676
 10
180.1950274117841
 20
14.16830395933708
 10
180.2065009381721
 20
14.06597203813906
 10
180.1823506222263
 20
13.93338903885837
 10
180.3332993946476
 20
13.97895732272026
 10
180.4428436671556
 20
13.96427012162355
 10
180.573397047392
 20
13.96920435125065
 10
180.6990312209514
 20
13.97257705323355
 10
180.8188730625601
 20
13.97711497498771
 10
180.9391362611426
 20
13.99048536182004
 10
181.0222761663516
 20
13.98068712782593
 10
181.1456080421074
 20
14.04126214623319
 10
181.1244269203956
 20
13.98532460134019
 10
181.1235950270117
 20
13.95939249372345
 10
181.1218963707558
 20
13.93197256190938
 10
181.1217974888829
 20
13.89738195206385
 10
181.120365930133
 20
13.86050408220768
 10
181.153280419219
 20
13.76846841021808
 10
180.9551306988107
 20
13.84132015974832
 10
180.8300548294891
 20
13.81825726508604
 10
180.6673071295155
 20
13.82454021985784
 10
180.5129366450001
 20
13.82260943909925
 10
180.3566670436944
 20
13.82393762599267
 10
180.1970544465282
 20
13.8205987248786
 10
180.0540326342236
 20
13.83265795728242
 10
179.819714488163
 20
13.76952001976922
 10
179.9173810751196
 20
14.05620527466317
 10
179.9006868780059
 20
14.24988308142659
 10
179.9146296709685
 20
14.47848242880291
 10
179.9142987846633
 20
14.63384593955045
 10
179.9143078119263
 20
14.73966336444122
 10
179.9143055876316
 20
14.80205784124211
 10
179.9143065551889
 20
14.89220425248324
 10
179.9143065473262
 20
14.99621167157436
 10
179.9143053861102
 20
15.10022131375294
 10
179.9143090971502
 20
15.19036243688767
 10
179.9143011051051
 20
15.25276803097215
 10
179.9143334275018
 20
15.3586883596112
 10
179.913144078832
 20
15.51626716544739
 10
179.9082216489256
 20
15.66528219822065
 10
179.9057788376618
 20
15.73923260398189
 97
        1
330
A4
 75
     1
 76
     2
 52
45.0
 41
0.1
 77
     0
 78
     1
 53
45.0
 43
0.0
 44
0.0
 45
-0.282842712474619
 46
0.0
 79
     0
 98
        1
 10
0.0
 20
0.0
  0
HATCH
  5
C2
330
48
100
AcDbEntity
  8
1
  6
Continuous
 62
     2
100
AcDbHatch
 10
0.0
 20
0.0
 30
0.0
210
0.0
220
0.0
230
1.0
  2
CUSTOM4
 70
     0
 71
     1
 91
        1
 92
        1
 93
        1
 72
     4
 94
        3
 73
     0
 74
     0
 95
       47
 96
       43
 40
0.0
 40
0.0
 40
0.0
 40
0.0
 40
0.2207912809957408
 40
0.4459404186303557
 40
0.49023871904601
 40
0.5327473892722818
 40
0.57422604512261
 40
0.6155432630561386
 40
0.6568164066316297
 40
0.6982511618781181
 40
0.7407663929317736
 40
0.7851366743175843
 40
1.010288833836415
 40
1.231080507002285
 40
1.451765243652489
 40
1.676638205891748
 40
1.720461045359719
 40
1.830018144043577
 40
1.972442372353205
 40
2.114866600677569
 40
2.224423699395192
 40
2.268246538883429
 40
2.493628801207314
 40
2.715602830286699
 40
2.934211330706463
 40
3.149502369855426
 40
3.231387784851014
 40
3.318231873854106
 40
3.405143198198093
 40
3.486970301720529
 40
3.702258172493944
 40
3.920866283534183
 40
4.142839325931961
 40
4.368221903865476
 40
4.412044743359956
 40
4.521601842095964
 40
4.664026070452441
 40
4.806450298809145
 40
4.916007397546834
 40
4.959830237043156
 40
5.184703515847162
 40
5.405387250767515
 40
5.405387250767515
 40
5.405387250767515
 40
5.405387250767515
 10
182.6507427258645
 20
15.73406440953869
 10
182.6568139420002
 20
15.79758482501208
 10
182.6690762107243
 20
15.92587938689625
 10
182.5604706879411
 20
16.20166220174082
 10
182.6761985896604
 20
16.17188133432054
 10
182.7171842509015
 20
16.16765556262813
 10
182.7591205797518
 20
16.16310446389608
 10
182.800419662571
 20
16.16201982929487
 10
182.8417032115555
 20
16.16310338195228
 10
182.8836148270647
 20
16.16766112711337
 10
182.9245983549019
 20
16.17187430209728
 10
183.0404922843489
 20
16.20177611317539
 10
182.9295652727456
 20
15.92339806609887
 10
182.9574856365267
 20
15.74283140824951
 10
182.940426734697
 20
15.5096104234647
 10
182.9414637282102
 20
15.34906622543147
 10
182.9414099399404
 20
15.22284817558723
 10
182.941427737248
 20
15.12428963336244
 10
182.941418858108
 20
14.99280702442965
 10
182.9414263928034
 20
14.86132844968653
 10
182.9414129405127
 20
14.76276222694093
 10
182.9414531717493
 20
14.63639735624154
 10
182.9406746403818
 20
14.47482068822871
 10
182.9565958319266
 20
14.24361821892913
 10
182.9333468885409
 20
14.05874351972003
 10
183.0360183444365
 20
13.78935602770058
 10
182.8820238362836
 20
13.82660112685819
 10
182.8004129802832
 20
13.82137994680531
 10
182.7188192292583
 20
13.82660620378353
 10
182.5648513666842
 20
13.78937069885388
 10
182.6674183421917
 20
14.05875129862881
 10
182.6442045316088
 20
14.24361585325414
 10
182.6600444655139
 20
14.47482218565639
 10
182.6593296313428
 20
14.63639712308505
 10
182.6593664569907
 20
14.76276231210524
 10
182.6593549000271
 20
14.86132756635985
 10
182.6593575019215
 20
14.99281127417223
 10
182.659364853178
 20
15.12427548031202
 10
182.6593442541351
 20
15.22287786275328
 10
182.6594082192029
 20
15.34896149354428
 10
182.658173394759
 20
15.51210091383771
 10
182.6532040396745
 20
15.66054183777547
 10
182.6507427258645
 20
15.73406440953869
 97
        1
330
A5
 75
     1
 76
     2
 52
45.0
 41
0.1
 77
     0
 78
     1
 53
45.0
 43
0.0
 44
0.0
 45
-0.282842712474619
 46
0.0
 79
     0
 98
        1
 10
0.0
 20
0.0
  0
HATCH
  5
C3
330
48
100
AcDbEntity
  8
1
  6
Continuous
 62
     2
100
AcDbHatch
 10
0.0
 20
0.0
 30
0.0
210
0.0
220
0.0
230
1.0
  2
CUSTOM5
 70
     0
 71
     1
 91
        1
 92
        1
 93
        1
 72
     4
 94
        3
 73
     0
 74
     0
 95
      118
 96
      114
 40
0.0
 40
0.0
 40
0.0
 40
0.0
 40
0.1054708162973438
 40
0.2466098270052163
 40
0.396591287459153
 40
0.5285525069754287
 40
0.615624505564228
 40
0.6431434105797592
 40
0.7036850037986296
 40
0.7642265984504694
 40
0.7917455052354998
 40
0.9287404319989997
 40
1.106572819088032
 40
1.287544879681013
 40
1.31757830803053
 40
1.399928030857167
 40
1.522968204799943
 40
1.675072986590564
 40
1.844616533180643
 40
2.019973001638705
 40
2.189516548880018
 40
2.341621331585356
 40
2.464661506320491
 40
2.547011229647056
 40
2.57704465816802
 40
2.603797890893091
 40
2.662655002908778
 40
2.72151211494959
 40
2.74826534770277
 40
2.774215307344846
 40
2.845959313407182
 40
2.954338556588386
 40
3.09019422758557
 40
3.244367517100546
 40
3.407699615844312
 40
3.571031714539467
 40
3.725205003920154
 40
3.861060674729663
 40
3.969439917716361
 40
4.041183923629037
 40
4.067133883213032
 40
4.31188674601224
 40
4.547897258335602
 40
4.764747083044081
 40
4.952749679951888
 40
5.045772974196041
 40
5.137862019645051
 40
5.330543169793077
 40
5.553448265244062
 40
5.795083855888243
 40
6.04329341217729
 40
6.285761695541185
 40
6.313902908752668
 40
6.384255941793258
 40
6.475714884766846
 40
6.567173827758909
 40
6.637526860839687
 40
6.66566807407405
 40
6.69201892032803
 40
6.749990782071114
 40
6.807962643790496
 40
6.834313490017976
 40
6.856393084245255
 40
6.913335195649879
 40
6.991194817302542
 40
7.076026942283804
 40
7.153886563725294
 40
7.210828674844876
 40
7.232908268931212
 40
7.258199334923734
 40
7.32487578159239
 40
7.419142481925054
 40
7.527204308842004
 40
7.635266135230591
 40
7.729532834168584
 40
7.79620927929291
 40
7.82150034459486
 40
7.84465298885093
 40
7.89986314054171
 40
7.965759128053876
 40
8.020969279771162
 40
8.044121924046628
 40
8.069356610160721
 40
8.109134395441487
 40
8.132238100191202
 40
8.193147867786568
 40
8.279261678876747
 40
8.377977512673965
 40
8.476693347146757
 40
8.562807160411813
 40
8.623716930826602
 40
8.646820636853557
 40
8.67198879377437
 40
8.73490918582831
 40
8.816705695189023
 40
8.898502204815623
 40
8.961422597378112
 40
8.986590754551225
 40
9.012941600733386
 40
9.070913462380485
 40
9.128885324081994
 40
9.15523617032532
 40
9.180404327929363
 40
9.243324721948465
 40
9.325121234212258
 40
9.40691774663794
 40
9.469838141978425
 40
9.495006288271199
 40
9.517811184379333
 40
9.572192090487313
 40
9.637098333281518
 40
9.691479239515697
 40
9.71428412564373
 40
9.71428412564373
 40
9.71428412564373
 40
9.71428412564373
 10
185.2874469028653
 20
15.26889163187721
 10
185.3090990569038
 20
15.24111869242813
 10
185.3597257109473
 20
15.17618054561236
 10
185.4349383202592
 20
15.068910603129
 10
185.5248482274346
 20
14.95377438266625
 10
185.5709169676674
 20
14.85357045748321
 10
185.6655825294655
 20
14.78434006814943
 10
185.6204439320412
 20
14.73771639678275
 10
185.594704778579
 20
14.6966030886604
 10
185.5645196708011
 20
14.6606597172794
 10
185.5193684730563
 20
14.58579782596094
 10
185.4710504458562
 20
14.80782524253605
 10
185.3968539713074
 20
14.84510677337713
 10
185.2836047324606
 20
15.11610202130597
 10
185.288513357817
 20
15.00095328446226
 10
185.2868486556306
 20
14.92836675781624
 10
185.2876830076713
 20
14.80625588483983
 10
185.2873609540264
 20
14.65913800810457
 10
185.2875076912456
 20
14.49307063956554
 10
185.2872950092722
 20
14.32187554608599
 10
185.2879497252034
 20
14.15552828635495
 10
185.2859192461139
 20
14.0093517305569
 10
185.291346039993
 20
13.88471047474608
 10
185.2804930868708
 20
13.81718656540623
 10
185.2956739155555
 20
13.7554906141702
 10
185.2457895108134
 20
13.76727503896998
 10
185.2017150342522
 20
13.75943822779966
 10
185.15823716302
 20
13.767604413727
 10
185.1092346786489
 20
13.75538056738465
 10
185.1218731234825
 20
13.8096066724931
 10
185.113018296845
 20
13.86936918907555
 10
185.1175058770314
 20
13.97922029044368
 10
185.1157960135991
 20
14.11029975405677
 10
185.1163550915986
 20
14.26198011444327
 10
185.1161928768693
 20
14.42211074929953
 10
185.1162269924675
 20
14.58236865674568
 10
185.1162514960126
 20
14.73370247520441
 10
185.1161453543225
 20
14.86582156338604
 10
185.1164299141931
 20
14.97294802533197
 10
185.1158675547568
 20
15.03808619579477
 10
185.1180765083689
 20
15.1661895785868
 10
185.0319435998601
 20
14.79097610391578
 10
184.9555140818501
 20
14.63918193123393
 10
184.8660040767834
 20
14.47766206446306
 10
184.7640413217326
 20
14.20471848820169
 10
184.7187976491039
 20
14.36717346596508
 10
184.6102355941671
 20
14.45605432058121
 10
184.7995791751753
 20
14.60549794961408
 10
184.8565340545699
 20
14.79749136974926
 10
184.9717520993353
 20
15.02899622906755
 10
184.9940151630133
 20
15.21797259759059
 10
185.1771905152139
 20
15.49454089325924
 10
185.0538033597552
 20
15.48698978832088
 10
184.9925684166834
 20
15.48856772366113
 10
184.9081999617064
 20
15.48882592573666
 10
184.8204235085966
 20
15.485448457512
 10
184.7656768696122
 20
15.49394814982014
 10
184.7104703026025
 20
15.48048561049782
 10
184.7222823035536
 20
15.52931442126758
 10
184.7142496151794
 20
15.57269004896704
 10
184.7228186104679
 20
15.6150943830957
 10
184.7102943409157
 20
15.66267796552116
 10
184.7555101538735
 20
15.65267212995107
 10
184.8014815562723
 20
15.65894105174059
 10
184.8777222047709
 20
15.6559356140587
 10
184.9561296131994
 20
15.65770448278539
 10
185.0323992648932
 20
15.65464793981658
 10
185.0783009459475
 20
15.66103971376176
 10
185.12317339654
 20
15.65093822978894
 10
185.1105552275634
 20
15.70157201581898
 10
185.1191936582707
 20
15.75501261882068
 10
185.1152361595442
 20
15.8486325513168
 10
185.1162325068335
 20
15.95112606688924
 10
185.1171927413073
 20
16.05353270248164
 10
185.1133211458006
 20
16.14735929609324
 10
185.1217789814364
 20
16.20036542840355
 10
185.1093075932835
 20
16.25211435651191
 10
185.1542106389849
 20
16.23850747226759
 10
185.1955083836772
 20
16.24100480320586
 10
185.259534428105
 20
16.23648060574489
 10
185.2986111148787
 20
16.22781003043308
 10
185.3476543498741
 20
16.23515102070687
 10
185.3225080030591
 20
16.19602896051758
 10
185.2815901333723
 20
16.20563842455809
 10
185.2910109616604
 20
16.15540148169779
 10
185.2855647318746
 20
16.10385945639491
 10
185.2881699601804
 20
16.0195970758452
 10
185.2870102202154
 20
15.92559135583408
 10
185.2883591064231
 20
15.83196865395524
 10
185.284997010151
 20
15.74679517552222
 10
185.2920959917768
 20
15.69716856072042
 10
185.2812569154546
 20
15.64993694969987
 10
185.3304010225245
 20
15.6620167493685
 10
185.3794877630147
 20
15.65447393363009
 10
185.4573714280642
 20
15.65686070361431
 10
185.5350365172896
 20
15.65899381905413
 10
185.5845393931355
 20
15.65193391922452
 10
185.634459475064
 20
15.66360151936212
 10
185.6223198516882
 20
15.61540235371389
 10
185.6305838229144
 20
15.57249219801232
 10
185.6223198650785
 20
15.5295820185138
 10
185.6344594549855
 20
15.48138288754859
 10
185.5845395158747
 20
15.49305034471504
 10
185.5350350651203
 20
15.4859920243504
 10
185.4573784382973
 20
15.48811665228597
 10
185.3794643865761
 20
15.49053389365755
 10
185.3304500352716
 20
15.48291848194479
 10
185.2813246108943
 20
15.49507952557586
 10
185.2915559988571
 20
15.45073013424153
 10
185.2856677678053
 20
15.40925436202908
 10
185.2878788305569
 20
15.34915394315302
 10
185.2874109346145
 20
15.3022578276289
 10
185.2874386992914
 20
15.27650146418198
 10
185.2874469028653
 20
15.26889163187721
 97
        1
330
A6
 75
     1
 76
     2
 52
45.0
 41
0.1
 77
     0
 78
     1
 53
45.0
 43
0.0
 44
0.0
 45
-0.282842712474619
 46
0.0
 79
     0
 98
        1
 10
0.0
 20
0.0
  0
HATCH
  5
C4
330
48
100
AcDbEntity
  8
1
  6
Continuous
 62
     2
100
AcDbHatch
 10
0.0
 20
0.0
 30
0.0
210
0.0
220
0.0
230
1.0
  2
CUSTOM6
 70
     0
 71
     1
 91
        1
 92
        1
 93
        1
 72
     4
 94
        3
 73
     0
 74
     0
 95
       91
 96
       87
 40
0.0
 40
0.0
 40
0.0
 40
0.0
 40
0.0345987051695718
 40
0.1258134969461085
 40
0.2547723404888703
 40
0.4026032099153556
 40
0.550434079341642
 40
0.6793929228835227
 40
0.7706077146570467
 40
0.8052064287780072
 40
1.124852390615191
 40
1.427402236308785
 40
1.706356627453432
 40
1.955541417875118
 40
2.169485938566273
 40
2.344350786664735
 40
2.480568411561889
 40
2.590440557428912
 40
2.649189927151066
 40
2.749320643306272
 40
2.912632739879978
 40
3.147745656000182
 40
3.244827496385061
 40
3.338490056946662
 40
3.583815413207068
 40
3.76142394323842
 40
3.886956104362563
 40
3.985855451886767
 40
4.091766255337652
 40
4.250186473811844
 40
4.422734315084483
 40
4.628285684838551
 40
4.87209322775836
 40
5.152549652145475
 40
5.464967135837457
 40
5.80320147785239
 40
6.160362988813893
 40
6.193449448275948
 40
6.284170385501603
 40
6.419718138764472
 40
6.587285046385722
 40
6.774063446723637
 40
6.96724567811362
 40
7.154024078817605
 40
7.321590987025991
 40
7.45713874089035
 40
7.547859678556086
 40
7.580946138182646
 40
7.6085330847147
 40
7.669224367077677
 40
7.729915649429899
 40
7.757502595949952
 40
7.790278062553406
 40
7.880146277430904
 40
8.014419963180366
 40
8.180411842397866
 40
8.365434637679336
 40
8.556801071622637
 40
8.74182386683075
 40
8.90781574591626
 40
9.042089431507414
 40
9.131957646249539
 40
9.164733112797116
 40
9.415425063140024
 40
9.667986180958462
 40
9.694169807462629
 40
9.756607686047587
 40
9.831130315322394
 40
9.893568193899858
 40
9.919751820398675
 40
9.950967964690518
 40
9.99642163121064
 40
10.22087981037447
 40
10.44341866197533
 40
10.47847970788846
 40
10.57091337438746
 40
10.70159545461221
 40
10.85140174170352
 40
11.00120802880469
 40
11.13189010907374
 40
11.22432377583002
 40
11.25938480938948
 40
11.28697175596136
 40
11.34766303835911
 40
11.40835432042062
 40
11.43594125892096
 40
11.43594125892096
 40
11.43594125892096
 40
11.43594125892096
 10
190.0818114333289
 20
15.55242795125079
 10
190.070278584494
 20
15.55242790287917
 10
190.0283409444999
 20
15.55242773704167
 10
189.9434129719025
 20
15.5524312580091
 10
189.8207688553129
 20
15.55240926435881
 10
189.6791206916993
 20
15.55250801177056
 10
189.537975369849
 20
15.55214686232423
 10
189.4141351317905
 20
15.5532188360909
 10
189.3317217825382
 20
15.5509224909127
 10
189.1727791229695
 20
15.56048569373421
 10
189.3503402353376
 20
15.19785394311372
 10
189.3379739205453
 20
14.95243127723115
 10
189.4064519473865
 20
14.66862501324836
 10
189.469302432097
 20
14.43250999939035
 10
189.5452253431728
 20
14.23326740396129
 10
189.6303189577017
 20
14.07745347451371
 10
189.7244607592935
 20
13.9765785778139
 10
189.8282648207728
 20
13.92465852638962
 10
189.9125872030773
 20
13.97606484379614
 10
189.9351322179452
 20
14.09144544037515
 10
189.9745730975371
 20
14.21885149702378
 10
189.9202919734941
 20
14.53622328086752
 10
190.0451218072473
 20
14.38982180140906
 10
190.2019291513602
 20
14.35795300331168
 10
190.0947720007058
 20
14.12421357767628
 10
190.0808711209867
 20
13.95972776583658
 10
190.0234709467226
 20
13.83130869122482
 10
189.9335020145008
 20
13.76018802352829
 10
189.8095274657877
 20
13.74432324142256
 10
189.663427319686
 20
13.77993797554173
 10
189.5243894320284
 20
13.90000570500277
 10
189.4102003962144
 20
14.07435682550319
 10
189.3146141301486
 20
14.2994660311124
 10
189.2318652572627
 20
14.5638824600644
 10
189.1807179256411
 20
14.88187933098542
 10
189.0770189207338
 20
15.15543728488911
 10
189.2042841208522
 20
15.5600581861287
 10
189.0357890623018
 20
15.5511236784968
 10
188.9511995787077
 20
15.55315961418365
 10
188.8189876387627
 20
15.55213937388408
 10
188.6560505094104
 20
15.55253230318431
 10
188.4733759170532
 20
15.5523569631337
 10
188.2847057373383
 20
15.5526010530747
 10
188.1014469020189
 20
15.55185657906239
 10
187.9404746832718
 20
15.55416360522427
 10
187.8029808335276
 20
15.54799804883665
 10
187.728959037231
 20
15.56032838458212
 10
187.6613215186857
 20
15.54329323723558
 10
187.6732373719269
 20
15.59524438447529
 10
187.6655677285694
 20
15.64071424966531
 10
187.6732592225115
 20
15.68614453703707
 10
187.6613141797762
 20
15.73802395984572
 10
187.7283588305867
 20
15.72119143490266
 10
187.8017375665676
 20
15.73335409092673
 10
187.9379128305272
 20
15.7272723107496
 10
188.0973811801512
 20
15.7295483431506
 10
188.2789173085836
 20
15.72881233998964
 10
188.4658034862179
 20
15.72905954196136
 10
188.6468012316836
 20
15.72886400799256
 10
188.8080802578878
 20
15.72932234714841
 10
188.9393882124887
 20
15.72812673751208
 10
189.0225051322596
 20
15.73051347319744
 10
189.1556236547814
 20
15.72230605725466
 10
189.0645893502657
 20
15.97752868952654
 10
188.9789633074422
 20
16.24164358328246
 10
189.0990589003454
 20
16.22904442969163
 10
189.1514264948544
 20
16.22694235763074
 10
189.2214497569715
 20
16.22535399889655
 10
189.2671922337817
 20
16.21602567538113
 10
189.3220812646933
 20
16.22545966915427
 10
189.2963574785681
 20
16.17733028655172
 10
189.1825397571453
 20
16.18266829744155
 10
189.3159346621136
 20
15.95449174576778
 10
189.1943658735472
 20
15.72156856595925
 10
189.3223188769412
 20
15.73087258884441
 10
189.4049048406461
 20
15.72801001754682
 10
189.5307214850824
 20
15.72923437412305
 10
189.6741469838057
 20
15.72932431888966
 10
189.8157420951728
 20
15.72746163183855
 10
189.9459127249967
 20
15.73333075937165
 10
190.0193452286191
 20
15.72070340823206
 10
190.0891112922096
 20
15.73877563110414
 10
190.0775772605396
 20
15.68612850546328
 10
190.0833184346682
 20
15.64221317686549
 10
190.081661577091
 20
15.5908998267655
 10
190.081775756167
 20
15.56158792021636
 10
190.0818114333289
 20
15.55242795125079
 97
        1
330
A7
 75
     1
 76
     2
 52
45.0
 41
0.1
 77
     0
 78
     1
 53
45.0
 43
0.0
 44
0.0
 45
-0.282842712474619
 46
0.0
 79
     0
 98
        1
 10
0.0
 20
0.0
  0
HATCH
  5
C5
330
48
100
AcDbEntity
  8
1
  6
Continuous
 62
     2
100
AcDbHatch
 10
0.0
 20
0.0
 30
0.0
210
0.0
220
0.0
230
1.0
  2
CUSTOM7
 70
     0
 71
     1
 91
        1
 92
        1
 93
        1
 72
     4
 94
        3
 73
     0
 74
     0
 95
       75
 96
       71
 40
0.0
 40
0.0
 40
0.0
 40
0.0
 40
0.0342546099129638
 40
0.1245622414432222
 40
0.2522385480897234
 40
0.3985991922940218
 40
0.5449598364980217
 40
0.6726361431438088
 40
0.7629437746736107
 40
0.7971983935297084
 40
1.101723623449558
 40
1.408591244036566
 40
1.433332471690267
 40
1.487763172450052
 40
1.542193873081874
 40
1.566935100592417
 40
1.923523931821735
 40
2.271755704953511
 40
2.590579755100755
 40
2.858943305581039
 40
2.889120339309054
 40
2.918305855191025
 40
2.941366645531149
 40
2.996357760973047
 40
3.061992318140597
 40
3.116983433626798
 40
3.14004422399748
 40
3.411273122936467
 40
3.732441619741075
 40
3.761068217532772
 40
3.837787499630327
 40
3.94885869912596
 40
4.080541049104326
 40
4.2190937826257
 40
4.350776132722242
 40
4.461847332405567
 40
4.538566614678293
 40
4.567193212544538
 40
4.594907573998796
 40
4.666381453557335
 40
4.764111044010946
 40
4.870592538125749
 40
4.9683221286422
 40
5.039796008286885
 40
5.067510369784344
 40
5.094263603185558
 40
5.153120716668194
 40
5.211977830150641
 40
5.238731063551645
 40
5.272290535138884
 40
5.363380529444745
 40
5.497618415781423
 40
5.660621563453665
 40
5.838007341749366
 40
6.015393119910717
 40
6.178396267038343
 40
6.312634151842294
 40
6.403724143059284
 40
6.437283612672379
 40
6.464036846260994
 40
6.522893960004611
 40
6.581751071483877
 40
6.608504301590823
 40
6.637253941280971
 40
6.711397748902822
 40
6.812778057283435
 40
6.923237199249211
 40
7.024617507623855
 40
7.098761315207508
 40
7.127510946007458
 40
7.127510946007458
 40
7.127510946007458
 40
7.127510946007458
 10
188.4418622390564
 20
14.95849128473259
 10
188.4418622819707
 20
14.94707313408715
 10
188.4418624481129
 20
14.90555257842624
 10
188.4418593081787
 20
14.82146922003768
 10
188.4418788279801
 20
14.70004497322326
 10
188.4417912187737
 20
14.55980494047447
 10
188.442111623523
 20
14.42006556794577
 10
188.4411605909741
 20
14.29745038894931
 10
188.4431978595967
 20
14.21587074438046
 10
188.4349433178746
 20
14.06271267077702
 10
188.7430797940901
 20
14.22560236054715
 10
189.0350645173736
 20
14.39482938688003
 10
189.0408354448707
 20
14.2597323578191
 10
189.0455471719891
 20
14.21617221160445
 10
189.0482535411918
 20
14.17211249350546
 10
189.0672545672959
 20
14.02272590363134
 10
188.6583942247303
 20
14.08681172241261
 10
188.3793710348832
 20
13.97296341411013
 10
188.1018081587166
 20
13.87364095811141
 10
187.8099837184401
 20
13.91630687596349
 10
187.7869144678658
 20
13.8132167974454
 10
187.7537474383333
 20
13.78691091244461
 10
187.7480653962739
 20
13.83455309036299
 10
187.7284214559044
 20
13.87180336115064
 10
187.7095089485623
 20
13.93007387847559
 10
187.6942849867707
 20
13.973852010078
 10
187.6477246372936
 20
14.0875942104631
 10
187.9890897312451
 20
14.05576301120051
 10
188.2679649367385
 20
14.0216143510648
 10
188.2617753034907
 20
14.16913976479653
 10
188.2630935452773
 20
14.24013150908832
 10
188.2624831689948
 20
14.34719767958661
 10
188.2625871570725
 20
14.47398529785996
 10
188.2629987964055
 20
14.60849243496047
 10
188.2613907841969
 20
14.73395549951181
 10
188.2659902567925
 20
14.84505246719113
 10
188.2564186502211
 20
14.90761886800684
 10
188.2704001783691
 20
14.96595388294996
 10
188.2147384386705
 20
14.95289710582233
 10
188.1575655197821
 20
14.96136307749493
 10
188.0616048925648
 20
14.95729976080631
 10
187.963376752282
 20
14.95970889852469
 10
187.8672582457561
 20
14.95551600613383
 10
187.8104648525811
 20
14.96429346441157
 10
187.7550356873384
 20
14.95094936850116
 10
187.7670679427917
 20
15.00036910959252
 10
187.7592003173937
 20
15.0439398803039
 10
187.7666295563828
 20
15.0883046911852
 10
187.7551930564143
 20
15.13902297763985
 10
187.8232102370133
 20
15.12162460757738
 10
187.8968496879747
 20
15.13417450237183
 10
188.0325064058211
 20
15.12799677011093
 10
188.1884909024525
 20
15.13029203093079
 10
188.3615926358143
 20
15.12940968262525
 10
188.5346942964181
 20
15.13029207142403
 10
188.6906789811216
 20
15.12799662955545
 10
188.8263351889797
 20
15.13417486262426
 10
188.8999756705652
 20
15.1216239421833
 10
188.9679914174724
 20
15.13902373012137
 10
188.9565590885922
 20
15.0883013041455
 10
188.9639539458297
 20
15.04397060811103
 10
188.956203991227
 20
15.0002830755019
 10
188.9681203741877
 20
14.95063590098472
 10
188.9108170223616
 20
14.9646141133842
 10
188.8520145789773
 20
14.95539755673249
 10
188.7525293633199
 20
14.95952268164924
 10
188.649428009835
 20
14.95822760025883
 10
188.5537846354573
 20
14.95854077077635
 10
188.4857467971617
 20
14.9584877669714
 10
188.4514462213443
 20
14.95849051871651
 10
188.4418622390564
 20
14.95849128473259
 97
        1
330
A8
 75
     1
 76
     2
 52
45.0
 41
0.1
 77
     0
 78
     1
 53
45.0
 43
0.0
 44
0.0
 45
-0.282842712474619
 46
0.0
 79
     0
 98
        1
 10
0.0
 20
0.0
  0
HATCH
  5
C6
330
48
100
AcDbEntity
  8
1
  6
Continuous
 62
     2
100
AcDbHatch
 10
0.0
 20
0.0
 30
0.0
210
0.0
220
0.0
230
1.0
  2
CUSTOM8
 70
     0
 71
     1
 91
        1
 92
        1
 93
        1
 72
     4
 94
        3
 73
     0
 74
     0
 95
       15
 96
       11
 40
0.0
 40
0.0
 40
0.0
 40
0.0
 40
0.2785535985097445
 40
0.5215624748199302
 40
0.6076917376040768
 40
0.6938210001741332
 40
0.9405019146455132
 40
1.221691403489138
 40
1.300471877081062
 40
1.379252341684831
 40
1.379252341684831
 40
1.379252341684831
 40
1.379252341684831
 10
189.5681493630999
 20
16.22930267330381
 10
189.6296017794179
 20
16.17691646592718
 10
189.7446649974114
 20
16.07882876798231
 10
190.0397348497244
 20
15.92889785897215
 10
189.9025147631856
 20
15.84343227515011
 10
189.8041227843778
 20
15.71085785201556
 10
189.713003359065
 20
16.0161698578142
 10
189.3636839480656
 20
16.07967869465372
 10
189.5119258376569
 20
16.17896509880877
 10
189.5494081874236
 20
16.21252348402382
 10
189.5681493630999
 20
16.22930267330381
 97
        1
330
A9
 75
     1
 76
     2
 52
45.0
 41
0.1
 77
     0
 78
     1
 53
45.0
 43
0.0
 44
0.0
 45
-0.282842712474619
 46
0.0
 79
     0
 98
        1
 10
0.0
 20
0.0
  0
HATCH
  5
C7
330
48
100
AcDbEntity
  8
1
  6
Continuous
 62
     2
100
AcDbHatch
 10
0.0
 20
0.0
 30
0.0
210
0.0
220
0.0
230
1.0
  2
CUSTOM9
 70
     0
 71
     1
 91
        1
 92
        1
 93
        1
 72
     4
 94
        3
 73
     0
 74
     0
 95
       35
 96
       31
 40
0.0
 40
0.0
 40
0.0
 40
0.0
 40
0.0335231036619765
 40
0.071321857171216
 40
0.4278866681487487
 40
0.8116865841964804
 40
1.198190238000129
 40
1.561379546812787
 40
1.65998317462222
 40
1.759315573807404
 40
2.132719617231267
 40
2.525233363589003
 40
2.910815397779867
 40
3.265244364303463
 40
3.592606723582183
 40
3.964386154604111
 40
4.359942131737912
 40
4.758154118639403
 40
4.843846538699952
 40
4.936650065543336
 40
5.256616602537489
 40
5.5817074044162
 40
5.899719158308292
 40
6.198363494280872
 40
6.46630104661588
 40
6.493895311537202
 40
6.559697020196995
 40
6.638234543442572
 40
6.704036252154325
 40
6.731630508423132
 40
6.731630508423132
 40
6.731630508423132
 40
6.731630508423132
 10
191.9736010568669
 20
16.23463843719131
 10
191.9676006097789
 20
16.2248069054232
 10
191.9548344099157
 20
16.20388988579791
 10
191.7949362006553
 20
16.17127126532721
 10
192.2322025842337
 20
15.88206680336685
 10
192.4345394828261
 20
15.68041138358438
 10
192.6819564267973
 20
15.43749387603273
 10
193.1831513624607
 20
15.36047662757772
 10
193.012556219897
 20
15.21876939174659
 10
192.9383299463201
 20
15.01710366209099
 10
192.6131432248188
 20
15.36956287174722
 10
192.3277741670665
 20
15.53175212559559
 10
192.0337604077658
 20
15.73687130053046
 10
191.8084452691134
 20
16.21827488595445
 10
191.5993085055522
 20
15.75343046609219
 10
191.3207873674834
 20
15.54350952252909
 10
191.0371383177209
 20
15.37424456359986
 10
190.7078639527832
 20
15.0014236090794
 10
190.6277012318224
 20
15.19708014459007
 10
190.4759724909744
 20
15.32491104190599
 10
190.9083395826795
 20
15.40454031765937
 10
191.0962565329766
 20
15.60026634915478
 10
191.3468477420504
 20
15.81632996916759
 10
191.5714350470161
 20
15.98190992300061
 10
191.6259775409712
 20
16.2613396463683
 10
191.7494661029011
 20
16.2473795040808
 10
191.806027334452
 20
16.24521268867647
 10
191.8761870984945
 20
16.24046859881359
 10
191.9333414022105
 20
16.23709429350539
 10
191.9644190320839
 20
16.23519854711116
 10
191.9736010568669
 20
16.23463843719131
 97
        1
330
AA
 75
     1
 76
     2
 52
45.0
 41
0.1
 77
     0
 78
     1
 53
45.0
 43
0.0
 44
0.0
 45
-0.282842712474619
 46
0.0
 79
     0
 98
        1
 10
0.0
 20
0.0
  0
HATCH
  5
C8
330
48
100
AcDbEntity
  8
1
  6
Continuous
 62
     2
100
AcDbHatch
 10
0.0
 20
0.0
 30
0.0
210
0.0
220
0.0
230
1.0
  2
CUSTOM10
 70
     0
 71
     1
 91
        1
 92
        1
 93
        1
 72
     4
 94
        3
 73
     0
 74
     0
 95
       91
 96
       87
 40
0.0
 40
0.0
 40
0.0
 40
0.0
 40
0.0267532254356666
 40
0.085610338646396
 40
0.1444674521996372
 40
0.171220685661823
 40
0.2039416005642252
 40
0.29556019716522
 40
0.4362601844616634
 40
0.6162252844506966
 40
0.8256392189704413
 40
1.054685709844382
 40
1.293548478893503
 40
1.532411247938275
 40
1.76145773879954
 40
1.970871673298508
 40
2.150836773256704
 40
2.291536760495565
 40
2.383155356836672
 40
2.415876284101292
 40
2.442629517487931
 40
2.501486630949052
 40
2.56034374442419
 40
2.587096977826458
 40
2.617068194440885
 40
2.699247336756026
 40
2.822032643466339
 40
2.973822353257868
 40
3.143014704823311
 40
3.31800793687989
 40
3.487200288186723
 40
3.638989997548204
 40
3.761775303794702
 40
3.843954445753037
 40
3.873925662229733
 40
3.890812773500429
 40
3.907699884771597
 40
3.937960767857216
 40
3.980983618142254
 40
4.199085915228402
 40
4.439444339237186
 40
4.677588241260787
 40
5.050698317837672
 40
5.448212454763001
 40
5.855291218044497
 40
6.138575438885148
 40
6.417434507583939
 40
6.444551104393599
 40
6.504207617362876
 40
6.563864130314203
 40
6.590980727103772
 40
6.848609460381166
 40
7.109611990668127
 40
7.352910904445782
 40
7.55783022070513
 40
7.587518925913054
 40
7.652834077375489
 40
7.718149228845439
 40
7.74783793406175
 40
7.854880190300741
 40
7.976511257403291
 40
8.369487896592036
 40
8.757514959223357
 40
9.126072419330848
 40
9.46063938039191
 40
9.746695593035652
 40
9.777569943118417
 40
9.807050320931499
 40
9.830377336128628
 40
9.886003295435694
 40
9.952395569429598
 40
10.00802152870594
 40
10.03134854388187
 40
10.21356951009557
 40
10.4220347929284
 40
10.66154556731034
 40
10.91693789564276
 40
11.15832906556533
 40
11.18982674596591
 40
11.27286608520375
 40
11.39026653033317
 40
11.52484752840854
 40
11.65942852648416
 40
11.77682897161452
 40
11.85986831085651
 40
11.89136598230396
 40
11.89136598230396
 40
11.89136598230396
 40
11.89136598230396
 10
190.7027885008196
 20
14.70699600701769
 10
190.7028237765288
 20
14.71587847311982
 10
190.7029366710796
 20
14.74430237047342
 10
190.7012984568489
 20
14.79409639169798
 10
190.7069750292911
 20
14.83657564478149
 10
190.6956928731706
 20
14.88730154856841
 10
190.7632296979032
 20
14.87012900740102
 10
190.83880292107
 20
14.8829022716599
 10
190.9828357056
 20
14.87629729457376
 10
191.1569419185427
 20
14.8788846220646
 10
191.3639599611003
 20
14.87800591955547
 10
191.5894688172378
 20
14.87828207920022
 10
191.8251162293406
 20
14.87818339658656
 10
192.0607640531348
 20
14.87828184412761
 10
192.2862717580626
 20
14.87800678190782
 10
192.4932934632805
 20
14.87888186270729
 10
192.6673888915288
 20
14.8763052267844
 10
192.8114492071986
 20
14.88288290449208
 10
192.8869691915293
 20
14.87016243405598
 10
192.954577603703
 20
14.8872640019168
 10
192.9430840140676
 20
14.83674785802935
 10
192.9505104581733
 20
14.79253252226497
 10
192.9428838927986
 20
14.74867966503606
 10
192.9546489459425
 20
14.69878374479324
 10
192.8930788491983
 20
14.71393227712509
 10
192.8256791738671
 20
14.7031066535067
 10
192.7013004056222
 20
14.70852031626233
 10
192.555442823657
 20
14.70649205390782
 10
192.3893576440086
 20
14.70715777578384
 10
192.2188412621724
 20
14.70689643521239
 10
192.0519790855388
 20
14.7072155339109
 10
191.9087346827105
 20
14.70635302590759
 10
191.7773313869834
 20
14.70863300482984
 10
191.7239859134656
 20
14.704077043742
 10
191.6485188456912
 20
14.70999914992873
 10
191.6769075779232
 20
14.70094169343353
 10
191.7033652409542
 20
14.69725912268935
 10
191.6633522907701
 20
14.66654271968275
 10
191.5713663691868
 20
14.67667591174631
 10
191.5439396207069
 20
14.43032502247786
 10
191.4478793967234
 20
14.27499558764374
 10
191.1917277964475
 20
13.94525417931568
 10
191.7627537732763
 20
14.0843002221045
 10
192.0173656320516
 20
14.08291779973364
 10
192.6279647048617
 20
13.99790569242085
 10
192.3340698578084
 20
14.29685417558199
 10
192.0133304286516
 20
14.44330856901772
 10
192.1313543360434
 20
14.50025540818287
 10
192.1724716466261
 20
14.52420099873347
 10
192.2156812394411
 20
14.54599758811229
 10
192.317457409445
 20
14.60928721253907
 10
192.4328867625247
 20
14.35147151408776
 10
192.6329591642277
 20
14.21616041113682
 10
192.7269077387228
 20
14.0379279513888
 10
192.9558829746392
 20
13.87997821027052
 10
192.8596031846708
 20
13.829159725763
 10
192.8167959763779
 20
13.79881292523052
 10
192.7718243528779
 20
13.77466130281455
 10
192.7121720925213
 20
13.72552146747559
 10
192.6789731061325
 20
13.85997475673607
 10
192.5582013350796
 20
14.01594265286577
 10
192.1970976005979
 20
13.88569928059555
 10
191.8385061955541
 20
13.90224694409481
 10
191.457092045008
 20
13.89331229351864
 10
191.1703455282891
 20
13.82882671672404
 10
190.8592055599714
 20
13.94230668192827
 10
190.8268737818788
 20
13.83122259927766
 10
190.7896178253317
 20
13.81196313850018
 10
190.7865737632753
 20
13.85874784087299
 10
190.7679892860607
 20
13.89806853919138
 10
190.7512436616778
 20
13.95765983478233
 10
190.7383730915754
 20
14.00201969871285
 10
190.7042327806427
 20
14.091063311202
 10
190.9482714457754
 20
14.02181042943769
 10
191.1441394486671
 20
14.0003036905774
 10
191.2395426381277
 20
14.28226484478463
 10
191.2945135769597
 20
14.44363045421122
 10
191.5159619357156
 20
14.71391177589735
 10
191.3849239381216
 20
14.70548446853731
 10
191.3110026555854
 20
14.70779008496967
 10
191.1977459876244
 20
14.70671378321655
 10
191.0694251807484
 20
14.70707639076507
 10
190.9404252030415
 20
14.70697724466083
 10
190.828784094629
 20
14.70699932712569
 10
190.7514663970026
 20
14.70699579189667
 10
190.713287653201
 20
14.70699595845078
 10
190.7027885008196
 20
14.70699600701769
 97
        1
330
AB
 75
     1
 76
     2
 52
45.0
 41
0.1
 77
     0
 78
     1
 53
45.0
 43
0.0
 44
0.0
 45
-0.282842712474619
 46
0.0
 79
     0
 98
        1
 10
0.0
 20
0.0
  0
HATCH
  5
C9
330
48
100
AcDbEntity
  8
1
  6
Continuous
 62
     2
100
AcDbHatch
 10
0.0
 20
0.0
 30
0.0
210
0.0
220
0.0
230
1.0
  2
CUSTOM11
 70
     0
 71
     1
 91
        1
 92
        1
 93
        1
 72
     4
 94
        3
 73
     0
 74
     0
 95
      131
 96
      127
 40
0.0
 40
0.0
 40
0.0
 40
0.0
 40
0.0195577029826114
 40
0.0426490537461348
 40
0.2863607575856759
 40
0.5344948436189514
 40
0.7842238845573412
 40
0.8737315789467751
 40
0.9803832810313217
 40
1.092842274517068
 40
1.199761146656832
 40
1.289788768186545
 40
1.351573580786232
 40
1.370727117561457
 40
1.416400936017866
 40
1.470914848356004
 40
1.516588666791791
 40
1.535742203552869
 40
1.63421659229317
 40
1.760283341174971
 40
1.897966686682111
 40
2.031216387368963
 40
2.049689751137959
 40
2.101115601646897
 40
2.179502577740018
 40
2.278859318314137
 40
2.393194462258799
 40
2.516516648383919
 40
2.642834515406052
 40
2.766156701983561
 40
2.880491846754679
 40
2.979848588358725
 40
3.058235565443906
 40
3.109661416669062
 40
3.128134780704239
 40
3.146783742386556
 40
3.191254343315417
 40
3.244332157316076
 40
3.288802758225979
 40
3.307451719895222
 40
3.327717853844834
 40
3.383747753580198
 40
3.468388665924592
 40
3.574487837698903
 40
3.694892515729012
 40
3.822449946852156
 40
3.95000737792055
 40
4.070412055800644
 40
4.176511227368205
 40
4.261152139501653
 40
4.317182039076848
 40
4.337448172964769
 40
4.620011002696411
 40
4.88509663839767
 40
4.945373043518502
 40
5.01410771048883
 40
5.070481727652236
 40
5.319246955636747
 40
5.584812164506238
 40
5.859000912057092
 40
6.133746937542282
 40
6.401732212969125
 40
6.420736683995744
 40
6.472845717451338
 40
6.550702743894322
 40
6.646951193874531
 40
6.754234497930855
 40
6.865196086587662
 40
6.97247939035812
 40
7.06872783977231
 40
7.146584865451319
 40
7.198693898189549
 40
7.217698368905689
 40
7.234950401631157
 40
7.276089864270181
 40
7.325191803516263
 40
7.366331266090628
 40
7.383583298769969
 40
7.402779163492347
 40
7.453386443254778
 40
7.524934666445779
 40
7.606953361406119
 40
7.688972056429271
 40
7.760520279784521
 40
7.811127559734763
 40
7.830323424546385
 40
7.847844055300016
 40
7.894799345667063
 40
7.96277939274476
 40
8.04337429356082
 40
8.128174145149739
 40
8.20876904481755
 40
8.276749090377262
 40
8.323704379669831
 40
8.341225010056565
 40
8.358497614800713
 40
8.401679126686918
 40
8.457815092185976
 40
8.51395105772838
 40
8.557132569708337
 40
8.57440517450538
 40
8.602340668616725
 40
8.64345566054032
 40
8.663225271966992
 40
8.715345156564643
 40
8.789031889628982
 40
8.87350204552072
 40
8.957972194324352
 40
9.03165892556825
 40
9.083778811234941
 40
9.103548423003406
 40
9.119550083123944
 40
9.160817522380245
 40
9.217244429110611
 40
9.278724491645097
 40
9.335151398295881
 40
9.376418837358177
 40
9.392420497300964
 40
9.401196302735185
 40
9.417494229384664
 40
9.426270027749938
 40
9.440875075477967
 40
9.47570249699914
 40
9.517270709866295
 40
9.552098131994457
 40
9.566703169884661
 40
9.566703169884661
 40
9.566703169884661
 40
9.566703169884661
 10
194.6170254148479
 20
15.67015871511029
 10
194.6134345093371
 20
15.66453690702161
 10
194.6056039123625
 20
15.65227754419114
 10
194.5129968974545
 20
15.6160191604098
 10
194.4887622233248
 20
15.40148444212713
 10
194.3858709845938
 20
15.22197284509709
 10
194.1220492364304
 20
15.03615573798142
 10
194.284547156918
 20
14.95959336566083
 10
194.3607225760838
 20
14.89856693195444
 10
194.4492171072758
 20
14.83515804544762
 10
194.5389930233111
 20
14.77525634219561
 10
194.5883817636047
 20
14.7210215484921
 10
194.6745708157382
 20
14.6928624054183
 10
194.6411260674229
 20
14.65713309652809
 10
194.6214671166311
 20
14.62550387991904
 10
194.5919888217882
 20
14.58475872796068
 10
194.5688989446032
 20
14.55504663489642
 10
194.5380205968356
 20
14.50211422668494
 10
194.4729193365741
 20
14.62740334938899
 10
194.3796000122416
 20
14.68213900233937
 10
194.2950636285138
 20
14.7391642393934
 10
194.1722498125744
 20
14.89675287427527
 10
194.17644508473
 20
14.82035806766838
 10
194.1751478652677
 20
14.77361280161298
 10
194.1758126448077
 20
14.69584785812603
 10
194.1755549986956
 20
14.59902068324423
 10
194.1756431239922
 20
14.4865027907881
 10
194.1756077302281
 20
14.36524085945699
 10
194.1756511758278
 20
14.2408689785896
 10
194.1755199942405
 20
14.11967683631335
 10
194.1759477562046
 20
14.00691148919741
 10
194.174667820231
 20
13.91082913768742
 10
194.1779759851043
 20
13.83113826468697
 10
194.1715197740087
 20
13.78815175788782
 10
194.1806208705555
 20
13.74955432372039
 10
194.1447910339935
 20
13.75810887724068
 10
194.1115223815252
 20
13.75342519985444
 10
194.0604562576041
 20
13.75351298759782
 10
194.0269723972812
 20
13.75794430283818
 10
193.9907585408754
 20
13.74960793842506
 10
194.0009782568665
 20
13.79145277179282
 10
193.9936487887774
 20
13.83778560820171
 10
193.9973633136102
 20
13.92374831106012
 10
193.9959480554896
 20
14.02605142704847
 10
193.9964105554637
 20
14.1445322393151
 10
193.9962773686231
 20
14.26957683153355
 10
193.9963015910044
 20
14.39475828107049
 10
193.9963354925551
 20
14.51286645379058
 10
193.9962060293132
 20
14.61628748709516
 10
193.996550754908
 20
14.69932036153667
 10
193.995869827869
 20
14.75143368521244
 10
193.9994586600624
 20
14.87912907821362
 10
193.7826171386437
 20
14.58048716819616
 10
193.602135492195
 20
14.35263981511514
 10
193.5490322295611
 20
14.49373443289813
 10
193.5200429133149
 20
14.54325767560944
 10
193.419664806282
 20
14.64641779790109
 10
193.7405127723261
 20
14.72695035023779
 10
193.868989700543
 20
14.91066283036434
 10
194.0906454325359
 20
15.11931995771763
 10
194.1770224894068
 20
15.29339211228347
 10
194.4549394229077
 20
15.56967051342517
 10
194.3346247839284
 20
15.56534559551116
 10
194.286319735135
 20
15.56614856202556
 10
194.2102377454905
 20
15.56574582146587
 10
194.1167010009751
 20
15.56590275611613
 10
194.0117594788557
 20
15.56582502576227
 10
193.9033887738718
 20
15.56595464378557
 10
193.7981454235897
 20
15.56554393490694
 10
193.7056237819413
 20
15.56682073671594
 10
193.6268130800707
 20
15.56340766534853
 10
193.5839674565379
 20
15.57023350036323
 10
193.5449499586516
 20
15.56065064201127
 10
193.5526365271863
 20
15.59420779565543
 10
193.5485464404312
 20
15.62523550322233
 10
193.5485531368815
 20
15.67236529270897
 10
193.5526239724911
 20
15.70340941646774
 10
193.5449495574583
 20
15.73701861635896
 10
193.5834819405494
 20
15.72748410420866
 10
193.624122801448
 20
15.73397435498065
 10
193.6951471850462
 20
15.73100150650248
 10
193.7729318149633
 20
15.73174761399151
 10
193.8507292246474
 20
15.73247814044519
 10
193.9217232089907
 20
15.72954235514154
 10
193.962427979182
 20
15.73595468772946
 10
194.0009853489909
 20
15.72650524175998
 10
193.9927342754927
 20
15.76264692158779
 10
193.9982346669358
 20
15.80129837613221
 10
193.9955754206163
 20
15.86913528561834
 10
193.9965815471533
 20
15.94591641538737
 10
193.9960178018319
 20
16.02849393582755
 10
193.9970714526593
 20
16.10517329229877
 10
193.994267586313
 20
16.17331990776699
 10
194.0000702721304
 20
16.21132399809348
 10
193.9915654551158
 20
16.24758448077647
 10
194.0255610233125
 20
16.23755723771854
 10
194.0594575683099
 20
16.24073266813706
 10
194.1126669060346
 20
16.2350896564061
 10
194.1660768574483
 20
16.23434774436425
 10
194.199591464949
 20
16.2281922348298
 10
194.2388086183039
 20
16.23346029773593
 10
194.2120263698492
 20
16.19253380793483
 10
194.1708111001723
 20
16.20371204538111
 10
194.1782641540874
 20
16.15867056192121
 10
194.1742227952184
 20
16.11412278028141
 10
194.176171404964
 20
16.04223572621699
 10
194.1752364849758
 20
15.96168630588766
 10
194.176510719003
 20
15.8817399540499
 10
194.1732043793863
 20
15.80841837083176
 10
194.1802106179962
 20
15.76688643002563
 10
194.1701440380125
 20
15.72752418568107
 10
194.2029814803921
 20
15.73468063430975
 10
194.236457729648
 20
15.73027243137938
 10
194.2915053476019
 20
15.73217943347891
 10
194.3489502595314
 20
15.73185366407282
 10
194.4023026248309
 20
15.73106308733075
 10
194.4398540896639
 20
15.73313959118069
 10
194.4623172523236
 20
15.73022338167102
 10
194.4751678073731
 20
15.73572552644051
 10
194.4858255685889
 20
15.73801118197785
 10
194.4986635650143
 20
15.74494972588049
 10
194.5145991033071
 20
15.72853046313669
 10
194.5410623920891
 20
15.71709122319446
 10
194.5726805253757
 20
15.6964468783519
 10
194.5987255892151
 20
15.68116869628295
 10
194.6128517723973
 20
15.67266976323185
 10
194.6170254148479
 20
15.67015871511029
 97
        1
330
AC
 75
     1
 76
     2
 52
45.0
 41
0.1
 77
     0
 78
     1
 53
45.0
 43
0.0
 44
0.0
 45
-0.282842712474619
 46
0.0
 79
     0
 98
        1
 10
0.0
 20
0.0
  0
HATCH
  5
CA
330
48
100
AcDbEntity
  8
1
  6
Continuous
 62
     2
100
AcDbHatch
 10
0.0
 20
0.0
 30
0.0
210
0.0
220
0.0
230
1.0
  2
CUSTOM12
 70
     0
 71
     1
 91
        1
 92
        1
 93
        1
 72
     4
 94
        3
 73
     0
 74
     0
 95
      124
 96
      120
 40
0.0
 40
0.0
 40
0.0
 40
0.0
 40
0.027818722962451
 40
0.1011590162384269
 40
0.2048470170590239
 40
0.3237088716559245
 40
0.4425707262522
 40
0.5462587270699547
 40
0.6195990203311798
 40
0.647417752257866
 40
0.6750060736115242
 40
0.7357003855242759
 40
0.7963946998054474
 40
0.8239830245571766
 40
0.854093381110286
 40
0.937339662940954
 40
1.063094687343235
 40
1.220731268638073
 40
1.399622220914748
 40
1.589140358637732
 40
1.778658496423898
 40
1.957549448940509
 40
2.115186030873159
 40
2.240941056914463
 40
2.324187341760532
 40
2.354297700109382
 40
2.38188602467189
 40
2.442580338710475
 40
2.503274652750497
 40
2.530862977314606
 40
2.560983949278559
 40
2.640393784452905
 40
2.752662861759128
 40
2.881361560118145
 40
3.010060258455192
 40
3.122329335705339
 40
3.201739170817953
 40
3.231860142753313
 40
3.26429802403037
 40
3.352343701778238
 40
3.48209522686876
 40
3.639650650173018
 40
3.811108022565473
 40
3.982565394927978
 40
4.140120818152558
 40
4.269872343141267
 40
4.357918020802328
 40
4.390355902043955
 40
4.423256253992524
 40
4.508104530073045
 40
4.624121560636813
 40
4.75052817603157
 40
4.866545206602017
 40
4.951393482691974
 40
4.984293834645375
 40
5.011450833242287
 40
5.071196230152066
 40
5.130941627057136
 40
5.158098625648798
 40
5.190998977601489
 40
5.275847253689315
 40
5.391864284256749
 40
5.518270899648294
 40
5.634287930209333
 40
5.719136206288007
 40
5.752036558235894
 40
5.782130946282922
 40
5.862783906229098
 40
5.979550131774972
 40
6.117984316640382
 40
6.263641154587932
 40
6.402075339414146
 40
6.518841564907949
 40
6.599494524815534
 40
6.629588912848772
 40
6.654403028226349
 40
6.713575149488116
 40
6.784199939329434
 40
6.843372060493536
 40
6.868186175802782
 40
6.896246243201886
 40
6.939586233758288
 40
6.967846564564915
 40
7.043584251089854
 40
7.153234334451707
 40
7.283231855734455
 40
7.420011856035485
 40
7.550009376579832
 40
7.659659458835232
 40
7.735397144417222
 40
7.763657474851394
 40
7.796409728011051
 40
7.880876065096325
 40
7.996370852465711
 40
8.122208446418606
 40
8.2377032247992
 40
8.322169562010894
 40
8.354921815205907
 40
8.382078813307684
 40
8.441824209206985
 40
8.501569605240126
 40
8.528726603485703
 40
8.561478856695752
 40
8.645945193877802
 40
8.761439980865314
 40
8.887277580764456
 40
9.002772362000977
 40
9.087238696661197
 40
9.119990949235651
 40
9.152428830613351
 40
9.240474508638565
 40
9.370226034149514
 40
9.527781457984396
 40
9.699238830981383
 40
9.87069620397857
 40
10.02825162781399
 40
10.15800315332561
 40
10.24604883135116
 40
10.27848670378518
 40
10.27848670378518
 40
10.27848670378518
 40
10.27848670378518
 10
195.3821827564383
 20
14.01410517385759
 10
195.3914554737523
 20
14.01410498511276
 10
195.4251744536861
 20
14.01410430876716
 10
195.4934706812465
 20
14.01411807243307
 10
195.592014171158
 20
14.01403224219547
 10
195.7062066464812
 20
14.01441755612253
 10
195.818589441707
 20
14.01300835897547
 10
195.9214376600118
 20
14.01719117422245
 10
195.9806839874849
 20
14.00823089251985
 10
196.0371265937033
 20
14.02164434526063
 10
196.0246255586954
 20
13.97087198613363
 10
196.0329549635703
 20
13.92589320939069
 10
196.024817084112
 20
13.8805675299049
 10
196.0370529214457
 20
13.82931932408468
 10
195.9747773490333
 20
13.84447955365278
 10
195.9060513026868
 20
13.83359750710744
 10
195.7782756749592
 20
13.83911304747975
 10
195.6262984511643
 20
13.837008512537
 10
195.4502695972523
 20
13.83771002588475
 10
195.2644431934287
 20
13.83745237531293
 10
195.0786167437175
 20
13.83771005144606
 10
194.9025880142168
 20
13.83700841847732
 10
194.7506104154195
 20
13.83911332229991
 10
194.6228357664554
 20
13.83359680767642
 10
194.5541077836581
 20
13.84448077125944
 10
194.4918349042883
 20
13.82931786684211
 10
194.5040616290017
 20
13.88057510805173
 10
194.4960004462597
 20
13.92582473272427
 10
194.5040675809893
 20
13.97106357955325
 10
194.4918238487083
 20
14.0223417690996
 10
194.5525017120697
 20
14.00749577363136
 10
194.6162810745736
 20
14.01756448170737
 10
194.7277314353502
 20
14.01294644212001
 10
194.8497533443824
 20
14.01413328905471
 10
194.9719538137823
 20
14.01515863900637
 10
195.0829794287392
 20
14.01092475623403
 10
195.1476517413958
 20
14.02018584521741
 10
195.2091162810501
 20
14.00604423049684
 10
195.1930065601337
 20
14.07235527884519
 10
195.2042980327358
 20
14.14447790121977
 10
195.1987400822561
 20
14.27513760888288
 10
195.200803506169
 20
14.42607323708242
 10
195.2000167127295
 20
14.59335873107887
 10
195.2007845215628
 20
14.76061110332304
 10
195.1988038785628
 20
14.91163289269915
 10
195.204130615662
 20
15.04206069552995
 10
195.1933101388425
 20
15.114654426059
 10
195.2090326429875
 20
15.18150469436799
 10
195.143270813249
 20
15.16580512490825
 10
195.0756367830763
 20
15.17609243083996
 10
194.9615885293809
 20
15.17113786847123
 10
194.8451242674902
 20
15.17414128030475
 10
194.7306554121477
 20
15.16880303143389
 10
194.6640324657812
 20
15.18001268074826
 10
194.5990769715186
 20
15.16349132665012
 10
194.6107989758707
 20
15.21473720477059
 10
194.6032830189122
 20
15.25950333784091
 10
194.6107989878835
 20
15.3042694489796
 10
194.5990769505347
 20
15.3555153612974
 10
194.66403263392
 20
15.33899381766814
 10
194.7306533339822
 20
15.35020571373943
 10
194.8451352858063
 20
15.34485436710663
 10
194.9615454436962
 20
15.34791188771116
 10
195.0757660174641
 20
15.34278499010707
 10
195.1430150439226
 20
15.35345733355597
 10
195.2083325941438
 20
15.33742082669076
 10
195.1941391448552
 20
15.39949685750052
 10
195.2036059462994
 20
15.46586761628762
 10
195.1990269004085
 20
15.58239972741966
 10
195.2007696555948
 20
15.71426685022376
 10
195.1997551495392
 20
15.85615960150274
 10
195.2017191344372
 20
15.98769050702581
 10
195.1964668553851
 20
16.10524577283005
 10
195.2073408763474
 20
16.16947789001586
 10
195.1919536641853
 20
16.2310880254505
 10
195.24075915378
 20
16.21702407382113
 10
195.2853995564725
 20
16.21954742075317
 10
195.3538643946742
 20
16.21512797401711
 10
195.3959106169102
 20
16.20613025544037
 10
195.4487544758775
 20
16.21411714866512
 10
195.4207035002014
 20
16.17113917611672
 10
195.3749142248594
 20
16.18259552043833
 10
195.3869539073265
 20
16.12173520005134
 10
195.3796086070641
 20
16.0576929946877
 10
195.3831195826161
 20
15.94909368863908
 10
195.3819806760173
 20
15.82494319144751
 10
195.3819174780262
 20
15.69189719829876
 10
195.3832872966868
 20
15.56797381249554
 10
195.3791638801313
 20
15.45868337849337
 10
195.3877763103564
 20
15.39608580094168
 10
195.3746757454402
 20
15.33740133296364
 10
195.4393884328198
 20
15.35362113810901
 10
195.5060405953156
 20
15.34270260383311
 10
195.6198779541102
 20
15.34793740173754
 10
195.7357259122097
 20
15.34485547516912
 10
195.849692426328
 20
15.35018259812511
 10
195.9160341018099
 20
15.33904208166541
 10
195.980718852548
 20
15.35546979593177
 10
195.9689820772722
 20
15.30425925210049
 10
195.9765168063041
 20
15.25950334121001
 10
195.9689820992257
 20
15.21474739010027
 10
195.9807188140736
 20
15.16353690871041
 10
195.9160344075252
 20
15.1799642779422
 10
195.8496886430824
 20
15.1688278444727
 10
195.7357459487012
 20
15.17413115893121
 10
195.6197995623054
 20
15.17114764593544
 10
195.5062756882122
 20
15.17606892268395
 10
195.4389231318804
 20
15.1658508751352
 10
195.3734285122495
 20
15.18145996138817
 10
195.3891713619218
 20
15.11463851827412
 10
195.3783275998213
 20
15.0420705781588
 10
195.3836581629792
 20
14.91162247614417
 10
195.3817136151855
 20
14.76064558185227
 10
195.3823133683214
 20
14.5932224393416
 10
195.3821506559604
 20
14.42656176118373
 10
195.3821895488136
 20
14.27360142921638
 10
195.38218164131
 20
14.14849178985707
 10
195.3821828382744
 20
14.06507890991422
 10
195.3821827716208
 20
14.02491778281978
 10
195.3821827564383
 20
14.01410517385759
 97
        1
330
AD
 75
     1
 76
     2
 52
45.0
 41
0.1
 77
     0
 78
     1
 53
45.0
 43
0.0
 44
0.0
 45
-0.282842712474619
 46
0.0
 79
     0
 98
        1
 10
0.0
 20
0.0
  0
HATCH
  5
CB
330
48
100
AcDbEntity
  8
1
  6
Continuous
 62
     2
100
AcDbHatch
 10
0.0
 20
0.0
 30
0.0
210
0.0
220
0.0
230
1.0
  2
CUSTOM13
 70
     0
 71
     1
 91
        1
 92
        1
 93
        3
 72
     4
 94
        3
 73
     0
 74
     0
 95
       24
 96
       20
 40
0.0
 40
0.0
 40
0.0
 40
0.0
 40
0.221107500875392
 40
0.4273218586245799
 40
0.508017467923999
 40
0.5914835907870841
 40
0.8143265690192973
 40
1.05465130268661
 40
1.295452694023207
 40
1.518109231328841
 40
1.540864321905455
 40
1.595126460622712
 40
1.659890947896023
 40
1.714153085187377
 40
1.736908174961676
 40
1.764951100735382
 40
1.801562291220967
 40
1.9539144245437
 40
2.126104167379789
 40
2.126104167379789
 40
2.126104167379789
 40
2.126104167379789
 10
185.9375369556889
 20
15.5898929511302
 10
185.9112579081811
 20
15.53097628234378
 10
185.8604698894426
 20
15.41711139679261
 10
185.8131784839111
 20
15.1444195823311
 10
185.7043482802617
 20
15.24445482575458
 10
185.5514800279638
 20
15.27118593367331
 10
185.7686155181199
 20
15.48518135017632
 10
185.7838483674381
 20
15.70332117782485
 10
185.8906889492
 20
15.88451579066424
 10
185.8305380947078
 20
16.16913226311397
 10
185.9334317395402
 20
16.14114089222448
 10
185.9779933468149
 20
16.13243251602299
 10
186.0380842395397
 20
16.12139654183356
 10
186.0756619587438
 20
16.10767523055561
 10
186.1252466928606
 20
16.10756076160226
 10
186.0930158919325
 20
16.07306592398623
 10
186.0171802221881
 20
16.08404104537971
 10
186.0429447159693
 20
15.89858969582446
 10
186.005589676385
 20
15.80702313549583
 10
185.985770496161
 20
15.75844135397699
 72
     4
 94
        3
 73
     0
 74
     0
 95
       70
 96
       66
 40
0.0
 40
0.0
 40
0.0
 40
0.0
 40
0.0241731073021472
 40
0.0846058988986729
 40
0.1631685280352999
 40
0.2417311571788903
 40
0.3021639488291898
 40
0.3263370654894688
 40
0.3533118254248082
 40
0.4228783438921419
 40
0.5179999095312923
 40
0.6216398239465782
 40
0.7167613891499564
 40
0.7863279069649863
 40
0.8133026791761871
 40
0.8372943998771711
 40
0.8945054261372909
 40
0.962789554196297
 40
1.020000580349164
 40
1.043992300975263
 40
1.071934345523053
 40
1.113121768772986
 40
1.145225199332311
 40
1.225483775412856
 40
1.329819923771576
 40
1.434156071994473
 40
1.514414647795903
 40
1.546518078208513
 40
1.578974764260314
 40
1.662678849314253
 40
1.777131373668473
 40
1.901833377474864
 40
2.016285900500626
 40
2.099989982527964
 40
2.132446666570323
 40
2.158782354486043
 40
2.216720867907819
 40
2.274659381334232
 40
2.300995069256162
 40
2.333451754066135
 40
2.417155836543787
 40
2.531608358985226
 40
2.656310362283721
 40
2.770762886388825
 40
2.854466971339962
 40
2.886923657363769
 40
2.913597976833199
 40
2.982389642874992
 40
3.076451716946848
 40
3.178937260458449
 40
3.27299933473984
 40
3.341791001059056
 40
3.368465320663363
 40
3.396976080738585
 40
3.472140811845792
 40
3.578408190308482
 40
3.70022689245589
 40
3.822045594634107
 40
3.928312973256185
 40
4.003477705314583
 40
4.031988456866649
 40
4.05832414479745
 40
4.116262658236617
 40
4.174201171400424
 40
4.200536849608359
 40
4.200536849608359
 40
4.200536849608359
 40
4.200536849608359
 10
185.985770496161
 20
15.75844135397699
 10
185.993825954468
 20
15.7584435981168
 10
186.0220200663241
 20
15.75845146032791
 10
186.0765534803674
 20
15.75830754828366
 10
186.1482891808604
 20
15.75909120499892
 10
186.2236240137062
 20
15.75627570463806
 10
186.2713052366439
 20
15.76298403400951
 10
186.3195071245616
 20
15.75197563692427
 10
186.3062571799873
 20
15.80546402997028
 10
186.3151093964538
 20
15.86049583543087
 10
186.3108698036285
 20
15.95419908726107
 10
186.313348348128
 20
16.04959482218531
 10
186.309093870606
 20
16.14356821983388
 10
186.3179818665846
 20
16.19795062438013
 10
186.3046977409945
 20
16.25233997691464
 10
186.3514119277109
 20
16.2384221633536
 10
186.3943254545736
 20
16.24103877374045
 10
186.4605443456686
 20
16.23648422450755
 10
186.5013342271798
 20
16.22778162134162
 10
186.552514569082
 20
16.23531799890193
 10
186.5253720487201
 20
16.1934997022329
 10
186.4803096055708
 20
16.2028499207259
 10
186.4942065045051
 20
16.13841207371835
 10
186.4858414431655
 20
16.07378219627395
 10
186.4903632178399
 20
15.97529141193883
 10
186.4854741311167
 20
15.87595932842565
 10
186.4950258992082
 20
15.81293115552963
 10
186.4799761455201
 20
15.74964011499782
 10
186.5449159457209
 20
15.76515072944263
 10
186.6116246399498
 20
15.75499387697806
 10
186.7241435470828
 20
15.75988800099361
 10
186.8390235448954
 20
15.75691204732777
 10
186.9519871999746
 20
15.76221664184985
 10
187.0176267597679
 20
15.75107306472083
 10
187.0816276691052
 20
15.76744532319851
 10
187.070314288919
 20
15.7176168990527
 10
187.0775339871509
 20
15.67416715212118
 10
187.0703142611269
 20
15.63071745587441
 10
187.0816277175994
 20
15.58088895196873
 10
187.0176263598972
 20
15.59726166091359
 10
186.9519921240459
 20
15.58611271661585
 10
186.838997431733
 20
15.59144857206851
 10
186.7242456548643
 20
15.58834345663819
 10
186.6113183686861
 20
15.59364894682585
 10
186.5455220903585
 20
15.58257300019591
 10
186.4816097975358
 20
15.59887597847614
 10
186.4936015165127
 20
15.54423524395739
 10
186.4862104613006
 20
15.4885429504784
 10
186.4892684841984
 20
15.39649689140569
 10
186.4893422785684
 20
15.30179109873102
 10
186.486031357836
 20
15.20952782902267
 10
186.4939505989904
 20
15.15435768736142
 10
186.4815076611618
 20
15.10058169100139
 10
186.5389116551632
 20
15.11453768862784
 10
186.5994708140383
 20
15.10511457884229
 10
186.7048680855081
 20
15.10942885928707
 10
186.8204294070623
 20
15.10835504612034
 10
186.9359688877797
 20
15.10725965900998
 10
187.0414181130841
 20
15.11162525770635
 10
187.1018680471803
 20
15.10209426030674
 10
187.159283773911
 20
15.11617289606382
 10
187.1477773876708
 20
15.06707153265685
 10
187.153756678175
 20
15.02564658018651
 10
187.1520311050801
 20
14.97651677966697
 10
187.1521500122971
 20
14.94854428447609
 10
187.1521871691833
 20
14.93980288195951
 72
     4
 94
        3
 73
     0
 74
     0
 95
       62
 96
       58
 40
0.0
 40
0.0
 40
0.0
 40
0.0
 40
0.0598250028308485
 40
0.2024846486897331
 40
0.3727558389221031
 40
0.515415484793607
 40
0.5752404975785339
 40
0.9332326775487306
 40
1.290451762839476
 40
1.602077253145863
 40
1.699931634112125
 40
1.799359756425068
 40
2.270120149657139
 40
2.804661928461527
 40
2.88234228738324
 40
3.076543185719096
 40
3.329004354835563
 40
3.581465524568395
 40
3.775666424543681
 40
3.853346784558302
 40
3.899120679595077
 40
3.984129341792103
 40
4.02990323681748
 40
4.10579749605964
 40
4.295533144152614
 40
4.542189486611873
 40
4.788845828875839
 40
4.978581476410236
 40
5.054475735244484
 40
5.621734664339552
 40
6.130867242037563
 40
6.225249780948805
 40
6.31891303972751
 40
6.663579954559131
 40
7.04749890022501
 40
7.435230791575946
 40
7.498943906668358
 40
7.650875181210352
 40
7.832212509001862
 40
7.984143783697248
 40
8.047856898903376
 40
8.091554632732887
 40
8.172707566964554
 40
8.216405300768281
 40
8.289021782161166
 40
8.46218416075754
 40
8.66886183800562
 40
8.842024215264212
 40
8.914640695475407
 40
8.989881580861603
 40
9.155411528827491
 40
9.320941477744254
 40
9.396182352487497
 40
9.454709011144043
 40
9.583467660170978
 40
9.712226309013257
 40
9.77075295798971
 40
9.77075295798971
 40
9.77075295798971
 40
9.77075295798971
 10
187.1521871691833
 20
14.93980288195951
 10
187.1322348171623
 20
14.93980875568673
 10
187.0647037716466
 20
14.93982863806158
 10
186.9410612161788
 20
14.93949362520326
 10
186.7863180150056
 20
14.94107673750513
 10
186.669734948248
 20
14.93686078860496
 10
186.455094263424
 20
14.95215205331627
 10
186.8518948407228
 20
14.59198721286193
 10
186.8945656069267
 20
14.37510503397164
 10
187.3189162146611
 20
14.19325062511454
 10
187.1439821496074
 20
14.08985196568069
 10
187.0194523925083
 20
13.87831523212724
 10
186.7666277235944
 20
14.34806081001557
 10
186.4797602893627
 20
14.99511516984519
 10
186.4906335926661
 20
14.68782672154692
 10
186.488289277796
 20
14.52288616971777
 10
186.4861096126411
 20
14.28879670711691
 10
186.4980774396348
 20
14.04498072421781
 10
186.4687984740631
 20
13.89855796860981
 10
186.5114522625471
 20
13.75113490174534
 10
186.423981400564
 20
13.76685797306217
 10
186.3768527606745
 20
13.76694303543452
 10
186.2898973207713
 20
13.75109425482906
 10
186.3313474021723
 20
13.8952777142276
 10
186.3029875004285
 20
14.03855052698454
 10
186.31459737753
 20
14.27674947365266
 10
186.3124175648272
 20
14.50517235240348
 10
186.3103111127994
 20
14.66705729375998
 10
186.3208035438323
 20
14.98153709333757
 10
186.0128963252894
 20
14.29229470872441
 10
185.7055258267453
 20
13.81476750243039
 10
185.5851367066275
 20
14.03741112637432
 10
185.407460791072
 20
14.15011034955555
 10
185.8853326362895
 20
14.32548143465463
 10
185.9353959057208
 20
14.56091929252026
 10
186.3583799621716
 20
14.95322989344608
 10
186.127675427354
 20
14.93655307029067
 10
186.004968585934
 20
14.94269518948772
 10
185.8325483095661
 20
14.93312822699574
 10
185.7213224694448
 20
14.95448818489667
 10
185.6025779627448
 20
14.92136265357421
 10
185.6183169706686
 20
15.00203900606885
 10
185.6178550933763
 20
15.04645414290856
 10
185.6027881889931
 20
15.12967081778536
 10
185.7372380935444
 20
15.09062651983886
 10
185.8619755545747
 20
15.11739729328425
 10
186.062875523728
 20
15.10063949044055
 10
186.1921540949352
 20
15.12204225913007
 10
186.3328419928295
 20
15.08868778853424
 10
186.2980927452615
 20
15.22651875785069
 10
186.3222185666713
 20
15.34963257349481
 10
186.2967086182392
 20
15.47024055670334
 10
186.3333251146685
 20
15.60539865141492
 10
186.2211417027769
 20
15.58094545781888
 10
186.1280356457136
 20
15.59307749842019
 10
186.0191547579819
 20
15.58957630069991
 10
185.9569697640964
 20
15.589817559516
 10
185.9375369557246
 20
15.58989295124141
 97
        3
330
AF
330
B0
330
AE
 75
     1
 76
     2
 52
45.0
 41
0.1
 77
     0
 78
     1
 53
45.0
 43
0.0
 44
0.0
 45
-0.282842712474619
 46
0.0
 79
     0
 98
        1
 10
0.0
 20
0.0
  0
HATCH
  5
CC
330
48
100
AcDbEntity
  8
1
  6
Continuous
 62
     2
100
AcDbHatch
 10
0.0
 20
0.0
 30
0.0
210
0.0
220
0.0
230
1.0
  2
CUSTOM14
 70
     0
 71
     1
 91
        1
 92
        1
 93
        4
 72
     1
 10
192.4578138032672
 20
15.2287543402206
 11
191.1602971697031
 21
15.2287543402206
 72
     1
 10
191.1602971697031
 20
15.2287543402206
 11
191.1602971697031
 21
15.39722336795629
 72
     1
 10
191.1602971697031
 20
15.39722336795629
 11
192.4578138032672
 21
15.39722336795629
 72
     1
 10
192.4578138032672
 20
15.39722336795629
 11
192.4578138032672
 21
15.2287543402206
 97
        1
330
B1
 75
     1
 76
     2
 52
45.0
 41
0.1
 77
     0
 78
     1
 53
45.0
 43
0.0
 44
0.0
 45
-0.282842712474619
 46
0.0
 79
     0
 98
        1
 10
0.0
 20
0.0
  0
ENDBLK
  5
4A
330
48
100
AcDbEntity
  8
0
100
AcDbBlockEnd
  0
BLOCK
  5
4D
330
4B
100
AcDbEntity
  8
0
100
AcDbBlockBegin
  2
開示A4枠
 70
     0
 10
0.0
 20
0.0
 30
0.0
  3
開示A4枠
  1

  0
INSERT
  5
4C
330
4B
100
AcDbEntity
  8
1
100
AcDbBlockReference
  2
開示A4
 10
0.0
 20
0.0
 30
0.0
  0
ENDBLK
  5
4E
330
4B
100
AcDbEntity
  8
0
100
AcDbBlockEnd
  0
BLOCK
  5
173
330
16C
100
AcDbEntity
  8
0
100
AcDbBlockBegin
  2
*D3
 70
     1
 10
0.0
 20
0.0
 30
0.0
  3
*D3
  1

  0
LINE
  5
16D
330
16C
100
AcDbEntity
  8
1
  6
Continuous
 62
     2
100
AcDbLine
 10
67.99779478894158
 20
205.7235948635365
 30
0.0
 11
99.17470932518137
 21
205.7235948635365
 31
0.0
  0
LINE
  5
16E
330
16C
100
AcDbEntity
  8
1
  6
Continuous
 62
     2
100
AcDbLine
 10
99.17470932518137
 20
181.7078944630094
 30
0.0
 11
99.17470932518137
 21
206.7235948635365
 31
0.0
  0
LINE
  5
16F
330
16C
100
AcDbEntity
  8
1
  6
Continuous
 62
     2
100
AcDbLine
 10
67.99779478894158
 20
181.7078944630094
 30
0.0
 11
67.99779478894158
 21
206.7235948635365
 31
0.0
  0
SOLID
  5
170
330
16C
100
AcDbEntity
  8
1
 62
     2
100
AcDbTrace
 10
71.49779478894158
 20
206.1843786050924
 30
0.0
 11
71.49779478894158
 21
205.2628111219806
 31
0.0
 12
67.99779478894158
 22
205.7235948635365
 32
0.0
 13
67.99779478894158
 23
205.7235948635365
 33
0.0
  0
SOLID
  5
171
330
16C
100
AcDbEntity
  8
1
 62
     2
100
AcDbTrace
 10
95.67470932518137
 20
205.2628111219806
 30
0.0
 11
95.67470932518137
 21
206.1843786050924
 31
0.0
 12
99.17470932518137
 22
205.7235948635365
 32
0.0
 13
99.17470932518137
 23
205.7235948635365
 33
0.0
  0
MTEXT
  5
172
330
16C
100
AcDbEntity
  8
1
 62
     7
100
AcDbMText
 10
81.98506141583047
 20
206.7235948635365
 30
0.0
 40
3.5
 41
0.0
 71
     7
 72
     1
  1
32
  7
CONVERTER_12
 11
0.9999999999970619
 21
2.424068405545306E-6
 31
0.0
 73
     1
 44
0.60024009603842
  0
ENDBLK
  5
174
330
16C
100
AcDbEntity
  8
0
100
AcDbBlockEnd
  0
BLOCK
  5
17E
330
177
100
AcDbEntity
  8
0
100
AcDbBlockBegin
  2
*D4
 70
     1
 10
0.0
 20
0.0
 30
0.0
  3
*D4
  1

  0
LINE
  5
178
330
177
100
AcDbEntity
  8
1
  6
Continuous
 62
     2
100
AcDbLine
 10
58.53783424719326
 20
136.876668566311
 30
0.0
 11
58.53783424719326
 21
124.876668566311
 31
0.0
  0
LINE
  5
179
330
177
100
AcDbEntity
  8
1
  6
Continuous
 62
     2
100
AcDbLine
 10
70.08625205706146
 20
124.876668566311
 30
0.0
 11
57.53783424719326
 21
124.876668566311
 31
0.0
  0
LINE
  5
17A
330
177
100
AcDbEntity
  8
1
  6
Continuous
 62
     2
100
AcDbLine
 10
71.58625205706146
 20
136.876668566311
 30
0.0
 11
57.53783424719326
 21
136.876668566311
 31
0.0
  0
SOLID
  5
17B
330
177
100
AcDbEntity
  8
1
 62
     2
100
AcDbTrace
 10
58.99861798874915
 20
133.376668566311
 30
0.0
 11
58.07705050563737
 21
133.376668566311
 31
0.0
 12
58.53783424719326
 22
136.876668566311
 32
0.0
 13
58.53783424719326
 23
136.876668566311
 33
0.0
  0
SOLID
  5
17C
330
177
100
AcDbEntity
  8
1
 62
     2
100
AcDbTrace
 10
58.07705050563737
 20
128.376668566311
 30
0.0
 11
58.99861798874915
 21
128.376668566311
 31
0.0
 12
58.53783424719326
 22
124.876668566311
 32
0.0
 13
58.53783424719326
 23
124.876668566311
 33
0.0
  0
MTEXT
  5
17D
330
177
100
AcDbEntity
  8
1
 62
     7
100
AcDbMText
 10
57.53783424719326
 20
128.8187947065595
 30
0.0
 40
3.5
 41
0.0
 71
     7
 72
     1
  1
12
  7
CONVERTER_12
 11
0.0
 21
1.0
 31
0.0
 73
     1
 44
0.60024009603842
  0
ENDBLK
  5
17F
330
177
100
AcDbEntity
  8
0
100
AcDbBlockEnd
  0
BLOCK
  5
189
330
182
100
AcDbEntity
  8
0
100
AcDbBlockBegin
  2
*D5
 70
     1
 10
0.0
 20
0.0
 30
0.0
  3
*D5
  1

  0
LINE
  5
183
330
182
100
AcDbEntity
  8
1
  6
Continuous
 62
     2
100
AcDbLine
 10
51.14822804484307
 20
136.876668566311
 30
0.0
 11
51.14822804484307
 21
106.876668566311
 31
0.0
  0
LINE
  5
184
330
182
100
AcDbEntity
  8
1
  6
Continuous
 62
     2
100
AcDbLine
 10
71.58625205706146
 20
106.876668566311
 30
0.0
 11
50.14822804484307
 21
106.876668566311
 31
0.0
  0
LINE
  5
185
330
182
100
AcDbEntity
  8
1
  6
Continuous
 62
     2
100
AcDbLine
 10
71.58625205706146
 20
136.876668566311
 30
0.0
 11
50.14822804484307
 21
136.876668566311
 31
0.0
  0
SOLID
  5
186
330
182
100
AcDbEntity
  8
1
 62
     2
100
AcDbTrace
 10
51.60901178639896
 20
133.376668566311
 30
0.0
 11
50.68744430328719
 21
133.376668566311
 31
0.0
 12
51.14822804484307
 22
136.876668566311
 32
0.0
 13
51.14822804484307
 23
136.876668566311
 33
0.0
  0
SOLID
  5
187
330
182
100
AcDbEntity
  8
1
 62
     2
100
AcDbTrace
 10
50.68744430328719
 20
110.376668566311
 30
0.0
 11
51.60901178639896
 21
110.376668566311
 31
0.0
 12
51.14822804484307
 22
106.876668566311
 32
0.0
 13
51.14822804484307
 23
106.876668566311
 33
0.0
  0
MTEXT
  5
188
330
182
100
AcDbEntity
  8
1
 62
     7
100
AcDbMText
 10
50.14822804484307
 20
118.103916680161
 30
0.0
 40
3.5
 41
0.0
 71
     7
 72
     1
  1
30
  7
CONVERTER_12
 11
0.0
 21
1.0
 31
0.0
 73
     1
 44
0.60024009603842
  0
ENDBLK
  5
18A
330
182
100
AcDbEntity
  8
0
100
AcDbBlockEnd
  0
BLOCK
  5
194
330
18D
100
AcDbEntity
  8
0
100
AcDbBlockBegin
  2
*D6
 70
     1
 10
0.0
 20
0.0
 30
0.0
  3
*D6
  1

  0
LINE
  5
18E
330
18D
100
AcDbEntity
  8
1
  6
Continuous
 62
     2
100
AcDbLine
 10
114.143202958162
 20
195.2078944630094
 30
0.0
 11
114.143202958162
 21
168.2078944630094
 31
0.0
  0
LINE
  5
18F
330
18D
100
AcDbEntity
  8
1
  6
Continuous
 62
     2
100
AcDbLine
 10
91.38048069112143
 20
168.2078944630094
 30
0.0
 11
115.143202958162
 21
168.2078944630094
 31
0.0
  0
LINE
  5
190
330
18D
100
AcDbEntity
  8
1
  6
Continuous
 62
     2
100
AcDbLine
 10
91.38048069112145
 20
195.2078944630094
 30
0.0
 11
115.143202958162
 21
195.2078944630094
 31
0.0
  0
SOLID
  5
191
330
18D
100
AcDbEntity
  8
1
 62
     2
100
AcDbTrace
 10
114.6039866997179
 20
191.7078944630094
 30
0.0
 11
113.6824192166061
 21
191.7078944630094
 31
0.0
 12
114.143202958162
 22
195.2078944630094
 32
0.0
 13
114.143202958162
 23
195.2078944630094
 33
0.0
  0
SOLID
  5
192
330
18D
100
AcDbEntity
  8
1
 62
     2
100
AcDbTrace
 10
113.6824192166061
 20
171.7078944630094
 30
0.0
 11
114.6039866997179
 21
171.7078944630094
 31
0.0
 12
114.143202958162
 22
168.2078944630094
 32
0.0
 13
114.143202958162
 23
168.2078944630094
 33
0.0
  0
MTEXT
  5
193
330
18D
100
AcDbEntity
  8
1
 62
     7
100
AcDbMText
 10
113.143202958162
 20
178.6331980329321
 30
0.0
 40
3.5
 41
0.0
 71
     7
 72
     1
  1
27
  7
CONVERTER_12
 11
0.0
 21
1.0
 31
0.0
 73
     1
 44
0.60024009603842
  0
ENDBLK
  5
195
330
18D
100
AcDbEntity
  8
0
100
AcDbBlockEnd
  0
BLOCK
  5
19F
330
198
100
AcDbEntity
  8
0
100
AcDbBlockBegin
  2
*D7
 70
     1
 10
0.0
 20
0.0
 30
0.0
  3
*D7
  1

  0
LINE
  5
199
330
198
100
AcDbEntity
  8
0
  6
Continuous
 62
     2
100
AcDbLine
 10
58.57904753533057
 20
118.876668566311
 30
0.0
 11
58.57904753533057
 21
106.876668566311
 31
0.0
  0
LINE
  5
19A
330
198
100
AcDbEntity
  8
0
  6
Continuous
 62
     2
100
AcDbLine
 10
71.58625205706144
 20
106.876668566311
 30
0.0
 11
57.57904753533057
 21
106.876668566311
 31
0.0
  0
LINE
  5
19B
330
198
100
AcDbEntity
  8
0
  6
Continuous
 62
     2
100
AcDbLine
 10
70.08625205706144
 20
118.876668566311
 30
0.0
 11
57.57904753533057
 21
118.876668566311
 31
0.0
  0
SOLID
  5
19C
330
198
100
AcDbEntity
  8
0
 62
     2
100
AcDbTrace
 10
59.03983127688645
 20
115.376668566311
 30
0.0
 11
58.11826379377468
 21
115.376668566311
 31
0.0
 12
58.57904753533057
 22
118.876668566311
 32
0.0
 13
58.57904753533057
 23
118.876668566311
 33
0.0
  0
SOLID
  5
19D
330
198
100
AcDbEntity
  8
0
 62
     2
100
AcDbTrace
 10
58.11826379377468
 20
110.376668566311
 30
0.0
 11
59.03983127688645
 21
110.376668566311
 31
0.0
 12
58.57904753533057
 22
106.876668566311
 32
0.0
 13
58.57904753533057
 23
106.876668566311
 33
0.0
  0
MTEXT
  5
19E
330
198
100
AcDbEntity
  8
0
 62
     7
100
AcDbMText
 10
57.57904753533057
 20
112.965205700635
 30
0.0
 40
3.5
 41
0.0
 71
     7
 72
     1
  1
12
  7
CONVERTER_12
 11
0.0
 21
1.0
 31
0.0
 73
     1
 44
0.60024009603842
  0
ENDBLK
  5
1A0
330
198
100
AcDbEntity
  8
0
100
AcDbBlockEnd
  0
BLOCK
  5
1A8
330
1A3
100
AcDbEntity
  8
0
100
AcDbBlockBegin
  2
*D8
 70
     1
 10
0.0
 20
0.0
 30
0.0
  3
*D8
  1

  0
LINE
  5
1A4
330
1A3
100
AcDbEntity
  8
0
  6
Continuous
 62
     2
100
AcDbLine
 10
95.86601396081994
 20
188.9376902821873
 30
0.0
 11
61.52619871210582
 21
168.7198835639229
 31
0.0
  0
SOLID
  5
1A5
330
1A3
100
AcDbEntity
  8
0
 62
     2
100
AcDbTrace
 10
73.04831160592215
 20
174.9688935945777
 30
0.0
 11
72.58075057178239
 21
175.763043017094
 31
0.0
 12
75.83061295995086
 22
177.1417076298444
 32
0.0
 13
75.83061295995086
 23
177.1417076298444
 33
0.0
  0
SOLID
  5
1A6
330
1A3
100
AcDbEntity
  8
0
 62
     2
100
AcDbTrace
 10
94.12419250820079
 20
188.4468953314412
 30
0.0
 11
94.59175354234056
 21
187.6527459089248
 31
0.0
 12
91.34189115417209
 22
186.2740812961744
 32
0.0
 13
91.34189115417209
 23
186.2740812961744
 33
0.0
  0
MTEXT
  5
1A7
330
1A3
100
AcDbEntity
  8
0
 62
     7
100
AcDbMText
 10
62.16495573054939
 20
170.2564021845029
 30
0.0
 40
3.5
 41
0.0
 71
     7
 72
     1
  1
\C7;{\Fgdt;n}\C7;18
  7
CONVERTER_12
 11
0.8617376774567345
 21
0.5073540925738877
 31
0.0
 73
     1
 44
0.60024009603842
  0
ENDBLK
  5
1A9
330
1A3
100
AcDbEntity
  8
0
100
AcDbBlockEnd
  0
ENDSEC
  0
SECTION
  2
ENTITIES
  0
INSERT
  5
4F
330
1F
100
AcDbEntity
  8
0
100
AcDbBlockReference
  2
開示A4枠
 10
0.0
 20
0.0
 30
0.0
  0
LINE
  5
CD
330
1F
100
AcDbEntity
  8
1
  6
DASH_CENTER
 62
     2
100
AcDbLine
 10
156.0857853982293
 20
120.0824399322511
 30
0.0
 11
156.0857853982293
 21
114.2982075972283
 31
0.0
  0
LINE
  5
CE
330
1F
100
AcDbEntity
  8
1
  6
DASH_CENTER
 62
     2
100
AcDbLine
 10
156.0857853982293
 20
123.6708972003709
 30
0.0
 11
156.0857853982293
 21
120.0824399322511
 31
0.0
  0
LINE
  5
CF
330
1F
100
AcDbEntity
  8
1
  6
Continuous
 62
     7
100
AcDbLine
 10
156.0857853982293
 20
120.0824399322511
 30
0.0
 11
156.0857853982293
 21
123.6708972003709
 31
0.0
  0
LINE
  5
D0
330
1F
100
AcDbEntity
  8
1
  6
Continuous
 62
     7
100
AcDbLine
 10
156.0857853982293
 20
108.076668566311
 30
0.0
 11
169.2857853982293
 21
108.076668566311
 31
0.0
  0
LINE
  5
D1
330
1F
100
AcDbEntity
  8
1
  6
Continuous
 62
     7
100
AcDbLine
 10
156.0857853982293
 20
114.2982075972283
 30
0.0
 11
169.2857853982293
 21
114.2982075972283
 31
0.0
  0
LINE
  5
D2
330
1F
100
AcDbEntity
  8
1
  6
Continuous
 62
     7
100
AcDbLine
 10
156.0857853982293
 20
116.376668566311
 30
0.0
 11
168.0857853982293
 21
116.376668566311
 31
0.0
  0
LINE
  5
D3
330
1F
100
AcDbEntity
  8
1
  6
Continuous
 62
     7
100
AcDbLine
 10
169.5857853982293
 20
118.876668566311
 30
0.0
 11
142.5857853982293
 21
118.876668566311
 31
0.0
  0
LINE
  5
D4
330
1F
100
AcDbEntity
  8
1
  6
Continuous
 62
     7
100
AcDbLine
 10
169.5857853982293
 20
118.876668566311
 30
0.0
 11
169.5857853982293
 21
124.876668566311
 31
0.0
  0
LINE
  5
D5
330
1F
100
AcDbEntity
  8
1
  6
Continuous
 62
     7
100
AcDbLine
 10
169.5857853982293
 20
124.876668566311
 30
0.0
 11
142.5857853982293
 21
124.876668566311
 31
0.0
  0
LINE
  5
D6
330
1F
100
AcDbEntity
  8
1
  6
Continuous
 62
     7
100
AcDbLine
 10
168.0857853982293
 20
127.376668566311
 30
0.0
 11
156.0857853982293
 21
127.376668566311
 31
0.0
  0
LINE
  5
D7
330
1F
100
AcDbEntity
  8
1
  6
Continuous
 62
     7
100
AcDbLine
 10
169.2857853982293
 20
135.676668566311
 30
0.0
 11
156.0857853982293
 21
135.676668566311
 31
0.0
  0
LINE
  5
D8
330
1F
100
AcDbEntity
  8
1
  6
Continuous
 62
     7
100
AcDbLine
 10
156.0857853982293
 20
129.4551295353937
 30
0.0
 11
169.2857853982293
 21
129.4551295353937
 31
0.0
  0
LINE
  5
D9
330
1F
100
AcDbEntity
  8
1
  6
DASH_CENTER
 62
     2
100
AcDbLine
 10
156.0857853982293
 20
129.4551295353937
 30
0.0
 11
156.0857853982293
 21
123.6708972003709
 31
0.0
  0
LINE
  5
DA
330
1F
100
AcDbEntity
  8
1
  6
Continuous
 62
     7
100
AcDbLine
 10
142.8857853982293
 20
129.4551295353937
 30
0.0
 11
156.0857853982293
 21
129.4551295353937
 31
0.0
  0
LINE
  5
DB
330
1F
100
AcDbEntity
  8
1
  6
Continuous
 62
     7
100
AcDbLine
 10
156.0857853982293
 20
135.676668566311
 30
0.0
 11
142.8857853982293
 21
135.676668566311
 31
0.0
  0
LINE
  5
DC
330
1F
100
AcDbEntity
  8
1
  6
Continuous
 62
     7
100
AcDbLine
 10
167.8357853982293
 20
116.376668566311
 30
0.0
 11
168.0857853982293
 21
116.376668566311
 31
0.0
  0
LINE
  5
DD
330
1F
100
AcDbEntity
  8
1
  6
Continuous
 62
     7
100
AcDbLine
 10
168.0857853982293
 20
114.2982075972283
 30
0.0
 11
169.2857853982293
 21
114.2982075972283
 31
0.0
  0
LINE
  5
DE
330
1F
100
AcDbEntity
  8
1
  6
Continuous
 62
     7
100
AcDbLine
 10
168.0857853982293
 20
108.076668566311
 30
0.0
 11
169.2857853982293
 21
108.076668566311
 31
0.0
  0
LINE
  5
DF
330
1F
100
AcDbEntity
  8
1
  6
Continuous
 62
     7
100
AcDbLine
 10
156.0857853982293
 20
136.876668566311
 30
0.0
 11
168.0857853982293
 21
136.876668566311
 31
0.0
  0
LINE
  5
E0
330
1F
100
AcDbEntity
  8
1
  6
Continuous
 62
     7
100
AcDbLine
 10
168.0857853982293
 20
106.876668566311
 30
0.0
 11
156.0857853982293
 21
106.876668566311
 31
0.0
  0
LINE
  5
E1
330
1F
100
AcDbEntity
  8
1
  6
Continuous
 62
     7
100
AcDbLine
 10
144.3357853982293
 20
127.376668566311
 30
0.0
 11
144.3357853982293
 21
124.876668566311
 31
0.0
  0
LINE
  5
E2
330
1F
100
AcDbEntity
  8
1
  6
Continuous
 62
     7
100
AcDbLine
 10
167.8357853982293
 20
124.876668566311
 30
0.0
 11
167.8357853982293
 21
127.376668566311
 31
0.0
  0
LINE
  5
E3
330
1F
100
AcDbEntity
  8
1
  6
Continuous
 62
     7
100
AcDbLine
 10
169.2857853982293
 20
129.4551295353937
 30
0.0
 11
168.0857853982293
 21
129.4551295353937
 31
0.0
  0
LINE
  5
E4
330
1F
100
AcDbEntity
  8
1
  6
Continuous
 62
     7
100
AcDbLine
 10
169.2857853982293
 20
135.676668566311
 30
0.0
 11
168.0857853982293
 21
135.676668566311
 31
0.0
  0
LINE
  5
E5
330
1F
100
AcDbEntity
  8
1
  6
Continuous
 62
     7
100
AcDbLine
 10
168.0857853982293
 20
136.876668566311
 30
0.0
 11
169.2857853982293
 21
135.676668566311
 31
0.0
  0
LINE
  5
E6
330
1F
100
AcDbEntity
  8
1
  6
Continuous
 62
     7
100
AcDbLine
 10
169.2857853982293
 20
129.4551295353937
 30
0.0
 11
169.2857853982293
 21
135.676668566311
 31
0.0
  0
LINE
  5
E7
330
1F
100
AcDbEntity
  8
1
  6
Continuous
 62
     7
100
AcDbLine
 10
168.0857853982293
 20
127.376668566311
 30
0.0
 11
167.8357853982293
 21
127.376668566311
 31
0.0
  0
LINE
  5
E8
330
1F
100
AcDbEntity
  8
1
  6
Continuous
 62
     7
100
AcDbLine
 10
168.0857853982293
 20
127.376668566311
 30
0.0
 11
169.2857853982293
 21
129.4551295353937
 31
0.0
  0
LINE
  5
E9
330
1F
100
AcDbEntity
  8
1
  6
Continuous
 62
     2
100
AcDbLine
 10
168.0857853982293
 20
127.376668566311
 30
0.0
 11
168.0857853982293
 21
136.876668566311
 31
0.0
  0
LINE
  5
EA
330
1F
100
AcDbEntity
  8
1
  6
Continuous
 62
     7
100
AcDbLine
 10
142.8857853982293
 20
135.676668566311
 30
0.0
 11
144.0857853982293
 21
136.876668566311
 31
0.0
  0
LINE
  5
EB
330
1F
100
AcDbEntity
  8
1
  6
Continuous
 62
     7
100
AcDbLine
 10
142.8857853982293
 20
135.676668566311
 30
0.0
 11
142.8857853982293
 21
129.4551295353937
 31
0.0
  0
LINE
  5
EC
330
1F
100
AcDbEntity
  8
1
  6
Continuous
 62
     7
100
AcDbLine
 10
156.0857853982293
 20
127.376668566311
 30
0.0
 11
144.0857853982293
 21
127.376668566311
 31
0.0
  0
LINE
  5
ED
330
1F
100
AcDbEntity
  8
1
  6
Continuous
 62
     7
100
AcDbLine
 10
142.8857853982293
 20
129.4551295353937
 30
0.0
 11
144.0857853982293
 21
127.376668566311
 31
0.0
  0
LINE
  5
EE
330
1F
100
AcDbEntity
  8
1
  6
Continuous
 62
     7
100
AcDbLine
 10
144.0857853982293
 20
136.876668566311
 30
0.0
 11
156.0857853982293
 21
136.876668566311
 31
0.0
  0
LINE
  5
EF
330
1F
100
AcDbEntity
  8
1
  6
Continuous
 62
     2
100
AcDbLine
 10
144.0857853982293
 20
136.876668566311
 30
0.0
 11
144.0857853982293
 21
127.376668566311
 31
0.0
  0
LINE
  5
F0
330
1F
100
AcDbEntity
  8
1
  6
Continuous
 62
     7
100
AcDbLine
 10
167.8357853982293
 20
116.376668566311
 30
0.0
 11
167.8357853982293
 21
118.876668566311
 31
0.0
  0
LINE
  5
F1
330
1F
100
AcDbEntity
  8
1
  6
Continuous
 62
     7
100
AcDbLine
 10
169.2857853982293
 20
108.076668566311
 30
0.0
 11
168.0857853982293
 21
106.876668566311
 31
0.0
  0
LINE
  5
F2
330
1F
100
AcDbEntity
  8
1
  6
Continuous
 62
     7
100
AcDbLine
 10
169.2857853982293
 20
108.076668566311
 30
0.0
 11
169.2857853982293
 21
114.2982075972283
 31
0.0
  0
LINE
  5
F3
330
1F
100
AcDbEntity
  8
1
  6
Continuous
 62
     7
100
AcDbLine
 10
169.2857853982293
 20
114.2982075972283
 30
0.0
 11
168.0857853982293
 21
116.376668566311
 31
0.0
  0
LINE
  5
F4
330
1F
100
AcDbEntity
  8
1
  6
Continuous
 62
     2
100
AcDbLine
 10
168.0857853982293
 20
106.876668566311
 30
0.0
 11
168.0857853982293
 21
116.376668566311
 31
0.0
  0
LINE
  5
F5
330
1F
100
AcDbEntity
  8
1
  6
DASH_CENTER
 62
     2
100
AcDbLine
 10
156.0857853982293
 20
114.2982075972283
 30
0.0
 11
156.0857853982293
 21
108.076668566311
 31
0.0
  0
LINE
  5
F6
330
1F
100
AcDbEntity
  8
1
  6
Continuous
 62
     7
100
AcDbLine
 10
142.8857853982293
 20
114.2982075972283
 30
0.0
 11
156.0857853982293
 21
114.2982075972283
 31
0.0
  0
LINE
  5
F7
330
1F
100
AcDbEntity
  8
1
  6
DASH_CENTER
 62
     2
100
AcDbLine
 10
156.0857853982293
 20
108.076668566311
 30
0.0
 11
156.0857853982293
 21
103.209494771096
 31
0.0
  0
LINE
  5
F8
330
1F
100
AcDbEntity
  8
1
  6
Continuous
 62
     7
100
AcDbLine
 10
142.8857853982293
 20
108.076668566311
 30
0.0
 11
156.0857853982293
 21
108.076668566311
 31
0.0
  0
LINE
  5
F9
330
1F
100
AcDbEntity
  8
1
  6
Continuous
 62
     7
100
AcDbLine
 10
144.0857853982293
 20
106.876668566311
 30
0.0
 11
142.8857853982293
 21
108.076668566311
 31
0.0
  0
LINE
  5
FA
330
1F
100
AcDbEntity
  8
1
  6
Continuous
 62
     7
100
AcDbLine
 10
142.8857853982293
 20
114.2982075972283
 30
0.0
 11
142.8857853982293
 21
108.076668566311
 31
0.0
  0
LINE
  5
FB
330
1F
100
AcDbEntity
  8
1
  6
Continuous
 62
     7
100
AcDbLine
 10
144.0857853982293
 20
116.376668566311
 30
0.0
 11
156.0857853982293
 21
116.376668566311
 31
0.0
  0
LINE
  5
FC
330
1F
100
AcDbEntity
  8
1
  6
Continuous
 62
     7
100
AcDbLine
 10
144.0857853982293
 20
116.376668566311
 30
0.0
 11
142.8857853982293
 21
114.2982075972283
 31
0.0
  0
LINE
  5
FD
330
1F
100
AcDbEntity
  8
1
  6
Continuous
 62
     7
100
AcDbLine
 10
169.5857853982293
 20
124.876668566311
 30
0.0
 11
167.8357853982293
 21
124.876668566311
 31
0.0
  0
LINE
  5
FE
330
1F
100
AcDbEntity
  8
1
  6
Continuous
 62
     7
100
AcDbLine
 10
169.5857853982293
 20
118.876668566311
 30
0.0
 11
167.8357853982293
 21
118.876668566311
 31
0.0
  0
LINE
  5
FF
330
1F
100
AcDbEntity
  8
1
  6
Continuous
 62
     7
100
AcDbLine
 10
142.5857853982293
 20
124.876668566311
 30
0.0
 11
142.5857853982293
 21
118.876668566311
 31
0.0
  0
LINE
  5
100
330
1F
100
AcDbEntity
  8
1
  6
Continuous
 62
     7
100
AcDbLine
 10
144.3357853982293
 20
118.876668566311
 30
0.0
 11
144.3357853982293
 21
116.376668566311
 31
0.0
  0
LINE
  5
101
330
1F
100
AcDbEntity
  8
1
  6
Continuous
 62
     7
100
AcDbLine
 10
156.0857853982293
 20
106.876668566311
 30
0.0
 11
144.0857853982293
 21
106.876668566311
 31
0.0
  0
LINE
  5
102
330
1F
100
AcDbEntity
  8
1
  6
Continuous
 62
     2
100
AcDbLine
 10
144.0857853982293
 20
116.376668566311
 30
0.0
 11
144.0857853982293
 21
106.876668566311
 31
0.0
  0
LINE
  5
103
330
1F
100
AcDbEntity
  8
1
  6
DASH_CENTER
 62
     2
100
AcDbLine
 10
156.0857853982293
 20
140.209494771096
 30
0.0
 11
156.0857853982293
 21
129.4551295353937
 31
0.0
  0
LINE
  5
104
330
1F
100
AcDbEntity
  8
1
  6
Continuous
 62
     7
100
AcDbLine
 10
83.58625205706147
 20
108.076668566311
 30
0.0
 11
96.78625205706146
 21
108.076668566311
 31
0.0
  0
LINE
  5
105
330
1F
100
AcDbEntity
  8
1
  6
Continuous
 62
     7
100
AcDbLine
 10
83.58625205706147
 20
114.2982075972283
 30
0.0
 11
96.78625205706146
 21
114.2982075972283
 31
0.0
  0
LINE
  5
106
330
1F
100
AcDbEntity
  8
1
  6
Continuous
 62
     7
100
AcDbLine
 10
83.58625205706147
 20
116.376668566311
 30
0.0
 11
95.58625205706147
 21
116.376668566311
 31
0.0
  0
LINE
  5
107
330
1F
100
AcDbEntity
  8
1
  6
Continuous
 62
     7
100
AcDbLine
 10
97.08625205706147
 20
118.876668566311
 30
0.0
 11
83.58625205706147
 21
118.876668566311
 31
0.0
  0
LINE
  5
108
330
1F
100
AcDbEntity
  8
1
  6
Continuous
 62
     7
100
AcDbLine
 10
91.38048069112142
 20
120.0824399322511
 30
0.0
 11
91.38048069112142
 21
123.6708972003709
 31
0.0
  0
LINE
  5
109
330
1F
100
AcDbEntity
  8
1
  6
Continuous
 62
     7
100
AcDbLine
 10
97.08625205706147
 20
124.876668566311
 30
0.0
 11
83.58625205706147
 21
124.876668566311
 31
0.0
  0
LINE
  5
10A
330
1F
100
AcDbEntity
  8
1
  6
Continuous
 62
     7
100
AcDbLine
 10
95.58625205706147
 20
127.376668566311
 30
0.0
 11
83.58625205706147
 21
127.376668566311
 31
0.0
  0
LINE
  5
10B
330
1F
100
AcDbEntity
  8
1
  6
Continuous
 62
     7
100
AcDbLine
 10
96.78625205706146
 20
135.676668566311
 30
0.0
 11
83.58625205706147
 21
135.676668566311
 31
0.0
  0
LINE
  5
10C
330
1F
100
AcDbEntity
  8
1
  6
Continuous
 62
     7
100
AcDbLine
 10
83.58625205706147
 20
129.4551295353937
 30
0.0
 11
96.78625205706146
 21
129.4551295353937
 31
0.0
  0
LINE
  5
10D
330
1F
100
AcDbEntity
  8
1
  6
DASH_CENTER
 62
     2
100
AcDbLine
 10
92.58625205706147
 20
181.7078944630094
 30
0.0
 11
95.58625205706147
 21
181.7078944630094
 31
0.0
  0
LINE
  5
10E
330
1F
100
AcDbEntity
  8
1
  6
DASH_CENTER
 62
     2
100
AcDbLine
 10
95.58625205706147
 20
181.7078944630094
 30
0.0
 11
101.9734919944268
 21
181.7078944630094
 31
0.0
  0
LINE
  5
10F
330
1F
100
AcDbEntity
  8
1
  6
DASH_CENTER
 62
     2
100
AcDbLine
 10
83.58625205706147
 20
198.339370001325
 30
0.0
 11
83.58625205706147
 21
164.339370001325
 31
0.0
  0
LINE
  5
110
330
1F
100
AcDbEntity
  8
1
  6
DASH_CENTER
 62
     2
100
AcDbLine
 10
65.97349199442677
 20
181.7078944630094
 30
0.0
 11
92.58625205706147
 21
181.7078944630094
 31
0.0
  0
LINE
  5
111
330
1F
100
AcDbEntity
  8
1
  6
DASH_CENTER
 62
     2
100
AcDbLine
 10
83.58625205706147
 20
129.4551295353937
 30
0.0
 11
83.58625205706147
 21
114.2982075972283
 31
0.0
  0
LINE
  5
112
330
1F
100
AcDbEntity
  8
1
  6
Continuous
 62
     7
100
AcDbLine
 10
70.38625205706145
 20
129.4551295353937
 30
0.0
 11
83.58625205706147
 21
129.4551295353937
 31
0.0
  0
LINE
  5
113
330
1F
100
AcDbEntity
  8
1
  6
Continuous
 62
     7
100
AcDbLine
 10
83.58625205706147
 20
135.676668566311
 30
0.0
 11
70.38625205706145
 21
135.676668566311
 31
0.0
  0
LINE
  5
114
330
1F
100
AcDbEntity
  8
1
  6
Continuous
 62
     7
100
AcDbLine
 10
95.33625205706147
 20
116.376668566311
 30
0.0
 11
95.58625205706147
 21
116.376668566311
 31
0.0
  0
LINE
  5
115
330
1F
100
AcDbEntity
  8
1
  6
Continuous
 62
     7
100
AcDbLine
 10
95.58625205706147
 20
114.2982075972283
 30
0.0
 11
96.78625205706146
 21
114.2982075972283
 31
0.0
  0
LINE
  5
116
330
1F
100
AcDbEntity
  8
1
  6
Continuous
 62
     7
100
AcDbLine
 10
95.58625205706147
 20
108.076668566311
 30
0.0
 11
96.78625205706146
 21
108.076668566311
 31
0.0
  0
LINE
  5
117
330
1F
100
AcDbEntity
  8
1
  6
Continuous
 62
     7
100
AcDbLine
 10
83.58625205706147
 20
136.876668566311
 30
0.0
 11
95.58625205706147
 21
136.876668566311
 31
0.0
  0
LINE
  5
118
330
1F
100
AcDbEntity
  8
1
  6
Continuous
 62
     7
100
AcDbLine
 10
95.58625205706147
 20
106.876668566311
 30
0.0
 11
83.58625205706147
 21
106.876668566311
 31
0.0
  0
LINE
  5
119
330
1F
100
AcDbEntity
  8
1
  6
Continuous
 62
     7
100
AcDbLine
 10
71.83625205706146
 20
127.376668566311
 30
0.0
 11
71.83625205706146
 21
124.876668566311
 31
0.0
  0
LINE
  5
11A
330
1F
100
AcDbEntity
  8
1
  6
Continuous
 62
     7
100
AcDbLine
 10
95.33625205706147
 20
124.876668566311
 30
0.0
 11
95.33625205706147
 21
127.376668566311
 31
0.0
  0
LINE
  5
11B
330
1F
100
AcDbEntity
  8
1
  6
Continuous
 62
     7
100
AcDbLine
 10
96.78625205706146
 20
129.4551295353937
 30
0.0
 11
95.58625205706147
 21
129.4551295353937
 31
0.0
  0
LINE
  5
11C
330
1F
100
AcDbEntity
  8
1
  6
Continuous
 62
     7
100
AcDbLine
 10
96.78625205706146
 20
135.676668566311
 30
0.0
 11
95.58625205706147
 21
135.676668566311
 31
0.0
  0
LINE
  5
11D
330
1F
100
AcDbEntity
  8
1
  6
Continuous
 62
     7
100
AcDbLine
 10
95.58625205706147
 20
136.876668566311
 30
0.0
 11
96.78625205706146
 21
135.676668566311
 31
0.0
  0
LINE
  5
11E
330
1F
100
AcDbEntity
  8
1
  6
Continuous
 62
     7
100
AcDbLine
 10
96.78625205706146
 20
129.4551295353937
 30
0.0
 11
96.78625205706146
 21
135.676668566311
 31
0.0
  0
LINE
  5
11F
330
1F
100
AcDbEntity
  8
1
  6
Continuous
 62
     7
100
AcDbLine
 10
95.58625205706147
 20
127.376668566311
 30
0.0
 11
95.33625205706147
 21
127.376668566311
 31
0.0
  0
LINE
  5
120
330
1F
100
AcDbEntity
  8
1
  6
Continuous
 62
     7
100
AcDbLine
 10
95.58625205706147
 20
127.376668566311
 30
0.0
 11
96.78625205706146
 21
129.4551295353937
 31
0.0
  0
LINE
  5
121
330
1F
100
AcDbEntity
  8
1
  6
Continuous
 62
     2
100
AcDbLine
 10
95.58625205706147
 20
127.376668566311
 30
0.0
 11
95.58625205706147
 21
136.876668566311
 31
0.0
  0
LINE
  5
122
330
1F
100
AcDbEntity
  8
1
  6
Continuous
 62
     7
100
AcDbLine
 10
70.38625205706145
 20
135.676668566311
 30
0.0
 11
71.58625205706146
 21
136.876668566311
 31
0.0
  0
LINE
  5
123
330
1F
100
AcDbEntity
  8
1
  6
Continuous
 62
     7
100
AcDbLine
 10
70.38625205706145
 20
135.676668566311
 30
0.0
 11
70.38625205706145
 21
129.4551295353937
 31
0.0
  0
LINE
  5
124
330
1F
100
AcDbEntity
  8
1
  6
Continuous
 62
     7
100
AcDbLine
 10
83.58625205706147
 20
127.376668566311
 30
0.0
 11
71.58625205706146
 21
127.376668566311
 31
0.0
  0
LINE
  5
125
330
1F
100
AcDbEntity
  8
1
  6
Continuous
 62
     7
100
AcDbLine
 10
70.38625205706145
 20
129.4551295353937
 30
0.0
 11
71.58625205706146
 21
127.376668566311
 31
0.0
  0
LINE
  5
126
330
1F
100
AcDbEntity
  8
1
  6
Continuous
 62
     7
100
AcDbLine
 10
71.58625205706146
 20
136.876668566311
 30
0.0
 11
83.58625205706147
 21
136.876668566311
 31
0.0
  0
LINE
  5
127
330
1F
100
AcDbEntity
  8
1
  6
Continuous
 62
     2
100
AcDbLine
 10
71.58625205706146
 20
136.876668566311
 30
0.0
 11
71.58625205706146
 21
127.376668566311
 31
0.0
  0
LINE
  5
128
330
1F
100
AcDbEntity
  8
1
  6
Continuous
 62
     7
100
AcDbLine
 10
95.33625205706147
 20
116.376668566311
 30
0.0
 11
95.33625205706147
 21
118.876668566311
 31
0.0
  0
LINE
  5
129
330
1F
100
AcDbEntity
  8
1
  6
Continuous
 62
     7
100
AcDbLine
 10
96.78625205706146
 20
108.076668566311
 30
0.0
 11
95.58625205706147
 21
106.876668566311
 31
0.0
  0
LINE
  5
12A
330
1F
100
AcDbEntity
  8
1
  6
Continuous
 62
     7
100
AcDbLine
 10
96.78625205706146
 20
108.076668566311
 30
0.0
 11
96.78625205706146
 21
114.2982075972283
 31
0.0
  0
LINE
  5
12B
330
1F
100
AcDbEntity
  8
1
  6
Continuous
 62
     7
100
AcDbLine
 10
96.78625205706146
 20
114.2982075972283
 30
0.0
 11
95.58625205706147
 21
116.376668566311
 31
0.0
  0
LINE
  5
12C
330
1F
100
AcDbEntity
  8
1
  6
Continuous
 62
     2
100
AcDbLine
 10
95.58625205706147
 20
106.876668566311
 30
0.0
 11
95.58625205706147
 21
116.376668566311
 31
0.0
  0
LINE
  5
12D
330
1F
100
AcDbEntity
  8
1
  6
DASH_CENTER
 62
     2
100
AcDbLine
 10
83.58625205706147
 20
114.2982075972283
 30
0.0
 11
83.58625205706147
 21
108.076668566311
 31
0.0
  0
LINE
  5
12E
330
1F
100
AcDbEntity
  8
1
  6
Continuous
 62
     7
100
AcDbLine
 10
70.38625205706145
 20
114.2982075972283
 30
0.0
 11
83.58625205706147
 21
114.2982075972283
 31
0.0
  0
LINE
  5
12F
330
1F
100
AcDbEntity
  8
1
  6
DASH_CENTER
 62
     2
100
AcDbLine
 10
83.58625205706147
 20
108.076668566311
 30
0.0
 11
83.58625205706147
 21
103.209494771096
 31
0.0
  0
LINE
  5
130
330
1F
100
AcDbEntity
  8
1
  6
Continuous
 62
     7
100
AcDbLine
 10
70.38625205706145
 20
108.076668566311
 30
0.0
 11
83.58625205706147
 21
108.076668566311
 31
0.0
  0
LINE
  5
131
330
1F
100
AcDbEntity
  8
1
  6
Continuous
 62
     7
100
AcDbLine
 10
71.58625205706146
 20
106.876668566311
 30
0.0
 11
70.38625205706145
 21
108.076668566311
 31
0.0
  0
LINE
  5
132
330
1F
100
AcDbEntity
  8
1
  6
Continuous
 62
     7
100
AcDbLine
 10
70.38625205706145
 20
114.2982075972283
 30
0.0
 11
70.38625205706145
 21
108.076668566311
 31
0.0
  0
LINE
  5
133
330
1F
100
AcDbEntity
  8
1
  6
Continuous
 62
     7
100
AcDbLine
 10
71.58625205706146
 20
116.376668566311
 30
0.0
 11
83.58625205706147
 21
116.376668566311
 31
0.0
  0
LINE
  5
134
330
1F
100
AcDbEntity
  8
1
  6
Continuous
 62
     7
100
AcDbLine
 10
71.58625205706146
 20
116.376668566311
 30
0.0
 11
70.38625205706145
 21
114.2982075972283
 31
0.0
  0
LINE
  5
135
330
1F
100
AcDbEntity
  8
1
  6
Continuous
 62
     7
100
AcDbLine
 10
97.08625205706147
 20
124.876668566311
 30
0.0
 11
95.33625205706147
 21
124.876668566311
 31
0.0
  0
LINE
  5
136
330
1F
100
AcDbEntity
  8
1
  6
Continuous
 62
     7
100
AcDbLine
 10
97.08625205706147
 20
118.876668566311
 30
0.0
 11
95.33625205706147
 21
118.876668566311
 31
0.0
  0
LINE
  5
137
330
1F
100
AcDbEntity
  8
1
  6
Continuous
 62
     7
100
AcDbLine
 10
99.17470932518137
 20
120.0824399322511
 30
0.0
 11
99.17470932518137
 21
123.6708972003709
 31
0.0
  0
LINE
  5
138
330
1F
100
AcDbEntity
  8
1
  6
Continuous
 62
     7
100
AcDbLine
 10
99.17470932518137
 20
123.6708972003709
 30
0.0
 11
97.08625205706147
 21
124.876668566311
 31
0.0
  0
LINE
  5
139
330
1F
100
AcDbEntity
  8
1
  6
Continuous
 62
     7
100
AcDbLine
 10
99.17470932518137
 20
120.0824399322511
 30
0.0
 11
97.08625205706147
 21
118.876668566311
 31
0.0
  0
LINE
  5
13A
330
1F
100
AcDbEntity
  8
1
  6
Continuous
 62
     7
100
AcDbLine
 10
75.79202342300152
 20
123.6708972003709
 30
0.0
 11
75.79202342300152
 21
120.0824399322511
 31
0.0
  0
LINE
  5
13B
330
1F
100
AcDbEntity
  8
1
  6
Continuous
 62
     7
100
AcDbLine
 10
67.99779478894158
 20
123.6708972003709
 30
0.0
 11
67.99779478894158
 21
120.0824399322511
 31
0.0
  0
LINE
  5
13C
330
1F
100
AcDbEntity
  8
1
  6
Continuous
 62
     7
100
AcDbLine
 10
70.08625205706146
 20
124.876668566311
 30
0.0
 11
67.99779478894158
 21
123.6708972003709
 31
0.0
  0
LINE
  5
13D
330
1F
100
AcDbEntity
  8
1
  6
Continuous
 62
     7
100
AcDbLine
 10
70.08625205706146
 20
118.876668566311
 30
0.0
 11
67.99779478894158
 21
120.0824399322511
 31
0.0
  0
LINE
  5
13E
330
1F
100
AcDbEntity
  8
1
  6
Continuous
 62
     7
100
AcDbLine
 10
99.17470932518137
 20
181.7078944630094
 30
0.0
 11
91.38048069112142
 21
195.2078944630094
 31
0.0
  0
LINE
  5
13F
330
1F
100
AcDbEntity
  8
1
  6
Continuous
 62
     7
100
AcDbLine
 10
91.38048069112139
 20
168.2078944630094
 30
0.0
 11
99.17470932518137
 21
181.7078944630094
 31
0.0
  0
LINE
  5
140
330
1F
100
AcDbEntity
  8
1
  6
Continuous
 62
     7
100
AcDbLine
 10
75.79202342300152
 20
168.2078944630094
 30
0.0
 11
91.38048069112139
 21
168.2078944630094
 31
0.0
  0
LINE
  5
141
330
1F
100
AcDbEntity
  8
1
  6
Continuous
 62
     7
100
AcDbLine
 10
67.99779478894158
 20
181.7078944630094
 30
0.0
 11
75.79202342300152
 21
168.2078944630094
 31
0.0
  0
LINE
  5
142
330
1F
100
AcDbEntity
  8
1
  6
Continuous
 62
     7
100
AcDbLine
 10
75.79202342300152
 20
195.2078944630094
 30
0.0
 11
67.99779478894158
 21
181.7078944630094
 31
0.0
  0
LINE
  5
143
330
1F
100
AcDbEntity
  8
1
  6
Continuous
 62
     7
100
AcDbLine
 10
91.38048069112142
 20
195.2078944630094
 30
0.0
 11
75.79202342300152
 21
195.2078944630094
 31
0.0
  0
LINE
  5
144
330
1F
100
AcDbEntity
  8
1
  6
Continuous
 62
     7
100
AcDbLine
 10
71.83625205706146
 20
118.876668566311
 30
0.0
 11
71.83625205706146
 21
116.376668566311
 31
0.0
  0
LINE
  5
145
330
1F
100
AcDbEntity
  8
1
  6
Continuous
 62
     7
100
AcDbLine
 10
83.58625205706147
 20
106.876668566311
 30
0.0
 11
71.58625205706146
 21
106.876668566311
 31
0.0
  0
LINE
  5
146
330
1F
100
AcDbEntity
  8
1
  6
Continuous
 62
     2
100
AcDbLine
 10
71.58625205706146
 20
116.376668566311
 30
0.0
 11
71.58625205706146
 21
106.876668566311
 31
0.0
  0
LINE
  5
147
330
1F
100
AcDbEntity
  8
1
  6
Continuous
 62
     7
100
AcDbLine
 10
83.58625205706147
 20
124.876668566311
 30
0.0
 11
70.08625205706146
 21
124.876668566311
 31
0.0
  0
LINE
  5
148
330
1F
100
AcDbEntity
  8
1
  6
Continuous
 62
     7
100
AcDbLine
 10
83.58625205706147
 20
118.876668566311
 30
0.0
 11
70.08625205706146
 21
118.876668566311
 31
0.0
  0
LINE
  5
149
330
1F
100
AcDbEntity
  8
1
  6
DASH_CENTER
 62
     2
100
AcDbLine
 10
83.58625205706147
 20
140.209494771096
 30
0.0
 11
83.58625205706147
 21
129.4551295353937
 31
0.0
  0
ARC
  5
14A
330
1F
100
AcDbEntity
  8
1
  6
Continuous
 62
     7
100
AcDbCircle
 10
149.3357853982293
 20
138.3730614625978
 30
0.0
 40
19.49639289628679
100
AcDbArc
 50
249.7438419995829
 51
290.2561580004171
  0
ARC
  5
14B
330
1F
100
AcDbEntity
  8
1
  6
Continuous
 62
     7
100
AcDbCircle
 10
149.3357853982293
 20
105.3802756700242
 30
0.0
 40
19.49639289628679
100
AcDbArc
 50
69.74384199958291
 51
110.2561580004171
  0
ARC
  5
14C
330
1F
100
AcDbEntity
  8
1
  6
Continuous
 62
     7
100
AcDbCircle
 10
162.8357853982293
 20
138.3730614625978
 30
0.0
 40
19.49639289628679
100
AcDbArc
 50
249.7438419995829
 51
290.2561580004171
  0
ARC
  5
14D
330
1F
100
AcDbEntity
  8
1
  6
Continuous
 62
     7
100
AcDbCircle
 10
162.8357853982293
 20
105.3802756700242
 30
0.0
 40
19.49639289628679
100
AcDbArc
 50
69.74384199958291
 51
110.2561580004171
  0
ARC
  5
14E
330
1F
100
AcDbEntity
  8
1
  6
Continuous
 62
     7
100
AcDbCircle
 10
95.27759500815138
 20
117.9759471455685
 30
0.0
 40
6.900721420742474
100
AcDbArc
 50
55.61575253195772
 51
124.3842474680421
  0
ARC
  5
14F
330
1F
100
AcDbEntity
  8
1
  6
Continuous
 62
     7
100
AcDbCircle
 10
95.27759500815138
 20
125.7773899870535
 30
0.0
 40
6.900721420742445
100
AcDbArc
 50
235.6157525319578
 51
304.3842474680424
  0
ARC
  5
150
330
1F
100
AcDbEntity
  8
1
  6
Continuous
 62
     7
100
AcDbCircle
 10
83.58625205706147
 20
99.08243993225108
 30
0.0
 40
25.79422863405988
100
AcDbArc
 50
72.41204622600618
 51
90.0
  0
ARC
  5
151
330
1F
100
AcDbEntity
  8
1
  6
Continuous
 62
     7
100
AcDbCircle
 10
83.58625205706147
 20
144.6708972003709
 30
0.0
 40
25.79422863405989
100
AcDbArc
 50
270.0
 51
287.5879537739938
  0
ARC
  5
152
330
1F
100
AcDbEntity
  8
1
  6
Continuous
 62
     7
100
AcDbCircle
 10
83.58625205706147
 20
144.6708972003709
 30
0.0
 40
25.79422863405984
100
AcDbArc
 50
252.4120462260062
 51
270.0
  0
ARC
  5
153
330
1F
100
AcDbEntity
  8
1
  6
Continuous
 62
     7
100
AcDbCircle
 10
83.58625205706147
 20
99.08243993225108
 30
0.0
 40
25.79422863405992
100
AcDbArc
 50
90.0
 51
107.5879537739938
  0
ARC
  5
154
330
1F
100
AcDbEntity
  8
1
  6
Continuous
 62
     7
100
AcDbCircle
 10
71.89490910597155
 20
125.7773899870535
 30
0.0
 40
6.900721420742454
100
AcDbArc
 50
235.6157525319578
 51
304.3842474680422
  0
ARC
  5
155
330
1F
100
AcDbEntity
  8
1
  6
Continuous
 62
     7
100
AcDbCircle
 10
71.89490910597155
 20
117.9759471455685
 30
0.0
 40
6.900721420742466
100
AcDbArc
 50
55.61575253195782
 51
124.3842474680422
  0
CIRCLE
  5
156
330
1F
100
AcDbEntity
  8
1
  6
Continuous
 62
     7
100
AcDbCircle
 10
83.58625205706147
 20
181.7078944630094
 30
0.0
 40
9.0
  0
CIRCLE
  5
157
330
1F
100
AcDbEntity
  8
1
  6
Continuous
 62
     2
100
AcDbCircle
 10
83.58625205706147
 20
181.7078944630094
 30
0.0
 40
12.0
  0
CIRCLE
  5
158
330
1F
100
AcDbEntity
  8
1
  6
Continuous
 62
     7
100
AcDbCircle
 10
83.58625205706147
 20
181.7078944630094
 30
0.0
 40
13.5
  0
SOLID
  5
159
330
1F
100
AcDbEntity
  8
1
 62
     2
100
AcDbTrace
 10
98.1372016312232
 20
135.7907772944974
 30
0.0
 11
98.93530248289969
 21
135.3299935529415
 31
0.0
 12
96.78625205706146
 22
132.5292965104739
 32
0.0
 13
96.78625205706146
 23
132.5292965104739
 33
0.0
  0
LEADER
  5
15A
330
1F
100
AcDbEntity
  8
1
  6
Continuous
 62
     2
100
AcDbLeader
  3
Standard
 71
     0
 76
     3
 10
96.78625205706146
 20
132.5292965104739
 30
0.0
 10
102.1829598297146
 20
141.876668566311
 30
0.0
 10
113.0718447947188
 20
141.876668566311
 30
0.0
  0
SOLID
  5
15B
330
1F
100
AcDbEntity
  8
1
 62
     2
100
AcDbTrace
 10
98.48968166901345
 20
107.6388272865551
 30
0.0
 11
97.63136247334411
 21
107.3033056266365
 31
0.0
 12
96.78625205706146
 22
110.730857236864
 32
0.0
 13
96.78625205706146
 23
110.730857236864
 33
0.0
  0
LEADER
  5
15C
330
1F
100
AcDbEntity
  8
1
  6
Continuous
 62
     2
100
AcDbLeader
  3
Standard
 71
     0
 76
     3
 10
96.78625205706146
 20
110.730857236864
 30
0.0
 10
102.6568112420229
 20
95.7130081984778
 30
0.0
 10
113.2007655319427
 20
95.7130081984778
 30
0.0
  0
MTEXT
  5
15E
330
1F
100
AcDbEntity
  8
1
 62
     7
100
AcDbMText
 10
157.5
 20
12.5
 30
0.0
 40
2.5
 41
0.0
 71
     5
 72
     1
  1
10
  7
CONVERTER_12
 73
     1
 44
0.7202881152461
  0
MTEXT
  5
15F
330
1F
100
AcDbEntity
  8
1
 62
     7
100
AcDbMText
 10
151.75
 20
12.5
 30
0.0
 40
2.5
 41
0.0
 71
     5
 72
     1
  1
03
  7
CONVERTER_12
 73
     1
 44
0.7202881152461
  0
MTEXT
  5
160
330
1F
100
AcDbEntity
  8
1
 62
     7
100
AcDbMText
 10
140.5
 20
12.5
 30
0.0
 40
2.5
 41
0.0
 71
     5
 72
     1
  1
10
  7
CONVERTER_12
 73
     1
 44
0.7202881152461
  0
MTEXT
  5
161
330
1F
100
AcDbEntity
  8
1
 62
     7
100
AcDbMText
 10
134.75
 20
12.5
 30
0.0
 40
2.5
 41
0.0
 71
     5
 72
     1
  1
03
  7
CONVERTER_12
 73
     1
 44
0.7202881152461
  0
MTEXT
  5
162
330
1F
100
AcDbEntity
  8
1
 62
     7
100
AcDbMText
 10
123.5
 20
12.5
 30
0.0
 40
2.5
 41
0.0
 71
     5
 72
     1
  1
10
  7
CONVERTER_12
 73
     1
 44
0.7202881152461
  0
MTEXT
  5
163
330
1F
100
AcDbEntity
  8
1
 62
     7
100
AcDbMText
 10
117.75
 20
12.5
 30
0.0
 40
2.5
 41
0.0
 71
     5
 72
     1
  1
03
  7
CONVERTER_12
 73
     1
 44
0.7202881152461
  0
MTEXT
  5
164
330
1F
100
AcDbEntity
  8
1
 62
     7
100
AcDbMText
 10
100.75
 20
12.5
 30
0.0
 40
2.5
 41
0.0
 71
     5
 72
     1
  1
03
  7
CONVERTER_12
 73
     1
 44
0.7202881152461
  0
MTEXT
  5
165
330
1F
100
AcDbEntity
  8
1
 62
     7
100
AcDbMText
 10
106.5
 20
12.5
 30
0.0
 40
2.5
 41
0.0
 71
     5
 72
     1
  1
10
  7
CONVERTER_12
 73
     1
 44
0.7202881152461
  0
MTEXT
  5
166
330
1F
100
AcDbEntity
  8
1
 62
     7
100
AcDbMText
 10
107.6385367728271
 20
144.2784987555567
 30
0.0
 40
3.0
 41
0.0
 71
     5
 72
     1
  1
G3/4
  7
CONVERTER_12
 73
     1
 44
1.32052821128451
  0
MTEXT
  5
167
330
1F
100
AcDbEntity
  8
1
 62
     7
100
AcDbMText
 10
108.3339673412959
 20
98.2784987555567
 30
0.0
 40
3.0
 41
0.0
 71
     5
 72
     1
  1
G3/4
  7
CONVERTER_12
 73
     1
 44
1.32052821128451
  0
MTEXT
  5
168
330
1F
100
AcDbEntity
  8
1
 62
     7
100
AcDbMText
 10
93.74999999999997
 20
17.0
 30
0.0
 40
3.5
 41
0.0
 71
     5
 72
     1
  1
1
  7
CONVERTER_12
 73
     1
 44
0.7202881152461
  0
MTEXT
  5
169
330
1F
100
AcDbEntity
  8
1
 62
     7
100
AcDbMText
 10
57.0
 20
14.25
 30
0.0
 40
3.5
 41
0.0
 71
     5
 72
     1
  1
T206-20
  7
CONVERTER_12
 73
     1
 44
0.7202881152461
  0
MTEXT
  5
16A
330
1F
100
AcDbEntity
  8
1
 62
     7
100
AcDbMText
 10
57.0
 20
22.75
 30
0.0
 40
3.5
 41
0.0
 71
     5
 72
     1
  1
平行ニップル
  7
CONVERTER_11
 73
     1
 44
0.54545454545455
  0
MTEXT
  5
16B
330
1F
100
AcDbEntity
  8
1
 62
     7
100
AcDbMText
 10
85.24999999999997
 20
17.0
 30
0.0
 40
3.5
 41
0.0
 71
     5
 72
     1
  1
1
  7
CONVERTER_12
 73
     1
 44
0.7202881152461
  0
DIMENSION
  5
176
330
1F
100
AcDbEntity
  8
1
100
AcDbDimension
  2
*D3
 10
67.99779478894158
 20
205.7235948635365
 30
0.0
 11
84.61006141583047
 21
208.4735948635365
 31
0.0
 70
    33
  1
32
 71
     5
 42
-1.0
 53
0.00013888888889
  3
ME10_DIM_10
100
AcDbAlignedDimension
 13
99.17470932518137
 23
181.7078944630094
 33
0.0
 14
67.99779478894158
 24
181.7078944630094
 34
0.0
  0
DIMENSION
  5
181
330
1F
100
AcDbEntity
  8
1
100
AcDbDimension
  2
*D4
 10
58.53783424719326
 20
136.876668566311
 30
0.0
 11
55.78783424719326
 21
130.9187947065595
 31
0.0
 70
    32
  1
<>
 71
     5
 42
-1.0
 53
90.0
  3
ME10_DIM_11
100
AcDbAlignedDimension
 13
70.08625205706146
 23
124.876668566311
 33
0.0
 14
71.58625205706146
 24
136.876668566311
 34
0.0
 50
90.0
100
AcDbRotatedDimension
  0
DIMENSION
  5
18C
330
1F
100
AcDbEntity
  8
1
100
AcDbDimension
  2
*D5
 10
51.14822804484307
 20
136.876668566311
 30
0.0
 11
48.39822804484307
 21
120.728916680161
 31
0.0
 70
    33
  1
<>
 71
     5
 42
-1.0
 53
90.0
  3
ME10_DIM_12
100
AcDbAlignedDimension
 13
71.58625205706146
 23
106.876668566311
 33
0.0
 14
71.58625205706146
 24
136.876668566311
 34
0.0
  0
DIMENSION
  5
197
330
1F
100
AcDbEntity
  8
1
100
AcDbDimension
  2
*D6
 10
114.143202958162
 20
195.2078944630094
 30
0.0
 11
111.393202958162
 21
181.2581980329321
 31
0.0
 70
    33
  1
<>
 71
     5
 42
-1.0
 53
89.99999999999994
  3
ME10_DIM_13
100
AcDbAlignedDimension
 13
91.38048069112139
 23
168.2078944630094
 33
0.0
 14
91.38048069112142
 24
195.2078944630094
 34
0.0
  0
DIMENSION
  5
1A2
330
1F
100
AcDbEntity
  8
0
100
AcDbDimension
  2
*D7
 10
58.57904753533057
 20
118.876668566311
 30
0.0
 11
55.82904753533057
 21
115.065205700635
 31
0.0
 70
    32
  1
<>
 71
     5
 42
-1.0
 53
90.0
  3
ME10_DIM_14
100
AcDbAlignedDimension
 13
71.58625205706146
 23
106.876668566311
 33
0.0
 14
70.08625205706146
 24
118.876668566311
 34
0.0
 50
90.0
100
AcDbRotatedDimension
  0
INSERT
  5
1AA
330
1F
100
AcDbEntity
  8
0
100
AcDbBlockReference
  2
*D8
 10
0.0
 20
0.0
 30
0.0
  0
ENDSEC
  0
SECTION
  2
OBJECTS
  0
DICTIONARY
  5
C
330
0
100
AcDbDictionary
281
     1
  3
ACAD_GROUP
350
D
  3
ACAD_LAYOUT
350
1A
  3
ACAD_MATERIAL
350
3B
  3
ACAD_MLEADERSTYLE
350
1AD
  3
ACAD_MLINESTYLE
350
17
  3
ACAD_PLOTSETTINGS
350
19
  3
ACAD_PLOTSTYLENAME
350
E
  3
ACAD_VISUALSTYLE
350
2A
  3
AcDbVariableDictionary
350
1AB
  0
DICTIONARY
  5
D
102
{ACAD_REACTORS
330
C
102
}
330
C
100
AcDbDictionary
281
     1
  0
DICTIONARY
  5
1A
102
{ACAD_REACTORS
330
C
102
}
330
C
100
AcDbDictionary
281
     1
  3
Layout1
350
1E
  3
Layout2
350
26
  3
Model
350
22
  0
DICTIONARY
  5
3B
102
{ACAD_REACTORS
330
C
102
}
330
C
100
AcDbDictionary
281
     1
  3
ByBlock
350
3D
  3
ByLayer
350
3C
  3
Global
350
3E
  0
DICTIONARY
  5
1AD
102
{ACAD_REACTORS
330
C
102
}
330
C
100
AcDbDictionary
281
     1
  0
DICTIONARY
  5
17
102
{ACAD_REACTORS
330
C
102
}
330
C
100
AcDbDictionary
281
     1
  3
Standard
350
18
  0
DICTIONARY
  5
19
102
{ACAD_REACTORS
330
C
102
}
330
C
100
AcDbDictionary
281
     1
  0
ACDBDICTIONARYWDFLT
  5
E
102
{ACAD_REACTORS
330
C
102
}
330
C
100
AcDbDictionary
281
     1
  3
Normal
350
F
100
AcDbDictionaryWithDefault
340
F
  0
DICTIONARY
  5
2A
102
{ACAD_REACTORS
330
C
102
}
330
C
100
AcDbDictionary
281
     1
  3
2dWireframe
350
2F
  3
3D Hidden
350
31
  3
3dWireframe
350
30
  3
Basic
350
32
  3
Brighten
350
36
  3
ColorChange
350
3A
  3
Conceptual
350
34
  3
Dim
350
35
  3
Facepattern
350
39
  3
Flat
350
2B
  3
FlatWithEdges
350
2C
  3
Gouraud
350
2D
  3
GouraudWithEdges
350
2E
  3
Linepattern
350
38
  3
Realistic
350
33
  3
Thicken
350
37
  0
DICTIONARY
  5
1AB
102
{ACAD_REACTORS
330
C
102
}
330
C
100
AcDbDictionary
281
     1
  3
DIMASSOC
350
1AE
  3
HIDETEXT
350
1AF
  0
LAYOUT
  5
1E
102
{ACAD_REACTORS
330
1A
102
}
330
1A
100
AcDbPlotSettings
  1

  2
none_device
  4

  6

 40
0.0
 41
0.0
 42
0.0
 43
0.0
 44
0.0
 45
0.0
 46
0.0
 47
0.0
 48
0.0
 49
0.0
140
0.0
141
0.0
142
1.0
143
1.0
 70
   688
 72
     0
 73
     0
 74
     5
  7

 75
    16
147
1.0
148
0.0
149
0.0
100
AcDbLayout
  1
Layout1
 70
     1
 71
     1
 10
0.0
 20
0.0
 11
12.0
 21
9.0
 12
0.0
 22
0.0
 32
0.0
 14
1.00000000000000E+20
 24
1.00000000000000E+20
 34
1.00000000000000E+20
 15
-1.00000000000000E+20
 25
-1.00000000000000E+20
 35
-1.00000000000000E+20
146
0.0
 13
0.0
 23
0.0
 33
0.0
 16
1.0
 26
0.0
 36
0.0
 17
0.0
 27
1.0
 37
0.0
 76
     0
330
1B
  0
LAYOUT
  5
26
102
{ACAD_REACTORS
330
1A
102
}
330
1A
100
AcDbPlotSettings
  1

  2
none_device
  4

  6

 40
0.0
 41
0.0
 42
0.0
 43
0.0
 44
0.0
 45
0.0
 46
0.0
 47
0.0
 48
0.0
 49
0.0
140
0.0
141
0.0
142
1.0
143
1.0
 70
   688
 72
     0
 73
     0
 74
     5
  7

 75
    16
147
1.0
148
0.0
149
0.0
100
AcDbLayout
  1
Layout2
 70
     1
 71
     2
 10
0.0
 20
0.0
 11
0.0
 21
0.0
 12
0.0
 22
0.0
 32
0.0
 14
0.0
 24
0.0
 34
0.0
 15
0.0
 25
0.0
 35
0.0
146
0.0
 13
0.0
 23
0.0
 33
0.0
 16
1.0
 26
0.0
 36
0.0
 17
0.0
 27
1.0
 37
0.0
 76
     0
330
23
  0
LAYOUT
  5
22
102
{ACAD_REACTORS
330
1A
102
}
330
1A
100
AcDbPlotSettings
  1

  2
none_device
  4

  6

 40
0.0
 41
0.0
 42
0.0
 43
0.0
 44
0.0
 45
0.0
 46
0.0
 47
0.0
 48
0.0
 49
0.0
140
0.0
141
0.0
142
1.0
143
1.0
 70
  1712
 72
     0
 73
     0
 74
     0
  7

 75
     0
147
1.0
148
0.0
149
0.0
100
AcDbLayout
  1
Model
 70
     1
 71
     0
 10
0.0
 20
0.0
 11
12.0
 21
9.0
 12
0.0
 22
0.0
 32
0.0
 14
0.0
 24
0.0
 34
0.0
 15
210.0
 25
297.0
 35
0.0
146
0.0
 13
0.0
 23
0.0
 33
0.0
 16
1.0
 26
0.0
 36
0.0
 17
0.0
 27
1.0
 37
0.0
 76
     0
330
1F
331
29
  0
MATERIAL
  5
3D
102
{ACAD_REACTORS
330
3B
102
}
102
{ACAD_XDICTIONARY
360
1D2
102
}
330
3B
100
AcDbMaterial
  1
ByBlock
  0
MATERIAL
  5
3C
102
{ACAD_REACTORS
330
3B
102
}
102
{ACAD_XDICTIONARY
360
1D0
102
}
330
3B
100
AcDbMaterial
  1
ByLayer
  0
MATERIAL
  5
3E
102
{ACAD_REACTORS
330
3B
102
}
102
{ACAD_XDICTIONARY
360
1D4
102
}
330
3B
100
AcDbMaterial
  1
Global
  0
MLINESTYLE
  5
18
102
{ACAD_REACTORS
330
17
102
}
330
17
100
AcDbMlineStyle
  2
Standard
 70
     0
  3

 62
   256
 51
90.0
 52
90.0
 71
     2
 49
0.5
 62
   256
  6
BYLAYER
 49
-0.5
 62
   256
  6
BYLAYER
  0
ACDBPLACEHOLDER
  5
F
102
{ACAD_REACTORS
330
E
102
}
330
E
  0
VISUALSTYLE
  5
2F
102
{ACAD_REACTORS
330
2A
102
}
102
{ACAD_XDICTIONARY
360
1B8
102
}
330
2A
100
AcDbVisualStyle
  2
2dWireframe
 70
     4
 71
     0
 72
     2
 73
     0
 90
        0
 40
-0.6
 41
-30.0
 62
     5
 63
     7
 74
     1
 91
        4
 64
     7
 65
   257
 75
     1
175
     1
 42
1.0
 92
        0
 66
   257
 43
1.0
 76
     1
 77
     6
 78
     2
 67
     7
 79
     5
170
     0
171
     0
290
     0
174
     0
 93
        1
 44
0.0
173
     0
291
     0
 45
0.0
1001
ACAD
1000
AcDbSavedByObjectVersion
1070
     0
  0
VISUALSTYLE
  5
31
102
{ACAD_REACTORS
330
2A
102
}
102
{ACAD_XDICTIONARY
360
1BC
102
}
330
2A
100
AcDbVisualStyle
  2
3D Hidden
 70
     6
 71
     1
 72
     2
 73
     2
 90
        0
 40
-0.6
 41
-30.0
 62
     5
 63
     7
 74
     2
 91
        2
 64
     7
 65
   257
 75
     2
175
     1
 42
40.0
 92
        0
 66
   257
 43
1.0
 76
     1
 77
     6
 78
     2
 67
     7
 79
     3
170
     0
171
     0
290
     0
174
     0
 93
        1
 44
0.0
173
     0
291
     0
 45
0.0
1001
ACAD
1000
AcDbSavedByObjectVersion
1070
     0
  0
VISUALSTYLE
  5
30
102
{ACAD_REACTORS
330
2A
102
}
102
{ACAD_XDICTIONARY
360
1BA
102
}
330
2A
100
AcDbVisualStyle
  2
3dWireframe
 70
     5
 71
     0
 72
     2
 73
     0
 90
        0
 40
-0.6
 41
-30.0
 62
     5
 63
     7
 74
     1
 91
        4
 64
     7
 65
   257
 75
     1
175
     1
 42
1.0
 92
        0
 66
   257
 43
1.0
 76
     1
 77
     6
 78
     2
 67
     7
 79
     5
170
     0
171
     0
290
     0
174
     0
 93
        1
 44
0.0
173
     0
291
     0
 45
0.0
1001
ACAD
1000
AcDbSavedByObjectVersion
1070
     0
  0
VISUALSTYLE
  5
32
102
{ACAD_REACTORS
330
2A
102
}
102
{ACAD_XDICTIONARY
360
1BE
102
}
330
2A
100
AcDbVisualStyle
  2
Basic
 70
     7
 71
     1
 72
     0
 73
     1
 90
        0
 40
-0.6
 41
-30.0
 62
     5
 63
     7
 74
     0
 91
        4
 64
     7
 65
   257
 75
     1
175
     1
 42
1.0
 92
        8
 66
     7
 43
1.0
 76
     1
 77
     6
 78
     2
 67
     7
 79
     5
170
     0
171
     0
290
     0
174
     0
 93
        1
 44
0.0
173
     0
291
     1
 45
0.0
1001
ACAD
1000
AcDbSavedByObjectVersion
1070
     0
  0
VISUALSTYLE
  5
36
102
{ACAD_REACTORS
330
2A
102
}
102
{ACAD_XDICTIONARY
360
1C6
102
}
330
2A
100
AcDbVisualStyle
  2
Brighten
 70
    12
 71
     2
 72
     2
 73
     0
 90
        0
 40
-0.6
 41
-30.0
 62
     5
 63
     7
 74
     1
 91
        4
 64
     7
 65
   257
 75
     1
175
     1
 42
1.0
 92
        8
 66
     7
 43
1.0
 76
     1
 77
     6
 78
     2
 67
     7
 79
     5
170
     0
171
     0
290
     0
174
     0
 93
        1
 44
50.0
173
     0
291
     1
 45
0.0
1001
ACAD
1000
AcDbSavedByObjectVersion
1070
     0
  0
VISUALSTYLE
  5
3A
102
{ACAD_REACTORS
330
2A
102
}
102
{ACAD_XDICTIONARY
360
1CE
102
}
330
2A
100
AcDbVisualStyle
  2
ColorChange
 70
    16
 71
     2
 72
     2
 73
     3
 90
        0
 40
-0.6
 41
-30.0
 62
     5
 63
     8
 74
     1
 91
        4
 64
     7
 65
   257
 75
     1
175
     1
 42
1.0
 92
        8
 66
     8
 43
1.0
 76
     1
 77
     6
 78
     2
 67
     7
 79
     5
170
     0
171
     0
290
     0
174
     0
 93
        1
 44
0.0
173
     0
291
     1
 45
0.0
1001
ACAD
1000
AcDbSavedByObjectVersion
1070
     0
  0
VISUALSTYLE
  5
34
102
{ACAD_REACTORS
330
2A
102
}
102
{ACAD_XDICTIONARY
360
1C2
102
}
330
2A
100
AcDbVisualStyle
  2
Conceptual
 70
     9
 71
     3
 72
     2
 73
     0
 90
        0
 40
-0.6
 41
-30.0
 62
     5
 63
     7
 74
     2
 91
        2
 64
     7
 65
   257
 75
     1
175
     1
 42
40.0
 92
        8
 66
     7
 43
1.0
 76
     1
 77
     6
 78
     2
 67
     7
 79
     3
170
     0
171
     0
290
     0
174
     0
 93
        1
 44
0.0
173
     0
291
     0
 45
0.0
1001
ACAD
1000
AcDbSavedByObjectVersion
1070
     0
  0
VISUALSTYLE
  5
35
102
{ACAD_REACTORS
330
2A
102
}
102
{ACAD_XDICTIONARY
360
1C4
102
}
330
2A
100
AcDbVisualStyle
  2
Dim
 70
    11
 71
     2
 72
     2
 73
     0
 90
        0
 40
-0.6
 41
-30.0
 62
     5
 63
     7
 74
     1
 91
        4
 64
     7
 65
   257
 75
     1
175
     1
 42
1.0
 92
        8
 66
     7
 43
1.0
 76
     1
 77
     6
 78
     2
 67
     7
 79
     5
170
     0
171
     0
290
     0
174
     0
 93
        1
 44
-50.0
173
     0
291
     1
 45
0.0
1001
ACAD
1000
AcDbSavedByObjectVersion
1070
     0
  0
VISUALSTYLE
  5
39
102
{ACAD_REACTORS
330
2A
102
}
102
{ACAD_XDICTIONARY
360
1CC
102
}
330
2A
100
AcDbVisualStyle
  2
Facepattern
 70
    15
 71
     2
 72
     2
 73
     0
 90
        0
 40
-0.6
 41
-30.0
 62
     5
 63
     7
 74
     1
 91
        4
 64
     7
 65
   257
 75
     1
175
     1
 42
1.0
 92
        8
 66
     7
 43
1.0
 76
     1
 77
     6
 78
     2
 67
     7
 79
     5
170
     0
171
     0
290
     0
174
     0
 93
        1
 44
0.0
173
     0
291
     1
 45
0.0
1001
ACAD
1000
AcDbSavedByObjectVersion
1070
     0
  0
VISUALSTYLE
  5
2B
102
{ACAD_REACTORS
330
2A
102
}
102
{ACAD_XDICTIONARY
360
1B0
102
}
330
2A
100
AcDbVisualStyle
  2
Flat
 70
     0
 71
     2
 72
     1
 73
     1
 90
        2
 40
-0.6
 41
30.0
 62
     5
 63
     7
 74
     0
 91
        4
 64
     7
 65
   257
 75
     1
175
     1
 42
1.0
 92
        8
 66
     7
 43
1.0
 76
     1
 77
     6
 78
     2
 67
     7
 79
     5
170
     0
171
     0
290
     0
174
     0
 93
       13
 44
0.0
173
     0
291
     1
 45
0.0
1001
ACAD
1000
AcDbSavedByObjectVersion
1070
     0
  0
VISUALSTYLE
  5
2C
102
{ACAD_REACTORS
330
2A
102
}
102
{ACAD_XDICTIONARY
360
1B2
102
}
330
2A
100
AcDbVisualStyle
  2
FlatWithEdges
 70
     1
 71
     2
 72
     1
 73
     1
 90
        2
 40
-0.6
 41
30.0
 62
     5
 63
     7
 74
     1
 91
        4
 64
     7
 65
   257
 75
     1
175
     1
 42
1.0
 92
        0
 66
   257
 43
1.0
 76
     1
 77
     6
 78
     2
 67
     7
 79
     5
170
     0
171
     0
290
     0
174
     0
 93
       13
 44
0.0
173
     0
291
     1
 45
0.0
1001
ACAD
1000
AcDbSavedByObjectVersion
1070
     0
  0
VISUALSTYLE
  5
2D
102
{ACAD_REACTORS
330
2A
102
}
102
{ACAD_XDICTIONARY
360
1B4
102
}
330
2A
100
AcDbVisualStyle
  2
Gouraud
 70
     2
 71
     2
 72
     2
 73
     1
 90
        2
 40
-0.6
 41
30.0
 62
     5
 63
     7
 74
     0
 91
        4
 64
     7
 65
   257
 75
     1
175
     1
 42
1.0
 92
        0
 66
     7
 43
1.0
 76
     1
 77
     6
 78
     2
 67
     7
 79
     5
170
     0
171
     0
290
     0
174
     0
 93
       13
 44
0.0
173
     0
291
     1
 45
0.0
1001
ACAD
1000
AcDbSavedByObjectVersion
1070
     0
  0
VISUALSTYLE
  5
2E
102
{ACAD_REACTORS
330
2A
102
}
102
{ACAD_XDICTIONARY
360
1B6
102
}
330
2A
100
AcDbVisualStyle
  2
GouraudWithEdges
 70
     3
 71
     2
 72
     2
 73
     1
 90
        2
 40
-0.6
 41
30.0
 62
     5
 63
     7
 74
     1
 91
        4
 64
     7
 65
   257
 75
     1
175
     1
 42
1.0
 92
        0
 66
   257
 43
1.0
 76
     1
 77
     6
 78
     2
 67
     7
 79
     5
170
     0
171
     0
290
     0
174
     0
 93
       13
 44
0.0
173
     0
291
     1
 45
0.0
1001
ACAD
1000
AcDbSavedByObjectVersion
1070
     0
  0
VISUALSTYLE
  5
38
102
{ACAD_REACTORS
330
2A
102
}
102
{ACAD_XDICTIONARY
360
1CA
102
}
330
2A
100
AcDbVisualStyle
  2
Linepattern
 70
    14
 71
     2
 72
     2
 73
     0
 90
        0
 40
-0.6
 41
-30.0
 62
     5
 63
     7
 74
     1
 91
        4
 64
     7
 65
   257
 75
     7
175
     7
 42
1.0
 92
        8
 66
     7
 43
1.0
 76
     1
 77
     6
 78
     2
 67
     7
 79
     5
170
     0
171
     0
290
     0
174
     0
 93
        1
 44
0.0
173
     0
291
     1
 45
0.0
1001
ACAD
1000
AcDbSavedByObjectVersion
1070
     0
  0
VISUALSTYLE
  5
33
102
{ACAD_REACTORS
330
2A
102
}
102
{ACAD_XDICTIONARY
360
1C0
102
}
330
2A
100
AcDbVisualStyle
  2
Realistic
 70
     8
 71
     2
 72
     2
 73
     0
 90
        0
 40
-0.6
 41
-30.0
 62
     5
 63
     7
 74
     1
 91
        0
 64
     7
 65
   257
 75
     1
175
     1
 42
1.0
 92
        8
 66
     8
 43
1.0
 76
     1
 77
     6
 78
     2
 67
     7
 79
     5
170
     0
171
     0
290
     0
174
     0
 93
       13
 44
0.0
173
     0
291
     0
 45
0.0
1001
ACAD
1000
AcDbSavedByObjectVersion
1070
     0
  0
VISUALSTYLE
  5
37
102
{ACAD_REACTORS
330
2A
102
}
102
{ACAD_XDICTIONARY
360
1C8
102
}
330
2A
100
AcDbVisualStyle
  2
Thicken
 70
    13
 71
     2
 72
     2
 73
     0
 90
        0
 40
-0.6
 41
-30.0
 62
     5
 63
     7
 74
     1
 91
        4
 64
     7
 65
   257
 75
     1
175
     1
 42
1.0
 92
       12
 66
     7
 43
1.0
 76
     1
 77
     6
 78
     2
 67
     7
 79
     5
170
     0
171
     0
290
     0
174
     0
 93
        1
 44
0.0
173
     0
291
     1
 45
0.0
1001
ACAD
1000
AcDbSavedByObjectVersion
1070
     0
  0
DICTIONARYVAR
  5
1AE
102
{ACAD_REACTORS
330
1AB
102
}
330
1AB
100
DictionaryVariables
280
     0
  1
2
  0
DICTIONARYVAR
  5
1AF
102
{ACAD_REACTORS
330
1AB
102
}
330
1AB
100
DictionaryVariables
280
     0
  1
1
  0
DICTIONARY
  5
1D2
330
3D
100
AcDbDictionary
280
     1
281
     1
  3
ACAD_XREC_ROUNDTRIP
360
1D3
  0
DICTIONARY
  5
1D0
330
3C
100
AcDbDictionary
280
     1
281
     1
  3
ACAD_XREC_ROUNDTRIP
360
1D1
  0
DICTIONARY
  5
1D4
330
3E
100
AcDbDictionary
280
     1
281
     1
  3
ACAD_XREC_ROUNDTRIP
360
1D5
  0
DICTIONARY
  5
1B8
330
2F
100
AcDbDictionary
280
     1
281
     1
  3
ACAD_XREC_ROUNDTRIP
360
1B9
  0
DICTIONARY
  5
1BC
330
31
100
AcDbDictionary
280
     1
281
     1
  3
ACAD_XREC_ROUNDTRIP
360
1BD
  0
DICTIONARY
  5
1BA
330
30
100
AcDbDictionary
280
     1
281
     1
  3
ACAD_XREC_ROUNDTRIP
360
1BB
  0
DICTIONARY
  5
1BE
330
32
100
AcDbDictionary
280
     1
281
     1
  3
ACAD_XREC_ROUNDTRIP
360
1BF
  0
DICTIONARY
  5
1C6
330
36
100
AcDbDictionary
280
     1
281
     1
  3
ACAD_XREC_ROUNDTRIP
360
1C7
  0
DICTIONARY
  5
1CE
330
3A
100
AcDbDictionary
280
     1
281
     1
  3
ACAD_XREC_ROUNDTRIP
360
1CF
  0
DICTIONARY
  5
1C2
330
34
100
AcDbDictionary
280
     1
281
     1
  3
ACAD_XREC_ROUNDTRIP
360
1C3
  0
DICTIONARY
  5
1C4
330
35
100
AcDbDictionary
280
     1
281
     1
  3
ACAD_XREC_ROUNDTRIP
360
1C5
  0
DICTIONARY
  5
1CC
330
39
100
AcDbDictionary
280
     1
281
     1
  3
ACAD_XREC_ROUNDTRIP
360
1CD
  0
DICTIONARY
  5
1B0
330
2B
100
AcDbDictionary
280
     1
281
     1
  3
ACAD_XREC_ROUNDTRIP
360
1B1
  0
DICTIONARY
  5
1B2
330
2C
100
AcDbDictionary
280
     1
281
     1
  3
ACAD_XREC_ROUNDTRIP
360
1B3
  0
DICTIONARY
  5
1B4
330
2D
100
AcDbDictionary
280
     1
281
     1
  3
ACAD_XREC_ROUNDTRIP
360
1B5
  0
DICTIONARY
  5
1B6
330
2E
100
AcDbDictionary
280
     1
281
     1
  3
ACAD_XREC_ROUNDTRIP
360
1B7
  0
DICTIONARY
  5
1CA
330
38
100
AcDbDictionary
280
     1
281
     1
  3
ACAD_XREC_ROUNDTRIP
360
1CB
  0
DICTIONARY
  5
1C0
330
33
100
AcDbDictionary
280
     1
281
     1
  3
ACAD_XREC_ROUNDTRIP
360
1C1
  0
DICTIONARY
  5
1C8
330
37
100
AcDbDictionary
280
     1
281
     1
  3
ACAD_XREC_ROUNDTRIP
360
1C9
  0
XRECORD
  5
1D3
102
{ACAD_REACTORS
330
1D2
102
}
330
1D2
100
AcDbXrecord
280
     1
102
MATERIAL
148
0.0
149
0.0
149
0.0
 93
        0
 94
      127
282
     0
 72
     1
 77
     1
171
     1
175
     1
179
     1
273
     0
  0
XRECORD
  5
1D1
102
{ACAD_REACTORS
330
1D0
102
}
330
1D0
100
AcDbXrecord
280
     1
102
MATERIAL
148
0.0
149
0.0
149
0.0
 93
        0
 94
      127
282
     0
 72
     1
 77
     1
171
     1
175
     1
179
     1
273
     0
  0
XRECORD
  5
1D5
102
{ACAD_REACTORS
330
1D4
102
}
330
1D4
100
AcDbXrecord
280
     1
102
MATERIAL
148
0.0
149
0.0
149
0.0
 93
        0
 94
      127
282
     0
 72
     1
 77
     1
171
     1
175
     1
179
     1
273
     0
  0
XRECORD
  5
1B9
102
{ACAD_REACTORS
330
1B8
102
}
330
1B8
100
AcDbXrecord
280
     1
102
RTVSPropertyOp0
 70
     1
102
RTVSPropertyOp1
 70
     1
102
RTVSPropertyOp2
 70
     1
102
RTVSPropertyOp3
 70
     1
102
RTVSPropertyOp4
 70
     1
102
RTVSPropertyOp5
 70
     1
102
RTVSPropertyOp6
 70
     1
102
RTVSPropertyOp7
 70
     1
102
RTVSPropertyOp8
 70
     1
102
RTVSPropertyOp9
 70
     1
102
RTVSPropertyOp10
 70
     1
102
RTVSPropertyOp11
 70
     1
102
RTVSPropertyOp12
 70
     1
102
RTVSPropertyOp13
 70
     1
102
RTVSPropertyOp14
 70
     1
102
RTVSPropertyOp15
 70
     1
102
RTVSPropertyOp16
 70
     1
102
RTVSPropertyOp17
 70
     1
102
RTVSPropertyOp18
 70
     1
102
RTVSPropertyOp19
 70
     1
102
RTVSPropertyOp20
 70
     1
102
RTVSPropertyOp21
 70
     1
102
RTVSPropertyOp22
 70
     1
102
RTVSPropertyOp23
 70
     1
102
RTVSPropertyOp24
 70
     1
102
RTVSPropertyOp25
 70
     1
102
RTVSPropertyOp26
 70
     1
102
RTVSPropertyOp27
 70
     1
102
RTVSPropertyOp28
 70
     1
102
RTVSPropertyOp29
 70
     1
102
RTVSPropertyOp30
 70
     1
102
RTVSPropertyOp31
 70
     1
102
RTVSPropertyOp32
 70
     1
  0
XRECORD
  5
1BD
102
{ACAD_REACTORS
330
1BC
102
}
330
1BC
100
AcDbXrecord
280
     1
102
RTVSPropertyOp0
 70
     1
102
RTVSPropertyOp1
 70
     1
102
RTVSPropertyOp2
 70
     1
102
RTVSPropertyOp3
 70
     1
102
RTVSPropertyOp4
 70
     1
102
RTVSPropertyOp5
 70
     1
102
RTVSPropertyOp6
 70
     1
102
RTVSPropertyOp7
 70
     1
102
RTVSPropertyOp8
 70
     1
102
RTVSPropertyOp9
 70
     1
102
RTVSPropertyOp10
 70
     1
102
RTVSPropertyOp11
 70
     1
102
RTVSPropertyOp12
 70
     1
102
RTVSPropertyOp13
 70
     1
102
RTVSPropertyOp14
 70
     1
102
RTVSPropertyOp15
 70
     1
102
RTVSPropertyOp16
 70
     1
102
RTVSPropertyOp17
 70
     1
102
RTVSPropertyOp18
 70
     1
102
RTVSPropertyOp19
 70
     1
102
RTVSPropertyOp20
 70
     1
102
RTVSPropertyOp21
 70
     1
102
RTVSPropertyOp22
 70
     1
102
RTVSPropertyOp23
 70
     1
102
RTVSPropertyOp24
 70
     1
102
RTVSPropertyOp25
 70
     1
102
RTVSPropertyOp26
 70
     1
102
RTVSPropertyOp27
 70
     1
102
RTVSPropertyOp28
 70
     1
102
RTVSPropertyOp29
 70
     1
102
RTVSPropertyOp30
 70
     1
102
RTVSPropertyOp31
 70
     1
102
RTVSPropertyOp32
 70
     1
  0
XRECORD
  5
1BB
102
{ACAD_REACTORS
330
1BA
102
}
330
1BA
100
AcDbXrecord
280
     1
102
RTVSPropertyOp0
 70
     1
102
RTVSPropertyOp1
 70
     1
102
RTVSPropertyOp2
 70
     1
102
RTVSPropertyOp3
 70
     1
102
RTVSPropertyOp4
 70
     1
102
RTVSPropertyOp5
 70
     1
102
RTVSPropertyOp6
 70
     1
102
RTVSPropertyOp7
 70
     1
102
RTVSPropertyOp8
 70
     1
102
RTVSPropertyOp9
 70
     1
102
RTVSPropertyOp10
 70
     1
102
RTVSPropertyOp11
 70
     1
102
RTVSPropertyOp12
 70
     1
102
RTVSPropertyOp13
 70
     1
102
RTVSPropertyOp14
 70
     1
102
RTVSPropertyOp15
 70
     1
102
RTVSPropertyOp16
 70
     1
102
RTVSPropertyOp17
 70
     1
102
RTVSPropertyOp18
 70
     1
102
RTVSPropertyOp19
 70
     1
102
RTVSPropertyOp20
 70
     1
102
RTVSPropertyOp21
 70
     1
102
RTVSPropertyOp22
 70
     1
102
RTVSPropertyOp23
 70
     1
102
RTVSPropertyOp24
 70
     1
102
RTVSPropertyOp25
 70
     1
102
RTVSPropertyOp26
 70
     1
102
RTVSPropertyOp27
 70
     1
102
RTVSPropertyOp28
 70
     1
102
RTVSPropertyOp29
 70
     1
102
RTVSPropertyOp30
 70
     1
102
RTVSPropertyOp31
 70
     1
102
RTVSPropertyOp32
 70
     1
  0
XRECORD
  5
1BF
102
{ACAD_REACTORS
330
1BE
102
}
330
1BE
100
AcDbXrecord
280
     1
102
RTVSPropertyOp0
 70
     1
102
RTVSPropertyOp1
 70
     1
102
RTVSPropertyOp2
 70
     1
102
RTVSPropertyOp3
 70
     1
102
RTVSPropertyOp4
 70
     1
102
RTVSPropertyOp5
 70
     1
102
RTVSPropertyOp6
 70
     1
102
RTVSPropertyOp7
 70
     1
102
RTVSPropertyOp8
 70
     1
102
RTVSPropertyOp9
 70
     1
102
RTVSPropertyOp10
 70
     1
102
RTVSPropertyOp11
 70
     1
102
RTVSPropertyOp12
 70
     1
102
RTVSPropertyOp13
 70
     1
102
RTVSPropertyOp14
 70
     1
102
RTVSPropertyOp15
 70
     1
102
RTVSPropertyOp16
 70
     1
102
RTVSPropertyOp17
 70
     1
102
RTVSPropertyOp18
 70
     1
102
RTVSPropertyOp19
 70
     1
102
RTVSPropertyOp20
 70
     1
102
RTVSPropertyOp21
 70
     1
102
RTVSPropertyOp22
 70
     1
102
RTVSPropertyOp23
 70
     1
102
RTVSPropertyOp24
 70
     1
102
RTVSPropertyOp25
 70
     1
102
RTVSPropertyOp26
 70
     1
102
RTVSPropertyOp27
 70
     1
102
RTVSPropertyOp28
 70
     1
102
RTVSPropertyOp29
 70
     1
102
RTVSPropertyOp30
 70
     1
102
RTVSPropertyOp31
 70
     1
102
RTVSPropertyOp32
 70
     1
  0
XRECORD
  5
1C7
102
{ACAD_REACTORS
330
1C6
102
}
330
1C6
100
AcDbXrecord
280
     1
102
RTVSPropertyOp0
 70
     1
102
RTVSPropertyOp1
 70
     1
102
RTVSPropertyOp2
 70
     1
102
RTVSPropertyOp3
 70
     1
102
RTVSPropertyOp4
 70
     1
102
RTVSPropertyOp5
 70
     1
102
RTVSPropertyOp6
 70
     1
102
RTVSPropertyOp7
 70
     1
102
RTVSPropertyOp8
 70
     1
102
RTVSPropertyOp9
 70
     1
102
RTVSPropertyOp10
 70
     1
102
RTVSPropertyOp11
 70
     1
102
RTVSPropertyOp12
 70
     1
102
RTVSPropertyOp13
 70
     1
102
RTVSPropertyOp14
 70
     1
102
RTVSPropertyOp15
 70
     1
102
RTVSPropertyOp16
 70
     1
102
RTVSPropertyOp17
 70
     1
102
RTVSPropertyOp18
 70
     1
102
RTVSPropertyOp19
 70
     1
102
RTVSPropertyOp20
 70
     1
102
RTVSPropertyOp21
 70
     1
102
RTVSPropertyOp22
 70
     1
102
RTVSPropertyOp23
 70
     1
102
RTVSPropertyOp24
 70
     1
102
RTVSPropertyOp25
 70
     1
102
RTVSPropertyOp26
 70
     1
102
RTVSPropertyOp27
 70
     1
102
RTVSPropertyOp28
 70
     1
102
RTVSPropertyOp29
 70
     1
102
RTVSPropertyOp30
 70
     1
102
RTVSPropertyOp31
 70
     1
102
RTVSPropertyOp32
 70
     1
  0
XRECORD
  5
1CF
102
{ACAD_REACTORS
330
1CE
102
}
330
1CE
100
AcDbXrecord
280
     1
102
RTVSPropertyOp0
 70
     1
102
RTVSPropertyOp1
 70
     1
102
RTVSPropertyOp2
 70
     1
102
RTVSPropertyOp3
 70
     1
102
RTVSPropertyOp4
 70
     1
102
RTVSPropertyOp5
 70
     1
102
RTVSPropertyOp6
 70
     1
102
RTVSPropertyOp7
 70
     1
102
RTVSPropertyOp8
 70
     1
102
RTVSPropertyOp9
 70
     1
102
RTVSPropertyOp10
 70
     1
102
RTVSPropertyOp11
 70
     1
102
RTVSPropertyOp12
 70
     1
102
RTVSPropertyOp13
 70
     1
102
RTVSPropertyOp14
 70
     1
102
RTVSPropertyOp15
 70
     1
102
RTVSPropertyOp16
 70
     1
102
RTVSPropertyOp17
 70
     1
102
RTVSPropertyOp18
 70
     1
102
RTVSPropertyOp19
 70
     1
102
RTVSPropertyOp20
 70
     1
102
RTVSPropertyOp21
 70
     1
102
RTVSPropertyOp22
 70
     1
102
RTVSPropertyOp23
 70
     1
102
RTVSPropertyOp24
 70
     1
102
RTVSPropertyOp25
 70
     1
102
RTVSPropertyOp26
 70
     1
102
RTVSPropertyOp27
 70
     1
102
RTVSPropertyOp28
 70
     1
102
RTVSPropertyOp29
 70
     1
102
RTVSPropertyOp30
 70
     1
102
RTVSPropertyOp31
 70
     1
102
RTVSPropertyOp32
 70
     1
  0
XRECORD
  5
1C3
102
{ACAD_REACTORS
330
1C2
102
}
330
1C2
100
AcDbXrecord
280
     1
102
RTVSPropertyOp0
 70
     1
102
RTVSPropertyOp1
 70
     1
102
RTVSPropertyOp2
 70
     1
102
RTVSPropertyOp3
 70
     1
102
RTVSPropertyOp4
 70
     1
102
RTVSPropertyOp5
 70
     1
102
RTVSPropertyOp6
 70
     1
102
RTVSPropertyOp7
 70
     1
102
RTVSPropertyOp8
 70
     1
102
RTVSPropertyOp9
 70
     1
102
RTVSPropertyOp10
 70
     1
102
RTVSPropertyOp11
 70
     1
102
RTVSPropertyOp12
 70
     1
102
RTVSPropertyOp13
 70
     1
102
RTVSPropertyOp14
 70
     1
102
RTVSPropertyOp15
 70
     1
102
RTVSPropertyOp16
 70
     1
102
RTVSPropertyOp17
 70
     1
102
RTVSPropertyOp18
 70
     1
102
RTVSPropertyOp19
 70
     1
102
RTVSPropertyOp20
 70
     1
102
RTVSPropertyOp21
 70
     1
102
RTVSPropertyOp22
 70
     1
102
RTVSPropertyOp23
 70
     1
102
RTVSPropertyOp24
 70
     1
102
RTVSPropertyOp25
 70
     1
102
RTVSPropertyOp26
 70
     1
102
RTVSPropertyOp27
 70
     1
102
RTVSPropertyOp28
 70
     1
102
RTVSPropertyOp29
 70
     1
102
RTVSPropertyOp30
 70
     1
102
RTVSPropertyOp31
 70
     1
102
RTVSPropertyOp32
 70
     1
  0
XRECORD
  5
1C5
102
{ACAD_REACTORS
330
1C4
102
}
330
1C4
100
AcDbXrecord
280
     1
102
RTVSPropertyOp0
 70
     1
102
RTVSPropertyOp1
 70
     1
102
RTVSPropertyOp2
 70
     1
102
RTVSPropertyOp3
 70
     1
102
RTVSPropertyOp4
 70
     1
102
RTVSPropertyOp5
 70
     1
102
RTVSPropertyOp6
 70
     1
102
RTVSPropertyOp7
 70
     1
102
RTVSPropertyOp8
 70
     1
102
RTVSPropertyOp9
 70
     1
102
RTVSPropertyOp10
 70
     1
102
RTVSPropertyOp11
 70
     1
102
RTVSPropertyOp12
 70
     1
102
RTVSPropertyOp13
 70
     1
102
RTVSPropertyOp14
 70
     1
102
RTVSPropertyOp15
 70
     1
102
RTVSPropertyOp16
 70
     1
102
RTVSPropertyOp17
 70
     1
102
RTVSPropertyOp18
 70
     1
102
RTVSPropertyOp19
 70
     1
102
RTVSPropertyOp20
 70
     1
102
RTVSPropertyOp21
 70
     1
102
RTVSPropertyOp22
 70
     1
102
RTVSPropertyOp23
 70
     1
102
RTVSPropertyOp24
 70
     1
102
RTVSPropertyOp25
 70
     1
102
RTVSPropertyOp26
 70
     1
102
RTVSPropertyOp27
 70
     1
102
RTVSPropertyOp28
 70
     1
102
RTVSPropertyOp29
 70
     1
102
RTVSPropertyOp30
 70
     1
102
RTVSPropertyOp31
 70
     1
102
RTVSPropertyOp32
 70
     1
  0
XRECORD
  5
1CD
102
{ACAD_REACTORS
330
1CC
102
}
330
1CC
100
AcDbXrecord
280
     1
102
RTVSPropertyOp0
 70
     1
102
RTVSPropertyOp1
 70
     1
102
RTVSPropertyOp2
 70
     1
102
RTVSPropertyOp3
 70
     1
102
RTVSPropertyOp4
 70
     1
102
RTVSPropertyOp5
 70
     1
102
RTVSPropertyOp6
 70
     1
102
RTVSPropertyOp7
 70
     1
102
RTVSPropertyOp8
 70
     1
102
RTVSPropertyOp9
 70
     1
102
RTVSPropertyOp10
 70
     1
102
RTVSPropertyOp11
 70
     1
102
RTVSPropertyOp12
 70
     1
102
RTVSPropertyOp13
 70
     1
102
RTVSPropertyOp14
 70
     1
102
RTVSPropertyOp15
 70
     1
102
RTVSPropertyOp16
 70
     1
102
RTVSPropertyOp17
 70
     1
102
RTVSPropertyOp18
 70
     1
102
RTVSPropertyOp19
 70
     1
102
RTVSPropertyOp20
 70
     1
102
RTVSPropertyOp21
 70
     1
102
RTVSPropertyOp22
 70
     1
102
RTVSPropertyOp23
 70
     1
102
RTVSPropertyOp24
 70
     1
102
RTVSPropertyOp25
 70
     1
102
RTVSPropertyOp26
 70
     1
102
RTVSPropertyOp27
 70
     1
102
RTVSPropertyOp28
 70
     1
102
RTVSPropertyOp29
 70
     1
102
RTVSPropertyOp30
 70
     1
102
RTVSPropertyOp31
 70
     1
102
RTVSPropertyOp32
 70
     1
  0
XRECORD
  5
1B1
102
{ACAD_REACTORS
330
1B0
102
}
330
1B0
100
AcDbXrecord
280
     1
102
RTVSPropertyOp0
 70
     1
102
RTVSPropertyOp1
 70
     1
102
RTVSPropertyOp2
 70
     1
102
RTVSPropertyOp3
 70
     1
102
RTVSPropertyOp4
 70
     1
102
RTVSPropertyOp5
 70
     1
102
RTVSPropertyOp6
 70
     1
102
RTVSPropertyOp7
 70
     1
102
RTVSPropertyOp8
 70
     1
102
RTVSPropertyOp9
 70
     1
102
RTVSPropertyOp10
 70
     1
102
RTVSPropertyOp11
 70
     1
102
RTVSPropertyOp12
 70
     1
102
RTVSPropertyOp13
 70
     1
102
RTVSPropertyOp14
 70
     1
102
RTVSPropertyOp15
 70
     1
102
RTVSPropertyOp16
 70
     1
102
RTVSPropertyOp17
 70
     1
102
RTVSPropertyOp18
 70
     1
102
RTVSPropertyOp19
 70
     1
102
RTVSPropertyOp20
 70
     1
102
RTVSPropertyOp21
 70
     1
102
RTVSPropertyOp22
 70
     1
102
RTVSPropertyOp23
 70
     1
102
RTVSPropertyOp24
 70
     1
102
RTVSPropertyOp25
 70
     1
102
RTVSPropertyOp26
 70
     1
102
RTVSPropertyOp27
 70
     1
102
RTVSPropertyOp28
 70
     1
102
RTVSPropertyOp29
 70
     1
102
RTVSPropertyOp30
 70
     1
102
RTVSPropertyOp31
 70
     1
102
RTVSPropertyOp32
 70
     1
  0
XRECORD
  5
1B3
102
{ACAD_REACTORS
330
1B2
102
}
330
1B2
100
AcDbXrecord
280
     1
102
RTVSPropertyOp0
 70
     1
102
RTVSPropertyOp1
 70
     1
102
RTVSPropertyOp2
 70
     1
102
RTVSPropertyOp3
 70
     1
102
RTVSPropertyOp4
 70
     1
102
RTVSPropertyOp5
 70
     1
102
RTVSPropertyOp6
 70
     1
102
RTVSPropertyOp7
 70
     1
102
RTVSPropertyOp8
 70
     1
102
RTVSPropertyOp9
 70
     1
102
RTVSPropertyOp10
 70
     1
102
RTVSPropertyOp11
 70
     1
102
RTVSPropertyOp12
 70
     1
102
RTVSPropertyOp13
 70
     1
102
RTVSPropertyOp14
 70
     1
102
RTVSPropertyOp15
 70
     1
102
RTVSPropertyOp16
 70
     1
102
RTVSPropertyOp17
 70
     1
102
RTVSPropertyOp18
 70
     1
102
RTVSPropertyOp19
 70
     1
102
RTVSPropertyOp20
 70
     1
102
RTVSPropertyOp21
 70
     1
102
RTVSPropertyOp22
 70
     1
102
RTVSPropertyOp23
 70
     1
102
RTVSPropertyOp24
 70
     1
102
RTVSPropertyOp25
 70
     1
102
RTVSPropertyOp26
 70
     1
102
RTVSPropertyOp27
 70
     1
102
RTVSPropertyOp28
 70
     1
102
RTVSPropertyOp29
 70
     1
102
RTVSPropertyOp30
 70
     1
102
RTVSPropertyOp31
 70
     1
102
RTVSPropertyOp32
 70
     1
  0
XRECORD
  5
1B5
102
{ACAD_REACTORS
330
1B4
102
}
330
1B4
100
AcDbXrecord
280
     1
102
RTVSPropertyOp0
 70
     1
102
RTVSPropertyOp1
 70
     1
102
RTVSPropertyOp2
 70
     1
102
RTVSPropertyOp3
 70
     1
102
RTVSPropertyOp4
 70
     1
102
RTVSPropertyOp5
 70
     1
102
RTVSPropertyOp6
 70
     1
102
RTVSPropertyOp7
 70
     1
102
RTVSPropertyOp8
 70
     1
102
RTVSPropertyOp9
 70
     1
102
RTVSPropertyOp10
 70
     1
102
RTVSPropertyOp11
 70
     1
102
RTVSPropertyOp12
 70
     1
102
RTVSPropertyOp13
 70
     1
102
RTVSPropertyOp14
 70
     1
102
RTVSPropertyOp15
 70
     1
102
RTVSPropertyOp16
 70
     1
102
RTVSPropertyOp17
 70
     1
102
RTVSPropertyOp18
 70
     1
102
RTVSPropertyOp19
 70
     1
102
RTVSPropertyOp20
 70
     1
102
RTVSPropertyOp21
 70
     1
102
RTVSPropertyOp22
 70
     1
102
RTVSPropertyOp23
 70
     1
102
RTVSPropertyOp24
 70
     1
102
RTVSPropertyOp25
 70
     1
102
RTVSPropertyOp26
 70
     1
102
RTVSPropertyOp27
 70
     1
102
RTVSPropertyOp28
 70
     1
102
RTVSPropertyOp29
 70
     1
102
RTVSPropertyOp30
 70
     1
102
RTVSPropertyOp31
 70
     1
102
RTVSPropertyOp32
 70
     1
  0
XRECORD
  5
1B7
102
{ACAD_REACTORS
330
1B6
102
}
330
1B6
100
AcDbXrecord
280
     1
102
RTVSPropertyOp0
 70
     1
102
RTVSPropertyOp1
 70
     1
102
RTVSPropertyOp2
 70
     1
102
RTVSPropertyOp3
 70
     1
102
RTVSPropertyOp4
 70
     1
102
RTVSPropertyOp5
 70
     1
102
RTVSPropertyOp6
 70
     1
102
RTVSPropertyOp7
 70
     1
102
RTVSPropertyOp8
 70
     1
102
RTVSPropertyOp9
 70
     1
102
RTVSPropertyOp10
 70
     1
102
RTVSPropertyOp11
 70
     1
102
RTVSPropertyOp12
 70
     1
102
RTVSPropertyOp13
 70
     1
102
RTVSPropertyOp14
 70
     1
102
RTVSPropertyOp15
 70
     1
102
RTVSPropertyOp16
 70
     1
102
RTVSPropertyOp17
 70
     1
102
RTVSPropertyOp18
 70
     1
102
RTVSPropertyOp19
 70
     1
102
RTVSPropertyOp20
 70
     1
102
RTVSPropertyOp21
 70
     1
102
RTVSPropertyOp22
 70
     1
102
RTVSPropertyOp23
 70
     1
102
RTVSPropertyOp24
 70
     1
102
RTVSPropertyOp25
 70
     1
102
RTVSPropertyOp26
 70
     1
102
RTVSPropertyOp27
 70
     1
102
RTVSPropertyOp28
 70
     1
102
RTVSPropertyOp29
 70
     1
102
RTVSPropertyOp30
 70
     1
102
RTVSPropertyOp31
 70
     1
102
RTVSPropertyOp32
 70
     1
  0
XRECORD
  5
1CB
102
{ACAD_REACTORS
330
1CA
102
}
330
1CA
100
AcDbXrecord
280
     1
102
RTVSPropertyOp0
 70
     1
102
RTVSPropertyOp1
 70
     1
102
RTVSPropertyOp2
 70
     1
102
RTVSPropertyOp3
 70
     1
102
RTVSPropertyOp4
 70
     1
102
RTVSPropertyOp5
 70
     1
102
RTVSPropertyOp6
 70
     1
102
RTVSPropertyOp7
 70
     1
102
RTVSPropertyOp8
 70
     1
102
RTVSPropertyOp9
 70
     1
102
RTVSPropertyOp10
 70
     1
102
RTVSPropertyOp11
 70
     1
102
RTVSPropertyOp12
 70
     1
102
RTVSPropertyOp13
 70
     1
102
RTVSPropertyOp14
 70
     1
102
RTVSPropertyOp15
 70
     1
102
RTVSPropertyOp16
 70
     1
102
RTVSPropertyOp17
 70
     1
102
RTVSPropertyOp18
 70
     1
102
RTVSPropertyOp19
 70
     1
102
RTVSPropertyOp20
 70
     1
102
RTVSPropertyOp21
 70
     1
102
RTVSPropertyOp22
 70
     1
102
RTVSPropertyOp23
 70
     1
102
RTVSPropertyOp24
 70
     1
102
RTVSPropertyOp25
 70
     1
102
RTVSPropertyOp26
 70
     1
102
RTVSPropertyOp27
 70
     1
102
RTVSPropertyOp28
 70
     1
102
RTVSPropertyOp29
 70
     1
102
RTVSPropertyOp30
 70
     1
102
RTVSPropertyOp31
 70
     1
102
RTVSPropertyOp32
 70
     1
  0
XRECORD
  5
1C1
102
{ACAD_REACTORS
330
1C0
102
}
330
1C0
100
AcDbXrecord
280
     1
102
RTVSPropertyOp0
 70
     1
102
RTVSPropertyOp1
 70
     1
102
RTVSPropertyOp2
 70
     1
102
RTVSPropertyOp3
 70
     1
102
RTVSPropertyOp4
 70
     1
102
RTVSPropertyOp5
 70
     1
102
RTVSPropertyOp6
 70
     1
102
RTVSPropertyOp7
 70
     1
102
RTVSPropertyOp8
 70
     1
102
RTVSPropertyOp9
 70
     1
102
RTVSPropertyOp10
 70
     1
102
RTVSPropertyOp11
 70
     1
102
RTVSPropertyOp12
 70
     1
102
RTVSPropertyOp13
 70
     1
102
RTVSPropertyOp14
 70
     1
102
RTVSPropertyOp15
 70
     1
102
RTVSPropertyOp16
 70
     1
102
RTVSPropertyOp17
 70
     1
102
RTVSPropertyOp18
 70
     1
102
RTVSPropertyOp19
 70
     1
102
RTVSPropertyOp20
 70
     1
102
RTVSPropertyOp21
 70
     1
102
RTVSPropertyOp22
 70
     1
102
RTVSPropertyOp23
 70
     1
102
RTVSPropertyOp24
 70
     1
102
RTVSPropertyOp25
 70
     1
102
RTVSPropertyOp26
 70
     1
102
RTVSPropertyOp27
 70
     1
102
RTVSPropertyOp28
 70
     1
102
RTVSPropertyOp29
 70
     1
102
RTVSPropertyOp30
 70
     1
102
RTVSPropertyOp31
 70
     1
102
RTVSPropertyOp32
 70
     1
  0
XRECORD
  5
1C9
102
{ACAD_REACTORS
330
1C8
102
}
330
1C8
100
AcDbXrecord
280
     1
102
RTVSPropertyOp0
 70
     1
102
RTVSPropertyOp1
 70
     1
102
RTVSPropertyOp2
 70
     1
102
RTVSPropertyOp3
 70
     1
102
RTVSPropertyOp4
 70
     1
102
RTVSPropertyOp5
 70
     1
102
RTVSPropertyOp6
 70
     1
102
RTVSPropertyOp7
 70
     1
102
RTVSPropertyOp8
 70
     1
102
RTVSPropertyOp9
 70
     1
102
RTVSPropertyOp10
 70
     1
102
RTVSPropertyOp11
 70
     1
102
RTVSPropertyOp12
 70
     1
102
RTVSPropertyOp13
 70
     1
102
RTVSPropertyOp14
 70
     1
102
RTVSPropertyOp15
 70
     1
102
RTVSPropertyOp16
 70
     1
102
RTVSPropertyOp17
 70
     1
102
RTVSPropertyOp18
 70
     1
102
RTVSPropertyOp19
 70
     1
102
RTVSPropertyOp20
 70
     1
102
RTVSPropertyOp21
 70
     1
102
RTVSPropertyOp22
 70
     1
102
RTVSPropertyOp23
 70
     1
102
RTVSPropertyOp24
 70
     1
102
RTVSPropertyOp25
 70
     1
102
RTVSPropertyOp26
 70
     1
102
RTVSPropertyOp27
 70
     1
102
RTVSPropertyOp28
 70
     1
102
RTVSPropertyOp29
 70
     1
102
RTVSPropertyOp30
 70
     1
102
RTVSPropertyOp31
 70
     1
102
RTVSPropertyOp32
 70
     1
  0
ENDSEC
  0
EOF
