  0
SECTION
  2
HEADER
  9
$ACADVER
  1
AC1015
  9
$ACADMAINTVER
 70
     6
  9
$DWGCODEPAGE
  3
ANSI_932
  9
$INSBASE
 10
0.0
 20
0.0
 30
0.0
  9
$EXTMIN
 10
0.0
 20
0.0
 30
0.0
  9
$EXTMAX
 10
210.0
 20
297.0000000000001
 30
0.0
  9
$LIMMIN
 10
0.0
 20
0.0
  9
$LIMMAX
 10
12.0
 20
9.0
  9
$ORTHOMODE
 70
     0
  9
$REGENMODE
 70
     1
  9
$FILLMODE
 70
     1
  9
$QTEXTMODE
 70
     0
  9
$MIRRTEXT
 70
     1
  9
$LTSCALE
 40
1.0
  9
$ATTMODE
 70
     1
  9
$TEXTSIZE
 40
0.2
  9
$TRACEWID
 40
0.05
  9
$TEXTSTYLE
  7
Standard
  9
$CLAYER
  8
0
  9
$CELTYPE
  6
ByLayer
  9
$CECOLOR
 62
   256
  9
$CELTSCALE
 40
1.0
  9
$DISPSILH
 70
     0
  9
$DIMSCALE
 40
1.0
  9
$DIMASZ
 40
0.18
  9
$DIMEXO
 40
0.0625
  9
$DIMDLI
 40
0.38
  9
$DIMRND
 40
0.0
  9
$DIMDLE
 40
0.0
  9
$DIMEXE
 40
0.18
  9
$DIMTP
 40
0.0
  9
$DIMTM
 40
0.0
  9
$DIMTXT
 40
0.18
  9
$DIMCEN
 40
0.09
  9
$DIMTSZ
 40
0.0
  9
$DIMTOL
 70
     0
  9
$DIMLIM
 70
     0
  9
$DIMTIH
 70
     1
  9
$DIMTOH
 70
     1
  9
$DIMSE1
 70
     0
  9
$DIMSE2
 70
     0
  9
$DIMTAD
 70
     0
  9
$DIMZIN
 70
     0
  9
$DIMBLK
  1

  9
$DIMASO
 70
     1
  9
$DIMSHO
 70
     1
  9
$DIMPOST
  1

  9
$DIMAPOST
  1

  9
$DIMALT
 70
     0
  9
$DIMALTD
 70
     2
  9
$DIMALTF
 40
25.4
  9
$DIMLFAC
 40
1.0
  9
$DIMTOFL
 70
     0
  9
$DIMTVP
 40
0.0
  9
$DIMTIX
 70
     0
  9
$DIMSOXD
 70
     0
  9
$DIMSAH
 70
     0
  9
$DIMBLK1
  1

  9
$DIMBLK2
  1

  9
$DIMSTYLE
  2
Standard
  9
$DIMCLRD
 70
     0
  9
$DIMCLRE
 70
     0
  9
$DIMCLRT
 70
     0
  9
$DIMTFAC
 40
1.0
  9
$DIMGAP
 40
0.09
  9
$DIMJUST
 70
     0
  9
$DIMSD1
 70
     0
  9
$DIMSD2
 70
     0
  9
$DIMTOLJ
 70
     1
  9
$DIMTZIN
 70
     0
  9
$DIMALTZ
 70
     0
  9
$DIMALTTZ
 70
     0
  9
$DIMUPT
 70
     0
  9
$DIMDEC
 70
     4
  9
$DIMTDEC
 70
     4
  9
$DIMALTU
 70
     2
  9
$DIMALTTD
 70
     2
  9
$DIMTXSTY
  7
Standard
  9
$DIMAUNIT
 70
     0
  9
$DIMADEC
 70
     0
  9
$DIMALTRND
 40
0.0
  9
$DIMAZIN
 70
     0
  9
$DIMDSEP
 70
    46
  9
$DIMATFIT
 70
     3
  9
$DIMFRAC
 70
     0
  9
$DIMLDRBLK
  1

  9
$DIMLUNIT
 70
     2
  9
$DIMLWD
 70
    -2
  9
$DIMLWE
 70
    -2
  9
$DIMTMOVE
 70
     0
  9
$LUNITS
 70
     2
  9
$LUPREC
 70
     4
  9
$SKETCHINC
 40
0.1
  9
$FILLETRAD
 40
0.5
  9
$AUNITS
 70
     0
  9
$AUPREC
 70
     0
  9
$MENU
  1
.
  9
$ELEVATION
 40
0.0
  9
$PELEVATION
 40
0.0
  9
$THICKNESS
 40
0.0
  9
$LIMCHECK
 70
     0
  9
$CHAMFERA
 40
0.5
  9
$CHAMFERB
 40
0.5
  9
$CHAMFERC
 40
1.0
  9
$CHAMFERD
 40
0.0
  9
$SKPOLY
 70
     0
  9
$TDCREATE
 40
2460334.576868739
  9
$TDUCREATE
 40
2460334.201868739
  9
$TDUPDATE
 40
2460334.57687
  9
$TDUUPDATE
 40
2460334.20187
  9
$TDINDWG
 40
0.0000000116
  9
$TDUSRTIMER
 40
0.0000000116
  9
$USRTIMER
 70
     1
  9
$ANGBASE
 50
0.0
  9
$ANGDIR
 70
     0
  9
$PDMODE
 70
     0
  9
$PDSIZE
 40
0.0
  9
$PLINEWID
 40
0.0
  9
$SPLFRAME
 70
     0
  9
$SPLINETYPE
 70
     6
  9
$SPLINESEGS
 70
     8
  9
$HANDSEED
  5
1E9
  9
$SURFTAB1
 70
     6
  9
$SURFTAB2
 70
     6
  9
$SURFTYPE
 70
     6
  9
$SURFU
 70
     6
  9
$SURFV
 70
     6
  9
$UCSBASE
  2

  9
$UCSNAME
  2

  9
$UCSORG
 10
0.0
 20
0.0
 30
0.0
  9
$UCSXDIR
 10
1.0
 20
0.0
 30
0.0
  9
$UCSYDIR
 10
0.0
 20
1.0
 30
0.0
  9
$UCSORTHOREF
  2

  9
$UCSORTHOVIEW
 70
     0
  9
$UCSORGTOP
 10
0.0
 20
0.0
 30
0.0
  9
$UCSORGBOTTOM
 10
0.0
 20
0.0
 30
0.0
  9
$UCSORGLEFT
 10
0.0
 20
0.0
 30
0.0
  9
$UCSORGRIGHT
 10
0.0
 20
0.0
 30
0.0
  9
$UCSORGFRONT
 10
0.0
 20
0.0
 30
0.0
  9
$UCSORGBACK
 10
0.0
 20
0.0
 30
0.0
  9
$PUCSBASE
  2

  9
$PUCSNAME
  2

  9
$PUCSORG
 10
0.0
 20
0.0
 30
0.0
  9
$PUCSXDIR
 10
1.0
 20
0.0
 30
0.0
  9
$PUCSYDIR
 10
0.0
 20
1.0
 30
0.0
  9
$PUCSORTHOREF
  2

  9
$PUCSORTHOVIEW
 70
     0
  9
$PUCSORGTOP
 10
0.0
 20
0.0
 30
0.0
  9
$PUCSORGBOTTOM
 10
0.0
 20
0.0
 30
0.0
  9
$PUCSORGLEFT
 10
0.0
 20
0.0
 30
0.0
  9
$PUCSORGRIGHT
 10
0.0
 20
0.0
 30
0.0
  9
$PUCSORGFRONT
 10
0.0
 20
0.0
 30
0.0
  9
$PUCSORGBACK
 10
0.0
 20
0.0
 30
0.0
  9
$USERI1
 70
     0
  9
$USERI2
 70
     0
  9
$USERI3
 70
     0
  9
$USERI4
 70
     0
  9
$USERI5
 70
     0
  9
$USERR1
 40
18.1
  9
$USERR2
 40
0.0
  9
$USERR3
 40
0.0
  9
$USERR4
 40
0.0
  9
$USERR5
 40
0.0
  9
$WORLDVIEW
 70
     1
  9
$SHADEDGE
 70
     3
  9
$SHADEDIF
 70
    70
  9
$TILEMODE
 70
     1
  9
$MAXACTVP
 70
    64
  9
$PINSBASE
 10
0.0
 20
0.0
 30
0.0
  9
$PLIMCHECK
 70
     0
  9
$PEXTMIN
 10
1.00000000000000E+20
 20
1.00000000000000E+20
 30
1.00000000000000E+20
  9
$PEXTMAX
 10
-1.00000000000000E+20
 20
-1.00000000000000E+20
 30
-1.00000000000000E+20
  9
$PLIMMIN
 10
0.0
 20
0.0
  9
$PLIMMAX
 10
12.0
 20
9.0
  9
$UNITMODE
 70
     0
  9
$VISRETAIN
 70
     1
  9
$PLINEGEN
 70
     0
  9
$PSLTSCALE
 70
     1
  9
$TREEDEPTH
 70
  3020
  9
$CMLSTYLE
  2
Standard
  9
$CMLJUST
 70
     0
  9
$CMLSCALE
 40
1.0
  9
$PROXYGRAPHICS
 70
     1
  9
$MEASUREMENT
 70
     1
  9
$CELWEIGHT
370
    -1
  9
$ENDCAPS
280
     0
  9
$JOINSTYLE
280
     0
  9
$LWDISPLAY
290
     0
  9
$INSUNITS
 70
     4
  9
$HYPERLINKBASE
  1

  9
$STYLESHEET
  1

  9
$XEDIT
290
     1
  9
$CEPSNTYPE
380
     0
  9
$PSTYLEMODE
290
     1
  9
$FINGERPRINTGUID
  2
{EE4E2282-277B-4518-A444-3A9AD89490F3}
  9
$VERSIONGUID
  2
{FAEB1C32-E019-11D5-929B-00C0DF256EC4}
  9
$EXTNAMES
290
     1
  9
$PSVPSCALE
 40
0.0
  9
$OLESTARTUP
290
     0
  0
ENDSEC
  0
SECTION
  2
CLASSES
  0
CLASS
  1
ACDBDICTIONARYWDFLT
  2
AcDbDictionaryWithDefault
  3
ObjectDBX Classes
 90
        0
280
     0
281
     0
  0
CLASS
  1
VISUALSTYLE
  2
AcDbVisualStyle
  3
ObjectDBX Classes
 90
     4095
280
     0
281
     0
  0
CLASS
  1
MATERIAL
  2
AcDbMaterial
  3
ObjectDBX Classes
 90
     1153
280
     0
281
     0
  0
CLASS
  1
DICTIONARYVAR
  2
AcDbDictionaryVar
  3
ObjectDBX Classes
 90
        0
280
     0
281
     0
  0
CLASS
  1
ACDBPLACEHOLDER
  2
AcDbPlaceHolder
  3
ObjectDBX Classes
 90
        0
280
     0
281
     0
  0
CLASS
  1
LAYOUT
  2
AcDbLayout
  3
ObjectDBX Classes
 90
        0
280
     0
281
     0
  0
ENDSEC
  0
SECTION
  2
TABLES
  0
TABLE
  2
VPORT
  5
8
330
0
100
AcDbSymbolTable
 70
     1
  0
VPORT
  5
29
330
8
100
AcDbSymbolTableRecord
100
AcDbViewportTableRecord
  2
*Active
 70
     0
 10
0.0
 20
0.0
 11
1.0
 21
1.0
 12
105.0
 22
148.5000000000001
 13
0.0
 23
0.0
 14
0.5
 24
0.5
 15
0.5
 25
0.5
 16
0.0
 26
0.0
 36
1.0
 17
0.0
 27
0.0
 37
0.0
 40
326.7000000000002
 41
1.60267857142857
 42
50.0
 43
0.0
 44
0.0
 50
0.0
 51
0.0
 71
     0
 72
   100
 73
     1
 74
     3
 75
     0
 76
     0
 77
     0
 78
     0
281
     0
 65
     1
110
0.0
120
0.0
130
0.0
111
1.0
121
0.0
131
0.0
112
0.0
122
1.0
132
0.0
 79
     0
146
0.0
  0
ENDTAB
  0
TABLE
  2
LTYPE
  5
5
330
0
100
AcDbSymbolTable
 70
     8
  0
LTYPE
  5
14
330
5
100
AcDbSymbolTableRecord
100
AcDbLinetypeTableRecord
  2
ByBlock
 70
     0
  3

 72
    65
 73
     0
 40
0.0
  0
LTYPE
  5
15
330
5
100
AcDbSymbolTableRecord
100
AcDbLinetypeTableRecord
  2
ByLayer
 70
     0
  3

 72
    65
 73
     0
 40
0.0
  0
LTYPE
  5
16
330
5
100
AcDbSymbolTableRecord
100
AcDbLinetypeTableRecord
  2
Continuous
 70
     0
  3
Solid line
 72
    65
 73
     0
 40
0.0
  0
LTYPE
  5
3F
330
5
100
AcDbSymbolTableRecord
100
AcDbLinetypeTableRecord
  2
DASHED
 70
     0
  3
Dashed
 72
    65
 73
     2
 40
15.0
 49
7.0
 74
     0
 49
-8.0
 74
     0
  0
LTYPE
  5
40
330
5
100
AcDbSymbolTableRecord
100
AcDbLinetypeTableRecord
  2
DOTTED
 70
     0
  3
Dotted
 72
    65
 73
     2
 40
1.0
 49
0.0
 74
     0
 49
-1.0
 74
     0
  0
LTYPE
  5
41
330
5
100
AcDbSymbolTableRecord
100
AcDbLinetypeTableRecord
  2
DOT_CENTER
 70
     0
  3
Dot_Center
 72
    65
 73
     4
 40
14.0
 49
12.0
 74
     0
 49
-1.0
 74
     0
 49
0.0
 74
     0
 49
-1.0
 74
     0
  0
LTYPE
  5
42
330
5
100
AcDbSymbolTableRecord
100
AcDbLinetypeTableRecord
  2
LONG_DASHED
 70
     0
  3
Long_Dashed
 72
    65
 73
     2
 40
15.0
 49
10.0
 74
     0
 49
-5.0
 74
     0
  0
LTYPE
  5
43
330
5
100
AcDbSymbolTableRecord
100
AcDbLinetypeTableRecord
  2
DASH_CENTER
 70
     0
  3
Dash_Center
 72
    65
 73
     4
 40
14.0
 49
11.0
 74
     0
 49
-1.0
 74
     0
 49
1.0
 74
     0
 49
-1.0
 74
     0
  0
LTYPE
  5
44
330
5
100
AcDbSymbolTableRecord
100
AcDbLinetypeTableRecord
  2
PHANTOM
 70
     0
  3
Phantom
 72
    65
 73
     6
 40
13.0
 49
10.0
 74
     0
 49
-1.0
 74
     0
 49
0.0
 74
     0
 49
-1.0
 74
     0
 49
0.0
 74
     0
 49
-1.0
 74
     0
  0
LTYPE
  5
45
330
5
100
AcDbSymbolTableRecord
100
AcDbLinetypeTableRecord
  2
CENTER_DASH_DASH
 70
     0
  3
Center_Dash_Dash
 72
    65
 73
     6
 40
14.0
 49
9.0
 74
     0
 49
-1.0
 74
     0
 49
1.0
 74
     0
 49
-1.0
 74
     0
 49
1.0
 74
     0
 49
-1.0
 74
     0
  0
ENDTAB
  0
TABLE
  2
LAYER
  5
2
330
0
100
AcDbSymbolTable
 70
     6
  0
LAYER
  5
10
330
2
100
AcDbSymbolTableRecord
100
AcDbLayerTableRecord
  2
0
 70
     0
 62
     7
  6
Continuous
370
    -3
390
F
  0
LAYER
  5
46
330
2
100
AcDbSymbolTableRecord
100
AcDbLayerTableRecord
  2
1
 70
     0
 62
     7
  6
Continuous
370
    -3
390
F
  0
LAYER
  5
47
330
2
100
AcDbSymbolTableRecord
100
AcDbLayerTableRecord
  2
LAY-1
 70
     0
 62
     7
  6
Continuous
370
    -3
390
F
  0
LAYER
  5
48
330
2
100
AcDbSymbolTableRecord
100
AcDbLayerTableRecord
  2
LAY-124
 70
     0
 62
     7
  6
Continuous
370
    -3
390
F
  0
LAYER
  5
49
330
2
100
AcDbSymbolTableRecord
100
AcDbLayerTableRecord
  2
LAY-3
 70
     0
 62
     7
  6
Continuous
370
    -3
390
F
  0
LAYER
  5
4A
330
2
100
AcDbSymbolTableRecord
100
AcDbLayerTableRecord
  2
_U_30EC_U_30A4_U_30E4_U_30FC_1
 70
     0
 62
     7
  6
Continuous
370
    -3
390
F
  0
ENDTAB
  0
TABLE
  2
STYLE
  5
3
330
0
100
AcDbSymbolTable
 70
     3
  0
STYLE
  5
11
330
3
100
AcDbSymbolTableRecord
100
AcDbTextStyleTableRecord
  2
Standard
 70
     0
 40
0.0
 41
1.0
 50
0.0
 71
     0
 42
0.2
  3
txt
  4

  0
STYLE
  5
BD
330
3
100
AcDbSymbolTableRecord
100
AcDbTextStyleTableRecord
  2
CONVERTER_11
 70
     0
 40
0.0
 41
0.89
 50
0.0
 71
     0
 42
0.2
  3
MS Mincho.ttf
  4

1001
ACAD
1000
MS Mincho
1071
    32785
  0
STYLE
  5
143
330
3
100
AcDbSymbolTableRecord
100
AcDbTextStyleTableRecord
  2
CONVERTER_12
 70
     0
 40
0.0
 41
0.9
 50
0.0
 71
     0
 42
0.2
  3
txt.shx
  4

  0
ENDTAB
  0
TABLE
  2
VIEW
  5
6
330
0
100
AcDbSymbolTable
 70
     0
  0
ENDTAB
  0
TABLE
  2
UCS
  5
7
330
0
100
AcDbSymbolTable
 70
     0
  0
ENDTAB
  0
TABLE
  2
APPID
  5
9
330
0
100
AcDbSymbolTable
 70
     1
  0
APPID
  5
12
330
9
100
AcDbSymbolTableRecord
100
AcDbRegAppTableRecord
  2
ACAD
 70
     0
  0
ENDTAB
  0
TABLE
  2
DIMSTYLE
  5
A
330
0
100
AcDbSymbolTable
 70
     9
100
AcDbDimStyleTable
  0
DIMSTYLE
105
27
330
A
100
AcDbSymbolTableRecord
100
AcDbDimStyleTableRecord
  2
Standard
 70
     0
178
     0
340
11
  0
DIMSTYLE
105
15B
102
{ACAD_REACTORS
330
15C
102
}
330
A
100
AcDbSymbolTableRecord
100
AcDbDimStyleTableRecord
  2
ME10_DIM_10
 70
     0
 41
3.5
 42
0.0
 44
1.0
 73
     0
 74
     0
 77
     1
 78
     8
140
3.5
147
1.0
172
     1
173
     1
174
     1
175
     1
176
     2
177
     2
271
     2
178
     7
271
     2
340
143
  0
DIMSTYLE
105
168
102
{ACAD_REACTORS
330
169
102
}
330
A
100
AcDbSymbolTableRecord
100
AcDbDimStyleTableRecord
  2
ME10_DIM_11
 70
     0
 41
3.5
 42
0.0
 44
1.0
 73
     0
 74
     0
 77
     1
 78
     8
140
3.5
147
1.0
172
     1
173
     1
174
     1
175
     1
176
     2
177
     2
271
     2
178
     7
271
     2
340
143
  0
DIMSTYLE
105
175
102
{ACAD_REACTORS
330
176
102
}
330
A
100
AcDbSymbolTableRecord
100
AcDbDimStyleTableRecord
  2
ME10_DIM_12
 70
     0
 41
3.5
 42
0.0
 44
1.0
 73
     0
 74
     0
 77
     1
 78
     8
140
3.5
147
1.0
172
     1
173
     1
174
     1
175
     1
176
     2
177
     2
271
     2
178
     7
271
     2
340
143
  0
DIMSTYLE
105
180
102
{ACAD_REACTORS
330
181
102
}
330
A
100
AcDbSymbolTableRecord
100
AcDbDimStyleTableRecord
  2
ME10_DIM_13
 70
     0
 41
3.5
 42
0.0
 44
1.0
 73
     0
 74
     0
 77
     1
 78
     8
140
3.5
147
1.0
172
     1
173
     1
174
     1
175
     1
176
     2
177
     2
271
     2
178
     7
271
     2
340
143
  0
DIMSTYLE
105
18B
102
{ACAD_REACTORS
330
18C
102
}
330
A
100
AcDbSymbolTableRecord
100
AcDbDimStyleTableRecord
  2
ME10_DIM_14
 70
     0
 41
3.5
 42
0.0
 44
1.0
 73
     0
 74
     0
 77
     1
 78
     8
140
3.5
147
1.0
172
     1
173
     1
174
     1
175
     1
176
     2
177
     2
271
     2
178
     7
271
     2
340
143
  0
DIMSTYLE
105
196
102
{ACAD_REACTORS
330
197
102
}
330
A
100
AcDbSymbolTableRecord
100
AcDbDimStyleTableRecord
  2
ME10_DIM_15
 70
     0
  3
{\Fgdt;n}<>
 41
3.5
 42
0.0
 44
1.0
 73
     0
 74
     0
 77
     1
 78
     8
140
3.5
147
1.0
172
     1
173
     1
174
     1
175
     1
176
     2
177
     2
271
     2
178
     7
271
     2
340
143
  0
DIMSTYLE
105
1A1
102
{ACAD_REACTORS
330
1A2
102
}
330
A
100
AcDbSymbolTableRecord
100
AcDbDimStyleTableRecord
  2
ME10_DIM_16
 70
     0
 41
3.5
 42
0.0
 44
1.0
 73
     0
 74
     0
 77
     1
 78
     8
140
3.5
147
1.0
172
     1
173
     1
174
     1
175
     1
176
     2
177
     2
271
     2
178
     7
271
     2
340
143
  0
DIMSTYLE
105
1AC
102
{ACAD_REACTORS
330
1AD
102
}
330
A
100
AcDbSymbolTableRecord
100
AcDbDimStyleTableRecord
  2
ME10_DIM_17
 70
     0
  3
{\Fgdt;n}<>
 41
3.5
 42
0.0
 44
1.0
 73
     0
 74
     0
 77
     1
 78
     8
140
3.5
147
1.0
172
     1
173
     1
174
     1
175
     1
176
     2
177
     2
271
     2
178
     7
271
     2
340
143
  0
ENDTAB
  0
TABLE
  2
BLOCK_RECORD
  5
1
330
0
100
AcDbSymbolTable
 70
    15
  0
BLOCK_RECORD
  5
1F
330
1
100
AcDbSymbolTableRecord
100
AcDbBlockTableRecord
  2
*Model_Space
340
22
  0
BLOCK_RECORD
  5
1B
330
1
100
AcDbSymbolTableRecord
100
AcDbBlockTableRecord
  2
*Paper_Space
340
1E
  0
BLOCK_RECORD
  5
23
330
1
100
AcDbSymbolTableRecord
100
AcDbBlockTableRecord
  2
*Paper_Space0
340
26
  0
BLOCK_RECORD
  5
4B
330
1
100
AcDbSymbolTableRecord
100
AcDbBlockTableRecord
  2
開示A4
340
0
102
{BLKREFS
331
4F
102
}
  0
BLOCK_RECORD
  5
4E
330
1
100
AcDbSymbolTableRecord
100
AcDbBlockTableRecord
  2
開示A4枠
340
0
102
{BLKREFS
331
58
102
}
  0
BLOCK_RECORD
  5
52
330
1
100
AcDbSymbolTableRecord
100
AcDbBlockTableRecord
  2
nut
340
0
102
{BLKREFS
331
59
102
}
  0
BLOCK_RECORD
  5
55
330
1
100
AcDbSymbolTableRecord
100
AcDbBlockTableRecord
  2
body
340
0
102
{BLKREFS
331
5A
102
}
  0
BLOCK_RECORD
  5
152
330
1
100
AcDbSymbolTableRecord
100
AcDbBlockTableRecord
  2
*D5
340
0
  0
BLOCK_RECORD
  5
15D
330
1
100
AcDbSymbolTableRecord
100
AcDbBlockTableRecord
  2
*D6
340
0
  0
BLOCK_RECORD
  5
16A
330
1
100
AcDbSymbolTableRecord
100
AcDbBlockTableRecord
  2
*D7
340
0
  0
BLOCK_RECORD
  5
177
330
1
100
AcDbSymbolTableRecord
100
AcDbBlockTableRecord
  2
*D8
340
0
  0
BLOCK_RECORD
  5
182
330
1
100
AcDbSymbolTableRecord
100
AcDbBlockTableRecord
  2
*D9
340
0
  0
BLOCK_RECORD
  5
18D
330
1
100
AcDbSymbolTableRecord
100
AcDbBlockTableRecord
  2
*D10
340
0
  0
BLOCK_RECORD
  5
198
330
1
100
AcDbSymbolTableRecord
100
AcDbBlockTableRecord
  2
*D11
340
0
  0
BLOCK_RECORD
  5
1A3
330
1
100
AcDbSymbolTableRecord
100
AcDbBlockTableRecord
  2
*D12
340
0
  0
BLOCK_RECORD
  5
1AE
330
1
100
AcDbSymbolTableRecord
100
AcDbBlockTableRecord
  2
*D13
340
0
102
{BLKREFS
331
1B5
102
}
  0
BLOCK_RECORD
  5
1B6
330
1
100
AcDbSymbolTableRecord
100
AcDbBlockTableRecord
  2
*D14
340
0
102
{BLKREFS
331
1BD
102
}
  0
ENDTAB
  0
ENDSEC
  0
SECTION
  2
BLOCKS
  0
BLOCK
  5
20
330
1F
100
AcDbEntity
  8
0
100
AcDbBlockBegin
  2
*Model_Space
 70
     0
 10
0.0
 20
0.0
 30
0.0
  3
*Model_Space
  1

  0
ENDBLK
  5
21
330
1F
100
AcDbEntity
  8
0
100
AcDbBlockEnd
  0
BLOCK
  5
1C
330
1B
100
AcDbEntity
 67
     1
  8
0
100
AcDbBlockBegin
  2
*Paper_Space
 70
     0
 10
0.0
 20
0.0
 30
0.0
  3
*Paper_Space
  1

  0
ENDBLK
  5
1D
330
1B
100
AcDbEntity
 67
     1
  8
0
100
AcDbBlockEnd
  0
BLOCK
  5
24
330
23
100
AcDbEntity
  8
0
100
AcDbBlockBegin
  2
*Paper_Space0
 70
     0
 10
0.0
 20
0.0
 30
0.0
  3
*Paper_Space0
  1

  0
ENDBLK
  5
25
330
23
100
AcDbEntity
  8
0
100
AcDbBlockEnd
  0
BLOCK
  5
4C
330
4B
100
AcDbEntity
  8
0
100
AcDbBlockBegin
  2
開示A4
 70
     0
 10
0.0
 20
0.0
 30
0.0
  3
開示A4
  1

  0
POINT
  5
5B
330
4B
100
AcDbEntity
  8
1
 62
     4
100
AcDbPoint
 10
183.0
 20
15.0
 30
0.0
  0
POINT
  5
5C
330
4B
100
AcDbEntity
  8
1
 62
     4
100
AcDbPoint
 10
93.75
 20
17.0
 30
0.0
  0
POINT
  5
5D
330
4B
100
AcDbEntity
  8
1
 62
     4
100
AcDbPoint
 10
85.25
 20
17.0
 30
0.0
  0
POINT
  5
5E
330
4B
100
AcDbEntity
  8
1
 62
     4
100
AcDbPoint
 10
106.5
 20
19.0
 30
0.0
  0
POINT
  5
5F
330
4B
100
AcDbEntity
  8
1
 62
     4
100
AcDbPoint
 10
106.5
 20
12.5
 30
0.0
  0
POINT
  5
60
330
4B
100
AcDbEntity
  8
1
 62
     4
100
AcDbPoint
 10
112.25
 20
12.5
 30
0.0
  0
POINT
  5
61
330
4B
100
AcDbEntity
  8
1
 62
     4
100
AcDbPoint
 10
100.75
 20
12.5
 30
0.0
  0
POINT
  5
62
330
4B
100
AcDbEntity
  8
1
 62
     4
100
AcDbPoint
 10
123.5
 20
19.0
 30
0.0
  0
POINT
  5
63
330
4B
100
AcDbEntity
  8
1
 62
     4
100
AcDbPoint
 10
123.5
 20
12.5
 30
0.0
  0
POINT
  5
64
330
4B
100
AcDbEntity
  8
1
 62
     4
100
AcDbPoint
 10
129.25
 20
12.5
 30
0.0
  0
POINT
  5
65
330
4B
100
AcDbEntity
  8
1
 62
     4
100
AcDbPoint
 10
117.75
 20
12.5
 30
0.0
  0
POINT
  5
66
330
4B
100
AcDbEntity
  8
1
 62
     4
100
AcDbPoint
 10
140.5
 20
19.0
 30
0.0
  0
POINT
  5
67
330
4B
100
AcDbEntity
  8
1
 62
     4
100
AcDbPoint
 10
140.5
 20
12.5
 30
0.0
  0
POINT
  5
68
330
4B
100
AcDbEntity
  8
1
 62
     4
100
AcDbPoint
 10
146.25
 20
12.5
 30
0.0
  0
POINT
  5
69
330
4B
100
AcDbEntity
  8
1
 62
     4
100
AcDbPoint
 10
134.75
 20
12.5
 30
0.0
  0
POINT
  5
6A
330
4B
100
AcDbEntity
  8
1
 62
     4
100
AcDbPoint
 10
151.75
 20
12.5
 30
0.0
  0
POINT
  5
6B
330
4B
100
AcDbEntity
  8
1
 62
     4
100
AcDbPoint
 10
163.25
 20
12.5
 30
0.0
  0
POINT
  5
6C
330
4B
100
AcDbEntity
  8
1
 62
     4
100
AcDbPoint
 10
157.5
 20
12.5
 30
0.0
  0
POINT
  5
6D
330
4B
100
AcDbEntity
  8
1
 62
     4
100
AcDbPoint
 10
57.0
 20
14.25
 30
0.0
  0
POINT
  5
6E
330
4B
100
AcDbEntity
  8
1
 62
     4
100
AcDbPoint
 10
57.0
 20
22.75
 30
0.0
  0
POINT
  5
6F
330
4B
100
AcDbEntity
  8
1
 62
     4
100
AcDbPoint
 10
47.5
 20
282.0000000000003
 30
0.0
  0
POINT
  5
70
330
4B
100
AcDbEntity
  8
1
 62
     4
100
AcDbPoint
 10
157.5
 20
19.0
 30
0.0
  0
POINT
  5
71
330
4B
100
AcDbEntity
  8
1
 62
     4
100
AcDbPoint
 10
57.0
 20
16.25
 30
0.0
  0
POINT
  5
72
330
4B
100
AcDbEntity
  8
1
 62
     4
100
AcDbPoint
 10
57.0
 20
24.75
 30
0.0
  0
POINT
  5
73
330
4B
100
AcDbEntity
  8
1
 62
     4
100
AcDbPoint
 10
57.0
 20
20.75
 30
0.0
  0
POINT
  5
74
330
4B
100
AcDbEntity
  8
1
 62
     4
100
AcDbPoint
 10
57.0
 20
12.25
 30
0.0
  0
POINT
  5
75
330
4B
100
AcDbEntity
  8
1
 62
     4
100
AcDbPoint
 10
34.0
 20
34.0
 30
0.0
  0
LINE
  5
7A
330
4B
100
AcDbEntity
  8
1
  6
Continuous
 62
     7
100
AcDbLine
 10
105.0
 20
10.0
 30
0.0
 11
200.0
 21
10.0
 31
0.0
  0
LINE
  5
7B
330
4B
100
AcDbEntity
  8
1
  6
Continuous
 62
     2
100
AcDbLine
 10
105.0
 20
10.0
 30
0.0
 11
105.0
 21
5.0
 31
0.0
  0
LINE
  5
7C
330
4B
100
AcDbEntity
  8
1
  6
Continuous
 62
     7
100
AcDbLine
 10
200.0
 20
148.5
 30
0.0
 11
200.0
 21
287.0000000000003
 31
0.0
  0
LINE
  5
7D
330
4B
100
AcDbEntity
  8
1
  6
Continuous
 62
     2
100
AcDbLine
 10
200.0
 20
148.5
 30
0.0
 11
205.0
 21
148.5
 31
0.0
  0
LINE
  5
7E
330
4B
100
AcDbEntity
  8
1
  6
Continuous
 62
     7
100
AcDbLine
 10
25.0
 20
148.5
 30
0.0
 11
25.0
 21
287.0000000000003
 31
0.0
  0
LINE
  5
7F
330
4B
100
AcDbEntity
  8
1
  6
Continuous
 62
     2
100
AcDbLine
 10
25.0
 20
148.5
 30
0.0
 11
20.0
 21
148.5
 31
0.0
  0
LINE
  5
80
330
4B
100
AcDbEntity
  8
1
  6
Continuous
 62
     7
100
AcDbLine
 10
105.0
 20
287.0000000000003
 30
0.0
 11
25.0
 21
287.0000000000003
 31
0.0
  0
LINE
  5
81
330
4B
100
AcDbEntity
  8
1
  6
Continuous
 62
     2
100
AcDbLine
 10
105.0
 20
287.0000000000003
 30
0.0
 11
105.0
 21
292.0000000000003
 31
0.0
  0
LINE
  5
82
330
4B
100
AcDbEntity
  8
1
  6
Continuous
 62
     2
100
AcDbLine
 10
166.0
 20
20.0
 30
0.0
 11
200.0
 21
20.0
 31
0.0
  0
LINE
  5
83
330
4B
100
AcDbEntity
  8
1
  6
Continuous
 62
     2
100
AcDbLine
 10
98.0
 20
27.0
 30
0.0
 11
98.0
 21
10.0
 31
0.0
  0
LINE
  5
84
330
4B
100
AcDbEntity
  8
1
  6
Continuous
 62
     2
100
AcDbLine
 10
115.0
 20
27.0
 30
0.0
 11
115.0
 21
10.0
 31
0.0
  0
LINE
  5
85
330
4B
100
AcDbEntity
  8
1
  6
Continuous
 62
     2
100
AcDbLine
 10
149.0
 20
27.0
 30
0.0
 11
149.0
 21
10.0
 31
0.0
  0
LINE
  5
86
330
4B
100
AcDbEntity
  8
1
  6
Continuous
 62
     2
100
AcDbLine
 10
132.0
 20
27.0
 30
0.0
 11
132.0
 21
10.0
 31
0.0
  0
LINE
  5
87
330
4B
100
AcDbEntity
  8
1
  6
Continuous
 62
     2
100
AcDbLine
 10
166.0
 20
27.0
 30
0.0
 11
166.0
 21
10.0
 31
0.0
  0
LINE
  5
88
330
4B
100
AcDbEntity
  8
1
  6
Continuous
 62
     2
100
AcDbLine
 10
55.0
 20
277.0000000000003
 30
0.0
 11
25.0
 21
277.0000000000003
 31
0.0
  0
LINE
  5
89
330
4B
100
AcDbEntity
  8
1
  6
Continuous
 62
     7
100
AcDbLine
 10
25.0
 20
10.0
 30
0.0
 11
25.0
 21
148.5
 31
0.0
  0
LINE
  5
8A
330
4B
100
AcDbEntity
  8
1
  6
Continuous
 62
     2
100
AcDbLine
 10
40.0
 20
287.0000000000003
 30
0.0
 11
40.0
 21
277.0000000000003
 31
0.0
  0
LINE
  5
8B
330
4B
100
AcDbEntity
  8
1
  6
Continuous
 62
     2
100
AcDbLine
 10
55.0
 20
287.0000000000003
 30
0.0
 11
55.0
 21
277.0000000000003
 31
0.0
  0
LINE
  5
8C
330
4B
100
AcDbEntity
  8
1
  6
Continuous
 62
     2
100
AcDbLine
 10
33.0
 20
41.0
 30
0.0
 11
33.0
 21
27.0
 31
0.0
  0
LINE
  5
8D
330
4B
100
AcDbEntity
  8
1
  6
Continuous
 62
     7
100
AcDbLine
 10
200.0
 20
27.0
 30
0.0
 11
25.0
 21
27.0
 31
0.0
  0
LINE
  5
8E
330
4B
100
AcDbEntity
  8
1
  6
Continuous
 62
     7
100
AcDbLine
 10
25.0
 20
41.0
 30
0.0
 11
200.0
 21
41.0
 31
0.0
  0
LINE
  5
8F
330
4B
100
AcDbEntity
  8
1
  6
PHANTOM
 62
     4
100
AcDbLine
 10
0.0
 20
0.0
 30
0.0
 11
210.0
 21
0.0
 31
0.0
  0
LINE
  5
90
330
4B
100
AcDbEntity
  8
1
  6
PHANTOM
 62
     4
100
AcDbLine
 10
210.0
 20
0.0
 30
0.0
 11
210.0
 21
297.0000000000001
 31
0.0
  0
LINE
  5
91
330
4B
100
AcDbEntity
  8
1
  6
PHANTOM
 62
     4
100
AcDbLine
 10
210.0
 20
297.0000000000001
 30
0.0
 11
0.0
 21
297.0000000000001
 31
0.0
  0
LINE
  5
92
330
4B
100
AcDbEntity
  8
1
  6
PHANTOM
 62
     4
100
AcDbLine
 10
0.0
 20
297.0000000000001
 30
0.0
 11
0.0
 21
0.0
 31
0.0
  0
LINE
  5
93
330
4B
100
AcDbEntity
  8
1
  6
Continuous
 62
     7
100
AcDbLine
 10
25.0
 20
10.0
 30
0.0
 11
105.0
 21
10.0
 31
0.0
  0
LINE
  5
94
330
4B
100
AcDbEntity
  8
1
  6
Continuous
 62
     7
100
AcDbLine
 10
200.0
 20
10.0
 30
0.0
 11
200.0
 21
148.5
 31
0.0
  0
LINE
  5
95
330
4B
100
AcDbEntity
  8
1
  6
Continuous
 62
     7
100
AcDbLine
 10
200.0
 20
287.0000000000003
 30
0.0
 11
105.0
 21
287.0000000000003
 31
0.0
  0
LINE
  5
96
330
4B
100
AcDbEntity
  8
1
  6
Continuous
 62
     2
100
AcDbLine
 10
25.0
 20
18.5
 30
0.0
 11
81.0
 21
18.5
 31
0.0
  0
LINE
  5
97
330
4B
100
AcDbEntity
  8
1
  6
Continuous
 62
     2
100
AcDbLine
 10
33.0
 20
27.0
 30
0.0
 11
33.0
 21
10.0
 31
0.0
  0
LINE
  5
98
330
4B
100
AcDbEntity
  8
1
  6
Continuous
 62
     7
100
AcDbLine
 10
191.0
 20
24.69999999999999
 30
0.0
 11
191.0
 21
22.30000000000001
 31
0.0
  0
LINE
  5
99
330
4B
100
AcDbEntity
  8
1
  6
Continuous
 62
     7
100
AcDbLine
 10
191.0
 20
24.69999999999999
 30
0.0
 11
196.0
 21
25.5
 31
0.0
  0
LINE
  5
9A
330
4B
100
AcDbEntity
  8
1
  6
Continuous
 62
     7
100
AcDbLine
 10
196.0
 20
25.5
 30
0.0
 11
196.0
 21
21.5
 31
0.0
  0
LINE
  5
9B
330
4B
100
AcDbEntity
  8
1
  6
Continuous
 62
     7
100
AcDbLine
 10
196.0
 20
21.5
 30
0.0
 11
191.0
 21
22.30000000000001
 31
0.0
  0
LINE
  5
9C
330
4B
100
AcDbEntity
  8
1
  6
DOT_CENTER
 62
     2
100
AcDbLine
 10
184.0
 20
23.5
 30
0.0
 11
197.0
 21
23.5
 31
0.0
  0
LINE
  5
9D
330
4B
100
AcDbEntity
  8
1
  6
DOT_CENTER
 62
     2
100
AcDbLine
 10
187.0
 20
26.5
 30
0.0
 11
187.0
 21
20.5
 31
0.0
  0
LINE
  5
9E
330
4B
100
AcDbEntity
  8
1
  6
Continuous
 62
     2
100
AcDbLine
 10
81.0
 20
27.0
 30
0.0
 11
81.0
 21
10.0
 31
0.0
  0
CIRCLE
  5
9F
330
4B
100
AcDbEntity
  8
1
  6
Continuous
 62
     7
100
AcDbCircle
 10
103.5
 20
12.5
 30
0.0
 40
0.2999999999999972
  0
CIRCLE
  5
A0
330
4B
100
AcDbEntity
  8
1
  6
Continuous
 62
     7
100
AcDbCircle
 10
109.5
 20
12.5
 30
0.0
 40
0.2999999999999972
  0
CIRCLE
  5
A1
330
4B
100
AcDbEntity
  8
1
  6
Continuous
 62
     7
100
AcDbCircle
 10
120.5
 20
12.5
 30
0.0
 40
0.2999999999999972
  0
CIRCLE
  5
A2
330
4B
100
AcDbEntity
  8
1
  6
Continuous
 62
     7
100
AcDbCircle
 10
126.5
 20
12.5
 30
0.0
 40
0.2999999999999972
  0
CIRCLE
  5
A3
330
4B
100
AcDbEntity
  8
1
  6
Continuous
 62
     7
100
AcDbCircle
 10
137.5
 20
12.5
 30
0.0
 40
0.3000000000000966
  0
CIRCLE
  5
A4
330
4B
100
AcDbEntity
  8
1
  6
Continuous
 62
     7
100
AcDbCircle
 10
143.5
 20
12.5
 30
0.0
 40
0.3000000000000966
  0
CIRCLE
  5
A5
330
4B
100
AcDbEntity
  8
1
  6
Continuous
 62
     7
100
AcDbCircle
 10
160.5
 20
12.5
 30
0.0
 40
0.3000000000000966
  0
CIRCLE
  5
A6
330
4B
100
AcDbEntity
  8
1
  6
Continuous
 62
     7
100
AcDbCircle
 10
154.5
 20
12.5
 30
0.0
 40
0.3000000000000966
  0
CIRCLE
  5
A7
330
4B
100
AcDbEntity
  8
1
  6
Continuous
 62
     7
100
AcDbCircle
 10
187.0
 20
23.5
 30
0.0
 40
1.200000000000188
  0
CIRCLE
  5
A8
330
4B
100
AcDbEntity
  8
1
  6
Continuous
 62
     7
100
AcDbCircle
 10
187.0
 20
23.5
 30
0.0
 40
2.0
  0
CIRCLE
  5
A9
330
4B
100
AcDbEntity
  8
1
  6
DOT_CENTER
 62
     7
100
AcDbCircle
 10
89.5
 20
16.0
 30
0.0
 40
0.0999999999999943
  0
CIRCLE
  5
AA
330
4B
100
AcDbEntity
  8
1
  6
DOT_CENTER
 62
     7
100
AcDbCircle
 10
89.5
 20
18.0
 30
0.0
 40
0.0999999999999943
  0
SPLINE
  5
AB
102
{ACAD_REACTORS
330
CA
102
}
330
4B
100
AcDbEntity
  8
_U_30EC_U_30A4_U_30E4_U_30FC_1
  6
Continuous
 62
     2
100
AcDbSpline
210
0.0
220
0.0
230
1.0
 70
     8
 71
     3
 72
    24
 73
    20
 74
    18
 42
0.000000001
 43
0.0000000001
 44
0.00000001
 40
0.0
 40
0.0
 40
0.0
 40
0.0
 40
0.2211075008753753
 40
0.4273218586245089
 40
0.5080174679239099
 40
0.5914835907870141
 40
0.8143265690192609
 40
1.054651302686558
 40
1.295452694023147
 40
1.518109231328848
 40
1.540864321905466
 40
1.595126460622735
 40
1.659890947896059
 40
1.714153085187425
 40
1.736908174961728
 40
1.764951100735316
 40
1.801562291220904
 40
1.953914424543608
 40
2.126104167379777
 40
2.126104167379777
 40
2.126104167379777
 40
2.126104167379777
 10
185.9375369556889
 20
15.58989295113014
 30
0.0
 10
185.9112579081811
 20
15.53097628234372
 30
0.0
 10
185.8604698894426
 20
15.41711139679256
 30
0.0
 10
185.813178483911
 20
15.14441958233117
 30
0.0
 10
185.7043482802618
 20
15.24445482575455
 30
0.0
 10
185.5514800279638
 20
15.27118593367339
 30
0.0
 10
185.7686155181198
 20
15.48518135017635
 30
0.0
 10
185.7838483674381
 20
15.70332117782491
 30
0.0
 10
185.8906889491999
 20
15.88451579066427
 30
0.0
 10
185.8305380947078
 20
16.16913226311415
 30
0.0
 10
185.9334317395401
 20
16.14114089222456
 30
0.0
 10
185.9779933468151
 20
16.13243251602302
 30
0.0
 10
186.0380842395396
 20
16.12139654183352
 30
0.0
 10
186.0756619587438
 20
16.10767523055554
 30
0.0
 10
186.1252466928605
 20
16.10756076160214
 30
0.0
 10
186.0930158919325
 20
16.07306592398631
 30
0.0
 10
186.017180222188
 20
16.08404104537968
 30
0.0
 10
186.0429447159693
 20
15.89858969582449
 30
0.0
 10
186.005589676385
 20
15.80702313549586
 30
0.0
 10
185.9857704961609
 20
15.75844135397699
 30
0.0
 11
185.9375369556889
 21
15.58989295113014
 31
0.0
 11
185.8616471328552
 21
15.38221708318559
 31
0.0
 11
185.7717402238433
 21
15.19663392356193
 31
0.0
 11
185.701149392311
 21
15.23573272563551
 31
0.0
 11
185.6245525192651
 21
15.26889163187724
 31
0.0
 11
185.7214026947455
 21
15.46958801203542
 31
0.0
 11
185.7994641467471
 21
15.69688163177027
 31
0.0
 11
185.858971692972
 21
15.93021436608694
 31
0.0
 11
185.9001601511226
 21
16.14902808999062
 31
0.0
 11
185.9224183822214
 21
16.14429889221401
 31
0.0
 11
185.975495702534
 21
16.13302157443902
 31
0.0
 11
186.0388460525844
 21
16.11956154999789
 31
0.0
 11
186.091923372897
 21
16.1082842322229
 31
0.0
 11
186.1141816039958
 21
16.10355503444629
 31
0.0
 11
186.096409715746
 21
16.08186250841015
 31
0.0
 11
186.0606122998071
 21
16.07418628445373
 31
0.0
 11
186.028195330148
 21
15.92532288171316
 31
0.0
 11
185.9857704961609
 21
15.75844135397699
 31
0.0
  0
SPLINE
  5
AC
102
{ACAD_REACTORS
330
CA
102
}
330
4B
100
AcDbEntity
  8
_U_30EC_U_30A4_U_30E4_U_30FC_1
  6
Continuous
 62
     2
100
AcDbSpline
210
0.0
220
0.0
230
1.0
 70
     8
 71
     3
 72
    70
 73
    66
 74
    64
 42
0.000000001
 43
0.0000000001
 44
0.00000001
 40
0.0
 40
0.0
 40
0.0
 40
0.0
 40
0.0241731073021472
 40
0.0846058988987013
 40
0.1631685280353284
 40
0.2417311571789756
 40
0.3021639488292751
 40
0.3263370654895541
 40
0.3533118254248934
 40
0.4228783438922271
 40
0.5179999095313775
 40
0.6216398239466635
 40
0.7167613891500416
 40
0.7863279069650716
 40
0.8133026791762724
 40
0.8372943998772562
 40
0.8945054261373755
 40
0.9627895541963525
 40
1.020000580349162
 40
1.043992300975261
 40
1.071934345523033
 40
1.113121768773133
 40
1.145225199332458
 40
1.225483775413003
 40
1.329819923771722
 40
1.434156071994619
 40
1.51441464779605
 40
1.546518078208659
 40
1.578974764260461
 40
1.662678849314428
 40
1.777131373668705
 40
1.901833377475096
 40
2.016285900500914
 40
2.09998998252831
 40
2.132446666570668
 40
2.158782354486382
 40
2.216720867908151
 40
2.274659381334553
 40
2.300995069256478
 40
2.33345175406645
 40
2.417155836544159
 40
2.531608358985598
 40
2.656310362284122
 40
2.770762886389311
 40
2.854466971340476
 40
2.886923657364283
 40
2.913597976833713
 40
2.982389642875508
 40
3.076451716947362
 40
3.178937260458964
 40
3.272999334740356
 40
3.34179100105957
 40
3.368465320663878
 40
3.396976080739099
 40
3.472140811846335
 40
3.578408190309081
 40
3.700226892456518
 40
3.822045594634763
 40
3.92831297325687
 40
4.003477705315296
 40
4.031988456867362
 40
4.058324144798169
 40
4.116262658237346
 40
4.174201171401164
 40
4.200536849609103
 40
4.200536849609103
 40
4.200536849609103
 40
4.200536849609103
 10
185.9857704961609
 20
15.75844135397699
 30
0.0
 10
185.9938259544679
 20
15.7584435981168
 30
0.0
 10
186.0220200663241
 20
15.75845146032791
 30
0.0
 10
186.0765534803672
 20
15.75830754828365
 30
0.0
 10
186.1482891808604
 20
15.75909120499892
 30
0.0
 10
186.2236240137062
 20
15.75627570463805
 30
0.0
 10
186.2713052366438
 20
15.76298403400951
 30
0.0
 10
186.3195071245616
 20
15.75197563692427
 30
0.0
 10
186.3062571799873
 20
15.80546402997028
 30
0.0
 10
186.3151093964538
 20
15.86049583543087
 30
0.0
 10
186.3108698036285
 20
15.95419908726106
 30
0.0
 10
186.313348348128
 20
16.04959482218531
 30
0.0
 10
186.309093870606
 20
16.14356821983388
 30
0.0
 10
186.3179818665846
 20
16.19795062438014
 30
0.0
 10
186.3046977409945
 20
16.25233997691463
 30
0.0
 10
186.3514119277109
 20
16.2384221633536
 30
0.0
 10
186.3943254545737
 20
16.24103877374047
 30
0.0
 10
186.4605443456685
 20
16.23648422450757
 30
0.0
 10
186.5013342271799
 20
16.22778162134166
 30
0.0
 10
186.5525145690819
 20
16.23531799890198
 30
0.0
 10
186.52537204872
 20
16.19349970223282
 30
0.0
 10
186.4803096055706
 20
16.20284992072597
 30
0.0
 10
186.494206504505
 20
16.13841207371835
 30
0.0
 10
186.4858414431652
 20
16.07378219627395
 30
0.0
 10
186.4903632178398
 20
15.97529141193883
 30
0.0
 10
186.4854741311165
 20
15.87595932842565
 30
0.0
 10
186.4950258992081
 20
15.81293115552963
 30
0.0
 10
186.4799761455199
 20
15.74964011499782
 30
0.0
 10
186.5449159457207
 20
15.76515072944263
 30
0.0
 10
186.6116246399496
 20
15.75499387697806
 30
0.0
 10
186.7241435470827
 20
15.75988800099361
 30
0.0
 10
186.8390235448953
 20
15.75691204732778
 30
0.0
 10
186.9519871999746
 20
15.76221664184985
 30
0.0
 10
187.0176267597678
 20
15.75107306472082
 30
0.0
 10
187.0816276691053
 20
15.76744532319851
 30
0.0
 10
187.0703142889189
 20
15.7176168990527
 30
0.0
 10
187.0775339871509
 20
15.67416715212119
 30
0.0
 10
187.070314261127
 20
15.63071745587444
 30
0.0
 10
187.0816277175994
 20
15.58088895196876
 30
0.0
 10
187.0176263598971
 20
15.59726166091363
 30
0.0
 10
186.9519921240459
 20
15.58611271661587
 30
0.0
 10
186.8389974317331
 20
15.59144857206854
 30
0.0
 10
186.7242456548642
 20
15.58834345663821
 30
0.0
 10
186.611318368686
 20
15.59364894682589
 30
0.0
 10
186.5455220903584
 20
15.58257300019593
 30
0.0
 10
186.4816097975357
 20
15.59887597847618
 30
0.0
 10
186.4936015165125
 20
15.54423524395742
 30
0.0
 10
186.4862104613003
 20
15.48854295047843
 30
0.0
 10
186.4892684841983
 20
15.39649689140572
 30
0.0
 10
186.4893422785681
 20
15.30179109873104
 30
0.0
 10
186.4860313578359
 20
15.2095278290227
 30
0.0
 10
186.4939505989902
 20
15.15435768736144
 30
0.0
 10
186.4815076611616
 20
15.10058169100142
 30
0.0
 10
186.538911655163
 20
15.11453768862786
 30
0.0
 10
186.5994708140382
 20
15.10511457884232
 30
0.0
 10
186.704868085508
 20
15.10942885928711
 30
0.0
 10
186.8204294070622
 20
15.10835504612037
 30
0.0
 10
186.9359688877796
 20
15.10725965901
 30
0.0
 10
187.0414181130841
 20
15.11162525770638
 30
0.0
 10
187.1018680471804
 20
15.10209426030677
 30
0.0
 10
187.159283773911
 20
15.11617289606385
 30
0.0
 10
187.1477773876709
 20
15.06707153265687
 30
0.0
 10
187.153756678175
 20
15.02564658018652
 30
0.0
 10
187.1520311050801
 20
14.97651677966698
 30
0.0
 10
187.1521500122971
 20
14.94854428447609
 30
0.0
 10
187.1521871691833
 20
14.93980288195951
 30
0.0
 11
185.9857704961609
 21
15.75844135397699
 31
0.0
 11
186.0099436128282
 21
15.75844135397699
 31
0.0
 11
186.0703764044962
 21
15.75844135397699
 31
0.0
 11
186.1489390336648
 21
15.75844135397699
 31
0.0
 11
186.2275016628334
 21
15.75844135397699
 31
0.0
 11
186.2879344545015
 21
15.75844135397699
 31
0.0
 11
186.3121075711687
 21
15.75844135397699
 31
0.0
 11
186.3121075711687
 21
15.78541612620057
 31
0.0
 11
186.3121075711687
 21
15.85498264404034
 31
0.0
 11
186.3121075711687
 21
15.95010420924983
 31
0.0
 11
186.3121075711687
 21
16.05374412358255
 31
0.0
 11
186.3121075711687
 21
16.14886568879203
 31
0.0
 11
186.3121075711687
 21
16.2184322066318
 31
0.0
 11
186.3121075711687
 21
16.24540697885539
 31
0.0
 11
186.3360407604892
 21
16.24373213107803
 31
0.0
 11
186.3931122119458
 21
16.23973826330124
 31
0.0
 11
186.461229750781
 21
16.23497138885799
 31
0.0
 11
186.5183012022376
 21
16.2309775210812
 31
0.0
 11
186.5422343915581
 21
16.22930267330384
 31
0.0
 11
186.5274972731229
 21
16.2055629337264
 31
0.0
 11
186.4886640249975
 21
16.1918376733131
 31
0.0
 11
186.4886640249975
 21
16.15973424225117
 31
0.0
 11
186.4886640249975
 21
16.07947566459633
 31
0.0
 11
186.4886640249975
 21
15.97513951364504
 31
0.0
 11
186.4886640249975
 21
15.87080336269376
 31
0.0
 11
186.4886640249975
 21
15.79054478503892
 31
0.0
 11
186.4886640249975
 21
15.75844135397699
 31
0.0
 11
186.5211207110823
 21
15.75844135397699
 31
0.0
 11
186.6048247962484
 21
15.75844135397699
 31
0.0
 11
186.7192773208634
 21
15.75844135397699
 31
0.0
 11
186.8439793252945
 21
15.75844135397699
 31
0.0
 11
186.9584318499094
 21
15.75844135397699
 31
0.0
 11
187.0421359350756
 21
15.75844135397699
 31
0.0
 11
187.0745926211604
 21
15.75844135397699
 31
0.0
 11
187.0745926211604
 21
15.73210566604956
 31
0.0
 11
187.0745926211604
 21
15.67416715260921
 31
0.0
 11
187.0745926211604
 21
15.61622863916887
 31
0.0
 11
187.0745926211604
 21
15.58989295124144
 31
0.0
 11
187.0421359350756
 21
15.58989295124144
 31
0.0
 11
186.9584318499094
 21
15.58989295124144
 31
0.0
 11
186.8439793252946
 21
15.58989295124144
 31
0.0
 11
186.7192773208634
 21
15.58989295124144
 31
0.0
 11
186.6048247962484
 21
15.58989295124144
 31
0.0
 11
186.5211207110823
 21
15.58989295124144
 31
0.0
 11
186.4886640249975
 21
15.58989295124144
 31
0.0
 11
186.4886640249975
 21
15.56321863152022
 31
0.0
 11
186.4886640249975
 21
15.49442696487076
 31
0.0
 11
186.4886640249975
 21
15.40036489006436
 31
0.0
 11
186.4886640249975
 21
15.29787934587231
 31
0.0
 11
186.4886640249975
 21
15.2038172710659
 31
0.0
 11
186.4886640249975
 21
15.13502560441645
 31
0.0
 11
186.4886640249975
 21
15.10835128469523
 31
0.0
 11
186.5171747850992
 21
15.10835128469523
 31
0.0
 11
186.5923395162765
 21
15.10835128469523
 31
0.0
 11
186.6986068948376
 21
15.10835128469523
 31
0.0
 11
186.8204255970904
 21
15.10835128469523
 31
0.0
 11
186.9422442993433
 21
15.10835128469523
 31
0.0
 11
187.0485116779043
 21
15.10835128469523
 31
0.0
 11
187.1236764090816
 21
15.10835128469523
 31
0.0
 11
187.1521871691833
 21
15.10835128469523
 31
0.0
 11
187.1521871691833
 21
15.08201559676777
 31
0.0
 11
187.1521871691833
 21
15.02407708332737
 31
0.0
 11
187.1521871691833
 21
14.96613856988697
 31
0.0
 11
187.1521871691833
 21
14.93980288195951
 31
0.0
  0
SPLINE
  5
AD
102
{ACAD_REACTORS
330
CA
102
}
330
4B
100
AcDbEntity
  8
_U_30EC_U_30A4_U_30E4_U_30FC_1
  6
Continuous
 62
     2
100
AcDbSpline
210
0.0
220
0.0
230
1.0
 70
     8
 71
     3
 72
    62
 73
    58
 74
    56
 42
0.000000001
 43
0.0000000001
 44
0.00000001
 40
0.0
 40
0.0
 40
0.0
 40
0.0
 40
0.0598250028308485
 40
0.2024846486897331
 40
0.3727558389221031
 40
0.515415484793607
 40
0.5752404975785339
 40
0.9332326775487246
 40
1.290451762839462
 40
1.602077253145848
 40
1.699931634112128
 40
1.799359756425071
 40
2.270120149657139
 40
2.804661928461668
 40
2.882342287383386
 40
3.076543185719244
 40
3.329004354835718
 40
3.581465524568558
 40
3.775666424543849
 40
3.853346784558474
 40
3.89912067959522
 40
3.984129341792132
 40
4.029903236817452
 40
4.105797496059607
 40
4.295533144152568
 40
4.542189486611814
 40
4.788845828875766
 40
4.978581476410151
 40
5.054475735244395
 40
5.621734664339419
 40
6.130867242037425
 40
6.225249780948711
 40
6.318913039727367
 40
6.663579954558969
 40
7.047498900224816
 40
7.435230791575787
 40
7.498943906668199
 40
7.650875181210193
 40
7.832212509001703
 40
7.984143783697089
 40
8.047856898903216
 40
8.091554632732734
 40
8.172707566964416
 40
8.216405300768152
 40
8.289021782161036
 40
8.46218416075741
 40
8.66886183800549
 40
8.842024215264082
 40
8.914640695475278
 40
8.989881580861475
 40
9.155411528827361
 40
9.320941477744125
 40
9.396182352487367
 40
9.454709011143914
 40
9.583467660170848
 40
9.712226309013127
 40
9.77075295798958
 40
9.77075295798958
 40
9.77075295798958
 40
9.77075295798958
 10
187.1521871691833
 20
14.93980288195951
 30
0.0
 10
187.1322348171623
 20
14.93980875568673
 30
0.0
 10
187.0647037716466
 20
14.93982863806158
 30
0.0
 10
186.9410612161788
 20
14.93949362520326
 30
0.0
 10
186.7863180150056
 20
14.94107673750513
 30
0.0
 10
186.6697349482479
 20
14.93686078860496
 30
0.0
 10
186.4550942634241
 20
14.95215205331627
 30
0.0
 10
186.8518948407228
 20
14.59198721286194
 30
0.0
 10
186.8945656069268
 20
14.37510503397167
 30
0.0
 10
187.3189162146611
 20
14.19325062511452
 30
0.0
 10
187.1439821496074
 20
14.08985196568073
 30
0.0
 10
187.0194523925084
 20
13.87831523212719
 30
0.0
 10
186.7666277235942
 20
14.34806081001564
 30
0.0
 10
186.4797602893624
 20
14.99511516984525
 30
0.0
 10
186.4906335926659
 20
14.68782672154696
 30
0.0
 10
186.4882892777958
 20
14.52288616971779
 30
0.0
 10
186.486109612641
 20
14.28879670711693
 30
0.0
 10
186.4980774396345
 20
14.04498072421781
 30
0.0
 10
186.468798474063
 20
13.89855796860983
 30
0.0
 10
186.5114522625469
 20
13.75113490174535
 30
0.0
 10
186.4239814005639
 20
13.76685797306217
 30
0.0
 10
186.3768527606743
 20
13.7669430354345
 30
0.0
 10
186.2898973207713
 20
13.75109425482907
 30
0.0
 10
186.3313474021721
 20
13.89527771422759
 30
0.0
 10
186.3029875004285
 20
14.03855052698452
 30
0.0
 10
186.31459737753
 20
14.27674947365262
 30
0.0
 10
186.3124175648272
 20
14.50517235240344
 30
0.0
 10
186.3103111127993
 20
14.66705729375993
 30
0.0
 10
186.3208035438323
 20
14.98153709333749
 30
0.0
 10
186.0128963252894
 20
14.29229470872436
 30
0.0
 10
185.7055258267454
 20
13.81476750243045
 30
0.0
 10
185.5851367066275
 20
14.03741112637429
 30
0.0
 10
185.4074607910721
 20
14.15011034955559
 30
0.0
 10
185.8853326362894
 20
14.32548143465461
 30
0.0
 10
185.9353959057206
 20
14.56091929252033
 30
0.0
 10
186.3583799621717
 20
14.95322989344608
 30
0.0
 10
186.127675427354
 20
14.93655307029067
 30
0.0
 10
186.004968585934
 20
14.94269518948772
 30
0.0
 10
185.8325483095662
 20
14.93312822699575
 30
0.0
 10
185.7213224694449
 20
14.95448818489666
 30
0.0
 10
185.6025779627447
 20
14.92136265357421
 30
0.0
 10
185.6183169706686
 20
15.00203900606886
 30
0.0
 10
185.6178550933762
 20
15.04645414290857
 30
0.0
 10
185.6027881889931
 20
15.12967081778539
 30
0.0
 10
185.7372380935443
 20
15.09062651983889
 30
0.0
 10
185.8619755545747
 20
15.11739729328427
 30
0.0
 10
186.062875523728
 20
15.10063949044059
 30
0.0
 10
186.1921540949353
 20
15.1220422591301
 30
0.0
 10
186.3328419928295
 20
15.08868778853426
 30
0.0
 10
186.2980927452615
 20
15.22651875785072
 30
0.0
 10
186.3222185666713
 20
15.34963257349484
 30
0.0
 10
186.2967086182391
 20
15.47024055670337
 30
0.0
 10
186.3333251146685
 20
15.60539865141495
 30
0.0
 10
186.2211417027769
 20
15.58094545781891
 30
0.0
 10
186.1280356457136
 20
15.59307749842022
 30
0.0
 10
186.0191547579819
 20
15.58957630069994
 30
0.0
 10
185.9569697640964
 20
15.58981755951603
 30
0.0
 10
185.9375369557246
 20
15.58989295124144
 30
0.0
 11
187.1521871691833
 21
14.93980288195951
 31
0.0
 11
187.0923621563982
 21
14.93980288195951
 31
0.0
 11
186.949702510526
 21
14.93980288195951
 31
0.0
 11
186.7794313202913
 21
14.93980288195951
 31
0.0
 11
186.6367716744191
 21
14.93980288195951
 31
0.0
 11
186.576946661634
 21
14.93980288195951
 31
0.0
 11
186.7679960754842
 21
14.63705127966892
 31
0.0
 11
186.994127278563
 21
14.36051890576687
 31
0.0
 11
187.2244526173371
 21
14.15061253493462
 31
0.0
 11
187.1521596330704
 21
14.08466403668718
 31
0.0
 11
187.0879364402643
 21
14.00876059052558
 31
0.0
 11
186.7732818215558
 21
14.35891458349362
 31
0.0
 11
186.4886640249975
 21
14.81138295143603
 31
0.0
 11
186.4886640249975
 21
14.73370259137314
 31
0.0
 11
186.4886640249975
 21
14.53950169121594
 31
0.0
 11
186.4886640249975
 21
14.28704052101156
 31
0.0
 11
186.4886640249975
 21
14.03457935080718
 31
0.0
 11
186.4886640249975
 21
13.84037845064998
 31
0.0
 11
186.4886640249975
 21
13.76269809058709
 31
0.0
 11
186.4428901295604
 21
13.76269809058709
 31
0.0
 11
186.3578814666058
 21
13.76269809058709
 31
0.0
 11
186.3121075711687
 21
13.76269809058709
 31
0.0
 11
186.3121075711687
 21
13.83859234982737
 31
0.0
 11
186.3121075711687
 21
14.02832799792808
 31
0.0
 11
186.3121075711687
 21
14.27498434045901
 31
0.0
 11
186.3121075711687
 21
14.52164068298994
 31
0.0
 11
186.3121075711687
 21
14.71137633109064
 31
0.0
 11
186.3121075711687
 21
14.78727059033093
 31
0.0
 11
185.9987626399266
 21
14.3144094619769
 31
0.0
 11
185.6352328662148
 21
13.9579517710938
 31
0.0
 11
185.5773927461627
 21
14.03253450545025
 31
0.0
 11
185.5094852305341
 21
14.0970432293924
 31
0.0
 11
185.7750721898319
 21
14.31672219795888
 31
0.0
 11
186.023376497206
 21
14.60953395971697
 31
0.0
 11
186.226498280526
 21
14.93980288195951
 31
0.0
 11
186.1627851652721
 21
14.93980288195951
 31
0.0
 11
186.0108538904359
 21
14.93980288195951
 31
0.0
 11
185.8295165624055
 21
14.93980288195951
 31
0.0
 11
185.6775852875693
 21
14.93980288195951
 31
0.0
 11
185.6138721723154
 21
14.93980288195951
 31
0.0
 11
185.6138721723154
 21
14.9835006160021
 31
0.0
 11
185.6138721723154
 21
15.06465355065264
 31
0.0
 11
185.6138721723154
 21
15.10835128469523
 31
0.0
 11
185.6864886537961
 21
15.10835128469523
 31
0.0
 11
185.8596510327118
 21
15.10835128469523
 31
0.0
 11
186.0663287107723
 21
15.10835128469523
 31
0.0
 11
186.239491089688
 21
15.10835128469523
 31
0.0
 11
186.3121075711687
 21
15.10835128469523
 31
0.0
 11
186.3121075711687
 21
15.18359217009308
 31
0.0
 11
186.3121075711687
 21
15.34912211796834
 31
0.0
 11
186.3121075711687
 21
15.5146520658436
 31
0.0
 11
186.3121075711687
 21
15.58989295124144
 31
0.0
 11
186.2535809125055
 21
15.58989295124144
 31
0.0
 11
186.1248222634467
 21
15.58989295124144
 31
0.0
 11
185.9960636143877
 21
15.58989295124144
 31
0.0
 11
185.9375369557246
 21
15.58989295124144
 31
0.0
  0
SPLINE
  5
AE
102
{ACAD_REACTORS
330
CB
102
}
330
4B
100
AcDbEntity
  8
_U_30EC_U_30A4_U_30E4_U_30FC_1
  6
Continuous
 62
     2
100
AcDbSpline
210
0.0
220
0.0
230
1.0
 70
    11
 71
     3
 72
   124
 73
   120
 74
   118
 42
0.000000001
 43
0.0000000001
 44
0.00000001
 40
0.0
 40
0.0
 40
0.0
 40
0.0
 40
0.027818722962451
 40
0.1011590162384269
 40
0.2048470170590239
 40
0.3237088716559245
 40
0.4425707262522
 40
0.5462587270699547
 40
0.6195990203311798
 40
0.647417752257866
 40
0.6750060736115278
 40
0.7357003855242918
 40
0.7963946998054705
 40
0.8239830245572068
 40
0.8540933811103162
 40
0.9373396629409843
 40
1.063094687343265
 40
1.220731268638103
 40
1.399622220914778
 40
1.589140358637762
 40
1.778658496423928
 40
1.957549448940539
 40
2.115186030873189
 40
2.240941056914493
 40
2.324187341760562
 40
2.354297700109412
 40
2.381886024671924
 40
2.44258033871052
 40
2.503274652750556
 40
2.530862977314666
 40
2.560983949278619
 40
2.640393784452965
 40
2.752662861759188
 40
2.881361560118205
 40
3.010060258455252
 40
3.122329335705399
 40
3.201739170818013
 40
3.231860142753374
 40
3.264298024030428
 40
3.352343701778296
 40
3.482095226868819
 40
3.639650650173077
 40
3.811108022565528
 40
3.982565394928032
 40
4.140120818152611
 40
4.269872343141318
 40
4.357918020802379
 40
4.390355902044006
 40
4.423256253992576
 40
4.508104530073097
 40
4.624121560636865
 40
4.750528176031621
 40
4.866545206602068
 40
4.951393482692025
 40
4.984293834645427
 40
5.011450833242342
 40
5.071196230152123
 40
5.130941627057195
 40
5.158098625648859
 40
5.190998977601549
 40
5.275847253689375
 40
5.391864284256809
 40
5.518270899648354
 40
5.634287930209394
 40
5.719136206288067
 40
5.752036558235955
 40
5.782130946282977
 40
5.862783906229139
 40
5.979550131774997
 40
6.117984316640384
 40
6.263641154587913
 40
6.402075339414103
 40
6.518841564907887
 40
6.599494524815458
 40
6.629588912848692
 40
6.654403028226267
 40
6.713575149488032
 40
6.784199939329348
 40
6.843372060493448
 40
6.868186175802693
 40
6.896246243201785
 40
6.939586233758182
 40
6.96784656456481
 40
7.043584251089745
 40
7.153234334451601
 40
7.283231855734349
 40
7.420011856035377
 40
7.550009376579726
 40
7.659659458835123
 40
7.735397144417116
 40
7.763657474851287
 40
7.796409728010944
 40
7.880876065096218
 40
7.996370852465604
 40
8.1222084464185
 40
8.237703224799093
 40
8.322169562010787
 40
8.3549218152058
 40
8.382078813307581
 40
8.441824209206882
 40
8.501569605240029
 40
8.528726603485605
 40
8.561478856695654
 40
8.645945193877704
 40
8.761439980865216
 40
8.887277580764358
 40
9.00277236200088
 40
9.0872386966611
 40
9.119990949235554
 40
9.152428830613252
 40
9.240474508638467
 40
9.370226034149415
 40
9.527781457984295
 40
9.699238830981281
 40
9.870696203978468
 40
10.02825162781389
 40
10.1580031533255
 40
10.24604883135105
 40
10.27848670378507
 40
10.27848670378507
 40
10.27848670378507
 40
10.27848670378507
 10
195.3821827564383
 20
14.01410517385762
 30
0.0
 10
195.3914554737523
 20
14.01410498511279
 30
0.0
 10
195.4251744536861
 20
14.01410430876719
 30
0.0
 10
195.4934706812465
 20
14.01411807243309
 30
0.0
 10
195.592014171158
 20
14.0140322421955
 30
0.0
 10
195.7062066464812
 20
14.01441755612255
 30
0.0
 10
195.818589441707
 20
14.0130083589755
 30
0.0
 10
195.9214376600118
 20
14.01719117422248
 30
0.0
 10
195.9806839874849
 20
14.00823089251988
 30
0.0
 10
196.0371265937032
 20
14.02164434526066
 30
0.0
 10
196.0246255586955
 20
13.97087198613366
 30
0.0
 10
196.0329549635703
 20
13.9258932093907
 30
0.0
 10
196.0248170841119
 20
13.88056752990491
 30
0.0
 10
196.0370529214457
 20
13.82931932408468
 30
0.0
 10
195.9747773490333
 20
13.84447955365278
 30
0.0
 10
195.9060513026868
 20
13.83359750710744
 30
0.0
 10
195.7782756749592
 20
13.83911304747974
 30
0.0
 10
195.6262984511643
 20
13.837008512537
 30
0.0
 10
195.4502695972523
 20
13.83771002588475
 30
0.0
 10
195.2644431934287
 20
13.83745237531293
 30
0.0
 10
195.0786167437175
 20
13.83771005144606
 30
0.0
 10
194.9025880142168
 20
13.83700841847732
 30
0.0
 10
194.7506104154195
 20
13.83911332229991
 30
0.0
 10
194.6228357664554
 20
13.83359680767642
 30
0.0
 10
194.5541077836581
 20
13.84448077125943
 30
0.0
 10
194.4918349042883
 20
13.82931786684212
 30
0.0
 10
194.5040616290017
 20
13.88057510805174
 30
0.0
 10
194.4960004462597
 20
13.92582473272429
 30
0.0
 10
194.5040675809893
 20
13.97106357955327
 30
0.0
 10
194.4918238487083
 20
14.02234176909962
 30
0.0
 10
194.5525017120698
 20
14.0074957736314
 30
0.0
 10
194.6162810745736
 20
14.01756448170739
 30
0.0
 10
194.7277314353502
 20
14.01294644212004
 30
0.0
 10
194.8497533443824
 20
14.01413328905473
 30
0.0
 10
194.9719538137823
 20
14.0151586390064
 30
0.0
 10
195.0829794287392
 20
14.01092475623406
 30
0.0
 10
195.1476517413959
 20
14.02018584521744
 30
0.0
 10
195.2091162810501
 20
14.00604423049687
 30
0.0
 10
195.1930065601337
 20
14.07235527884522
 30
0.0
 10
195.2042980327358
 20
14.1444779012198
 30
0.0
 10
195.1987400822561
 20
14.2751376088829
 30
0.0
 10
195.200803506169
 20
14.42607323708245
 30
0.0
 10
195.2000167127295
 20
14.5933587310789
 30
0.0
 10
195.2007845215627
 20
14.76061110332306
 30
0.0
 10
195.1988038785628
 20
14.91163289269917
 30
0.0
 10
195.2041306156621
 20
15.04206069552998
 30
0.0
 10
195.1933101388425
 20
15.11465442605902
 30
0.0
 10
195.2090326429875
 20
15.18150469436801
 30
0.0
 10
195.143270813249
 20
15.16580512490827
 30
0.0
 10
195.0756367830763
 20
15.17609243083998
 30
0.0
 10
194.9615885293809
 20
15.17113786847125
 30
0.0
 10
194.8451242674902
 20
15.17414128030478
 30
0.0
 10
194.7306554121477
 20
15.16880303143391
 30
0.0
 10
194.6640324657812
 20
15.18001268074828
 30
0.0
 10
194.5990769715185
 20
15.16349132665014
 30
0.0
 10
194.6107989758708
 20
15.21473720477062
 30
0.0
 10
194.6032830189121
 20
15.25950333784093
 30
0.0
 10
194.6107989878835
 20
15.30426944897963
 30
0.0
 10
194.5990769505347
 20
15.35551536129743
 30
0.0
 10
194.66403263392
 20
15.33899381766817
 30
0.0
 10
194.7306533339821
 20
15.35020571373945
 30
0.0
 10
194.8451352858063
 20
15.34485436710666
 30
0.0
 10
194.9615454436962
 20
15.3479118877112
 30
0.0
 10
195.0757660174641
 20
15.3427849901071
 30
0.0
 10
195.1430150439226
 20
15.353457333556
 30
0.0
 10
195.2083325941439
 20
15.33742082669079
 30
0.0
 10
195.1941391448552
 20
15.39949685750055
 30
0.0
 10
195.2036059462994
 20
15.46586761628763
 30
0.0
 10
195.1990269004085
 20
15.58239972741965
 30
0.0
 10
195.2007696555948
 20
15.71426685022373
 30
0.0
 10
195.1997551495392
 20
15.85615960150269
 30
0.0
 10
195.2017191344373
 20
15.98769050702574
 30
0.0
 10
195.1964668553851
 20
16.10524577282995
 30
0.0
 10
195.2073408763475
 20
16.16947789001577
 30
0.0
 10
195.1919536641853
 20
16.23108802545039
 30
0.0
 10
195.24075915378
 20
16.21702407382104
 30
0.0
 10
195.2853995564726
 20
16.2195474207531
 30
0.0
 10
195.3538643946742
 20
16.21512797401707
 30
0.0
 10
195.3959106169102
 20
16.20613025544036
 30
0.0
 10
195.4487544758775
 20
16.21411714866512
 30
0.0
 10
195.4207035002014
 20
16.17113917611674
 30
0.0
 10
195.3749142248594
 20
16.18259552043836
 30
0.0
 10
195.3869539073265
 20
16.12173520005138
 30
0.0
 10
195.3796086070641
 20
16.05769299468773
 30
0.0
 10
195.3831195826162
 20
15.94909368863912
 30
0.0
 10
195.3819806760173
 20
15.82494319144754
 30
0.0
 10
195.3819174780262
 20
15.69189719829879
 30
0.0
 10
195.3832872966868
 20
15.56797381249557
 30
0.0
 10
195.3791638801313
 20
15.4586833784934
 30
0.0
 10
195.3877763103564
 20
15.39608580094172
 30
0.0
 10
195.3746757454402
 20
15.33740133296367
 30
0.0
 10
195.4393884328198
 20
15.35362113810904
 30
0.0
 10
195.5060405953156
 20
15.34270260383313
 30
0.0
 10
195.6198779541103
 20
15.34793740173758
 30
0.0
 10
195.7357259122097
 20
15.34485547516915
 30
0.0
 10
195.849692426328
 20
15.35018259812514
 30
0.0
 10
195.9160341018099
 20
15.33904208166545
 30
0.0
 10
195.980718852548
 20
15.3554697959318
 30
0.0
 10
195.9689820772722
 20
15.30425925210052
 30
0.0
 10
195.9765168063041
 20
15.25950334121003
 30
0.0
 10
195.9689820992258
 20
15.2147473901003
 30
0.0
 10
195.9807188140736
 20
15.16353690871043
 30
0.0
 10
195.9160344075252
 20
15.17996427794223
 30
0.0
 10
195.8496886430824
 20
15.16882784447272
 30
0.0
 10
195.7357459487012
 20
15.17413115893123
 30
0.0
 10
195.6197995623054
 20
15.17114764593547
 30
0.0
 10
195.5062756882122
 20
15.17606892268396
 30
0.0
 10
195.4389231318804
 20
15.16585087513523
 30
0.0
 10
195.3734285122495
 20
15.18145996138818
 30
0.0
 10
195.3891713619218
 20
15.11463851827414
 30
0.0
 10
195.3783275998212
 20
15.04207057815882
 30
0.0
 10
195.3836581629792
 20
14.91162247614419
 30
0.0
 10
195.3817136151855
 20
14.76064558185229
 30
0.0
 10
195.3823133683215
 20
14.59322243934163
 30
0.0
 10
195.3821506559604
 20
14.42656176118375
 30
0.0
 10
195.3821895488136
 20
14.27360142921641
 30
0.0
 10
195.3821816413099
 20
14.14849178985709
 30
0.0
 10
195.3821828382744
 20
14.06507890991425
 30
0.0
 10
195.3821827716208
 20
14.02491778281981
 30
0.0
 10
195.3821827564383
 20
14.01410517385762
 30
0.0
 11
195.3821827564383
 21
14.01410517385762
 31
0.0
 11
195.4100014883675
 21
14.01410517385762
 31
0.0
 11
195.4833417816353
 21
14.01410517385762
 31
0.0
 11
195.5870297824622
 21
14.01410517385762
 31
0.0
 11
195.7058916370687
 21
14.01410517385762
 31
0.0
 11
195.8247534916751
 21
14.01410517385762
 31
0.0
 11
195.928441492502
 21
14.01410517385762
 31
0.0
 11
196.0017817857698
 21
14.01410517385762
 31
0.0
 11
196.029600517699
 21
14.01410517385762
 31
0.0
 11
196.029600517699
 21
13.98651684921174
 31
0.0
 11
196.029600517699
 21
13.9258225349908
 31
0.0
 11
196.029600517699
 21
13.86512822076987
 31
0.0
 11
196.029600517699
 21
13.83753989612399
 31
0.0
 11
195.9994901593494
 21
13.83753989612399
 31
0.0
 11
195.9162438745004
 21
13.83753989612399
 31
0.0
 11
195.7904888484521
 21
13.83753989612399
 31
0.0
 11
195.6328522665041
 21
13.83753989612399
 31
0.0
 11
195.4539613139564
 21
13.83753989612399
 31
0.0
 11
195.2644431761089
 21
13.83753989612399
 31
0.0
 11
195.0749250382613
 21
13.83753989612399
 31
0.0
 11
194.8960340857136
 21
13.83753989612399
 31
0.0
 11
194.7383975037656
 21
13.83753989612399
 31
0.0
 11
194.6126424777172
 21
13.83753989612399
 31
0.0
 11
194.5293961928683
 21
13.83753989612399
 31
0.0
 11
194.4992858345187
 21
13.83753989612399
 31
0.0
 11
194.4992858345187
 21
13.86512822076987
 31
0.0
 11
194.4992858345187
 21
13.9258225349908
 31
0.0
 11
194.4992858345187
 21
13.98651684921174
 31
0.0
 11
194.4992858345187
 21
14.01410517385762
 31
0.0
 11
194.5294068064947
 21
14.01410517385762
 31
0.0
 11
194.608816641704
 21
14.01410517385762
 31
0.0
 11
194.721085719069
 21
14.01410517385762
 31
0.0
 11
194.8497844175118
 21
14.01410517385762
 31
0.0
 11
194.9784831159545
 21
14.01410517385762
 31
0.0
 11
195.0907521933195
 21
14.01410517385762
 31
0.0
 11
195.1701620285289
 21
14.01410517385762
 31
0.0
 11
195.2002830005048
 21
14.01410517385762
 31
0.0
 11
195.2002830005048
 21
14.0465430552384
 31
0.0
 11
195.2002830005048
 21
14.13458873327195
 31
0.0
 11
195.2002830005048
 21
14.26434025879507
 31
0.0
 11
195.2002830005048
 21
14.42189568264458
 31
0.0
 11
195.2002830005048
 21
14.59335305565727
 31
0.0
 11
195.2002830005048
 21
14.76481042866997
 31
0.0
 11
195.2002830005048
 21
14.92236585251948
 31
0.0
 11
195.2002830005048
 21
15.0521173780426
 31
0.0
 11
195.2002830005048
 21
15.14016305607615
 31
0.0
 11
195.2002830005048
 21
15.17260093745693
 31
0.0
 11
195.1673826485529
 21
15.17260093745693
 31
0.0
 11
195.0825343724662
 21
15.17260093745693
 31
0.0
 11
194.9665173418988
 21
15.17260093745693
 31
0.0
 11
194.8401107265044
 21
15.17260093745693
 31
0.0
 11
194.724093695937
 21
15.17260093745693
 31
0.0
 11
194.6392454198503
 21
15.17260093745693
 31
0.0
 11
194.6063450678984
 21
15.17260093745693
 31
0.0
 11
194.6063450678984
 21
15.19975793614806
 31
0.0
 11
194.6063450678984
 21
15.25950333326853
 31
0.0
 11
194.6063450678984
 21
15.319248730389
 31
0.0
 11
194.6063450678984
 21
15.34640572908012
 31
0.0
 11
194.6392454198504
 21
15.34640572908012
 31
0.0
 11
194.724093695937
 21
15.34640572908012
 31
0.0
 11
194.8401107265044
 21
15.34640572908012
 31
0.0
 11
194.9665173418988
 21
15.34640572908012
 31
0.0
 11
195.0825343724662
 21
15.34640572908012
 31
0.0
 11
195.1673826485529
 21
15.34640572908012
 31
0.0
 11
195.2002830005048
 21
15.34640572908012
 31
0.0
 11
195.2002830005048
 21
15.37650011731371
 31
0.0
 11
195.2002830005048
 21
15.45715307777974
 31
0.0
 11
195.2002830005048
 21
15.57391930412608
 31
0.0
 11
195.2002830005048
 21
15.71235349000061
 31
0.0
 11
195.2002830005048
 21
15.8580103290512
 31
0.0
 11
195.2002830005048
 21
15.99644451492573
 31
0.0
 11
195.2002830005048
 21
16.11321074127207
 31
0.0
 11
195.2002830005048
 21
16.1938637017381
 31
0.0
 11
195.2002830005048
 21
16.22395808997169
 31
0.0
 11
195.2250405288618
 21
16.22228324219435
 31
0.0
 11
195.2840777118669
 21
16.2182893744176
 31
0.0
 11
195.3545414464214
 21
16.2135224999744
 31
0.0
 11
195.4135786294265
 21
16.20952863219765
 31
0.0
 11
195.4383361577835
 21
16.20785378442031
 31
0.0
 11
195.423306722403
 21
16.1841581420651
 31
0.0
 11
195.3821827564383
 21
16.17047697887404
 31
0.0
 11
195.3821827564383
 21
16.14221664794832
 31
0.0
 11
195.3821827564383
 21
16.0664789610674
 31
0.0
 11
195.3821827564383
 21
15.95682887707562
 31
0.0
 11
195.3821827564383
 21
15.82683135481731
 31
0.0
 11
195.3821827564383
 21
15.69005135313684
 31
0.0
 11
195.3821827564383
 21
15.56005383087854
 31
0.0
 11
195.3821827564383
 21
15.45040374688676
 31
0.0
 11
195.3821827564383
 21
15.37466606000584
 31
0.0
 11
195.3821827564383
 21
15.34640572908012
 31
0.0
 11
195.4149350096115
 21
15.34640572908012
 31
0.0
 11
195.4994013467422
 21
15.34640572908012
 31
0.0
 11
195.6148961342476
 21
15.34640572908012
 31
0.0
 11
195.7407337385445
 21
15.34640572908012
 31
0.0
 11
195.8562285260498
 21
15.34640572908012
 31
0.0
 11
195.9406948631806
 21
15.34640572908012
 31
0.0
 11
195.9734471163538
 21
15.34640572908012
 31
0.0
 11
195.9734471163538
 21
15.319248730389
 31
0.0
 11
195.9734471163538
 21
15.25950333326853
 31
0.0
 11
195.9734471163538
 21
15.19975793614805
 31
0.0
 11
195.9734471163538
 21
15.17260093745693
 31
0.0
 11
195.9406948631806
 21
15.17260093745693
 31
0.0
 11
195.8562285260498
 21
15.17260093745693
 31
0.0
 11
195.7407337385445
 21
15.17260093745693
 31
0.0
 11
195.6148961342476
 21
15.17260093745693
 31
0.0
 11
195.4994013467422
 21
15.17260093745693
 31
0.0
 11
195.4149350096114
 21
15.17260093745693
 31
0.0
 11
195.3821827564383
 21
15.17260093745693
 31
0.0
 11
195.3821827564383
 21
15.14016305607615
 31
0.0
 11
195.3821827564383
 21
15.0521173780426
 31
0.0
 11
195.3821827564383
 21
14.92236585251948
 31
0.0
 11
195.3821827564383
 21
14.76481042866997
 31
0.0
 11
195.3821827564383
 21
14.59335305565727
 31
0.0
 11
195.3821827564383
 21
14.42189568264457
 31
0.0
 11
195.3821827564383
 21
14.26434025879507
 31
0.0
 11
195.3821827564383
 21
14.13458873327195
 31
0.0
 11
195.3821827564383
 21
14.0465430552384
 31
0.0
 11
195.3821827564383
 21
14.01410517385762
 31
0.0
  0
SPLINE
  5
AF
102
{ACAD_REACTORS
330
CC
102
}
330
4B
100
AcDbEntity
  8
_U_30EC_U_30A4_U_30E4_U_30FC_1
  6
Continuous
 62
     2
100
AcDbSpline
210
0.0
220
0.0
230
1.0
 70
    11
 71
     3
 72
   131
 73
   127
 74
   125
 42
0.000000001
 43
0.0000000001
 44
0.00000001
 40
0.0
 40
0.0
 40
0.0
 40
0.0
 40
0.0195577029826408
 40
0.0426490537462053
 40
0.2863607575856634
 40
0.5344948436189072
 40
0.7842238845572884
 40
0.8737315789467089
 40
0.9803832810312678
 40
1.092842274517025
 40
1.199761146656791
 40
1.289788768186494
 40
1.351573580786171
 40
1.3707271175614
 40
1.416400936017812
 40
1.470914848355958
 40
1.516588666791752
 40
1.535742203552833
 40
1.634216592293174
 40
1.760283341175019
 40
1.897966686682094
 40
2.031216387368923
 40
2.049689751137919
 40
2.101115601646857
 40
2.179502577739978
 40
2.278859318314097
 40
2.393194462258759
 40
2.516516648383879
 40
2.642834515406012
 40
2.766156701983521
 40
2.880491846754639
 40
2.979848588358685
 40
3.058235565443866
 40
3.109661416669022
 40
3.128134780704199
 40
3.146783742386516
 40
3.191254343315377
 40
3.244332157316036
 40
3.288802758225939
 40
3.307451719895182
 40
3.327717853844794
 40
3.383747753580158
 40
3.468388665924552
 40
3.574487837698863
 40
3.694892515728972
 40
3.822449946852116
 40
3.95000737792051
 40
4.070412055800604
 40
4.176511227368165
 40
4.261152139501613
 40
4.317182039076808
 40
4.337448172964729
 40
4.620011002696325
 40
4.885096638397624
 40
4.945373043518475
 40
5.014107710488809
 40
5.070481727652217
 40
5.319246955636721
 40
5.584812164506184
 40
5.859000912057032
 40
6.133746937542208
 40
6.401732212968994
 40
6.420736683995584
 40
6.472845717451235
 40
6.550702743894163
 40
6.646951193874371
 40
6.754234497930695
 40
6.865196086587473
 40
6.972479390357932
 40
7.068727839772094
 40
7.146584865451103
 40
7.198693898189332
 40
7.217698368905473
 40
7.234950401630949
 40
7.276089864269992
 40
7.325191803516099
 40
7.366331266090483
 40
7.383583298769833
 40
7.40277916349221
 40
7.453386443254641
 40
7.524934666445643
 40
7.606953361405982
 40
7.688972056429134
 40
7.760520279784385
 40
7.811127559734627
 40
7.830323424546248
 40
7.84784405529988
 40
7.894799345666926
 40
7.962779392744623
 40
8.043374293560682
 40
8.1281741451496
 40
8.208769044817412
 40
8.276749090377123
 40
8.323704379669692
 40
8.341225010056426
 40
8.358497614800575
 40
8.40167912668678
 40
8.457815092185838
 40
8.513951057728242
 40
8.557132569708198
 40
8.574405174505241
 40
8.602340668616629
 40
8.643455660540178
 40
8.66322527196685
 40
8.715345156564494
 40
8.789031889628829
 40
8.873502045520564
 40
8.957972194324189
 40
9.031658925568083
 40
9.08377881123477
 40
9.103548423003234
 40
9.119550083123771
 40
9.160817522380073
 40
9.217244429110439
 40
9.278724491644924
 40
9.335151398295709
 40
9.376418837358004
 40
9.392420497300792
 40
9.401196302735011
 40
9.417494229384484
 40
9.426270027749757
 40
9.440875075477786
 40
9.47570249699896
 40
9.517270709866114
 40
9.552098131994276
 40
9.56670316988448
 40
9.56670316988448
 40
9.56670316988448
 40
9.56670316988448
 10
194.6170254148479
 20
15.67015871511029
 30
0.0
 10
194.613434509337
 20
15.6645369070216
 30
0.0
 10
194.6056039123625
 20
15.65227754419111
 30
0.0
 10
194.512996897455
 20
15.61601916040946
 30
0.0
 10
194.4887622233245
 20
15.4014844421272
 30
0.0
 10
194.385870984594
 20
15.22197284509707
 30
0.0
 10
194.1220492364305
 20
15.03615573798147
 30
0.0
 10
194.284547156918
 20
14.95959336566083
 30
0.0
 10
194.3607225760838
 20
14.89856693195442
 30
0.0
 10
194.4492171072758
 20
14.83515804544758
 30
0.0
 10
194.538993023311
 20
14.77525634219558
 30
0.0
 10
194.5883817636046
 20
14.72102154849204
 30
0.0
 10
194.6745708157382
 20
14.69286240541834
 30
0.0
 10
194.6411260674229
 20
14.65713309652811
 30
0.0
 10
194.621467116631
 20
14.62550387991906
 30
0.0
 10
194.5919888217882
 20
14.58475872796069
 30
0.0
 10
194.5688989446031
 20
14.55504663489642
 30
0.0
 10
194.5380205968357
 20
14.50211422668494
 30
0.0
 10
194.472919336574
 20
14.627403349389
 30
0.0
 10
194.3796000122415
 20
14.68213900233933
 30
0.0
 10
194.2950636285138
 20
14.73916423939344
 30
0.0
 10
194.1722498125743
 20
14.89675287427525
 30
0.0
 10
194.1764450847301
 20
14.82035806766838
 30
0.0
 10
194.1751478652677
 20
14.77361280161297
 30
0.0
 10
194.1758126448077
 20
14.69584785812603
 30
0.0
 10
194.1755549986956
 20
14.59902068324423
 30
0.0
 10
194.1756431239922
 20
14.4865027907881
 30
0.0
 10
194.1756077302281
 20
14.36524085945699
 30
0.0
 10
194.1756511758278
 20
14.2408689785896
 30
0.0
 10
194.1755199942405
 20
14.11967683631335
 30
0.0
 10
194.1759477562046
 20
14.00691148919741
 30
0.0
 10
194.174667820231
 20
13.91082913768742
 30
0.0
 10
194.1779759851043
 20
13.83113826468697
 30
0.0
 10
194.1715197740087
 20
13.78815175788782
 30
0.0
 10
194.1806208705555
 20
13.74955432372039
 30
0.0
 10
194.1447910339935
 20
13.75810887724068
 30
0.0
 10
194.1115223815252
 20
13.75342519985444
 30
0.0
 10
194.0604562576041
 20
13.75351298759782
 30
0.0
 10
194.0269723972812
 20
13.75794430283818
 30
0.0
 10
193.9907585408754
 20
13.74960793842506
 30
0.0
 10
194.0009782568665
 20
13.79145277179282
 30
0.0
 10
193.9936487887774
 20
13.83778560820171
 30
0.0
 10
193.9973633136102
 20
13.92374831106012
 30
0.0
 10
193.9959480554896
 20
14.02605142704847
 30
0.0
 10
193.9964105554637
 20
14.1445322393151
 30
0.0
 10
193.9962773686231
 20
14.26957683153355
 30
0.0
 10
193.9963015910044
 20
14.39475828107049
 30
0.0
 10
193.9963354925551
 20
14.51286645379058
 30
0.0
 10
193.9962060293132
 20
14.61628748709516
 30
0.0
 10
193.996550754908
 20
14.69932036153667
 30
0.0
 10
193.995869827869
 20
14.75143368521244
 30
0.0
 10
193.9994586600623
 20
14.8791290782136
 30
0.0
 10
193.7826171386436
 20
14.58048716819624
 30
0.0
 10
193.602135492195
 20
14.3526398151151
 30
0.0
 10
193.5490322295612
 20
14.49373443289816
 30
0.0
 10
193.5200429133149
 20
14.54325767560947
 30
0.0
 10
193.419664806282
 20
14.64641779790112
 30
0.0
 10
193.740512772326
 20
14.7269503502378
 30
0.0
 10
193.8689897005429
 20
14.91066283036436
 30
0.0
 10
194.0906454325359
 20
15.11931995771763
 30
0.0
 10
194.1770224894068
 20
15.29339211228343
 30
0.0
 10
194.4549394229075
 20
15.56967051342512
 30
0.0
 10
194.3346247839284
 20
15.56534559551111
 30
0.0
 10
194.2863197351348
 20
15.56614856202551
 30
0.0
 10
194.2102377454905
 20
15.56574582146582
 30
0.0
 10
194.116701000975
 20
15.56590275611607
 30
0.0
 10
194.0117594788557
 20
15.56582502576222
 30
0.0
 10
193.9033887738717
 20
15.56595464378552
 30
0.0
 10
193.7981454235897
 20
15.56554393490689
 30
0.0
 10
193.7056237819412
 20
15.56682073671589
 30
0.0
 10
193.6268130800707
 20
15.56340766534848
 30
0.0
 10
193.5839674565379
 20
15.57023350036318
 30
0.0
 10
193.5449499586516
 20
15.56065064201121
 30
0.0
 10
193.5526365271863
 20
15.5942077956554
 30
0.0
 10
193.5485464404312
 20
15.6252355032223
 30
0.0
 10
193.5485531368814
 20
15.67236529270898
 30
0.0
 10
193.5526239724911
 20
15.70340941646775
 30
0.0
 10
193.5449495574582
 20
15.73701861635898
 30
0.0
 10
193.5834819405495
 20
15.72748410420869
 30
0.0
 10
193.624122801448
 20
15.73397435498067
 30
0.0
 10
193.6951471850463
 20
15.73100150650251
 30
0.0
 10
193.7729318149633
 20
15.73174761399154
 30
0.0
 10
193.8507292246474
 20
15.73247814044523
 30
0.0
 10
193.9217232089907
 20
15.72954235514157
 30
0.0
 10
193.962427979182
 20
15.73595468772949
 30
0.0
 10
194.0009853489909
 20
15.72650524176
 30
0.0
 10
193.9927342754927
 20
15.76264692158782
 30
0.0
 10
193.9982346669358
 20
15.80129837613225
 30
0.0
 10
193.9955754206163
 20
15.86913528561837
 30
0.0
 10
193.9965815471533
 20
15.9459164153874
 30
0.0
 10
193.9960178018319
 20
16.02849393582757
 30
0.0
 10
193.9970714526593
 20
16.1051732922988
 30
0.0
 10
193.994267586313
 20
16.17331990776702
 30
0.0
 10
194.0000702721304
 20
16.2113239980935
 30
0.0
 10
193.9915654551158
 20
16.2475844807765
 30
0.0
 10
194.0255610233125
 20
16.23755723771855
 30
0.0
 10
194.0594575683099
 20
16.2407326681371
 30
0.0
 10
194.1126669060346
 20
16.23508965640613
 30
0.0
 10
194.1660768574482
 20
16.23434774436428
 30
0.0
 10
194.1995914649492
 20
16.22819223482984
 30
0.0
 10
194.2388086183038
 20
16.23346029773595
 30
0.0
 10
194.2120263698493
 20
16.1925338079349
 30
0.0
 10
194.1708111001723
 20
16.20371204538108
 30
0.0
 10
194.1782641540873
 20
16.15867056192122
 30
0.0
 10
194.1742227952184
 20
16.11412278028142
 30
0.0
 10
194.176171404964
 20
16.042235726217
 30
0.0
 10
194.1752364849758
 20
15.96168630588768
 30
0.0
 10
194.176510719003
 20
15.88173995404992
 30
0.0
 10
194.1732043793863
 20
15.8084183708318
 30
0.0
 10
194.1802106179962
 20
15.76688643002565
 30
0.0
 10
194.1701440380125
 20
15.7275241856811
 30
0.0
 10
194.2029814803921
 20
15.73468063430978
 30
0.0
 10
194.236457729648
 20
15.73027243137941
 30
0.0
 10
194.2915053476019
 20
15.73217943347894
 30
0.0
 10
194.3489502595314
 20
15.73185366407285
 30
0.0
 10
194.402302624831
 20
15.73106308733079
 30
0.0
 10
194.4398540896638
 20
15.7331395911807
 30
0.0
 10
194.4623172523237
 20
15.73022338167106
 30
0.0
 10
194.4751678073731
 20
15.73572552644052
 30
0.0
 10
194.485825568589
 20
15.73801118197786
 30
0.0
 10
194.4986635650143
 20
15.74494972588048
 30
0.0
 10
194.5145991033071
 20
15.72853046313669
 30
0.0
 10
194.5410623920891
 20
15.71709122319446
 30
0.0
 10
194.5726805253757
 20
15.6964468783519
 30
0.0
 10
194.5987255892151
 20
15.68116869628295
 30
0.0
 10
194.6128517723973
 20
15.67266976323185
 30
0.0
 10
194.6170254148479
 20
15.67015871511029
 30
0.0
 11
194.6170254148479
 21
15.67015871511029
 31
0.0
 11
194.6049990002243
 21
15.65473571164186
 31
0.0
 11
194.5848961795565
 21
15.64337406233909
 31
0.0
 11
194.4778986355813
 21
15.42440620231157
 31
0.0
 11
194.3477039934324
 21
15.21317201512161
 31
0.0
 11
194.1996540366071
 21
15.01206059027481
 31
0.0
 11
194.2734958253735
 21
14.9614738493538
 31
0.0
 11
194.36056643118
 21
14.89988411653739
 31
0.0
 11
194.4518003750404
 21
14.83413160594424
 31
0.0
 11
194.5381321779687
 21
14.77105653169301
 31
0.0
 11
194.6104963609787
 21
14.71749910790239
 31
0.0
 11
194.6598274450843
 21
14.68029954869104
 31
0.0
 11
194.6486940702213
 21
14.66471410869494
 31
0.0
 11
194.6221452532403
 21
14.62754882870423
 31
0.0
 11
194.5904579555533
 21
14.58319026871532
 31
0.0
 11
194.5639091385723
 21
14.54602498872461
 31
0.0
 11
194.5527757637093
 21
14.53043954872851
 31
0.0
 11
194.4807013362947
 21
14.59754008690615
 31
0.0
 11
194.385285698538
 21
14.67993354174668
 31
0.0
 11
194.279326415217
 21
14.76785017366917
 31
0.0
 11
194.175621051109
 21
14.85152024309269
 31
0.0
 11
194.175621051109
 21
14.83304687900865
 31
0.0
 11
194.175621051109
 21
14.78162102763957
 31
0.0
 11
194.175621051109
 21
14.70323405031
 31
0.0
 11
194.175621051109
 21
14.60387730834449
 31
0.0
 11
194.175621051109
 21
14.48954216306761
 31
0.0
 11
194.175621051109
 21
14.36621997580389
 31
0.0
 11
194.175621051109
 21
14.23990210787789
 31
0.0
 11
194.175621051109
 21
14.11657992061417
 31
0.0
 11
194.175621051109
 21
14.00224477533729
 31
0.0
 11
194.175621051109
 21
13.90288803337178
 31
0.0
 11
194.175621051109
 21
13.82450105604221
 31
0.0
 11
194.175621051109
 21
13.77307520467313
 31
0.0
 11
194.175621051109
 21
13.75460184058909
 31
0.0
 11
194.1569720893626
 21
13.75460184058909
 31
0.0
 11
194.1125014882749
 21
13.75460184058909
 31
0.0
 11
194.0594236740736
 21
13.75460184058909
 31
0.0
 11
194.0149530729859
 21
13.75460184058909
 31
0.0
 11
193.9963041112395
 21
13.75460184058909
 31
0.0
 11
193.9963041112395
 21
13.77486797460216
 31
0.0
 11
193.9963041112395
 21
13.83089787452064
 31
0.0
 11
193.9963041112395
 21
13.91553878716345
 31
0.0
 11
193.9963041112395
 21
14.02163795934951
 31
0.0
 11
193.9963041112395
 21
14.14204263789774
 31
0.0
 11
193.9963041112395
 21
14.26960006962705
 31
0.0
 11
193.9963041112395
 21
14.39715750135635
 31
0.0
 11
193.9963041112395
 21
14.51756217990458
 31
0.0
 11
193.9963041112395
 21
14.62366135209064
 31
0.0
 11
193.9963041112395
 21
14.70830226473345
 31
0.0
 11
193.9963041112395
 21
14.76433216465193
 31
0.0
 11
193.9963041112395
 21
14.784598298665
 31
0.0
 11
193.7883272849481
 21
14.5933199827406
 31
0.0
 11
193.5763486358425
 21
14.43414885430809
 31
0.0
 11
193.5495629014482
 21
14.48814671952097
 31
0.0
 11
193.5138765415024
 21
14.5468914057203
 31
0.0
 11
193.4799697494124
 21
14.59192871537982
 31
0.0
 11
193.6830287742319
 21
14.73563387201056
 31
0.0
 11
193.881853195826
 21
14.91168423529989
 31
0.0
 11
194.0677041444178
 21
15.1132751452495
 31
0.0
 11
194.2318427502303
 21
15.33360194186109
 31
0.0
 11
194.3655301434864
 21
15.56585996513633
 31
0.0
 11
194.3465256724482
 21
15.56585996513633
 31
0.0
 11
194.2944166389562
 21
15.56585996513633
 31
0.0
 11
194.2165596124447
 21
15.56585996513633
 31
0.0
 11
194.1203111623478
 21
15.56585996513633
 31
0.0
 11
194.0130278580997
 21
15.56585996513633
 31
0.0
 11
193.9020662691345
 21
15.56585996513633
 31
0.0
 11
193.7947829648864
 21
15.56585996513633
 31
0.0
 11
193.6985345147895
 21
15.56585996513633
 31
0.0
 11
193.620677488278
 21
15.56585996513633
 31
0.0
 11
193.568568454786
 21
15.56585996513633
 31
0.0
 11
193.5495639837478
 21
15.56585996513633
 31
0.0
 11
193.5495639837478
 21
15.58311199790979
 31
0.0
 11
193.5495639837478
 21
15.62425146067729
 31
0.0
 11
193.5495639837478
 21
15.67335340010946
 31
0.0
 11
193.5495639837478
 21
15.71449286287696
 31
0.0
 11
193.5495639837478
 21
15.73174489565042
 31
0.0
 11
193.5687598486009
 21
15.73174489565042
 31
0.0
 11
193.6193671286684
 21
15.73174489565042
 31
0.0
 11
193.690915352212
 21
15.73174489565042
 31
0.0
 11
193.7729340474937
 21
15.73174489565042
 31
0.0
 11
193.8549527427753
 21
15.73174489565042
 31
0.0
 11
193.9265009663189
 21
15.73174489565042
 31
0.0
 11
193.9771082463864
 21
15.73174489565042
 31
0.0
 11
193.9963041112395
 21
15.73174489565042
 31
0.0
 11
193.9963041112395
 21
15.74926552655215
 31
0.0
 11
193.9963041112395
 21
15.79622081736879
 31
0.0
 11
193.9963041112395
 21
15.86420086526752
 31
0.0
 11
193.9963041112395
 21
15.94479576741549
 31
0.0
 11
193.9963041112395
 21
16.02959562097987
 31
0.0
 11
193.9963041112395
 21
16.11019052312784
 31
0.0
 11
193.9963041112395
 21
16.17817057102656
 31
0.0
 11
193.9963041112395
 21
16.22512586184321
 31
0.0
 11
193.9963041112395
 21
16.24264649274494
 31
0.0
 11
194.0135484112111
 21
16.24165806167523
 31
0.0
 11
194.0566591611401
 21
16.23918698400095
 31
0.0
 11
194.1127031360477
 21
16.23597458302439
 31
0.0
 11
194.1687471109553
 21
16.23276218204783
 31
0.0
 11
194.2118578608843
 21
16.23029110437355
 31
0.0
 11
194.2291021608559
 21
16.22930267330384
 31
0.0
 11
194.2143774674851
 21
16.2055629337264
 31
0.0
 11
194.175621051109
 21
16.1918376733131
 31
0.0
 11
194.175621051109
 21
16.1720680617729
 31
0.0
 11
194.175621051109
 21
16.11994817680331
 31
0.0
 11
194.175621051109
 21
16.04626144288077
 31
0.0
 11
194.175621051109
 21
15.96179128448176
 31
0.0
 11
194.175621051109
 21
15.87732112608275
 31
0.0
 11
194.175621051109
 21
15.80363439216021
 31
0.0
 11
194.175621051109
 21
15.75151450719061
 31
0.0
 11
194.175621051109
 21
15.73174489565042
 31
0.0
 11
194.1916227112935
 21
15.73174489565042
 31
0.0
 11
194.232890150717
 21
15.73174489565042
 31
0.0
 11
194.2893170576837
 21
15.73174489565042
 31
0.0
 11
194.3507971204981
 21
15.73174489565042
 31
0.0
 11
194.4072240274648
 21
15.73174489565042
 31
0.0
 11
194.4484914668882
 21
15.73174489565042
 31
0.0
 11
194.4644931270728
 21
15.73174489565042
 31
0.0
 11
194.4728206422924
 21
15.73451387455918
 31
0.0
 11
194.4882860277004
 21
15.73965626396114
 31
0.0
 11
194.49661354292
 21
15.7424252428699
 31
0.0
 11
194.5091363776005
 21
15.7349095239829
 31
0.0
 11
194.5389985218386
 21
15.71698742509852
 31
0.0
 11
194.5746404359293
 21
15.69559653288167
 31
0.0
 11
194.6045025801674
 21
15.67767443399729
 31
0.0
 11
194.6170254148479
 21
15.67015871511029
 31
0.0
  0
SPLINE
  5
B0
102
{ACAD_REACTORS
330
CD
102
}
330
4B
100
AcDbEntity
  8
_U_30EC_U_30A4_U_30E4_U_30FC_1
  6
Continuous
 62
     2
100
AcDbSpline
210
0.0
220
0.0
230
1.0
 70
    11
 71
     3
 72
    91
 73
    87
 74
    85
 42
0.000000001
 43
0.0000000001
 44
0.00000001
 40
0.0
 40
0.0
 40
0.0
 40
0.0
 40
0.0267532254356826
 40
0.0856103386464493
 40
0.1444674521997296
 40
0.1712206856619314
 40
0.2039416005643336
 40
0.2955601971653283
 40
0.4362601844617717
 40
0.6162252844508049
 40
0.8256392189705497
 40
1.054685709844491
 40
1.293548478893611
 40
1.532411247938383
 40
1.761457738799648
 40
1.970871673298616
 40
2.150836773256812
 40
2.291536760495673
 40
2.38315535683678
 40
2.4158762841014
 40
2.442629517488057
 40
2.501486630949215
 40
2.560343744424389
 40
2.587096977826675
 40
2.617068194441102
 40
2.699247336756243
 40
2.822032643466556
 40
2.973822353258085
 40
3.143014704823528
 40
3.318007936880107
 40
3.48720028818694
 40
3.63898999754842
 40
3.761775303794919
 40
3.843954445753254
 40
3.87392566222995
 40
3.890812773500661
 40
3.907699884771843
 40
3.937960767857454
 40
3.980983618142476
 40
4.199085915228626
 40
4.439444339237452
 40
4.677588241261128
 40
5.0506983178381
 40
5.448212454763515
 40
5.855291218045038
 40
6.138575438885694
 40
6.417434507584542
 40
6.444551104394227
 40
6.504207617363529
 40
6.563864130314855
 40
6.59098072710445
 40
6.848609460381833
 40
7.109611990668789
 40
7.352910904446449
 40
7.55783022070581
 40
7.587518925913724
 40
7.652834077376132
 40
7.718149228846057
 40
7.747837934062356
 40
7.854880190301214
 40
7.976511257403796
 40
8.369487896592656
 40
8.757514959223949
 40
9.126072419331411
 40
9.460639380392445
 40
9.746695593036158
 40
9.777569943118937
 40
9.807050320932042
 40
9.83037733612918
 40
9.886003295436263
 40
9.952395569430184
 40
10.00802152870655
 40
10.03134854388247
 40
10.21356951009618
 40
10.42203479292901
 40
10.66154556731093
 40
10.91693789564333
 40
11.15832906556597
 40
11.18982674596655
 40
11.27286608520439
 40
11.39026653033381
 40
11.52484752840918
 40
11.6594285264848
 40
11.77682897161515
 40
11.85986831085714
 40
11.8913659823046
 40
11.8913659823046
 40
11.8913659823046
 40
11.8913659823046
 10
190.7027885008196
 20
14.70699600701772
 30
0.0
 10
190.7028237765288
 20
14.71587847311985
 30
0.0
 10
190.7029366710796
 20
14.74430237047349
 30
0.0
 10
190.7012984568489
 20
14.79409639169807
 30
0.0
 10
190.706975029291
 20
14.8365756447816
 30
0.0
 10
190.6956928731707
 20
14.88730154856855
 30
0.0
 10
190.7632296979031
 20
14.87012900740117
 30
0.0
 10
190.83880292107
 20
14.88290227166003
 30
0.0
 10
190.9828357056001
 20
14.8762972945739
 30
0.0
 10
191.1569419185426
 20
14.87888462206473
 30
0.0
 10
191.3639599611004
 20
14.87800591955561
 30
0.0
 10
191.5894688172378
 20
14.87828207920035
 30
0.0
 10
191.8251162293406
 20
14.8781833965867
 30
0.0
 10
192.0607640531348
 20
14.87828184412775
 30
0.0
 10
192.2862717580626
 20
14.87800678190796
 30
0.0
 10
192.4932934632805
 20
14.87888186270743
 30
0.0
 10
192.6673888915288
 20
14.87630522678455
 30
0.0
 10
192.8114492071986
 20
14.88288290449221
 30
0.0
 10
192.8869691915293
 20
14.87016243405612
 30
0.0
 10
192.954577603703
 20
14.88726400191694
 30
0.0
 10
192.9430840140676
 20
14.83674785802947
 30
0.0
 10
192.9505104581733
 20
14.79253252226505
 30
0.0
 10
192.9428838927986
 20
14.74867966503612
 30
0.0
 10
192.9546489459425
 20
14.69878374479327
 30
0.0
 10
192.8930788491983
 20
14.71393227712512
 30
0.0
 10
192.8256791738671
 20
14.70310665350673
 30
0.0
 10
192.7013004056221
 20
14.70852031626236
 30
0.0
 10
192.555442823657
 20
14.70649205390785
 30
0.0
 10
192.3893576440085
 20
14.70715777578387
 30
0.0
 10
192.2188412621724
 20
14.70689643521242
 30
0.0
 10
192.0519790855388
 20
14.70721553391094
 30
0.0
 10
191.9087346827105
 20
14.70635302590762
 30
0.0
 10
191.7773313869834
 20
14.70863300482988
 30
0.0
 10
191.7239859134656
 20
14.70407704374201
 30
0.0
 10
191.6485188456912
 20
14.70999914992878
 30
0.0
 10
191.6769075779232
 20
14.70094169343352
 30
0.0
 10
191.7033652409542
 20
14.69725912268927
 30
0.0
 10
191.6633522907701
 20
14.6665427196827
 30
0.0
 10
191.5713663691867
 20
14.67667591174647
 30
0.0
 10
191.5439396207069
 20
14.4303250224778
 30
0.0
 10
191.4478793967234
 20
14.27499558764375
 30
0.0
 10
191.1917277964472
 20
13.94525417931567
 30
0.0
 10
191.7627537732762
 20
14.08430022210453
 30
0.0
 10
192.0173656320516
 20
14.08291779973367
 30
0.0
 10
192.6279647048617
 20
13.99790569242084
 30
0.0
 10
192.3340698578083
 20
14.29685417558201
 30
0.0
 10
192.0133304286517
 20
14.44330856901778
 30
0.0
 10
192.1313543360434
 20
14.50025540818286
 30
0.0
 10
192.1724716466261
 20
14.52420099873347
 30
0.0
 10
192.2156812394411
 20
14.5459975881123
 30
0.0
 10
192.317457409445
 20
14.60928721253904
 30
0.0
 10
192.4328867625248
 20
14.3514715140878
 30
0.0
 10
192.6329591642277
 20
14.21616041113683
 30
0.0
 10
192.7269077387227
 20
14.03792795138883
 30
0.0
 10
192.9558829746394
 20
13.8799782102705
 30
0.0
 10
192.8596031846707
 20
13.82915972576303
 30
0.0
 10
192.816795976378
 20
13.7988129252306
 30
0.0
 10
192.7718243528778
 20
13.77466130281465
 30
0.0
 10
192.7121720925215
 20
13.72552146747579
 30
0.0
 10
192.6789731061324
 20
13.85997475673607
 30
0.0
 10
192.5582013350797
 20
14.01594265286587
 30
0.0
 10
192.1970976005977
 20
13.88569928059555
 30
0.0
 10
191.838506195554
 20
13.90224694409483
 30
0.0
 10
191.457092045008
 20
13.89331229351864
 30
0.0
 10
191.1703455282891
 20
13.8288267167241
 30
0.0
 10
190.8592055599714
 20
13.94230668192823
 30
0.0
 10
190.8268737818788
 20
13.83122259927769
 30
0.0
 10
190.7896178253318
 20
13.81196313850011
 30
0.0
 10
190.7865737632753
 20
13.85874784087296
 30
0.0
 10
190.7679892860608
 20
13.89806853919135
 30
0.0
 10
190.7512436616778
 20
13.95765983478234
 30
0.0
 10
190.7383730915753
 20
14.00201969871285
 30
0.0
 10
190.7042327806428
 20
14.09106331120203
 30
0.0
 10
190.9482714457754
 20
14.02181042943769
 30
0.0
 10
191.1441394486671
 20
14.00030369057741
 30
0.0
 10
191.2395426381277
 20
14.2822648447846
 30
0.0
 10
191.2945135769597
 20
14.4436304542112
 30
0.0
 10
191.5159619357156
 20
14.71391177589738
 30
0.0
 10
191.3849239381216
 20
14.70548446853735
 30
0.0
 10
191.3110026555854
 20
14.70779008496969
 30
0.0
 10
191.1977459876244
 20
14.70671378321658
 30
0.0
 10
191.0694251807484
 20
14.7070763907651
 30
0.0
 10
190.9404252030415
 20
14.70697724466086
 30
0.0
 10
190.828784094629
 20
14.70699932712572
 30
0.0
 10
190.7514663970026
 20
14.7069957918967
 30
0.0
 10
190.713287653201
 20
14.70699595845081
 30
0.0
 10
190.7027885008196
 20
14.70699600701772
 30
0.0
 11
190.7027885008196
 21
14.70699600701772
 31
0.0
 11
190.7027885008196
 21
14.73374924051799
 31
0.0
 11
190.7027885008196
 21
14.79260635421857
 31
0.0
 11
190.7027885008196
 21
14.85146346791916
 31
0.0
 11
190.7027885008196
 21
14.87821670141943
 31
0.0
 11
190.7355094280989
 21
14.87821670141943
 31
0.0
 11
190.8271280244809
 21
14.87821670141943
 31
0.0
 11
190.9678280117818
 21
14.87821670141943
 31
0.0
 11
191.1477931118179
 21
14.87821670141943
 31
0.0
 11
191.3572070464054
 21
14.87821670141943
 31
0.0
 11
191.5862535373604
 21
14.87821670141943
 31
0.0
 11
191.8251163064992
 21
14.87821670141943
 31
0.0
 11
192.0639790756381
 21
14.87821670141943
 31
0.0
 11
192.2930255665931
 21
14.87821670141943
 31
0.0
 11
192.5024395011806
 21
14.87821670141943
 31
0.0
 11
192.6824046012167
 21
14.87821670141943
 31
0.0
 11
192.8231045885176
 21
14.87821670141943
 31
0.0
 11
192.9147231848996
 21
14.87821670141943
 31
0.0
 11
192.9474441121789
 21
14.87821670141943
 31
0.0
 11
192.9474441121789
 21
14.85146346791916
 31
0.0
 11
192.9474441121789
 21
14.79260635421857
 31
0.0
 11
192.9474441121789
 21
14.73374924051799
 31
0.0
 11
192.9474441121789
 21
14.70699600701772
 31
0.0
 11
192.9174728954758
 21
14.70699600701772
 31
0.0
 11
192.8352937529027
 21
14.70699600701772
 31
0.0
 11
192.7125084457639
 21
14.70699600701772
 31
0.0
 11
192.5607187353642
 21
14.70699600701772
 31
0.0
 11
192.3915263830077
 21
14.70699600701772
 31
0.0
 11
192.2165331499991
 21
14.70699600701772
 31
0.0
 11
192.0473407976426
 21
14.70699600701772
 31
0.0
 11
191.8955510872428
 21
14.70699600701772
 31
0.0
 11
191.7727657801042
 21
14.70699600701772
 31
0.0
 11
191.690586637531
 21
14.70699600701772
 31
0.0
 11
191.6606154208279
 21
14.70699600701772
 31
0.0
 11
191.6766359412525
 21
14.70165583340792
 31
0.0
 11
191.6926564616771
 21
14.69631565979813
 31
0.0
 11
191.670615568142
 21
14.6755811459144
 31
0.0
 11
191.6284861855363
 21
14.66685871536112
 31
0.0
 11
191.5365235541377
 21
14.46909247312658
 31
0.0
 11
191.4279078521763
 21
14.25467511978508
 31
0.0
 11
191.3127500824806
 21
14.0462255905162
 31
0.0
 11
191.685736667502
 21
14.0558244125303
 31
0.0
 11
192.083070003615
 21
14.06781232404997
 31
0.0
 11
192.4899342191145
 21
14.08102711828531
 31
0.0
 11
192.2983119496978
 21
14.28966761302478
 31
0.0
 11
192.0966752013698
 21
14.4822942015183
 31
0.0
 11
192.1204947794749
 21
14.49525327269563
 31
0.0
 11
192.1728978513061
 21
14.52376322928575
 31
0.0
 11
192.2253009231374
 21
14.55227318587587
 31
0.0
 11
192.2491205012425
 21
14.5652322570532
 31
0.0
 11
192.4387101558627
 21
14.39079508370268
 31
0.0
 11
192.6200310940435
 21
14.20305846374092
 31
0.0
 11
192.7777729231147
 21
14.01782380992437
 31
0.0
 11
192.8966252504058
 21
13.85089253500951
 31
0.0
 11
192.8715408217923
 21
13.83501202286072
 31
0.0
 11
192.8163550788425
 21
13.80007489613337
 31
0.0
 11
192.7611693358928
 21
13.76513776940602
 31
0.0
 11
192.7360849072793
 21
13.74925725725723
 31
0.0
 11
192.6775518151612
 21
13.83887824681805
 31
0.0
 11
192.6050015078457
 21
13.93650288221033
 31
0.0
 11
192.2125412924094
 21
13.91636286943759
 31
0.0
 11
191.824947406956
 21
13.89803302999773
 31
0.0
 11
191.4567378976212
 21
13.88202178722395
 31
0.0
 11
191.1224308105412
 21
13.86883756444948
 31
0.0
 11
190.8365441918518
 21
13.85898878500751
 31
0.0
 11
190.821186232174
 21
13.83220523466696
 31
0.0
 11
190.7937434290546
 21
13.82143559057244
 31
0.0
 11
190.7867927192319
 21
13.84370299445577
 31
0.0
 11
190.7702179496548
 21
13.89680218833139
 31
0.0
 11
190.7504351601596
 21
13.96017864553777
 31
0.0
 11
190.7338603905825
 21
14.0132778394134
 31
0.0
 11
190.7269096807598
 21
14.03554524329672
 31
0.0
 11
190.9091199859153
 21
14.03751638912952
 31
0.0
 11
191.1174975848588
 21
14.04356211829469
 31
0.0
 11
191.2303203127216
 21
14.2548355030155
 31
0.0
 11
191.3407936722035
 21
14.48509813155875
 31
0.0
 11
191.4358254265627
 21
14.70699600701772
 31
0.0
 11
191.4043277461597
 21
14.70699600701772
 31
0.0
 11
191.3212884069153
 21
14.70699600701772
 31
0.0
 11
191.2038879617768
 21
14.70699600701772
 31
0.0
 11
191.0693069636912
 21
14.70699600701772
 31
0.0
 11
190.9347259656055
 21
14.70699600701772
 31
0.0
 11
190.817325520467
 21
14.70699600701772
 31
0.0
 11
190.7342861812226
 21
14.70699600701772
 31
0.0
 11
190.7027885008196
 21
14.70699600701772
 31
0.0
  0
SPLINE
  5
B1
102
{ACAD_REACTORS
330
CE
102
}
330
4B
100
AcDbEntity
  8
_U_30EC_U_30A4_U_30E4_U_30FC_1
  6
Continuous
 62
     2
100
AcDbSpline
210
0.0
220
0.0
230
1.0
 70
    11
 71
     3
 72
    35
 73
    31
 74
    29
 42
0.000000001
 43
0.0000000001
 44
0.00000001
 40
0.0
 40
0.0
 40
0.0
 40
0.0
 40
0.0335231036620645
 40
0.0713218571711906
 40
0.4278866681486883
 40
0.8116865841964056
 40
1.198190238000071
 40
1.56137954681268
 40
1.659983174622088
 40
1.759315573807266
 40
2.132719617231187
 40
2.525233363588954
 40
2.910815397779828
 40
3.265244364303427
 40
3.592606723582212
 40
3.964386154604176
 40
4.359942131738005
 40
4.758154118639535
 40
4.843846538700199
 40
4.93665006554358
 40
5.256616602537635
 40
5.581707404416358
 40
5.899719158308449
 40
6.198363494281057
 40
6.466301046616102
 40
6.493895311537424
 40
6.559697020197217
 40
6.638234543442793
 40
6.704036252154546
 40
6.731630508423352
 40
6.731630508423352
 40
6.731630508423352
 40
6.731630508423352
 10
191.9736010568669
 20
16.23463843719134
 30
0.0
 10
191.9676006097789
 20
16.22480690542322
 30
0.0
 10
191.9548344099157
 20
16.20388988579798
 30
0.0
 10
191.7949362006552
 20
16.17127126532704
 30
0.0
 10
192.2322025842338
 20
15.882066803367
 30
0.0
 10
192.4345394828261
 20
15.68041138358442
 30
0.0
 10
192.6819564267973
 20
15.43749387603274
 30
0.0
 10
193.1831513624607
 20
15.36047662757784
 30
0.0
 10
193.012556219897
 20
15.21876939174656
 30
0.0
 10
192.9383299463201
 20
15.01710366209099
 30
0.0
 10
192.6131432248188
 20
15.3695628717473
 30
0.0
 10
192.3277741670664
 20
15.53175212559566
 30
0.0
 10
192.0337604077658
 20
15.73687130053054
 30
0.0
 10
191.8084452691134
 20
16.21827488595464
 30
0.0
 10
191.5993085055522
 20
15.75343046609224
 30
0.0
 10
191.3207873674835
 20
15.54350952252911
 30
0.0
 10
191.0371383177208
 20
15.37424456359983
 30
0.0
 10
190.7078639527832
 20
15.00142360907927
 30
0.0
 10
190.6277012318224
 20
15.19708014459002
 30
0.0
 10
190.4759724909744
 20
15.32491104190605
 30
0.0
 10
190.9083395826794
 20
15.40454031765936
 30
0.0
 10
191.0962565329766
 20
15.60026634915474
 30
0.0
 10
191.3468477420502
 20
15.81632996916755
 30
0.0
 10
191.5714350470161
 20
15.98190992300058
 30
0.0
 10
191.6259775409712
 20
16.26133964636829
 30
0.0
 10
191.7494661029011
 20
16.24737950408081
 30
0.0
 10
191.806027334452
 20
16.24521268867648
 30
0.0
 10
191.8761870984945
 20
16.24046859881361
 30
0.0
 10
191.9333414022105
 20
16.23709429350541
 30
0.0
 10
191.9644190320839
 20
16.23519854711119
 30
0.0
 10
191.9736010568669
 20
16.23463843719134
 30
0.0
 11
191.9736010568669
 21
16.23463843719134
 31
0.0
 11
191.9525319069884
 21
16.20856374969785
 31
0.0
 11
191.9174464559425
 21
16.19450114553473
 31
0.0
 11
192.1512374769094
 21
15.92527961131386
 31
0.0
 11
192.4414585957566
 21
15.67413407969261
 31
0.0
 11
192.7612797483684
 21
15.45710987618785
 31
0.0
 11
193.0838708706289
 21
15.29025232631642
 31
0.0
 11
193.0213299868076
 21
15.21402035584928
 31
0.0
 11
192.9688035818975
 21
15.12971197913419
 31
0.0
 11
192.6436279095814
 21
15.31326404831582
 31
0.0
 11
192.3237227768436
 21
15.54070139743433
 31
0.0
 11
192.0354200158608
 21
15.79673855123315
 31
0.0
 11
191.8050514588095
 21
16.06609003445573
 31
0.0
 11
191.5995531719516
 21
15.81126348721037
 31
0.0
 11
191.3288301341535
 21
15.55645182277755
 31
0.0
 11
191.0119538423246
 21
15.31969466354854
 31
0.0
 11
190.6679957933741
 21
15.1190316319146
 31
0.0
 11
190.6218855341338
 21
15.19126067703553
 31
0.0
 11
190.5636970460348
 21
15.26355586798974
 31
0.0
 11
190.8433040489015
 21
15.41911456961747
 31
0.0
 11
191.1093004621154
 21
15.60601009790406
 31
0.0
 11
191.3499997459746
 21
15.81384496285209
 31
0.0
 11
191.5537153607774
 21
16.03222167446416
 31
0.0
 11
191.7087607668218
 21
16.25074274274289
 31
0.0
 11
191.7363041569865
 21
16.24906789496553
 31
0.0
 11
191.8019845489177
 21
16.24507402718874
 31
0.0
 11
191.880377274771
 21
16.24030715274549
 31
0.0
 11
191.9460576667022
 21
16.2363132849687
 31
0.0
 11
191.9736010568669
 21
16.23463843719134
 31
0.0
  0
SPLINE
  5
B2
102
{ACAD_REACTORS
330
CF
102
}
330
4B
100
AcDbEntity
  8
_U_30EC_U_30A4_U_30E4_U_30FC_1
  6
Continuous
 62
     2
100
AcDbSpline
210
0.0
220
0.0
230
1.0
 70
    11
 71
     3
 72
    15
 73
    11
 74
     9
 42
0.000000001
 43
0.0000000001
 44
0.00000001
 40
0.0
 40
0.0
 40
0.0
 40
0.0
 40
0.2785535985096574
 40
0.5215624748199432
 40
0.6076917376040788
 40
0.6938210001741255
 40
0.9405019146454893
 40
1.221691403489127
 40
1.300471877081051
 40
1.379252341684823
 40
1.379252341684823
 40
1.379252341684823
 40
1.379252341684823
 10
189.5681493630999
 20
16.22930267330384
 30
0.0
 10
189.6296017794178
 20
16.1769164659272
 30
0.0
 10
189.7446649974113
 20
16.07882876798227
 30
0.0
 10
190.0397348497245
 20
15.92889785897217
 30
0.0
 10
189.9025147631856
 20
15.84343227515012
 30
0.0
 10
189.8041227843779
 20
15.71085785201561
 30
0.0
 10
189.7130033590649
 20
16.0161698578142
 30
0.0
 10
189.3636839480655
 20
16.07967869465375
 30
0.0
 10
189.511925837657
 20
16.1789650988088
 30
0.0
 10
189.5494081874236
 20
16.21252348402385
 30
0.0
 10
189.5681493630999
 20
16.22930267330384
 30
0.0
 11
189.5681493630999
 21
16.22930267330384
 31
0.0
 11
189.7919222440596
 21
16.06341774278976
 31
0.0
 11
189.9695046306383
 21
15.89753281227559
 31
0.0
 11
189.9066308127979
 21
15.83866743034591
 31
0.0
 11
189.8437569949575
 21
15.77980204841623
 31
0.0
 11
189.6688535117725
 21
15.95375677059492
 31
0.0
 11
189.447825685614
 21
16.12757920110704
 31
0.0
 11
189.507987524357
 21
16.17844093720544
 31
0.0
 11
189.5681493630999
 21
16.22930267330384
 31
0.0
  0
SPLINE
  5
B3
102
{ACAD_REACTORS
330
D0
102
}
330
4B
100
AcDbEntity
  8
_U_30EC_U_30A4_U_30E4_U_30FC_1
  6
Continuous
 62
     2
100
AcDbSpline
210
0.0
220
0.0
230
1.0
 70
    11
 71
     3
 72
    75
 73
    71
 74
    69
 42
0.000000001
 43
0.0000000001
 44
0.00000001
 40
0.0
 40
0.0
 40
0.0
 40
0.0
 40
0.0342546099129638
 40
0.1245622414432187
 40
0.2522385480897163
 40
0.3985991922940111
 40
0.5449598364980093
 40
0.672636143143791
 40
0.7629437746735894
 40
0.7971983935296871
 40
1.101723623449544
 40
1.408591244036546
 40
1.433332471690247
 40
1.487763172450035
 40
1.542193873081853
 40
1.566935100592399
 40
1.923523931821717
 40
2.271755704953516
 40
2.590579755100757
 40
2.85894330558102
 40
2.889120339309035
 40
2.918305855190943
 40
2.941366645531057
 40
2.996357760972924
 40
3.061992318140443
 40
3.116983433626615
 40
3.140044223997286
 40
3.411273122936209
 40
3.732441619740881
 40
3.761068217532575
 40
3.83778749963013
 40
3.948858699125756
 40
4.080541049104118
 40
4.219093782625487
 40
4.350776132722023
 40
4.461847332405345
 40
4.53856661467807
 40
4.567193212544312
 40
4.594907573998571
 40
4.66638145355711
 40
4.76411104401072
 40
4.870592538125523
 40
4.968322128641974
 40
5.039796008286659
 40
5.067510369784118
 40
5.094263603185333
 40
5.153120716667969
 40
5.211977830150415
 40
5.23873106355142
 40
5.272290535138659
 40
5.36338052944452
 40
5.497618415781197
 40
5.660621563453439
 40
5.83800734174914
 40
6.015393119910492
 40
6.178396267038117
 40
6.312634151842069
 40
6.403724143059058
 40
6.437283612672154
 40
6.464036846260768
 40
6.522893960004385
 40
6.581751071483652
 40
6.608504301590598
 40
6.637253941280745
 40
6.711397748902597
 40
6.812778057283209
 40
6.923237199248986
 40
7.024617507623629
 40
7.098761315207282
 40
7.127510946007233
 40
7.127510946007233
 40
7.127510946007233
 40
7.127510946007233
 10
188.4418622390564
 20
14.95849128473259
 30
0.0
 10
188.4418622819707
 20
14.94707313408715
 30
0.0
 10
188.4418624481129
 20
14.90555257842624
 30
0.0
 10
188.4418593081787
 20
14.82146922003768
 30
0.0
 10
188.4418788279801
 20
14.70004497322327
 30
0.0
 10
188.4417912187737
 20
14.55980494047448
 30
0.0
 10
188.4421116235229
 20
14.42006556794578
 30
0.0
 10
188.4411605909741
 20
14.29745038894933
 30
0.0
 10
188.4431978595968
 20
14.21587074438048
 30
0.0
 10
188.4349433178745
 20
14.06271267077703
 30
0.0
 10
188.7430797940901
 20
14.22560236054724
 30
0.0
 10
189.0350645173735
 20
14.39482938688005
 30
0.0
 10
189.0408354448707
 20
14.25973235781914
 30
0.0
 10
189.0455471719891
 20
14.21617221160448
 30
0.0
 10
189.0482535411917
 20
14.17211249350549
 30
0.0
 10
189.0672545672959
 20
14.02272590363138
 30
0.0
 10
188.6583942247302
 20
14.08681172241263
 30
0.0
 10
188.3793710348832
 20
13.9729634141102
 30
0.0
 10
188.1018081587167
 20
13.87364095811144
 30
0.0
 10
187.80998371844
 20
13.91630687596362
 30
0.0
 10
187.7869144678658
 20
13.81321679744541
 30
0.0
 10
187.7537474383333
 20
13.78691091244481
 30
0.0
 10
187.7480653962739
 20
13.83455309036311
 30
0.0
 10
187.7284214559044
 20
13.87180336115075
 30
0.0
 10
187.7095089485623
 20
13.93007387847567
 30
0.0
 10
187.6942849867707
 20
13.97385201007805
 30
0.0
 10
187.6477246372936
 20
14.08759421046311
 30
0.0
 10
187.9890897312449
 20
14.05576301120046
 30
0.0
 10
188.2679649367387
 20
14.02161435106483
 30
0.0
 10
188.2617753034907
 20
14.16913976479655
 30
0.0
 10
188.2630935452773
 20
14.24013150908835
 30
0.0
 10
188.2624831689948
 20
14.34719767958663
 30
0.0
 10
188.2625871570725
 20
14.47398529785998
 30
0.0
 10
188.2629987964055
 20
14.60849243496048
 30
0.0
 10
188.2613907841969
 20
14.73395549951182
 30
0.0
 10
188.2659902567924
 20
14.84505246719113
 30
0.0
 10
188.2564186502211
 20
14.90761886800685
 30
0.0
 10
188.2704001783691
 20
14.96595388294996
 30
0.0
 10
188.2147384386705
 20
14.95289710582233
 30
0.0
 10
188.157565519782
 20
14.96136307749493
 30
0.0
 10
188.0616048925648
 20
14.95729976080631
 30
0.0
 10
187.963376752282
 20
14.95970889852469
 30
0.0
 10
187.8672582457561
 20
14.95551600613383
 30
0.0
 10
187.8104648525811
 20
14.96429346441157
 30
0.0
 10
187.7550356873384
 20
14.95094936850116
 30
0.0
 10
187.7670679427917
 20
15.00036910959252
 30
0.0
 10
187.7592003173937
 20
15.0439398803039
 30
0.0
 10
187.7666295563828
 20
15.0883046911852
 30
0.0
 10
187.7551930564143
 20
15.13902297763985
 30
0.0
 10
187.8232102370133
 20
15.12162460757738
 30
0.0
 10
187.8968496879747
 20
15.13417450237183
 30
0.0
 10
188.0325064058211
 20
15.12799677011093
 30
0.0
 10
188.1884909024525
 20
15.13029203093079
 30
0.0
 10
188.3615926358143
 20
15.12940968262525
 30
0.0
 10
188.5346942964181
 20
15.13029207142403
 30
0.0
 10
188.6906789811216
 20
15.12799662955545
 30
0.0
 10
188.8263351889797
 20
15.13417486262426
 30
0.0
 10
188.8999756705652
 20
15.1216239421833
 30
0.0
 10
188.9679914174724
 20
15.13902373012137
 30
0.0
 10
188.9565590885922
 20
15.0883013041455
 30
0.0
 10
188.9639539458297
 20
15.04397060811103
 30
0.0
 10
188.956203991227
 20
15.0002830755019
 30
0.0
 10
188.9681203741877
 20
14.95063590098472
 30
0.0
 10
188.9108170223616
 20
14.9646141133842
 30
0.0
 10
188.8520145789773
 20
14.95539755673249
 30
0.0
 10
188.7525293633199
 20
14.95952268164924
 30
0.0
 10
188.649428009835
 20
14.95822760025883
 30
0.0
 10
188.5537846354573
 20
14.95854077077635
 30
0.0
 10
188.4857467971617
 20
14.9584877669714
 30
0.0
 10
188.4514462213443
 20
14.95849051871651
 30
0.0
 10
188.4418622390564
 20
14.95849128473259
 30
0.0
 11
188.4418622390564
 21
14.95849128473259
 31
0.0
 11
188.4418622390564
 21
14.9242366658718
 31
0.0
 11
188.4418622390564
 21
14.83392903432972
 31
0.0
 11
188.4418622390564
 21
14.70625272766678
 31
0.0
 11
188.4418622390564
 21
14.5598920834434
 31
0.0
 11
188.4418622390564
 21
14.41353143922002
 31
0.0
 11
188.4418622390564
 21
14.28585513255708
 31
0.0
 11
188.4418622390564
 21
14.195547501015
 31
0.0
 11
188.4418622390564
 21
14.16129288215421
 31
0.0
 11
188.7391932644567
 21
14.22709475713771
 31
0.0
 11
189.0384623627245
 21
14.29496038212074
 31
0.0
 11
189.0405487124976
 21
14.2703072788283
 31
0.0
 11
189.0451386819987
 21
14.21607045158493
 31
0.0
 11
189.0497286514996
 21
14.16183362434156
 31
0.0
 11
189.0518150012728
 21
14.13718052104912
 31
0.0
 11
188.705639688924
 21
14.051633701409
 31
0.0
 11
188.3669653138838
 21
13.97060877629904
 31
0.0
 11
188.0563731516688
 21
13.89862764024932
 31
0.0
 11
187.7944444777955
 21
13.84021218778992
 31
0.0
 11
187.7817515029292
 21
13.81283442738014
 31
0.0
 11
187.7569794787513
 21
13.79740260446744
 31
0.0
 11
187.7491867589501
 21
13.81910683390644
 31
0.0
 11
187.7306041194242
 21
13.87086307333791
 31
0.0
 11
187.70842483999
 21
13.93263664943354
 31
0.0
 11
187.689842200464
 21
13.98439288886501
 31
0.0
 11
187.6820494806628
 21
14.00609711830401
 31
0.0
 11
187.9482776335931
 21
14.05794001759666
 31
0.0
 11
188.2626334936289
 21
14.12373968771914
 31
0.0
 11
188.2626334936289
 21
14.15236628569628
 31
0.0
 11
188.2626334936289
 21
14.22908556827502
 31
0.0
 11
188.2626334936289
 21
14.34015676842633
 31
0.0
 11
188.2626334936289
 21
14.47183911912118
 31
0.0
 11
188.2626334936289
 21
14.61039185333055
 31
0.0
 11
188.2626334936289
 21
14.7420742040254
 31
0.0
 11
188.2626334936289
 21
14.85314540417671
 31
0.0
 11
188.2626334936289
 21
14.92986468675545
 31
0.0
 11
188.2626334936289
 21
14.95849128473259
 31
0.0
 11
188.2349191321108
 21
14.95849128473259
 31
0.0
 11
188.1634452524063
 21
14.95849128473259
 31
0.0
 11
188.06571566179
 21
14.95849128473259
 31
0.0
 11
187.9592341675364
 21
14.95849128473259
 31
0.0
 11
187.8615045769201
 21
14.95849128473259
 31
0.0
 11
187.7900306972156
 21
14.95849128473259
 31
0.0
 11
187.7623163356975
 21
14.95849128473259
 31
0.0
 11
187.7623163356975
 21
14.98524451823284
 31
0.0
 11
187.7623163356975
 21
15.04410163193339
 31
0.0
 11
187.7623163356975
 21
15.10295874563394
 31
0.0
 11
187.7623163356975
 21
15.12971197913419
 31
0.0
 11
187.7958758072874
 21
15.12971197913419
 31
0.0
 11
187.8869658016031
 21
15.12971197913419
 31
0.0
 11
188.0212036879629
 21
15.12971197913419
 31
0.0
 11
188.1842068356856
 21
15.12971197913419
 31
0.0
 11
188.3615926140897
 21
15.12971197913419
 31
0.0
 11
188.5389783924938
 21
15.12971197913419
 31
0.0
 11
188.7019815402164
 21
15.12971197913419
 31
0.0
 11
188.8362194265763
 21
15.12971197913419
 31
0.0
 11
188.9273094208918
 21
15.12971197913419
 31
0.0
 11
188.9608688924818
 21
15.12971197913419
 31
0.0
 11
188.9608688924818
 21
15.10295874563394
 31
0.0
 11
188.9608688924818
 21
15.04410163193339
 31
0.0
 11
188.9608688924818
 21
14.98524451823284
 31
0.0
 11
188.9608688924818
 21
14.95849128473259
 31
0.0
 11
188.9321192527877
 21
14.95849128473259
 31
0.0
 11
188.8579754451555
 21
14.95849128473259
 31
0.0
 11
188.7565951367604
 21
14.95849128473259
 31
0.0
 11
188.6461359947778
 21
14.95849128473259
 31
0.0
 11
188.5447556863827
 21
14.95849128473259
 31
0.0
 11
188.4706118787505
 21
14.95849128473259
 31
0.0
 11
188.4418622390564
 21
14.95849128473259
 31
0.0
  0
SPLINE
  5
B4
102
{ACAD_REACTORS
330
D1
102
}
330
4B
100
AcDbEntity
  8
_U_30EC_U_30A4_U_30E4_U_30FC_1
  6
Continuous
 62
     2
100
AcDbSpline
210
0.0
220
0.0
230
1.0
 70
    11
 71
     3
 72
    91
 73
    87
 74
    85
 42
0.000000001
 43
0.0000000001
 44
0.00000001
 40
0.0
 40
0.0
 40
0.0
 40
0.0
 40
0.0345987051695718
 40
0.1258134969461369
 40
0.2547723404888987
 40
0.4026032099154125
 40
0.5504340793416704
 40
0.679392922883608
 40
0.7706077146571035
 40
0.8052064287780925
 40
1.124852390615288
 40
1.427402236308895
 40
1.706356627453545
 40
1.955541417875244
 40
2.169485938566399
 40
2.344350786664864
 40
2.480568411562019
 40
2.590440557429042
 40
2.649189927151196
 40
2.749320643306404
 40
2.912632739880121
 40
3.147745656000341
 40
3.244827496385228
 40
3.338490056946823
 40
3.583815413207246
 40
3.761423943238598
 40
3.886956104362751
 40
3.985855451886904
 40
4.091766255337788
 40
4.250186473811981
 40
4.422734315084629
 40
4.628285684838725
 40
4.872093227758557
 40
5.15254965214567
 40
5.46496713583765
 40
5.803201477852563
 40
6.160362988814033
 40
6.193449448276088
 40
6.284170385501742
 40
6.419718138764612
 40
6.587285046385862
 40
6.774063446723776
 40
6.967245678113759
 40
7.154024078817745
 40
7.321590987026131
 40
7.457138740890489
 40
7.547859678556225
 40
7.580946138182785
 40
7.608533084714837
 40
7.669224367077819
 40
7.729915649430039
 40
7.757502595950092
 40
7.790278062553545
 40
7.880146277431043
 40
8.014419963180506
 40
8.180411842398007
 40
8.365434637679476
 40
8.556801071622777
 40
8.74182386683089
 40
8.9078157459164
 40
9.042089431507554
 40
9.13195764624968
 40
9.164733112797256
 40
9.415425063140159
 40
9.667986180958572
 40
9.694169807462739
 40
9.756607686047698
 40
9.831130315322504
 40
9.893568193899968
 40
9.919751820398785
 40
9.950967964690609
 40
9.996421631210739
 40
10.22087981037458
 40
10.4434186619754
 40
10.47847970788852
 40
10.57091337438753
 40
10.70159545461227
 40
10.85140174170358
 40
11.00120802880475
 40
11.13189010907381
 40
11.22432377583009
 40
11.25938480938955
 40
11.28697175596143
 40
11.34766303835918
 40
11.40835432042068
 40
11.43594125892103
 40
11.43594125892103
 40
11.43594125892103
 40
11.43594125892103
 10
190.0818114333289
 20
15.55242795125082
 30
0.0
 10
190.0702785844941
 20
15.5524279028792
 30
0.0
 10
190.0283409444998
 20
15.55242773704169
 30
0.0
 10
189.9434129719026
 20
15.55243125800914
 30
0.0
 10
189.8207688553128
 20
15.55240926435883
 30
0.0
 10
189.6791206916993
 20
15.55250801177059
 30
0.0
 10
189.537975369849
 20
15.55214686232426
 30
0.0
 10
189.4141351317904
 20
15.55321883609093
 30
0.0
 10
189.3317217825382
 20
15.55092249091274
 30
0.0
 10
189.1727791229692
 20
15.56048569373425
 30
0.0
 10
189.3503402353376
 20
15.19785394311374
 30
0.0
 10
189.3379739205452
 20
14.95243127723117
 30
0.0
 10
189.4064519473864
 20
14.66862501324836
 30
0.0
 10
189.469302432097
 20
14.43250999939036
 30
0.0
 10
189.5452253431728
 20
14.23326740396128
 30
0.0
 10
189.6303189577016
 20
14.07745347451371
 30
0.0
 10
189.7244607592935
 20
13.9765785778139
 30
0.0
 10
189.8282648207727
 20
13.92465852638961
 30
0.0
 10
189.9125872030774
 20
13.97606484379614
 30
0.0
 10
189.9351322179452
 20
14.09144544037515
 30
0.0
 10
189.9745730975371
 20
14.21885149702379
 30
0.0
 10
189.9202919734943
 20
14.53622328086757
 30
0.0
 10
190.0451218072473
 20
14.38982180140907
 30
0.0
 10
190.2019291513603
 20
14.35795300331172
 30
0.0
 10
190.0947720007057
 20
14.1242135776763
 30
0.0
 10
190.0808711209867
 20
13.95972776583659
 30
0.0
 10
190.0234709467225
 20
13.83130869122487
 30
0.0
 10
189.9335020145008
 20
13.76018802352831
 30
0.0
 10
189.8095274657877
 20
13.74432324142259
 30
0.0
 10
189.663427319686
 20
13.77993797554176
 30
0.0
 10
189.5243894320284
 20
13.90000570500283
 30
0.0
 10
189.4102003962144
 20
14.07435682550325
 30
0.0
 10
189.3146141301485
 20
14.29946603111246
 30
0.0
 10
189.2318652572627
 20
14.56388246006449
 30
0.0
 10
189.1807179256412
 20
14.88187933098549
 30
0.0
 10
189.0770189207337
 20
15.15543728488917
 30
0.0
 10
189.2042841208522
 20
15.56005818612874
 30
0.0
 10
189.0357890623018
 20
15.55112367849683
 30
0.0
 10
188.9511995787077
 20
15.55315961418368
 30
0.0
 10
188.8189876387627
 20
15.55213937388411
 30
0.0
 10
188.6560505094104
 20
15.55253230318434
 30
0.0
 10
188.4733759170532
 20
15.55235696313374
 30
0.0
 10
188.2847057373383
 20
15.55260105307473
 30
0.0
 10
188.1014469020189
 20
15.55185657906241
 30
0.0
 10
187.9404746832718
 20
15.55416360522431
 30
0.0
 10
187.8029808335276
 20
15.54799804883667
 30
0.0
 10
187.7289590372311
 20
15.56032838458216
 30
0.0
 10
187.6613215186856
 20
15.54329323723561
 30
0.0
 10
187.6732373719269
 20
15.59524438447533
 30
0.0
 10
187.6655677285694
 20
15.64071424966534
 30
0.0
 10
187.6732592225115
 20
15.68614453703711
 30
0.0
 10
187.6613141797761
 20
15.73802395984575
 30
0.0
 10
187.7283588305867
 20
15.72119143490269
 30
0.0
 10
187.8017375665676
 20
15.73335409092676
 30
0.0
 10
187.9379128305272
 20
15.72727231074964
 30
0.0
 10
188.0973811801512
 20
15.72954834315063
 30
0.0
 10
188.2789173085836
 20
15.72881233998967
 30
0.0
 10
188.4658034862179
 20
15.72905954196138
 30
0.0
 10
188.6468012316836
 20
15.72886400799258
 30
0.0
 10
188.8080802578878
 20
15.72932234714844
 30
0.0
 10
188.9393882124887
 20
15.72812673751211
 30
0.0
 10
189.0225051322596
 20
15.73051347319748
 30
0.0
 10
189.1556236547814
 20
15.72230605725469
 30
0.0
 10
189.0645893502658
 20
15.97752868952656
 30
0.0
 10
188.978963307442
 20
16.24164358328245
 30
0.0
 10
189.0990589003455
 20
16.22904442969163
 30
0.0
 10
189.1514264948544
 20
16.22694235763074
 30
0.0
 10
189.2214497569715
 20
16.22535399889655
 30
0.0
 10
189.2671922337817
 20
16.21602567538113
 30
0.0
 10
189.3220812646933
 20
16.22545966915426
 30
0.0
 10
189.296357478568
 20
16.17733028655174
 30
0.0
 10
189.1825397571453
 20
16.18266829744152
 30
0.0
 10
189.3159346621136
 20
15.95449174576782
 30
0.0
 10
189.1943658735471
 20
15.72156856595927
 30
0.0
 10
189.3223188769413
 20
15.73087258884444
 30
0.0
 10
189.404904840646
 20
15.72801001754685
 30
0.0
 10
189.5307214850824
 20
15.72923437412307
 30
0.0
 10
189.6741469838057
 20
15.7293243188897
 30
0.0
 10
189.8157420951728
 20
15.72746163183858
 30
0.0
 10
189.9459127249967
 20
15.73333075937168
 30
0.0
 10
190.0193452286191
 20
15.72070340823208
 30
0.0
 10
190.0891112922096
 20
15.73877563110418
 30
0.0
 10
190.0775772605396
 20
15.68612850546331
 30
0.0
 10
190.0833184346681
 20
15.64221317686552
 30
0.0
 10
190.0816615770911
 20
15.59089982676554
 30
0.0
 10
190.081775756167
 20
15.56158792021639
 30
0.0
 10
190.0818114333289
 20
15.55242795125082
 30
0.0
 11
190.0818114333289
 21
15.55242795125082
 31
0.0
 11
190.0472127192051
 21
15.55242795125082
 31
0.0
 11
189.9559979274241
 21
15.55242795125082
 31
0.0
 11
189.8270390838717
 21
15.55242795125082
 31
0.0
 11
189.6792082144335
 21
15.55242795125082
 31
0.0
 11
189.5313773449954
 21
15.55242795125082
 31
0.0
 11
189.402418501443
 21
15.55242795125082
 31
0.0
 11
189.311203709662
 21
15.55242795125082
 31
0.0
 11
189.2766049955382
 21
15.55242795125082
 31
0.0
 11
189.3083140497693
 21
15.23435864930125
 31
0.0
 11
189.3527866656865
 21
14.93509522788083
 31
0.0
 11
189.4092389118319
 21
14.66191269512577
 31
0.0
 11
189.4768868567478
 21
14.42208605917227
 31
0.0
 11
189.5549465689761
 21
14.22289032815653
 31
0.0
 11
189.6426341170591
 21
14.07160051021475
 31
0.0
 11
189.7391655695388
 21
13.97549161348314
 31
0.0
 11
189.8437569949575
 21
13.94183864609789
 31
0.0
 11
189.8943077302786
 21
13.97177376978832
 31
0.0
 11
189.9310588991551
 21
14.06491619815045
 31
0.0
 11
189.9562640977528
 21
14.22627151712053
 31
0.0
 11
189.9721769222368
 21
14.46084531263483
 31
0.0
 11
190.0494082682583
 21
14.4020218230662
 31
0.0
 11
190.1327184184385
 21
14.35921885432691
 31
0.0
 11
190.1066365811217
 21
14.11528388661011
 31
0.0
 11
190.0673317805105
 21
13.94207902887564
 31
0.0
 11
190.0105702596765
 21
13.83011272445921
 31
0.0
 11
189.932118261691
 21
13.7698934166965
 31
0.0
 11
189.8277420296256
 21
13.75192954892322
 31
0.0
 11
189.6738595065097
 21
13.78957440012366
 31
0.0
 11
189.5388902376747
 21
13.89707348877408
 31
0.0
 11
189.4221739916163
 21
14.06627361744814
 31
0.0
 11
189.32305053683
 21
14.28902158871949
 31
0.0
 11
189.2408596418113
 21
14.55716420516178
 31
0.0
 11
189.1749410750559
 21
14.86254826934866
 31
0.0
 11
189.1246346050593
 21
15.19702058385379
 31
0.0
 11
189.0892800003171
 21
15.55242795125082
 31
0.0
 11
189.0561935405844
 21
15.55242795125082
 31
0.0
 11
188.9654726026075
 21
15.55242795125082
 31
0.0
 11
188.8299248482185
 21
15.55242795125082
 31
0.0
 11
188.6623579392495
 21
15.55242795125082
 31
0.0
 11
188.4755795375324
 21
15.55242795125082
 31
0.0
 11
188.2823973048992
 21
15.55242795125082
 31
0.0
 11
188.0956189031822
 21
15.55242795125082
 31
0.0
 11
187.9280519942131
 21
15.55242795125082
 31
0.0
 11
187.7925042398241
 21
15.55242795125082
 31
0.0
 11
187.7017833018473
 21
15.55242795125082
 31
0.0
 11
187.6686968421145
 21
15.55242795125082
 31
0.0
 11
187.6686968421145
 21
15.58001489785851
 31
0.0
 11
187.6686968421145
 21
15.64070618039543
 31
0.0
 11
187.6686968421145
 21
15.70139746293234
 31
0.0
 11
187.6686968421145
 21
15.72898440954003
 31
0.0
 11
187.7014723087631
 21
15.72898440954003
 31
0.0
 11
187.7913405237673
 21
15.72898440954003
 31
0.0
 11
187.9256142097148
 21
15.72898440954003
 31
0.0
 11
188.0916060891932
 21
15.72898440954003
 31
0.0
 11
188.2766288847901
 21
15.72898440954003
 31
0.0
 11
188.4679953190932
 21
15.72898440954003
 31
0.0
 11
188.6530181146902
 21
15.72898440954003
 31
0.0
 11
188.8190099941685
 21
15.72898440954003
 31
0.0
 11
188.953283680116
 21
15.72898440954003
 31
0.0
 11
189.0431518951202
 21
15.72898440954003
 31
0.0
 11
189.0759273617688
 21
15.72898440954003
 31
0.0
 11
189.0659183950103
 21
15.97947647544962
 31
0.0
 11
189.0599112510663
 21
16.23196614552529
 31
0.0
 11
189.0860575870659
 21
16.2305692160812
 31
0.0
 11
189.1484065421419
 21
16.22723807663759
 31
0.0
 11
189.2228230369099
 21
16.22326220052749
 31
0.0
 11
189.2851719919859
 21
16.21993106108388
 31
0.0
 11
189.3113183279855
 21
16.21853413163979
 31
0.0
 11
189.298293111304
 21
16.19016528616081
 31
0.0
 11
189.2551649266405
 21
16.17581274276159
 31
0.0
 11
189.2574991961821
 21
15.95136670115107
 31
0.0
 11
189.2658452735903
 21
15.72898440954003
 31
0.0
 11
189.3009063195165
 21
15.72898440954003
 31
0.0
 11
189.3933399860495
 21
15.72898440954003
 31
0.0
 11
189.5240220663201
 21
15.72898440954003
 31
0.0
 11
189.6738283534596
 21
15.72898440954003
 31
0.0
 11
189.8236346405991
 21
15.72898440954003
 31
0.0
 11
189.9543167208697
 21
15.72898440954003
 31
0.0
 11
190.0467503874027
 21
15.72898440954003
 31
0.0
 11
190.0818114333289
 21
15.72898440954003
 31
0.0
 11
190.0818114333289
 21
15.70139746293234
 31
0.0
 11
190.0818114333289
 21
15.64070618039543
 31
0.0
 11
190.0818114333289
 21
15.58001489785851
 31
0.0
 11
190.0818114333289
 21
15.55242795125082
 31
0.0
  0
SPLINE
  5
B5
102
{ACAD_REACTORS
330
D2
102
}
330
4B
100
AcDbEntity
  8
_U_30EC_U_30A4_U_30E4_U_30FC_1
  6
Continuous
 62
     2
100
AcDbSpline
210
0.0
220
0.0
230
1.0
 70
    11
 71
     3
 72
   118
 73
   114
 74
   112
 42
0.000000001
 43
0.0000000001
 44
0.00000001
 40
0.0
 40
0.0
 40
0.0
 40
0.0
 40
0.1054708162973279
 40
0.2466098270051836
 40
0.3965912874591082
 40
0.5285525069754073
 40
0.6156245055642503
 40
0.6431434105797788
 40
0.7036850037986392
 40
0.7642265984504704
 40
0.7917455052354979
 40
0.9287404319989968
 40
1.106572819088033
 40
1.287544879681006
 40
1.317578308030523
 40
1.399928030857163
 40
1.522968204799941
 40
1.675072986590566
 40
1.844616533180648
 40
2.019973001638714
 40
2.189516548880032
 40
2.341621331585372
 40
2.464661506320512
 40
2.547011229647079
 40
2.577044658168044
 40
2.603797890893114
 40
2.662655002908801
 40
2.721512114949613
 40
2.748265347702793
 40
2.774215307344869
 40
2.845959313407199
 40
2.9543385565884
 40
3.090194227585579
 40
3.244367517100544
 40
3.407699615844304
 40
3.571031714539453
 40
3.725205003920133
 40
3.861060674729634
 40
3.969439917716327
 40
4.041183923629001
 40
4.067133883212994
 40
4.311886746012165
 40
4.547897258335525
 40
4.764747083043972
 40
4.952749679951789
 40
5.045772974195901
 40
5.137862019644999
 40
5.330543169793058
 40
5.553448265244039
 40
5.795083855888178
 40
6.043293412177223
 40
6.28576169554117
 40
6.313902908752654
 40
6.384255941793244
 40
6.475714884766832
 40
6.567173827758895
 40
6.637526860839673
 40
6.665668074074036
 40
6.692018920328023
 40
6.749990782071116
 40
6.807962643790507
 40
6.834313490017992
 40
6.856393084245271
 40
6.913335195649895
 40
6.991194817302558
 40
7.07602694228382
 40
7.15388656372531
 40
7.210828674844892
 40
7.232908268931228
 40
7.258199334923749
 40
7.3248757815924
 40
7.419142481925061
 40
7.527204308842006
 40
7.635266135230587
 40
7.729532834168577
 40
7.796209279292896
 40
7.821500344594845
 40
7.844652988850916
 40
7.899863140541695
 40
7.965759128053861
 40
8.020969279771146
 40
8.044121924046612
 40
8.069356610160726
 40
8.109134395441485
 40
8.1322381001912
 40
8.193147867786566
 40
8.279261678876741
 40
8.377977512673963
 40
8.476693347146751
 40
8.56280716041181
 40
8.623716930826598
 40
8.646820636853553
 40
8.671988793774366
 40
8.734909185828277
 40
8.816705695188991
 40
8.898502204815562
 40
8.961422597378023
 40
8.986590754551136
 40
9.012941600733303
 40
9.07091346238041
 40
9.12888532408193
 40
9.155236170325262
 40
9.180404327929304
 40
9.243324721948378
 40
9.32512123421217
 40
9.406917746637825
 40
9.46983814197828
 40
9.495006288271055
 40
9.517811184379186
 40
9.572192090487158
 40
9.637098333281356
 40
9.691479239515528
 40
9.714284125643555
 40
9.714284125643555
 40
9.714284125643555
 40
9.714284125643555
 10
185.2874469028653
 20
15.26889163187724
 30
0.0
 10
185.3090990569037
 20
15.24111869242816
 30
0.0
 10
185.3597257109474
 20
15.17618054561239
 30
0.0
 10
185.4349383202591
 20
15.06891060312902
 30
0.0
 10
185.5248482274345
 20
14.95377438266626
 30
0.0
 10
185.5709169676673
 20
14.85357045748321
 30
0.0
 10
185.6655825294654
 20
14.78434006814944
 30
0.0
 10
185.6204439320413
 20
14.73771639678276
 30
0.0
 10
185.594704778579
 20
14.69660308866041
 30
0.0
 10
185.5645196708011
 20
14.66065971727943
 30
0.0
 10
185.5193684730562
 20
14.58579782596098
 30
0.0
 10
185.4710504458561
 20
14.80782524253604
 30
0.0
 10
185.3968539713072
 20
14.84510677337708
 30
0.0
 10
185.2836047324607
 20
15.11610202130601
 30
0.0
 10
185.2885133578169
 20
15.00095328446228
 30
0.0
 10
185.2868486556306
 20
14.92836675781627
 30
0.0
 10
185.2876830076713
 20
14.80625588483985
 30
0.0
 10
185.2873609540265
 20
14.6591380081046
 30
0.0
 10
185.2875076912455
 20
14.49307063956555
 30
0.0
 10
185.2872950092722
 20
14.321875546086
 30
0.0
 10
185.2879497252034
 20
14.15552828635496
 30
0.0
 10
185.2859192461139
 20
14.00935173055691
 30
0.0
 10
185.291346039993
 20
13.88471047474608
 30
0.0
 10
185.2804930868707
 20
13.81718656540624
 30
0.0
 10
185.2956739155555
 20
13.75549061417019
 30
0.0
 10
185.2457895108133
 20
13.76727503896998
 30
0.0
 10
185.2017150342522
 20
13.75943822779966
 30
0.0
 10
185.15823716302
 20
13.767604413727
 30
0.0
 10
185.1092346786489
 20
13.75538056738465
 30
0.0
 10
185.1218731234825
 20
13.8096066724931
 30
0.0
 10
185.113018296845
 20
13.86936918907554
 30
0.0
 10
185.1175058770314
 20
13.97922029044368
 30
0.0
 10
185.115796013599
 20
14.11029975405676
 30
0.0
 10
185.1163550915987
 20
14.26198011444325
 30
0.0
 10
185.1161928768694
 20
14.42211074929951
 30
0.0
 10
185.1162269924674
 20
14.58236865674564
 30
0.0
 10
185.1162514960128
 20
14.73370247520437
 30
0.0
 10
185.1161453543224
 20
14.86582156338599
 30
0.0
 10
185.1164299141932
 20
14.97294802533192
 30
0.0
 10
185.1158675547567
 20
15.03808619579471
 30
0.0
 10
185.1180765083689
 20
15.16618957858673
 30
0.0
 10
185.0319435998602
 20
14.79097610391574
 30
0.0
 10
184.95551408185
 20
14.63918193123395
 30
0.0
 10
184.8660040767833
 20
14.47766206446305
 30
0.0
 10
184.7640413217326
 20
14.2047184882017
 30
0.0
 10
184.7187976491039
 20
14.36717346596508
 30
0.0
 10
184.610235594167
 20
14.45605432058119
 30
0.0
 10
184.7995791751752
 20
14.60549794961407
 30
0.0
 10
184.8565340545701
 20
14.79749136974923
 30
0.0
 10
184.9717520993352
 20
15.02899622906753
 30
0.0
 10
184.9940151630132
 20
15.21797259759058
 30
0.0
 10
185.177190515214
 20
15.49454089325924
 30
0.0
 10
185.0538033597552
 20
15.48698978832088
 30
0.0
 10
184.9925684166834
 20
15.48856772366112
 30
0.0
 10
184.9081999617064
 20
15.48882592573666
 30
0.0
 10
184.8204235085966
 20
15.485448457512
 30
0.0
 10
184.7656768696122
 20
15.49394814982014
 30
0.0
 10
184.7104703026024
 20
15.48048561049782
 30
0.0
 10
184.7222823035536
 20
15.52931442126759
 30
0.0
 10
184.7142496151793
 20
15.57269004896706
 30
0.0
 10
184.7228186104679
 20
15.61509438309572
 30
0.0
 10
184.7102943409157
 20
15.66267796552119
 30
0.0
 10
184.7555101538735
 20
15.65267212995111
 30
0.0
 10
184.8014815562724
 20
15.65894105174062
 30
0.0
 10
184.8777222047709
 20
15.65593561405873
 30
0.0
 10
184.9561296131994
 20
15.65770448278542
 30
0.0
 10
185.0323992648932
 20
15.6546479398166
 30
0.0
 10
185.0783009459475
 20
15.66103971376179
 30
0.0
 10
185.12317339654
 20
15.65093822978897
 30
0.0
 10
185.1105552275634
 20
15.701572015819
 30
0.0
 10
185.1191936582707
 20
15.75501261882071
 30
0.0
 10
185.1152361595442
 20
15.84863255131682
 30
0.0
 10
185.1162325068335
 20
15.95112606688926
 30
0.0
 10
185.1171927413073
 20
16.05353270248166
 30
0.0
 10
185.1133211458004
 20
16.14735929609323
 30
0.0
 10
185.1217789814365
 20
16.20036542840356
 30
0.0
 10
185.1093075932835
 20
16.2521143565119
 30
0.0
 10
185.154210638985
 20
16.2385074722676
 30
0.0
 10
185.1955083836772
 20
16.24100480320589
 30
0.0
 10
185.2595344281051
 20
16.23648060574491
 30
0.0
 10
185.2986111148785
 20
16.22781003043311
 30
0.0
 10
185.3476543498742
 20
16.2351510207069
 30
0.0
 10
185.322508003059
 20
16.19602896051757
 30
0.0
 10
185.2815901333723
 20
16.20563842455812
 30
0.0
 10
185.2910109616604
 20
16.15540148169782
 30
0.0
 10
185.2855647318746
 20
16.10385945639494
 30
0.0
 10
185.2881699601803
 20
16.01959707584523
 30
0.0
 10
185.2870102202153
 20
15.9255913558341
 30
0.0
 10
185.2883591064231
 20
15.83196865395528
 30
0.0
 10
185.2849970101509
 20
15.74679517552224
 30
0.0
 10
185.2920959917768
 20
15.69716856072045
 30
0.0
 10
185.2812569154546
 20
15.6499369496999
 30
0.0
 10
185.3304010225245
 20
15.66201674936853
 30
0.0
 10
185.3794877630147
 20
15.65447393363013
 30
0.0
 10
185.4573714280641
 20
15.65686070361433
 30
0.0
 10
185.5350365172896
 20
15.65899381905415
 30
0.0
 10
185.5845393931355
 20
15.65193391922456
 30
0.0
 10
185.6344594750639
 20
15.66360151936214
 30
0.0
 10
185.622319851688
 20
15.61540235371392
 30
0.0
 10
185.6305838229143
 20
15.57249219801232
 30
0.0
 10
185.6223198650783
 20
15.52958201851381
 30
0.0
 10
185.6344594549855
 20
15.48138288754858
 30
0.0
 10
185.5845395158746
 20
15.49305034471504
 30
0.0
 10
185.5350350651202
 20
15.48599202435039
 30
0.0
 10
185.4573784382973
 20
15.48811665228597
 30
0.0
 10
185.379464386576
 20
15.49053389365754
 30
0.0
 10
185.3304500352716
 20
15.48291848194479
 30
0.0
 10
185.2813246108943
 20
15.49507952557586
 30
0.0
 10
185.2915559988571
 20
15.45073013424154
 30
0.0
 10
185.2856677678054
 20
15.4092543620291
 30
0.0
 10
185.2878788305568
 20
15.34915394315303
 30
0.0
 10
185.2874109346147
 20
15.30225782762892
 30
0.0
 10
185.2874386992913
 20
15.276501464182
 30
0.0
 10
185.2874469028653
 20
15.26889163187724
 30
0.0
 11
185.2874469028653
 21
15.26889163187724
 31
0.0
 11
185.3516977534484
 21
15.18524999634261
 31
0.0
 11
185.4348258835499
 21
15.07118889748224
 31
0.0
 11
185.5216831568895
 21
14.94891767195726
 31
0.0
 11
185.5971214371872
 21
14.84064565642878
 31
0.0
 11
185.6459925881626
 21
14.76858218755791
 31
0.0
 11
185.6296821285093
 21
14.74641782124401
 31
0.0
 11
185.5937991172719
 21
14.69765621535342
 31
0.0
 11
185.5579161060346
 21
14.64889460946283
 31
0.0
 11
185.5416056463813
 21
14.62673024314893
 31
0.0
 11
185.4763067109445
 21
14.74716139023814
 31
0.0
 11
185.3848434243234
 21
14.89966983670206
 31
0.0
 11
185.2874469028653
 21
15.05219788193142
 31
0.0
 11
185.2874469028653
 21
15.02216445328253
 31
0.0
 11
185.2874469028653
 21
14.93981472956783
 31
0.0
 11
185.2874469028653
 21
14.81677455413527
 31
0.0
 11
185.2874469028653
 21
14.66466977033282
 31
0.0
 11
185.2874469028653
 21
14.49512622150844
 31
0.0
 11
185.2874469028653
 21
14.31976975101007
 31
0.0
 11
185.2874469028653
 21
14.15022620218569
 31
0.0
 11
185.2874469028653
 21
13.99812141838324
 31
0.0
 11
185.2874469028653
 21
13.87508124295068
 31
0.0
 11
185.2874469028653
 21
13.79273151923598
 31
0.0
 11
185.2874469028653
 21
13.76269809058709
 31
0.0
 11
185.2606936700409
 21
13.76269809058709
 31
0.0
 11
185.2018365578272
 21
13.76269809058709
 31
0.0
 11
185.1429794456134
 21
13.76269809058709
 31
0.0
 11
185.116226212789
 21
13.76269809058709
 31
0.0
 11
185.116226212789
 21
13.78864805031247
 31
0.0
 11
185.116226212789
 21
13.86039205661205
 31
0.0
 11
185.116226212789
 21
13.96877130017099
 31
0.0
 11
185.116226212789
 21
14.10462697167445
 31
0.0
 11
185.116226212789
 21
14.25880026180758
 31
0.0
 11
185.116226212789
 21
14.42213236125556
 31
0.0
 11
185.116226212789
 21
14.58546446070354
 31
0.0
 11
185.116226212789
 21
14.73963775083668
 31
0.0
 11
185.116226212789
 21
14.87549342234013
 31
0.0
 11
185.116226212789
 21
14.98387266589907
 31
0.0
 11
185.116226212789
 21
15.05561667219865
 31
0.0
 11
185.116226212789
 21
15.08156663192403
 31
0.0
 11
185.0379865861721
 21
14.84965603302372
 31
0.0
 11
184.9497110789303
 21
14.63077616328678
 31
0.0
 11
184.8544106930045
 21
14.43598991333546
 31
0.0
 11
184.7550964303356
 21
14.276360173792
 31
0.0
 11
184.7109198342406
 21
14.35822446196595
 31
0.0
 11
184.658805738348
 21
14.43414885430809
 31
0.0
 11
184.7627302590299
 21
14.59640087926756
 31
0.0
 11
184.8629319864735
 21
14.79551465421778
 31
0.0
 11
184.9550446607901
 21
15.01890447916192
 31
0.0
 11
185.0347020220912
 21
15.25398465410313
 31
0.0
 11
185.097537810488
 21
15.48816947904459
 31
0.0
 11
185.0693965972142
 21
15.48816947904459
 31
0.0
 11
184.9990435640297
 21
15.48816947904459
 31
0.0
 11
184.9075846208898
 21
15.48816947904459
 31
0.0
 11
184.8161256777499
 21
15.48816947904459
 31
0.0
 11
184.7457726445654
 21
15.48816947904459
 31
0.0
 11
184.7176314312916
 21
15.48816947904459
 31
0.0
 11
184.7176314312916
 21
15.51452032539218
 31
0.0
 11
184.7176314312916
 21
15.57249218735686
 31
0.0
 11
184.7176314312916
 21
15.63046404932155
 31
0.0
 11
184.7176314312916
 21
15.65681489566913
 31
0.0
 11
184.739711025602
 21
15.65681489566913
 31
0.0
 11
184.7966531372444
 21
15.65681489566913
 31
0.0
 11
184.8745127592862
 21
15.65681489566913
 31
0.0
 11
184.9593448847944
 21
15.65681489566913
 31
0.0
 11
185.0372045068361
 21
15.65681489566913
 31
0.0
 11
185.0941466184786
 21
15.65681489566913
 31
0.0
 11
185.116226212789
 21
15.65681489566913
 31
0.0
 11
185.116226212789
 21
15.68210596174354
 31
0.0
 11
185.116226212789
 21
15.74878240866698
 31
0.0
 11
185.116226212789
 21
15.84304910948978
 31
0.0
 11
185.116226212789
 21
15.95111093726226
 31
0.0
 11
185.116226212789
 21
16.05917276503474
 31
0.0
 11
185.116226212789
 21
16.15343946585754
 31
0.0
 11
185.116226212789
 21
16.22011591278098
 31
0.0
 11
185.116226212789
 21
16.24540697885539
 31
0.0
 11
185.1393181988665
 21
16.24373213107803
 31
0.0
 11
185.1943837041284
 21
16.23973826330125
 31
0.0
 11
185.2601070491184
 21
16.23497138885799
 31
0.0
 11
185.3151725543802
 21
16.2309775210812
 31
0.0
 11
185.3382645404578
 21
16.22930267330384
 31
0.0
 11
185.3249012644362
 21
16.20789677921191
 31
0.0
 11
185.2874469028653
 21
16.19450114553473
 31
0.0
 11
185.2874469028653
 21
16.17139743948582
 31
0.0
 11
185.2874469028653
 21
16.11048766899323
 31
0.0
 11
185.2874469028653
 21
16.02437385553819
 31
0.0
 11
185.2874469028653
 21
15.92565802060193
 31
0.0
 11
185.2874469028653
 21
15.82694218566567
 31
0.0
 11
185.2874469028653
 21
15.74082837221063
 31
0.0
 11
185.2874469028653
 21
15.67991860171804
 31
0.0
 11
185.2874469028653
 21
15.65681489566913
 31
0.0
 11
185.3126150604809
 21
15.65681489566913
 31
0.0
 11
185.3755354545199
 21
15.65681489566913
 31
0.0
 11
185.4573319667706
 21
15.65681489566913
 31
0.0
 11
185.5391284790212
 21
15.65681489566913
 31
0.0
 11
185.6020488730602
 21
15.65681489566913
 31
0.0
 11
185.6272170306758
 21
15.65681489566913
 31
0.0
 11
185.6272170306758
 21
15.63046404932155
 31
0.0
 11
185.6272170306758
 21
15.57249218735686
 31
0.0
 11
185.6272170306758
 21
15.51452032539217
 31
0.0
 11
185.6272170306758
 21
15.48816947904459
 31
0.0
 11
185.6020488730602
 21
15.48816947904459
 31
0.0
 11
185.5391284790212
 21
15.48816947904459
 31
0.0
 11
185.4573319667705
 21
15.48816947904459
 31
0.0
 11
185.3755354545199
 21
15.48816947904459
 31
0.0
 11
185.3126150604809
 21
15.48816947904459
 31
0.0
 11
185.2874469028653
 21
15.48816947904459
 31
0.0
 11
185.2874469028653
 21
15.46536458293919
 31
0.0
 11
185.2874469028653
 21
15.41098367684168
 31
0.0
 11
185.2874469028653
 21
15.34607743408015
 31
0.0
 11
185.2874469028653
 21
15.29169652798264
 31
0.0
 11
185.2874469028653
 21
15.26889163187724
 31
0.0
  0
SPLINE
  5
B6
102
{ACAD_REACTORS
330
D3
102
}
330
4B
100
AcDbEntity
  8
_U_30EC_U_30A4_U_30E4_U_30FC_1
  6
Continuous
 62
     2
100
AcDbSpline
210
0.0
220
0.0
230
1.0
 70
    11
 71
     3
 72
    47
 73
    43
 74
    41
 42
0.000000001
 43
0.0000000001
 44
0.00000001
 40
0.0
 40
0.0
 40
0.0
 40
0.0
 40
0.2207912809957444
 40
0.4459404186303841
 40
0.4902387190459535
 40
0.5327473892722981
 40
0.5742260451226353
 40
0.6155432630561647
 40
0.6568164066316566
 40
0.6982511618781537
 40
0.7407663929317976
 40
0.7851366743176078
 40
1.010288833836464
 40
1.231080507002337
 40
1.451765243652585
 40
1.676638205891771
 40
1.720461045359742
 40
1.830018144043604
 40
1.972442372353228
 40
2.114866600677593
 40
2.224423699395214
 40
2.268246538883452
 40
2.493628801207349
 40
2.715602830286722
 40
2.934211330706496
 40
3.14950236985545
 40
3.231387784851091
 40
3.318231873854127
 40
3.405143198198115
 40
3.486970301720548
 40
3.70225817249395
 40
3.920866283534201
 40
4.142839325931965
 40
4.368221903865493
 40
4.412044743359973
 40
4.521601842095981
 40
4.664026070452458
 40
4.80645029880916
 40
4.916007397546851
 40
4.959830237043173
 40
5.184703515847106
 40
5.405387250767501
 40
5.405387250767501
 40
5.405387250767501
 40
5.405387250767501
 10
182.6507427258645
 20
15.73406440953869
 30
0.0
 10
182.6568139420002
 20
15.79758482501206
 30
0.0
 10
182.6690762107243
 20
15.92587938689621
 30
0.0
 10
182.5604706879411
 20
16.20166220174092
 30
0.0
 10
182.6761985896604
 20
16.17188133432051
 30
0.0
 10
182.7171842509016
 20
16.16765556262833
 30
0.0
 10
182.7591205797518
 20
16.16310446389607
 30
0.0
 10
182.800419662571
 20
16.16201982929488
 30
0.0
 10
182.8417032115555
 20
16.16310338195227
 30
0.0
 10
182.8836148270647
 20
16.16766112711355
 30
0.0
 10
182.9245983549019
 20
16.17187430209727
 30
0.0
 10
183.0404922843489
 20
16.20177611317549
 30
0.0
 10
182.9295652727456
 20
15.92339806609885
 30
0.0
 10
182.9574856365267
 20
15.74283140824951
 30
0.0
 10
182.9404267346969
 20
15.5096104234647
 30
0.0
 10
182.9414637282102
 20
15.34906622543147
 30
0.0
 10
182.9414099399405
 20
15.22284817558726
 30
0.0
 10
182.941427737248
 20
15.12428963336247
 30
0.0
 10
182.941418858108
 20
14.99280702442968
 30
0.0
 10
182.9414263928034
 20
14.86132844968656
 30
0.0
 10
182.9414129405128
 20
14.76276222694097
 30
0.0
 10
182.9414531717492
 20
14.63639735624156
 30
0.0
 10
182.9406746403817
 20
14.47482068822874
 30
0.0
 10
182.9565958319266
 20
14.24361821892916
 30
0.0
 10
182.9333468885407
 20
14.05874351972002
 30
0.0
 10
183.0360183444366
 20
13.78935602770066
 30
0.0
 10
182.8820238362836
 20
13.82660112685814
 30
0.0
 10
182.8004129802832
 20
13.82137994680534
 30
0.0
 10
182.7188192292583
 20
13.82660620378348
 30
0.0
 10
182.5648513666843
 20
13.78937069885397
 30
0.0
 10
182.6674183421917
 20
14.05875129862881
 30
0.0
 10
182.6442045316088
 20
14.24361585325416
 30
0.0
 10
182.6600444655138
 20
14.47482218565641
 30
0.0
 10
182.6593296313427
 20
14.63639712308508
 30
0.0
 10
182.6593664569907
 20
14.76276231210527
 30
0.0
 10
182.659354900027
 20
14.86132756635988
 30
0.0
 10
182.6593575019214
 20
14.99281127417225
 30
0.0
 10
182.6593648531778
 20
15.12427548031205
 30
0.0
 10
182.6593442541351
 20
15.22287786275331
 30
0.0
 10
182.6594082192028
 20
15.34896149354428
 30
0.0
 10
182.6581733947591
 20
15.5121009138377
 30
0.0
 10
182.6532040396745
 20
15.66054183777546
 30
0.0
 10
182.6507427258645
 20
15.73406440953869
 30
0.0
 11
182.6507427258645
 21
15.73406440953869
 31
0.0
 11
182.6417328200379
 21
15.95467178795576
 31
0.0
 11
182.6318769706146
 21
16.17960510387184
 31
0.0
 11
182.67569858408
 21
16.1731239146373
 31
0.0
 11
182.7178400934215
 21
16.16754892331932
 31
0.0
 11
182.759137140979
 21
16.16367167505633
 31
0.0
 11
182.8004341885365
 21
16.16238072887609
 31
0.0
 11
182.841687138873
 21
16.16367167505633
 31
0.0
 11
182.8829400892097
 21
16.16754892331932
 31
0.0
 11
182.9250882131343
 21
16.1731239146373
 31
0.0
 11
182.9689825870145
 21
16.17960510387184
 31
0.0
 11
182.9590577693891
 21
15.95467178795576
 31
0.0
 11
182.950038420831
 21
15.73406440953869
 31
0.0
 11
182.9435638463435
 21
15.51347467001049
 31
0.0
 11
182.9414218238286
 21
15.28861190965012
 31
0.0
 11
182.9414218238286
 21
15.2447890701549
 31
0.0
 11
182.9414218238286
 21
15.13523197141687
 31
0.0
 11
182.9414218238286
 21
14.99280774305743
 31
0.0
 11
182.9414218238286
 21
14.85038351469798
 31
0.0
 11
182.9414218238286
 21
14.74082641595995
 31
0.0
 11
182.9414218238286
 21
14.69700357646474
 31
0.0
 11
182.9435638463435
 21
14.47163149318767
 31
0.0
 11
182.950038420831
 21
14.24975190990983
 31
0.0
 11
182.9590577693891
 21
14.0313295488533
 31
0.0
 11
182.9689825870145
 21
13.81626739612932
 31
0.0
 11
182.887261616877
 21
13.82145433189184
 31
0.0
 11
182.8004341885365
 21
13.82315538223861
 31
0.0
 11
182.7135395119339
 21
13.82145433189184
 31
0.0
 11
182.6318769706146
 21
13.81626739612932
 31
0.0
 11
182.6417328200379
 21
14.0313295488533
 31
0.0
 11
182.6507427258645
 21
14.24975190990983
 31
0.0
 11
182.6571833838798
 21
14.47163149318767
 31
0.0
 11
182.6593583588023
 21
14.69700357646474
 31
0.0
 11
182.6593583588023
 21
14.74082641595995
 31
0.0
 11
182.6593583588023
 21
14.85038351469799
 31
0.0
 11
182.6593583588023
 21
14.99280774305743
 31
0.0
 11
182.6593583588023
 21
15.13523197141687
 31
0.0
 11
182.6593583588023
 21
15.24478907015491
 31
0.0
 11
182.6593583588023
 21
15.28861190965012
 31
0.0
 11
182.6571833838798
 21
15.51347467001049
 31
0.0
 11
182.6507427258645
 21
15.73406440953869
 31
0.0
  0
SPLINE
  5
B7
102
{ACAD_REACTORS
330
D4
102
}
330
4B
100
AcDbEntity
  8
_U_30EC_U_30A4_U_30E4_U_30FC_1
  6
Continuous
 62
     2
100
AcDbSpline
210
0.0
220
0.0
230
1.0
 70
    11
 71
     3
 72
   110
 73
   106
 74
   104
 42
0.000000001
 43
0.0000000001
 44
0.00000001
 40
0.0
 40
0.0
 40
0.0
 40
0.0
 40
0.2203406257278021
 40
0.4407808782838393
 40
0.5952494494615382
 40
0.7488431659393368
 40
0.9023581831309364
 40
1.056801968670435
 40
1.210736449099935
 40
1.363041386539815
 40
1.515315729683156
 40
1.669377239148108
 40
1.721611652756645
 40
1.773199502943065
 40
1.824933793210071
 40
1.877110426488129
 40
1.982682281206952
 40
2.078781667087707
 40
2.172809640822484
 40
2.271937807379081
 40
2.378349933379475
 40
2.494131557736659
 40
2.626681683943795
 40
2.783145050796222
 40
2.890701232941072
 40
2.99313031245503
 40
3.099869730691958
 40
3.220237816691411
 40
3.35269548273773
 40
3.481732806389911
 40
3.593499473690517
 40
3.674323013332077
 40
3.817951711953027
 40
3.946167120794025
 40
4.06140505345371
 40
4.166480796003349
 40
4.262478775059387
 40
4.350736673551347
 40
4.433071991254232
 40
4.511216293814828
 40
4.564262454118113
 40
4.61847441557181
 40
4.670128488754283
 40
4.722296879126502
 40
4.819540945314372
 40
4.931194984128227
 40
5.049996040257868
 40
5.168643755415415
 40
5.283970811762627
 40
5.392260784910452
 40
5.486512254876527
 40
5.559178233949926
 40
5.591425852853572
 40
5.626215969638071
 40
5.667155838674567
 40
5.717449290214355
 40
5.738402360944964
 40
5.784499116553923
 40
5.830595872164889
 40
5.851548942897742
 40
5.873019280661858
 40
5.924217778408409
 40
5.985325662817792
 40
6.036524160567812
 40
6.057994498334343
 40
6.236847789607583
 40
6.381409928945757
 40
6.493190424178793
 40
6.574067534230606
 40
6.6910180862057
 40
6.814881554220618
 40
6.94430782324057
 40
7.071266716066194
 40
7.193488604462038
 40
7.309042773128267
 40
7.414007203170889
 40
7.505140441886646
 40
7.531150360599789
 40
7.5592216453224
 40
7.58720221892102
 40
7.61256915949924
 40
7.662550809481089
 40
7.702878875764209
 40
7.857328205231021
 40
8.010799568088666
 40
8.165256399657617
 40
8.322232698713956
 40
8.479564855016642
 40
8.635216230290846
 40
8.790882550925764
 40
8.948305154947327
 40
9.168271839033025
 40
9.38735898098726
 40
9.608047961033469
 40
9.832914234792753
 40
9.858338694963084
 40
9.925366817230085
 40
10.02013071422766
 40
10.12876249859003
 40
10.23739428295252
 40
10.33215817995193
 40
10.39918630222395
 40
10.42461076239784
 40
10.64992019336943
 40
10.8718852453119
 40
10.8718852453119
 40
10.8718852453119
 40
10.8718852453119
 10
179.9057788376618
 20
15.73923260398192
 30
0.0
 10
179.9092864933542
 20
15.80616462073807
 30
0.0
 10
179.9163033987662
 20
15.94005891915861
 30
0.0
 10
179.8198027599073
 20
16.22548554971478
 30
0.0
 10
180.0510134726108
 20
16.16284386190282
 30
0.0
 10
180.1919290057156
 20
16.17001554056003
 30
0.0
 10
180.3490417757588
 20
16.16235883078244
 30
0.0
 10
180.5025913427287
 20
16.16252752283043
 30
0.0
 10
180.6545104935081
 20
16.16182040535432
 30
0.0
 10
180.8142214813231
 20
16.17210158351651
 30
0.0
 10
180.9408972601117
 20
16.15496511080749
 30
0.0
 10
181.137082112208
 20
16.22727260107151
 30
0.0
 10
181.1034395279079
 20
16.12640699080118
 30
0.0
 10
181.1052011317182
 20
16.0761925394767
 30
0.0
 10
181.1027342073457
 20
16.02712335586463
 30
0.0
 10
181.1347076966012
 20
15.94063490846992
 30
0.0
 10
181.0010399903255
 20
15.98997438608333
 30
0.0
 10
180.9172208688057
 20
15.98430634314173
 30
0.0
 10
180.8173861139323
 20
15.994655167063
 30
0.0
 10
180.7186576720146
 20
16.00086450411088
 30
0.0
 10
180.612153277111
 20
16.00697763816784
 30
0.0
 10
180.4910511698059
 20
16.01588883484575
 30
0.0
 10
180.3703381502453
 20
16.00521605912387
 30
0.0
 10
180.1812553843437
 20
16.06468503080366
 30
0.0
 10
180.2129028505311
 20
15.90558320077538
 30
0.0
 10
180.1995563316833
 20
15.80839128339903
 30
0.0
 10
180.197495842645
 20
15.69634065110102
 30
0.0
 10
180.1958188044671
 20
15.57699685629352
 30
0.0
 10
180.1973336794232
 20
15.45032592155114
 30
0.0
 10
180.195658247867
 20
15.3230158801612
 30
0.0
 10
180.2058844271657
 20
15.22451566404466
 30
0.0
 10
180.1779006596582
 20
15.08388702625626
 30
0.0
 10
180.3508029999305
 20
15.13989551134091
 30
0.0
 10
180.4645020202772
 20
15.12719951478502
 30
0.0
 10
180.5840151672239
 20
15.13448377051255
 30
0.0
 10
180.6888491425072
 20
15.13878017056751
 30
0.0
 10
180.7843084898611
 20
15.14330568258976
 30
0.0
 10
180.8763823507032
 20
15.15149201146206
 30
0.0
 10
180.9476551782439
 20
15.14643850638117
 30
0.0
 10
181.0544931705685
 20
15.18536425031668
 30
0.0
 10
181.0226603598036
 20
15.10517122005875
 30
0.0
 10
181.026616450393
 20
15.05562936846032
 30
0.0
 10
181.0234502392013
 20
15.00557478039818
 30
0.0
 10
181.0550791490585
 20
14.92128847612024
 30
0.0
 10
180.9210133677692
 20
14.9742536549516
 30
0.0
 10
180.82923227932
 20
14.96540080890443
 30
0.0
 10
180.7079729189603
 20
14.97570049965151
 30
0.0
 10
180.5914113119771
 20
14.97748911767506
 30
0.0
 10
180.4783375745878
 20
14.97787017109696
 30
0.0
 10
180.3679246308471
 20
14.98415449472183
 30
0.0
 10
180.289812406784
 20
14.97189133255363
 30
0.0
 10
180.1913625833644
 20
15.00453887616127
 30
0.0
 10
180.2012355173561
 20
14.94769748054204
 30
0.0
 10
180.1973923244403
 20
14.91392130557981
 30
0.0
 10
180.1966789884266
 20
14.87119604709406
 30
0.0
 10
180.1963369642975
 20
14.83401607262151
 30
0.0
 10
180.1963834255345
 20
14.7948723737077
 30
0.0
 10
180.1963649429927
 20
14.75716849497685
 30
0.0
 10
180.1963703431806
 20
14.71944955232403
 30
0.0
 10
180.1963697214201
 20
14.6899432474515
 30
0.0
 10
180.1963698151544
 20
14.65873577699302
 30
0.0
 10
180.1963704287921
 20
14.61414424908085
 30
0.0
 10
180.1963671499337
 20
14.55963956508851
 30
0.0
 10
180.196375962348
 20
14.51505540201446
 30
0.0
 10
180.1963359653418
 20
14.4311780858574
 30
0.0
 10
180.1976024270255
 20
14.31737520677677
 30
0.0
 10
180.1950274117842
 20
14.16830395933709
 30
0.0
 10
180.2065009381719
 20
14.06597203813905
 30
0.0
 10
180.1823506222263
 20
13.93338903885833
 30
0.0
 10
180.3332993946476
 20
13.97895732272021
 30
0.0
 10
180.4428436671556
 20
13.96427012162348
 30
0.0
 10
180.573397047392
 20
13.96920435125064
 30
0.0
 10
180.6990312209513
 20
13.9725770532336
 30
0.0
 10
180.8188730625601
 20
13.97711497498771
 30
0.0
 10
180.9391362611426
 20
13.9904853618201
 30
0.0
 10
181.0222761663514
 20
13.98068712782592
 30
0.0
 10
181.1456080421075
 20
14.04126214623319
 30
0.0
 10
181.1244269203956
 20
13.9853246013402
 30
0.0
 10
181.1235950270116
 20
13.95939249372346
 30
0.0
 10
181.1218963707558
 20
13.93197256190939
 30
0.0
 10
181.1217974888829
 20
13.89738195206387
 30
0.0
 10
181.120365930133
 20
13.86050408220771
 30
0.0
 10
181.153280419219
 20
13.76846841021812
 30
0.0
 10
180.9551306988107
 20
13.84132015974829
 30
0.0
 10
180.8300548294891
 20
13.81825726508605
 30
0.0
 10
180.6673071295155
 20
13.82454021985784
 30
0.0
 10
180.5129366450001
 20
13.82260943909925
 30
0.0
 10
180.3566670436943
 20
13.82393762599266
 30
0.0
 10
180.1970544465281
 20
13.82059872487861
 30
0.0
 10
180.0540326342237
 20
13.83265795728238
 30
0.0
 10
179.8197144881628
 20
13.76952001976926
 30
0.0
 10
179.9173810751197
 20
14.05620527466321
 30
0.0
 10
179.9006868780058
 20
14.24988308142663
 30
0.0
 10
179.9146296709685
 20
14.47848242880297
 30
0.0
 10
179.9142987846632
 20
14.63384593955052
 30
0.0
 10
179.9143078119264
 20
14.73966336444133
 30
0.0
 10
179.9143055876315
 20
14.8020578412422
 30
0.0
 10
179.9143065551889
 20
14.89220425248332
 30
0.0
 10
179.9143065473261
 20
14.99621167157441
 30
0.0
 10
179.9143053861102
 20
15.10022131375298
 30
0.0
 10
179.9143090971502
 20
15.19036243688769
 30
0.0
 10
179.9143011051051
 20
15.25276803097215
 30
0.0
 10
179.9143334275018
 20
15.35868835961119
 30
0.0
 10
179.9131440788318
 20
15.5162671654474
 30
0.0
 10
179.9082216489256
 20
15.66528219822066
 30
0.0
 10
179.9057788376618
 20
15.73923260398192
 30
0.0
 11
179.9057788376618
 21
15.73923260398192
 31
0.0
 11
179.896691822374
 21
15.95938578101022
 31
0.0
 11
179.8868249573133
 21
16.17960510387184
 31
0.0
 11
180.04115751414
 21
16.1731239146373
 31
0.0
 11
180.1946500189046
 21
16.16754892331932
 31
0.0
 11
180.3481160653366
 21
16.16367167505633
 31
0.0
 11
180.5025544554939
 21
16.16238072887609
 31
0.0
 11
180.6564835227473
 21
16.16367167505633
 31
0.0
 11
180.80873910046
 21
16.16754892331932
 31
0.0
 11
180.9609113551074
 21
16.1731239146373
 31
0.0
 11
181.1148364762483
 21
16.17960510387184
 31
0.0
 11
181.1070811703123
 21
16.12794961777358
 31
0.0
 11
181.104499162359
 21
16.07642642334201
 31
0.0
 11
181.1070811703123
 21
16.02475660564662
 31
0.0
 11
181.1148364762483
 21
15.97315954836779
 31
0.0
 11
181.009487405441
 21
15.98001446156056
 31
0.0
 11
180.913637570006
 21
15.9869355205866
 31
0.0
 11
180.8198593171903
 21
15.99378381919601
 31
0.0
 11
180.7209679915881
 21
16.00063211780542
 31
0.0
 11
180.6147532199924
 21
16.00710999974827
 31
0.0
 11
180.4991060528038
 21
16.01268829835789
 31
0.0
 11
180.3666126447258
 21
16.01656554662087
 31
0.0
 11
180.2101546018423
 21
16.01785649280112
 31
0.0
 11
180.2062663293721
 21
15.91037061609187
 31
0.0
 11
180.20153800484
 21
15.80805072896459
 31
0.0
 11
180.1976607566749
 21
15.70138175329687
 31
0.0
 11
180.1963698105272
 21
15.58102059013254
 31
0.0
 11
180.1967799146835
 21
15.44856355891566
 31
0.0
 11
180.1980896021502
 21
15.31953288186463
 31
0.0
 11
180.1994074577049
 21
15.20777398432309
 31
0.0
 11
180.199819115366
 21
15.1269514930238
 31
0.0
 11
180.3434452935874
 21
15.12780256941248
 31
0.0
 11
180.4716343930758
 21
15.13039989580079
 31
0.0
 11
180.5868078221795
 21
15.13425509545253
 31
0.0
 11
180.691775631222
 21
15.13901649302073
 31
0.0
 11
180.7876346289421
 21
15.14418027774175
 31
0.0
 11
180.8757413374193
 21
15.14934406246272
 31
0.0
 11
180.9578881438496
 21
15.15491243919742
 31
0.0
 11
181.0357692335571
 21
15.1613208680152
 31
0.0
 11
181.0280180445186
 21
15.10884407115336
 31
0.0
 11
181.0254328449317
 21
15.05469378470849
 31
0.0
 11
181.0280180445186
 21
15.00310444444371
 31
0.0
 11
181.0357692335571
 21
14.95151510417884
 31
0.0
 11
180.9389813454014
 21
14.96092324653759
 31
0.0
 11
180.8275950722015
 21
14.96865128473013
 31
0.0
 11
180.7089261429373
 21
14.97425273438144
 31
0.0
 11
180.5903167449213
 21
14.97726788195013
 31
0.0
 11
180.4750025117521
 21
14.9789876736164
 31
0.0
 11
180.36672619507
 21
14.98070746528259
 31
0.0
 11
180.2724839317708
 21
14.98202486979617
 31
0.0
 11
180.199819115366
 21
14.9824360763933
 31
0.0
 11
180.199407457705
 21
14.95019108508194
 31
0.0
 11
180.1980896021502
 21
14.91542593752109
 31
0.0
 11
180.1967799146835
 21
14.87450702260081
 31
0.0
 11
180.1963698105272
 21
14.8242152430995
 31
0.0
 11
180.1963698105272
 21
14.80326217235821
 31
0.0
 11
180.1963698105272
 21
14.75716541672736
 31
0.0
 11
180.1963698105272
 21
14.71106866109651
 31
0.0
 11
180.1963698105272
 21
14.69011559035522
 31
0.0
 11
180.1963698105272
 21
14.66864525258281
 31
0.0
 11
180.1963698105272
 21
14.61744675481783
 31
0.0
 11
180.1963698105272
 21
14.55633887038867
 31
0.0
 11
180.1963698105272
 21
14.5051403726237
 31
0.0
 11
180.1963698105272
 21
14.48367003485129
 31
0.0
 11
180.1967799146835
 21
14.30481721371548
 31
0.0
 11
180.1980896021502
 21
14.16026100715442
 31
0.0
 11
180.2002868589709
 21
14.04850210961288
 31
0.0
 11
180.2032586986985
 21
13.96767961831364
 31
0.0
 11
180.3202092517447
 21
13.96767961831364
 31
0.0
 11
180.4440727208746
 21
13.96767961831364
 31
0.0
 11
180.5734925526422
 21
13.9689705644939
 31
0.0
 11
180.7003922282244
 21
13.97284781275681
 31
0.0
 11
180.8224658067973
 21
13.97886708358864
 31
0.0
 11
180.9377587499463
 21
13.98663260442004
 31
0.0
 11
181.0421754573518
 21
13.997341614834
 31
0.0
 11
181.1320599255448
 21
14.01237656274691
 31
0.0
 11
181.1264254031191
 21
13.98698427976716
 31
0.0
 11
181.1234433285423
 21
13.959071840538
 31
0.0
 11
181.12213398812
 21
13.93112191867004
 31
0.0
 11
181.1217235369195
 21
13.90575829888473
 31
0.0
 11
181.1243087365064
 21
13.8558435506333
 31
0.0
 11
181.1320599255448
 21
13.81626739612932
 31
0.0
 11
180.9776977178344
 21
13.82145433189184
 31
0.0
 11
180.8242357818765
 21
13.82315538223861
 31
0.0
 11
180.6697789496483
 21
13.82315538223861
 31
0.0
 11
180.5128026496768
 21
13.82315538223861
 31
0.0
 11
180.3554704921536
 21
13.82315538223861
 31
0.0
 11
180.199819115366
 21
13.82315538223861
 31
0.0
 11
180.0441620874241
 21
13.82145433189184
 31
0.0
 11
179.8868249573133
 21
13.81626739612932
 31
0.0
 11
179.896691822374
 21
14.03601267385216
 31
0.0
 11
179.9057788376618
 21
14.25491128490853
 31
0.0
 11
179.91217215184
 21
14.47550763902001
 31
0.0
 11
179.9143063455009
 21
14.70036378479722
 31
0.0
 11
179.9143063455009
 21
14.72578824496881
 31
0.0
 11
179.9143063455009
 21
14.79281636723937
 31
0.0
 11
179.9143063455009
 21
14.88758026424258
 31
0.0
 11
179.9143063455009
 21
14.99621204861211
 31
0.0
 11
179.9143063455009
 21
15.10484383298164
 31
0.0
 11
179.9143063455009
 21
15.19960772998485
 31
0.0
 11
179.9143063455009
 21
15.26663585225541
 31
0.0
 11
179.9143063455009
 21
15.292060312427
 31
0.0
 11
179.91217215184
 21
15.51735963528734
 31
0.0
 11
179.9057788376618
 21
15.73923260398192
 31
0.0
  0
SPLINE
  5
B8
102
{ACAD_REACTORS
330
D5
102
}
330
4B
100
AcDbEntity
  8
_U_30EC_U_30A4_U_30E4_U_30FC_1
  6
Continuous
 62
     2
100
AcDbSpline
210
0.0
220
0.0
230
1.0
 70
    11
 71
     3
 72
    95
 73
    91
 74
    89
 42
0.000000001
 43
0.0000000001
 44
0.00000001
 40
0.0
 40
0.0
 40
0.0
 40
0.0
 40
0.6550406656911599
 40
1.308087289031976
 40
1.420803739835869
 40
1.566130759770866
 40
1.757067341888528
 40
2.006513545026618
 40
2.087328263121591
 40
2.185328872295678
 40
2.294612454748452
 40
2.408936380534871
 40
2.526802767798625
 40
2.646360524615657
 40
2.762535723971649
 40
2.870057342870208
 40
2.966883448431758
 40
3.050803243518377
 40
3.11581822243672
 40
3.156030057150275
 40
3.213914225080172
 40
3.276689026450572
 40
3.342960320981349
 40
3.404230667150594
 40
3.453822809493374
 40
3.532499827188351
 40
3.63477518850715
 40
3.754909333008154
 40
3.889736761660663
 40
4.03576960217518
 40
4.187256681197563
 40
4.338733685675911
 40
4.488478734676106
 40
4.63470831783155
 40
4.771493189921226
 40
4.892686571561172
 40
5.199775528944417
 40
5.460353566929689
 40
5.667603142345508
 40
5.814722905404445
 40
5.828990806219744
 40
5.855488336304441
 40
5.869756237118772
 40
6.18979650776276
 40
6.531890469872935
 40
6.883053637016922
 40
7.230512024911385
 40
7.566966656764466
 40
7.88520355970729
 40
8.17288743971913
 40
8.418011594062696
 40
8.443926721190618
 40
8.510760470613109
 40
8.602145393795622
 40
8.701714041647067
 40
8.793098965075304
 40
8.859932715057878
 40
8.885847842603528
 40
9.242301256612748
 40
9.589275455016747
 40
9.921808543164111
 40
10.23479624298464
 40
10.29968150889175
 40
10.35323493887763
 40
10.40154625355148
 40
10.46482922477824
 40
10.55973900668412
 40
10.69239545985624
 40
10.84920353475676
 40
11.01626328594786
 40
11.18672024367446
 40
11.35372582577215
 40
11.50257442292428
 40
11.61866495023294
 40
11.71329869152876
 40
11.8251105057391
 40
11.9446488084572
 40
12.06929242642509
 40
12.19707290435182
 40
12.32562632860534
 40
12.45034565331287
 40
12.56646595170329
 40
12.67099007414635
 40
12.76077625936789
 40
12.82703233506702
 40
12.87429132785999
 40
12.89831990323338
 40
12.92234847860027
 40
13.53984767410328
 40
14.18294284359371
 40
14.18294284359371
 40
14.18294284359371
 40
14.18294284359371
 10
177.3067935648021
 20
14.70898038201722
 30
0.0
 10
177.1752019758551
 20
14.82265058603229
 30
0.0
 10
176.9124193802728
 20
15.04964496316156
 30
0.0
 10
176.3997393441019
 20
15.89214462956291
 30
0.0
 10
176.4106654595363
 20
15.53423377577021
 30
0.0
 10
176.4041226527991
 20
15.39267392272133
 30
0.0
 10
176.4028026631773
 20
15.19421305299279
 30
0.0
 10
176.4018117602538
 20
15.02150296045981
 30
0.0
 10
176.4024101751974
 20
14.87865373257579
 30
0.0
 10
176.4038994301882
 20
14.7826500541336
 30
0.0
 10
176.4055683588472
 20
14.67545503263142
 30
0.0
 10
176.4071934954618
 20
14.56164211517583
 30
0.0
 10
176.4092429501685
 20
14.44441572604591
 30
0.0
 10
176.4123165501926
 20
14.32656411232972
 30
0.0
 10
176.4156339697043
 20
14.21228087320623
 30
0.0
 10
176.4193605340279
 20
14.10521401867276
 30
0.0
 10
176.4217338161424
 20
14.01007408766921
 30
0.0
 10
176.4278718888357
 20
13.92558557205693
 30
0.0
 10
176.4239784495947
 20
13.86923087298141
 30
0.0
 10
176.4455230443077
 20
13.79825022472362
 30
0.0
 10
176.3680940058617
 20
13.8290267760448
 30
0.0
 10
176.3116353240191
 20
13.82011242517614
 30
0.0
 10
176.2540495896807
 20
13.82896218398272
 30
0.0
 10
176.1690163478472
 20
13.79738225225951
 30
0.0
 10
176.2009714146382
 20
13.88095155992189
 30
0.0
 10
176.1990705282539
 20
13.94882608968308
 30
0.0
 10
176.21079600473
 20
14.05233256764417
 30
0.0
 10
176.2164241053
 20
14.17002125616696
 30
0.0
 10
176.223790217894
 20
14.30388609164423
 30
0.0
 10
176.2320759701611
 20
14.4476415287263
 30
0.0
 10
176.2398851897426
 20
14.59714022843442
 30
0.0
 10
176.2457571222658
 20
14.74792549402076
 30
0.0
 10
176.2503667817968
 20
14.89699943878436
 30
0.0
 10
176.2542632117542
 20
15.0412291316302
 30
0.0
 10
176.2570715126563
 20
15.17583905213015
 30
0.0
 10
176.2576698755021
 20
15.36469614347352
 30
0.0
 10
176.261602386715
 20
15.58975494313155
 30
0.0
 10
176.2442175378498
 20
15.8636709112571
 30
0.0
 10
176.2850417342583
 20
16.02787112098599
 30
0.0
 10
176.1995153256001
 20
16.22749661465094
 30
0.0
 10
176.2660558907688
 20
16.22385458403975
 30
0.0
 10
176.283872427323
 20
16.22413447160851
 30
0.0
 10
176.4056801797502
 20
16.22632927398609
 30
0.0
 10
176.5080770335462
 20
15.94675118721515
 30
0.0
 10
176.7580021509356
 20
15.74563008536003
 30
0.0
 10
176.9870035331111
 20
15.47792614987918
 30
0.0
 10
177.2245151213108
 20
15.2264641386238
 30
0.0
 10
177.4486090740771
 20
14.9896997406136
 30
0.0
 10
177.6750716283009
 20
14.73218692583087
 30
0.0
 10
177.8325687886514
 20
14.61649335056923
 30
0.0
 10
178.0472129612674
 20
14.27997152538794
 30
0.0
 10
178.0422645974618
 20
14.40464754091603
 30
0.0
 10
178.0433931602545
 20
14.46327691935737
 30
0.0
 10
178.0428877841517
 20
14.55043662371978
 30
0.0
 10
178.0430475158113
 20
14.64416143182873
 30
0.0
 10
178.0430054891318
 20
14.73018971297036
 30
0.0
 10
178.0430202040372
 20
14.79153891945497
 30
0.0
 10
178.0429706255986
 20
14.94135231520995
 30
0.0
 10
178.0458811522809
 20
15.17989612510108
 30
0.0
 10
178.0259521041162
 20
15.54486509868706
 30
0.0
 10
178.0750433936247
 20
15.80799631993415
 30
0.0
 10
177.9177951509179
 20
16.21928904947763
 30
0.0
 10
178.0762112872421
 20
16.16398282551749
 30
0.0
 10
178.1311680478628
 20
16.16199686500178
 30
0.0
 10
178.182788776674
 20
16.16264778248253
 30
0.0
 10
178.2713198965365
 20
16.20369527738253
 30
0.0
 10
178.2204898303169
 20
16.05696326622986
 30
0.0
 10
178.2313389930283
 20
15.95019971954432
 30
0.0
 10
178.2166036994847
 20
15.79085705414111
 30
0.0
 10
178.2099976446204
 20
15.62853061652874
 30
0.0
 10
178.2014961399914
 20
15.45992521892395
 30
0.0
 10
178.1943227202199
 20
15.29814814703542
 30
0.0
 10
178.1889063215389
 20
15.15422331457934
 30
0.0
 10
178.1871713967648
 20
15.03437493466928
 30
0.0
 10
178.1875440672318
 20
14.92686101590517
 30
0.0
 10
178.1873656126263
 20
14.81820024645588
 30
0.0
 10
178.1877010863139
 20
14.69953570165532
 30
0.0
 10
178.1890040622184
 20
14.57555163512742
 30
0.0
 10
178.1908887351574
 20
14.44858294171105
 30
0.0
 10
178.192500445485
 20
14.32153861551031
 30
0.0
 10
178.1941403137429
 20
14.19854884492177
 30
0.0
 10
178.1962570745752
 20
14.08300931383761
 30
0.0
 10
178.1963848422363
 20
13.98090903955839
 30
0.0
 10
178.2006514396554
 20
13.89009848838157
 30
0.0
 10
178.1908440085289
 20
13.83213621208785
 30
0.0
 10
178.211847477169
 20
13.76517130132028
 30
0.0
 10
178.1725639739896
 20
13.77291153966687
 30
0.0
 10
177.9595307117749
 20
13.75755254145192
 30
0.0
 10
177.7636297943185
 20
14.3140305809447
 30
0.0
 10
177.4611197631544
 20
14.57556035348509
 30
0.0
 10
177.3067935648021
 20
14.70898038201722
 30
0.0
 11
177.3067935648021
 21
14.70898038201722
 31
0.0
 11
176.8595529338511
 21
15.18757635411976
 31
0.0
 11
176.4124049070643
 21
15.66352649288973
 31
0.0
 11
176.4089664262494
 21
15.55086249986233
 31
0.0
 11
176.40556101835
 21
15.40557538184311
 31
0.0
 11
176.4029636920274
 21
15.21465645827969
 31
0.0
 11
176.4021126156603
 21
14.96521170139749
 31
0.0
 11
176.4025239230289
 21
14.88439802954284
 31
0.0
 11
176.4038420329817
 21
14.78640628477564
 31
0.0
 11
176.4055192267718
 21
14.67713557299738
 31
0.0
 11
176.4072367127518
 21
14.56282454872041
 31
0.0
 11
176.4094007838772
 21
14.44497802965267
 31
0.0
 11
176.4124049070643
 21
14.32545802100202
 31
0.0
 11
176.4158359733138
 21
14.20933349846157
 31
0.0
 11
176.4192928929998
 21
14.10186746550232
 31
0.0
 11
176.4227085253088
 21
14.00510162351261
 31
0.0
 11
176.4261896983793
 21
13.92125406276972
 31
0.0
 11
176.4296006184313
 21
13.85632862007756
 31
0.0
 11
176.4330776843148
 21
13.81626739612932
 31
0.0
 11
176.3754263821571
 21
13.82145433189184
 31
0.0
 11
176.3126746318309
 21
13.82315538223861
 31
0.0
 11
176.2464251717157
 21
13.82145433189184
 31
0.0
 11
176.1853747739675
 21
13.81626739612932
 31
0.0
 11
176.1926772737812
 21
13.86531894125592
 31
0.0
 11
176.2008793569054
 21
13.94356725720849
 31
0.0
 11
176.2090098822348
 21
14.04551893253029
 31
0.0
 11
176.2163406441397
 21
14.16542920159753
 31
0.0
 11
176.2236358280421
 21
14.30005912343891
 31
0.0
 11
176.2318444255596
 21
14.44586107652742
 31
0.0
 11
176.2395504149465
 21
14.5971520313507
 31
0.0
 11
176.2455763002093
 21
14.74850913200731
 31
0.0
 11
176.2503046247416
 21
14.89817951391436
 31
0.0
 11
176.254192897212
 21
15.0443573958222
 31
0.0
 11
176.2567527408964
 21
15.18111831592693
 31
0.0
 11
176.2576324804573
 21
15.30230850686888
 31
0.0
 11
176.2571926106769
 21
15.60939715262543
 31
0.0
 11
176.2559126888347
 21
15.86997204839372
 31
0.0
 11
176.2528658717893
 21
16.07719922716127
 31
0.0
 11
176.2473049112763
 21
16.22421385386059
 31
0.0
 11
176.2615728121469
 21
16.22421385386059
 31
0.0
 11
176.2880703423352
 21
16.22421385386059
 31
0.0
 11
176.3023382432058
 21
16.22421385386059
 31
0.0
 11
176.5194743650277
 21
15.98910179662772
 31
0.0
 11
176.7512744123079
 21
15.73751281231563
 31
0.0
 11
176.9894816018839
 21
15.47949555543572
 31
0.0
 11
177.2260074557521
 21
15.22497079855492
 31
0.0
 11
177.4555698717705
 21
14.97899759549141
 31
0.0
 11
177.6731797360103
 21
14.74678934034114
 31
0.0
 11
177.8713724913707
 21
14.53826680567101
 31
0.0
 11
178.0430143099086
 21
14.36326697932589
 31
0.0
 11
178.0430143099086
 21
14.38918210687043
 31
0.0
 11
178.0430143099086
 21
14.45601585685372
 31
0.0
 11
178.0430143099086
 21
14.54740078030025
 31
0.0
 11
178.0430143099086
 21
14.64696942823455
 31
0.0
 11
178.0430143099086
 21
14.73835435168108
 31
0.0
 11
178.0430143099086
 21
14.80518810166437
 31
0.0
 11
178.0430143099086
 21
14.83110322920891
 31
0.0
 11
178.0417233637609
 21
15.1875543055087
 31
0.0
 11
178.0378461155958
 21
15.53450684014422
 31
0.0
 11
178.0296197790002
 21
15.86693815950554
 31
0.0
 11
178.0154535467228
 21
16.17960510387184
 31
0.0
 11
178.0790351249618
 21
16.16666367158336
 31
0.0
 11
178.1324170159611
 21
16.16238072887609
 31
0.0
 11
178.1805381084833
 21
16.16666367158336
 31
0.0
 11
178.2424836798197
 21
16.17960510387184
 31
0.0
 11
178.2351216487575
 21
16.08498128445098
 31
0.0
 11
178.2269790968818
 21
15.95257496503962
 31
0.0
 11
178.2183705364004
 21
15.79600336785656
 31
0.0
 11
178.2097547223215
 21
15.62916593734269
 31
0.0
 11
178.2016187850288
 21
15.45890325509362
 31
0.0
 11
178.1942501393835
 21
15.292060312427
 31
0.0
 11
178.1891406931522
 21
15.14329943572813
 31
0.0
 11
178.1874503478904
 21
15.02722121527103
 31
0.0
 11
178.1874503478904
 21
14.93258747397523
 31
0.0
 11
178.1874503478904
 21
14.82077565976709
 31
0.0
 11
178.1878461204497
 21
14.70123801222749
 31
0.0
 11
178.1890819450708
 21
14.57660052093922
 31
0.0
 11
178.1908392193317
 21
14.44883212687391
 31
0.0
 11
178.1925303477608
 21
14.32028982655879
 31
0.0
 11
178.1942876220214
 21
14.19558288214552
 31
0.0
 11
178.1959787504505
 21
14.07947489606352
 31
0.0
 11
178.1972884379172
 21
13.97495896727022
 31
0.0
 11
178.1976985420735
 21
13.88517371555651
 31
0.0
 11
178.1976985420735
 21
13.81891763918414
 31
0.0
 11
178.1976985420735
 21
13.7716586461404
 31
0.0
 11
178.1736699662976
 21
13.7716586461404
 31
0.0
 11
178.1496413905217
 21
13.7716586461404
 31
0.0
 11
177.7410729200423
 21
14.23466735262192
 31
0.0
 11
177.3067935648021
 21
14.70898038201722
 31
0.0
  0
SPLINE
  5
B9
102
{ACAD_REACTORS
330
D6
102
}
330
4B
100
AcDbEntity
  8
_U_30EC_U_30A4_U_30E4_U_30FC_1
  6
Continuous
 62
     2
100
AcDbSpline
210
0.0
220
0.0
230
1.0
 70
    11
 71
     3
 72
    25
 73
    21
 74
    19
 42
0.000000001
 43
0.0000000001
 44
0.00000001
 40
0.0
 40
0.0
 40
0.0
 40
0.0
 40
0.091147996906596
 40
0.1858117896205802
 40
0.2804128399735623
 40
0.3715889190715642
 40
0.467908049421984
 40
0.564268380923036
 40
0.660568322264612
 40
0.7569653015811392
 40
0.8561348172523957
 40
1.092615965104417
 40
1.374867658142007
 40
1.611348812011734
 40
1.71051832842538
 40
1.809403163726705
 40
2.045205463294204
 40
2.326646917622233
 40
2.562449217190699
 40
2.661334043834015
 40
2.661334043834015
 40
2.661334043834015
 40
2.661334043834015
 10
173.2683700567198
 20
14.88614538197294
 30
0.0
 10
173.2987525917922
 20
14.88598079714556
 30
0.0
 10
173.3606895889111
 20
14.88564528689921
 30
0.0
 10
173.4541356960329
 20
14.88269055452
 30
0.0
 10
173.5475095236357
 20
14.87977752877154
 30
0.0
 10
173.6417760753476
 20
14.87894201643417
 30
0.0
 10
173.7354964790967
 20
14.8799664465805
 30
0.0
 10
173.8352040303204
 20
14.87916977470971
 30
0.0
 10
173.9188949546312
 20
14.88921410235218
 30
0.0
 10
174.0637996315045
 20
14.86234617674168
 30
0.0
 10
173.93961324448
 20
15.03665530280049
 30
0.0
 10
173.8965867286282
 20
15.19651711006093
 30
0.0
 10
173.7808922142209
 20
15.45518458550216
 30
0.0
 10
173.7017565431255
 20
15.59231052861857
 30
0.0
 10
173.6431576621815
 20
15.80937033134076
 30
0.0
 10
173.5864803939436
 20
15.59266134213429
 30
0.0
 10
173.5052809900476
 20
15.45327012438237
 30
0.0
 10
173.4063701281488
 20
15.20406969370193
 30
0.0
 10
173.3253625094257
 20
15.01925830226075
 30
0.0
 10
173.2813683325837
 20
14.91650446856118
 30
0.0
 10
173.2683700567198
 20
14.88614538197294
 30
0.0
 11
173.2683700567198
 21
14.88614538197294
 31
0.0
 11
173.359513773782
 21
14.8852612326676
 31
0.0
 11
173.4541428297581
 21
14.882696979196
 31
0.0
 11
173.5487082179706
 21
14.8800996528078
 31
0.0
 11
173.6398803250196
 21
14.87924857641912
 31
0.0
 11
173.7361985777706
 21
14.87965978301623
 31
0.0
 11
173.8325499034376
 21
14.88097718752971
 31
0.0
 11
173.9288262638286
 21
14.88310818579312
 31
0.0
 11
174.0251753846343
 21
14.88614538197294
 31
0.0
 11
173.9854633323141
 21
14.97701642195022
 31
0.0
 11
173.8907653613967
 21
15.19370890189603
 31
0.0
 11
173.777738750947
 21
15.45234186183135
 31
0.0
 11
173.6830407800296
 21
15.66903434177716
 31
0.0
 11
173.6433287277094
 21
15.75990538175444
 31
0.0
 11
173.6043330259265
 21
15.66903434177716
 31
0.0
 11
173.5113432755211
 21
15.45234186183135
 31
0.0
 11
173.4003555089081
 21
15.19370890189603
 31
0.0
 11
173.3073657585027
 21
14.97701642195022
 31
0.0
 11
173.2683700567198
 21
14.88614538197294
 31
0.0
  0
SPLINE
  5
BA
102
{ACAD_REACTORS
330
D6
102
}
330
4B
100
AcDbEntity
  8
_U_30EC_U_30A4_U_30E4_U_30FC_1
  6
Continuous
 62
     2
100
AcDbSpline
210
0.0
220
0.0
230
1.0
 70
    11
 71
     3
 72
    57
 73
    53
 74
    51
 42
0.000000001
 43
0.0000000001
 44
0.00000001
 40
0.0
 40
0.0
 40
0.0
 40
0.0
 40
0.047163208280917
 40
0.0914861054632088
 40
0.1357762519702324
 40
0.1826527001610619
 40
0.2295203288572527
 40
0.2737751972220697
 40
0.3181310461543005
 40
0.3652607198398384
 40
0.4571007286313714
 40
0.5671851029164692
 40
0.6894623283867861
 40
0.8181758272545646
 40
0.9510087229273521
 40
1.085852229674052
 40
1.21812616447524
 40
1.343545131142362
 40
1.454537202956777
 40
1.567187607530786
 40
1.680710966642405
 40
1.794226869736769
 40
1.900009184247568
 40
2.004085860447848
 40
2.108162674451736
 40
2.214000150155279
 40
2.496038577352135
 40
2.762350745479282
 40
2.997275353279405
 40
3.1851100821377
 40
3.246407890063951
 40
3.312607550212653
 40
3.378877742711555
 40
3.440140399651404
 40
4.100501696006391
 40
4.754913085563381
 40
5.411331693423833
 40
6.077890432568596
 40
6.110575292670875
 40
6.143260152775655
 40
6.367989363395044
 40
6.610525374951399
 40
6.863389136467164
 40
7.119380025547408
 40
7.376036605090942
 40
7.631164770966121
 40
7.876722425456269
 40
8.104953735855808
 40
8.31291668592414
 40
8.497730294941233
 40
8.651018984313717
 40
8.76473885362441
 40
8.76473885362441
 40
8.76473885362441
 40
8.76473885362441
 10
174.7922649500513
 20
13.81626739612932
 30
0.0
 10
174.7766616726931
 20
13.8182623107908
 30
0.0
 10
174.7463947960302
 20
13.82213201360297
 30
0.0
 10
174.7010994202253
 20
13.82341984967267
 30
0.0
 10
174.6559553129349
 20
13.8230868355405
 30
0.0
 10
174.6099017123399
 20
13.82314658674223
 30
0.0
 10
174.5640496172096
 20
13.82325813649999
 30
0.0
 10
174.5183711648165
 20
13.8227783345659
 30
0.0
 10
174.4750811541609
 20
13.82461109618719
 30
0.0
 10
174.4039947951513
 20
13.80049556814666
 30
0.0
 10
174.4057477261441
 20
13.9218469397725
 30
0.0
 10
174.358619637057
 20
14.00726239751234
 30
0.0
 10
174.3191478251761
 20
14.12486929345136
 30
0.0
 10
174.2706635532645
 20
14.24232752540441
 30
0.0
 10
174.2201017402522
 20
14.36405935761512
 30
0.0
 10
174.1718634610477
 20
14.49075967862469
 30
0.0
 10
174.1135232947594
 20
14.59933687784953
 30
0.0
 10
174.0980892667261
 20
14.75620657134415
 30
0.0
 10
173.9566586330635
 20
14.72373446548321
 30
0.0
 10
173.8508397414904
 20
14.73512888682182
 30
0.0
 10
173.7358569725222
 20
14.73392591514613
 30
0.0
 10
173.6253142252141
 20
14.73506945347407
 30
0.0
 10
173.5176583522783
 20
14.73418350037525
 30
0.0
 10
173.4121322529242
 20
14.73416602390521
 30
0.0
 10
173.3109192682012
 20
14.72714032472414
 30
0.0
 10
173.1266804827754
 20
14.75135859859876
 30
0.0
 10
173.1157393685411
 20
14.44741691121885
 30
0.0
 10
173.008769163475
 20
14.223531772534
 30
0.0
 10
172.9098148604347
 20
14.03895314292495
 30
0.0
 10
172.9225090524007
 20
13.79530204804218
 30
0.0
 10
172.8050091716397
 20
13.82508046753194
 30
0.0
 10
172.742205586831
 20
13.82258089509603
 30
0.0
 10
172.6785872093399
 20
13.82344075102802
 30
0.0
 10
172.3946014194076
 20
13.78098039941977
 30
0.0
 10
173.025163849938
 20
14.50081952444774
 30
0.0
 10
173.1087645289072
 20
15.01276539435729
 30
0.0
 10
173.4929252789339
 20
15.53353743550038
 30
0.0
 10
173.4777208288565
 20
16.23519626253213
 30
0.0
 10
173.7239265722697
 20
16.22345633081254
 30
0.0
 10
173.8256346157561
 20
16.2322500445277
 30
0.0
 10
173.8249752035818
 20
15.98059650730345
 30
0.0
 10
173.9428317155828
 20
15.79818020733959
 30
0.0
 10
174.0315515260485
 20
15.55563740662869
 30
0.0
 10
174.1322292485259
 20
15.32340030530131
 30
0.0
 10
174.2311142712243
 20
15.08674644566916
 30
0.0
 10
174.3299676990669
 20
14.85461739170096
 30
0.0
 10
174.4256166390926
 20
14.6312222278879
 30
0.0
 10
174.5159904573271
 20
14.42272549049317
 30
0.0
 10
174.598994456819
 20
14.23308448529321
 30
0.0
 10
174.6726088582798
 20
14.06663106068096
 30
0.0
 10
174.7342815895545
 20
13.92917699626097
 30
0.0
 10
174.7749458885604
 20
13.84999239430037
 30
0.0
 10
174.7922649500513
 20
13.81626739612932
 30
0.0
 11
174.7922649500513
 21
13.81626739612932
 31
0.0
 11
174.7453878317448
 21
13.82145433189184
 31
0.0
 11
174.7010975896125
 21
13.82315538223861
 31
0.0
 11
174.6568074431729
 21
13.82315538223861
 31
0.0
 11
174.6099309947159
 21
13.82315538223861
 31
0.0
 11
174.5630633657033
 21
13.82315538223861
 31
0.0
 11
174.5188084970408
 21
13.82315538223861
 31
0.0
 11
174.4744852776854
 21
13.82145433189184
 31
0.0
 11
174.4276419021443
 21
13.81626739612932
 31
0.0
 11
174.3992532136325
 21
13.90360966173242
 31
0.0
 11
174.3622721815898
 21
14.0072965627482
 31
0.0
 11
174.3188386236701
 21
14.12159987001128
 31
0.0
 11
174.2711055866936
 21
14.24113531268972
 31
0.0
 11
174.2208160133237
 21
14.36408057307566
 31
0.0
 11
174.1696467003932
 21
14.48883822929452
 31
0.0
 11
174.1197531801326
 21
14.6113414150277
 31
0.0
 11
174.0733119111841
 21
14.72784517367921
 31
0.0
 11
173.9623611907589
 21
14.73087465284506
 31
0.0
 11
173.8497309225089
 21
14.73300454867791
 31
0.0
 11
173.7362152069449
 21
14.73432195319139
 31
0.0
 11
173.62270004768
 21
14.73473315978851
 31
0.0
 11
173.5169185312816
 21
14.73432195319139
 31
0.0
 11
173.4128501919225
 21
14.73300454867791
 31
0.0
 11
173.3087951724045
 21
14.73087465284506
 31
0.0
 11
173.2030010615596
 21
14.72784517367921
 31
0.0
 11
173.0980914750139
 21
14.46604437513352
 31
0.0
 11
173.0034868690331
 21
14.21710232658461
 31
0.0
 11
172.9252231210298
 21
13.99559756969558
 31
0.0
 11
172.8693431224555
 21
13.81626739612932
 31
0.0
 11
172.8082651639441
 21
13.82145433189184
 31
0.0
 11
172.742087361813
 21
13.82315538223861
 31
0.0
 11
172.6758390041282
 21
13.82145433189184
 31
0.0
 11
172.6147963233938
 21
13.81626739612932
 31
0.0
 11
172.889968495193
 21
14.41656508695143
 31
0.0
 11
173.158294573417
 21
15.01343642360769
 31
0.0
 11
173.4240277350405
 21
15.6136624564438
 31
0.0
 11
173.6914740737033
 21
16.22421385386059
 31
0.0
 11
173.7241589339806
 21
16.22421385386059
 31
0.0
 11
173.7568437942579
 21
16.22421385386059
 31
0.0
 11
173.8428300681057
 21
16.01658539037081
 31
0.0
 11
173.9357285813609
 21
15.79254614563519
 31
0.0
 11
174.0328714521463
 21
15.5590866318047
 31
0.0
 11
174.1317936458031
 21
15.32298128464151
 31
0.0
 11
174.2315341249927
 21
15.08649780379785
 31
0.0
 11
174.3313071129353
 21
14.85168781253714
 31
0.0
 11
174.4280608257448
 21
14.62599492196851
 31
0.0
 11
174.5188084970408
 21
14.41658052097921
 31
0.0
 11
174.6022150834546
 21
14.22607611130463
 31
0.0
 11
174.6770293263377
 21
14.0570823266246
 31
0.0
 11
174.7410729186603
 21
13.91781337700668
 31
0.0
 11
174.7922649500513
 21
13.81626739612932
 31
0.0
  0
SPLINE
  5
BB
102
{ACAD_REACTORS
330
D7
102
}
330
4B
100
AcDbEntity
  8
_U_30EC_U_30A4_U_30E4_U_30FC_1
  6
Continuous
 62
     2
100
AcDbSpline
210
0.0
220
0.0
230
1.0
 70
    11
 71
     3
 72
    99
 73
    95
 74
    93
 42
0.000000001
 43
0.0000000001
 44
0.00000001
 40
0.0
 40
0.0
 40
0.0
 40
0.0
 40
0.079641717227267
 40
0.1621768542355793
 40
0.2486489160957321
 40
0.3404969668524127
 40
0.4381912511164314
 40
0.5434463660244604
 40
0.651811519284693
 40
0.7530190937886482
 40
0.8492196919724762
 40
0.9419290312997999
 40
1.034249663569986
 40
1.129078600620127
 40
1.226697027573216
 40
1.327220425421673
 40
1.470572134937968
 40
1.595489863371185
 40
1.719934125348311
 40
1.850576620127321
 40
1.989059629987231
 40
2.134139054226859
 40
2.280698007207149
 40
2.424529739039415
 40
2.565929576985779
 40
2.708239260773492
 40
2.861717887443597
 40
3.045168540347295
 40
3.183798301138567
 40
3.314813961455412
 40
3.442083470447282
 40
3.569912708372908
 40
3.702177512509288
 40
3.842307559659385
 40
3.992872223245861
 40
4.156750662218277
 40
4.310981861107497
 40
4.445859909322557
 40
4.572393936131514
 40
4.701656719781908
 40
4.768279086008424
 40
4.835960697898434
 40
4.912788918729275
 40
5.006285208481441
 40
5.026909478751517
 40
5.047533749021082
 40
5.101808031471112
 40
5.162325165538425
 40
5.226919745995747
 40
5.29423180659661
 40
5.364544852554769
 40
5.438319055467801
 40
5.517877651324126
 40
5.607647714861437
 40
5.700449642544284
 40
5.788251142363988
 40
5.872714706039649
 40
5.955167292575166
 40
6.037192395190293
 40
6.120669181469035
 40
6.206848616686267
 40
6.296680855416701
 40
6.442558392872542
 40
6.568190371608222
 40
6.692904567360294
 40
6.824220446557096
 40
6.963121850329316
 40
7.107843738851099
 40
7.253431663907215
 40
7.395187468036632
 40
7.533140753237666
 40
7.670550457175166
 40
7.816236511769197
 40
7.987691657359107
 40
8.142277421969183
 40
8.293662615415032
 40
8.44296246087923
 40
8.591598316185333
 40
8.743678992361746
 40
8.90372532369912
 40
9.076307008890472
 40
9.26557860468053
 40
9.459203795360706
 40
9.617619810273498
 40
9.753609671361835
 40
9.874873300003975
 40
9.95452018497773
 40
10.02416413719238
 40
10.09769764405439
 40
10.18909955924969
 40
10.2097458642013
 40
10.23039218263376
 40
10.30057101881261
 40
10.37632012987545
 40
10.37632012987545
 40
10.37632012987545
 40
10.37632012987545
 10
170.1465954835851
 20
14.1379566321599
 30
0.0
 10
170.1632217851219
 20
14.11720608845308
 30
0.0
 10
170.1970784206577
 20
14.07495111711895
 30
0.0
 10
170.2599822541036
 20
14.02029811392073
 30
0.0
 10
170.3332500940393
 20
13.97299025121051
 30
0.0
 10
170.4175969238636
 20
13.93527231437943
 30
0.0
 10
170.5132240615459
 20
13.91040619731947
 30
0.0
 10
170.6171853775346
 20
13.90309559345939
 30
0.0
 10
170.7224020220405
 20
13.91142322794055
 30
0.0
 10
170.8206626371333
 20
13.94149179651529
 30
0.0
 10
170.9058986427548
 20
13.98848822971877
 30
0.0
 10
170.9779220206103
 20
14.04952991250861
 30
0.0
 10
171.0350917709096
 20
14.12412969578582
 30
0.0
 10
171.076786874744
 20
14.21002464660174
 30
0.0
 10
171.1026952846292
 20
14.30485850432212
 30
0.0
 10
171.1118037332653
 20
14.41854979038369
 30
0.0
 10
171.0986864796486
 20
14.54332587770779
 30
0.0
 10
171.0325330334414
 20
14.66014719171894
 30
0.0
 10
170.9369370919568
 20
14.74512539577367
 30
0.0
 10
170.8249681022369
 20
14.81416684459153
 30
0.0
 10
170.6993659583269
 20
14.87204142045888
 30
0.0
 10
170.5656691620856
 20
14.92373723284341
 30
0.0
 10
170.4313122818831
 20
14.97899092397181
 30
0.0
 10
170.3051983986877
 20
15.04939770641649
 30
0.0
 10
170.1926579987535
 20
15.13785540731249
 30
0.0
 10
170.0969963064458
 20
15.24981067868474
 30
0.0
 10
170.0334157151826
 20
15.39949910101383
 30
0.0
 10
170.0200706505016
 20
15.55932794385143
 30
0.0
 10
170.0320510987448
 20
15.71048405306846
 30
0.0
 10
170.0712298928841
 20
15.83809244591541
 30
0.0
 10
170.135498775091
 20
15.95080874030849
 30
0.0
 10
170.223820499974
 20
16.04648609268686
 30
0.0
 10
170.3338091207627
 20
16.12354214985751
 30
0.0
 10
170.4632284401264
 20
16.18151396936285
 30
0.0
 10
170.6111838967793
 20
16.21739177588818
 30
0.0
 10
170.7682069455486
 20
16.2274671905056
 30
0.0
 10
170.917494046643
 20
16.21863637762593
 30
0.0
 10
171.059625361417
 20
16.1907489934034
 30
0.0
 10
171.1595922609625
 20
16.13413314701142
 30
0.0
 10
171.3125074736185
 20
16.08674602105508
 30
0.0
 10
171.2455131717168
 20
16.00197553001182
 30
0.0
 10
171.2296479120269
 20
15.9343890187348
 30
0.0
 10
171.1978750531296
 20
15.86926092793187
 30
0.0
 10
171.2150202209571
 20
15.76723453256959
 30
0.0
 10
171.1666427208231
 20
15.77493211681906
 30
0.0
 10
171.1315789440766
 20
15.76806771724812
 30
0.0
 10
171.1296697985718
 20
15.83263831158197
 30
0.0
 10
171.0985692931988
 20
15.87825639621397
 30
0.0
 10
171.0664551628456
 20
15.93561036628458
 30
0.0
 10
171.0208038475168
 20
15.9854046269256
 30
0.0
 10
170.9658508218387
 20
16.02994813718999
 30
0.0
 10
170.9010841173007
 20
16.06763988836551
 30
0.0
 10
170.8232377310596
 20
16.09283375791349
 30
0.0
 10
170.7355160553352
 20
16.09931230998108
 30
0.0
 10
170.6452903277806
 20
16.092357092856
 30
0.0
 10
170.5594594694064
 20
16.06909190460932
 30
0.0
 10
170.4828343638596
 20
16.03131644107543
 30
0.0
 10
170.41652656362
 20
15.98051641089572
 30
0.0
 10
170.3622560536964
 20
15.9173114340721
 30
0.0
 10
170.3224925345457
 20
15.84276455710371
 30
0.0
 10
170.2976775510588
 20
15.7591731399776
 30
0.0
 10
170.289212426287
 20
15.65192948382284
 30
0.0
 10
170.3019697987103
 20
15.52965457267556
 30
0.0
 10
170.3681548409273
 20
15.41149724291208
 30
0.0
 10
170.4640977399832
 20
15.32606325709527
 30
0.0
 10
170.5757914963181
 20
15.25583362306714
 30
0.0
 10
170.7010863668703
 20
15.19659162305303
 30
0.0
 10
170.8349823941447
 20
15.14616708086131
 30
0.0
 10
170.9689930333149
 20
15.09322516984379
 30
0.0
 10
171.0950885316915
 20
15.02750170625174
 30
0.0
 10
171.2076216638417
 20
14.94480352537324
 30
0.0
 10
171.3031370284232
 20
14.83996006310074
 30
0.0
 10
171.3672706486963
 20
14.69937117251571
 30
0.0
 10
171.3811103725279
 20
14.54065409451594
 30
0.0
 10
171.367395471223
 20
14.38153155217874
 30
0.0
 10
171.3244739153985
 20
14.23483828819205
 30
0.0
 10
171.2545906329065
 20
14.10119796587139
 30
0.0
 10
171.157459221383
 20
13.98532387699282
 30
0.0
 10
171.0347806023657
 20
13.89089981770091
 30
0.0
 10
170.8874408413168
 20
13.82179270651985
 30
0.0
 10
170.7177132497125
 20
13.77953210858855
 30
0.0
 10
170.5317404979596
 20
13.76781736230404
 30
0.0
 10
170.3528955926183
 20
13.77809486683439
 30
0.0
 10
170.1881733753743
 20
13.81966573769159
 30
0.0
 10
170.0834410841056
 20
13.8879764288394
 30
0.0
 10
169.9350960790365
 20
13.93675219032101
 30
0.0
 10
169.9980378194729
 20
14.02976591290838
 30
0.0
 10
170.0072274430059
 20
14.10296536248277
 30
0.0
 10
170.0303711301232
 20
14.16936294501344
 30
0.0
 10
170.0034588335317
 20
14.2697480952758
 30
0.0
 10
170.0521338956339
 20
14.26234033517378
 30
0.0
 10
170.0916530580697
 20
14.26894063620895
 30
0.0
 10
170.0996204944701
 20
14.19078703218931
 30
0.0
 10
170.1305436967923
 20
14.15600927375854
 30
0.0
 10
170.1465954835851
 20
14.1379566321599
 30
0.0
 11
170.1465954835851
 21
14.1379566321599
 31
0.0
 11
170.1982038075864
 21
14.0772986981473
 31
0.0
 11
170.2601105501335
 21
14.0227129516332
 31
0.0
 11
170.3327764009802
 21
13.97583980928385
 31
0.0
 11
170.4166468655843
 21
13.93839906276543
 31
0.0
 11
170.511221073241
 21
13.91390636311877
 31
0.0
 11
170.6161603327165
 21
13.90575829888473
 31
0.0
 11
170.7240739497552
 21
13.91564048638224
 31
0.0
 11
170.8208419941616
 21
13.94528704887483
 31
0.0
 11
170.9050776083319
 21
13.9917511894882
 31
0.0
 11
170.9756144207686
 21
14.05191413218154
 31
0.0
 11
171.031944210998
 21
14.12505819466319
 31
0.0
 11
171.0736690016003
 21
14.2102143404752
 31
0.0
 11
171.0994680808032
 21
14.30436190989615
 31
0.0
 11
171.1080824729446
 21
14.40451552098222
 31
0.0
 11
171.0878517703357
 21
14.54643250879398
 31
0.0
 11
171.0272522666731
 21
14.65566684036389
 31
0.0
 11
170.9364971286285
 21
14.74081306430088
 31
0.0
 11
170.826010188474
 21
14.81052746532509
 31
0.0
 11
170.7008523531254
 21
14.8697985416992
 31
0.0
 11
170.5662951950998
 21
14.9240425347412
 31
0.0
 11
170.4316884277007
 21
14.98201274306004
 31
0.0
 11
170.3065802017258
 21
15.05297399304232
 31
0.0
 11
170.196027609828
 21
15.14113315968694
 31
0.0
 11
170.1053381235265
 21
15.25080295132619
 31
0.0
 11
170.0447055469484
 21
15.39179720476316
 31
0.0
 11
170.0245079172553
 21
15.57413260402313
 31
0.0
 11
170.0374030471347
 21
15.71216131926644
 31
0.0
 11
170.0761016659391
 21
15.83733128451291
 31
0.0
 11
170.1393141731506
 21
15.94779262129088
 31
0.0
 11
170.2257499954545
 21
16.04196885390621
 31
0.0
 11
170.3336492808962
 21
16.11846540770651
 31
0.0
 11
170.4613526283327
 21
16.1761567010949
 31
0.0
 11
170.6075393259922
 21
16.21220066809972
 31
0.0
 11
170.770976856545
 21
16.22421385386059
 31
0.0
 11
170.9248918431289
 21
16.21434269066863
 31
0.0
 11
171.0564887242607
 21
16.18477329831489
 31
0.0
 11
171.172563634494
 21
16.13439993895253
 31
0.0
 11
171.2800792741122
 21
16.06264163167879
 31
0.0
 11
171.2516994050444
 21
16.00236624106885
 31
0.0
 11
171.2284855254283
 21
15.93879017337639
 31
0.0
 11
171.2078381040801
 21
15.8647884199227
 31
0.0
 11
171.1871840681487
 21
15.77360197897332
 31
0.0
 11
171.1665597978415
 21
15.77360197897332
 31
0.0
 11
171.1459355275343
 21
15.77360197897332
 31
0.0
 11
171.1256706495791
 21
15.82395108486347
 31
0.0
 11
171.0994658759421
 21
15.87850045116932
 31
0.0
 11
171.0650468924451
 21
15.93316116296118
 31
0.0
 11
171.0203554612937
 21
15.98349593725413
 31
0.0
 11
170.9657333359511
 21
16.02777175321533
 31
0.0
 11
170.9016722004326
 21
16.06436142334502
 31
0.0
 11
170.825968296114
 21
16.08882545979725
 31
0.0
 11
170.7365722046449
 21
16.09701100667019
 31
0.0
 11
170.6440937174207
 21
16.08926973931098
 31
0.0
 11
170.5594072091645
 21
16.06609003445573
 31
0.0
 11
170.483702448884
 21
16.02863495634008
 31
0.0
 11
170.4183754766516
 21
15.97832774281102
 31
0.0
 11
170.3650487887664
 21
15.9160029337988
 31
0.0
 11
170.32548092339
 21
15.84249947895609
 31
0.0
 11
170.3009523754711
 21
15.75988443557391
 31
0.0
 11
170.2927954104108
 21
15.6704232984435
 31
0.0
 11
170.3130095765617
 21
15.5259530814657
 31
0.0
 11
170.373625616682
 21
15.41591177072934
 31
0.0
 11
170.4643479320758
 21
15.3303367013063
 31
0.0
 11
170.5748676948813
 21
15.25941954854619
 31
0.0
 11
170.7000089937719
 21
15.19914305550577
 31
0.0
 11
170.8345826882553
 21
15.1459044791302
 31
0.0
 11
170.9691729191968
 21
15.09039489581071
 31
0.0
 11
171.0942976816297
 21
15.02377281249409
 31
0.0
 11
171.204800907977
 21
14.94118863716752
 31
0.0
 11
171.2955397598288
 21
14.83800003476273
 31
0.0
 11
171.3561557999489
 21
14.70552315979584
 31
0.0
 11
171.3763699660998
 21
14.53526378483844
 31
0.0
 11
171.3621839747998
 21
14.38133030397413
 31
0.0
 11
171.3196087009193
 21
14.23605531269089
 31
0.0
 11
171.2499752884265
 21
14.10398854189067
 31
0.0
 11
171.1544992078713
 21
13.99007218775239
 31
0.0
 11
171.0341060772624
 21
13.89715272597019
 31
0.0
 11
170.8896160201846
 21
13.82832357668184
 31
0.0
 11
170.7223519532713
 21
13.78581275203969
 31
0.0
 11
170.5336103348226
 21
13.7716586461404
 31
0.0
 11
170.3405031726387
 21
13.78581275203969
 31
0.0
 11
170.1878975900911
 21
13.82832357668184
 31
0.0
 11
170.0661897942203
 21
13.88899033013888
 31
0.0
 11
169.9660261826363
 21
13.9573432294273
 31
0.0
 11
169.9922320587039
 21
14.03255545163075
 31
0.0
 11
170.0090121537618
 21
14.10014767383609
 31
0.0
 11
170.0206196447852
 21
14.1727592623596
 31
0.0
 11
170.0313606254139
 21
14.26352788212859
 31
0.0
 11
170.0520069443315
 21
14.26352788212859
 31
0.0
 11
170.0726532632492
 21
14.26352788212859
 31
0.0
 11
170.1048916391629
 21
14.20119204881084
 31
0.0
 11
170.1465954835851
 21
14.1379566321599
 31
0.0
  0
LWPOLYLINE
  5
BC
102
{ACAD_REACTORS
330
C9
102
}
330
4B
100
AcDbEntity
  8
_U_30EC_U_30A4_U_30E4_U_30FC_1
  6
Continuous
 62
     2
100
AcDbPolyline
 90
        5
 70
     1
 43
0.0
 10
192.4578138032672
 20
15.39722336795632
 10
192.4578138032672
 20
15.22875434022063
 10
191.1602971697031
 20
15.22875434022063
 10
191.1602971697031
 20
15.39722336795632
 10
192.4578138032672
 20
15.39722336795632
  0
MTEXT
  5
BE
330
4B
100
AcDbEntity
  8
1
 62
     2
100
AcDbMText
 10
32.5
 20
282.0000000000003
 30
0.0
 40
5.0
 41
0.0
 71
     5
 72
     1
  1
図番
  7
CONVERTER_11
 73
     1
 44
0.45454545454545
  0
MTEXT
  5
BF
330
4B
100
AcDbEntity
  8
1
 62
     2
100
AcDbMText
 10
29.0
 20
34.0
 30
0.0
 40
3.5
 41
0.0
 71
     5
 72
     1
  1
備考
  7
CONVERTER_11
 73
     1
 44
0.45454545454545
  0
MTEXT
  5
C0
330
4B
100
AcDbEntity
  8
1
 62
     2
100
AcDbMText
 10
29.0
 20
22.75
 30
0.0
 40
3.5
 41
0.0
 71
     5
 72
     1
  1
品名
  7
CONVERTER_11
 73
     1
 44
0.72727272727273
  0
MTEXT
  5
C1
330
4B
100
AcDbEntity
  8
1
 62
     2
100
AcDbMText
 10
29.0
 20
14.25
 30
0.0
 40
3.5
 41
0.0
 71
     5
 72
     1
  1
品番
  7
CONVERTER_11
 73
     1
 44
0.72727272727273
  0
MTEXT
  5
C2
330
4B
100
AcDbEntity
  8
1
 62
     2
100
AcDbMText
 10
101.5
 20
25.0
 30
0.0
 40
3.0
 41
0.0
 71
     5
 72
     1
  1
承認
  7
CONVERTER_11
 73
     1
 44
0.59090909090909
  0
MTEXT
  5
C3
330
4B
100
AcDbEntity
  8
1
 62
     2
100
AcDbMText
 10
175.0
 20
23.5
 30
0.0
 40
3.5
 41
0.0
 71
     5
 72
     1
  1
第三角法
  7
CONVERTER_11
 73
     1
 44
0.54545454545455
  0
MTEXT
  5
C4
330
4B
100
AcDbEntity
  8
1
 62
     2
100
AcDbMText
 10
118.5
 20
25.0
 30
0.0
 40
3.0
 41
0.0
 71
     5
 72
     1
  1
検図
  7
CONVERTER_11
 73
     1
 44
0.59090909090909
  0
MTEXT
  5
C5
330
4B
100
AcDbEntity
  8
1
 62
     2
100
AcDbMText
 10
152.5
 20
25.0
 30
0.0
 40
3.0
 41
0.0
 71
     5
 72
     1
  1
設計
  7
CONVERTER_11
 73
     1
 44
0.59090909090909
  0
MTEXT
  5
C6
330
4B
100
AcDbEntity
  8
1
 62
     2
100
AcDbMText
 10
135.5
 20
25.0
 30
0.0
 40
3.0
 41
0.0
 71
     5
 72
     1
  1
製図
  7
CONVERTER_11
 73
     1
 44
0.59090909090909
  0
MTEXT
  5
C7
330
4B
100
AcDbEntity
  8
1
 62
     2
100
AcDbMText
 10
89.5
 20
24.0
 30
0.0
 40
3.5
 41
0.0
 71
     5
 72
     1
  1
尺度
  7
CONVERTER_11
 73
     1
 44
0.54545454545455
  0
MTEXT
  5
C8
330
4B
100
AcDbEntity
  8
1
 62
   250
100
AcDbMText
 10
25.0
 20
5.0
 30
0.0
 40
3.5
 41
0.0
 71
     4
 72
     1
  1
備考欄の文字列 原点位置=4
  7
CONVERTER_11
 73
     1
 44
0.54545454545455
  0
HATCH
  5
C9
330
4B
100
AcDbEntity
  8
1
  6
Continuous
 62
     2
100
AcDbHatch
 10
0.0
 20
0.0
 30
0.0
210
0.0
220
0.0
230
1.0
  2
CUSTOM0
 70
     0
 71
     1
 91
        1
 92
        1
 93
        4
 72
     1
 10
192.4578138032672
 20
15.39722336795632
 11
192.4578138032672
 21
15.22875434022063
 72
     1
 10
192.4578138032672
 20
15.22875434022063
 11
191.1602971697031
 21
15.22875434022063
 72
     1
 10
191.1602971697031
 20
15.22875434022063
 11
191.1602971697031
 21
15.39722336795632
 72
     1
 10
191.1602971697031
 20
15.39722336795632
 11
192.4578138032672
 21
15.39722336795632
 97
        1
330
BC
 75
     1
 76
     2
 52
45.0
 41
0.1
 77
     0
 78
     1
 53
45.0
 43
0.0
 44
0.0
 45
-0.282842712474619
 46
0.0
 79
     0
 98
        1
 10
0.0
 20
0.0
  0
HATCH
  5
CA
330
4B
100
AcDbEntity
  8
1
  6
Continuous
 62
     2
100
AcDbHatch
 10
0.0
 20
0.0
 30
0.0
210
0.0
220
0.0
230
1.0
  2
CUSTOM1
 70
     0
 71
     1
 91
        1
 92
        1
 93
        3
 72
     4
 94
        3
 73
     0
 74
     0
 95
       24
 96
       20
 40
0.0
 40
0.0
 40
0.0
 40
0.0
 40
0.2211075008753753
 40
0.4273218586245089
 40
0.5080174679239099
 40
0.5914835907870141
 40
0.8143265690192609
 40
1.054651302686558
 40
1.295452694023147
 40
1.518109231328848
 40
1.540864321905466
 40
1.595126460622735
 40
1.659890947896059
 40
1.714153085187425
 40
1.736908174961728
 40
1.764951100735316
 40
1.801562291220904
 40
1.953914424543608
 40
2.126104167379777
 40
2.126104167379777
 40
2.126104167379777
 40
2.126104167379777
 10
185.9375369556889
 20
15.58989295113014
 10
185.9112579081811
 20
15.53097628234372
 10
185.8604698894426
 20
15.41711139679256
 10
185.813178483911
 20
15.14441958233117
 10
185.7043482802618
 20
15.24445482575455
 10
185.5514800279638
 20
15.27118593367339
 10
185.7686155181198
 20
15.48518135017635
 10
185.7838483674381
 20
15.70332117782491
 10
185.8906889491999
 20
15.88451579066427
 10
185.8305380947078
 20
16.16913226311415
 10
185.9334317395401
 20
16.14114089222456
 10
185.9779933468151
 20
16.13243251602302
 10
186.0380842395396
 20
16.12139654183352
 10
186.0756619587438
 20
16.10767523055554
 10
186.1252466928605
 20
16.10756076160214
 10
186.0930158919325
 20
16.07306592398631
 10
186.017180222188
 20
16.08404104537968
 10
186.0429447159693
 20
15.89858969582449
 10
186.005589676385
 20
15.80702313549586
 10
185.9857704961609
 20
15.75844135397699
 72
     4
 94
        3
 73
     0
 74
     0
 95
       70
 96
       66
 40
0.0
 40
0.0
 40
0.0
 40
0.0
 40
0.0241731073021472
 40
0.0846058988987013
 40
0.1631685280353284
 40
0.2417311571789756
 40
0.3021639488292751
 40
0.3263370654895541
 40
0.3533118254248934
 40
0.4228783438922271
 40
0.5179999095313775
 40
0.6216398239466635
 40
0.7167613891500416
 40
0.7863279069650716
 40
0.8133026791762724
 40
0.8372943998772562
 40
0.8945054261373755
 40
0.9627895541963525
 40
1.020000580349162
 40
1.043992300975261
 40
1.071934345523033
 40
1.113121768773133
 40
1.145225199332458
 40
1.225483775413003
 40
1.329819923771722
 40
1.434156071994619
 40
1.51441464779605
 40
1.546518078208659
 40
1.578974764260461
 40
1.662678849314428
 40
1.777131373668705
 40
1.901833377475096
 40
2.016285900500914
 40
2.09998998252831
 40
2.132446666570668
 40
2.158782354486382
 40
2.216720867908151
 40
2.274659381334553
 40
2.300995069256478
 40
2.33345175406645
 40
2.417155836544159
 40
2.531608358985598
 40
2.656310362284122
 40
2.770762886389311
 40
2.854466971340476
 40
2.886923657364283
 40
2.913597976833713
 40
2.982389642875508
 40
3.076451716947362
 40
3.178937260458964
 40
3.272999334740356
 40
3.34179100105957
 40
3.368465320663878
 40
3.396976080739099
 40
3.472140811846335
 40
3.578408190309081
 40
3.700226892456518
 40
3.822045594634763
 40
3.92831297325687
 40
4.003477705315296
 40
4.031988456867362
 40
4.058324144798169
 40
4.116262658237346
 40
4.174201171401164
 40
4.200536849609103
 40
4.200536849609103
 40
4.200536849609103
 40
4.200536849609103
 10
185.9857704961609
 20
15.75844135397699
 10
185.9938259544679
 20
15.7584435981168
 10
186.0220200663241
 20
15.75845146032791
 10
186.0765534803672
 20
15.75830754828365
 10
186.1482891808604
 20
15.75909120499892
 10
186.2236240137062
 20
15.75627570463805
 10
186.2713052366438
 20
15.76298403400951
 10
186.3195071245616
 20
15.75197563692427
 10
186.3062571799873
 20
15.80546402997028
 10
186.3151093964538
 20
15.86049583543087
 10
186.3108698036285
 20
15.95419908726106
 10
186.313348348128
 20
16.04959482218531
 10
186.309093870606
 20
16.14356821983388
 10
186.3179818665846
 20
16.19795062438014
 10
186.3046977409945
 20
16.25233997691463
 10
186.3514119277109
 20
16.2384221633536
 10
186.3943254545737
 20
16.24103877374047
 10
186.4605443456685
 20
16.23648422450757
 10
186.5013342271799
 20
16.22778162134166
 10
186.5525145690819
 20
16.23531799890198
 10
186.52537204872
 20
16.19349970223282
 10
186.4803096055706
 20
16.20284992072597
 10
186.494206504505
 20
16.13841207371835
 10
186.4858414431652
 20
16.07378219627395
 10
186.4903632178398
 20
15.97529141193883
 10
186.4854741311165
 20
15.87595932842565
 10
186.4950258992081
 20
15.81293115552963
 10
186.4799761455199
 20
15.74964011499782
 10
186.5449159457207
 20
15.76515072944263
 10
186.6116246399496
 20
15.75499387697806
 10
186.7241435470827
 20
15.75988800099361
 10
186.8390235448953
 20
15.75691204732778
 10
186.9519871999746
 20
15.76221664184985
 10
187.0176267597678
 20
15.75107306472082
 10
187.0816276691053
 20
15.76744532319851
 10
187.0703142889189
 20
15.7176168990527
 10
187.0775339871509
 20
15.67416715212119
 10
187.070314261127
 20
15.63071745587444
 10
187.0816277175994
 20
15.58088895196876
 10
187.0176263598971
 20
15.59726166091363
 10
186.9519921240459
 20
15.58611271661587
 10
186.8389974317331
 20
15.59144857206854
 10
186.7242456548642
 20
15.58834345663821
 10
186.611318368686
 20
15.59364894682589
 10
186.5455220903584
 20
15.58257300019593
 10
186.4816097975357
 20
15.59887597847618
 10
186.4936015165125
 20
15.54423524395742
 10
186.4862104613003
 20
15.48854295047843
 10
186.4892684841983
 20
15.39649689140572
 10
186.4893422785681
 20
15.30179109873104
 10
186.4860313578359
 20
15.2095278290227
 10
186.4939505989902
 20
15.15435768736144
 10
186.4815076611616
 20
15.10058169100142
 10
186.538911655163
 20
15.11453768862786
 10
186.5994708140382
 20
15.10511457884232
 10
186.704868085508
 20
15.10942885928711
 10
186.8204294070622
 20
15.10835504612037
 10
186.9359688877796
 20
15.10725965901
 10
187.0414181130841
 20
15.11162525770638
 10
187.1018680471804
 20
15.10209426030677
 10
187.159283773911
 20
15.11617289606385
 10
187.1477773876709
 20
15.06707153265687
 10
187.153756678175
 20
15.02564658018652
 10
187.1520311050801
 20
14.97651677966698
 10
187.1521500122971
 20
14.94854428447609
 10
187.1521871691833
 20
14.93980288195951
 72
     4
 94
        3
 73
     0
 74
     0
 95
       62
 96
       58
 40
0.0
 40
0.0
 40
0.0
 40
0.0
 40
0.0598250028308485
 40
0.2024846486897331
 40
0.3727558389221031
 40
0.515415484793607
 40
0.5752404975785339
 40
0.9332326775487246
 40
1.290451762839462
 40
1.602077253145848
 40
1.699931634112128
 40
1.799359756425071
 40
2.270120149657139
 40
2.804661928461668
 40
2.882342287383386
 40
3.076543185719244
 40
3.329004354835718
 40
3.581465524568558
 40
3.775666424543849
 40
3.853346784558474
 40
3.89912067959522
 40
3.984129341792132
 40
4.029903236817452
 40
4.105797496059607
 40
4.295533144152568
 40
4.542189486611814
 40
4.788845828875766
 40
4.978581476410151
 40
5.054475735244395
 40
5.621734664339419
 40
6.130867242037425
 40
6.225249780948711
 40
6.318913039727367
 40
6.663579954558969
 40
7.047498900224816
 40
7.435230791575787
 40
7.498943906668199
 40
7.650875181210193
 40
7.832212509001703
 40
7.984143783697089
 40
8.047856898903216
 40
8.091554632732734
 40
8.172707566964416
 40
8.216405300768152
 40
8.289021782161036
 40
8.46218416075741
 40
8.66886183800549
 40
8.842024215264082
 40
8.914640695475278
 40
8.989881580861475
 40
9.155411528827361
 40
9.320941477744125
 40
9.396182352487367
 40
9.454709011143914
 40
9.583467660170848
 40
9.712226309013127
 40
9.77075295798958
 40
9.77075295798958
 40
9.77075295798958
 40
9.77075295798958
 10
187.1521871691833
 20
14.93980288195951
 10
187.1322348171623
 20
14.93980875568673
 10
187.0647037716466
 20
14.93982863806158
 10
186.9410612161788
 20
14.93949362520326
 10
186.7863180150056
 20
14.94107673750513
 10
186.6697349482479
 20
14.93686078860496
 10
186.4550942634241
 20
14.95215205331627
 10
186.8518948407228
 20
14.59198721286194
 10
186.8945656069268
 20
14.37510503397167
 10
187.3189162146611
 20
14.19325062511452
 10
187.1439821496074
 20
14.08985196568073
 10
187.0194523925084
 20
13.87831523212719
 10
186.7666277235942
 20
14.34806081001564
 10
186.4797602893624
 20
14.99511516984525
 10
186.4906335926659
 20
14.68782672154696
 10
186.4882892777958
 20
14.52288616971779
 10
186.486109612641
 20
14.28879670711693
 10
186.4980774396345
 20
14.04498072421781
 10
186.468798474063
 20
13.89855796860983
 10
186.5114522625469
 20
13.75113490174535
 10
186.4239814005639
 20
13.76685797306217
 10
186.3768527606743
 20
13.7669430354345
 10
186.2898973207713
 20
13.75109425482907
 10
186.3313474021721
 20
13.89527771422759
 10
186.3029875004285
 20
14.03855052698452
 10
186.31459737753
 20
14.27674947365262
 10
186.3124175648272
 20
14.50517235240344
 10
186.3103111127993
 20
14.66705729375993
 10
186.3208035438323
 20
14.98153709333749
 10
186.0128963252894
 20
14.29229470872436
 10
185.7055258267454
 20
13.81476750243045
 10
185.5851367066275
 20
14.03741112637429
 10
185.4074607910721
 20
14.15011034955559
 10
185.8853326362894
 20
14.32548143465461
 10
185.9353959057206
 20
14.56091929252033
 10
186.3583799621717
 20
14.95322989344608
 10
186.127675427354
 20
14.93655307029067
 10
186.004968585934
 20
14.94269518948772
 10
185.8325483095662
 20
14.93312822699575
 10
185.7213224694449
 20
14.95448818489666
 10
185.6025779627447
 20
14.92136265357421
 10
185.6183169706686
 20
15.00203900606886
 10
185.6178550933762
 20
15.04645414290857
 10
185.6027881889931
 20
15.12967081778539
 10
185.7372380935443
 20
15.09062651983889
 10
185.8619755545747
 20
15.11739729328427
 10
186.062875523728
 20
15.10063949044059
 10
186.1921540949353
 20
15.1220422591301
 10
186.3328419928295
 20
15.08868778853426
 10
186.2980927452615
 20
15.22651875785072
 10
186.3222185666713
 20
15.34963257349484
 10
186.2967086182391
 20
15.47024055670337
 10
186.3333251146685
 20
15.60539865141495
 10
186.2211417027769
 20
15.58094545781891
 10
186.1280356457136
 20
15.59307749842022
 10
186.0191547579819
 20
15.58957630069994
 10
185.9569697640964
 20
15.58981755951603
 10
185.9375369557246
 20
15.58989295124144
 97
        3
330
AD
330
AB
330
AC
 75
     1
 76
     2
 52
45.0
 41
0.1
 77
     0
 78
     1
 53
45.0
 43
0.0
 44
0.0
 45
-0.282842712474619
 46
0.0
 79
     0
 98
        1
 10
0.0
 20
0.0
  0
HATCH
  5
CB
330
4B
100
AcDbEntity
  8
1
  6
Continuous
 62
     2
100
AcDbHatch
 10
0.0
 20
0.0
 30
0.0
210
0.0
220
0.0
230
1.0
  2
CUSTOM2
 70
     0
 71
     1
 91
        1
 92
        1
 93
        1
 72
     4
 94
        3
 73
     0
 74
     0
 95
      124
 96
      120
 40
0.0
 40
0.0
 40
0.0
 40
0.0
 40
0.027818722962451
 40
0.1011590162384269
 40
0.2048470170590239
 40
0.3237088716559245
 40
0.4425707262522
 40
0.5462587270699547
 40
0.6195990203311798
 40
0.647417752257866
 40
0.6750060736115278
 40
0.7357003855242918
 40
0.7963946998054705
 40
0.8239830245572068
 40
0.8540933811103162
 40
0.9373396629409843
 40
1.063094687343265
 40
1.220731268638103
 40
1.399622220914778
 40
1.589140358637762
 40
1.778658496423928
 40
1.957549448940539
 40
2.115186030873189
 40
2.240941056914493
 40
2.324187341760562
 40
2.354297700109412
 40
2.381886024671924
 40
2.44258033871052
 40
2.503274652750556
 40
2.530862977314666
 40
2.560983949278619
 40
2.640393784452965
 40
2.752662861759188
 40
2.881361560118205
 40
3.010060258455252
 40
3.122329335705399
 40
3.201739170818013
 40
3.231860142753374
 40
3.264298024030428
 40
3.352343701778296
 40
3.482095226868819
 40
3.639650650173077
 40
3.811108022565528
 40
3.982565394928032
 40
4.140120818152611
 40
4.269872343141318
 40
4.357918020802379
 40
4.390355902044006
 40
4.423256253992576
 40
4.508104530073097
 40
4.624121560636865
 40
4.750528176031621
 40
4.866545206602068
 40
4.951393482692025
 40
4.984293834645427
 40
5.011450833242342
 40
5.071196230152123
 40
5.130941627057195
 40
5.158098625648859
 40
5.190998977601549
 40
5.275847253689375
 40
5.391864284256809
 40
5.518270899648354
 40
5.634287930209394
 40
5.719136206288067
 40
5.752036558235955
 40
5.782130946282977
 40
5.862783906229139
 40
5.979550131774997
 40
6.117984316640384
 40
6.263641154587913
 40
6.402075339414103
 40
6.518841564907887
 40
6.599494524815458
 40
6.629588912848692
 40
6.654403028226267
 40
6.713575149488032
 40
6.784199939329348
 40
6.843372060493448
 40
6.868186175802693
 40
6.896246243201785
 40
6.939586233758182
 40
6.96784656456481
 40
7.043584251089745
 40
7.153234334451601
 40
7.283231855734349
 40
7.420011856035377
 40
7.550009376579726
 40
7.659659458835123
 40
7.735397144417116
 40
7.763657474851287
 40
7.796409728010944
 40
7.880876065096218
 40
7.996370852465604
 40
8.1222084464185
 40
8.237703224799093
 40
8.322169562010787
 40
8.3549218152058
 40
8.382078813307581
 40
8.441824209206882
 40
8.501569605240029
 40
8.528726603485605
 40
8.561478856695654
 40
8.645945193877704
 40
8.761439980865216
 40
8.887277580764358
 40
9.00277236200088
 40
9.0872386966611
 40
9.119990949235554
 40
9.152428830613252
 40
9.240474508638467
 40
9.370226034149415
 40
9.527781457984295
 40
9.699238830981281
 40
9.870696203978468
 40
10.02825162781389
 40
10.1580031533255
 40
10.24604883135105
 40
10.27848670378507
 40
10.27848670378507
 40
10.27848670378507
 40
10.27848670378507
 10
195.3821827564383
 20
14.01410517385762
 10
195.3914554737523
 20
14.01410498511279
 10
195.4251744536861
 20
14.01410430876719
 10
195.4934706812465
 20
14.01411807243309
 10
195.592014171158
 20
14.0140322421955
 10
195.7062066464812
 20
14.01441755612255
 10
195.818589441707
 20
14.0130083589755
 10
195.9214376600118
 20
14.01719117422248
 10
195.9806839874849
 20
14.00823089251988
 10
196.0371265937032
 20
14.02164434526066
 10
196.0246255586955
 20
13.97087198613366
 10
196.0329549635703
 20
13.9258932093907
 10
196.0248170841119
 20
13.88056752990491
 10
196.0370529214457
 20
13.82931932408468
 10
195.9747773490333
 20
13.84447955365278
 10
195.9060513026868
 20
13.83359750710744
 10
195.7782756749592
 20
13.83911304747974
 10
195.6262984511643
 20
13.837008512537
 10
195.4502695972523
 20
13.83771002588475
 10
195.2644431934287
 20
13.83745237531293
 10
195.0786167437175
 20
13.83771005144606
 10
194.9025880142168
 20
13.83700841847732
 10
194.7506104154195
 20
13.83911332229991
 10
194.6228357664554
 20
13.83359680767642
 10
194.5541077836581
 20
13.84448077125943
 10
194.4918349042883
 20
13.82931786684212
 10
194.5040616290017
 20
13.88057510805174
 10
194.4960004462597
 20
13.92582473272429
 10
194.5040675809893
 20
13.97106357955327
 10
194.4918238487083
 20
14.02234176909962
 10
194.5525017120698
 20
14.0074957736314
 10
194.6162810745736
 20
14.01756448170739
 10
194.7277314353502
 20
14.01294644212004
 10
194.8497533443824
 20
14.01413328905473
 10
194.9719538137823
 20
14.0151586390064
 10
195.0829794287392
 20
14.01092475623406
 10
195.1476517413959
 20
14.02018584521744
 10
195.2091162810501
 20
14.00604423049687
 10
195.1930065601337
 20
14.07235527884522
 10
195.2042980327358
 20
14.1444779012198
 10
195.1987400822561
 20
14.2751376088829
 10
195.200803506169
 20
14.42607323708245
 10
195.2000167127295
 20
14.5933587310789
 10
195.2007845215627
 20
14.76061110332306
 10
195.1988038785628
 20
14.91163289269917
 10
195.2041306156621
 20
15.04206069552998
 10
195.1933101388425
 20
15.11465442605902
 10
195.2090326429875
 20
15.18150469436801
 10
195.143270813249
 20
15.16580512490827
 10
195.0756367830763
 20
15.17609243083998
 10
194.9615885293809
 20
15.17113786847125
 10
194.8451242674902
 20
15.17414128030478
 10
194.7306554121477
 20
15.16880303143391
 10
194.6640324657812
 20
15.18001268074828
 10
194.5990769715185
 20
15.16349132665014
 10
194.6107989758708
 20
15.21473720477062
 10
194.6032830189121
 20
15.25950333784093
 10
194.6107989878835
 20
15.30426944897963
 10
194.5990769505347
 20
15.35551536129743
 10
194.66403263392
 20
15.33899381766817
 10
194.7306533339821
 20
15.35020571373945
 10
194.8451352858063
 20
15.34485436710666
 10
194.9615454436962
 20
15.3479118877112
 10
195.0757660174641
 20
15.3427849901071
 10
195.1430150439226
 20
15.353457333556
 10
195.2083325941439
 20
15.33742082669079
 10
195.1941391448552
 20
15.39949685750055
 10
195.2036059462994
 20
15.46586761628763
 10
195.1990269004085
 20
15.58239972741965
 10
195.2007696555948
 20
15.71426685022373
 10
195.1997551495392
 20
15.85615960150269
 10
195.2017191344373
 20
15.98769050702574
 10
195.1964668553851
 20
16.10524577282995
 10
195.2073408763475
 20
16.16947789001577
 10
195.1919536641853
 20
16.23108802545039
 10
195.24075915378
 20
16.21702407382104
 10
195.2853995564726
 20
16.2195474207531
 10
195.3538643946742
 20
16.21512797401707
 10
195.3959106169102
 20
16.20613025544036
 10
195.4487544758775
 20
16.21411714866512
 10
195.4207035002014
 20
16.17113917611674
 10
195.3749142248594
 20
16.18259552043836
 10
195.3869539073265
 20
16.12173520005138
 10
195.3796086070641
 20
16.05769299468773
 10
195.3831195826162
 20
15.94909368863912
 10
195.3819806760173
 20
15.82494319144754
 10
195.3819174780262
 20
15.69189719829879
 10
195.3832872966868
 20
15.56797381249557
 10
195.3791638801313
 20
15.4586833784934
 10
195.3877763103564
 20
15.39608580094172
 10
195.3746757454402
 20
15.33740133296367
 10
195.4393884328198
 20
15.35362113810904
 10
195.5060405953156
 20
15.34270260383313
 10
195.6198779541103
 20
15.34793740173758
 10
195.7357259122097
 20
15.34485547516915
 10
195.849692426328
 20
15.35018259812514
 10
195.9160341018099
 20
15.33904208166545
 10
195.980718852548
 20
15.3554697959318
 10
195.9689820772722
 20
15.30425925210052
 10
195.9765168063041
 20
15.25950334121003
 10
195.9689820992258
 20
15.2147473901003
 10
195.9807188140736
 20
15.16353690871043
 10
195.9160344075252
 20
15.17996427794223
 10
195.8496886430824
 20
15.16882784447272
 10
195.7357459487012
 20
15.17413115893123
 10
195.6197995623054
 20
15.17114764593547
 10
195.5062756882122
 20
15.17606892268396
 10
195.4389231318804
 20
15.16585087513523
 10
195.3734285122495
 20
15.18145996138818
 10
195.3891713619218
 20
15.11463851827414
 10
195.3783275998212
 20
15.04207057815882
 10
195.3836581629792
 20
14.91162247614419
 10
195.3817136151855
 20
14.76064558185229
 10
195.3823133683215
 20
14.59322243934163
 10
195.3821506559604
 20
14.42656176118375
 10
195.3821895488136
 20
14.27360142921641
 10
195.3821816413099
 20
14.14849178985709
 10
195.3821828382744
 20
14.06507890991425
 10
195.3821827716208
 20
14.02491778281981
 10
195.3821827564383
 20
14.01410517385762
 97
        1
330
AE
 75
     1
 76
     2
 52
45.0
 41
0.1
 77
     0
 78
     1
 53
45.0
 43
0.0
 44
0.0
 45
-0.282842712474619
 46
0.0
 79
     0
 98
        1
 10
0.0
 20
0.0
  0
HATCH
  5
CC
330
4B
100
AcDbEntity
  8
1
  6
Continuous
 62
     2
100
AcDbHatch
 10
0.0
 20
0.0
 30
0.0
210
0.0
220
0.0
230
1.0
  2
CUSTOM3
 70
     0
 71
     1
 91
        1
 92
        1
 93
        1
 72
     4
 94
        3
 73
     0
 74
     0
 95
      131
 96
      127
 40
0.0
 40
0.0
 40
0.0
 40
0.0
 40
0.0195577029826408
 40
0.0426490537462053
 40
0.2863607575856634
 40
0.5344948436189072
 40
0.7842238845572884
 40
0.8737315789467089
 40
0.9803832810312678
 40
1.092842274517025
 40
1.199761146656791
 40
1.289788768186494
 40
1.351573580786171
 40
1.3707271175614
 40
1.416400936017812
 40
1.470914848355958
 40
1.516588666791752
 40
1.535742203552833
 40
1.634216592293174
 40
1.760283341175019
 40
1.897966686682094
 40
2.031216387368923
 40
2.049689751137919
 40
2.101115601646857
 40
2.179502577739978
 40
2.278859318314097
 40
2.393194462258759
 40
2.516516648383879
 40
2.642834515406012
 40
2.766156701983521
 40
2.880491846754639
 40
2.979848588358685
 40
3.058235565443866
 40
3.109661416669022
 40
3.128134780704199
 40
3.146783742386516
 40
3.191254343315377
 40
3.244332157316036
 40
3.288802758225939
 40
3.307451719895182
 40
3.327717853844794
 40
3.383747753580158
 40
3.468388665924552
 40
3.574487837698863
 40
3.694892515728972
 40
3.822449946852116
 40
3.95000737792051
 40
4.070412055800604
 40
4.176511227368165
 40
4.261152139501613
 40
4.317182039076808
 40
4.337448172964729
 40
4.620011002696325
 40
4.885096638397624
 40
4.945373043518475
 40
5.014107710488809
 40
5.070481727652217
 40
5.319246955636721
 40
5.584812164506184
 40
5.859000912057032
 40
6.133746937542208
 40
6.401732212968994
 40
6.420736683995584
 40
6.472845717451235
 40
6.550702743894163
 40
6.646951193874371
 40
6.754234497930695
 40
6.865196086587473
 40
6.972479390357932
 40
7.068727839772094
 40
7.146584865451103
 40
7.198693898189332
 40
7.217698368905473
 40
7.234950401630949
 40
7.276089864269992
 40
7.325191803516099
 40
7.366331266090483
 40
7.383583298769833
 40
7.40277916349221
 40
7.453386443254641
 40
7.524934666445643
 40
7.606953361405982
 40
7.688972056429134
 40
7.760520279784385
 40
7.811127559734627
 40
7.830323424546248
 40
7.84784405529988
 40
7.894799345666926
 40
7.962779392744623
 40
8.043374293560682
 40
8.1281741451496
 40
8.208769044817412
 40
8.276749090377123
 40
8.323704379669692
 40
8.341225010056426
 40
8.358497614800575
 40
8.40167912668678
 40
8.457815092185838
 40
8.513951057728242
 40
8.557132569708198
 40
8.574405174505241
 40
8.602340668616629
 40
8.643455660540178
 40
8.66322527196685
 40
8.715345156564494
 40
8.789031889628829
 40
8.873502045520564
 40
8.957972194324189
 40
9.031658925568083
 40
9.08377881123477
 40
9.103548423003234
 40
9.119550083123771
 40
9.160817522380073
 40
9.217244429110439
 40
9.278724491644924
 40
9.335151398295709
 40
9.376418837358004
 40
9.392420497300792
 40
9.401196302735011
 40
9.417494229384484
 40
9.426270027749757
 40
9.440875075477786
 40
9.47570249699896
 40
9.517270709866114
 40
9.552098131994276
 40
9.56670316988448
 40
9.56670316988448
 40
9.56670316988448
 40
9.56670316988448
 10
194.6170254148479
 20
15.67015871511029
 10
194.613434509337
 20
15.6645369070216
 10
194.6056039123625
 20
15.65227754419111
 10
194.512996897455
 20
15.61601916040946
 10
194.4887622233245
 20
15.4014844421272
 10
194.385870984594
 20
15.22197284509707
 10
194.1220492364305
 20
15.03615573798147
 10
194.284547156918
 20
14.95959336566083
 10
194.3607225760838
 20
14.89856693195442
 10
194.4492171072758
 20
14.83515804544758
 10
194.538993023311
 20
14.77525634219558
 10
194.5883817636046
 20
14.72102154849204
 10
194.6745708157382
 20
14.69286240541834
 10
194.6411260674229
 20
14.65713309652811
 10
194.621467116631
 20
14.62550387991906
 10
194.5919888217882
 20
14.58475872796069
 10
194.5688989446031
 20
14.55504663489642
 10
194.5380205968357
 20
14.50211422668494
 10
194.472919336574
 20
14.627403349389
 10
194.3796000122415
 20
14.68213900233933
 10
194.2950636285138
 20
14.73916423939344
 10
194.1722498125743
 20
14.89675287427525
 10
194.1764450847301
 20
14.82035806766838
 10
194.1751478652677
 20
14.77361280161297
 10
194.1758126448077
 20
14.69584785812603
 10
194.1755549986956
 20
14.59902068324423
 10
194.1756431239922
 20
14.4865027907881
 10
194.1756077302281
 20
14.36524085945699
 10
194.1756511758278
 20
14.2408689785896
 10
194.1755199942405
 20
14.11967683631335
 10
194.1759477562046
 20
14.00691148919741
 10
194.174667820231
 20
13.91082913768742
 10
194.1779759851043
 20
13.83113826468697
 10
194.1715197740087
 20
13.78815175788782
 10
194.1806208705555
 20
13.74955432372039
 10
194.1447910339935
 20
13.75810887724068
 10
194.1115223815252
 20
13.75342519985444
 10
194.0604562576041
 20
13.75351298759782
 10
194.0269723972812
 20
13.75794430283818
 10
193.9907585408754
 20
13.74960793842506
 10
194.0009782568665
 20
13.79145277179282
 10
193.9936487887774
 20
13.83778560820171
 10
193.9973633136102
 20
13.92374831106012
 10
193.9959480554896
 20
14.02605142704847
 10
193.9964105554637
 20
14.1445322393151
 10
193.9962773686231
 20
14.26957683153355
 10
193.9963015910044
 20
14.39475828107049
 10
193.9963354925551
 20
14.51286645379058
 10
193.9962060293132
 20
14.61628748709516
 10
193.996550754908
 20
14.69932036153667
 10
193.995869827869
 20
14.75143368521244
 10
193.9994586600623
 20
14.8791290782136
 10
193.7826171386436
 20
14.58048716819624
 10
193.602135492195
 20
14.3526398151151
 10
193.5490322295612
 20
14.49373443289816
 10
193.5200429133149
 20
14.54325767560947
 10
193.419664806282
 20
14.64641779790112
 10
193.740512772326
 20
14.7269503502378
 10
193.8689897005429
 20
14.91066283036436
 10
194.0906454325359
 20
15.11931995771763
 10
194.1770224894068
 20
15.29339211228343
 10
194.4549394229075
 20
15.56967051342512
 10
194.3346247839284
 20
15.56534559551111
 10
194.2863197351348
 20
15.56614856202551
 10
194.2102377454905
 20
15.56574582146582
 10
194.116701000975
 20
15.56590275611607
 10
194.0117594788557
 20
15.56582502576222
 10
193.9033887738717
 20
15.56595464378552
 10
193.7981454235897
 20
15.56554393490689
 10
193.7056237819412
 20
15.56682073671589
 10
193.6268130800707
 20
15.56340766534848
 10
193.5839674565379
 20
15.57023350036318
 10
193.5449499586516
 20
15.56065064201121
 10
193.5526365271863
 20
15.5942077956554
 10
193.5485464404312
 20
15.6252355032223
 10
193.5485531368814
 20
15.67236529270898
 10
193.5526239724911
 20
15.70340941646775
 10
193.5449495574582
 20
15.73701861635898
 10
193.5834819405495
 20
15.72748410420869
 10
193.624122801448
 20
15.73397435498067
 10
193.6951471850463
 20
15.73100150650251
 10
193.7729318149633
 20
15.73174761399154
 10
193.8507292246474
 20
15.73247814044523
 10
193.9217232089907
 20
15.72954235514157
 10
193.962427979182
 20
15.73595468772949
 10
194.0009853489909
 20
15.72650524176
 10
193.9927342754927
 20
15.76264692158782
 10
193.9982346669358
 20
15.80129837613225
 10
193.9955754206163
 20
15.86913528561837
 10
193.9965815471533
 20
15.9459164153874
 10
193.9960178018319
 20
16.02849393582757
 10
193.9970714526593
 20
16.1051732922988
 10
193.994267586313
 20
16.17331990776702
 10
194.0000702721304
 20
16.2113239980935
 10
193.9915654551158
 20
16.2475844807765
 10
194.0255610233125
 20
16.23755723771855
 10
194.0594575683099
 20
16.2407326681371
 10
194.1126669060346
 20
16.23508965640613
 10
194.1660768574482
 20
16.23434774436428
 10
194.1995914649492
 20
16.22819223482984
 10
194.2388086183038
 20
16.23346029773595
 10
194.2120263698493
 20
16.1925338079349
 10
194.1708111001723
 20
16.20371204538108
 10
194.1782641540873
 20
16.15867056192122
 10
194.1742227952184
 20
16.11412278028142
 10
194.176171404964
 20
16.042235726217
 10
194.1752364849758
 20
15.96168630588768
 10
194.176510719003
 20
15.88173995404992
 10
194.1732043793863
 20
15.8084183708318
 10
194.1802106179962
 20
15.76688643002565
 10
194.1701440380125
 20
15.7275241856811
 10
194.2029814803921
 20
15.73468063430978
 10
194.236457729648
 20
15.73027243137941
 10
194.2915053476019
 20
15.73217943347894
 10
194.3489502595314
 20
15.73185366407285
 10
194.402302624831
 20
15.73106308733079
 10
194.4398540896638
 20
15.7331395911807
 10
194.4623172523237
 20
15.73022338167106
 10
194.4751678073731
 20
15.73572552644052
 10
194.485825568589
 20
15.73801118197786
 10
194.4986635650143
 20
15.74494972588048
 10
194.5145991033071
 20
15.72853046313669
 10
194.5410623920891
 20
15.71709122319446
 10
194.5726805253757
 20
15.6964468783519
 10
194.5987255892151
 20
15.68116869628295
 10
194.6128517723973
 20
15.67266976323185
 10
194.6170254148479
 20
15.67015871511029
 97
        1
330
AF
 75
     1
 76
     2
 52
45.0
 41
0.1
 77
     0
 78
     1
 53
45.0
 43
0.0
 44
0.0
 45
-0.282842712474619
 46
0.0
 79
     0
 98
        1
 10
0.0
 20
0.0
  0
HATCH
  5
CD
330
4B
100
AcDbEntity
  8
1
  6
Continuous
 62
     2
100
AcDbHatch
 10
0.0
 20
0.0
 30
0.0
210
0.0
220
0.0
230
1.0
  2
CUSTOM4
 70
     0
 71
     1
 91
        1
 92
        1
 93
        1
 72
     4
 94
        3
 73
     0
 74
     0
 95
       91
 96
       87
 40
0.0
 40
0.0
 40
0.0
 40
0.0
 40
0.0267532254356826
 40
0.0856103386464493
 40
0.1444674521997296
 40
0.1712206856619314
 40
0.2039416005643336
 40
0.2955601971653283
 40
0.4362601844617717
 40
0.6162252844508049
 40
0.8256392189705497
 40
1.054685709844491
 40
1.293548478893611
 40
1.532411247938383
 40
1.761457738799648
 40
1.970871673298616
 40
2.150836773256812
 40
2.291536760495673
 40
2.38315535683678
 40
2.4158762841014
 40
2.442629517488057
 40
2.501486630949215
 40
2.560343744424389
 40
2.587096977826675
 40
2.617068194441102
 40
2.699247336756243
 40
2.822032643466556
 40
2.973822353258085
 40
3.143014704823528
 40
3.318007936880107
 40
3.48720028818694
 40
3.63898999754842
 40
3.761775303794919
 40
3.843954445753254
 40
3.87392566222995
 40
3.890812773500661
 40
3.907699884771843
 40
3.937960767857454
 40
3.980983618142476
 40
4.199085915228626
 40
4.439444339237452
 40
4.677588241261128
 40
5.0506983178381
 40
5.448212454763515
 40
5.855291218045038
 40
6.138575438885694
 40
6.417434507584542
 40
6.444551104394227
 40
6.504207617363529
 40
6.563864130314855
 40
6.59098072710445
 40
6.848609460381833
 40
7.109611990668789
 40
7.352910904446449
 40
7.55783022070581
 40
7.587518925913724
 40
7.652834077376132
 40
7.718149228846057
 40
7.747837934062356
 40
7.854880190301214
 40
7.976511257403796
 40
8.369487896592656
 40
8.757514959223949
 40
9.126072419331411
 40
9.460639380392445
 40
9.746695593036158
 40
9.777569943118937
 40
9.807050320932042
 40
9.83037733612918
 40
9.886003295436263
 40
9.952395569430184
 40
10.00802152870655
 40
10.03134854388247
 40
10.21356951009618
 40
10.42203479292901
 40
10.66154556731093
 40
10.91693789564333
 40
11.15832906556597
 40
11.18982674596655
 40
11.27286608520439
 40
11.39026653033381
 40
11.52484752840918
 40
11.6594285264848
 40
11.77682897161515
 40
11.85986831085714
 40
11.8913659823046
 40
11.8913659823046
 40
11.8913659823046
 40
11.8913659823046
 10
190.7027885008196
 20
14.70699600701772
 10
190.7028237765288
 20
14.71587847311985
 10
190.7029366710796
 20
14.74430237047349
 10
190.7012984568489
 20
14.79409639169807
 10
190.706975029291
 20
14.8365756447816
 10
190.6956928731707
 20
14.88730154856855
 10
190.7632296979031
 20
14.87012900740117
 10
190.83880292107
 20
14.88290227166003
 10
190.9828357056001
 20
14.8762972945739
 10
191.1569419185426
 20
14.87888462206473
 10
191.3639599611004
 20
14.87800591955561
 10
191.5894688172378
 20
14.87828207920035
 10
191.8251162293406
 20
14.8781833965867
 10
192.0607640531348
 20
14.87828184412775
 10
192.2862717580626
 20
14.87800678190796
 10
192.4932934632805
 20
14.87888186270743
 10
192.6673888915288
 20
14.87630522678455
 10
192.8114492071986
 20
14.88288290449221
 10
192.8869691915293
 20
14.87016243405612
 10
192.954577603703
 20
14.88726400191694
 10
192.9430840140676
 20
14.83674785802947
 10
192.9505104581733
 20
14.79253252226505
 10
192.9428838927986
 20
14.74867966503612
 10
192.9546489459425
 20
14.69878374479327
 10
192.8930788491983
 20
14.71393227712512
 10
192.8256791738671
 20
14.70310665350673
 10
192.7013004056221
 20
14.70852031626236
 10
192.555442823657
 20
14.70649205390785
 10
192.3893576440085
 20
14.70715777578387
 10
192.2188412621724
 20
14.70689643521242
 10
192.0519790855388
 20
14.70721553391094
 10
191.9087346827105
 20
14.70635302590762
 10
191.7773313869834
 20
14.70863300482988
 10
191.7239859134656
 20
14.70407704374201
 10
191.6485188456912
 20
14.70999914992878
 10
191.6769075779232
 20
14.70094169343352
 10
191.7033652409542
 20
14.69725912268927
 10
191.6633522907701
 20
14.6665427196827
 10
191.5713663691867
 20
14.67667591174647
 10
191.5439396207069
 20
14.4303250224778
 10
191.4478793967234
 20
14.27499558764375
 10
191.1917277964472
 20
13.94525417931567
 10
191.7627537732762
 20
14.08430022210453
 10
192.0173656320516
 20
14.08291779973367
 10
192.6279647048617
 20
13.99790569242084
 10
192.3340698578083
 20
14.29685417558201
 10
192.0133304286517
 20
14.44330856901778
 10
192.1313543360434
 20
14.50025540818286
 10
192.1724716466261
 20
14.52420099873347
 10
192.2156812394411
 20
14.5459975881123
 10
192.317457409445
 20
14.60928721253904
 10
192.4328867625248
 20
14.3514715140878
 10
192.6329591642277
 20
14.21616041113683
 10
192.7269077387227
 20
14.03792795138883
 10
192.9558829746394
 20
13.8799782102705
 10
192.8596031846707
 20
13.82915972576303
 10
192.816795976378
 20
13.7988129252306
 10
192.7718243528778
 20
13.77466130281465
 10
192.7121720925215
 20
13.72552146747579
 10
192.6789731061324
 20
13.85997475673607
 10
192.5582013350797
 20
14.01594265286587
 10
192.1970976005977
 20
13.88569928059555
 10
191.838506195554
 20
13.90224694409483
 10
191.457092045008
 20
13.89331229351864
 10
191.1703455282891
 20
13.8288267167241
 10
190.8592055599714
 20
13.94230668192823
 10
190.8268737818788
 20
13.83122259927769
 10
190.7896178253318
 20
13.81196313850011
 10
190.7865737632753
 20
13.85874784087296
 10
190.7679892860608
 20
13.89806853919135
 10
190.7512436616778
 20
13.95765983478234
 10
190.7383730915753
 20
14.00201969871285
 10
190.7042327806428
 20
14.09106331120203
 10
190.9482714457754
 20
14.02181042943769
 10
191.1441394486671
 20
14.00030369057741
 10
191.2395426381277
 20
14.2822648447846
 10
191.2945135769597
 20
14.4436304542112
 10
191.5159619357156
 20
14.71391177589738
 10
191.3849239381216
 20
14.70548446853735
 10
191.3110026555854
 20
14.70779008496969
 10
191.1977459876244
 20
14.70671378321658
 10
191.0694251807484
 20
14.7070763907651
 10
190.9404252030415
 20
14.70697724466086
 10
190.828784094629
 20
14.70699932712572
 10
190.7514663970026
 20
14.7069957918967
 10
190.713287653201
 20
14.70699595845081
 10
190.7027885008196
 20
14.70699600701772
 97
        1
330
B0
 75
     1
 76
     2
 52
45.0
 41
0.1
 77
     0
 78
     1
 53
45.0
 43
0.0
 44
0.0
 45
-0.282842712474619
 46
0.0
 79
     0
 98
        1
 10
0.0
 20
0.0
  0
HATCH
  5
CE
330
4B
100
AcDbEntity
  8
1
  6
Continuous
 62
     2
100
AcDbHatch
 10
0.0
 20
0.0
 30
0.0
210
0.0
220
0.0
230
1.0
  2
CUSTOM5
 70
     0
 71
     1
 91
        1
 92
        1
 93
        1
 72
     4
 94
        3
 73
     0
 74
     0
 95
       35
 96
       31
 40
0.0
 40
0.0
 40
0.0
 40
0.0
 40
0.0335231036620645
 40
0.0713218571711906
 40
0.4278866681486883
 40
0.8116865841964056
 40
1.198190238000071
 40
1.56137954681268
 40
1.659983174622088
 40
1.759315573807266
 40
2.132719617231187
 40
2.525233363588954
 40
2.910815397779828
 40
3.265244364303427
 40
3.592606723582212
 40
3.964386154604176
 40
4.359942131738005
 40
4.758154118639535
 40
4.843846538700199
 40
4.93665006554358
 40
5.256616602537635
 40
5.581707404416358
 40
5.899719158308449
 40
6.198363494281057
 40
6.466301046616102
 40
6.493895311537424
 40
6.559697020197217
 40
6.638234543442793
 40
6.704036252154546
 40
6.731630508423352
 40
6.731630508423352
 40
6.731630508423352
 40
6.731630508423352
 10
191.9736010568669
 20
16.23463843719134
 10
191.9676006097789
 20
16.22480690542322
 10
191.9548344099157
 20
16.20388988579798
 10
191.7949362006552
 20
16.17127126532704
 10
192.2322025842338
 20
15.882066803367
 10
192.4345394828261
 20
15.68041138358442
 10
192.6819564267973
 20
15.43749387603274
 10
193.1831513624607
 20
15.36047662757784
 10
193.012556219897
 20
15.21876939174656
 10
192.9383299463201
 20
15.01710366209099
 10
192.6131432248188
 20
15.3695628717473
 10
192.3277741670664
 20
15.53175212559566
 10
192.0337604077658
 20
15.73687130053054
 10
191.8084452691134
 20
16.21827488595464
 10
191.5993085055522
 20
15.75343046609224
 10
191.3207873674835
 20
15.54350952252911
 10
191.0371383177208
 20
15.37424456359983
 10
190.7078639527832
 20
15.00142360907927
 10
190.6277012318224
 20
15.19708014459002
 10
190.4759724909744
 20
15.32491104190605
 10
190.9083395826794
 20
15.40454031765936
 10
191.0962565329766
 20
15.60026634915474
 10
191.3468477420502
 20
15.81632996916755
 10
191.5714350470161
 20
15.98190992300058
 10
191.6259775409712
 20
16.26133964636829
 10
191.7494661029011
 20
16.24737950408081
 10
191.806027334452
 20
16.24521268867648
 10
191.8761870984945
 20
16.24046859881361
 10
191.9333414022105
 20
16.23709429350541
 10
191.9644190320839
 20
16.23519854711119
 10
191.9736010568669
 20
16.23463843719134
 97
        1
330
B1
 75
     1
 76
     2
 52
45.0
 41
0.1
 77
     0
 78
     1
 53
45.0
 43
0.0
 44
0.0
 45
-0.282842712474619
 46
0.0
 79
     0
 98
        1
 10
0.0
 20
0.0
  0
HATCH
  5
CF
330
4B
100
AcDbEntity
  8
1
  6
Continuous
 62
     2
100
AcDbHatch
 10
0.0
 20
0.0
 30
0.0
210
0.0
220
0.0
230
1.0
  2
CUSTOM6
 70
     0
 71
     1
 91
        1
 92
        1
 93
        1
 72
     4
 94
        3
 73
     0
 74
     0
 95
       15
 96
       11
 40
0.0
 40
0.0
 40
0.0
 40
0.0
 40
0.2785535985096574
 40
0.5215624748199432
 40
0.6076917376040788
 40
0.6938210001741255
 40
0.9405019146454893
 40
1.221691403489127
 40
1.300471877081051
 40
1.379252341684823
 40
1.379252341684823
 40
1.379252341684823
 40
1.379252341684823
 10
189.5681493630999
 20
16.22930267330384
 10
189.6296017794178
 20
16.1769164659272
 10
189.7446649974113
 20
16.07882876798227
 10
190.0397348497245
 20
15.92889785897217
 10
189.9025147631856
 20
15.84343227515012
 10
189.8041227843779
 20
15.71085785201561
 10
189.7130033590649
 20
16.0161698578142
 10
189.3636839480655
 20
16.07967869465375
 10
189.511925837657
 20
16.1789650988088
 10
189.5494081874236
 20
16.21252348402385
 10
189.5681493630999
 20
16.22930267330384
 97
        1
330
B2
 75
     1
 76
     2
 52
45.0
 41
0.1
 77
     0
 78
     1
 53
45.0
 43
0.0
 44
0.0
 45
-0.282842712474619
 46
0.0
 79
     0
 98
        1
 10
0.0
 20
0.0
  0
HATCH
  5
D0
330
4B
100
AcDbEntity
  8
1
  6
Continuous
 62
     2
100
AcDbHatch
 10
0.0
 20
0.0
 30
0.0
210
0.0
220
0.0
230
1.0
  2
CUSTOM7
 70
     0
 71
     1
 91
        1
 92
        1
 93
        1
 72
     4
 94
        3
 73
     0
 74
     0
 95
       75
 96
       71
 40
0.0
 40
0.0
 40
0.0
 40
0.0
 40
0.0342546099129638
 40
0.1245622414432187
 40
0.2522385480897163
 40
0.3985991922940111
 40
0.5449598364980093
 40
0.672636143143791
 40
0.7629437746735894
 40
0.7971983935296871
 40
1.101723623449544
 40
1.408591244036546
 40
1.433332471690247
 40
1.487763172450035
 40
1.542193873081853
 40
1.566935100592399
 40
1.923523931821717
 40
2.271755704953516
 40
2.590579755100757
 40
2.85894330558102
 40
2.889120339309035
 40
2.918305855190943
 40
2.941366645531057
 40
2.996357760972924
 40
3.061992318140443
 40
3.116983433626615
 40
3.140044223997286
 40
3.411273122936209
 40
3.732441619740881
 40
3.761068217532575
 40
3.83778749963013
 40
3.948858699125756
 40
4.080541049104118
 40
4.219093782625487
 40
4.350776132722023
 40
4.461847332405345
 40
4.53856661467807
 40
4.567193212544312
 40
4.594907573998571
 40
4.66638145355711
 40
4.76411104401072
 40
4.870592538125523
 40
4.968322128641974
 40
5.039796008286659
 40
5.067510369784118
 40
5.094263603185333
 40
5.153120716667969
 40
5.211977830150415
 40
5.23873106355142
 40
5.272290535138659
 40
5.36338052944452
 40
5.497618415781197
 40
5.660621563453439
 40
5.83800734174914
 40
6.015393119910492
 40
6.178396267038117
 40
6.312634151842069
 40
6.403724143059058
 40
6.437283612672154
 40
6.464036846260768
 40
6.522893960004385
 40
6.581751071483652
 40
6.608504301590598
 40
6.637253941280745
 40
6.711397748902597
 40
6.812778057283209
 40
6.923237199248986
 40
7.024617507623629
 40
7.098761315207282
 40
7.127510946007233
 40
7.127510946007233
 40
7.127510946007233
 40
7.127510946007233
 10
188.4418622390564
 20
14.95849128473259
 10
188.4418622819707
 20
14.94707313408715
 10
188.4418624481129
 20
14.90555257842624
 10
188.4418593081787
 20
14.82146922003768
 10
188.4418788279801
 20
14.70004497322327
 10
188.4417912187737
 20
14.55980494047448
 10
188.4421116235229
 20
14.42006556794578
 10
188.4411605909741
 20
14.29745038894933
 10
188.4431978595968
 20
14.21587074438048
 10
188.4349433178745
 20
14.06271267077703
 10
188.7430797940901
 20
14.22560236054724
 10
189.0350645173735
 20
14.39482938688005
 10
189.0408354448707
 20
14.25973235781914
 10
189.0455471719891
 20
14.21617221160448
 10
189.0482535411917
 20
14.17211249350549
 10
189.0672545672959
 20
14.02272590363138
 10
188.6583942247302
 20
14.08681172241263
 10
188.3793710348832
 20
13.9729634141102
 10
188.1018081587167
 20
13.87364095811144
 10
187.80998371844
 20
13.91630687596362
 10
187.7869144678658
 20
13.81321679744541
 10
187.7537474383333
 20
13.78691091244481
 10
187.7480653962739
 20
13.83455309036311
 10
187.7284214559044
 20
13.87180336115075
 10
187.7095089485623
 20
13.93007387847567
 10
187.6942849867707
 20
13.97385201007805
 10
187.6477246372936
 20
14.08759421046311
 10
187.9890897312449
 20
14.05576301120046
 10
188.2679649367387
 20
14.02161435106483
 10
188.2617753034907
 20
14.16913976479655
 10
188.2630935452773
 20
14.24013150908835
 10
188.2624831689948
 20
14.34719767958663
 10
188.2625871570725
 20
14.47398529785998
 10
188.2629987964055
 20
14.60849243496048
 10
188.2613907841969
 20
14.73395549951182
 10
188.2659902567924
 20
14.84505246719113
 10
188.2564186502211
 20
14.90761886800685
 10
188.2704001783691
 20
14.96595388294996
 10
188.2147384386705
 20
14.95289710582233
 10
188.157565519782
 20
14.96136307749493
 10
188.0616048925648
 20
14.95729976080631
 10
187.963376752282
 20
14.95970889852469
 10
187.8672582457561
 20
14.95551600613383
 10
187.8104648525811
 20
14.96429346441157
 10
187.7550356873384
 20
14.95094936850116
 10
187.7670679427917
 20
15.00036910959252
 10
187.7592003173937
 20
15.0439398803039
 10
187.7666295563828
 20
15.0883046911852
 10
187.7551930564143
 20
15.13902297763985
 10
187.8232102370133
 20
15.12162460757738
 10
187.8968496879747
 20
15.13417450237183
 10
188.0325064058211
 20
15.12799677011093
 10
188.1884909024525
 20
15.13029203093079
 10
188.3615926358143
 20
15.12940968262525
 10
188.5346942964181
 20
15.13029207142403
 10
188.6906789811216
 20
15.12799662955545
 10
188.8263351889797
 20
15.13417486262426
 10
188.8999756705652
 20
15.1216239421833
 10
188.9679914174724
 20
15.13902373012137
 10
188.9565590885922
 20
15.0883013041455
 10
188.9639539458297
 20
15.04397060811103
 10
188.956203991227
 20
15.0002830755019
 10
188.9681203741877
 20
14.95063590098472
 10
188.9108170223616
 20
14.9646141133842
 10
188.8520145789773
 20
14.95539755673249
 10
188.7525293633199
 20
14.95952268164924
 10
188.649428009835
 20
14.95822760025883
 10
188.5537846354573
 20
14.95854077077635
 10
188.4857467971617
 20
14.9584877669714
 10
188.4514462213443
 20
14.95849051871651
 10
188.4418622390564
 20
14.95849128473259
 97
        1
330
B3
 75
     1
 76
     2
 52
45.0
 41
0.1
 77
     0
 78
     1
 53
45.0
 43
0.0
 44
0.0
 45
-0.282842712474619
 46
0.0
 79
     0
 98
        1
 10
0.0
 20
0.0
  0
HATCH
  5
D1
330
4B
100
AcDbEntity
  8
1
  6
Continuous
 62
     2
100
AcDbHatch
 10
0.0
 20
0.0
 30
0.0
210
0.0
220
0.0
230
1.0
  2
CUSTOM8
 70
     0
 71
     1
 91
        1
 92
        1
 93
        1
 72
     4
 94
        3
 73
     0
 74
     0
 95
       91
 96
       87
 40
0.0
 40
0.0
 40
0.0
 40
0.0
 40
0.0345987051695718
 40
0.1258134969461369
 40
0.2547723404888987
 40
0.4026032099154125
 40
0.5504340793416704
 40
0.679392922883608
 40
0.7706077146571035
 40
0.8052064287780925
 40
1.124852390615288
 40
1.427402236308895
 40
1.706356627453545
 40
1.955541417875244
 40
2.169485938566399
 40
2.344350786664864
 40
2.480568411562019
 40
2.590440557429042
 40
2.649189927151196
 40
2.749320643306404
 40
2.912632739880121
 40
3.147745656000341
 40
3.244827496385228
 40
3.338490056946823
 40
3.583815413207246
 40
3.761423943238598
 40
3.886956104362751
 40
3.985855451886904
 40
4.091766255337788
 40
4.250186473811981
 40
4.422734315084629
 40
4.628285684838725
 40
4.872093227758557
 40
5.15254965214567
 40
5.46496713583765
 40
5.803201477852563
 40
6.160362988814033
 40
6.193449448276088
 40
6.284170385501742
 40
6.419718138764612
 40
6.587285046385862
 40
6.774063446723776
 40
6.967245678113759
 40
7.154024078817745
 40
7.321590987026131
 40
7.457138740890489
 40
7.547859678556225
 40
7.580946138182785
 40
7.608533084714837
 40
7.669224367077819
 40
7.729915649430039
 40
7.757502595950092
 40
7.790278062553545
 40
7.880146277431043
 40
8.014419963180506
 40
8.180411842398007
 40
8.365434637679476
 40
8.556801071622777
 40
8.74182386683089
 40
8.9078157459164
 40
9.042089431507554
 40
9.13195764624968
 40
9.164733112797256
 40
9.415425063140159
 40
9.667986180958572
 40
9.694169807462739
 40
9.756607686047698
 40
9.831130315322504
 40
9.893568193899968
 40
9.919751820398785
 40
9.950967964690609
 40
9.996421631210739
 40
10.22087981037458
 40
10.4434186619754
 40
10.47847970788852
 40
10.57091337438753
 40
10.70159545461227
 40
10.85140174170358
 40
11.00120802880475
 40
11.13189010907381
 40
11.22432377583009
 40
11.25938480938955
 40
11.28697175596143
 40
11.34766303835918
 40
11.40835432042068
 40
11.43594125892103
 40
11.43594125892103
 40
11.43594125892103
 40
11.43594125892103
 10
190.0818114333289
 20
15.55242795125082
 10
190.0702785844941
 20
15.5524279028792
 10
190.0283409444998
 20
15.55242773704169
 10
189.9434129719026
 20
15.55243125800914
 10
189.8207688553128
 20
15.55240926435883
 10
189.6791206916993
 20
15.55250801177059
 10
189.537975369849
 20
15.55214686232426
 10
189.4141351317904
 20
15.55321883609093
 10
189.3317217825382
 20
15.55092249091274
 10
189.1727791229692
 20
15.56048569373425
 10
189.3503402353376
 20
15.19785394311374
 10
189.3379739205452
 20
14.95243127723117
 10
189.4064519473864
 20
14.66862501324836
 10
189.469302432097
 20
14.43250999939036
 10
189.5452253431728
 20
14.23326740396128
 10
189.6303189577016
 20
14.07745347451371
 10
189.7244607592935
 20
13.9765785778139
 10
189.8282648207727
 20
13.92465852638961
 10
189.9125872030774
 20
13.97606484379614
 10
189.9351322179452
 20
14.09144544037515
 10
189.9745730975371
 20
14.21885149702379
 10
189.9202919734943
 20
14.53622328086757
 10
190.0451218072473
 20
14.38982180140907
 10
190.2019291513603
 20
14.35795300331172
 10
190.0947720007057
 20
14.1242135776763
 10
190.0808711209867
 20
13.95972776583659
 10
190.0234709467225
 20
13.83130869122487
 10
189.9335020145008
 20
13.76018802352831
 10
189.8095274657877
 20
13.74432324142259
 10
189.663427319686
 20
13.77993797554176
 10
189.5243894320284
 20
13.90000570500283
 10
189.4102003962144
 20
14.07435682550325
 10
189.3146141301485
 20
14.29946603111246
 10
189.2318652572627
 20
14.56388246006449
 10
189.1807179256412
 20
14.88187933098549
 10
189.0770189207337
 20
15.15543728488917
 10
189.2042841208522
 20
15.56005818612874
 10
189.0357890623018
 20
15.55112367849683
 10
188.9511995787077
 20
15.55315961418368
 10
188.8189876387627
 20
15.55213937388411
 10
188.6560505094104
 20
15.55253230318434
 10
188.4733759170532
 20
15.55235696313374
 10
188.2847057373383
 20
15.55260105307473
 10
188.1014469020189
 20
15.55185657906241
 10
187.9404746832718
 20
15.55416360522431
 10
187.8029808335276
 20
15.54799804883667
 10
187.7289590372311
 20
15.56032838458216
 10
187.6613215186856
 20
15.54329323723561
 10
187.6732373719269
 20
15.59524438447533
 10
187.6655677285694
 20
15.64071424966534
 10
187.6732592225115
 20
15.68614453703711
 10
187.6613141797761
 20
15.73802395984575
 10
187.7283588305867
 20
15.72119143490269
 10
187.8017375665676
 20
15.73335409092676
 10
187.9379128305272
 20
15.72727231074964
 10
188.0973811801512
 20
15.72954834315063
 10
188.2789173085836
 20
15.72881233998967
 10
188.4658034862179
 20
15.72905954196138
 10
188.6468012316836
 20
15.72886400799258
 10
188.8080802578878
 20
15.72932234714844
 10
188.9393882124887
 20
15.72812673751211
 10
189.0225051322596
 20
15.73051347319748
 10
189.1556236547814
 20
15.72230605725469
 10
189.0645893502658
 20
15.97752868952656
 10
188.978963307442
 20
16.24164358328245
 10
189.0990589003455
 20
16.22904442969163
 10
189.1514264948544
 20
16.22694235763074
 10
189.2214497569715
 20
16.22535399889655
 10
189.2671922337817
 20
16.21602567538113
 10
189.3220812646933
 20
16.22545966915426
 10
189.296357478568
 20
16.17733028655174
 10
189.1825397571453
 20
16.18266829744152
 10
189.3159346621136
 20
15.95449174576782
 10
189.1943658735471
 20
15.72156856595927
 10
189.3223188769413
 20
15.73087258884444
 10
189.404904840646
 20
15.72801001754685
 10
189.5307214850824
 20
15.72923437412307
 10
189.6741469838057
 20
15.7293243188897
 10
189.8157420951728
 20
15.72746163183858
 10
189.9459127249967
 20
15.73333075937168
 10
190.0193452286191
 20
15.72070340823208
 10
190.0891112922096
 20
15.73877563110418
 10
190.0775772605396
 20
15.68612850546331
 10
190.0833184346681
 20
15.64221317686552
 10
190.0816615770911
 20
15.59089982676554
 10
190.081775756167
 20
15.56158792021639
 10
190.0818114333289
 20
15.55242795125082
 97
        1
330
B4
 75
     1
 76
     2
 52
45.0
 41
0.1
 77
     0
 78
     1
 53
45.0
 43
0.0
 44
0.0
 45
-0.282842712474619
 46
0.0
 79
     0
 98
        1
 10
0.0
 20
0.0
  0
HATCH
  5
D2
330
4B
100
AcDbEntity
  8
1
  6
Continuous
 62
     2
100
AcDbHatch
 10
0.0
 20
0.0
 30
0.0
210
0.0
220
0.0
230
1.0
  2
CUSTOM9
 70
     0
 71
     1
 91
        1
 92
        1
 93
        1
 72
     4
 94
        3
 73
     0
 74
     0
 95
      118
 96
      114
 40
0.0
 40
0.0
 40
0.0
 40
0.0
 40
0.1054708162973279
 40
0.2466098270051836
 40
0.3965912874591082
 40
0.5285525069754073
 40
0.6156245055642503
 40
0.6431434105797788
 40
0.7036850037986392
 40
0.7642265984504704
 40
0.7917455052354979
 40
0.9287404319989968
 40
1.106572819088033
 40
1.287544879681006
 40
1.317578308030523
 40
1.399928030857163
 40
1.522968204799941
 40
1.675072986590566
 40
1.844616533180648
 40
2.019973001638714
 40
2.189516548880032
 40
2.341621331585372
 40
2.464661506320512
 40
2.547011229647079
 40
2.577044658168044
 40
2.603797890893114
 40
2.662655002908801
 40
2.721512114949613
 40
2.748265347702793
 40
2.774215307344869
 40
2.845959313407199
 40
2.9543385565884
 40
3.090194227585579
 40
3.244367517100544
 40
3.407699615844304
 40
3.571031714539453
 40
3.725205003920133
 40
3.861060674729634
 40
3.969439917716327
 40
4.041183923629001
 40
4.067133883212994
 40
4.311886746012165
 40
4.547897258335525
 40
4.764747083043972
 40
4.952749679951789
 40
5.045772974195901
 40
5.137862019644999
 40
5.330543169793058
 40
5.553448265244039
 40
5.795083855888178
 40
6.043293412177223
 40
6.28576169554117
 40
6.313902908752654
 40
6.384255941793244
 40
6.475714884766832
 40
6.567173827758895
 40
6.637526860839673
 40
6.665668074074036
 40
6.692018920328023
 40
6.749990782071116
 40
6.807962643790507
 40
6.834313490017992
 40
6.856393084245271
 40
6.913335195649895
 40
6.991194817302558
 40
7.07602694228382
 40
7.15388656372531
 40
7.210828674844892
 40
7.232908268931228
 40
7.258199334923749
 40
7.3248757815924
 40
7.419142481925061
 40
7.527204308842006
 40
7.635266135230587
 40
7.729532834168577
 40
7.796209279292896
 40
7.821500344594845
 40
7.844652988850916
 40
7.899863140541695
 40
7.965759128053861
 40
8.020969279771146
 40
8.044121924046612
 40
8.069356610160726
 40
8.109134395441485
 40
8.1322381001912
 40
8.193147867786566
 40
8.279261678876741
 40
8.377977512673963
 40
8.476693347146751
 40
8.56280716041181
 40
8.623716930826598
 40
8.646820636853553
 40
8.671988793774366
 40
8.734909185828277
 40
8.816705695188991
 40
8.898502204815562
 40
8.961422597378023
 40
8.986590754551136
 40
9.012941600733303
 40
9.07091346238041
 40
9.12888532408193
 40
9.155236170325262
 40
9.180404327929304
 40
9.243324721948378
 40
9.32512123421217
 40
9.406917746637825
 40
9.46983814197828
 40
9.495006288271055
 40
9.517811184379186
 40
9.572192090487158
 40
9.637098333281356
 40
9.691479239515528
 40
9.714284125643555
 40
9.714284125643555
 40
9.714284125643555
 40
9.714284125643555
 10
185.2874469028653
 20
15.26889163187724
 10
185.3090990569037
 20
15.24111869242816
 10
185.3597257109474
 20
15.17618054561239
 10
185.4349383202591
 20
15.06891060312902
 10
185.5248482274345
 20
14.95377438266626
 10
185.5709169676673
 20
14.85357045748321
 10
185.6655825294654
 20
14.78434006814944
 10
185.6204439320413
 20
14.73771639678276
 10
185.594704778579
 20
14.69660308866041
 10
185.5645196708011
 20
14.66065971727943
 10
185.5193684730562
 20
14.58579782596098
 10
185.4710504458561
 20
14.80782524253604
 10
185.3968539713072
 20
14.84510677337708
 10
185.2836047324607
 20
15.11610202130601
 10
185.2885133578169
 20
15.00095328446228
 10
185.2868486556306
 20
14.92836675781627
 10
185.2876830076713
 20
14.80625588483985
 10
185.2873609540265
 20
14.6591380081046
 10
185.2875076912455
 20
14.49307063956555
 10
185.2872950092722
 20
14.321875546086
 10
185.2879497252034
 20
14.15552828635496
 10
185.2859192461139
 20
14.00935173055691
 10
185.291346039993
 20
13.88471047474608
 10
185.2804930868707
 20
13.81718656540624
 10
185.2956739155555
 20
13.75549061417019
 10
185.2457895108133
 20
13.76727503896998
 10
185.2017150342522
 20
13.75943822779966
 10
185.15823716302
 20
13.767604413727
 10
185.1092346786489
 20
13.75538056738465
 10
185.1218731234825
 20
13.8096066724931
 10
185.113018296845
 20
13.86936918907554
 10
185.1175058770314
 20
13.97922029044368
 10
185.115796013599
 20
14.11029975405676
 10
185.1163550915987
 20
14.26198011444325
 10
185.1161928768694
 20
14.42211074929951
 10
185.1162269924674
 20
14.58236865674564
 10
185.1162514960128
 20
14.73370247520437
 10
185.1161453543224
 20
14.86582156338599
 10
185.1164299141932
 20
14.97294802533192
 10
185.1158675547567
 20
15.03808619579471
 10
185.1180765083689
 20
15.16618957858673
 10
185.0319435998602
 20
14.79097610391574
 10
184.95551408185
 20
14.63918193123395
 10
184.8660040767833
 20
14.47766206446305
 10
184.7640413217326
 20
14.2047184882017
 10
184.7187976491039
 20
14.36717346596508
 10
184.610235594167
 20
14.45605432058119
 10
184.7995791751752
 20
14.60549794961407
 10
184.8565340545701
 20
14.79749136974923
 10
184.9717520993352
 20
15.02899622906753
 10
184.9940151630132
 20
15.21797259759058
 10
185.177190515214
 20
15.49454089325924
 10
185.0538033597552
 20
15.48698978832088
 10
184.9925684166834
 20
15.48856772366112
 10
184.9081999617064
 20
15.48882592573666
 10
184.8204235085966
 20
15.485448457512
 10
184.7656768696122
 20
15.49394814982014
 10
184.7104703026024
 20
15.48048561049782
 10
184.7222823035536
 20
15.52931442126759
 10
184.7142496151793
 20
15.57269004896706
 10
184.7228186104679
 20
15.61509438309572
 10
184.7102943409157
 20
15.66267796552119
 10
184.7555101538735
 20
15.65267212995111
 10
184.8014815562724
 20
15.65894105174062
 10
184.8777222047709
 20
15.65593561405873
 10
184.9561296131994
 20
15.65770448278542
 10
185.0323992648932
 20
15.6546479398166
 10
185.0783009459475
 20
15.66103971376179
 10
185.12317339654
 20
15.65093822978897
 10
185.1105552275634
 20
15.701572015819
 10
185.1191936582707
 20
15.75501261882071
 10
185.1152361595442
 20
15.84863255131682
 10
185.1162325068335
 20
15.95112606688926
 10
185.1171927413073
 20
16.05353270248166
 10
185.1133211458004
 20
16.14735929609323
 10
185.1217789814365
 20
16.20036542840356
 10
185.1093075932835
 20
16.2521143565119
 10
185.154210638985
 20
16.2385074722676
 10
185.1955083836772
 20
16.24100480320589
 10
185.2595344281051
 20
16.23648060574491
 10
185.2986111148785
 20
16.22781003043311
 10
185.3476543498742
 20
16.2351510207069
 10
185.322508003059
 20
16.19602896051757
 10
185.2815901333723
 20
16.20563842455812
 10
185.2910109616604
 20
16.15540148169782
 10
185.2855647318746
 20
16.10385945639494
 10
185.2881699601803
 20
16.01959707584523
 10
185.2870102202153
 20
15.9255913558341
 10
185.2883591064231
 20
15.83196865395528
 10
185.2849970101509
 20
15.74679517552224
 10
185.2920959917768
 20
15.69716856072045
 10
185.2812569154546
 20
15.6499369496999
 10
185.3304010225245
 20
15.66201674936853
 10
185.3794877630147
 20
15.65447393363013
 10
185.4573714280641
 20
15.65686070361433
 10
185.5350365172896
 20
15.65899381905415
 10
185.5845393931355
 20
15.65193391922456
 10
185.6344594750639
 20
15.66360151936214
 10
185.622319851688
 20
15.61540235371392
 10
185.6305838229143
 20
15.57249219801232
 10
185.6223198650783
 20
15.52958201851381
 10
185.6344594549855
 20
15.48138288754858
 10
185.5845395158746
 20
15.49305034471504
 10
185.5350350651202
 20
15.48599202435039
 10
185.4573784382973
 20
15.48811665228597
 10
185.379464386576
 20
15.49053389365754
 10
185.3304500352716
 20
15.48291848194479
 10
185.2813246108943
 20
15.49507952557586
 10
185.2915559988571
 20
15.45073013424154
 10
185.2856677678054
 20
15.4092543620291
 10
185.2878788305568
 20
15.34915394315303
 10
185.2874109346147
 20
15.30225782762892
 10
185.2874386992913
 20
15.276501464182
 10
185.2874469028653
 20
15.26889163187724
 97
        1
330
B5
 75
     1
 76
     2
 52
45.0
 41
0.1
 77
     0
 78
     1
 53
45.0
 43
0.0
 44
0.0
 45
-0.282842712474619
 46
0.0
 79
     0
 98
        1
 10
0.0
 20
0.0
  0
HATCH
  5
D3
330
4B
100
AcDbEntity
  8
1
  6
Continuous
 62
     2
100
AcDbHatch
 10
0.0
 20
0.0
 30
0.0
210
0.0
220
0.0
230
1.0
  2
CUSTOM10
 70
     0
 71
     1
 91
        1
 92
        1
 93
        1
 72
     4
 94
        3
 73
     0
 74
     0
 95
       47
 96
       43
 40
0.0
 40
0.0
 40
0.0
 40
0.0
 40
0.2207912809957444
 40
0.4459404186303841
 40
0.4902387190459535
 40
0.5327473892722981
 40
0.5742260451226353
 40
0.6155432630561647
 40
0.6568164066316566
 40
0.6982511618781537
 40
0.7407663929317976
 40
0.7851366743176078
 40
1.010288833836464
 40
1.231080507002337
 40
1.451765243652585
 40
1.676638205891771
 40
1.720461045359742
 40
1.830018144043604
 40
1.972442372353228
 40
2.114866600677593
 40
2.224423699395214
 40
2.268246538883452
 40
2.493628801207349
 40
2.715602830286722
 40
2.934211330706496
 40
3.14950236985545
 40
3.231387784851091
 40
3.318231873854127
 40
3.405143198198115
 40
3.486970301720548
 40
3.70225817249395
 40
3.920866283534201
 40
4.142839325931965
 40
4.368221903865493
 40
4.412044743359973
 40
4.521601842095981
 40
4.664026070452458
 40
4.80645029880916
 40
4.916007397546851
 40
4.959830237043173
 40
5.184703515847106
 40
5.405387250767501
 40
5.405387250767501
 40
5.405387250767501
 40
5.405387250767501
 10
182.6507427258645
 20
15.73406440953869
 10
182.6568139420002
 20
15.79758482501206
 10
182.6690762107243
 20
15.92587938689621
 10
182.5604706879411
 20
16.20166220174092
 10
182.6761985896604
 20
16.17188133432051
 10
182.7171842509016
 20
16.16765556262833
 10
182.7591205797518
 20
16.16310446389607
 10
182.800419662571
 20
16.16201982929488
 10
182.8417032115555
 20
16.16310338195227
 10
182.8836148270647
 20
16.16766112711355
 10
182.9245983549019
 20
16.17187430209727
 10
183.0404922843489
 20
16.20177611317549
 10
182.9295652727456
 20
15.92339806609885
 10
182.9574856365267
 20
15.74283140824951
 10
182.9404267346969
 20
15.5096104234647
 10
182.9414637282102
 20
15.34906622543147
 10
182.9414099399405
 20
15.22284817558726
 10
182.941427737248
 20
15.12428963336247
 10
182.941418858108
 20
14.99280702442968
 10
182.9414263928034
 20
14.86132844968656
 10
182.9414129405128
 20
14.76276222694097
 10
182.9414531717492
 20
14.63639735624156
 10
182.9406746403817
 20
14.47482068822874
 10
182.9565958319266
 20
14.24361821892916
 10
182.9333468885407
 20
14.05874351972002
 10
183.0360183444366
 20
13.78935602770066
 10
182.8820238362836
 20
13.82660112685814
 10
182.8004129802832
 20
13.82137994680534
 10
182.7188192292583
 20
13.82660620378348
 10
182.5648513666843
 20
13.78937069885397
 10
182.6674183421917
 20
14.05875129862881
 10
182.6442045316088
 20
14.24361585325416
 10
182.6600444655138
 20
14.47482218565641
 10
182.6593296313427
 20
14.63639712308508
 10
182.6593664569907
 20
14.76276231210527
 10
182.659354900027
 20
14.86132756635988
 10
182.6593575019214
 20
14.99281127417225
 10
182.6593648531778
 20
15.12427548031205
 10
182.6593442541351
 20
15.22287786275331
 10
182.6594082192028
 20
15.34896149354428
 10
182.6581733947591
 20
15.5121009138377
 10
182.6532040396745
 20
15.66054183777546
 10
182.6507427258645
 20
15.73406440953869
 97
        1
330
B6
 75
     1
 76
     2
 52
45.0
 41
0.1
 77
     0
 78
     1
 53
45.0
 43
0.0
 44
0.0
 45
-0.282842712474619
 46
0.0
 79
     0
 98
        1
 10
0.0
 20
0.0
  0
HATCH
  5
D4
330
4B
100
AcDbEntity
  8
1
  6
Continuous
 62
     2
100
AcDbHatch
 10
0.0
 20
0.0
 30
0.0
210
0.0
220
0.0
230
1.0
  2
CUSTOM11
 70
     0
 71
     1
 91
        1
 92
        1
 93
        1
 72
     4
 94
        3
 73
     0
 74
     0
 95
      110
 96
      106
 40
0.0
 40
0.0
 40
0.0
 40
0.0
 40
0.2203406257278021
 40
0.4407808782838393
 40
0.5952494494615382
 40
0.7488431659393368
 40
0.9023581831309364
 40
1.056801968670435
 40
1.210736449099935
 40
1.363041386539815
 40
1.515315729683156
 40
1.669377239148108
 40
1.721611652756645
 40
1.773199502943065
 40
1.824933793210071
 40
1.877110426488129
 40
1.982682281206952
 40
2.078781667087707
 40
2.172809640822484
 40
2.271937807379081
 40
2.378349933379475
 40
2.494131557736659
 40
2.626681683943795
 40
2.783145050796222
 40
2.890701232941072
 40
2.99313031245503
 40
3.099869730691958
 40
3.220237816691411
 40
3.35269548273773
 40
3.481732806389911
 40
3.593499473690517
 40
3.674323013332077
 40
3.817951711953027
 40
3.946167120794025
 40
4.06140505345371
 40
4.166480796003349
 40
4.262478775059387
 40
4.350736673551347
 40
4.433071991254232
 40
4.511216293814828
 40
4.564262454118113
 40
4.61847441557181
 40
4.670128488754283
 40
4.722296879126502
 40
4.819540945314372
 40
4.931194984128227
 40
5.049996040257868
 40
5.168643755415415
 40
5.283970811762627
 40
5.392260784910452
 40
5.486512254876527
 40
5.559178233949926
 40
5.591425852853572
 40
5.626215969638071
 40
5.667155838674567
 40
5.717449290214355
 40
5.738402360944964
 40
5.784499116553923
 40
5.830595872164889
 40
5.851548942897742
 40
5.873019280661858
 40
5.924217778408409
 40
5.985325662817792
 40
6.036524160567812
 40
6.057994498334343
 40
6.236847789607583
 40
6.381409928945757
 40
6.493190424178793
 40
6.574067534230606
 40
6.6910180862057
 40
6.814881554220618
 40
6.94430782324057
 40
7.071266716066194
 40
7.193488604462038
 40
7.309042773128267
 40
7.414007203170889
 40
7.505140441886646
 40
7.531150360599789
 40
7.5592216453224
 40
7.58720221892102
 40
7.61256915949924
 40
7.662550809481089
 40
7.702878875764209
 40
7.857328205231021
 40
8.010799568088666
 40
8.165256399657617
 40
8.322232698713956
 40
8.479564855016642
 40
8.635216230290846
 40
8.790882550925764
 40
8.948305154947327
 40
9.168271839033025
 40
9.38735898098726
 40
9.608047961033469
 40
9.832914234792753
 40
9.858338694963084
 40
9.925366817230085
 40
10.02013071422766
 40
10.12876249859003
 40
10.23739428295252
 40
10.33215817995193
 40
10.39918630222395
 40
10.42461076239784
 40
10.64992019336943
 40
10.8718852453119
 40
10.8718852453119
 40
10.8718852453119
 40
10.8718852453119
 10
179.9057788376618
 20
15.73923260398192
 10
179.9092864933542
 20
15.80616462073807
 10
179.9163033987662
 20
15.94005891915861
 10
179.8198027599073
 20
16.22548554971478
 10
180.0510134726108
 20
16.16284386190282
 10
180.1919290057156
 20
16.17001554056003
 10
180.3490417757588
 20
16.16235883078244
 10
180.5025913427287
 20
16.16252752283043
 10
180.6545104935081
 20
16.16182040535432
 10
180.8142214813231
 20
16.17210158351651
 10
180.9408972601117
 20
16.15496511080749
 10
181.137082112208
 20
16.22727260107151
 10
181.1034395279079
 20
16.12640699080118
 10
181.1052011317182
 20
16.0761925394767
 10
181.1027342073457
 20
16.02712335586463
 10
181.1347076966012
 20
15.94063490846992
 10
181.0010399903255
 20
15.98997438608333
 10
180.9172208688057
 20
15.98430634314173
 10
180.8173861139323
 20
15.994655167063
 10
180.7186576720146
 20
16.00086450411088
 10
180.612153277111
 20
16.00697763816784
 10
180.4910511698059
 20
16.01588883484575
 10
180.3703381502453
 20
16.00521605912387
 10
180.1812553843437
 20
16.06468503080366
 10
180.2129028505311
 20
15.90558320077538
 10
180.1995563316833
 20
15.80839128339903
 10
180.197495842645
 20
15.69634065110102
 10
180.1958188044671
 20
15.57699685629352
 10
180.1973336794232
 20
15.45032592155114
 10
180.195658247867
 20
15.3230158801612
 10
180.2058844271657
 20
15.22451566404466
 10
180.1779006596582
 20
15.08388702625626
 10
180.3508029999305
 20
15.13989551134091
 10
180.4645020202772
 20
15.12719951478502
 10
180.5840151672239
 20
15.13448377051255
 10
180.6888491425072
 20
15.13878017056751
 10
180.7843084898611
 20
15.14330568258976
 10
180.8763823507032
 20
15.15149201146206
 10
180.9476551782439
 20
15.14643850638117
 10
181.0544931705685
 20
15.18536425031668
 10
181.0226603598036
 20
15.10517122005875
 10
181.026616450393
 20
15.05562936846032
 10
181.0234502392013
 20
15.00557478039818
 10
181.0550791490585
 20
14.92128847612024
 10
180.9210133677692
 20
14.9742536549516
 10
180.82923227932
 20
14.96540080890443
 10
180.7079729189603
 20
14.97570049965151
 10
180.5914113119771
 20
14.97748911767506
 10
180.4783375745878
 20
14.97787017109696
 10
180.3679246308471
 20
14.98415449472183
 10
180.289812406784
 20
14.97189133255363
 10
180.1913625833644
 20
15.00453887616127
 10
180.2012355173561
 20
14.94769748054204
 10
180.1973923244403
 20
14.91392130557981
 10
180.1966789884266
 20
14.87119604709406
 10
180.1963369642975
 20
14.83401607262151
 10
180.1963834255345
 20
14.7948723737077
 10
180.1963649429927
 20
14.75716849497685
 10
180.1963703431806
 20
14.71944955232403
 10
180.1963697214201
 20
14.6899432474515
 10
180.1963698151544
 20
14.65873577699302
 10
180.1963704287921
 20
14.61414424908085
 10
180.1963671499337
 20
14.55963956508851
 10
180.196375962348
 20
14.51505540201446
 10
180.1963359653418
 20
14.4311780858574
 10
180.1976024270255
 20
14.31737520677677
 10
180.1950274117842
 20
14.16830395933709
 10
180.2065009381719
 20
14.06597203813905
 10
180.1823506222263
 20
13.93338903885833
 10
180.3332993946476
 20
13.97895732272021
 10
180.4428436671556
 20
13.96427012162348
 10
180.573397047392
 20
13.96920435125064
 10
180.6990312209513
 20
13.9725770532336
 10
180.8188730625601
 20
13.97711497498771
 10
180.9391362611426
 20
13.9904853618201
 10
181.0222761663514
 20
13.98068712782592
 10
181.1456080421075
 20
14.04126214623319
 10
181.1244269203956
 20
13.9853246013402
 10
181.1235950270116
 20
13.95939249372346
 10
181.1218963707558
 20
13.93197256190939
 10
181.1217974888829
 20
13.89738195206387
 10
181.120365930133
 20
13.86050408220771
 10
181.153280419219
 20
13.76846841021812
 10
180.9551306988107
 20
13.84132015974829
 10
180.8300548294891
 20
13.81825726508605
 10
180.6673071295155
 20
13.82454021985784
 10
180.5129366450001
 20
13.82260943909925
 10
180.3566670436943
 20
13.82393762599266
 10
180.1970544465281
 20
13.82059872487861
 10
180.0540326342237
 20
13.83265795728238
 10
179.8197144881628
 20
13.76952001976926
 10
179.9173810751197
 20
14.05620527466321
 10
179.9006868780058
 20
14.24988308142663
 10
179.9146296709685
 20
14.47848242880297
 10
179.9142987846632
 20
14.63384593955052
 10
179.9143078119264
 20
14.73966336444133
 10
179.9143055876315
 20
14.8020578412422
 10
179.9143065551889
 20
14.89220425248332
 10
179.9143065473261
 20
14.99621167157441
 10
179.9143053861102
 20
15.10022131375298
 10
179.9143090971502
 20
15.19036243688769
 10
179.9143011051051
 20
15.25276803097215
 10
179.9143334275018
 20
15.35868835961119
 10
179.9131440788318
 20
15.5162671654474
 10
179.9082216489256
 20
15.66528219822066
 10
179.9057788376618
 20
15.73923260398192
 97
        1
330
B7
 75
     1
 76
     2
 52
45.0
 41
0.1
 77
     0
 78
     1
 53
45.0
 43
0.0
 44
0.0
 45
-0.282842712474619
 46
0.0
 79
     0
 98
        1
 10
0.0
 20
0.0
  0
HATCH
  5
D5
330
4B
100
AcDbEntity
  8
1
  6
Continuous
 62
     2
100
AcDbHatch
 10
0.0
 20
0.0
 30
0.0
210
0.0
220
0.0
230
1.0
  2
CUSTOM12
 70
     0
 71
     1
 91
        1
 92
        1
 93
        1
 72
     4
 94
        3
 73
     0
 74
     0
 95
       95
 96
       91
 40
0.0
 40
0.0
 40
0.0
 40
0.0
 40
0.6550406656911599
 40
1.308087289031976
 40
1.420803739835869
 40
1.566130759770866
 40
1.757067341888528
 40
2.006513545026618
 40
2.087328263121591
 40
2.185328872295678
 40
2.294612454748452
 40
2.408936380534871
 40
2.526802767798625
 40
2.646360524615657
 40
2.762535723971649
 40
2.870057342870208
 40
2.966883448431758
 40
3.050803243518377
 40
3.11581822243672
 40
3.156030057150275
 40
3.213914225080172
 40
3.276689026450572
 40
3.342960320981349
 40
3.404230667150594
 40
3.453822809493374
 40
3.532499827188351
 40
3.63477518850715
 40
3.754909333008154
 40
3.889736761660663
 40
4.03576960217518
 40
4.187256681197563
 40
4.338733685675911
 40
4.488478734676106
 40
4.63470831783155
 40
4.771493189921226
 40
4.892686571561172
 40
5.199775528944417
 40
5.460353566929689
 40
5.667603142345508
 40
5.814722905404445
 40
5.828990806219744
 40
5.855488336304441
 40
5.869756237118772
 40
6.18979650776276
 40
6.531890469872935
 40
6.883053637016922
 40
7.230512024911385
 40
7.566966656764466
 40
7.88520355970729
 40
8.17288743971913
 40
8.418011594062696
 40
8.443926721190618
 40
8.510760470613109
 40
8.602145393795622
 40
8.701714041647067
 40
8.793098965075304
 40
8.859932715057878
 40
8.885847842603528
 40
9.242301256612748
 40
9.589275455016747
 40
9.921808543164111
 40
10.23479624298464
 40
10.29968150889175
 40
10.35323493887763
 40
10.40154625355148
 40
10.46482922477824
 40
10.55973900668412
 40
10.69239545985624
 40
10.84920353475676
 40
11.01626328594786
 40
11.18672024367446
 40
11.35372582577215
 40
11.50257442292428
 40
11.61866495023294
 40
11.71329869152876
 40
11.8251105057391
 40
11.9446488084572
 40
12.06929242642509
 40
12.19707290435182
 40
12.32562632860534
 40
12.45034565331287
 40
12.56646595170329
 40
12.67099007414635
 40
12.76077625936789
 40
12.82703233506702
 40
12.87429132785999
 40
12.89831990323338
 40
12.92234847860027
 40
13.53984767410328
 40
14.18294284359371
 40
14.18294284359371
 40
14.18294284359371
 40
14.18294284359371
 10
177.3067935648021
 20
14.70898038201722
 10
177.1752019758551
 20
14.82265058603229
 10
176.9124193802728
 20
15.04964496316156
 10
176.3997393441019
 20
15.89214462956291
 10
176.4106654595363
 20
15.53423377577021
 10
176.4041226527991
 20
15.39267392272133
 10
176.4028026631773
 20
15.19421305299279
 10
176.4018117602538
 20
15.02150296045981
 10
176.4024101751974
 20
14.87865373257579
 10
176.4038994301882
 20
14.7826500541336
 10
176.4055683588472
 20
14.67545503263142
 10
176.4071934954618
 20
14.56164211517583
 10
176.4092429501685
 20
14.44441572604591
 10
176.4123165501926
 20
14.32656411232972
 10
176.4156339697043
 20
14.21228087320623
 10
176.4193605340279
 20
14.10521401867276
 10
176.4217338161424
 20
14.01007408766921
 10
176.4278718888357
 20
13.92558557205693
 10
176.4239784495947
 20
13.86923087298141
 10
176.4455230443077
 20
13.79825022472362
 10
176.3680940058617
 20
13.8290267760448
 10
176.3116353240191
 20
13.82011242517614
 10
176.2540495896807
 20
13.82896218398272
 10
176.1690163478472
 20
13.79738225225951
 10
176.2009714146382
 20
13.88095155992189
 10
176.1990705282539
 20
13.94882608968308
 10
176.21079600473
 20
14.05233256764417
 10
176.2164241053
 20
14.17002125616696
 10
176.223790217894
 20
14.30388609164423
 10
176.2320759701611
 20
14.4476415287263
 10
176.2398851897426
 20
14.59714022843442
 10
176.2457571222658
 20
14.74792549402076
 10
176.2503667817968
 20
14.89699943878436
 10
176.2542632117542
 20
15.0412291316302
 10
176.2570715126563
 20
15.17583905213015
 10
176.2576698755021
 20
15.36469614347352
 10
176.261602386715
 20
15.58975494313155
 10
176.2442175378498
 20
15.8636709112571
 10
176.2850417342583
 20
16.02787112098599
 10
176.1995153256001
 20
16.22749661465094
 10
176.2660558907688
 20
16.22385458403975
 10
176.283872427323
 20
16.22413447160851
 10
176.4056801797502
 20
16.22632927398609
 10
176.5080770335462
 20
15.94675118721515
 10
176.7580021509356
 20
15.74563008536003
 10
176.9870035331111
 20
15.47792614987918
 10
177.2245151213108
 20
15.2264641386238
 10
177.4486090740771
 20
14.9896997406136
 10
177.6750716283009
 20
14.73218692583087
 10
177.8325687886514
 20
14.61649335056923
 10
178.0472129612674
 20
14.27997152538794
 10
178.0422645974618
 20
14.40464754091603
 10
178.0433931602545
 20
14.46327691935737
 10
178.0428877841517
 20
14.55043662371978
 10
178.0430475158113
 20
14.64416143182873
 10
178.0430054891318
 20
14.73018971297036
 10
178.0430202040372
 20
14.79153891945497
 10
178.0429706255986
 20
14.94135231520995
 10
178.0458811522809
 20
15.17989612510108
 10
178.0259521041162
 20
15.54486509868706
 10
178.0750433936247
 20
15.80799631993415
 10
177.9177951509179
 20
16.21928904947763
 10
178.0762112872421
 20
16.16398282551749
 10
178.1311680478628
 20
16.16199686500178
 10
178.182788776674
 20
16.16264778248253
 10
178.2713198965365
 20
16.20369527738253
 10
178.2204898303169
 20
16.05696326622986
 10
178.2313389930283
 20
15.95019971954432
 10
178.2166036994847
 20
15.79085705414111
 10
178.2099976446204
 20
15.62853061652874
 10
178.2014961399914
 20
15.45992521892395
 10
178.1943227202199
 20
15.29814814703542
 10
178.1889063215389
 20
15.15422331457934
 10
178.1871713967648
 20
15.03437493466928
 10
178.1875440672318
 20
14.92686101590517
 10
178.1873656126263
 20
14.81820024645588
 10
178.1877010863139
 20
14.69953570165532
 10
178.1890040622184
 20
14.57555163512742
 10
178.1908887351574
 20
14.44858294171105
 10
178.192500445485
 20
14.32153861551031
 10
178.1941403137429
 20
14.19854884492177
 10
178.1962570745752
 20
14.08300931383761
 10
178.1963848422363
 20
13.98090903955839
 10
178.2006514396554
 20
13.89009848838157
 10
178.1908440085289
 20
13.83213621208785
 10
178.211847477169
 20
13.76517130132028
 10
178.1725639739896
 20
13.77291153966687
 10
177.9595307117749
 20
13.75755254145192
 10
177.7636297943185
 20
14.3140305809447
 10
177.4611197631544
 20
14.57556035348509
 10
177.3067935648021
 20
14.70898038201722
 97
        1
330
B8
 75
     1
 76
     2
 52
45.0
 41
0.1
 77
     0
 78
     1
 53
45.0
 43
0.0
 44
0.0
 45
-0.282842712474619
 46
0.0
 79
     0
 98
        1
 10
0.0
 20
0.0
  0
HATCH
  5
D6
330
4B
100
AcDbEntity
  8
1
  6
Continuous
 62
     2
100
AcDbHatch
 10
0.0
 20
0.0
 30
0.0
210
0.0
220
0.0
230
1.0
  2
CUSTOM13
 70
     0
 71
     1
 91
        2
 92
        1
 93
        1
 72
     4
 94
        3
 73
     0
 74
     0
 95
       57
 96
       53
 40
0.0
 40
0.0
 40
0.0
 40
0.0
 40
0.047163208280917
 40
0.0914861054632088
 40
0.1357762519702324
 40
0.1826527001610619
 40
0.2295203288572527
 40
0.2737751972220697
 40
0.3181310461543005
 40
0.3652607198398384
 40
0.4571007286313714
 40
0.5671851029164692
 40
0.6894623283867861
 40
0.8181758272545646
 40
0.9510087229273521
 40
1.085852229674052
 40
1.21812616447524
 40
1.343545131142362
 40
1.454537202956777
 40
1.567187607530786
 40
1.680710966642405
 40
1.794226869736769
 40
1.900009184247568
 40
2.004085860447848
 40
2.108162674451736
 40
2.214000150155279
 40
2.496038577352135
 40
2.762350745479282
 40
2.997275353279405
 40
3.1851100821377
 40
3.246407890063951
 40
3.312607550212653
 40
3.378877742711555
 40
3.440140399651404
 40
4.100501696006391
 40
4.754913085563381
 40
5.411331693423833
 40
6.077890432568596
 40
6.110575292670875
 40
6.143260152775655
 40
6.367989363395044
 40
6.610525374951399
 40
6.863389136467164
 40
7.119380025547408
 40
7.376036605090942
 40
7.631164770966121
 40
7.876722425456269
 40
8.104953735855808
 40
8.31291668592414
 40
8.497730294941233
 40
8.651018984313717
 40
8.76473885362441
 40
8.76473885362441
 40
8.76473885362441
 40
8.76473885362441
 10
174.7922649500513
 20
13.81626739612932
 10
174.7766616726931
 20
13.8182623107908
 10
174.7463947960302
 20
13.82213201360297
 10
174.7010994202253
 20
13.82341984967267
 10
174.6559553129349
 20
13.8230868355405
 10
174.6099017123399
 20
13.82314658674223
 10
174.5640496172096
 20
13.82325813649999
 10
174.5183711648165
 20
13.8227783345659
 10
174.4750811541609
 20
13.82461109618719
 10
174.4039947951513
 20
13.80049556814666
 10
174.4057477261441
 20
13.9218469397725
 10
174.358619637057
 20
14.00726239751234
 10
174.3191478251761
 20
14.12486929345136
 10
174.2706635532645
 20
14.24232752540441
 10
174.2201017402522
 20
14.36405935761512
 10
174.1718634610477
 20
14.49075967862469
 10
174.1135232947594
 20
14.59933687784953
 10
174.0980892667261
 20
14.75620657134415
 10
173.9566586330635
 20
14.72373446548321
 10
173.8508397414904
 20
14.73512888682182
 10
173.7358569725222
 20
14.73392591514613
 10
173.6253142252141
 20
14.73506945347407
 10
173.5176583522783
 20
14.73418350037525
 10
173.4121322529242
 20
14.73416602390521
 10
173.3109192682012
 20
14.72714032472414
 10
173.1266804827754
 20
14.75135859859876
 10
173.1157393685411
 20
14.44741691121885
 10
173.008769163475
 20
14.223531772534
 10
172.9098148604347
 20
14.03895314292495
 10
172.9225090524007
 20
13.79530204804218
 10
172.8050091716397
 20
13.82508046753194
 10
172.742205586831
 20
13.82258089509603
 10
172.6785872093399
 20
13.82344075102802
 10
172.3946014194076
 20
13.78098039941977
 10
173.025163849938
 20
14.50081952444774
 10
173.1087645289072
 20
15.01276539435729
 10
173.4929252789339
 20
15.53353743550038
 10
173.4777208288565
 20
16.23519626253213
 10
173.7239265722697
 20
16.22345633081254
 10
173.8256346157561
 20
16.2322500445277
 10
173.8249752035818
 20
15.98059650730345
 10
173.9428317155828
 20
15.79818020733959
 10
174.0315515260485
 20
15.55563740662869
 10
174.1322292485259
 20
15.32340030530131
 10
174.2311142712243
 20
15.08674644566916
 10
174.3299676990669
 20
14.85461739170096
 10
174.4256166390926
 20
14.6312222278879
 10
174.5159904573271
 20
14.42272549049317
 10
174.598994456819
 20
14.23308448529321
 10
174.6726088582798
 20
14.06663106068096
 10
174.7342815895545
 20
13.92917699626097
 10
174.7749458885604
 20
13.84999239430037
 10
174.7922649500513
 20
13.81626739612932
 97
        1
330
BA
 92
       16
 93
        1
 72
     4
 94
        3
 73
     0
 74
     0
 95
       25
 96
       21
 40
0.0
 40
0.0
 40
0.0
 40
0.0
 40
0.091147996906596
 40
0.1858117896205802
 40
0.2804128399735623
 40
0.3715889190715642
 40
0.467908049421984
 40
0.564268380923036
 40
0.660568322264612
 40
0.7569653015811392
 40
0.8561348172523957
 40
1.092615965104417
 40
1.374867658142007
 40
1.611348812011734
 40
1.71051832842538
 40
1.809403163726705
 40
2.045205463294204
 40
2.326646917622233
 40
2.562449217190699
 40
2.661334043834015
 40
2.661334043834015
 40
2.661334043834015
 40
2.661334043834015
 10
173.2683700567198
 20
14.88614538197294
 10
173.2987525917922
 20
14.88598079714556
 10
173.3606895889111
 20
14.88564528689921
 10
173.4541356960329
 20
14.88269055452
 10
173.5475095236357
 20
14.87977752877154
 10
173.6417760753476
 20
14.87894201643417
 10
173.7354964790967
 20
14.8799664465805
 10
173.8352040303204
 20
14.87916977470971
 10
173.9188949546312
 20
14.88921410235218
 10
174.0637996315045
 20
14.86234617674168
 10
173.93961324448
 20
15.03665530280049
 10
173.8965867286282
 20
15.19651711006093
 10
173.7808922142209
 20
15.45518458550216
 10
173.7017565431255
 20
15.59231052861857
 10
173.6431576621815
 20
15.80937033134076
 10
173.5864803939436
 20
15.59266134213429
 10
173.5052809900476
 20
15.45327012438237
 10
173.4063701281488
 20
15.20406969370193
 10
173.3253625094257
 20
15.01925830226075
 10
173.2813683325837
 20
14.91650446856118
 10
173.2683700567198
 20
14.88614538197294
 97
        1
330
B9
 75
     1
 76
     2
 52
45.0
 41
0.1
 77
     0
 78
     1
 53
45.0
 43
0.0
 44
0.0
 45
-0.282842712474619
 46
0.0
 79
     0
 98
        1
 10
0.0
 20
0.0
  0
HATCH
  5
D7
330
4B
100
AcDbEntity
  8
1
  6
Continuous
 62
     2
100
AcDbHatch
 10
0.0
 20
0.0
 30
0.0
210
0.0
220
0.0
230
1.0
  2
CUSTOM14
 70
     0
 71
     1
 91
        1
 92
        1
 93
        1
 72
     4
 94
        3
 73
     0
 74
     0
 95
       99
 96
       95
 40
0.0
 40
0.0
 40
0.0
 40
0.0
 40
0.079641717227267
 40
0.1621768542355793
 40
0.2486489160957321
 40
0.3404969668524127
 40
0.4381912511164314
 40
0.5434463660244604
 40
0.651811519284693
 40
0.7530190937886482
 40
0.8492196919724762
 40
0.9419290312997999
 40
1.034249663569986
 40
1.129078600620127
 40
1.226697027573216
 40
1.327220425421673
 40
1.470572134937968
 40
1.595489863371185
 40
1.719934125348311
 40
1.850576620127321
 40
1.989059629987231
 40
2.134139054226859
 40
2.280698007207149
 40
2.424529739039415
 40
2.565929576985779
 40
2.708239260773492
 40
2.861717887443597
 40
3.045168540347295
 40
3.183798301138567
 40
3.314813961455412
 40
3.442083470447282
 40
3.569912708372908
 40
3.702177512509288
 40
3.842307559659385
 40
3.992872223245861
 40
4.156750662218277
 40
4.310981861107497
 40
4.445859909322557
 40
4.572393936131514
 40
4.701656719781908
 40
4.768279086008424
 40
4.835960697898434
 40
4.912788918729275
 40
5.006285208481441
 40
5.026909478751517
 40
5.047533749021082
 40
5.101808031471112
 40
5.162325165538425
 40
5.226919745995747
 40
5.29423180659661
 40
5.364544852554769
 40
5.438319055467801
 40
5.517877651324126
 40
5.607647714861437
 40
5.700449642544284
 40
5.788251142363988
 40
5.872714706039649
 40
5.955167292575166
 40
6.037192395190293
 40
6.120669181469035
 40
6.206848616686267
 40
6.296680855416701
 40
6.442558392872542
 40
6.568190371608222
 40
6.692904567360294
 40
6.824220446557096
 40
6.963121850329316
 40
7.107843738851099
 40
7.253431663907215
 40
7.395187468036632
 40
7.533140753237666
 40
7.670550457175166
 40
7.816236511769197
 40
7.987691657359107
 40
8.142277421969183
 40
8.293662615415032
 40
8.44296246087923
 40
8.591598316185333
 40
8.743678992361746
 40
8.90372532369912
 40
9.076307008890472
 40
9.26557860468053
 40
9.459203795360706
 40
9.617619810273498
 40
9.753609671361835
 40
9.874873300003975
 40
9.95452018497773
 40
10.02416413719238
 40
10.09769764405439
 40
10.18909955924969
 40
10.2097458642013
 40
10.23039218263376
 40
10.30057101881261
 40
10.37632012987545
 40
10.37632012987545
 40
10.37632012987545
 40
10.37632012987545
 10
170.1465954835851
 20
14.1379566321599
 10
170.1632217851219
 20
14.11720608845308
 10
170.1970784206577
 20
14.07495111711895
 10
170.2599822541036
 20
14.02029811392073
 10
170.3332500940393
 20
13.97299025121051
 10
170.4175969238636
 20
13.93527231437943
 10
170.5132240615459
 20
13.91040619731947
 10
170.6171853775346
 20
13.90309559345939
 10
170.7224020220405
 20
13.91142322794055
 10
170.8206626371333
 20
13.94149179651529
 10
170.9058986427548
 20
13.98848822971877
 10
170.9779220206103
 20
14.04952991250861
 10
171.0350917709096
 20
14.12412969578582
 10
171.076786874744
 20
14.21002464660174
 10
171.1026952846292
 20
14.30485850432212
 10
171.1118037332653
 20
14.41854979038369
 10
171.0986864796486
 20
14.54332587770779
 10
171.0325330334414
 20
14.66014719171894
 10
170.9369370919568
 20
14.74512539577367
 10
170.8249681022369
 20
14.81416684459153
 10
170.6993659583269
 20
14.87204142045888
 10
170.5656691620856
 20
14.92373723284341
 10
170.4313122818831
 20
14.97899092397181
 10
170.3051983986877
 20
15.04939770641649
 10
170.1926579987535
 20
15.13785540731249
 10
170.0969963064458
 20
15.24981067868474
 10
170.0334157151826
 20
15.39949910101383
 10
170.0200706505016
 20
15.55932794385143
 10
170.0320510987448
 20
15.71048405306846
 10
170.0712298928841
 20
15.83809244591541
 10
170.135498775091
 20
15.95080874030849
 10
170.223820499974
 20
16.04648609268686
 10
170.3338091207627
 20
16.12354214985751
 10
170.4632284401264
 20
16.18151396936285
 10
170.6111838967793
 20
16.21739177588818
 10
170.7682069455486
 20
16.2274671905056
 10
170.917494046643
 20
16.21863637762593
 10
171.059625361417
 20
16.1907489934034
 10
171.1595922609625
 20
16.13413314701142
 10
171.3125074736185
 20
16.08674602105508
 10
171.2455131717168
 20
16.00197553001182
 10
171.2296479120269
 20
15.9343890187348
 10
171.1978750531296
 20
15.86926092793187
 10
171.2150202209571
 20
15.76723453256959
 10
171.1666427208231
 20
15.77493211681906
 10
171.1315789440766
 20
15.76806771724812
 10
171.1296697985718
 20
15.83263831158197
 10
171.0985692931988
 20
15.87825639621397
 10
171.0664551628456
 20
15.93561036628458
 10
171.0208038475168
 20
15.9854046269256
 10
170.9658508218387
 20
16.02994813718999
 10
170.9010841173007
 20
16.06763988836551
 10
170.8232377310596
 20
16.09283375791349
 10
170.7355160553352
 20
16.09931230998108
 10
170.6452903277806
 20
16.092357092856
 10
170.5594594694064
 20
16.06909190460932
 10
170.4828343638596
 20
16.03131644107543
 10
170.41652656362
 20
15.98051641089572
 10
170.3622560536964
 20
15.9173114340721
 10
170.3224925345457
 20
15.84276455710371
 10
170.2976775510588
 20
15.7591731399776
 10
170.289212426287
 20
15.65192948382284
 10
170.3019697987103
 20
15.52965457267556
 10
170.3681548409273
 20
15.41149724291208
 10
170.4640977399832
 20
15.32606325709527
 10
170.5757914963181
 20
15.25583362306714
 10
170.7010863668703
 20
15.19659162305303
 10
170.8349823941447
 20
15.14616708086131
 10
170.9689930333149
 20
15.09322516984379
 10
171.0950885316915
 20
15.02750170625174
 10
171.2076216638417
 20
14.94480352537324
 10
171.3031370284232
 20
14.83996006310074
 10
171.3672706486963
 20
14.69937117251571
 10
171.3811103725279
 20
14.54065409451594
 10
171.367395471223
 20
14.38153155217874
 10
171.3244739153985
 20
14.23483828819205
 10
171.2545906329065
 20
14.10119796587139
 10
171.157459221383
 20
13.98532387699282
 10
171.0347806023657
 20
13.89089981770091
 10
170.8874408413168
 20
13.82179270651985
 10
170.7177132497125
 20
13.77953210858855
 10
170.5317404979596
 20
13.76781736230404
 10
170.3528955926183
 20
13.77809486683439
 10
170.1881733753743
 20
13.81966573769159
 10
170.0834410841056
 20
13.8879764288394
 10
169.9350960790365
 20
13.93675219032101
 10
169.9980378194729
 20
14.02976591290838
 10
170.0072274430059
 20
14.10296536248277
 10
170.0303711301232
 20
14.16936294501344
 10
170.0034588335317
 20
14.2697480952758
 10
170.0521338956339
 20
14.26234033517378
 10
170.0916530580697
 20
14.26894063620895
 10
170.0996204944701
 20
14.19078703218931
 10
170.1305436967923
 20
14.15600927375854
 10
170.1465954835851
 20
14.1379566321599
 97
        1
330
BB
 75
     1
 76
     2
 52
45.0
 41
0.1
 77
     0
 78
     1
 53
45.0
 43
0.0
 44
0.0
 45
-0.282842712474619
 46
0.0
 79
     0
 98
        1
 10
0.0
 20
0.0
  0
ENDBLK
  5
4D
330
4B
100
AcDbEntity
  8
0
100
AcDbBlockEnd
  0
BLOCK
  5
50
330
4E
100
AcDbEntity
  8
0
100
AcDbBlockBegin
  2
開示A4枠
 70
     0
 10
0.0
 20
0.0
 30
0.0
  3
開示A4枠
  1

  0
INSERT
  5
4F
330
4E
100
AcDbEntity
  8
1
100
AcDbBlockReference
  2
開示A4
 10
0.0
 20
0.0
 30
0.0
  0
ENDBLK
  5
51
330
4E
100
AcDbEntity
  8
0
100
AcDbBlockEnd
  0
BLOCK
  5
53
330
52
100
AcDbEntity
  8
0
100
AcDbBlockBegin
  2
nut
 70
     0
 10
57.89014127144242
 20
127.347497477296
 30
0.0
  3
nut
  1

  0
LINE
  5
D8
330
52
100
AcDbEntity
  8
LAY-1
  6
Continuous
 62
     7
100
AcDbLine
 10
189.8901412714425
 20
127.347497477296
 30
0.0
 11
189.8901412714425
 21
131.347497477296
 31
0.0
  0
LINE
  5
D9
330
52
100
AcDbEntity
  8
LAY-1
  6
Continuous
 62
     7
100
AcDbLine
 10
189.8901412714425
 20
131.347497477296
 30
0.0
 11
143.8901412714425
 21
131.347497477296
 31
0.0
  0
LINE
  5
DA
330
52
100
AcDbEntity
  8
LAY-1
  6
Continuous
 62
     7
100
AcDbLine
 10
143.8901412714425
 20
131.347497477296
 30
0.0
 11
143.8901412714425
 21
127.347497477296
 31
0.0
  0
LINE
  5
DB
330
52
100
AcDbEntity
  8
LAY-1
  6
Continuous
 62
     7
100
AcDbLine
 10
103.8901412714425
 20
127.347497477296
 30
0.0
 11
103.8901412714425
 21
131.347497477296
 31
0.0
  0
LINE
  5
DC
330
52
100
AcDbEntity
  8
LAY-1
  6
Continuous
 62
     7
100
AcDbLine
 10
103.8901412714425
 20
131.347497477296
 30
0.0
 11
57.8901412714425
 21
131.347497477296
 31
0.0
  0
LINE
  5
DD
330
52
100
AcDbEntity
  8
LAY-1
  6
Continuous
 62
     7
100
AcDbLine
 10
57.8901412714425
 20
131.347497477296
 30
0.0
 11
57.8901412714425
 21
127.347497477296
 31
0.0
  0
LINE
  5
DE
330
52
100
AcDbEntity
  8
LAY-1
  6
DASH_CENTER
 62
     2
100
AcDbLine
 10
61.79014127144251
 20
186.382625929022
 30
0.0
 11
61.79014127144251
 21
194.882625929022
 31
0.0
  0
LINE
  5
DF
330
52
100
AcDbEntity
  8
LAY-1
  6
DASH_CENTER
 62
     2
100
AcDbLine
 10
99.9901412714425
 20
194.182625929022
 30
0.0
 11
99.9901412714425
 21
186.182625929022
 31
0.0
  0
CIRCLE
  5
E0
330
52
100
AcDbEntity
  8
1
  6
Continuous
 62
     2
100
AcDbCircle
 10
80.8901412714425
 20
190.082625929022
 30
0.0
 40
13.0
  0
CIRCLE
  5
E1
330
52
100
AcDbEntity
  8
1
  6
Continuous
 62
     7
100
AcDbCircle
 10
80.8901412714425
 20
190.082625929022
 30
0.0
 40
13.99999999999991
  0
CIRCLE
  5
E2
330
52
100
AcDbEntity
  8
1
  6
Continuous
 62
     7
100
AcDbCircle
 10
80.8901412714425
 20
190.082625929022
 30
0.0
 40
23.0000000000001
  0
CIRCLE
  5
E3
330
52
100
AcDbEntity
  8
LAY-1
  6
Continuous
 62
     7
100
AcDbCircle
 10
61.79014127144251
 20
190.082625929022
 30
0.0
 40
2.5
  0
CIRCLE
  5
E4
330
52
100
AcDbEntity
  8
LAY-1
  6
Continuous
 62
     7
100
AcDbCircle
 10
99.9901412714425
 20
190.082625929022
 30
0.0
 40
2.5
  0
ENDBLK
  5
54
330
52
100
AcDbEntity
  8
0
100
AcDbBlockEnd
  0
BLOCK
  5
56
330
55
100
AcDbEntity
  8
0
100
AcDbBlockBegin
  2
body
 70
     0
 10
56.8901412714425
 20
94.34749747729603
 30
0.0
  3
body
  1

  0
POINT
  5
E5
330
55
100
AcDbEntity
  8
0
 62
     7
100
AcDbPoint
 10
56.8901412714425
 20
190.082625929022
 30
0.0
  0
POINT
  5
E6
330
55
100
AcDbEntity
  8
0
 62
     7
100
AcDbPoint
 10
104.8901412714425
 20
190.082625929022
 30
0.0
  0
CIRCLE
  5
E7
330
55
100
AcDbEntity
  8
1
  6
Continuous
 62
     2
100
AcDbCircle
 10
80.8901412714425
 20
190.082625929022
 30
0.0
 40
9.319999999999993
  0
CIRCLE
  5
E8
330
55
100
AcDbEntity
  8
1
  6
Continuous
 62
     7
100
AcDbCircle
 10
80.8901412714425
 20
190.082625929022
 30
0.0
 40
10.47999999999999
  0
CIRCLE
  5
E9
330
55
100
AcDbEntity
  8
LAY-1
  6
Continuous
 62
     7
100
AcDbCircle
 10
80.8901412714425
 20
190.082625929022
 30
0.0
 40
12.05850000000001
  0
ENDBLK
  5
57
330
55
100
AcDbEntity
  8
0
100
AcDbBlockEnd
  0
BLOCK
  5
159
330
152
100
AcDbEntity
  8
0
100
AcDbBlockBegin
  2
*D5
 70
     1
 10
0.0
 20
0.0
 30
0.0
  3
*D5
  1

  0
LINE
  5
153
330
152
100
AcDbEntity
  8
1
  6
Continuous
 62
     2
100
AcDbLine
 10
61.79014127144251
 20
226.739236171992
 30
0.0
 11
99.9901412714425
 21
226.739236171992
 31
0.0
  0
LINE
  5
154
330
152
100
AcDbEntity
  8
1
  6
Continuous
 62
     2
100
AcDbLine
 10
99.9901412714425
 20
194.182625929022
 30
0.0
 11
99.9901412714425
 21
227.739236171992
 31
0.0
  0
LINE
  5
155
330
152
100
AcDbEntity
  8
1
  6
Continuous
 62
     2
100
AcDbLine
 10
61.79014127144251
 20
194.882625929022
 30
0.0
 11
61.79014127144251
 21
227.739236171992
 31
0.0
  0
SOLID
  5
156
330
152
100
AcDbEntity
  8
1
 62
     2
100
AcDbTrace
 10
65.29014127144251
 20
227.2000199135479
 30
0.0
 11
65.29014127144251
 21
226.2784524304361
 31
0.0
 12
61.79014127144251
 22
226.739236171992
 32
0.0
 13
61.79014127144251
 23
226.739236171992
 33
0.0
  0
SOLID
  5
157
330
152
100
AcDbEntity
  8
1
 62
     2
100
AcDbTrace
 10
96.4901412714425
 20
226.2784524304361
 30
0.0
 11
96.4901412714425
 21
227.2000199135479
 31
0.0
 12
99.9901412714425
 22
226.739236171992
 32
0.0
 13
99.9901412714425
 23
226.739236171992
 33
0.0
  0
MTEXT
  5
158
330
152
100
AcDbEntity
  8
1
 62
     7
100
AcDbMText
 10
78.08952453443081
 20
227.739236171992
 30
0.0
 40
3.5
 41
0.0
 71
     7
 72
     1
  1
38
  7
CONVERTER_12
 11
0.9999999999970619
 21
2.424068405545306E-6
 31
0.0
 73
     1
 44
0.60024009603842
  0
ENDBLK
  5
15A
330
152
100
AcDbEntity
  8
0
100
AcDbBlockEnd
  0
BLOCK
  5
166
330
15D
100
AcDbEntity
  8
0
100
AcDbBlockBegin
  2
*D6
 70
     1
 10
0.0
 20
0.0
 30
0.0
  3
*D6
  1

  0
LINE
  5
15E
330
15D
100
AcDbEntity
  8
1
  6
Continuous
 62
     2
100
AcDbLine
 10
132.9616042469978
 20
131.347497477296
 30
0.0
 11
132.9616042469978
 21
138.347497477296
 31
0.0
  0
LINE
  5
15F
330
15D
100
AcDbEntity
  8
1
  6
Continuous
 62
     2
100
AcDbLine
 10
132.9616042469978
 20
126.347497477296
 30
0.0
 11
132.9616042469978
 21
131.347497477296
 31
0.0
  0
LINE
  5
160
330
15D
100
AcDbEntity
  8
1
  6
Continuous
 62
     2
100
AcDbLine
 10
132.9616042469978
 20
119.347497477296
 30
0.0
 11
132.9616042469978
 21
126.347497477296
 31
0.0
  0
LINE
  5
161
330
15D
100
AcDbEntity
  8
1
  6
Continuous
 62
     2
100
AcDbLine
 10
143.8901412714425
 20
131.347497477296
 30
0.0
 11
131.9616042469978
 21
131.347497477296
 31
0.0
  0
LINE
  5
162
330
15D
100
AcDbEntity
  8
1
  6
Continuous
 62
     2
100
AcDbLine
 10
141.3901412714425
 20
126.347497477296
 30
0.0
 11
131.9616042469978
 21
126.347497477296
 31
0.0
  0
SOLID
  5
163
330
15D
100
AcDbEntity
  8
1
 62
     2
100
AcDbTrace
 10
133.4223879885537
 20
122.847497477296
 30
0.0
 11
132.5008205054419
 21
122.847497477296
 31
0.0
 12
132.9616042469978
 22
126.347497477296
 32
0.0
 13
132.9616042469978
 23
126.347497477296
 33
0.0
  0
SOLID
  5
164
330
15D
100
AcDbEntity
  8
1
 62
     2
100
AcDbTrace
 10
132.5008205054419
 20
134.847497477296
 30
0.0
 11
133.4223879885537
 21
134.847497477296
 31
0.0
 12
132.9616042469978
 22
131.347497477296
 32
0.0
 13
132.9616042469978
 23
131.347497477296
 33
0.0
  0
MTEXT
  5
165
330
15D
100
AcDbEntity
  8
1
 62
     7
100
AcDbMText
 10
131.9616042469978
 20
127.910539594922
 30
0.0
 40
3.5
 41
0.0
 71
     7
 72
     1
  1
5
  7
CONVERTER_12
 11
0.0
 21
1.0
 31
0.0
 73
     1
 44
0.60024009603842
  0
ENDBLK
  5
167
330
15D
100
AcDbEntity
  8
0
100
AcDbBlockEnd
  0
BLOCK
  5
173
330
16A
100
AcDbEntity
  8
0
100
AcDbBlockBegin
  2
*D7
 70
     1
 10
0.0
 20
0.0
 30
0.0
  3
*D7
  1

  0
LINE
  5
16B
330
16A
100
AcDbEntity
  8
1
  6
Continuous
 62
     2
100
AcDbLine
 10
44.3901412714425
 20
122.347497477296
 30
0.0
 11
44.3901412714425
 21
115.347497477296
 31
0.0
  0
LINE
  5
16C
330
16A
100
AcDbEntity
  8
1
  6
Continuous
 62
     2
100
AcDbLine
 10
44.3901412714425
 20
131.347497477296
 30
0.0
 11
44.3901412714425
 21
122.347497477296
 31
0.0
  0
LINE
  5
16D
330
16A
100
AcDbEntity
  8
1
  6
Continuous
 62
     2
100
AcDbLine
 10
44.3901412714425
 20
138.347497477296
 30
0.0
 11
44.3901412714425
 21
131.347497477296
 31
0.0
  0
LINE
  5
16E
330
16A
100
AcDbEntity
  8
1
  6
Continuous
 62
     2
100
AcDbLine
 10
60.8901412714425
 20
122.347497477296
 30
0.0
 11
43.3901412714425
 21
122.347497477296
 31
0.0
  0
LINE
  5
16F
330
16A
100
AcDbEntity
  8
1
  6
Continuous
 62
     2
100
AcDbLine
 10
57.8901412714425
 20
131.347497477296
 30
0.0
 11
43.3901412714425
 21
131.347497477296
 31
0.0
  0
SOLID
  5
170
330
16A
100
AcDbEntity
  8
1
 62
     2
100
AcDbTrace
 10
43.92935752988662
 20
134.847497477296
 30
0.0
 11
44.85092501299839
 21
134.847497477296
 31
0.0
 12
44.3901412714425
 22
131.347497477296
 32
0.0
 13
44.3901412714425
 23
131.347497477296
 33
0.0
  0
SOLID
  5
171
330
16A
100
AcDbEntity
  8
1
 62
     2
100
AcDbTrace
 10
44.85092501299839
 20
118.847497477296
 30
0.0
 11
43.92935752988662
 21
118.847497477296
 31
0.0
 12
44.3901412714425
 22
122.347497477296
 32
0.0
 13
44.3901412714425
 23
122.347497477296
 33
0.0
  0
MTEXT
  5
172
330
16A
100
AcDbEntity
  8
1
 62
     7
100
AcDbMText
 10
43.3901412714425
 20
126.210369962251
 30
0.0
 40
3.5
 41
0.0
 71
     7
 72
     1
  1
9
  7
CONVERTER_12
 11
0.0
 21
1.0
 31
0.0
 73
     1
 44
0.60024009603842
  0
ENDBLK
  5
174
330
16A
100
AcDbEntity
  8
0
100
AcDbBlockEnd
  0
BLOCK
  5
17E
330
177
100
AcDbEntity
  8
0
100
AcDbBlockBegin
  2
*D8
 70
     1
 10
0.0
 20
0.0
 30
0.0
  3
*D8
  1

  0
LINE
  5
178
330
177
100
AcDbEntity
  8
1
  6
Continuous
 62
     2
100
AcDbLine
 10
143.3901412714426
 20
77.22645058697901
 30
0.0
 11
190.3901412714426
 21
77.22645058697901
 31
0.0
  0
LINE
  5
179
330
177
100
AcDbEntity
  8
1
  6
Continuous
 62
     2
100
AcDbLine
 10
190.3901412714426
 20
122.347497477296
 30
0.0
 11
190.3901412714426
 21
76.22645058697901
 31
0.0
  0
LINE
  5
17A
330
177
100
AcDbEntity
  8
1
  6
Continuous
 62
     2
100
AcDbLine
 10
143.3901412714426
 20
122.347497477296
 30
0.0
 11
143.3901412714426
 21
76.22645058697901
 31
0.0
  0
SOLID
  5
17B
330
177
100
AcDbEntity
  8
1
 62
     2
100
AcDbTrace
 10
146.8901412714426
 20
77.6872343285349
 30
0.0
 11
146.8901412714426
 21
76.76566684542313
 31
0.0
 12
143.3901412714426
 22
77.22645058697901
 32
0.0
 13
143.3901412714426
 23
77.22645058697901
 33
0.0
  0
SOLID
  5
17C
330
177
100
AcDbEntity
  8
1
 62
     2
100
AcDbTrace
 10
186.8901412714426
 20
76.76566684542313
 30
0.0
 11
186.8901412714426
 21
77.6872343285349
 31
0.0
 12
190.3901412714426
 22
77.22645058697901
 32
0.0
 13
190.3901412714426
 23
77.22645058697901
 33
0.0
  0
MTEXT
  5
17D
330
177
100
AcDbEntity
  8
1
 62
     7
100
AcDbMText
 10
164.9585630793989
 20
78.22645058697901
 30
0.0
 40
3.5
 41
0.0
 71
     7
 72
     1
  1
47
  7
CONVERTER_12
 11
0.9999999999970619
 21
2.424068405545306E-6
 31
0.0
 73
     1
 44
0.60024009603842
  0
ENDBLK
  5
17F
330
177
100
AcDbEntity
  8
0
100
AcDbBlockEnd
  0
BLOCK
  5
189
330
182
100
AcDbEntity
  8
0
100
AcDbBlockBegin
  2
*D9
 70
     1
 10
0.0
 20
0.0
 30
0.0
  3
*D9
  1

  0
LINE
  5
183
330
182
100
AcDbEntity
  8
1
  6
Continuous
 62
     2
100
AcDbLine
 10
36.3901412714425
 20
131.347497477296
 30
0.0
 11
36.3901412714425
 21
94.34749747729605
 31
0.0
  0
LINE
  5
184
330
182
100
AcDbEntity
  8
1
  6
Continuous
 62
     2
100
AcDbLine
 10
71.82964127144251
 20
94.34749747729605
 30
0.0
 11
35.3901412714425
 21
94.34749747729605
 31
0.0
  0
LINE
  5
185
330
182
100
AcDbEntity
  8
1
  6
Continuous
 62
     2
100
AcDbLine
 10
57.8901412714425
 20
131.347497477296
 30
0.0
 11
35.3901412714425
 21
131.347497477296
 31
0.0
  0
SOLID
  5
186
330
182
100
AcDbEntity
  8
1
 62
     2
100
AcDbTrace
 10
36.85092501299839
 20
127.847497477296
 30
0.0
 11
35.92935752988662
 21
127.847497477296
 31
0.0
 12
36.3901412714425
 22
131.347497477296
 32
0.0
 13
36.3901412714425
 23
131.347497477296
 33
0.0
  0
SOLID
  5
187
330
182
100
AcDbEntity
  8
1
 62
     2
100
AcDbTrace
 10
35.92935752988662
 20
97.84749747729605
 30
0.0
 11
36.85092501299839
 21
97.84749747729605
 31
0.0
 12
36.3901412714425
 22
94.34749747729605
 32
0.0
 13
36.3901412714425
 23
94.34749747729605
 33
0.0
  0
MTEXT
  5
188
330
182
100
AcDbEntity
  8
1
 62
     7
100
AcDbMText
 10
35.3901412714425
 20
112.017144637745
 30
0.0
 40
3.5
 41
0.0
 71
     7
 72
     1
  1
37
  7
CONVERTER_12
 11
0.0
 21
1.0
 31
0.0
 73
     1
 44
0.60024009603842
  0
ENDBLK
  5
18A
330
182
100
AcDbEntity
  8
0
100
AcDbBlockEnd
  0
BLOCK
  5
194
330
18D
100
AcDbEntity
  8
0
100
AcDbBlockBegin
  2
*D10
 70
     1
 10
0.0
 20
0.0
 30
0.0
  3
*D10
  1

  0
LINE
  5
18E
330
18D
100
AcDbEntity
  8
1
  6
Continuous
 62
     2
100
AcDbLine
 10
143.8901412714425
 20
142.347497477296
 30
0.0
 11
189.8901412714425
 21
142.347497477296
 31
0.0
  0
LINE
  5
18F
330
18D
100
AcDbEntity
  8
1
  6
Continuous
 62
     2
100
AcDbLine
 10
189.8901412714425
 20
131.347497477296
 30
0.0
 11
189.8901412714425
 21
143.347497477296
 31
0.0
  0
LINE
  5
190
330
18D
100
AcDbEntity
  8
1
  6
Continuous
 62
     2
100
AcDbLine
 10
143.8901412714425
 20
131.347497477296
 30
0.0
 11
143.8901412714425
 21
143.347497477296
 31
0.0
  0
SOLID
  5
191
330
18D
100
AcDbEntity
  8
1
 62
     2
100
AcDbTrace
 10
147.3901412714425
 20
142.8082812188519
 30
0.0
 11
147.3901412714425
 21
141.8867137357401
 31
0.0
 12
143.8901412714425
 22
142.347497477296
 32
0.0
 13
143.8901412714425
 23
142.347497477296
 33
0.0
  0
SOLID
  5
192
330
18D
100
AcDbEntity
  8
1
 62
     2
100
AcDbTrace
 10
186.3901412714425
 20
141.8867137357401
 30
0.0
 11
186.3901412714425
 21
142.8082812188519
 31
0.0
 12
189.8901412714425
 22
142.347497477296
 32
0.0
 13
189.8901412714425
 23
142.347497477296
 33
0.0
  0
MTEXT
  5
193
330
18D
100
AcDbEntity
  8
1
 62
     7
100
AcDbMText
 10
163.8805486054689
 20
143.3474905202197
 30
0.0
 40
3.5
 41
0.0
 71
     7
 72
     1
  1
\C7;{\Fgdt;n}\C7;46
  7
CONVERTER_12
 11
0.9999999999970619
 21
2.424068405545306E-6
 31
0.0
 73
     1
 44
0.60024009603842
  0
ENDBLK
  5
195
330
18D
100
AcDbEntity
  8
0
100
AcDbBlockEnd
  0
BLOCK
  5
19F
330
198
100
AcDbEntity
  8
0
100
AcDbBlockBegin
  2
*D11
 70
     1
 10
0.0
 20
0.0
 30
0.0
  3
*D11
  1

  0
LINE
  5
199
330
198
100
AcDbEntity
  8
1
  6
Continuous
 62
     2
100
AcDbLine
 10
60.8901412714425
 20
85.34749747729603
 30
0.0
 11
100.8901412714426
 21
85.34749747729603
 31
0.0
  0
LINE
  5
19A
330
198
100
AcDbEntity
  8
1
  6
Continuous
 62
     2
100
AcDbLine
 10
100.8901412714426
 20
122.347497477296
 30
0.0
 11
100.8901412714426
 21
84.34749747729603
 31
0.0
  0
LINE
  5
19B
330
198
100
AcDbEntity
  8
1
  6
Continuous
 62
     2
100
AcDbLine
 10
60.8901412714425
 20
122.347497477296
 30
0.0
 11
60.8901412714425
 21
84.34749747729603
 31
0.0
  0
SOLID
  5
19C
330
198
100
AcDbEntity
  8
1
 62
     2
100
AcDbTrace
 10
64.3901412714425
 20
85.80828121885192
 30
0.0
 11
64.3901412714425
 21
84.88671373574014
 31
0.0
 12
60.8901412714425
 22
85.34749747729603
 32
0.0
 13
60.8901412714425
 23
85.34749747729603
 33
0.0
  0
SOLID
  5
19D
330
198
100
AcDbEntity
  8
1
 62
     2
100
AcDbTrace
 10
97.39014127144262
 20
84.88671373574014
 30
0.0
 11
97.39014127144262
 21
85.80828121885192
 31
0.0
 12
100.8901412714426
 22
85.34749747729603
 32
0.0
 13
100.8901412714426
 23
85.34749747729603
 33
0.0
  0
MTEXT
  5
19E
330
198
100
AcDbEntity
  8
1
 62
     7
100
AcDbMText
 10
78.1500298316518
 20
86.34749747729603
 30
0.0
 40
3.5
 41
0.0
 71
     7
 72
     1
  1
40
  7
CONVERTER_12
 11
0.9999999999970619
 21
2.424068405545306E-6
 31
0.0
 73
     1
 44
0.60024009603842
  0
ENDBLK
  5
1A0
330
198
100
AcDbEntity
  8
0
100
AcDbBlockEnd
  0
BLOCK
  5
1AA
330
1A3
100
AcDbEntity
  8
0
100
AcDbBlockBegin
  2
*D12
 70
     1
 10
0.0
 20
0.0
 30
0.0
  3
*D12
  1

  0
LINE
  5
1A4
330
1A3
100
AcDbEntity
  8
0
  6
Continuous
 62
     2
100
AcDbLine
 10
152.9901412714425
 20
85.34749747729603
 30
0.0
 11
180.7901412714426
 21
85.34749747729603
 31
0.0
  0
LINE
  5
1A5
330
1A3
100
AcDbEntity
  8
0
  6
Continuous
 62
     2
100
AcDbLine
 10
180.7901412714426
 20
112.847497477296
 30
0.0
 11
180.7901412714426
 21
84.34749747729603
 31
0.0
  0
LINE
  5
1A6
330
1A3
100
AcDbEntity
  8
0
  6
Continuous
 62
     2
100
AcDbLine
 10
152.9901412714425
 20
112.847497477296
 30
0.0
 11
152.9901412714425
 21
84.34749747729603
 31
0.0
  0
SOLID
  5
1A7
330
1A3
100
AcDbEntity
  8
0
 62
     2
100
AcDbTrace
 10
156.4901412714425
 20
85.80828121885192
 30
0.0
 11
156.4901412714425
 21
84.88671373574014
 31
0.0
 12
152.9901412714425
 22
85.34749747729603
 32
0.0
 13
152.9901412714425
 23
85.34749747729603
 33
0.0
  0
SOLID
  5
1A8
330
1A3
100
AcDbEntity
  8
0
 62
     2
100
AcDbTrace
 10
177.2901412714426
 20
84.88671373574014
 30
0.0
 11
177.2901412714426
 21
85.80828121885192
 31
0.0
 12
180.7901412714426
 22
85.34749747729603
 32
0.0
 13
180.7901412714426
 23
85.34749747729603
 33
0.0
  0
MTEXT
  5
1A9
330
1A3
100
AcDbEntity
  8
0
 62
     7
100
AcDbMText
 10
163.5433327393702
 20
86.34749052021971
 30
0.0
 40
3.5
 41
0.0
 71
     7
 72
     1
  1
\C7;{\Fgdt;n}\C7;28
  7
CONVERTER_12
 11
0.9999999999970619
 21
2.424068405545306E-6
 31
0.0
 73
     1
 44
0.60024009603842
  0
ENDBLK
  5
1AB
330
1A3
100
AcDbEntity
  8
0
100
AcDbBlockEnd
  0
BLOCK
  5
1B3
330
1AE
100
AcDbEntity
  8
0
100
AcDbBlockBegin
  2
*D13
 70
     1
 10
0.0
 20
0.0
 30
0.0
  3
*D13
  1

  0
LINE
  5
1AF
330
1AE
100
AcDbEntity
  8
1
  6
Continuous
 62
     2
100
AcDbLine
 10
103.0807318073602
 20
211.3697157176061
 30
0.0
 11
51.7880810874604
 21
162.1654703595707
 31
0.0
  0
SOLID
  5
1B0
330
1AE
100
AcDbEntity
  8
1
 62
     2
100
AcDbTrace
 10
60.28141344503621
 20
169.6744741500491
 30
0.0
 11
59.64344629839427
 21
170.3395189197711
 31
0.0
 12
62.48818814409613
 22
172.4299173238546
 32
0.0
 13
62.48818814409613
 23
172.4299173238546
 33
0.0
  0
SOLID
  5
1B1
330
1AE
100
AcDbEntity
  8
1
 62
     2
100
AcDbTrace
 10
101.4988690978488
 20
210.4907777079949
 30
0.0
 11
102.1368362444907
 21
209.8257329382729
 31
0.0
 12
99.29209439878886
 22
207.7353345341893
 32
0.0
 13
99.29209439878886
 23
207.7353345341893
 33
0.0
  0
MTEXT
  5
1B2
330
1AE
100
AcDbEntity
  8
1
 62
     7
100
AcDbMText
 10
52.05560614840955
 20
163.8078254800498
 30
0.0
 40
3.5
 41
0.0
 71
     7
 72
     1
  1
\C7;{\Fgdt;n}\C7;51
  7
CONVERTER_12
 11
0.7216452206802482
 21
0.6922630825555816
 31
0.0
 73
     1
 44
0.60024009603842
  0
ENDBLK
  5
1B4
330
1AE
100
AcDbEntity
  8
0
100
AcDbBlockEnd
  0
BLOCK
  5
1BB
330
1B6
100
AcDbEntity
  8
0
100
AcDbBlockBegin
  2
*D14
 70
     1
 10
0.0
 20
0.0
 30
0.0
  3
*D14
  1

  0
LINE
  5
1B7
330
1B6
100
AcDbEntity
  8
1
  6
Continuous
 62
     2
100
AcDbLine
 10
94.78919454357334
 20
184.3369620740904
 30
0.0
 11
112.2771223734844
 21
203.656474479698
 31
0.0
  0
SOLID
  5
1B8
330
1B6
100
AcDbEntity
  8
1
 62
     2
100
AcDbTrace
 10
103.6750666751092
 20
194.840109131924
 30
0.0
 11
104.3582946722183
 21
194.2216545014981
 31
0.0
 12
101.667866022368
 22
191.9360658822258
 32
0.0
 13
101.667866022368
 23
191.9360658822258
 33
0.0
  0
SOLID
  5
1B9
330
1B6
100
AcDbEntity
  8
1
 62
     2
100
AcDbTrace
 10
96.30521586777577
 20
185.3251427261201
 30
0.0
 11
95.62198787066666
 21
185.943597356546
 31
0.0
 12
98.31241652051695
 22
188.2291859758183
 32
0.0
 13
98.31241652051695
 23
188.2291859758183
 33
0.0
  0
MTEXT
  5
1BA
330
1B6
100
AcDbEntity
  8
1
 62
     7
100
AcDbMText
 10
108.2004295873629
 20
200.6429257530992
 30
0.0
 40
3.5
 41
0.0
 71
     7
 72
     1
  1
\C7;{\Fgdt;n}\C7;5
  7
CONVERTER_12
 11
0.6710899003702109
 21
0.7413759812814956
 31
0.0
 73
     1
 44
0.60024009603842
  0
ENDBLK
  5
1BC
330
1B6
100
AcDbEntity
  8
0
100
AcDbBlockEnd
  0
ENDSEC
  0
SECTION
  2
ENTITIES
  0
INSERT
  5
58
330
1F
100
AcDbEntity
  8
0
100
AcDbBlockReference
  2
開示A4枠
 10
0.0
 20
0.0
 30
0.0
  0
INSERT
  5
59
330
1F
100
AcDbEntity
  8
1
100
AcDbBlockReference
  2
nut
 10
57.89014127144242
 20
127.347497477296
 30
0.0
  0
INSERT
  5
5A
330
1F
100
AcDbEntity
  8
1
100
AcDbBlockReference
  2
body
 10
56.8901412714425
 20
94.34749747729603
 30
0.0
  0
POINT
  5
EA
330
1F
100
AcDbEntity
  8
0
 62
     7
100
AcDbPoint
 10
176.4901412714426
 20
94.34749747729603
 30
0.0
  0
POINT
  5
EB
330
1F
100
AcDbEntity
  8
0
 62
     7
100
AcDbPoint
 10
157.2901412714425
 20
94.34749747729603
 30
0.0
  0
POINT
  5
EC
330
1F
100
AcDbEntity
  8
0
 62
     7
100
AcDbPoint
 10
90.49014127144261
 20
94.34749747729603
 30
0.0
  0
POINT
  5
ED
330
1F
100
AcDbEntity
  8
0
 62
     7
100
AcDbPoint
 10
94.89014127144262
 20
131.347497477296
 30
0.0
  0
POINT
  5
EE
330
1F
100
AcDbEntity
  8
0
 62
     7
100
AcDbPoint
 10
71.29014127144251
 20
94.34749747729603
 30
0.0
  0
LINE
  5
EF
330
1F
100
AcDbEntity
  8
LAY-1
  6
Continuous
 62
     7
100
AcDbLine
 10
55.3901412714425
 20
126.347497477296
 30
0.0
 11
80.8901412714425
 21
126.347497477296
 31
0.0
  0
LINE
  5
F0
330
1F
100
AcDbEntity
  8
LAY-1
  6
DASH_CENTER
 62
     2
100
AcDbLine
 10
192.3901412714425
 20
41.04749747729602
 30
0.0
 11
192.3901412714425
 21
40.947497477296
 31
0.0
  0
LINE
  5
F1
330
1F
100
AcDbEntity
  8
LAY-3
  6
Continuous
 62
     7
100
AcDbLine
 10
80.8901412714425
 20
127.347497477296
 30
0.0
 11
55.3901412714425
 21
127.347497477296
 31
0.0
  0
LINE
  5
F2
330
1F
100
AcDbEntity
  8
LAY-124
  6
DASH_CENTER
 62
     2
100
AcDbLine
 10
52.39014127144242
 20
190.082625929022
 30
0.0
 11
109.3901412714426
 21
190.082625929022
 31
0.0
  0
LINE
  5
F3
330
1F
100
AcDbEntity
  8
LAY-124
  6
Continuous
 62
     7
100
AcDbLine
 10
55.3901412714425
 20
127.347497477296
 30
0.0
 11
55.3901412714425
 21
126.347497477296
 31
0.0
  0
LINE
  5
F4
330
1F
100
AcDbEntity
  8
LAY-1
  6
Continuous
 62
     7
100
AcDbLine
 10
80.8901412714425
 20
126.347497477296
 30
0.0
 11
106.3901412714425
 21
126.347497477296
 31
0.0
  0
LINE
  5
F5
330
1F
100
AcDbEntity
  8
LAY-3
  6
Continuous
 62
     7
100
AcDbLine
 10
106.3901412714425
 20
127.347497477296
 30
0.0
 11
80.8901412714425
 21
127.347497477296
 31
0.0
  0
LINE
  5
F6
330
1F
100
AcDbEntity
  8
LAY-124
  6
Continuous
 62
     7
100
AcDbLine
 10
106.3901412714425
 20
126.347497477296
 30
0.0
 11
106.3901412714425
 21
127.347497477296
 31
0.0
  0
LINE
  5
F7
330
1F
100
AcDbEntity
  8
LAY-1
  6
Continuous
 62
     7
100
AcDbLine
 10
141.3901412714425
 20
126.347497477296
 30
0.0
 11
166.8901412714425
 21
126.347497477296
 31
0.0
  0
LINE
  5
F8
330
1F
100
AcDbEntity
  8
LAY-3
  6
Continuous
 62
     7
100
AcDbLine
 10
166.8901412714425
 20
127.347497477296
 30
0.0
 11
141.3901412714425
 21
127.347497477296
 31
0.0
  0
LINE
  5
F9
330
1F
100
AcDbEntity
  8
LAY-124
  6
Continuous
 62
     7
100
AcDbLine
 10
141.3901412714425
 20
127.347497477296
 30
0.0
 11
141.3901412714425
 21
126.347497477296
 31
0.0
  0
LINE
  5
FA
330
1F
100
AcDbEntity
  8
LAY-1
  6
Continuous
 62
     7
100
AcDbLine
 10
166.8901412714425
 20
126.347497477296
 30
0.0
 11
192.3901412714425
 21
126.347497477296
 31
0.0
  0
LINE
  5
FB
330
1F
100
AcDbEntity
  8
LAY-3
  6
Continuous
 62
     7
100
AcDbLine
 10
192.3901412714425
 20
127.347497477296
 30
0.0
 11
166.8901412714425
 21
127.347497477296
 31
0.0
  0
LINE
  5
FC
330
1F
100
AcDbEntity
  8
LAY-124
  6
Continuous
 62
     7
100
AcDbLine
 10
192.3901412714425
 20
126.347497477296
 30
0.0
 11
192.3901412714425
 21
127.347497477296
 31
0.0
  0
LINE
  5
FD
330
1F
100
AcDbEntity
  8
LAY-124
  6
DASH_CENTER
 62
     2
100
AcDbLine
 10
80.8901412714425
 20
218.582625929022
 30
0.0
 11
80.8901412714425
 21
161.782625929022
 31
0.0
  0
LINE
  5
FE
330
1F
100
AcDbEntity
  8
LAY-1
  6
DASH_CENTER
 62
     2
100
AcDbLine
 10
166.8901412714425
 20
92.34749747729603
 30
0.0
 11
166.8901412714425
 21
134.347497477296
 31
0.0
  0
LINE
  5
FF
330
1F
100
AcDbEntity
  8
LAY-1
  6
DASH_CENTER
 62
     2
100
AcDbLine
 10
80.8901412714425
 20
92.34749747729603
 30
0.0
 11
80.8901412714425
 21
134.347497477296
 31
0.0
  0
LINE
  5
100
330
1F
100
AcDbEntity
  8
LAY-1
  6
Continuous
 62
     7
100
AcDbLine
 10
143.3901412714425
 20
126.347497477296
 30
0.0
 11
143.3901412714425
 21
122.347497477296
 31
0.0
  0
LINE
  5
101
330
1F
100
AcDbEntity
  8
1
  6
Continuous
 62
     7
100
AcDbLine
 10
157.8296412714425
 20
94.34749747729603
 30
0.0
 11
175.9506412714425
 21
94.34749747729603
 31
0.0
  0
LINE
  5
102
330
1F
100
AcDbEntity
  8
LAY-1
  6
Continuous
 62
     7
100
AcDbLine
 10
166.8901412714425
 20
120.647497477296
 30
0.0
 11
180.7901412714426
 21
120.647497477296
 31
0.0
  0
LINE
  5
103
330
1F
100
AcDbEntity
  8
LAY-1
  6
Continuous
 62
     7
100
AcDbLine
 10
166.8901412714425
 20
109.219683107736
 30
0.0
 11
177.5773970723945
 21
109.219683107736
 31
0.0
  0
LINE
  5
104
330
1F
100
AcDbEntity
  8
LAY-1
  6
Continuous
 62
     2
100
AcDbLine
 10
175.9506412714425
 20
94.34749747729603
 30
0.0
 11
176.4153970723925
 21
109.219683107736
 31
0.0
  0
LINE
  5
105
330
1F
100
AcDbEntity
  8
LAY-1
  6
Continuous
 62
     7
100
AcDbLine
 10
177.1501251424126
 20
95.54698134826612
 30
0.0
 11
177.6438912714426
 21
111.347497477296
 31
0.0
  0
LINE
  5
106
330
1F
100
AcDbEntity
  8
LAY-1
  6
Continuous
 62
     2
100
AcDbLine
 10
177.6438912714426
 20
111.347497477296
 30
0.0
 11
176.4153970723925
 21
109.219683107736
 31
0.0
  0
LINE
  5
107
330
1F
100
AcDbEntity
  8
LAY-1
  6
Continuous
 62
     7
100
AcDbLine
 10
166.8901412714425
 20
95.54698134826702
 30
0.0
 11
177.1501251424126
 21
95.54698134826612
 31
0.0
  0
LINE
  5
108
330
1F
100
AcDbEntity
  8
LAY-1
  6
Continuous
 62
     7
100
AcDbLine
 10
177.1501251424126
 20
95.54698134826612
 30
0.0
 11
175.9506412714425
 21
94.34749747729603
 31
0.0
  0
LINE
  5
109
330
1F
100
AcDbEntity
  8
LAY-1
  6
Continuous
 62
     7
100
AcDbLine
 10
180.7901412714426
 20
112.847497477296
 30
0.0
 11
180.7901412714426
 21
120.647497477296
 31
0.0
  0
LINE
  5
10A
330
1F
100
AcDbEntity
  8
LAY-1
  6
Continuous
 62
     7
100
AcDbLine
 10
166.8901412714425
 20
111.347497477296
 30
0.0
 11
177.8901412714426
 21
111.347497477296
 31
0.0
  0
LINE
  5
10B
330
1F
100
AcDbEntity
  8
LAY-1
  6
Continuous
 62
     7
100
AcDbLine
 10
179.2901412714426
 20
111.347497477296
 30
0.0
 11
177.8901412714426
 21
111.347497477296
 31
0.0
  0
LINE
  5
10C
330
1F
100
AcDbEntity
  8
LAY-1
  6
Continuous
 62
     7
100
AcDbLine
 10
190.3901412714425
 20
122.347497477296
 30
0.0
 11
190.3901412714425
 21
126.347497477296
 31
0.0
  0
LINE
  5
10D
330
1F
100
AcDbEntity
  8
LAY-1
  6
Continuous
 62
     7
100
AcDbLine
 10
152.9901412714425
 20
120.647497477296
 30
0.0
 11
166.8901412714425
 21
120.647497477296
 31
0.0
  0
LINE
  5
10E
330
1F
100
AcDbEntity
  8
LAY-1
  6
Continuous
 62
     7
100
AcDbLine
 10
156.2028854704905
 20
109.219683107736
 30
0.0
 11
166.8901412714425
 21
109.219683107736
 31
0.0
  0
LINE
  5
10F
330
1F
100
AcDbEntity
  8
LAY-1
  6
Continuous
 62
     2
100
AcDbLine
 10
157.3648854704925
 20
109.219683107736
 30
0.0
 11
157.8296412714425
 21
94.34749747729603
 31
0.0
  0
LINE
  5
110
330
1F
100
AcDbEntity
  8
LAY-1
  6
Continuous
 62
     7
100
AcDbLine
 10
156.1363912714425
 20
111.347497477296
 30
0.0
 11
156.6301574004725
 21
95.54698134826612
 31
0.0
  0
LINE
  5
111
330
1F
100
AcDbEntity
  8
LAY-1
  6
Continuous
 62
     2
100
AcDbLine
 10
157.3648854704925
 20
109.219683107736
 30
0.0
 11
156.1363912714425
 21
111.347497477296
 31
0.0
  0
LINE
  5
112
330
1F
100
AcDbEntity
  8
LAY-1
  6
Continuous
 62
     7
100
AcDbLine
 10
156.6301574004725
 20
95.54698134826612
 30
0.0
 11
166.8901412714425
 21
95.54698134826702
 31
0.0
  0
LINE
  5
113
330
1F
100
AcDbEntity
  8
LAY-1
  6
Continuous
 62
     7
100
AcDbLine
 10
157.8296412714425
 20
94.34749747729603
 30
0.0
 11
156.6301574004725
 21
95.54698134826612
 31
0.0
  0
LINE
  5
114
330
1F
100
AcDbEntity
  8
LAY-1
  6
Continuous
 62
     7
100
AcDbLine
 10
152.9901412714425
 20
120.647497477296
 30
0.0
 11
152.9901412714425
 21
112.847497477296
 31
0.0
  0
LINE
  5
115
330
1F
100
AcDbEntity
  8
LAY-1
  6
Continuous
 62
     7
100
AcDbLine
 10
155.8901412714425
 20
111.347497477296
 30
0.0
 11
166.8901412714425
 21
111.347497477296
 31
0.0
  0
LINE
  5
116
330
1F
100
AcDbEntity
  8
LAY-1
  6
Continuous
 62
     7
100
AcDbLine
 10
155.8901412714425
 20
111.347497477296
 30
0.0
 11
154.4901412714425
 21
111.347497477296
 31
0.0
  0
LINE
  5
117
330
1F
100
AcDbEntity
  8
1
  6
Continuous
 62
     7
100
AcDbLine
 10
71.82964127144251
 20
94.34749747729603
 30
0.0
 11
89.9506412714426
 21
94.34749747729603
 31
0.0
  0
LINE
  5
118
330
1F
100
AcDbEntity
  8
LAY-1
  6
Continuous
 62
     7
100
AcDbLine
 10
178.0927958269025
 20
122.347497477296
 30
0.0
 11
178.0927958269025
 21
126.347497477296
 31
0.0
  0
LINE
  5
119
330
1F
100
AcDbEntity
  8
LAY-1
  6
Continuous
 62
     7
100
AcDbLine
 10
80.8901412714425
 20
120.647497477296
 30
0.0
 11
95.7901412714426
 21
120.647497477296
 31
0.0
  0
LINE
  5
11A
330
1F
100
AcDbEntity
  8
LAY-1
  6
Continuous
 62
     7
100
AcDbLine
 10
80.8901412714425
 20
109.219683107736
 30
0.0
 11
91.57739707239449
 21
109.219683107736
 31
0.0
  0
LINE
  5
11B
330
1F
100
AcDbEntity
  8
LAY-1
  6
Continuous
 62
     2
100
AcDbLine
 10
89.9506412714426
 20
94.34749747729603
 30
0.0
 11
90.41539707239261
 21
109.219683107736
 31
0.0
  0
LINE
  5
11C
330
1F
100
AcDbEntity
  8
LAY-1
  6
Continuous
 62
     7
100
AcDbLine
 10
91.1501251424126
 20
95.54698134826612
 30
0.0
 11
91.64389127144261
 21
111.347497477296
 31
0.0
  0
LINE
  5
11D
330
1F
100
AcDbEntity
  8
LAY-1
  6
Continuous
 62
     2
100
AcDbLine
 10
91.64389127144261
 20
111.347497477296
 30
0.0
 11
90.41539707239261
 21
109.219683107736
 31
0.0
  0
LINE
  5
11E
330
1F
100
AcDbEntity
  8
LAY-1
  6
Continuous
 62
     7
100
AcDbLine
 10
80.8901412714425
 20
95.54698134826702
 30
0.0
 11
91.1501251424126
 21
95.54698134826612
 31
0.0
  0
LINE
  5
11F
330
1F
100
AcDbEntity
  8
LAY-1
  6
Continuous
 62
     7
100
AcDbLine
 10
91.1501251424126
 20
95.54698134826612
 30
0.0
 11
89.9506412714426
 21
94.34749747729603
 31
0.0
  0
LINE
  5
120
330
1F
100
AcDbEntity
  8
LAY-1
  6
Continuous
 62
     7
100
AcDbLine
 10
95.7901412714426
 20
112.847497477296
 30
0.0
 11
95.7901412714426
 21
120.647497477296
 31
0.0
  0
LINE
  5
121
330
1F
100
AcDbEntity
  8
LAY-1
  6
Continuous
 62
     7
100
AcDbLine
 10
80.8901412714425
 20
111.347497477296
 30
0.0
 11
91.89014127144262
 21
111.347497477296
 31
0.0
  0
LINE
  5
122
330
1F
100
AcDbEntity
  8
LAY-1
  6
Continuous
 62
     7
100
AcDbLine
 10
94.2901412714426
 20
111.347497477296
 30
0.0
 11
91.89014127144262
 21
111.347497477296
 31
0.0
  0
LINE
  5
123
330
1F
100
AcDbEntity
  8
LAY-1
  6
Continuous
 62
     7
100
AcDbLine
 10
95.7901412714426
 20
120.647497477296
 30
0.0
 11
100.8901412714426
 21
122.347497477296
 31
0.0
  0
LINE
  5
124
330
1F
100
AcDbEntity
  8
LAY-1
  6
Continuous
 62
     7
100
AcDbLine
 10
100.8901412714426
 20
122.347497477296
 30
0.0
 11
100.8901412714426
 21
126.347497477296
 31
0.0
  0
LINE
  5
125
330
1F
100
AcDbEntity
  8
LAY-1
  6
Continuous
 62
     7
100
AcDbLine
 10
60.8901412714425
 20
126.347497477296
 30
0.0
 11
69.68748671598252
 21
126.347497477296
 31
0.0
  0
LINE
  5
126
330
1F
100
AcDbEntity
  8
LAY-1
  6
Continuous
 62
     7
100
AcDbLine
 10
155.6874867159825
 20
126.347497477296
 30
0.0
 11
155.6874867159825
 21
122.347497477296
 31
0.0
  0
LINE
  5
127
330
1F
100
AcDbEntity
  8
LAY-1
  6
Continuous
 62
     7
100
AcDbLine
 10
65.9901412714425
 20
120.647497477296
 30
0.0
 11
80.8901412714425
 21
120.647497477296
 31
0.0
  0
LINE
  5
128
330
1F
100
AcDbEntity
  8
LAY-1
  6
Continuous
 62
     7
100
AcDbLine
 10
70.20288547049051
 20
109.219683107736
 30
0.0
 11
80.8901412714425
 21
109.219683107736
 31
0.0
  0
LINE
  5
129
330
1F
100
AcDbEntity
  8
LAY-1
  6
Continuous
 62
     2
100
AcDbLine
 10
71.36488547049251
 20
109.219683107736
 30
0.0
 11
71.82964127144251
 21
94.34749747729603
 31
0.0
  0
LINE
  5
12A
330
1F
100
AcDbEntity
  8
LAY-1
  6
Continuous
 62
     7
100
AcDbLine
 10
70.1363912714425
 20
111.347497477296
 30
0.0
 11
70.63015740047251
 21
95.54698134826612
 31
0.0
  0
LINE
  5
12B
330
1F
100
AcDbEntity
  8
LAY-1
  6
Continuous
 62
     2
100
AcDbLine
 10
71.36488547049251
 20
109.219683107736
 30
0.0
 11
70.1363912714425
 21
111.347497477296
 31
0.0
  0
LINE
  5
12C
330
1F
100
AcDbEntity
  8
LAY-1
  6
Continuous
 62
     7
100
AcDbLine
 10
70.63015740047251
 20
95.54698134826612
 30
0.0
 11
80.8901412714425
 21
95.54698134826702
 31
0.0
  0
LINE
  5
12D
330
1F
100
AcDbEntity
  8
LAY-1
  6
Continuous
 62
     7
100
AcDbLine
 10
71.82964127144251
 20
94.34749747729603
 30
0.0
 11
70.63015740047251
 21
95.54698134826612
 31
0.0
  0
LINE
  5
12E
330
1F
100
AcDbEntity
  8
LAY-1
  6
Continuous
 62
     7
100
AcDbLine
 10
65.9901412714425
 20
120.647497477296
 30
0.0
 11
65.9901412714425
 21
112.847497477296
 31
0.0
  0
LINE
  5
12F
330
1F
100
AcDbEntity
  8
LAY-1
  6
Continuous
 62
     7
100
AcDbLine
 10
69.8901412714425
 20
111.347497477296
 30
0.0
 11
80.8901412714425
 21
111.347497477296
 31
0.0
  0
LINE
  5
130
330
1F
100
AcDbEntity
  8
LAY-1
  6
Continuous
 62
     7
100
AcDbLine
 10
69.8901412714425
 20
111.347497477296
 30
0.0
 11
67.4901412714425
 21
111.347497477296
 31
0.0
  0
LINE
  5
131
330
1F
100
AcDbEntity
  8
LAY-1
  6
Continuous
 62
     7
100
AcDbLine
 10
60.8901412714425
 20
122.347497477296
 30
0.0
 11
65.9901412714425
 21
120.647497477296
 31
0.0
  0
LINE
  5
132
330
1F
100
AcDbEntity
  8
LAY-1
  6
Continuous
 62
     7
100
AcDbLine
 10
60.8901412714425
 20
122.347497477296
 30
0.0
 11
100.8901412714426
 21
122.347497477296
 31
0.0
  0
LINE
  5
133
330
1F
100
AcDbEntity
  8
LAY-1
  6
Continuous
 62
     7
100
AcDbLine
 10
60.8901412714425
 20
126.347497477296
 30
0.0
 11
60.8901412714425
 21
122.347497477296
 31
0.0
  0
LINE
  5
134
330
1F
100
AcDbEntity
  8
1
  6
Continuous
 62
     2
100
AcDbLine
 10
155.6874867159825
 20
126.347497477296
 30
0.0
 11
178.0927958269025
 21
122.347497477296
 31
0.0
  0
LINE
  5
135
330
1F
100
AcDbEntity
  8
1
  6
Continuous
 62
     2
100
AcDbLine
 10
178.0927958269025
 20
126.347497477296
 30
0.0
 11
155.6874867159825
 21
122.347497477296
 31
0.0
  0
LINE
  5
136
330
1F
100
AcDbEntity
  8
LAY-1
  6
Continuous
 62
     7
100
AcDbLine
 10
92.09279582690252
 20
126.347497477296
 30
0.0
 11
100.8901412714426
 21
126.347497477296
 31
0.0
  0
LINE
  5
137
330
1F
100
AcDbEntity
  8
0
  6
Continuous
 62
     7
100
AcDbLine
 10
143.3901412714425
 20
122.347497477296
 30
0.0
 11
152.9901412714425
 21
120.647497477296
 31
0.0
  0
LINE
  5
138
330
1F
100
AcDbEntity
  8
0
  6
Continuous
 62
     7
100
AcDbLine
 10
180.7901412714426
 20
120.647497477296
 30
0.0
 11
190.3901412714425
 21
122.347497477296
 31
0.0
  0
LINE
  5
139
330
1F
100
AcDbEntity
  8
LAY-1
  6
Continuous
 62
     7
100
AcDbLine
 10
143.3901412714425
 20
122.347497477296
 30
0.0
 11
190.3901412714425
 21
122.347497477296
 31
0.0
  0
ARC
  5
13A
330
1F
100
AcDbEntity
  8
LAY-1
  6
Continuous
 62
     7
100
AcDbCircle
 10
179.2901412714426
 20
112.847497477296
 30
0.0
 40
1.5
100
AcDbArc
 50
270.0
 51
0.0
  0
ARC
  5
13B
330
1F
100
AcDbEntity
  8
LAY-1
  6
Continuous
 62
     7
100
AcDbCircle
 10
154.4901412714425
 20
112.847497477296
 30
0.0
 40
1.5
100
AcDbArc
 50
180.0
 51
270.0
  0
ARC
  5
13C
330
1F
100
AcDbEntity
  8
LAY-1
  6
Continuous
 62
     7
100
AcDbCircle
 10
94.2901412714426
 20
112.847497477296
 30
0.0
 40
1.5
100
AcDbArc
 50
270.0
 51
0.0
  0
ARC
  5
13D
330
1F
100
AcDbEntity
  8
LAY-1
  6
Continuous
 62
     7
100
AcDbCircle
 10
67.4901412714425
 20
112.847497477296
 30
0.0
 40
1.5
100
AcDbArc
 50
180.0
 51
270.0
  0
CIRCLE
  5
13E
330
1F
100
AcDbEntity
  8
1
  6
Continuous
 62
     7
100
AcDbCircle
 10
80.8901412714425
 20
190.082625929022
 30
0.0
 40
25.50000000000005
  0
SOLID
  5
13F
330
1F
100
AcDbEntity
  8
1
 62
     2
100
AcDbTrace
 10
91.56109084560424
 20
134.6089782613195
 30
0.0
 11
92.35919169728072
 21
134.1481945197636
 31
0.0
 12
90.2101412714425
 22
131.347497477296
 32
0.0
 13
90.2101412714425
 23
131.347497477296
 33
0.0
  0
LEADER
  5
140
330
1F
100
AcDbEntity
  8
1
  6
Continuous
 62
     2
100
AcDbLeader
  3
Standard
 71
     0
 76
     3
 10
90.2101412714425
 20
131.347497477296
 30
0.0
 10
97.86346690873091
 20
144.603446327949
 30
0.0
 10
112.0514270770901
 20
144.603446327949
 30
0.0
  0
SOLID
  5
141
330
1F
100
AcDbEntity
  8
1
 62
     2
100
AcDbTrace
 10
93.50940382263674
 20
99.47358844618002
 30
0.0
 11
92.71130297096026
 21
99.01280470462413
 31
0.0
 12
91.3603533967985
 22
102.2742854886476
 32
0.0
 13
91.3603533967985
 23
102.2742854886476
 33
0.0
  0
LEADER
  5
142
330
1F
100
AcDbEntity
  8
1
  6
Continuous
 62
     2
100
AcDbLeader
  3
Standard
 71
     0
 76
     3
 10
91.3603533967985
 20
102.2742854886476
 30
0.0
 10
96.2000371026812
 20
93.89170741749564
 30
0.0
 10
115.3879972710404
 20
93.89170741749564
 30
0.0
  0
MTEXT
  5
144
330
1F
100
AcDbEntity
  8
1
 62
     7
100
AcDbMText
 10
157.5
 20
12.5
 30
0.0
 40
2.5
 41
0.0
 71
     5
 72
     1
  1
10
  7
CONVERTER_12
 73
     1
 44
0.7202881152461
  0
MTEXT
  5
145
330
1F
100
AcDbEntity
  8
1
 62
     7
100
AcDbMText
 10
151.75
 20
12.5
 30
0.0
 40
2.5
 41
0.0
 71
     5
 72
     1
  1
03
  7
CONVERTER_12
 73
     1
 44
0.7202881152461
  0
MTEXT
  5
146
330
1F
100
AcDbEntity
  8
1
 62
     7
100
AcDbMText
 10
140.5
 20
12.5
 30
0.0
 40
2.5
 41
0.0
 71
     5
 72
     1
  1
10
  7
CONVERTER_12
 73
     1
 44
0.7202881152461
  0
MTEXT
  5
147
330
1F
100
AcDbEntity
  8
1
 62
     7
100
AcDbMText
 10
134.75
 20
12.5
 30
0.0
 40
2.5
 41
0.0
 71
     5
 72
     1
  1
03
  7
CONVERTER_12
 73
     1
 44
0.7202881152461
  0
MTEXT
  5
148
330
1F
100
AcDbEntity
  8
1
 62
     7
100
AcDbMText
 10
123.5
 20
12.5
 30
0.0
 40
2.5
 41
0.0
 71
     5
 72
     1
  1
10
  7
CONVERTER_12
 73
     1
 44
0.7202881152461
  0
MTEXT
  5
149
330
1F
100
AcDbEntity
  8
1
 62
     7
100
AcDbMText
 10
117.75
 20
12.5
 30
0.0
 40
2.5
 41
0.0
 71
     5
 72
     1
  1
03
  7
CONVERTER_12
 73
     1
 44
0.7202881152461
  0
MTEXT
  5
14A
330
1F
100
AcDbEntity
  8
1
 62
     7
100
AcDbMText
 10
100.75
 20
12.5
 30
0.0
 40
2.5
 41
0.0
 71
     5
 72
     1
  1
03
  7
CONVERTER_12
 73
     1
 44
0.7202881152461
  0
MTEXT
  5
14B
330
1F
100
AcDbEntity
  8
1
 62
     7
100
AcDbMText
 10
106.5
 20
12.5
 30
0.0
 40
2.5
 41
0.0
 71
     5
 72
     1
  1
10
  7
CONVERTER_12
 73
     1
 44
0.7202881152461
  0
MTEXT
  5
14C
330
1F
100
AcDbEntity
  8
1
 62
     7
100
AcDbMText
 10
108.1987988292214
 20
96.8567705035066
 30
0.0
 40
3.0
 41
0.0
 71
     5
 72
     1
  1
R1/2
  7
CONVERTER_12
 73
     1
 44
0.7202881152461
  0
MTEXT
  5
14D
330
1F
100
AcDbEntity
  8
1
 62
     7
100
AcDbMText
 10
104.8622286352711
 20
147.638383241938
 30
0.0
 40
3.0
 41
0.0
 71
     5
 72
     1
  1
Rp1/2
  7
CONVERTER_12
 73
     1
 44
0.7202881152461
  0
MTEXT
  5
14E
330
1F
100
AcDbEntity
  8
1
 62
     7
100
AcDbMText
 10
85.25
 20
17.0
 30
0.0
 40
3.5
 41
0.0
 71
     5
 72
     1
  1
1
  7
CONVERTER_12
 73
     1
 44
0.7202881152461
  0
MTEXT
  5
14F
330
1F
100
AcDbEntity
  8
1
 62
     7
100
AcDbMText
 10
57.0
 20
22.75
 30
0.0
 40
3.5
 41
0.0
 71
     5
 72
     1
  1
ユニット取出し金具
  7
CONVERTER_11
 73
     1
 44
0.54545454545455
  0
MTEXT
  5
150
330
1F
100
AcDbEntity
  8
1
 62
     7
100
AcDbMText
 10
57.0
 20
14.25
 30
0.0
 40
3.5
 41
0.0
 71
     5
 72
     1
  1
T2221-13
  7
CONVERTER_12
 73
     1
 44
0.7202881152461
  0
MTEXT
  5
151
330
1F
100
AcDbEntity
  8
1
 62
     7
100
AcDbMText
 10
93.75
 20
17.0
 30
0.0
 40
3.5
 41
0.0
 71
     5
 72
     1
  1
1
  7
CONVERTER_12
 73
     1
 44
0.7202881152461
  0
DIMENSION
  5
15C
330
1F
100
AcDbEntity
  8
1
100
AcDbDimension
  2
*D5
 10
61.79014127144251
 20
226.739236171992
 30
0.0
 11
80.71452453443081
 21
229.489236171992
 31
0.0
 70
    32
  1
38
 71
     5
 42
-1.0
 53
0.00013888888889
  3
ME10_DIM_10
100
AcDbAlignedDimension
 13
99.9901412714425
 23
194.182625929022
 33
0.0
 14
61.79014127144251
 24
194.882625929022
 34
0.0
100
AcDbRotatedDimension
  0
DIMENSION
  5
169
330
1F
100
AcDbEntity
  8
1
100
AcDbDimension
  2
*D6
 10
132.9616042469978
 20
126.347497477296
 30
0.0
 11
130.2116042469978
 21
128.960539594922
 31
0.0
 70
    32
  1
<>
 71
     5
 42
-1.0
 53
90.0
  3
ME10_DIM_11
100
AcDbAlignedDimension
 13
143.8901412714425
 23
131.347497477296
 33
0.0
 14
141.3901412714425
 24
126.347497477296
 34
0.0
 50
90.0
100
AcDbRotatedDimension
  0
DIMENSION
  5
176
330
1F
100
AcDbEntity
  8
1
100
AcDbDimension
  2
*D7
 10
44.3901412714425
 20
131.347497477296
 30
0.0
 11
41.6401412714425
 21
127.260369962251
 31
0.0
 70
    32
  1
<>
 71
     5
 42
-1.0
 53
90.0
  3
ME10_DIM_12
100
AcDbAlignedDimension
 13
60.8901412714425
 23
122.347497477296
 33
0.0
 14
57.8901412714425
 24
131.347497477296
 34
0.0
 50
90.0
100
AcDbRotatedDimension
  0
DIMENSION
  5
181
330
1F
100
AcDbEntity
  8
1
100
AcDbDimension
  2
*D8
 10
143.3901412714426
 20
77.22645058697901
 30
0.0
 11
167.5835630793989
 21
79.97645058697901
 31
0.0
 70
    32
  1
<>
 71
     5
 42
-1.0
 53
0.00013888888889
  3
ME10_DIM_13
100
AcDbAlignedDimension
 13
190.3901412714425
 23
122.347497477296
 33
0.0
 14
143.3901412714425
 24
122.347497477296
 34
0.0
100
AcDbRotatedDimension
  0
DIMENSION
  5
18C
330
1F
100
AcDbEntity
  8
1
100
AcDbDimension
  2
*D9
 10
36.3901412714425
 20
131.347497477296
 30
0.0
 11
33.6401412714425
 21
114.642144637745
 31
0.0
 70
    32
  1
<>
 71
     5
 42
-1.0
 53
90.0
  3
ME10_DIM_14
100
AcDbAlignedDimension
 13
71.82964127144251
 23
94.34749747729603
 33
0.0
 14
57.8901412714425
 24
131.347497477296
 34
0.0
 50
90.0
100
AcDbRotatedDimension
  0
DIMENSION
  5
197
330
1F
100
AcDbEntity
  8
1
100
AcDbDimension
  2
*D10
 10
143.8901412714425
 20
142.347497477296
 30
0.0
 11
167.2755486054605
 21
145.097497477296
 31
0.0
 70
    32
  1
<>
 71
     5
 42
-1.0
 53
0.00013888888889
  3
ME10_DIM_15
100
AcDbAlignedDimension
 13
189.8901412714425
 23
131.347497477296
 33
0.0
 14
143.8901412714425
 24
131.347497477296
 34
0.0
100
AcDbRotatedDimension
  0
DIMENSION
  5
1A2
330
1F
100
AcDbEntity
  8
1
100
AcDbDimension
  2
*D11
 10
60.8901412714425
 20
85.34749747729603
 30
0.0
 11
80.7750298316518
 21
88.09749747729603
 31
0.0
 70
    32
  1
<>
 71
     5
 42
-1.0
 53
0.00013888888889
  3
ME10_DIM_16
100
AcDbAlignedDimension
 13
100.8901412714426
 23
122.347497477296
 33
0.0
 14
60.8901412714425
 24
122.347497477296
 34
0.0
100
AcDbRotatedDimension
  0
DIMENSION
  5
1AD
330
1F
100
AcDbEntity
  8
0
100
AcDbDimension
  2
*D12
 10
152.9901412714425
 20
85.34749747729603
 30
0.0
 11
166.9383327393618
 21
88.09749747729603
 31
0.0
 70
    33
  1
{\Fgdt;n}28
 71
     5
 42
-1.0
 53
0.00013888888889
  3
ME10_DIM_17
100
AcDbAlignedDimension
 13
180.7901412714426
 23
112.847497477296
 33
0.0
 14
152.9901412714425
 24
112.847497477296
 34
0.0
  0
INSERT
  5
1B5
330
1F
100
AcDbEntity
  8
1
100
AcDbBlockReference
  2
*D13
 10
0.0
 20
0.0
 30
0.0
  0
INSERT
  5
1BD
330
1F
100
AcDbEntity
  8
1
100
AcDbBlockReference
  2
*D14
 10
0.0
 20
0.0
 30
0.0
  0
ENDSEC
  0
SECTION
  2
OBJECTS
  0
DICTIONARY
  5
C
330
0
100
AcDbDictionary
281
     1
  3
ACAD_GROUP
350
D
  3
ACAD_LAYOUT
350
1A
  3
ACAD_MATERIAL
350
3B
  3
ACAD_MLEADERSTYLE
350
1C0
  3
ACAD_MLINESTYLE
350
17
  3
ACAD_PLOTSETTINGS
350
19
  3
ACAD_PLOTSTYLENAME
350
E
  3
ACAD_VISUALSTYLE
350
2A
  3
AcDbVariableDictionary
350
1BE
  0
DICTIONARY
  5
D
102
{ACAD_REACTORS
330
C
102
}
330
C
100
AcDbDictionary
281
     1
  0
DICTIONARY
  5
1A
102
{ACAD_REACTORS
330
C
102
}
330
C
100
AcDbDictionary
281
     1
  3
Layout1
350
1E
  3
Layout2
350
26
  3
Model
350
22
  0
DICTIONARY
  5
3B
102
{ACAD_REACTORS
330
C
102
}
330
C
100
AcDbDictionary
281
     1
  3
ByBlock
350
3D
  3
ByLayer
350
3C
  3
Global
350
3E
  0
DICTIONARY
  5
1C0
102
{ACAD_REACTORS
330
C
102
}
330
C
100
AcDbDictionary
281
     1
  0
DICTIONARY
  5
17
102
{ACAD_REACTORS
330
C
102
}
330
C
100
AcDbDictionary
281
     1
  3
Standard
350
18
  0
DICTIONARY
  5
19
102
{ACAD_REACTORS
330
C
102
}
330
C
100
AcDbDictionary
281
     1
  0
ACDBDICTIONARYWDFLT
  5
E
102
{ACAD_REACTORS
330
C
102
}
330
C
100
AcDbDictionary
281
     1
  3
Normal
350
F
100
AcDbDictionaryWithDefault
340
F
  0
DICTIONARY
  5
2A
102
{ACAD_REACTORS
330
C
102
}
330
C
100
AcDbDictionary
281
     1
  3
2dWireframe
350
2F
  3
3D Hidden
350
31
  3
3dWireframe
350
30
  3
Basic
350
32
  3
Brighten
350
36
  3
ColorChange
350
3A
  3
Conceptual
350
34
  3
Dim
350
35
  3
Facepattern
350
39
  3
Flat
350
2B
  3
FlatWithEdges
350
2C
  3
Gouraud
350
2D
  3
GouraudWithEdges
350
2E
  3
Linepattern
350
38
  3
Realistic
350
33
  3
Thicken
350
37
  0
DICTIONARY
  5
1BE
102
{ACAD_REACTORS
330
C
102
}
330
C
100
AcDbDictionary
281
     1
  3
DIMASSOC
350
1C1
  3
HIDETEXT
350
1C2
  0
LAYOUT
  5
1E
102
{ACAD_REACTORS
330
1A
102
}
330
1A
100
AcDbPlotSettings
  1

  2
none_device
  4

  6

 40
0.0
 41
0.0
 42
0.0
 43
0.0
 44
0.0
 45
0.0
 46
0.0
 47
0.0
 48
0.0
 49
0.0
140
0.0
141
0.0
142
1.0
143
1.0
 70
   688
 72
     0
 73
     0
 74
     5
  7

 75
    16
147
1.0
148
0.0
149
0.0
100
AcDbLayout
  1
Layout1
 70
     1
 71
     1
 10
0.0
 20
0.0
 11
12.0
 21
9.0
 12
0.0
 22
0.0
 32
0.0
 14
1.00000000000000E+20
 24
1.00000000000000E+20
 34
1.00000000000000E+20
 15
-1.00000000000000E+20
 25
-1.00000000000000E+20
 35
-1.00000000000000E+20
146
0.0
 13
0.0
 23
0.0
 33
0.0
 16
1.0
 26
0.0
 36
0.0
 17
0.0
 27
1.0
 37
0.0
 76
     0
330
1B
  0
LAYOUT
  5
26
102
{ACAD_REACTORS
330
1A
102
}
330
1A
100
AcDbPlotSettings
  1

  2
none_device
  4

  6

 40
0.0
 41
0.0
 42
0.0
 43
0.0
 44
0.0
 45
0.0
 46
0.0
 47
0.0
 48
0.0
 49
0.0
140
0.0
141
0.0
142
1.0
143
1.0
 70
   688
 72
     0
 73
     0
 74
     5
  7

 75
    16
147
1.0
148
0.0
149
0.0
100
AcDbLayout
  1
Layout2
 70
     1
 71
     2
 10
0.0
 20
0.0
 11
0.0
 21
0.0
 12
0.0
 22
0.0
 32
0.0
 14
0.0
 24
0.0
 34
0.0
 15
0.0
 25
0.0
 35
0.0
146
0.0
 13
0.0
 23
0.0
 33
0.0
 16
1.0
 26
0.0
 36
0.0
 17
0.0
 27
1.0
 37
0.0
 76
     0
330
23
  0
LAYOUT
  5
22
102
{ACAD_REACTORS
330
1A
102
}
330
1A
100
AcDbPlotSettings
  1

  2
none_device
  4

  6

 40
0.0
 41
0.0
 42
0.0
 43
0.0
 44
0.0
 45
0.0
 46
0.0
 47
0.0
 48
0.0
 49
0.0
140
0.0
141
0.0
142
1.0
143
1.0
 70
  1712
 72
     0
 73
     0
 74
     0
  7

 75
     0
147
1.0
148
0.0
149
0.0
100
AcDbLayout
  1
Model
 70
     1
 71
     0
 10
0.0
 20
0.0
 11
12.0
 21
9.0
 12
0.0
 22
0.0
 32
0.0
 14
0.0
 24
0.0
 34
0.0
 15
210.0
 25
297.0000000000001
 35
0.0
146
0.0
 13
0.0
 23
0.0
 33
0.0
 16
1.0
 26
0.0
 36
0.0
 17
0.0
 27
1.0
 37
0.0
 76
     0
330
1F
331
29
  0
MATERIAL
  5
3D
102
{ACAD_REACTORS
330
3B
102
}
102
{ACAD_XDICTIONARY
360
1E5
102
}
330
3B
100
AcDbMaterial
  1
ByBlock
  0
MATERIAL
  5
3C
102
{ACAD_REACTORS
330
3B
102
}
102
{ACAD_XDICTIONARY
360
1E3
102
}
330
3B
100
AcDbMaterial
  1
ByLayer
  0
MATERIAL
  5
3E
102
{ACAD_REACTORS
330
3B
102
}
102
{ACAD_XDICTIONARY
360
1E7
102
}
330
3B
100
AcDbMaterial
  1
Global
  0
MLINESTYLE
  5
18
102
{ACAD_REACTORS
330
17
102
}
330
17
100
AcDbMlineStyle
  2
Standard
 70
     0
  3

 62
   256
 51
90.0
 52
90.0
 71
     2
 49
0.5
 62
   256
  6
BYLAYER
 49
-0.5
 62
   256
  6
BYLAYER
  0
ACDBPLACEHOLDER
  5
F
102
{ACAD_REACTORS
330
E
102
}
330
E
  0
VISUALSTYLE
  5
2F
102
{ACAD_REACTORS
330
2A
102
}
102
{ACAD_XDICTIONARY
360
1CB
102
}
330
2A
100
AcDbVisualStyle
  2
2dWireframe
 70
     4
 71
     0
 72
     2
 73
     0
 90
        0
 40
-0.6
 41
-30.0
 62
     5
 63
     7
 74
     1
 91
        4
 64
     7
 65
   257
 75
     1
175
     1
 42
1.0
 92
        0
 66
   257
 43
1.0
 76
     1
 77
     6
 78
     2
 67
     7
 79
     5
170
     0
171
     0
290
     0
174
     0
 93
        1
 44
0.0
173
     0
291
     0
 45
0.0
1001
ACAD
1000
AcDbSavedByObjectVersion
1070
     0
  0
VISUALSTYLE
  5
31
102
{ACAD_REACTORS
330
2A
102
}
102
{ACAD_XDICTIONARY
360
1CF
102
}
330
2A
100
AcDbVisualStyle
  2
3D Hidden
 70
     6
 71
     1
 72
     2
 73
     2
 90
        0
 40
-0.6
 41
-30.0
 62
     5
 63
     7
 74
     2
 91
        2
 64
     7
 65
   257
 75
     2
175
     1
 42
40.0
 92
        0
 66
   257
 43
1.0
 76
     1
 77
     6
 78
     2
 67
     7
 79
     3
170
     0
171
     0
290
     0
174
     0
 93
        1
 44
0.0
173
     0
291
     0
 45
0.0
1001
ACAD
1000
AcDbSavedByObjectVersion
1070
     0
  0
VISUALSTYLE
  5
30
102
{ACAD_REACTORS
330
2A
102
}
102
{ACAD_XDICTIONARY
360
1CD
102
}
330
2A
100
AcDbVisualStyle
  2
3dWireframe
 70
     5
 71
     0
 72
     2
 73
     0
 90
        0
 40
-0.6
 41
-30.0
 62
     5
 63
     7
 74
     1
 91
        4
 64
     7
 65
   257
 75
     1
175
     1
 42
1.0
 92
        0
 66
   257
 43
1.0
 76
     1
 77
     6
 78
     2
 67
     7
 79
     5
170
     0
171
     0
290
     0
174
     0
 93
        1
 44
0.0
173
     0
291
     0
 45
0.0
1001
ACAD
1000
AcDbSavedByObjectVersion
1070
     0
  0
VISUALSTYLE
  5
32
102
{ACAD_REACTORS
330
2A
102
}
102
{ACAD_XDICTIONARY
360
1D1
102
}
330
2A
100
AcDbVisualStyle
  2
Basic
 70
     7
 71
     1
 72
     0
 73
     1
 90
        0
 40
-0.6
 41
-30.0
 62
     5
 63
     7
 74
     0
 91
        4
 64
     7
 65
   257
 75
     1
175
     1
 42
1.0
 92
        8
 66
     7
 43
1.0
 76
     1
 77
     6
 78
     2
 67
     7
 79
     5
170
     0
171
     0
290
     0
174
     0
 93
        1
 44
0.0
173
     0
291
     1
 45
0.0
1001
ACAD
1000
AcDbSavedByObjectVersion
1070
     0
  0
VISUALSTYLE
  5
36
102
{ACAD_REACTORS
330
2A
102
}
102
{ACAD_XDICTIONARY
360
1D9
102
}
330
2A
100
AcDbVisualStyle
  2
Brighten
 70
    12
 71
     2
 72
     2
 73
     0
 90
        0
 40
-0.6
 41
-30.0
 62
     5
 63
     7
 74
     1
 91
        4
 64
     7
 65
   257
 75
     1
175
     1
 42
1.0
 92
        8
 66
     7
 43
1.0
 76
     1
 77
     6
 78
     2
 67
     7
 79
     5
170
     0
171
     0
290
     0
174
     0
 93
        1
 44
50.0
173
     0
291
     1
 45
0.0
1001
ACAD
1000
AcDbSavedByObjectVersion
1070
     0
  0
VISUALSTYLE
  5
3A
102
{ACAD_REACTORS
330
2A
102
}
102
{ACAD_XDICTIONARY
360
1E1
102
}
330
2A
100
AcDbVisualStyle
  2
ColorChange
 70
    16
 71
     2
 72
     2
 73
     3
 90
        0
 40
-0.6
 41
-30.0
 62
     5
 63
     8
 74
     1
 91
        4
 64
     7
 65
   257
 75
     1
175
     1
 42
1.0
 92
        8
 66
     8
 43
1.0
 76
     1
 77
     6
 78
     2
 67
     7
 79
     5
170
     0
171
     0
290
     0
174
     0
 93
        1
 44
0.0
173
     0
291
     1
 45
0.0
1001
ACAD
1000
AcDbSavedByObjectVersion
1070
     0
  0
VISUALSTYLE
  5
34
102
{ACAD_REACTORS
330
2A
102
}
102
{ACAD_XDICTIONARY
360
1D5
102
}
330
2A
100
AcDbVisualStyle
  2
Conceptual
 70
     9
 71
     3
 72
     2
 73
     0
 90
        0
 40
-0.6
 41
-30.0
 62
     5
 63
     7
 74
     2
 91
        2
 64
     7
 65
   257
 75
     1
175
     1
 42
40.0
 92
        8
 66
     7
 43
1.0
 76
     1
 77
     6
 78
     2
 67
     7
 79
     3
170
     0
171
     0
290
     0
174
     0
 93
        1
 44
0.0
173
     0
291
     0
 45
0.0
1001
ACAD
1000
AcDbSavedByObjectVersion
1070
     0
  0
VISUALSTYLE
  5
35
102
{ACAD_REACTORS
330
2A
102
}
102
{ACAD_XDICTIONARY
360
1D7
102
}
330
2A
100
AcDbVisualStyle
  2
Dim
 70
    11
 71
     2
 72
     2
 73
     0
 90
        0
 40
-0.6
 41
-30.0
 62
     5
 63
     7
 74
     1
 91
        4
 64
     7
 65
   257
 75
     1
175
     1
 42
1.0
 92
        8
 66
     7
 43
1.0
 76
     1
 77
     6
 78
     2
 67
     7
 79
     5
170
     0
171
     0
290
     0
174
     0
 93
        1
 44
-50.0
173
     0
291
     1
 45
0.0
1001
ACAD
1000
AcDbSavedByObjectVersion
1070
     0
  0
VISUALSTYLE
  5
39
102
{ACAD_REACTORS
330
2A
102
}
102
{ACAD_XDICTIONARY
360
1DF
102
}
330
2A
100
AcDbVisualStyle
  2
Facepattern
 70
    15
 71
     2
 72
     2
 73
     0
 90
        0
 40
-0.6
 41
-30.0
 62
     5
 63
     7
 74
     1
 91
        4
 64
     7
 65
   257
 75
     1
175
     1
 42
1.0
 92
        8
 66
     7
 43
1.0
 76
     1
 77
     6
 78
     2
 67
     7
 79
     5
170
     0
171
     0
290
     0
174
     0
 93
        1
 44
0.0
173
     0
291
     1
 45
0.0
1001
ACAD
1000
AcDbSavedByObjectVersion
1070
     0
  0
VISUALSTYLE
  5
2B
102
{ACAD_REACTORS
330
2A
102
}
102
{ACAD_XDICTIONARY
360
1C3
102
}
330
2A
100
AcDbVisualStyle
  2
Flat
 70
     0
 71
     2
 72
     1
 73
     1
 90
        2
 40
-0.6
 41
30.0
 62
     5
 63
     7
 74
     0
 91
        4
 64
     7
 65
   257
 75
     1
175
     1
 42
1.0
 92
        8
 66
     7
 43
1.0
 76
     1
 77
     6
 78
     2
 67
     7
 79
     5
170
     0
171
     0
290
     0
174
     0
 93
       13
 44
0.0
173
     0
291
     1
 45
0.0
1001
ACAD
1000
AcDbSavedByObjectVersion
1070
     0
  0
VISUALSTYLE
  5
2C
102
{ACAD_REACTORS
330
2A
102
}
102
{ACAD_XDICTIONARY
360
1C5
102
}
330
2A
100
AcDbVisualStyle
  2
FlatWithEdges
 70
     1
 71
     2
 72
     1
 73
     1
 90
        2
 40
-0.6
 41
30.0
 62
     5
 63
     7
 74
     1
 91
        4
 64
     7
 65
   257
 75
     1
175
     1
 42
1.0
 92
        0
 66
   257
 43
1.0
 76
     1
 77
     6
 78
     2
 67
     7
 79
     5
170
     0
171
     0
290
     0
174
     0
 93
       13
 44
0.0
173
     0
291
     1
 45
0.0
1001
ACAD
1000
AcDbSavedByObjectVersion
1070
     0
  0
VISUALSTYLE
  5
2D
102
{ACAD_REACTORS
330
2A
102
}
102
{ACAD_XDICTIONARY
360
1C7
102
}
330
2A
100
AcDbVisualStyle
  2
Gouraud
 70
     2
 71
     2
 72
     2
 73
     1
 90
        2
 40
-0.6
 41
30.0
 62
     5
 63
     7
 74
     0
 91
        4
 64
     7
 65
   257
 75
     1
175
     1
 42
1.0
 92
        0
 66
     7
 43
1.0
 76
     1
 77
     6
 78
     2
 67
     7
 79
     5
170
     0
171
     0
290
     0
174
     0
 93
       13
 44
0.0
173
     0
291
     1
 45
0.0
1001
ACAD
1000
AcDbSavedByObjectVersion
1070
     0
  0
VISUALSTYLE
  5
2E
102
{ACAD_REACTORS
330
2A
102
}
102
{ACAD_XDICTIONARY
360
1C9
102
}
330
2A
100
AcDbVisualStyle
  2
GouraudWithEdges
 70
     3
 71
     2
 72
     2
 73
     1
 90
        2
 40
-0.6
 41
30.0
 62
     5
 63
     7
 74
     1
 91
        4
 64
     7
 65
   257
 75
     1
175
     1
 42
1.0
 92
        0
 66
   257
 43
1.0
 76
     1
 77
     6
 78
     2
 67
     7
 79
     5
170
     0
171
     0
290
     0
174
     0
 93
       13
 44
0.0
173
     0
291
     1
 45
0.0
1001
ACAD
1000
AcDbSavedByObjectVersion
1070
     0
  0
VISUALSTYLE
  5
38
102
{ACAD_REACTORS
330
2A
102
}
102
{ACAD_XDICTIONARY
360
1DD
102
}
330
2A
100
AcDbVisualStyle
  2
Linepattern
 70
    14
 71
     2
 72
     2
 73
     0
 90
        0
 40
-0.6
 41
-30.0
 62
     5
 63
     7
 74
     1
 91
        4
 64
     7
 65
   257
 75
     7
175
     7
 42
1.0
 92
        8
 66
     7
 43
1.0
 76
     1
 77
     6
 78
     2
 67
     7
 79
     5
170
     0
171
     0
290
     0
174
     0
 93
        1
 44
0.0
173
     0
291
     1
 45
0.0
1001
ACAD
1000
AcDbSavedByObjectVersion
1070
     0
  0
VISUALSTYLE
  5
33
102
{ACAD_REACTORS
330
2A
102
}
102
{ACAD_XDICTIONARY
360
1D3
102
}
330
2A
100
AcDbVisualStyle
  2
Realistic
 70
     8
 71
     2
 72
     2
 73
     0
 90
        0
 40
-0.6
 41
-30.0
 62
     5
 63
     7
 74
     1
 91
        0
 64
     7
 65
   257
 75
     1
175
     1
 42
1.0
 92
        8
 66
     8
 43
1.0
 76
     1
 77
     6
 78
     2
 67
     7
 79
     5
170
     0
171
     0
290
     0
174
     0
 93
       13
 44
0.0
173
     0
291
     0
 45
0.0
1001
ACAD
1000
AcDbSavedByObjectVersion
1070
     0
  0
VISUALSTYLE
  5
37
102
{ACAD_REACTORS
330
2A
102
}
102
{ACAD_XDICTIONARY
360
1DB
102
}
330
2A
100
AcDbVisualStyle
  2
Thicken
 70
    13
 71
     2
 72
     2
 73
     0
 90
        0
 40
-0.6
 41
-30.0
 62
     5
 63
     7
 74
     1
 91
        4
 64
     7
 65
   257
 75
     1
175
     1
 42
1.0
 92
       12
 66
     7
 43
1.0
 76
     1
 77
     6
 78
     2
 67
     7
 79
     5
170
     0
171
     0
290
     0
174
     0
 93
        1
 44
0.0
173
     0
291
     1
 45
0.0
1001
ACAD
1000
AcDbSavedByObjectVersion
1070
     0
  0
DICTIONARYVAR
  5
1C1
102
{ACAD_REACTORS
330
1BE
102
}
330
1BE
100
DictionaryVariables
280
     0
  1
2
  0
DICTIONARYVAR
  5
1C2
102
{ACAD_REACTORS
330
1BE
102
}
330
1BE
100
DictionaryVariables
280
     0
  1
1
  0
DICTIONARY
  5
1E5
330
3D
100
AcDbDictionary
280
     1
281
     1
  3
ACAD_XREC_ROUNDTRIP
360
1E6
  0
DICTIONARY
  5
1E3
330
3C
100
AcDbDictionary
280
     1
281
     1
  3
ACAD_XREC_ROUNDTRIP
360
1E4
  0
DICTIONARY
  5
1E7
330
3E
100
AcDbDictionary
280
     1
281
     1
  3
ACAD_XREC_ROUNDTRIP
360
1E8
  0
DICTIONARY
  5
1CB
330
2F
100
AcDbDictionary
280
     1
281
     1
  3
ACAD_XREC_ROUNDTRIP
360
1CC
  0
DICTIONARY
  5
1CF
330
31
100
AcDbDictionary
280
     1
281
     1
  3
ACAD_XREC_ROUNDTRIP
360
1D0
  0
DICTIONARY
  5
1CD
330
30
100
AcDbDictionary
280
     1
281
     1
  3
ACAD_XREC_ROUNDTRIP
360
1CE
  0
DICTIONARY
  5
1D1
330
32
100
AcDbDictionary
280
     1
281
     1
  3
ACAD_XREC_ROUNDTRIP
360
1D2
  0
DICTIONARY
  5
1D9
330
36
100
AcDbDictionary
280
     1
281
     1
  3
ACAD_XREC_ROUNDTRIP
360
1DA
  0
DICTIONARY
  5
1E1
330
3A
100
AcDbDictionary
280
     1
281
     1
  3
ACAD_XREC_ROUNDTRIP
360
1E2
  0
DICTIONARY
  5
1D5
330
34
100
AcDbDictionary
280
     1
281
     1
  3
ACAD_XREC_ROUNDTRIP
360
1D6
  0
DICTIONARY
  5
1D7
330
35
100
AcDbDictionary
280
     1
281
     1
  3
ACAD_XREC_ROUNDTRIP
360
1D8
  0
DICTIONARY
  5
1DF
330
39
100
AcDbDictionary
280
     1
281
     1
  3
ACAD_XREC_ROUNDTRIP
360
1E0
  0
DICTIONARY
  5
1C3
330
2B
100
AcDbDictionary
280
     1
281
     1
  3
ACAD_XREC_ROUNDTRIP
360
1C4
  0
DICTIONARY
  5
1C5
330
2C
100
AcDbDictionary
280
     1
281
     1
  3
ACAD_XREC_ROUNDTRIP
360
1C6
  0
DICTIONARY
  5
1C7
330
2D
100
AcDbDictionary
280
     1
281
     1
  3
ACAD_XREC_ROUNDTRIP
360
1C8
  0
DICTIONARY
  5
1C9
330
2E
100
AcDbDictionary
280
     1
281
     1
  3
ACAD_XREC_ROUNDTRIP
360
1CA
  0
DICTIONARY
  5
1DD
330
38
100
AcDbDictionary
280
     1
281
     1
  3
ACAD_XREC_ROUNDTRIP
360
1DE
  0
DICTIONARY
  5
1D3
330
33
100
AcDbDictionary
280
     1
281
     1
  3
ACAD_XREC_ROUNDTRIP
360
1D4
  0
DICTIONARY
  5
1DB
330
37
100
AcDbDictionary
280
     1
281
     1
  3
ACAD_XREC_ROUNDTRIP
360
1DC
  0
XRECORD
  5
1E6
102
{ACAD_REACTORS
330
1E5
102
}
330
1E5
100
AcDbXrecord
280
     1
102
MATERIAL
148
0.0
149
0.0
149
0.0
 93
        0
 94
      127
282
     0
 72
     1
 77
     1
171
     1
175
     1
179
     1
273
     0
  0
XRECORD
  5
1E4
102
{ACAD_REACTORS
330
1E3
102
}
330
1E3
100
AcDbXrecord
280
     1
102
MATERIAL
148
0.0
149
0.0
149
0.0
 93
        0
 94
      127
282
     0
 72
     1
 77
     1
171
     1
175
     1
179
     1
273
     0
  0
XRECORD
  5
1E8
102
{ACAD_REACTORS
330
1E7
102
}
330
1E7
100
AcDbXrecord
280
     1
102
MATERIAL
148
0.0
149
0.0
149
0.0
 93
        0
 94
      127
282
     0
 72
     1
 77
     1
171
     1
175
     1
179
     1
273
     0
  0
XRECORD
  5
1CC
102
{ACAD_REACTORS
330
1CB
102
}
330
1CB
100
AcDbXrecord
280
     1
102
RTVSPropertyOp0
 70
     1
102
RTVSPropertyOp1
 70
     1
102
RTVSPropertyOp2
 70
     1
102
RTVSPropertyOp3
 70
     1
102
RTVSPropertyOp4
 70
     1
102
RTVSPropertyOp5
 70
     1
102
RTVSPropertyOp6
 70
     1
102
RTVSPropertyOp7
 70
     1
102
RTVSPropertyOp8
 70
     1
102
RTVSPropertyOp9
 70
     1
102
RTVSPropertyOp10
 70
     1
102
RTVSPropertyOp11
 70
     1
102
RTVSPropertyOp12
 70
     1
102
RTVSPropertyOp13
 70
     1
102
RTVSPropertyOp14
 70
     1
102
RTVSPropertyOp15
 70
     1
102
RTVSPropertyOp16
 70
     1
102
RTVSPropertyOp17
 70
     1
102
RTVSPropertyOp18
 70
     1
102
RTVSPropertyOp19
 70
     1
102
RTVSPropertyOp20
 70
     1
102
RTVSPropertyOp21
 70
     1
102
RTVSPropertyOp22
 70
     1
102
RTVSPropertyOp23
 70
     1
102
RTVSPropertyOp24
 70
     1
102
RTVSPropertyOp25
 70
     1
102
RTVSPropertyOp26
 70
     1
102
RTVSPropertyOp27
 70
     1
102
RTVSPropertyOp28
 70
     1
102
RTVSPropertyOp29
 70
     1
102
RTVSPropertyOp30
 70
     1
102
RTVSPropertyOp31
 70
     1
102
RTVSPropertyOp32
 70
     1
  0
XRECORD
  5
1D0
102
{ACAD_REACTORS
330
1CF
102
}
330
1CF
100
AcDbXrecord
280
     1
102
RTVSPropertyOp0
 70
     1
102
RTVSPropertyOp1
 70
     1
102
RTVSPropertyOp2
 70
     1
102
RTVSPropertyOp3
 70
     1
102
RTVSPropertyOp4
 70
     1
102
RTVSPropertyOp5
 70
     1
102
RTVSPropertyOp6
 70
     1
102
RTVSPropertyOp7
 70
     1
102
RTVSPropertyOp8
 70
     1
102
RTVSPropertyOp9
 70
     1
102
RTVSPropertyOp10
 70
     1
102
RTVSPropertyOp11
 70
     1
102
RTVSPropertyOp12
 70
     1
102
RTVSPropertyOp13
 70
     1
102
RTVSPropertyOp14
 70
     1
102
RTVSPropertyOp15
 70
     1
102
RTVSPropertyOp16
 70
     1
102
RTVSPropertyOp17
 70
     1
102
RTVSPropertyOp18
 70
     1
102
RTVSPropertyOp19
 70
     1
102
RTVSPropertyOp20
 70
     1
102
RTVSPropertyOp21
 70
     1
102
RTVSPropertyOp22
 70
     1
102
RTVSPropertyOp23
 70
     1
102
RTVSPropertyOp24
 70
     1
102
RTVSPropertyOp25
 70
     1
102
RTVSPropertyOp26
 70
     1
102
RTVSPropertyOp27
 70
     1
102
RTVSPropertyOp28
 70
     1
102
RTVSPropertyOp29
 70
     1
102
RTVSPropertyOp30
 70
     1
102
RTVSPropertyOp31
 70
     1
102
RTVSPropertyOp32
 70
     1
  0
XRECORD
  5
1CE
102
{ACAD_REACTORS
330
1CD
102
}
330
1CD
100
AcDbXrecord
280
     1
102
RTVSPropertyOp0
 70
     1
102
RTVSPropertyOp1
 70
     1
102
RTVSPropertyOp2
 70
     1
102
RTVSPropertyOp3
 70
     1
102
RTVSPropertyOp4
 70
     1
102
RTVSPropertyOp5
 70
     1
102
RTVSPropertyOp6
 70
     1
102
RTVSPropertyOp7
 70
     1
102
RTVSPropertyOp8
 70
     1
102
RTVSPropertyOp9
 70
     1
102
RTVSPropertyOp10
 70
     1
102
RTVSPropertyOp11
 70
     1
102
RTVSPropertyOp12
 70
     1
102
RTVSPropertyOp13
 70
     1
102
RTVSPropertyOp14
 70
     1
102
RTVSPropertyOp15
 70
     1
102
RTVSPropertyOp16
 70
     1
102
RTVSPropertyOp17
 70
     1
102
RTVSPropertyOp18
 70
     1
102
RTVSPropertyOp19
 70
     1
102
RTVSPropertyOp20
 70
     1
102
RTVSPropertyOp21
 70
     1
102
RTVSPropertyOp22
 70
     1
102
RTVSPropertyOp23
 70
     1
102
RTVSPropertyOp24
 70
     1
102
RTVSPropertyOp25
 70
     1
102
RTVSPropertyOp26
 70
     1
102
RTVSPropertyOp27
 70
     1
102
RTVSPropertyOp28
 70
     1
102
RTVSPropertyOp29
 70
     1
102
RTVSPropertyOp30
 70
     1
102
RTVSPropertyOp31
 70
     1
102
RTVSPropertyOp32
 70
     1
  0
XRECORD
  5
1D2
102
{ACAD_REACTORS
330
1D1
102
}
330
1D1
100
AcDbXrecord
280
     1
102
RTVSPropertyOp0
 70
     1
102
RTVSPropertyOp1
 70
     1
102
RTVSPropertyOp2
 70
     1
102
RTVSPropertyOp3
 70
     1
102
RTVSPropertyOp4
 70
     1
102
RTVSPropertyOp5
 70
     1
102
RTVSPropertyOp6
 70
     1
102
RTVSPropertyOp7
 70
     1
102
RTVSPropertyOp8
 70
     1
102
RTVSPropertyOp9
 70
     1
102
RTVSPropertyOp10
 70
     1
102
RTVSPropertyOp11
 70
     1
102
RTVSPropertyOp12
 70
     1
102
RTVSPropertyOp13
 70
     1
102
RTVSPropertyOp14
 70
     1
102
RTVSPropertyOp15
 70
     1
102
RTVSPropertyOp16
 70
     1
102
RTVSPropertyOp17
 70
     1
102
RTVSPropertyOp18
 70
     1
102
RTVSPropertyOp19
 70
     1
102
RTVSPropertyOp20
 70
     1
102
RTVSPropertyOp21
 70
     1
102
RTVSPropertyOp22
 70
     1
102
RTVSPropertyOp23
 70
     1
102
RTVSPropertyOp24
 70
     1
102
RTVSPropertyOp25
 70
     1
102
RTVSPropertyOp26
 70
     1
102
RTVSPropertyOp27
 70
     1
102
RTVSPropertyOp28
 70
     1
102
RTVSPropertyOp29
 70
     1
102
RTVSPropertyOp30
 70
     1
102
RTVSPropertyOp31
 70
     1
102
RTVSPropertyOp32
 70
     1
  0
XRECORD
  5
1DA
102
{ACAD_REACTORS
330
1D9
102
}
330
1D9
100
AcDbXrecord
280
     1
102
RTVSPropertyOp0
 70
     1
102
RTVSPropertyOp1
 70
     1
102
RTVSPropertyOp2
 70
     1
102
RTVSPropertyOp3
 70
     1
102
RTVSPropertyOp4
 70
     1
102
RTVSPropertyOp5
 70
     1
102
RTVSPropertyOp6
 70
     1
102
RTVSPropertyOp7
 70
     1
102
RTVSPropertyOp8
 70
     1
102
RTVSPropertyOp9
 70
     1
102
RTVSPropertyOp10
 70
     1
102
RTVSPropertyOp11
 70
     1
102
RTVSPropertyOp12
 70
     1
102
RTVSPropertyOp13
 70
     1
102
RTVSPropertyOp14
 70
     1
102
RTVSPropertyOp15
 70
     1
102
RTVSPropertyOp16
 70
     1
102
RTVSPropertyOp17
 70
     1
102
RTVSPropertyOp18
 70
     1
102
RTVSPropertyOp19
 70
     1
102
RTVSPropertyOp20
 70
     1
102
RTVSPropertyOp21
 70
     1
102
RTVSPropertyOp22
 70
     1
102
RTVSPropertyOp23
 70
     1
102
RTVSPropertyOp24
 70
     1
102
RTVSPropertyOp25
 70
     1
102
RTVSPropertyOp26
 70
     1
102
RTVSPropertyOp27
 70
     1
102
RTVSPropertyOp28
 70
     1
102
RTVSPropertyOp29
 70
     1
102
RTVSPropertyOp30
 70
     1
102
RTVSPropertyOp31
 70
     1
102
RTVSPropertyOp32
 70
     1
  0
XRECORD
  5
1E2
102
{ACAD_REACTORS
330
1E1
102
}
330
1E1
100
AcDbXrecord
280
     1
102
RTVSPropertyOp0
 70
     1
102
RTVSPropertyOp1
 70
     1
102
RTVSPropertyOp2
 70
     1
102
RTVSPropertyOp3
 70
     1
102
RTVSPropertyOp4
 70
     1
102
RTVSPropertyOp5
 70
     1
102
RTVSPropertyOp6
 70
     1
102
RTVSPropertyOp7
 70
     1
102
RTVSPropertyOp8
 70
     1
102
RTVSPropertyOp9
 70
     1
102
RTVSPropertyOp10
 70
     1
102
RTVSPropertyOp11
 70
     1
102
RTVSPropertyOp12
 70
     1
102
RTVSPropertyOp13
 70
     1
102
RTVSPropertyOp14
 70
     1
102
RTVSPropertyOp15
 70
     1
102
RTVSPropertyOp16
 70
     1
102
RTVSPropertyOp17
 70
     1
102
RTVSPropertyOp18
 70
     1
102
RTVSPropertyOp19
 70
     1
102
RTVSPropertyOp20
 70
     1
102
RTVSPropertyOp21
 70
     1
102
RTVSPropertyOp22
 70
     1
102
RTVSPropertyOp23
 70
     1
102
RTVSPropertyOp24
 70
     1
102
RTVSPropertyOp25
 70
     1
102
RTVSPropertyOp26
 70
     1
102
RTVSPropertyOp27
 70
     1
102
RTVSPropertyOp28
 70
     1
102
RTVSPropertyOp29
 70
     1
102
RTVSPropertyOp30
 70
     1
102
RTVSPropertyOp31
 70
     1
102
RTVSPropertyOp32
 70
     1
  0
XRECORD
  5
1D6
102
{ACAD_REACTORS
330
1D5
102
}
330
1D5
100
AcDbXrecord
280
     1
102
RTVSPropertyOp0
 70
     1
102
RTVSPropertyOp1
 70
     1
102
RTVSPropertyOp2
 70
     1
102
RTVSPropertyOp3
 70
     1
102
RTVSPropertyOp4
 70
     1
102
RTVSPropertyOp5
 70
     1
102
RTVSPropertyOp6
 70
     1
102
RTVSPropertyOp7
 70
     1
102
RTVSPropertyOp8
 70
     1
102
RTVSPropertyOp9
 70
     1
102
RTVSPropertyOp10
 70
     1
102
RTVSPropertyOp11
 70
     1
102
RTVSPropertyOp12
 70
     1
102
RTVSPropertyOp13
 70
     1
102
RTVSPropertyOp14
 70
     1
102
RTVSPropertyOp15
 70
     1
102
RTVSPropertyOp16
 70
     1
102
RTVSPropertyOp17
 70
     1
102
RTVSPropertyOp18
 70
     1
102
RTVSPropertyOp19
 70
     1
102
RTVSPropertyOp20
 70
     1
102
RTVSPropertyOp21
 70
     1
102
RTVSPropertyOp22
 70
     1
102
RTVSPropertyOp23
 70
     1
102
RTVSPropertyOp24
 70
     1
102
RTVSPropertyOp25
 70
     1
102
RTVSPropertyOp26
 70
     1
102
RTVSPropertyOp27
 70
     1
102
RTVSPropertyOp28
 70
     1
102
RTVSPropertyOp29
 70
     1
102
RTVSPropertyOp30
 70
     1
102
RTVSPropertyOp31
 70
     1
102
RTVSPropertyOp32
 70
     1
  0
XRECORD
  5
1D8
102
{ACAD_REACTORS
330
1D7
102
}
330
1D7
100
AcDbXrecord
280
     1
102
RTVSPropertyOp0
 70
     1
102
RTVSPropertyOp1
 70
     1
102
RTVSPropertyOp2
 70
     1
102
RTVSPropertyOp3
 70
     1
102
RTVSPropertyOp4
 70
     1
102
RTVSPropertyOp5
 70
     1
102
RTVSPropertyOp6
 70
     1
102
RTVSPropertyOp7
 70
     1
102
RTVSPropertyOp8
 70
     1
102
RTVSPropertyOp9
 70
     1
102
RTVSPropertyOp10
 70
     1
102
RTVSPropertyOp11
 70
     1
102
RTVSPropertyOp12
 70
     1
102
RTVSPropertyOp13
 70
     1
102
RTVSPropertyOp14
 70
     1
102
RTVSPropertyOp15
 70
     1
102
RTVSPropertyOp16
 70
     1
102
RTVSPropertyOp17
 70
     1
102
RTVSPropertyOp18
 70
     1
102
RTVSPropertyOp19
 70
     1
102
RTVSPropertyOp20
 70
     1
102
RTVSPropertyOp21
 70
     1
102
RTVSPropertyOp22
 70
     1
102
RTVSPropertyOp23
 70
     1
102
RTVSPropertyOp24
 70
     1
102
RTVSPropertyOp25
 70
     1
102
RTVSPropertyOp26
 70
     1
102
RTVSPropertyOp27
 70
     1
102
RTVSPropertyOp28
 70
     1
102
RTVSPropertyOp29
 70
     1
102
RTVSPropertyOp30
 70
     1
102
RTVSPropertyOp31
 70
     1
102
RTVSPropertyOp32
 70
     1
  0
XRECORD
  5
1E0
102
{ACAD_REACTORS
330
1DF
102
}
330
1DF
100
AcDbXrecord
280
     1
102
RTVSPropertyOp0
 70
     1
102
RTVSPropertyOp1
 70
     1
102
RTVSPropertyOp2
 70
     1
102
RTVSPropertyOp3
 70
     1
102
RTVSPropertyOp4
 70
     1
102
RTVSPropertyOp5
 70
     1
102
RTVSPropertyOp6
 70
     1
102
RTVSPropertyOp7
 70
     1
102
RTVSPropertyOp8
 70
     1
102
RTVSPropertyOp9
 70
     1
102
RTVSPropertyOp10
 70
     1
102
RTVSPropertyOp11
 70
     1
102
RTVSPropertyOp12
 70
     1
102
RTVSPropertyOp13
 70
     1
102
RTVSPropertyOp14
 70
     1
102
RTVSPropertyOp15
 70
     1
102
RTVSPropertyOp16
 70
     1
102
RTVSPropertyOp17
 70
     1
102
RTVSPropertyOp18
 70
     1
102
RTVSPropertyOp19
 70
     1
102
RTVSPropertyOp20
 70
     1
102
RTVSPropertyOp21
 70
     1
102
RTVSPropertyOp22
 70
     1
102
RTVSPropertyOp23
 70
     1
102
RTVSPropertyOp24
 70
     1
102
RTVSPropertyOp25
 70
     1
102
RTVSPropertyOp26
 70
     1
102
RTVSPropertyOp27
 70
     1
102
RTVSPropertyOp28
 70
     1
102
RTVSPropertyOp29
 70
     1
102
RTVSPropertyOp30
 70
     1
102
RTVSPropertyOp31
 70
     1
102
RTVSPropertyOp32
 70
     1
  0
XRECORD
  5
1C4
102
{ACAD_REACTORS
330
1C3
102
}
330
1C3
100
AcDbXrecord
280
     1
102
RTVSPropertyOp0
 70
     1
102
RTVSPropertyOp1
 70
     1
102
RTVSPropertyOp2
 70
     1
102
RTVSPropertyOp3
 70
     1
102
RTVSPropertyOp4
 70
     1
102
RTVSPropertyOp5
 70
     1
102
RTVSPropertyOp6
 70
     1
102
RTVSPropertyOp7
 70
     1
102
RTVSPropertyOp8
 70
     1
102
RTVSPropertyOp9
 70
     1
102
RTVSPropertyOp10
 70
     1
102
RTVSPropertyOp11
 70
     1
102
RTVSPropertyOp12
 70
     1
102
RTVSPropertyOp13
 70
     1
102
RTVSPropertyOp14
 70
     1
102
RTVSPropertyOp15
 70
     1
102
RTVSPropertyOp16
 70
     1
102
RTVSPropertyOp17
 70
     1
102
RTVSPropertyOp18
 70
     1
102
RTVSPropertyOp19
 70
     1
102
RTVSPropertyOp20
 70
     1
102
RTVSPropertyOp21
 70
     1
102
RTVSPropertyOp22
 70
     1
102
RTVSPropertyOp23
 70
     1
102
RTVSPropertyOp24
 70
     1
102
RTVSPropertyOp25
 70
     1
102
RTVSPropertyOp26
 70
     1
102
RTVSPropertyOp27
 70
     1
102
RTVSPropertyOp28
 70
     1
102
RTVSPropertyOp29
 70
     1
102
RTVSPropertyOp30
 70
     1
102
RTVSPropertyOp31
 70
     1
102
RTVSPropertyOp32
 70
     1
  0
XRECORD
  5
1C6
102
{ACAD_REACTORS
330
1C5
102
}
330
1C5
100
AcDbXrecord
280
     1
102
RTVSPropertyOp0
 70
     1
102
RTVSPropertyOp1
 70
     1
102
RTVSPropertyOp2
 70
     1
102
RTVSPropertyOp3
 70
     1
102
RTVSPropertyOp4
 70
     1
102
RTVSPropertyOp5
 70
     1
102
RTVSPropertyOp6
 70
     1
102
RTVSPropertyOp7
 70
     1
102
RTVSPropertyOp8
 70
     1
102
RTVSPropertyOp9
 70
     1
102
RTVSPropertyOp10
 70
     1
102
RTVSPropertyOp11
 70
     1
102
RTVSPropertyOp12
 70
     1
102
RTVSPropertyOp13
 70
     1
102
RTVSPropertyOp14
 70
     1
102
RTVSPropertyOp15
 70
     1
102
RTVSPropertyOp16
 70
     1
102
RTVSPropertyOp17
 70
     1
102
RTVSPropertyOp18
 70
     1
102
RTVSPropertyOp19
 70
     1
102
RTVSPropertyOp20
 70
     1
102
RTVSPropertyOp21
 70
     1
102
RTVSPropertyOp22
 70
     1
102
RTVSPropertyOp23
 70
     1
102
RTVSPropertyOp24
 70
     1
102
RTVSPropertyOp25
 70
     1
102
RTVSPropertyOp26
 70
     1
102
RTVSPropertyOp27
 70
     1
102
RTVSPropertyOp28
 70
     1
102
RTVSPropertyOp29
 70
     1
102
RTVSPropertyOp30
 70
     1
102
RTVSPropertyOp31
 70
     1
102
RTVSPropertyOp32
 70
     1
  0
XRECORD
  5
1C8
102
{ACAD_REACTORS
330
1C7
102
}
330
1C7
100
AcDbXrecord
280
     1
102
RTVSPropertyOp0
 70
     1
102
RTVSPropertyOp1
 70
     1
102
RTVSPropertyOp2
 70
     1
102
RTVSPropertyOp3
 70
     1
102
RTVSPropertyOp4
 70
     1
102
RTVSPropertyOp5
 70
     1
102
RTVSPropertyOp6
 70
     1
102
RTVSPropertyOp7
 70
     1
102
RTVSPropertyOp8
 70
     1
102
RTVSPropertyOp9
 70
     1
102
RTVSPropertyOp10
 70
     1
102
RTVSPropertyOp11
 70
     1
102
RTVSPropertyOp12
 70
     1
102
RTVSPropertyOp13
 70
     1
102
RTVSPropertyOp14
 70
     1
102
RTVSPropertyOp15
 70
     1
102
RTVSPropertyOp16
 70
     1
102
RTVSPropertyOp17
 70
     1
102
RTVSPropertyOp18
 70
     1
102
RTVSPropertyOp19
 70
     1
102
RTVSPropertyOp20
 70
     1
102
RTVSPropertyOp21
 70
     1
102
RTVSPropertyOp22
 70
     1
102
RTVSPropertyOp23
 70
     1
102
RTVSPropertyOp24
 70
     1
102
RTVSPropertyOp25
 70
     1
102
RTVSPropertyOp26
 70
     1
102
RTVSPropertyOp27
 70
     1
102
RTVSPropertyOp28
 70
     1
102
RTVSPropertyOp29
 70
     1
102
RTVSPropertyOp30
 70
     1
102
RTVSPropertyOp31
 70
     1
102
RTVSPropertyOp32
 70
     1
  0
XRECORD
  5
1CA
102
{ACAD_REACTORS
330
1C9
102
}
330
1C9
100
AcDbXrecord
280
     1
102
RTVSPropertyOp0
 70
     1
102
RTVSPropertyOp1
 70
     1
102
RTVSPropertyOp2
 70
     1
102
RTVSPropertyOp3
 70
     1
102
RTVSPropertyOp4
 70
     1
102
RTVSPropertyOp5
 70
     1
102
RTVSPropertyOp6
 70
     1
102
RTVSPropertyOp7
 70
     1
102
RTVSPropertyOp8
 70
     1
102
RTVSPropertyOp9
 70
     1
102
RTVSPropertyOp10
 70
     1
102
RTVSPropertyOp11
 70
     1
102
RTVSPropertyOp12
 70
     1
102
RTVSPropertyOp13
 70
     1
102
RTVSPropertyOp14
 70
     1
102
RTVSPropertyOp15
 70
     1
102
RTVSPropertyOp16
 70
     1
102
RTVSPropertyOp17
 70
     1
102
RTVSPropertyOp18
 70
     1
102
RTVSPropertyOp19
 70
     1
102
RTVSPropertyOp20
 70
     1
102
RTVSPropertyOp21
 70
     1
102
RTVSPropertyOp22
 70
     1
102
RTVSPropertyOp23
 70
     1
102
RTVSPropertyOp24
 70
     1
102
RTVSPropertyOp25
 70
     1
102
RTVSPropertyOp26
 70
     1
102
RTVSPropertyOp27
 70
     1
102
RTVSPropertyOp28
 70
     1
102
RTVSPropertyOp29
 70
     1
102
RTVSPropertyOp30
 70
     1
102
RTVSPropertyOp31
 70
     1
102
RTVSPropertyOp32
 70
     1
  0
XRECORD
  5
1DE
102
{ACAD_REACTORS
330
1DD
102
}
330
1DD
100
AcDbXrecord
280
     1
102
RTVSPropertyOp0
 70
     1
102
RTVSPropertyOp1
 70
     1
102
RTVSPropertyOp2
 70
     1
102
RTVSPropertyOp3
 70
     1
102
RTVSPropertyOp4
 70
     1
102
RTVSPropertyOp5
 70
     1
102
RTVSPropertyOp6
 70
     1
102
RTVSPropertyOp7
 70
     1
102
RTVSPropertyOp8
 70
     1
102
RTVSPropertyOp9
 70
     1
102
RTVSPropertyOp10
 70
     1
102
RTVSPropertyOp11
 70
     1
102
RTVSPropertyOp12
 70
     1
102
RTVSPropertyOp13
 70
     1
102
RTVSPropertyOp14
 70
     1
102
RTVSPropertyOp15
 70
     1
102
RTVSPropertyOp16
 70
     1
102
RTVSPropertyOp17
 70
     1
102
RTVSPropertyOp18
 70
     1
102
RTVSPropertyOp19
 70
     1
102
RTVSPropertyOp20
 70
     1
102
RTVSPropertyOp21
 70
     1
102
RTVSPropertyOp22
 70
     1
102
RTVSPropertyOp23
 70
     1
102
RTVSPropertyOp24
 70
     1
102
RTVSPropertyOp25
 70
     1
102
RTVSPropertyOp26
 70
     1
102
RTVSPropertyOp27
 70
     1
102
RTVSPropertyOp28
 70
     1
102
RTVSPropertyOp29
 70
     1
102
RTVSPropertyOp30
 70
     1
102
RTVSPropertyOp31
 70
     1
102
RTVSPropertyOp32
 70
     1
  0
XRECORD
  5
1D4
102
{ACAD_REACTORS
330
1D3
102
}
330
1D3
100
AcDbXrecord
280
     1
102
RTVSPropertyOp0
 70
     1
102
RTVSPropertyOp1
 70
     1
102
RTVSPropertyOp2
 70
     1
102
RTVSPropertyOp3
 70
     1
102
RTVSPropertyOp4
 70
     1
102
RTVSPropertyOp5
 70
     1
102
RTVSPropertyOp6
 70
     1
102
RTVSPropertyOp7
 70
     1
102
RTVSPropertyOp8
 70
     1
102
RTVSPropertyOp9
 70
     1
102
RTVSPropertyOp10
 70
     1
102
RTVSPropertyOp11
 70
     1
102
RTVSPropertyOp12
 70
     1
102
RTVSPropertyOp13
 70
     1
102
RTVSPropertyOp14
 70
     1
102
RTVSPropertyOp15
 70
     1
102
RTVSPropertyOp16
 70
     1
102
RTVSPropertyOp17
 70
     1
102
RTVSPropertyOp18
 70
     1
102
RTVSPropertyOp19
 70
     1
102
RTVSPropertyOp20
 70
     1
102
RTVSPropertyOp21
 70
     1
102
RTVSPropertyOp22
 70
     1
102
RTVSPropertyOp23
 70
     1
102
RTVSPropertyOp24
 70
     1
102
RTVSPropertyOp25
 70
     1
102
RTVSPropertyOp26
 70
     1
102
RTVSPropertyOp27
 70
     1
102
RTVSPropertyOp28
 70
     1
102
RTVSPropertyOp29
 70
     1
102
RTVSPropertyOp30
 70
     1
102
RTVSPropertyOp31
 70
     1
102
RTVSPropertyOp32
 70
     1
  0
XRECORD
  5
1DC
102
{ACAD_REACTORS
330
1DB
102
}
330
1DB
100
AcDbXrecord
280
     1
102
RTVSPropertyOp0
 70
     1
102
RTVSPropertyOp1
 70
     1
102
RTVSPropertyOp2
 70
     1
102
RTVSPropertyOp3
 70
     1
102
RTVSPropertyOp4
 70
     1
102
RTVSPropertyOp5
 70
     1
102
RTVSPropertyOp6
 70
     1
102
RTVSPropertyOp7
 70
     1
102
RTVSPropertyOp8
 70
     1
102
RTVSPropertyOp9
 70
     1
102
RTVSPropertyOp10
 70
     1
102
RTVSPropertyOp11
 70
     1
102
RTVSPropertyOp12
 70
     1
102
RTVSPropertyOp13
 70
     1
102
RTVSPropertyOp14
 70
     1
102
RTVSPropertyOp15
 70
     1
102
RTVSPropertyOp16
 70
     1
102
RTVSPropertyOp17
 70
     1
102
RTVSPropertyOp18
 70
     1
102
RTVSPropertyOp19
 70
     1
102
RTVSPropertyOp20
 70
     1
102
RTVSPropertyOp21
 70
     1
102
RTVSPropertyOp22
 70
     1
102
RTVSPropertyOp23
 70
     1
102
RTVSPropertyOp24
 70
     1
102
RTVSPropertyOp25
 70
     1
102
RTVSPropertyOp26
 70
     1
102
RTVSPropertyOp27
 70
     1
102
RTVSPropertyOp28
 70
     1
102
RTVSPropertyOp29
 70
     1
102
RTVSPropertyOp30
 70
     1
102
RTVSPropertyOp31
 70
     1
102
RTVSPropertyOp32
 70
     1
  0
ENDSEC
  0
EOF
