  0
SECTION
  2
HEADER
  9
$ACADVER
  1
AC1015
  9
$ACADMAINTVER
 70
     6
  9
$DWGCODEPAGE
  3
ANSI_932
  9
$INSBASE
 10
0.0
 20
0.0
 30
0.0
  9
$EXTMIN
 10
0.0
 20
-14.04701863624058
 30
0.0
  9
$EXTMAX
 10
210.0
 20
282.9529813637594
 30
0.0
  9
$LIMMIN
 10
0.0
 20
0.0
  9
$LIMMAX
 10
12.0
 20
9.0
  9
$ORTHOMODE
 70
     0
  9
$REGENMODE
 70
     1
  9
$FILLMODE
 70
     1
  9
$QTEXTMODE
 70
     0
  9
$MIRRTEXT
 70
     1
  9
$LTSCALE
 40
1.0
  9
$ATTMODE
 70
     1
  9
$TEXTSIZE
 40
0.2
  9
$TRACEWID
 40
0.05
  9
$TEXTSTYLE
  7
Standard
  9
$CLAYER
  8
0
  9
$CELTYPE
  6
ByLayer
  9
$CECOLOR
 62
   256
  9
$CELTSCALE
 40
1.0
  9
$DISPSILH
 70
     0
  9
$DIMSCALE
 40
1.0
  9
$DIMASZ
 40
0.18
  9
$DIMEXO
 40
0.0625
  9
$DIMDLI
 40
0.38
  9
$DIMRND
 40
0.0
  9
$DIMDLE
 40
0.0
  9
$DIMEXE
 40
0.18
  9
$DIMTP
 40
0.0
  9
$DIMTM
 40
0.0
  9
$DIMTXT
 40
0.18
  9
$DIMCEN
 40
0.09
  9
$DIMTSZ
 40
0.0
  9
$DIMTOL
 70
     0
  9
$DIMLIM
 70
     0
  9
$DIMTIH
 70
     1
  9
$DIMTOH
 70
     1
  9
$DIMSE1
 70
     0
  9
$DIMSE2
 70
     0
  9
$DIMTAD
 70
     0
  9
$DIMZIN
 70
     0
  9
$DIMBLK
  1

  9
$DIMASO
 70
     1
  9
$DIMSHO
 70
     1
  9
$DIMPOST
  1

  9
$DIMAPOST
  1

  9
$DIMALT
 70
     0
  9
$DIMALTD
 70
     2
  9
$DIMALTF
 40
25.4
  9
$DIMLFAC
 40
1.0
  9
$DIMTOFL
 70
     0
  9
$DIMTVP
 40
0.0
  9
$DIMTIX
 70
     0
  9
$DIMSOXD
 70
     0
  9
$DIMSAH
 70
     0
  9
$DIMBLK1
  1

  9
$DIMBLK2
  1

  9
$DIMSTYLE
  2
Standard
  9
$DIMCLRD
 70
     0
  9
$DIMCLRE
 70
     0
  9
$DIMCLRT
 70
     0
  9
$DIMTFAC
 40
1.0
  9
$DIMGAP
 40
0.09
  9
$DIMJUST
 70
     0
  9
$DIMSD1
 70
     0
  9
$DIMSD2
 70
     0
  9
$DIMTOLJ
 70
     1
  9
$DIMTZIN
 70
     0
  9
$DIMALTZ
 70
     0
  9
$DIMALTTZ
 70
     0
  9
$DIMUPT
 70
     0
  9
$DIMDEC
 70
     4
  9
$DIMTDEC
 70
     4
  9
$DIMALTU
 70
     2
  9
$DIMALTTD
 70
     2
  9
$DIMTXSTY
  7
Standard
  9
$DIMAUNIT
 70
     0
  9
$DIMADEC
 70
     0
  9
$DIMALTRND
 40
0.0
  9
$DIMAZIN
 70
     0
  9
$DIMDSEP
 70
    46
  9
$DIMATFIT
 70
     3
  9
$DIMFRAC
 70
     0
  9
$DIMLDRBLK
  1

  9
$DIMLUNIT
 70
     2
  9
$DIMLWD
 70
    -2
  9
$DIMLWE
 70
    -2
  9
$DIMTMOVE
 70
     0
  9
$LUNITS
 70
     2
  9
$LUPREC
 70
     4
  9
$SKETCHINC
 40
0.1
  9
$FILLETRAD
 40
0.5
  9
$AUNITS
 70
     0
  9
$AUPREC
 70
     0
  9
$MENU
  1
.
  9
$ELEVATION
 40
0.0
  9
$PELEVATION
 40
0.0
  9
$THICKNESS
 40
0.0
  9
$LIMCHECK
 70
     0
  9
$CHAMFERA
 40
0.5
  9
$CHAMFERB
 40
0.5
  9
$CHAMFERC
 40
1.0
  9
$CHAMFERD
 40
0.0
  9
$SKPOLY
 70
     0
  9
$TDCREATE
 40
2460334.585969641
  9
$TDUCREATE
 40
2460334.210969641
  9
$TDUPDATE
 40
2460334.585971088
  9
$TDUUPDATE
 40
2460334.210971088
  9
$TDINDWG
 40
0.0000000116
  9
$TDUSRTIMER
 40
0.0000000116
  9
$USRTIMER
 70
     1
  9
$ANGBASE
 50
0.0
  9
$ANGDIR
 70
     0
  9
$PDMODE
 70
     0
  9
$PDSIZE
 40
0.0
  9
$PLINEWID
 40
0.0
  9
$SPLFRAME
 70
     0
  9
$SPLINETYPE
 70
     6
  9
$SPLINESEGS
 70
     8
  9
$HANDSEED
  5
1CE
  9
$SURFTAB1
 70
     6
  9
$SURFTAB2
 70
     6
  9
$SURFTYPE
 70
     6
  9
$SURFU
 70
     6
  9
$SURFV
 70
     6
  9
$UCSBASE
  2

  9
$UCSNAME
  2

  9
$UCSORG
 10
0.0
 20
0.0
 30
0.0
  9
$UCSXDIR
 10
1.0
 20
0.0
 30
0.0
  9
$UCSYDIR
 10
0.0
 20
1.0
 30
0.0
  9
$UCSORTHOREF
  2

  9
$UCSORTHOVIEW
 70
     0
  9
$UCSORGTOP
 10
0.0
 20
0.0
 30
0.0
  9
$UCSORGBOTTOM
 10
0.0
 20
0.0
 30
0.0
  9
$UCSORGLEFT
 10
0.0
 20
0.0
 30
0.0
  9
$UCSORGRIGHT
 10
0.0
 20
0.0
 30
0.0
  9
$UCSORGFRONT
 10
0.0
 20
0.0
 30
0.0
  9
$UCSORGBACK
 10
0.0
 20
0.0
 30
0.0
  9
$PUCSBASE
  2

  9
$PUCSNAME
  2

  9
$PUCSORG
 10
0.0
 20
0.0
 30
0.0
  9
$PUCSXDIR
 10
1.0
 20
0.0
 30
0.0
  9
$PUCSYDIR
 10
0.0
 20
1.0
 30
0.0
  9
$PUCSORTHOREF
  2

  9
$PUCSORTHOVIEW
 70
     0
  9
$PUCSORGTOP
 10
0.0
 20
0.0
 30
0.0
  9
$PUCSORGBOTTOM
 10
0.0
 20
0.0
 30
0.0
  9
$PUCSORGLEFT
 10
0.0
 20
0.0
 30
0.0
  9
$PUCSORGRIGHT
 10
0.0
 20
0.0
 30
0.0
  9
$PUCSORGFRONT
 10
0.0
 20
0.0
 30
0.0
  9
$PUCSORGBACK
 10
0.0
 20
0.0
 30
0.0
  9
$USERI1
 70
     0
  9
$USERI2
 70
     0
  9
$USERI3
 70
     0
  9
$USERI4
 70
     0
  9
$USERI5
 70
     0
  9
$USERR1
 40
18.1
  9
$USERR2
 40
0.0
  9
$USERR3
 40
0.0
  9
$USERR4
 40
0.0
  9
$USERR5
 40
0.0
  9
$WORLDVIEW
 70
     1
  9
$SHADEDGE
 70
     3
  9
$SHADEDIF
 70
    70
  9
$TILEMODE
 70
     1
  9
$MAXACTVP
 70
    64
  9
$PINSBASE
 10
0.0
 20
0.0
 30
0.0
  9
$PLIMCHECK
 70
     0
  9
$PEXTMIN
 10
1.00000000000000E+20
 20
1.00000000000000E+20
 30
1.00000000000000E+20
  9
$PEXTMAX
 10
-1.00000000000000E+20
 20
-1.00000000000000E+20
 30
-1.00000000000000E+20
  9
$PLIMMIN
 10
0.0
 20
0.0
  9
$PLIMMAX
 10
12.0
 20
9.0
  9
$UNITMODE
 70
     0
  9
$VISRETAIN
 70
     1
  9
$PLINEGEN
 70
     0
  9
$PSLTSCALE
 70
     1
  9
$TREEDEPTH
 70
  3020
  9
$CMLSTYLE
  2
Standard
  9
$CMLJUST
 70
     0
  9
$CMLSCALE
 40
1.0
  9
$PROXYGRAPHICS
 70
     1
  9
$MEASUREMENT
 70
     1
  9
$CELWEIGHT
370
    -1
  9
$ENDCAPS
280
     0
  9
$JOINSTYLE
280
     0
  9
$LWDISPLAY
290
     0
  9
$INSUNITS
 70
     4
  9
$HYPERLINKBASE
  1

  9
$STYLESHEET
  1

  9
$XEDIT
290
     1
  9
$CEPSNTYPE
380
     0
  9
$PSTYLEMODE
290
     1
  9
$FINGERPRINTGUID
  2
{3EAAB28F-D077-43F5-9472-819A62D8A4B7}
  9
$VERSIONGUID
  2
{FAEB1C32-E019-11D5-929B-00C0DF256EC4}
  9
$EXTNAMES
290
     1
  9
$PSVPSCALE
 40
0.0
  9
$OLESTARTUP
290
     0
  0
ENDSEC
  0
SECTION
  2
CLASSES
  0
CLASS
  1
ACDBDICTIONARYWDFLT
  2
AcDbDictionaryWithDefault
  3
ObjectDBX Classes
 90
        0
280
     0
281
     0
  0
CLASS
  1
VISUALSTYLE
  2
AcDbVisualStyle
  3
ObjectDBX Classes
 90
     4095
280
     0
281
     0
  0
CLASS
  1
MATERIAL
  2
AcDbMaterial
  3
ObjectDBX Classes
 90
     1153
280
     0
281
     0
  0
CLASS
  1
DICTIONARYVAR
  2
AcDbDictionaryVar
  3
ObjectDBX Classes
 90
        0
280
     0
281
     0
  0
CLASS
  1
ACDBPLACEHOLDER
  2
AcDbPlaceHolder
  3
ObjectDBX Classes
 90
        0
280
     0
281
     0
  0
CLASS
  1
LAYOUT
  2
AcDbLayout
  3
ObjectDBX Classes
 90
        0
280
     0
281
     0
  0
ENDSEC
  0
SECTION
  2
TABLES
  0
TABLE
  2
VPORT
  5
8
330
0
100
AcDbSymbolTable
 70
     1
  0
VPORT
  5
29
330
8
100
AcDbSymbolTableRecord
100
AcDbViewportTableRecord
  2
*Active
 70
     0
 10
0.0
 20
0.0
 11
1.0
 21
1.0
 12
105.0
 22
134.4529813637594
 13
0.0
 23
0.0
 14
0.5
 24
0.5
 15
0.5
 25
0.5
 16
0.0
 26
0.0
 36
1.0
 17
0.0
 27
0.0
 37
0.0
 40
326.7
 41
1.60267857142857
 42
50.0
 43
0.0
 44
0.0
 50
0.0
 51
0.0
 71
     0
 72
   100
 73
     1
 74
     3
 75
     0
 76
     0
 77
     0
 78
     0
281
     0
 65
     1
110
0.0
120
0.0
130
0.0
111
1.0
121
0.0
131
0.0
112
0.0
122
1.0
132
0.0
 79
     0
146
0.0
  0
ENDTAB
  0
TABLE
  2
LTYPE
  5
5
330
0
100
AcDbSymbolTable
 70
     8
  0
LTYPE
  5
14
330
5
100
AcDbSymbolTableRecord
100
AcDbLinetypeTableRecord
  2
ByBlock
 70
     0
  3

 72
    65
 73
     0
 40
0.0
  0
LTYPE
  5
15
330
5
100
AcDbSymbolTableRecord
100
AcDbLinetypeTableRecord
  2
ByLayer
 70
     0
  3

 72
    65
 73
     0
 40
0.0
  0
LTYPE
  5
16
330
5
100
AcDbSymbolTableRecord
100
AcDbLinetypeTableRecord
  2
Continuous
 70
     0
  3
Solid line
 72
    65
 73
     0
 40
0.0
  0
LTYPE
  5
3F
330
5
100
AcDbSymbolTableRecord
100
AcDbLinetypeTableRecord
  2
DASHED
 70
     0
  3
Dashed
 72
    65
 73
     2
 40
15.0
 49
7.0
 74
     0
 49
-8.0
 74
     0
  0
LTYPE
  5
40
330
5
100
AcDbSymbolTableRecord
100
AcDbLinetypeTableRecord
  2
DOTTED
 70
     0
  3
Dotted
 72
    65
 73
     2
 40
1.0
 49
0.0
 74
     0
 49
-1.0
 74
     0
  0
LTYPE
  5
41
330
5
100
AcDbSymbolTableRecord
100
AcDbLinetypeTableRecord
  2
DOT_CENTER
 70
     0
  3
Dot_Center
 72
    65
 73
     4
 40
14.0
 49
12.0
 74
     0
 49
-1.0
 74
     0
 49
0.0
 74
     0
 49
-1.0
 74
     0
  0
LTYPE
  5
42
330
5
100
AcDbSymbolTableRecord
100
AcDbLinetypeTableRecord
  2
LONG_DASHED
 70
     0
  3
Long_Dashed
 72
    65
 73
     2
 40
15.0
 49
10.0
 74
     0
 49
-5.0
 74
     0
  0
LTYPE
  5
43
330
5
100
AcDbSymbolTableRecord
100
AcDbLinetypeTableRecord
  2
DASH_CENTER
 70
     0
  3
Dash_Center
 72
    65
 73
     4
 40
14.0
 49
11.0
 74
     0
 49
-1.0
 74
     0
 49
1.0
 74
     0
 49
-1.0
 74
     0
  0
LTYPE
  5
44
330
5
100
AcDbSymbolTableRecord
100
AcDbLinetypeTableRecord
  2
PHANTOM
 70
     0
  3
Phantom
 72
    65
 73
     6
 40
13.0
 49
10.0
 74
     0
 49
-1.0
 74
     0
 49
0.0
 74
     0
 49
-1.0
 74
     0
 49
0.0
 74
     0
 49
-1.0
 74
     0
  0
LTYPE
  5
45
330
5
100
AcDbSymbolTableRecord
100
AcDbLinetypeTableRecord
  2
CENTER_DASH_DASH
 70
     0
  3
Center_Dash_Dash
 72
    65
 73
     6
 40
14.0
 49
9.0
 74
     0
 49
-1.0
 74
     0
 49
1.0
 74
     0
 49
-1.0
 74
     0
 49
1.0
 74
     0
 49
-1.0
 74
     0
  0
ENDTAB
  0
TABLE
  2
LAYER
  5
2
330
0
100
AcDbSymbolTable
 70
     4
  0
LAYER
  5
10
330
2
100
AcDbSymbolTableRecord
100
AcDbLayerTableRecord
  2
0
 70
     0
 62
     7
  6
Continuous
370
    -3
390
F
  0
LAYER
  5
46
330
2
100
AcDbSymbolTableRecord
100
AcDbLayerTableRecord
  2
1
 70
     0
 62
     7
  6
Continuous
370
    -3
390
F
  0
LAYER
  5
47
330
2
100
AcDbSymbolTableRecord
100
AcDbLayerTableRecord
  2
LAY-3
 70
     0
 62
     7
  6
Continuous
370
    -3
390
F
  0
LAYER
  5
48
330
2
100
AcDbSymbolTableRecord
100
AcDbLayerTableRecord
  2
_U_30EC_U_30A4_U_30E4_U_30FC_1
 70
     0
 62
     7
  6
Continuous
370
    -3
390
F
  0
ENDTAB
  0
TABLE
  2
STYLE
  5
3
330
0
100
AcDbSymbolTable
 70
     3
  0
STYLE
  5
11
330
3
100
AcDbSymbolTableRecord
100
AcDbTextStyleTableRecord
  2
Standard
 70
     0
 40
0.0
 41
1.0
 50
0.0
 71
     0
 42
0.2
  3
txt
  4

  0
STYLE
  5
B3
330
3
100
AcDbSymbolTableRecord
100
AcDbTextStyleTableRecord
  2
CONVERTER_11
 70
     0
 40
0.0
 41
0.89
 50
0.0
 71
     0
 42
0.2
  3
MS Mincho.ttf
  4

1001
ACAD
1000
MS Mincho
1071
    32785
  0
STYLE
  5
152
330
3
100
AcDbSymbolTableRecord
100
AcDbTextStyleTableRecord
  2
CONVERTER_12
 70
     0
 40
0.0
 41
0.9
 50
0.0
 71
     0
 42
0.2
  3
txt.shx
  4

  0
ENDTAB
  0
TABLE
  2
VIEW
  5
6
330
0
100
AcDbSymbolTable
 70
     0
  0
ENDTAB
  0
TABLE
  2
UCS
  5
7
330
0
100
AcDbSymbolTable
 70
     0
  0
ENDTAB
  0
TABLE
  2
APPID
  5
9
330
0
100
AcDbSymbolTable
 70
     1
  0
APPID
  5
12
330
9
100
AcDbSymbolTableRecord
100
AcDbRegAppTableRecord
  2
ACAD
 70
     0
  0
ENDTAB
  0
TABLE
  2
DIMSTYLE
  5
A
330
0
100
AcDbSymbolTable
 70
     6
100
AcDbDimStyleTable
  0
DIMSTYLE
105
27
330
A
100
AcDbSymbolTableRecord
100
AcDbDimStyleTableRecord
  2
Standard
 70
     0
178
     0
340
11
  0
DIMSTYLE
105
16B
102
{ACAD_REACTORS
330
16C
102
}
330
A
100
AcDbSymbolTableRecord
100
AcDbDimStyleTableRecord
  2
ME10_DIM_10
 70
     0
 41
3.5
 42
0.0
 44
1.0
 73
     0
 74
     0
 77
     1
 78
     8
140
3.5
147
1.0
172
     1
173
     1
174
     1
175
     1
176
     2
177
     2
271
     2
178
     7
271
     2
340
152
  0
DIMSTYLE
105
176
102
{ACAD_REACTORS
330
177
102
}
330
A
100
AcDbSymbolTableRecord
100
AcDbDimStyleTableRecord
  2
ME10_DIM_11
 70
     0
  3
{\Fgdt;n}<>
 41
3.5
 42
0.0
 44
1.0
 73
     0
 74
     0
 77
     1
 78
     8
140
3.5
147
1.0
172
     1
173
     1
174
     1
175
     1
176
     2
177
     2
271
     2
178
     7
271
     2
340
152
  0
DIMSTYLE
105
181
102
{ACAD_REACTORS
330
182
102
}
330
A
100
AcDbSymbolTableRecord
100
AcDbDimStyleTableRecord
  2
ME10_DIM_12
 70
     0
  3
{\Fgdt;n}<>
 41
3.5
 42
0.0
 44
1.0
 73
     0
 74
     0
 77
     1
 78
     8
140
3.5
147
1.0
172
     1
173
     1
174
     1
175
     1
176
     2
177
     2
271
     2
178
     7
271
     2
340
152
  0
DIMSTYLE
105
18E
102
{ACAD_REACTORS
330
18F
102
}
330
A
100
AcDbSymbolTableRecord
100
AcDbDimStyleTableRecord
  2
ME10_DIM_13
 70
     0
 41
3.5
 42
0.0
 44
1.0
 73
     0
 74
     0
 77
     1
 78
     8
140
3.5
147
1.0
172
     1
173
     1
174
     1
175
     1
176
     2
177
     2
271
     2
178
     7
271
     2
340
152
  0
DIMSTYLE
105
199
102
{ACAD_REACTORS
330
19A
102
}
330
A
100
AcDbSymbolTableRecord
100
AcDbDimStyleTableRecord
  2
ME10_DIM_14
 70
     0
 41
3.5
 42
0.0
 44
1.0
 73
     0
 74
     0
 77
     1
 78
     8
140
3.5
147
1.0
172
     1
173
     1
174
     1
175
     1
176
     2
177
     2
271
     2
178
     7
271
     2
340
152
  0
ENDTAB
  0
TABLE
  2
BLOCK_RECORD
  5
1
330
0
100
AcDbSymbolTable
 70
     9
  0
BLOCK_RECORD
  5
1F
330
1
100
AcDbSymbolTableRecord
100
AcDbBlockTableRecord
  2
*Model_Space
340
22
  0
BLOCK_RECORD
  5
1B
330
1
100
AcDbSymbolTableRecord
100
AcDbBlockTableRecord
  2
*Paper_Space
340
1E
  0
BLOCK_RECORD
  5
23
330
1
100
AcDbSymbolTableRecord
100
AcDbBlockTableRecord
  2
*Paper_Space0
340
26
  0
BLOCK_RECORD
  5
49
330
1
100
AcDbSymbolTableRecord
100
AcDbBlockTableRecord
  2
開示A4
340
0
102
{BLKREFS
331
4D
102
}
  0
BLOCK_RECORD
  5
4C
330
1
100
AcDbSymbolTableRecord
100
AcDbBlockTableRecord
  2
開示A4枠
340
0
102
{BLKREFS
331
50
102
}
  0
BLOCK_RECORD
  5
161
330
1
100
AcDbSymbolTableRecord
100
AcDbBlockTableRecord
  2
*D3
340
0
  0
BLOCK_RECORD
  5
16D
330
1
100
AcDbSymbolTableRecord
100
AcDbBlockTableRecord
  2
*D4
340
0
  0
BLOCK_RECORD
  5
178
330
1
100
AcDbSymbolTableRecord
100
AcDbBlockTableRecord
  2
*D5
340
0
  0
BLOCK_RECORD
  5
183
330
1
100
AcDbSymbolTableRecord
100
AcDbBlockTableRecord
  2
*D6
340
0
  0
BLOCK_RECORD
  5
190
330
1
100
AcDbSymbolTableRecord
100
AcDbBlockTableRecord
  2
*D7
340
0
  0
BLOCK_RECORD
  5
19B
330
1
100
AcDbSymbolTableRecord
100
AcDbBlockTableRecord
  2
*D8
340
0
102
{BLKREFS
331
1A2
102
}
  0
ENDTAB
  0
ENDSEC
  0
SECTION
  2
BLOCKS
  0
BLOCK
  5
20
330
1F
100
AcDbEntity
  8
0
100
AcDbBlockBegin
  2
*Model_Space
 70
     0
 10
0.0
 20
0.0
 30
0.0
  3
*Model_Space
  1

  0
ENDBLK
  5
21
330
1F
100
AcDbEntity
  8
0
100
AcDbBlockEnd
  0
BLOCK
  5
1C
330
1B
100
AcDbEntity
 67
     1
  8
0
100
AcDbBlockBegin
  2
*Paper_Space
 70
     0
 10
0.0
 20
0.0
 30
0.0
  3
*Paper_Space
  1

  0
ENDBLK
  5
1D
330
1B
100
AcDbEntity
 67
     1
  8
0
100
AcDbBlockEnd
  0
BLOCK
  5
24
330
23
100
AcDbEntity
  8
0
100
AcDbBlockBegin
  2
*Paper_Space0
 70
     0
 10
0.0
 20
0.0
 30
0.0
  3
*Paper_Space0
  1

  0
ENDBLK
  5
25
330
23
100
AcDbEntity
  8
0
100
AcDbBlockEnd
  0
BLOCK
  5
4A
330
49
100
AcDbEntity
  8
0
100
AcDbBlockBegin
  2
開示A4
 70
     0
 10
0.0
 20
-14.04701863624058
 30
0.0
  3
開示A4
  1

  0
POINT
  5
51
330
49
100
AcDbEntity
  8
1
 62
     4
100
AcDbPoint
 10
183.0
 20
0.95298136375944
 30
0.0
  0
POINT
  5
52
330
49
100
AcDbEntity
  8
1
 62
     4
100
AcDbPoint
 10
93.74999999999997
 20
2.95298136375942
 30
0.0
  0
POINT
  5
53
330
49
100
AcDbEntity
  8
1
 62
     4
100
AcDbPoint
 10
85.24999999999997
 20
2.95298136375942
 30
0.0
  0
POINT
  5
54
330
49
100
AcDbEntity
  8
1
 62
     4
100
AcDbPoint
 10
106.5
 20
4.95298136375944
 30
0.0
  0
POINT
  5
55
330
49
100
AcDbEntity
  8
1
 62
     4
100
AcDbPoint
 10
106.5
 20
-1.54701863624058
 30
0.0
  0
POINT
  5
56
330
49
100
AcDbEntity
  8
1
 62
     4
100
AcDbPoint
 10
112.25
 20
-1.54701863624058
 30
0.0
  0
POINT
  5
57
330
49
100
AcDbEntity
  8
1
 62
     4
100
AcDbPoint
 10
100.75
 20
-1.54701863624058
 30
0.0
  0
POINT
  5
58
330
49
100
AcDbEntity
  8
1
 62
     4
100
AcDbPoint
 10
123.5
 20
4.95298136375944
 30
0.0
  0
POINT
  5
59
330
49
100
AcDbEntity
  8
1
 62
     4
100
AcDbPoint
 10
123.5
 20
-1.54701863624058
 30
0.0
  0
POINT
  5
5A
330
49
100
AcDbEntity
  8
1
 62
     4
100
AcDbPoint
 10
129.2499999999999
 20
-1.54701863624058
 30
0.0
  0
POINT
  5
5B
330
49
100
AcDbEntity
  8
1
 62
     4
100
AcDbPoint
 10
117.75
 20
-1.54701863624058
 30
0.0
  0
POINT
  5
5C
330
49
100
AcDbEntity
  8
1
 62
     4
100
AcDbPoint
 10
140.4999999999999
 20
4.95298136375944
 30
0.0
  0
POINT
  5
5D
330
49
100
AcDbEntity
  8
1
 62
     4
100
AcDbPoint
 10
140.4999999999999
 20
-1.54701863624058
 30
0.0
  0
POINT
  5
5E
330
49
100
AcDbEntity
  8
1
 62
     4
100
AcDbPoint
 10
146.2499999999999
 20
-1.54701863624058
 30
0.0
  0
POINT
  5
5F
330
49
100
AcDbEntity
  8
1
 62
     4
100
AcDbPoint
 10
134.7499999999999
 20
-1.54701863624058
 30
0.0
  0
POINT
  5
60
330
49
100
AcDbEntity
  8
1
 62
     4
100
AcDbPoint
 10
151.75
 20
-1.54701863624058
 30
0.0
  0
POINT
  5
61
330
49
100
AcDbEntity
  8
1
 62
     4
100
AcDbPoint
 10
163.25
 20
-1.54701863624058
 30
0.0
  0
POINT
  5
62
330
49
100
AcDbEntity
  8
1
 62
     4
100
AcDbPoint
 10
157.5
 20
-1.54701863624058
 30
0.0
  0
POINT
  5
63
330
49
100
AcDbEntity
  8
1
 62
     4
100
AcDbPoint
 10
56.99999999999997
 20
0.20298136375942
 30
0.0
  0
POINT
  5
64
330
49
100
AcDbEntity
  8
1
 62
     4
100
AcDbPoint
 10
56.99999999999997
 20
8.70298136375944
 30
0.0
  0
POINT
  5
65
330
49
100
AcDbEntity
  8
1
 62
     4
100
AcDbPoint
 10
47.5
 20
267.9529813637598
 30
0.0
  0
POINT
  5
66
330
49
100
AcDbEntity
  8
1
 62
     4
100
AcDbPoint
 10
157.5
 20
4.95298136375944
 30
0.0
  0
POINT
  5
67
330
49
100
AcDbEntity
  8
1
 62
     4
100
AcDbPoint
 10
56.99999999999997
 20
2.20298136375942
 30
0.0
  0
POINT
  5
68
330
49
100
AcDbEntity
  8
1
 62
     4
100
AcDbPoint
 10
56.99999999999997
 20
10.70298136375944
 30
0.0
  0
POINT
  5
69
330
49
100
AcDbEntity
  8
1
 62
     4
100
AcDbPoint
 10
56.99999999999997
 20
6.70298136375944
 30
0.0
  0
POINT
  5
6A
330
49
100
AcDbEntity
  8
1
 62
     4
100
AcDbPoint
 10
56.99999999999997
 20
-1.79701863624058
 30
0.0
  0
POINT
  5
6B
330
49
100
AcDbEntity
  8
1
 62
     4
100
AcDbPoint
 10
34.0
 20
19.95298136375942
 30
0.0
  0
LINE
  5
70
330
49
100
AcDbEntity
  8
1
  6
Continuous
 62
     7
100
AcDbLine
 10
105.0
 20
-4.04701863624058
 30
0.0
 11
200.0
 21
-4.04701863624058
 31
0.0
  0
LINE
  5
71
330
49
100
AcDbEntity
  8
1
  6
Continuous
 62
     2
100
AcDbLine
 10
105.0
 20
-4.04701863624058
 30
0.0
 11
105.0
 21
-9.04701863624058
 31
0.0
  0
LINE
  5
72
330
49
100
AcDbEntity
  8
1
  6
Continuous
 62
     7
100
AcDbLine
 10
200.0
 20
134.4529813637594
 30
0.0
 11
200.0
 21
272.9529813637598
 31
0.0
  0
LINE
  5
73
330
49
100
AcDbEntity
  8
1
  6
Continuous
 62
     2
100
AcDbLine
 10
200.0
 20
134.4529813637594
 30
0.0
 11
205.0
 21
134.4529813637594
 31
0.0
  0
LINE
  5
74
330
49
100
AcDbEntity
  8
1
  6
Continuous
 62
     7
100
AcDbLine
 10
25.0
 20
134.4529813637594
 30
0.0
 11
25.0
 21
272.9529813637598
 31
0.0
  0
LINE
  5
75
330
49
100
AcDbEntity
  8
1
  6
Continuous
 62
     2
100
AcDbLine
 10
25.0
 20
134.4529813637594
 30
0.0
 11
20.0
 21
134.4529813637594
 31
0.0
  0
LINE
  5
76
330
49
100
AcDbEntity
  8
1
  6
Continuous
 62
     7
100
AcDbLine
 10
105.0
 20
272.9529813637598
 30
0.0
 11
25.0
 21
272.9529813637598
 31
0.0
  0
LINE
  5
77
330
49
100
AcDbEntity
  8
1
  6
Continuous
 62
     2
100
AcDbLine
 10
105.0
 20
272.9529813637598
 30
0.0
 11
105.0
 21
277.9529813637598
 31
0.0
  0
LINE
  5
78
330
49
100
AcDbEntity
  8
1
  6
Continuous
 62
     2
100
AcDbLine
 10
166.0
 20
5.95298136375944
 30
0.0
 11
200.0
 21
5.95298136375944
 31
0.0
  0
LINE
  5
79
330
49
100
AcDbEntity
  8
1
  6
Continuous
 62
     2
100
AcDbLine
 10
97.99999999999997
 20
12.95298136375944
 30
0.0
 11
97.99999999999997
 21
-4.04701863624058
 31
0.0
  0
LINE
  5
7A
330
49
100
AcDbEntity
  8
1
  6
Continuous
 62
     2
100
AcDbLine
 10
115.0
 20
12.95298136375944
 30
0.0
 11
115.0
 21
-4.04701863624059
 31
0.0
  0
LINE
  5
7B
330
49
100
AcDbEntity
  8
1
  6
Continuous
 62
     2
100
AcDbLine
 10
148.9999999999999
 20
12.95298136375944
 30
0.0
 11
148.9999999999999
 21
-4.04701863624058
 31
0.0
  0
LINE
  5
7C
330
49
100
AcDbEntity
  8
1
  6
Continuous
 62
     2
100
AcDbLine
 10
131.9999999999999
 20
12.95298136375944
 30
0.0
 11
131.9999999999999
 21
-4.04701863624059
 31
0.0
  0
LINE
  5
7D
330
49
100
AcDbEntity
  8
1
  6
Continuous
 62
     2
100
AcDbLine
 10
166.0
 20
12.95298136375944
 30
0.0
 11
166.0
 21
-4.04701863624058
 31
0.0
  0
LINE
  5
7E
330
49
100
AcDbEntity
  8
1
  6
Continuous
 62
     2
100
AcDbLine
 10
54.99999999999997
 20
262.9529813637598
 30
0.0
 11
25.0
 21
262.9529813637598
 31
0.0
  0
LINE
  5
7F
330
49
100
AcDbEntity
  8
1
  6
Continuous
 62
     7
100
AcDbLine
 10
25.0
 20
-4.04701863624058
 30
0.0
 11
25.0
 21
134.4529813637594
 31
0.0
  0
LINE
  5
80
330
49
100
AcDbEntity
  8
1
  6
Continuous
 62
     2
100
AcDbLine
 10
40.0
 20
272.9529813637598
 30
0.0
 11
40.0
 21
262.9529813637598
 31
0.0
  0
LINE
  5
81
330
49
100
AcDbEntity
  8
1
  6
Continuous
 62
     2
100
AcDbLine
 10
54.99999999999997
 20
272.9529813637598
 30
0.0
 11
54.99999999999997
 21
262.9529813637598
 31
0.0
  0
LINE
  5
82
330
49
100
AcDbEntity
  8
1
  6
Continuous
 62
     2
100
AcDbLine
 10
33.0
 20
26.95298136375942
 30
0.0
 11
33.0
 21
12.95298136375942
 31
0.0
  0
LINE
  5
83
330
49
100
AcDbEntity
  8
1
  6
Continuous
 62
     7
100
AcDbLine
 10
200.0
 20
12.95298136375944
 30
0.0
 11
25.0
 21
12.95298136375944
 31
0.0
  0
LINE
  5
84
330
49
100
AcDbEntity
  8
1
  6
Continuous
 62
     7
100
AcDbLine
 10
25.0
 20
26.95298136375942
 30
0.0
 11
200.0
 21
26.95298136375942
 31
0.0
  0
LINE
  5
85
330
49
100
AcDbEntity
  8
1
  6
PHANTOM
 62
     4
100
AcDbLine
 10
0.0
 20
-14.04701863624058
 30
0.0
 11
210.0
 21
-14.04701863624058
 31
0.0
  0
LINE
  5
86
330
49
100
AcDbEntity
  8
1
  6
PHANTOM
 62
     4
100
AcDbLine
 10
210.0
 20
-14.04701863624058
 30
0.0
 11
210.0
 21
282.9529813637594
 31
0.0
  0
LINE
  5
87
330
49
100
AcDbEntity
  8
1
  6
PHANTOM
 62
     4
100
AcDbLine
 10
210.0
 20
282.9529813637594
 30
0.0
 11
0.0
 21
282.9529813637594
 31
0.0
  0
LINE
  5
88
330
49
100
AcDbEntity
  8
1
  6
PHANTOM
 62
     4
100
AcDbLine
 10
0.0
 20
282.9529813637594
 30
0.0
 11
0.0
 21
-14.04701863624058
 31
0.0
  0
LINE
  5
89
330
49
100
AcDbEntity
  8
1
  6
Continuous
 62
     7
100
AcDbLine
 10
25.0
 20
-4.04701863624058
 30
0.0
 11
105.0
 21
-4.04701863624058
 31
0.0
  0
LINE
  5
8A
330
49
100
AcDbEntity
  8
1
  6
Continuous
 62
     7
100
AcDbLine
 10
200.0
 20
-4.04701863624058
 30
0.0
 11
200.0
 21
134.4529813637594
 31
0.0
  0
LINE
  5
8B
330
49
100
AcDbEntity
  8
1
  6
Continuous
 62
     7
100
AcDbLine
 10
200.0
 20
272.9529813637598
 30
0.0
 11
105.0
 21
272.9529813637598
 31
0.0
  0
LINE
  5
8C
330
49
100
AcDbEntity
  8
1
  6
Continuous
 62
     2
100
AcDbLine
 10
25.0
 20
4.45298136375944
 30
0.0
 11
80.99999999999997
 21
4.45298136375944
 31
0.0
  0
LINE
  5
8D
330
49
100
AcDbEntity
  8
1
  6
Continuous
 62
     2
100
AcDbLine
 10
33.0
 20
12.95298136375942
 30
0.0
 11
33.0
 21
-4.04701863624058
 31
0.0
  0
LINE
  5
8E
330
49
100
AcDbEntity
  8
1
  6
Continuous
 62
     7
100
AcDbLine
 10
191.0
 20
10.65298136375944
 30
0.0
 11
191.0
 21
8.25298136375943
 31
0.0
  0
LINE
  5
8F
330
49
100
AcDbEntity
  8
1
  6
Continuous
 62
     7
100
AcDbLine
 10
191.0
 20
10.65298136375944
 30
0.0
 11
196.0
 21
11.45298136375944
 31
0.0
  0
LINE
  5
90
330
49
100
AcDbEntity
  8
1
  6
Continuous
 62
     7
100
AcDbLine
 10
196.0
 20
11.45298136375944
 30
0.0
 11
196.0
 21
7.45298136375944
 31
0.0
  0
LINE
  5
91
330
49
100
AcDbEntity
  8
1
  6
Continuous
 62
     7
100
AcDbLine
 10
196.0
 20
7.45298136375944
 30
0.0
 11
191.0
 21
8.25298136375943
 31
0.0
  0
LINE
  5
92
330
49
100
AcDbEntity
  8
1
  6
DOT_CENTER
 62
     2
100
AcDbLine
 10
184.0
 20
9.45298136375944
 30
0.0
 11
197.0
 21
9.45298136375944
 31
0.0
  0
LINE
  5
93
330
49
100
AcDbEntity
  8
1
  6
DOT_CENTER
 62
     2
100
AcDbLine
 10
187.0
 20
12.45298136375944
 30
0.0
 11
187.0
 21
6.45298136375944
 31
0.0
  0
LINE
  5
94
330
49
100
AcDbEntity
  8
1
  6
Continuous
 62
     2
100
AcDbLine
 10
80.99999999999997
 20
12.95298136375944
 30
0.0
 11
80.99999999999997
 21
-4.04701863624058
 31
0.0
  0
CIRCLE
  5
95
330
49
100
AcDbEntity
  8
1
  6
Continuous
 62
     7
100
AcDbCircle
 10
103.5
 20
-1.54701863624058
 30
0.0
 40
0.2999999999999972
  0
CIRCLE
  5
96
330
49
100
AcDbEntity
  8
1
  6
Continuous
 62
     7
100
AcDbCircle
 10
109.5
 20
-1.54701863624058
 30
0.0
 40
0.2999999999999972
  0
CIRCLE
  5
97
330
49
100
AcDbEntity
  8
1
  6
Continuous
 62
     7
100
AcDbCircle
 10
120.5
 20
-1.54701863624058
 30
0.0
 40
0.2999999999999972
  0
CIRCLE
  5
98
330
49
100
AcDbEntity
  8
1
  6
Continuous
 62
     7
100
AcDbCircle
 10
126.5
 20
-1.54701863624058
 30
0.0
 40
0.2999999999999972
  0
CIRCLE
  5
99
330
49
100
AcDbEntity
  8
1
  6
Continuous
 62
     7
100
AcDbCircle
 10
137.4999999999999
 20
-1.54701863624058
 30
0.0
 40
0.3000000000002103
  0
CIRCLE
  5
9A
330
49
100
AcDbEntity
  8
1
  6
Continuous
 62
     7
100
AcDbCircle
 10
143.4999999999999
 20
-1.54701863624058
 30
0.0
 40
0.3000000000002103
  0
CIRCLE
  5
9B
330
49
100
AcDbEntity
  8
1
  6
Continuous
 62
     7
100
AcDbCircle
 10
160.5
 20
-1.54701863624058
 30
0.0
 40
0.3000000000000966
  0
CIRCLE
  5
9C
330
49
100
AcDbEntity
  8
1
  6
Continuous
 62
     7
100
AcDbCircle
 10
154.5
 20
-1.54701863624058
 30
0.0
 40
0.3000000000000966
  0
CIRCLE
  5
9D
330
49
100
AcDbEntity
  8
1
  6
Continuous
 62
     7
100
AcDbCircle
 10
187.0
 20
9.45298136375944
 30
0.0
 40
1.200000000000188
  0
CIRCLE
  5
9E
330
49
100
AcDbEntity
  8
1
  6
Continuous
 62
     7
100
AcDbCircle
 10
187.0
 20
9.45298136375944
 30
0.0
 40
2.0
  0
CIRCLE
  5
9F
330
49
100
AcDbEntity
  8
1
  6
DOT_CENTER
 62
     7
100
AcDbCircle
 10
89.49999999999997
 20
1.95298136375942
 30
0.0
 40
0.1000000000000227
  0
CIRCLE
  5
A0
330
49
100
AcDbEntity
  8
1
  6
DOT_CENTER
 62
     7
100
AcDbCircle
 10
89.49999999999997
 20
3.95298136375942
 30
0.0
 40
0.1000000000000227
  0
SPLINE
  5
A1
102
{ACAD_REACTORS
330
C0
102
}
330
49
100
AcDbEntity
  8
_U_30EC_U_30A4_U_30E4_U_30FC_1
  6
Continuous
 62
     2
100
AcDbSpline
210
0.0
220
0.0
230
1.0
 70
     8
 71
     3
 72
    24
 73
    20
 74
    18
 42
0.000000001
 43
0.0000000001
 44
0.00000001
 40
0.0
 40
0.0
 40
0.0
 40
0.0
 40
0.2211075008753708
 40
0.4273218586245496
 40
0.5080174679239285
 40
0.5914835907869668
 40
0.8143265690192347
 40
1.054651302686526
 40
1.295452694023112
 40
1.518109231328748
 40
1.540864321905363
 40
1.595126460622623
 40
1.659890947895937
 40
1.714153085187295
 40
1.736908174961596
 40
1.764951100735243
 40
1.801562291220888
 40
1.953914424543563
 40
2.126104167379632
 40
2.126104167379632
 40
2.126104167379632
 40
2.126104167379632
 10
185.9375369556889
 20
1.542874314889588
 30
0.0
 10
185.9112579081812
 20
1.483957646103162
 30
0.0
 10
185.8604698894425
 20
1.370092760551969
 30
0.0
 10
185.8131784839113
 20
1.097400946090566
 30
0.0
 10
185.7043482802617
 20
1.197436189513951
 30
0.0
 10
185.5514800279638
 20
1.224167297432778
 30
0.0
 10
185.7686155181201
 20
1.438162713935706
 30
0.0
 10
185.7838483674381
 20
1.656302541584304
 30
0.0
 10
185.8906889492003
 20
1.837497154423662
 30
0.0
 10
185.8305380947077
 20
2.122113626873424
 30
0.0
 10
185.9334317395402
 20
2.094122255983924
 30
0.0
 10
185.9779933468151
 20
2.085413879782415
 30
0.0
 10
186.0380842395396
 20
2.074377905592967
 30
0.0
 10
186.0756619587439
 20
2.060656594315007
 30
0.0
 10
186.1252466928605
 20
2.060542125361654
 30
0.0
 10
186.0930158919326
 20
2.026047287745624
 30
0.0
 10
186.017180222188
 20
2.037022409139132
 30
0.0
 10
186.0429447159694
 20
1.851571059583913
 30
0.0
 10
186.005589676385
 20
1.760004499255309
 30
0.0
 10
185.985770496161
 20
1.711422717736468
 30
0.0
 11
185.9375369556889
 21
1.542874314889588
 31
0.0
 11
185.8616471328552
 21
1.335198446945018
 31
0.0
 11
185.7717402238433
 21
1.149615287321339
 31
0.0
 11
185.701149392311
 21
1.188714089394929
 31
0.0
 11
185.6245525192652
 21
1.22187299563662
 31
0.0
 11
185.7214026947457
 21
1.422569375794799
 31
0.0
 11
185.7994641467472
 21
1.649862995529656
 31
0.0
 11
185.8589716929721
 21
1.88319572984633
 31
0.0
 11
185.9001601511226
 21
2.102009453749957
 31
0.0
 11
185.9224183822214
 21
2.097280255973363
 31
0.0
 11
185.975495702534
 21
2.08600293819841
 31
0.0
 11
186.0388460525844
 21
2.072542913757337
 31
0.0
 11
186.091923372897
 21
2.061265595982384
 31
0.0
 11
186.1141816039958
 21
2.05653639820579
 31
0.0
 11
186.0964097157461
 21
2.03484387216952
 31
0.0
 11
186.0606122998071
 21
2.027167648213098
 31
0.0
 11
186.028195330148
 21
1.878304245472561
 31
0.0
 11
185.985770496161
 21
1.711422717736468
 31
0.0
  0
SPLINE
  5
A2
102
{ACAD_REACTORS
330
C0
102
}
330
49
100
AcDbEntity
  8
_U_30EC_U_30A4_U_30E4_U_30FC_1
  6
Continuous
 62
     2
100
AcDbSpline
210
0.0
220
0.0
230
1.0
 70
     8
 71
     3
 72
    70
 73
    66
 74
    64
 42
0.000000001
 43
0.0000000001
 44
0.00000001
 40
0.0
 40
0.0
 40
0.0
 40
0.0
 40
0.0241731073021472
 40
0.0846058988986729
 40
0.1631685280352999
 40
0.2417311571788903
 40
0.3021639488291898
 40
0.3263370654894688
 40
0.3533118254248053
 40
0.4228783438921276
 40
0.5179999095312576
 40
0.6216398239465256
 40
0.7167613891498908
 40
0.7863279069649062
 40
0.8133026791761034
 40
0.8372943998770875
 40
0.8945054261372068
 40
0.9627895541962121
 40
1.020000580349079
 40
1.043992300975177
 40
1.071934345522954
 40
1.113121768772886
 40
1.145225199332207
 40
1.225483775412745
 40
1.329819923771457
 40
1.434156071994348
 40
1.514414647795768
 40
1.546518078208376
 40
1.578974764260178
 40
1.662678849314116
 40
1.777131373668337
 40
1.901833377474728
 40
2.016285900500489
 40
2.099989982527828
 40
2.132446666570186
 40
2.158782354485909
 40
2.216720867907699
 40
2.27465938133412
 40
2.300995069256055
 40
2.333451754066028
 40
2.41715583654368
 40
2.531608358985119
 40
2.656310362283614
 40
2.770762886388718
 40
2.854466971339855
 40
2.886923657363662
 40
2.913597976833093
 40
2.982389642874895
 40
3.076451716946761
 40
3.178937260458373
 40
3.272999334739774
 40
3.341791001058995
 40
3.368465320663307
 40
3.396976080738528
 40
3.472140811845736
 40
3.578408190308425
 40
3.700226892455833
 40
3.82204559463405
 40
3.928312973256129
 40
4.003477705314526
 40
4.031988456866592
 40
4.058324144797393
 40
4.116262658236556
 40
4.174201171400359
 40
4.200536849608294
 40
4.200536849608294
 40
4.200536849608294
 40
4.200536849608294
 10
185.985770496161
 20
1.711422717736468
 30
0.0
 10
185.993825954468
 20
1.711424961876286
 30
0.0
 10
186.0220200663241
 20
1.711432824087393
 30
0.0
 10
186.0765534803674
 20
1.711288912043134
 30
0.0
 10
186.1482891808604
 20
1.712072568758397
 30
0.0
 10
186.2236240137062
 20
1.709257068397527
 30
0.0
 10
186.2713052366439
 20
1.715965397768993
 30
0.0
 10
186.3195071245615
 20
1.704957000683741
 30
0.0
 10
186.3062571799874
 20
1.758445393729752
 30
0.0
 10
186.3151093964538
 20
1.813477199190332
 30
0.0
 10
186.3108698036285
 20
1.907180451020507
 30
0.0
 10
186.313348348128
 20
2.002576185944743
 30
0.0
 10
186.309093870606
 20
2.096549583593291
 30
0.0
 10
186.3179818665847
 20
2.150931988139543
 30
0.0
 10
186.3046977409945
 20
2.205321340674027
 30
0.0
 10
186.3514119277109
 20
2.191403527112991
 30
0.0
 10
186.3943254545736
 20
2.194020137499857
 30
0.0
 10
186.4605443456685
 20
2.189465588266962
 30
0.0
 10
186.5013342271799
 20
2.18076298510104
 30
0.0
 10
186.552514569082
 20
2.188299362661356
 30
0.0
 10
186.52537204872
 20
2.146481065992329
 30
0.0
 10
186.4803096055708
 20
2.155831284485343
 30
0.0
 10
186.4942065045051
 20
2.091393437477798
 30
0.0
 10
186.4858414431655
 20
2.026763560033404
 30
0.0
 10
186.4903632178399
 20
1.928272775698293
 30
0.0
 10
186.4854741311169
 20
1.828940692185122
 30
0.0
 10
186.4950258992083
 20
1.765912519289101
 30
0.0
 10
186.4799761455201
 20
1.702621478757295
 30
0.0
 10
186.5449159457209
 20
1.718132093202109
 30
0.0
 10
186.6116246399498
 20
1.707975240737543
 30
0.0
 10
186.7241435470828
 20
1.712869364753087
 30
0.0
 10
186.8390235448954
 20
1.709893411087255
 30
0.0
 10
186.9519871999747
 20
1.715198005609327
 30
0.0
 10
187.0176267597678
 20
1.704054428480309
 30
0.0
 10
187.0816276691053
 20
1.72042668695799
 30
0.0
 10
187.0703142889189
 20
1.670598262812165
 30
0.0
 10
187.0775339871509
 20
1.627148515880645
 30
0.0
 10
187.070314261127
 20
1.583698819633866
 30
0.0
 10
187.0816277175993
 20
1.533870315728182
 30
0.0
 10
187.0176263598972
 20
1.550243024673043
 30
0.0
 10
186.9519921240459
 20
1.539094080375297
 30
0.0
 10
186.8389974317331
 20
1.544429935827961
 30
0.0
 10
186.7242456548643
 20
1.541324820397628
 30
0.0
 10
186.6113183686861
 20
1.546630310585309
 30
0.0
 10
186.5455220903585
 20
1.535554363955355
 30
0.0
 10
186.4816097975359
 20
1.551857342235596
 30
0.0
 10
186.4936015165127
 20
1.497216607716836
 30
0.0
 10
186.4862104613005
 20
1.441524314237839
 30
0.0
 10
186.4892684841984
 20
1.349478255165122
 30
0.0
 10
186.4893422785685
 20
1.254772462490433
 30
0.0
 10
186.486031357836
 20
1.162509192782077
 30
0.0
 10
186.4939505989904
 20
1.107339051120821
 30
0.0
 10
186.4815076611619
 20
1.053563054760789
 30
0.0
 10
186.5389116551632
 20
1.067519052387231
 30
0.0
 10
186.5994708140384
 20
1.058095942601696
 30
0.0
 10
186.7048680855081
 20
1.062410223046473
 30
0.0
 10
186.8204294070623
 20
1.061336409879743
 30
0.0
 10
186.9359688877797
 20
1.060241022769375
 30
0.0
 10
187.0414181130841
 20
1.06460662146575
 30
0.0
 10
187.1018680471804
 20
1.055075624066136
 30
0.0
 10
187.159283773911
 20
1.069154259823223
 30
0.0
 10
187.1477773876709
 20
1.020052896416252
 30
0.0
 10
187.1537566781749
 20
0.9786279439459125
 30
0.0
 10
187.1520311050802
 20
0.9294981434263762
 30
0.0
 10
187.1521500122971
 20
0.9015256482354983
 30
0.0
 10
187.1521871691833
 20
0.8927842457189179
 30
0.0
 11
185.985770496161
 21
1.711422717736468
 31
0.0
 11
186.0099436128282
 21
1.711422717736468
 31
0.0
 11
186.0703764044963
 21
1.711422717736468
 31
0.0
 11
186.1489390336649
 21
1.711422717736468
 31
0.0
 11
186.2275016628334
 21
1.711422717736468
 31
0.0
 11
186.2879344545015
 21
1.711422717736468
 31
0.0
 11
186.3121075711687
 21
1.711422717736468
 31
0.0
 11
186.3121075711687
 21
1.738397489960048
 31
0.0
 11
186.3121075711687
 21
1.807964007799806
 31
0.0
 11
186.3121075711687
 21
1.903085573009272
 31
0.0
 11
186.3121075711687
 21
2.006725487341977
 31
0.0
 11
186.3121075711687
 21
2.101847052551443
 31
0.0
 11
186.3121075711687
 21
2.171413570391201
 31
0.0
 11
186.3121075711687
 21
2.198388342614781
 31
0.0
 11
186.3360407604892
 21
2.19671349483742
 31
0.0
 11
186.3931122119458
 21
2.192719627060635
 31
0.0
 11
186.4612297507811
 21
2.187952752617376
 31
0.0
 11
186.5183012022377
 21
2.183958884840592
 31
0.0
 11
186.5422343915582
 21
2.18228403706323
 31
0.0
 11
186.5274972731229
 21
2.158544297485817
 31
0.0
 11
186.4886640249977
 21
2.144819037072541
 31
0.0
 11
186.4886640249977
 21
2.112715606010609
 31
0.0
 11
186.4886640249977
 21
2.032457028355782
 31
0.0
 11
186.4886640249977
 21
1.928120877404504
 31
0.0
 11
186.4886640249977
 21
1.823784726453227
 31
0.0
 11
186.4886640249977
 21
1.7435261487984
 31
0.0
 11
186.4886640249977
 21
1.711422717736468
 31
0.0
 11
186.5211207110825
 21
1.711422717736468
 31
0.0
 11
186.6048247962486
 21
1.711422717736468
 31
0.0
 11
186.7192773208635
 21
1.711422717736468
 31
0.0
 11
186.8439793252946
 21
1.711422717736468
 31
0.0
 11
186.9584318499095
 21
1.711422717736468
 31
0.0
 11
187.0421359350756
 21
1.711422717736468
 31
0.0
 11
187.0745926211604
 21
1.711422717736468
 31
0.0
 11
187.0745926211604
 21
1.685087029809029
 31
0.0
 11
187.0745926211604
 21
1.627148516368663
 31
0.0
 11
187.0745926211604
 21
1.569210002928298
 31
0.0
 11
187.0745926211604
 21
1.542874315000859
 31
0.0
 11
187.0421359350756
 21
1.542874315000859
 31
0.0
 11
186.9584318499095
 21
1.542874315000859
 31
0.0
 11
186.8439793252946
 21
1.542874315000859
 31
0.0
 11
186.7192773208635
 21
1.542874315000859
 31
0.0
 11
186.6048247962486
 21
1.542874315000859
 31
0.0
 11
186.5211207110825
 21
1.542874315000859
 31
0.0
 11
186.4886640249977
 21
1.542874315000859
 31
0.0
 11
186.4886640249977
 21
1.516199995279638
 31
0.0
 11
186.4886640249977
 21
1.447408328630172
 31
0.0
 11
186.4886640249977
 21
1.353346253823761
 31
0.0
 11
186.4886640249977
 21
1.250860709631697
 31
0.0
 11
186.4886640249977
 21
1.156798634825285
 31
0.0
 11
186.4886640249977
 21
1.08800696817582
 31
0.0
 11
186.4886640249977
 21
1.061332648454599
 31
0.0
 11
186.5171747850994
 21
1.061332648454599
 31
0.0
 11
186.5923395162767
 21
1.061332648454599
 31
0.0
 11
186.6986068948377
 21
1.061332648454599
 31
0.0
 11
186.8204255970905
 21
1.061332648454599
 31
0.0
 11
186.9422442993433
 21
1.061332648454599
 31
0.0
 11
187.0485116779043
 21
1.061332648454599
 31
0.0
 11
187.1236764090816
 21
1.061332648454599
 31
0.0
 11
187.1521871691833
 21
1.061332648454599
 31
0.0
 11
187.1521871691833
 21
1.034996960527149
 31
0.0
 11
187.1521871691833
 21
0.9770584470867585
 31
0.0
 11
187.1521871691833
 21
0.919119933646368
 31
0.0
 11
187.1521871691833
 21
0.8927842457189179
 31
0.0
  0
SPLINE
  5
A3
102
{ACAD_REACTORS
330
C0
102
}
330
49
100
AcDbEntity
  8
_U_30EC_U_30A4_U_30E4_U_30FC_1
  6
Continuous
 62
     2
100
AcDbSpline
210
0.0
220
0.0
230
1.0
 70
     8
 71
     3
 72
    62
 73
    58
 74
    56
 42
0.000000001
 43
0.0000000001
 44
0.00000001
 40
0.0
 40
0.0
 40
0.0
 40
0.0
 40
0.0598250028308485
 40
0.2024846486897331
 40
0.3727558389221031
 40
0.515415484793607
 40
0.5752404975785339
 40
0.9332326775487216
 40
1.290451762839473
 40
1.602077253145874
 40
1.699931634112086
 40
1.799359756424966
 40
2.27012014965708
 40
2.804661928461486
 40
2.882342287383198
 40
3.076543185719047
 40
3.329004354835506
 40
3.58146552456833
 40
3.775666424543611
 40
3.853346784558231
 40
3.899120679595006
 40
3.984129341792032
 40
4.029903236817409
 40
4.105797496059567
 40
4.295533144152524
 40
4.542189486611766
 40
4.788845828875715
 40
4.978581476410099
 40
5.054475735244343
 40
5.621734664339359
 40
6.130867242037371
 40
6.225249780948582
 40
6.318913039727323
 40
6.663579954558939
 40
7.047498900224806
 40
7.435230791575722
 40
7.498943906668134
 40
7.650875181210071
 40
7.832212509001553
 40
7.984143783696939
 40
8.047856898903067
 40
8.091554632732576
 40
8.172707566964238
 40
8.216405300767965
 40
8.289021782160821
 40
8.462184160757166
 40
8.668861838005276
 40
8.84202421526381
 40
8.914640695475006
 40
8.989881580861208
 40
9.155411528827113
 40
9.320941477743894
 40
9.396182352487143
 40
9.45470901114369
 40
9.583467660170625
 40
9.712226309012904
 40
9.770752957989357
 40
9.770752957989357
 40
9.770752957989357
 40
9.770752957989357
 10
187.1521871691833
 20
0.8927842457189179
 30
0.0
 10
187.1322348171623
 20
0.8927901194461308
 30
0.0
 10
187.0647037716466
 20
0.8928100018209957
 30
0.0
 10
186.9410612161788
 20
0.8924749889626742
 30
0.0
 10
186.7863180150056
 20
0.8940581012645357
 30
0.0
 10
186.669734948248
 20
0.8898421523643684
 30
0.0
 10
186.455094263424
 20
0.9051334170756791
 30
0.0
 10
186.8518948407229
 20
0.5449685766213437
 30
0.0
 10
186.8945656069267
 20
0.3280863977310685
 30
0.0
 10
187.3189162146611
 20
0.1462319888739207
 30
0.0
 10
187.1439821496075
 20
0.042833329440136
 30
0.0
 10
187.0194523925084
 20
-0.1687034041133958
 30
0.0
 10
186.7666277235943
 20
0.3010421737749622
 30
0.0
 10
186.4797602893627
 20
0.9480965336046074
 30
0.0
 10
186.4906335926662
 20
0.6408080853063504
 30
0.0
 10
186.488289277796
 20
0.4758675334771946
 30
0.0
 10
186.4861096126412
 20
0.241778070876347
 30
0.0
 10
186.4980774396347
 20
-0.0020379120227516
 30
0.0
 10
186.4687984740632
 20
-0.1484606676307417
 30
0.0
 10
186.511452262547
 20
-0.2958837344952069
 30
0.0
 10
186.423981400564
 20
-0.2801606631783807
 30
0.0
 10
186.3768527606745
 20
-0.2800756008060346
 30
0.0
 10
186.2898973207712
 20
-0.2959243814114982
 30
0.0
 10
186.3313474021722
 20
-0.1517409220129635
 30
0.0
 10
186.3029875004285
 20
-0.0084681092560266
 30
0.0
 10
186.31459737753
 20
0.2297308374120633
 30
0.0
 10
186.3124175648271
 20
0.4581537161628793
 30
0.0
 10
186.3103111127994
 20
0.6200386575193644
 30
0.0
 10
186.3208035438323
 20
0.9345184570969354
 30
0.0
 10
186.0128963252893
 20
0.2452760724838092
 30
0.0
 10
185.7055258267456
 20
-0.2322511338101161
 30
0.0
 10
185.5851367066275
 20
-0.0096075098662804
 30
0.0
 10
185.4074607910722
 20
0.1030917133150409
 30
0.0
 10
185.8853326362894
 20
0.278462798414055
 30
0.0
 10
185.9353959057207
 20
0.5139006562796968
 30
0.0
 10
186.3583799621718
 20
0.9062112572054926
 30
0.0
 10
186.127675427354
 20
0.8895344340500728
 30
0.0
 10
186.0049685859341
 20
0.8956765532471251
 30
0.0
 10
185.8325483095663
 20
0.8861095907551564
 30
0.0
 10
185.7213224694449
 20
0.9074695486560725
 30
0.0
 10
185.6025779627449
 20
0.8743440173336168
 30
0.0
 10
185.6183169706686
 20
0.955020369828254
 30
0.0
 10
185.6178550933764
 20
0.9994355066679602
 30
0.0
 10
185.6027881889931
 20
1.08265218154475
 30
0.0
 10
185.7372380935444
 20
1.043607883598262
 30
0.0
 10
185.8619755545747
 20
1.070378657043644
 30
0.0
 10
186.062875523728
 20
1.053620854199951
 30
0.0
 10
186.1921540949353
 20
1.07502362288946
 30
0.0
 10
186.3328419928295
 20
1.041669152293634
 30
0.0
 10
186.2980927452614
 20
1.179500121610102
 30
0.0
 10
186.3222185666713
 20
1.302613937254233
 30
0.0
 10
186.2967086182393
 20
1.423221920462774
 30
0.0
 10
186.3333251146684
 20
1.558380015174366
 30
0.0
 10
186.2211417027769
 20
1.533926821578327
 30
0.0
 10
186.1280356457136
 20
1.546058862179641
 30
0.0
 10
186.0191547579819
 20
1.542557664459356
 30
0.0
 10
185.9569697640964
 20
1.542798923275442
 30
0.0
 10
185.9375369557246
 20
1.542874315000859
 30
0.0
 11
187.1521871691833
 21
0.8927842457189179
 31
0.0
 11
187.0923621563982
 21
0.8927842457189178
 31
0.0
 11
186.949702510526
 21
0.8927842457189179
 31
0.0
 11
186.7794313202913
 21
0.892784245718918
 31
0.0
 11
186.6367716744191
 21
0.8927842457189179
 31
0.0
 11
186.576946661634
 21
0.8927842457189179
 31
0.0
 11
186.7679960754842
 21
0.5900326434283303
 31
0.0
 11
186.994127278563
 21
0.3135002695262633
 31
0.0
 11
187.2244526173371
 21
0.1035938986939904
 31
0.0
 11
187.1521596330704
 21
0.0376454004465847
 31
0.0
 11
187.0879364402644
 21
-0.0382580457149793
 31
0.0
 11
186.7732818215558
 21
0.3118959472530469
 31
0.0
 11
186.4886640249977
 21
0.7643643151954187
 31
0.0
 11
186.4886640249977
 21
0.6866839551325384
 31
0.0
 11
186.4886640249977
 21
0.4924830549753391
 31
0.0
 11
186.4886640249977
 21
0.2400218847709787
 31
0.0
 11
186.4886640249977
 21
-0.0124392854333816
 31
0.0
 11
186.4886640249977
 21
-0.2066401855905809
 31
0.0
 11
186.4886640249977
 21
-0.2843205456534612
 31
0.0
 11
186.4428901295606
 21
-0.2843205456534612
 31
0.0
 11
186.3578814666058
 21
-0.2843205456534612
 31
0.0
 11
186.3121075711687
 21
-0.2843205456534612
 31
0.0
 11
186.3121075711687
 21
-0.2084262864131773
 31
0.0
 11
186.3121075711687
 21
-0.0186906383124688
 31
0.0
 11
186.3121075711687
 21
0.2279657042184535
 31
0.0
 11
186.3121075711687
 21
0.4746220467493758
 31
0.0
 11
186.3121075711687
 21
0.6643576948500843
 31
0.0
 11
186.3121075711687
 21
0.7402519540903683
 31
0.0
 11
185.9987626399266
 21
0.2673908257363515
 31
0.0
 11
185.6352328662148
 21
-0.0890668651467621
 31
0.0
 11
185.5773927461628
 21
-0.0144841307903607
 31
0.0
 11
185.5094852305341
 21
0.0500245931518499
 31
0.0
 11
185.7750721898319
 21
0.2697035617183168
 31
0.0
 11
186.0233764972061
 21
0.5625153234763917
 31
0.0
 11
186.226498280526
 21
0.8927842457189179
 31
0.0
 11
186.1627851652721
 21
0.8927842457189179
 31
0.0
 11
186.0108538904359
 21
0.892784245718918
 31
0.0
 11
185.8295165624056
 21
0.892784245718918
 31
0.0
 11
185.6775852875694
 21
0.8927842457189179
 31
0.0
 11
185.6138721723155
 21
0.8927842457189179
 31
0.0
 11
185.6138721723155
 21
0.936481979761502
 31
0.0
 11
185.6138721723155
 21
1.017634914412015
 31
0.0
 11
185.6138721723155
 21
1.061332648454599
 31
0.0
 11
185.6864886537962
 21
1.061332648454599
 31
0.0
 11
185.8596510327118
 21
1.061332648454599
 31
0.0
 11
186.0663287107724
 21
1.061332648454599
 31
0.0
 11
186.239491089688
 21
1.061332648454599
 31
0.0
 11
186.3121075711687
 21
1.061332648454599
 31
0.0
 11
186.3121075711687
 21
1.136573533852452
 31
0.0
 11
186.3121075711687
 21
1.302103481727729
 31
0.0
 11
186.3121075711687
 21
1.467633429603006
 31
0.0
 11
186.3121075711687
 21
1.542874315000859
 31
0.0
 11
186.2535809125055
 21
1.542874315000859
 31
0.0
 11
186.1248222634467
 21
1.542874315000859
 31
0.0
 11
185.9960636143877
 21
1.542874315000859
 31
0.0
 11
185.9375369557246
 21
1.542874315000859
 31
0.0
  0
SPLINE
  5
A4
102
{ACAD_REACTORS
330
C1
102
}
330
49
100
AcDbEntity
  8
_U_30EC_U_30A4_U_30E4_U_30FC_1
  6
Continuous
 62
     2
100
AcDbSpline
210
0.0
220
0.0
230
1.0
 70
    11
 71
     3
 72
   124
 73
   120
 74
   118
 42
0.000000001
 43
0.0000000001
 44
0.00000001
 40
0.0
 40
0.0
 40
0.0
 40
0.0
 40
0.0278187229624226
 40
0.1011590162383985
 40
0.2048470170589954
 40
0.3237088716558677
 40
0.4425707262521431
 40
0.5462587270698694
 40
0.6195990203311229
 40
0.6474177522577808
 40
0.6750060736114388
 40
0.7357003855241906
 40
0.7963946998053627
 40
0.8239830245570935
 40
0.8540933811102028
 40
0.9373396629408709
 40
1.063094687343152
 40
1.22073126863799
 40
1.399622220914664
 40
1.589140358637649
 40
1.778658496423815
 40
1.957549448940425
 40
2.115186030873075
 40
2.240941056914379
 40
2.324187341760449
 40
2.354297700109298
 40
2.381886024671805
 40
2.442580338710393
 40
2.503274652750417
 40
2.530862977314524
 40
2.560983949278477
 40
2.640393784452851
 40
2.752662861759074
 40
2.881361560118063
 40
3.010060258455166
 40
3.122329335705342
 40
3.201739170817927
 40
3.231860142753316
 40
3.264298024030373
 40
3.352343701778243
 40
3.482095226868768
 40
3.639650650173029
 40
3.811108022565487
 40
3.982565394927994
 40
4.140120818152576
 40
4.269872343141287
 40
4.357918020802352
 40
4.39035590204398
 40
4.423256253992549
 40
4.508104530073099
 40
4.624121560636866
 40
4.750528176031623
 40
4.866545206602098
 40
4.951393482692084
 40
4.984293834645485
 40
5.011450833242399
 40
5.071196230152184
 40
5.130941627057259
 40
5.158098625648925
 40
5.190998977601615
 40
5.275847253689441
 40
5.391864284256932
 40
5.518270899648477
 40
5.634287930209516
 40
5.71913620628819
 40
5.752036558236106
 40
5.782130946283131
 40
5.862783906229304
 40
5.979550131775173
 40
6.117984316640579
 40
6.263641154588125
 40
6.402075339414329
 40
6.518841564908122
 40
6.599494524815707
 40
6.629588912848945
 40
6.654403028226521
 40
6.71357514948826
 40
6.784199939329577
 40
6.843372060493622
 40
6.868186175802868
 40
6.896246243201958
 40
6.939586233758272
 40
6.967846564564903
 40
7.043584251089836
 40
7.153234334451696
 40
7.283231855734444
 40
7.420011856035476
 40
7.550009376579827
 40
7.659659458835226
 40
7.735397144417218
 40
7.76365747485139
 40
7.796409728011047
 40
7.880876065096321
 40
7.996370852465707
 40
8.122208446418602
 40
8.237703224799196
 40
8.322169562010918
 40
8.354921815205904
 40
8.382078813307684
 40
8.44182420920699
 40
8.50156960524014
 40
8.528726603485717
 40
8.561478856695738
 40
8.645945193877788
 40
8.761439980865328
 40
8.88727758076447
 40
9.002772362000991
 40
9.087238696661183
 40
9.119990949235666
 40
9.152428830613363
 40
9.24047450863858
 40
9.370226034149532
 40
9.527781457984416
 40
9.699238830981406
 40
9.870696203978598
 40
10.02825162781402
 40
10.15800315332564
 40
10.24604883135119
 40
10.27848670378521
 40
10.27848670378521
 40
10.27848670378521
 40
10.27848670378521
 10
195.3821827564384
 20
-0.0329134623830107
 30
0.0
 10
195.3914554737524
 20
-0.0329136511278399
 30
0.0
 10
195.4251744536861
 20
-0.0329143274734377
 30
0.0
 10
195.4934706812466
 20
-0.0329005638075362
 30
0.0
 10
195.592014171158
 20
-0.0329863940451351
 30
0.0
 10
195.7062066464812
 20
-0.0326010801180775
 30
0.0
 10
195.8185894417071
 20
-0.0340102772651301
 30
0.0
 10
195.9214376600119
 20
-0.0298274620181549
 30
0.0
 10
195.9806839874848
 20
-0.0387877437207536
 30
0.0
 10
196.0371265937033
 20
-0.0253742909799805
 30
0.0
 10
196.0246255586954
 20
-0.0761466501069729
 30
0.0
 10
196.0329549635703
 20
-0.1211254268499135
 30
0.0
 10
196.0248170841119
 20
-0.1664511063357016
 30
0.0
 10
196.0370529214457
 20
-0.2176993121559222
 30
0.0
 10
195.9747773490333
 20
-0.2025390825878216
 30
0.0
 10
195.9060513026868
 20
-0.2134211291331502
 30
0.0
 10
195.7782756749591
 20
-0.207905588760865
 30
0.0
 10
195.6262984511643
 20
-0.210010123703597
 30
0.0
 10
195.4502695972523
 20
-0.2093086103558496
 30
0.0
 10
195.2644431934287
 20
-0.2095662609276678
 30
0.0
 10
195.0786167437175
 20
-0.2093085847945501
 30
0.0
 10
194.9025880142168
 20
-0.2100102177632744
 30
0.0
 10
194.7506104154194
 20
-0.2079053139406983
 30
0.0
 10
194.6228357664555
 20
-0.213421828564182
 30
0.0
 10
194.554107783658
 20
-0.2025378649811592
 30
0.0
 10
194.4918349042883
 20
-0.2177007693984916
 30
0.0
 10
194.5040616290017
 20
-0.1664435281888664
 30
0.0
 10
194.4960004462597
 20
-0.1211939035163308
 30
0.0
 10
194.5040675809892
 20
-0.0759550566873526
 30
0.0
 10
194.4918238487083
 20
-0.0246768671410061
 30
0.0
 10
194.5525017120698
 20
-0.0395228626092316
 30
0.0
 10
194.6162810745737
 20
-0.0294541545332386
 30
0.0
 10
194.7277314353503
 20
-0.0340721941205847
 30
0.0
 10
194.8497533443823
 20
-0.0328853471858966
 30
0.0
 10
194.9719538137824
 20
-0.0318599972342337
 30
0.0
 10
195.0829794287393
 20
-0.0360938800065688
 30
0.0
 10
195.1476517413959
 20
-0.0268327910231943
 30
0.0
 10
195.2091162810502
 20
-0.0409744057437655
 30
0.0
 10
195.1930065601338
 20
0.0253366426045836
 30
0.0
 10
195.2042980327359
 20
0.0974592649791786
 30
0.0
 10
195.1987400822561
 20
0.2281189726422781
 30
0.0
 10
195.2008035061691
 20
0.3790546008418323
 30
0.0
 10
195.2000167127295
 20
0.5463400948382806
 30
0.0
 10
195.2007845215628
 20
0.7135924670824495
 30
0.0
 10
195.1988038785629
 20
0.8646142564585659
 30
0.0
 10
195.2041306156621
 20
0.9950420592893748
 30
0.0
 10
195.1933101388426
 20
1.067635789818419
 30
0.0
 10
195.2090326429876
 20
1.134486058127408
 30
0.0
 10
195.1432708132491
 20
1.118786488667673
 30
0.0
 10
195.0756367830764
 20
1.12907379459938
 30
0.0
 10
194.961588529381
 20
1.124119232230645
 30
0.0
 10
194.8451242674903
 20
1.127122644064179
 30
0.0
 10
194.7306554121477
 20
1.121784395193316
 30
0.0
 10
194.6640324657812
 20
1.132994044507675
 30
0.0
 10
194.5990769715186
 20
1.11647269040954
 30
0.0
 10
194.6107989758707
 20
1.167718568530018
 30
0.0
 10
194.6032830189121
 20
1.212484701600334
 30
0.0
 10
194.6107989878835
 20
1.25725081273904
 30
0.0
 10
194.5990769505347
 20
1.308496725056835
 30
0.0
 10
194.66403263392
 20
1.29197518142758
 30
0.0
 10
194.7306533339821
 20
1.303187077498865
 30
0.0
 10
194.8451352858064
 20
1.297835730866069
 30
0.0
 10
194.9615454436963
 20
1.300893251470598
 30
0.0
 10
195.0757660174642
 20
1.295766353866509
 30
0.0
 10
195.1430150439227
 20
1.306438697315415
 30
0.0
 10
195.2083325941439
 20
1.29040219045019
 30
0.0
 10
195.1941391448553
 20
1.352478221259959
 30
0.0
 10
195.2036059462997
 20
1.418848980047056
 30
0.0
 10
195.1990269004085
 20
1.535381091179086
 30
0.0
 10
195.2007696555949
 20
1.667248213983185
 30
0.0
 10
195.1997551495392
 20
1.809140965262159
 30
0.0
 10
195.2017191344373
 20
1.940671870785228
 30
0.0
 10
195.1964668553852
 20
2.058227136589447
 30
0.0
 10
195.2073408763475
 20
2.122459253775266
 30
0.0
 10
195.1919536641854
 20
2.184069389209897
 30
0.0
 10
195.2407591537801
 20
2.170005437580535
 30
0.0
 10
195.2853995564726
 20
2.172528784512565
 30
0.0
 10
195.3538643946741
 20
2.168109337776525
 30
0.0
 10
195.3959106169103
 20
2.159111619199776
 30
0.0
 10
195.4487544758775
 20
2.167098512424537
 30
0.0
 10
195.4207035002014
 20
2.124120539876184
 30
0.0
 10
195.3749142248595
 20
2.135576884197755
 30
0.0
 10
195.3869539073266
 20
2.074716563810791
 30
0.0
 10
195.3796086070642
 20
2.01067435844715
 30
0.0
 10
195.3831195826162
 20
1.902075052398535
 30
0.0
 10
195.3819806760175
 20
1.777924555206951
 30
0.0
 10
195.3819174780264
 20
1.644878562058204
 30
0.0
 10
195.3832872966868
 20
1.52095517625498
 30
0.0
 10
195.3791638801314
 20
1.411664742252809
 30
0.0
 10
195.3877763103565
 20
1.349067164701125
 30
0.0
 10
195.3746757454403
 20
1.290382696723082
 30
0.0
 10
195.4393884328199
 20
1.306602501868449
 30
0.0
 10
195.5060405953157
 20
1.295683967592542
 30
0.0
 10
195.6198779541103
 20
1.300918765496985
 30
0.0
 10
195.7357259122097
 20
1.297836838928561
 30
0.0
 10
195.8496924263281
 20
1.303163961884551
 30
0.0
 10
195.9160341018099
 20
1.292023445424855
 30
0.0
 10
195.9807188525481
 20
1.3084511596912
 30
0.0
 10
195.9689820772723
 20
1.25724061585993
 30
0.0
 10
195.9765168063042
 20
1.212484704969436
 30
0.0
 10
195.9689820992259
 20
1.167728753859703
 30
0.0
 10
195.9807188140737
 20
1.116518272469838
 30
0.0
 10
195.9160344075253
 20
1.132945641701625
 30
0.0
 10
195.8496886430826
 20
1.121809208232126
 30
0.0
 10
195.7357459487013
 20
1.127112522690626
 30
0.0
 10
195.6197995623055
 20
1.124129009694869
 30
0.0
 10
195.5062756882124
 20
1.129050286443361
 30
0.0
 10
195.4389231318804
 20
1.118832238894628
 30
0.0
 10
195.3734285122497
 20
1.13444132514759
 30
0.0
 10
195.3891713619218
 20
1.067619882033541
 30
0.0
 10
195.3783275998215
 20
0.9950519419182114
 30
0.0
 10
195.3836581629792
 20
0.8646038399035881
 30
0.0
 10
195.3817136151857
 20
0.7136269456116799
 30
0.0
 10
195.3823133683213
 20
0.5462038031010072
 30
0.0
 10
195.3821506559607
 20
0.379543124943136
 30
0.0
 10
195.3821895488136
 20
0.2265827929757774
 30
0.0
 10
195.3821816413101
 20
0.1014731536164714
 30
0.0
 10
195.3821828382744
 20
0.0180602736736154
 30
0.0
 10
195.382182771621
 20
-0.0221008534208227
 30
0.0
 10
195.3821827564384
 20
-0.0329134623830107
 30
0.0
 11
195.3821827564384
 21
-0.0329134623830107
 31
0.0
 11
195.4100014883675
 21
-0.0329134623830107
 31
0.0
 11
195.4833417816353
 21
-0.0329134623830107
 31
0.0
 11
195.5870297824623
 21
-0.0329134623830107
 31
0.0
 11
195.7058916370687
 21
-0.0329134623830107
 31
0.0
 11
195.8247534916752
 21
-0.0329134623830107
 31
0.0
 11
195.928441492502
 21
-0.0329134623830107
 31
0.0
 11
196.0017817857699
 21
-0.0329134623830107
 31
0.0
 11
196.029600517699
 21
-0.0329134623830107
 31
0.0
 11
196.029600517699
 21
-0.060501787028886
 31
0.0
 11
196.029600517699
 21
-0.1211961012498115
 31
0.0
 11
196.029600517699
 21
-0.1818904154707371
 31
0.0
 11
196.029600517699
 21
-0.2094787401166123
 31
0.0
 11
195.9994901593494
 21
-0.2094787401166123
 31
0.0
 11
195.9162438745004
 21
-0.2094787401166122
 31
0.0
 11
195.7904888484521
 21
-0.2094787401166123
 31
0.0
 11
195.6328522665041
 21
-0.2094787401166123
 31
0.0
 11
195.4539613139564
 21
-0.2094787401166123
 31
0.0
 11
195.2644431761089
 21
-0.2094787401166123
 31
0.0
 11
195.0749250382613
 21
-0.2094787401166123
 31
0.0
 11
194.8960340857136
 21
-0.2094787401166123
 31
0.0
 11
194.7383975037656
 21
-0.2094787401166123
 31
0.0
 11
194.6126424777172
 21
-0.2094787401166123
 31
0.0
 11
194.5293961928683
 21
-0.2094787401166123
 31
0.0
 11
194.4992858345187
 21
-0.2094787401166123
 31
0.0
 11
194.4992858345187
 21
-0.1818904154707371
 31
0.0
 11
194.4992858345187
 21
-0.1211961012498115
 31
0.0
 11
194.4992858345187
 21
-0.060501787028886
 31
0.0
 11
194.4992858345187
 21
-0.0329134623830107
 31
0.0
 11
194.5294068064947
 21
-0.0329134623830107
 31
0.0
 11
194.608816641704
 21
-0.0329134623830107
 31
0.0
 11
194.721085719069
 21
-0.0329134623830107
 31
0.0
 11
194.8497844175118
 21
-0.0329134623830107
 31
0.0
 11
194.9784831159546
 21
-0.0329134623830107
 31
0.0
 11
195.0907521933196
 21
-0.0329134623830107
 31
0.0
 11
195.1701620285289
 21
-0.0329134623830107
 31
0.0
 11
195.2002830005049
 21
-0.0329134623830107
 31
0.0
 11
195.2002830005049
 21
-0.0004755810022294
 31
0.0
 11
195.2002830005049
 21
0.0875700970313209
 31
0.0
 11
195.2002830005049
 21
0.2173216225544466
 31
0.0
 11
195.2002830005049
 21
0.3748770464039578
 31
0.0
 11
195.2002830005049
 21
0.5463344194166596
 31
0.0
 11
195.2002830005049
 21
0.7177917924293615
 31
0.0
 11
195.2002830005049
 21
0.8753472162788726
 31
0.0
 11
195.2002830005049
 21
1.005098741801998
 31
0.0
 11
195.2002830005049
 21
1.093144419835549
 31
0.0
 11
195.2002830005049
 21
1.12558230121633
 31
0.0
 11
195.1673826485529
 21
1.12558230121633
 31
0.0
 11
195.0825343724663
 21
1.12558230121633
 31
0.0
 11
194.9665173418989
 21
1.12558230121633
 31
0.0
 11
194.8401107265045
 21
1.12558230121633
 31
0.0
 11
194.724093695937
 21
1.12558230121633
 31
0.0
 11
194.6392454198503
 21
1.12558230121633
 31
0.0
 11
194.6063450678984
 21
1.12558230121633
 31
0.0
 11
194.6063450678984
 21
1.152739299907455
 31
0.0
 11
194.6063450678984
 21
1.212484697027929
 31
0.0
 11
194.6063450678984
 21
1.272230094148403
 31
0.0
 11
194.6063450678984
 21
1.299387092839528
 31
0.0
 11
194.6392454198504
 21
1.299387092839528
 31
0.0
 11
194.724093695937
 21
1.299387092839528
 31
0.0
 11
194.8401107265045
 21
1.299387092839528
 31
0.0
 11
194.9665173418989
 21
1.299387092839528
 31
0.0
 11
195.0825343724663
 21
1.299387092839528
 31
0.0
 11
195.1673826485529
 21
1.299387092839528
 31
0.0
 11
195.2002830005049
 21
1.299387092839528
 31
0.0
 11
195.2002830005049
 21
1.329481481073124
 31
0.0
 11
195.2002830005049
 21
1.410134441539162
 31
0.0
 11
195.2002830005049
 21
1.526900667885517
 31
0.0
 11
195.2002830005049
 21
1.66533485376006
 31
0.0
 11
195.2002830005049
 21
1.810991692810666
 31
0.0
 11
195.2002830005049
 21
1.949425878685209
 31
0.0
 11
195.2002830005049
 21
2.066192105031564
 31
0.0
 11
195.2002830005049
 21
2.146845065497602
 31
0.0
 11
195.2002830005049
 21
2.176939453731198
 31
0.0
 11
195.2250405288619
 21
2.175264605953844
 31
0.0
 11
195.284077711867
 21
2.171270738177077
 31
0.0
 11
195.3545414464215
 21
2.166503863733839
 31
0.0
 11
195.4135786294265
 21
2.162509995957072
 31
0.0
 11
195.4383361577835
 21
2.160835148179718
 31
0.0
 11
195.423306722403
 21
2.137139505824515
 31
0.0
 11
195.3821827564384
 21
2.123458342633459
 31
0.0
 11
195.3821827564384
 21
2.095198011707741
 31
0.0
 11
195.3821827564384
 21
2.019460324826818
 31
0.0
 11
195.3821827564384
 21
1.909810240835031
 31
0.0
 11
195.3821827564384
 21
1.77981271857673
 31
0.0
 11
195.3821827564384
 21
1.643032716896256
 31
0.0
 11
195.3821827564384
 21
1.513035194637955
 31
0.0
 11
195.3821827564384
 21
1.403385110646169
 31
0.0
 11
195.3821827564384
 21
1.327647423765246
 31
0.0
 11
195.3821827564384
 21
1.299387092839528
 31
0.0
 11
195.4149350096116
 21
1.299387092839528
 31
0.0
 11
195.4994013467423
 21
1.299387092839528
 31
0.0
 11
195.6148961342477
 21
1.299387092839528
 31
0.0
 11
195.7407337385446
 21
1.299387092839528
 31
0.0
 11
195.8562285260499
 21
1.299387092839528
 31
0.0
 11
195.9406948631807
 21
1.299387092839528
 31
0.0
 11
195.9734471163539
 21
1.299387092839528
 31
0.0
 11
195.9734471163539
 21
1.272230094148403
 31
0.0
 11
195.9734471163539
 21
1.212484697027929
 31
0.0
 11
195.9734471163539
 21
1.152739299907455
 31
0.0
 11
195.9734471163539
 21
1.12558230121633
 31
0.0
 11
195.9406948631807
 21
1.12558230121633
 31
0.0
 11
195.85622852605
 21
1.12558230121633
 31
0.0
 11
195.7407337385446
 21
1.12558230121633
 31
0.0
 11
195.6148961342477
 21
1.12558230121633
 31
0.0
 11
195.4994013467423
 21
1.12558230121633
 31
0.0
 11
195.4149350096116
 21
1.12558230121633
 31
0.0
 11
195.3821827564384
 21
1.12558230121633
 31
0.0
 11
195.3821827564384
 21
1.093144419835548
 31
0.0
 11
195.3821827564384
 21
1.005098741801999
 31
0.0
 11
195.3821827564384
 21
0.8753472162788715
 31
0.0
 11
195.3821827564384
 21
0.7177917924293644
 31
0.0
 11
195.3821827564384
 21
0.5463344194166596
 31
0.0
 11
195.3821827564384
 21
0.3748770464039548
 31
0.0
 11
195.3821827564384
 21
0.2173216225544479
 31
0.0
 11
195.3821827564384
 21
0.0875700970313199
 31
0.0
 11
195.3821827564384
 21
-0.0004755810022283
 31
0.0
 11
195.3821827564384
 21
-0.0329134623830107
 31
0.0
  0
SPLINE
  5
A5
102
{ACAD_REACTORS
330
C2
102
}
330
49
100
AcDbEntity
  8
_U_30EC_U_30A4_U_30E4_U_30FC_1
  6
Continuous
 62
     2
100
AcDbSpline
210
0.0
220
0.0
230
1.0
 70
    11
 71
     3
 72
   131
 73
   127
 74
   125
 42
0.000000001
 43
0.0000000001
 44
0.00000001
 40
0.0
 40
0.0
 40
0.0
 40
0.0
 40
0.0195577029826547
 40
0.0426490537462319
 40
0.2863607575857519
 40
0.5344948436190233
 40
0.7842238845574135
 40
0.8737315789468555
 40
0.9803832810314053
 40
1.092842274517151
 40
1.199761146656909
 40
1.289788768186614
 40
1.351573580786286
 40
1.370727117561512
 40
1.416400936017925
 40
1.470914848356067
 40
1.516588666791858
 40
1.535742203552937
 40
1.634216592293247
 40
1.76028334117504
 40
1.897966686682167
 40
2.031216387369011
 40
2.049689751138005
 40
2.101115601646939
 40
2.179502577740059
 40
2.278859318314173
 40
2.393194462258831
 40
2.516516648383945
 40
2.642834515406072
 40
2.766156701983577
 40
2.880491846754689
 40
2.979848588358731
 40
3.058235565443908
 40
3.109661416669062
 40
3.128134780704239
 40
3.146783742386556
 40
3.191254343315417
 40
3.244332157316076
 40
3.288802758225979
 40
3.307451719895222
 40
3.327717853844834
 40
3.383747753580196
 40
3.468388665924587
 40
3.574487837698892
 40
3.694892515728997
 40
3.822449946852136
 40
3.950007377920526
 40
4.070412055800618
 40
4.176511227368173
 40
4.26115213950162
 40
4.31718203907681
 40
4.337448172964732
 40
4.620011002696345
 40
4.885096638397611
 40
4.945373043518429
 40
5.014107710488744
 40
5.070481727652141
 40
5.319246955636665
 40
5.584812164506157
 40
5.859000912057009
 40
6.133746937542191
 40
6.401732212969023
 40
6.420736683995642
 40
6.472845717451236
 40
6.55070274389422
 40
6.646951193874429
 40
6.754234497930753
 40
6.865196086587559
 40
6.972479390358018
 40
7.068727839772208
 40
7.146584865451217
 40
7.198693898189447
 40
7.217698368905587
 40
7.234950401631065
 40
7.276089864270107
 40
7.325191803516212
 40
7.366331266090598
 40
7.383583298769951
 40
7.402779163492328
 40
7.453386443254759
 40
7.524934666445761
 40
7.6069533614061
 40
7.688972056429252
 40
7.760520279784503
 40
7.811127559734745
 40
7.830323424546366
 40
7.847844055299995
 40
7.894799345667036
 40
7.962779392744723
 40
8.043374293560774
 40
8.12817414514968
 40
8.20876904481748
 40
8.276749090377182
 40
8.323704379669747
 40
8.341225010056478
 40
8.358497614800626
 40
8.401679126686831
 40
8.45781509218589
 40
8.513951057728294
 40
8.55713256970825
 40
8.574405174505292
 40
8.602340668616627
 40
8.643455660540221
 40
8.663225271966892
 40
8.715345156564535
 40
8.789031889628873
 40
8.873502045520603
 40
8.957972194324226
 40
9.031658925568118
 40
9.083778811234808
 40
9.103548423003271
 40
9.119550083123837
 40
9.16081752238011
 40
9.217244429110504
 40
9.278724491645018
 40
9.335151398295803
 40
9.376418837358127
 40
9.392420497300915
 40
9.40119630273516
 40
9.417494229384609
 40
9.426270027749908
 40
9.440875075477916
 40
9.47570249699912
 40
9.517270709866281
 40
9.552098131994448
 40
9.566703169884656
 40
9.566703169884656
 40
9.566703169884656
 40
9.566703169884656
 10
194.617025414848
 20
1.6231400788697
 30
0.0
 10
194.6134345093372
 20
1.617518270781016
 30
0.0
 10
194.6056039123625
 20
1.605258907950537
 30
0.0
 10
194.5129968974547
 20
1.569000524169271
 30
0.0
 10
194.4887622233247
 20
1.35446580588652
 30
0.0
 10
194.3858709845938
 20
1.174954208856515
 30
0.0
 10
194.1220492364305
 20
0.9891371017408512
 30
0.0
 10
194.284547156918
 20
0.9125747294202371
 30
0.0
 10
194.3607225760838
 20
0.8515482957138383
 30
0.0
 10
194.4492171072759
 20
0.7881394092070146
 30
0.0
 10
194.538993023311
 20
0.728237705955024
 30
0.0
 10
194.5883817636047
 20
0.6740029122515099
 30
0.0
 10
194.6745708157381
 20
0.6458437691777494
 30
0.0
 10
194.641126067423
 20
0.6101144602875338
 30
0.0
 10
194.621467116631
 20
0.5784852436784773
 30
0.0
 10
194.5919888217882
 20
0.5377400917201138
 30
0.0
 10
194.5688989446031
 20
0.5080279986558551
 30
0.0
 10
194.5380205968357
 20
0.4550955904443701
 30
0.0
 10
194.472919336574
 20
0.5803847131484379
 30
0.0
 10
194.3796000122416
 20
0.6351203660987979
 30
0.0
 10
194.2950636285139
 20
0.6921456031528171
 30
0.0
 10
194.1722498125741
 20
0.849734238034652
 30
0.0
 10
194.1764450847302
 20
0.7733394314277824
 30
0.0
 10
194.1751478652677
 20
0.7265941653723748
 30
0.0
 10
194.1758126448076
 20
0.6488292218854282
 30
0.0
 10
194.1755549986957
 20
0.552002047003645
 30
0.0
 10
194.1756431239922
 20
0.4394841545475087
 30
0.0
 10
194.1756077302281
 20
0.3182222232164116
 30
0.0
 10
194.1756511758278
 20
0.1938503423490298
 30
0.0
 10
194.1755199942406
 20
0.0726582000727808
 30
0.0
 10
194.1759477562046
 20
-0.0401071470431488
 30
0.0
 10
194.174667820231
 20
-0.136189498553141
 30
0.0
 10
194.1779759851044
 20
-0.2158803715535825
 30
0.0
 10
194.1715197740086
 20
-0.2588668783527408
 30
0.0
 10
194.1806208705556
 20
-0.297464312520156
 30
0.0
 10
194.1447910339934
 20
-0.2889097589998753
 30
0.0
 10
194.1115223815252
 20
-0.2935934363861189
 30
0.0
 10
194.060456257604
 20
-0.2935056486427397
 30
0.0
 10
194.0269723972813
 20
-0.2890743334023747
 30
0.0
 10
193.9907585408754
 20
-0.2974106978154864
 30
0.0
 10
194.0009782568665
 20
-0.2555658644477387
 30
0.0
 10
193.9936487887774
 20
-0.2092330280388444
 30
0.0
 10
193.9973633136102
 20
-0.1232703251804396
 30
0.0
 10
193.9959480554896
 20
-0.0209672091920908
 30
0.0
 10
193.9964105554638
 20
0.0975136030745329
 30
0.0
 10
193.996277368623
 20
0.2225581952929769
 30
0.0
 10
193.9963015910046
 20
0.347739644829915
 30
0.0
 10
193.996335492555
 20
0.4658478175499948
 30
0.0
 10
193.9962060293133
 20
0.569268850854578
 30
0.0
 10
193.996550754908
 20
0.6523017252960819
 30
0.0
 10
193.995869827869
 20
0.7044150489718487
 30
0.0
 10
193.9994586600623
 20
0.832110441973028
 30
0.0
 10
193.7826171386437
 20
0.5334685319556141
 30
0.0
 10
193.602135492195
 20
0.3056211788745733
 30
0.0
 10
193.5490322295611
 20
0.4467157966575586
 30
0.0
 10
193.5200429133149
 20
0.4962390393688566
 30
0.0
 10
193.419664806282
 20
0.599399161660488
 30
0.0
 10
193.7405127723261
 20
0.6799317139972227
 30
0.0
 10
193.868989700543
 20
0.8636441941237603
 30
0.0
 10
194.0906454325359
 20
1.072301321477046
 30
0.0
 10
194.1770224894069
 20
1.246373476042882
 30
0.0
 10
194.4549394229075
 20
1.52265187718456
 30
0.0
 10
194.3346247839285
 20
1.518326959270564
 30
0.0
 10
194.286319735135
 20
1.519129925784959
 30
0.0
 10
194.2102377454905
 20
1.518727185225265
 30
0.0
 10
194.1167010009751
 20
1.518884119875521
 30
0.0
 10
194.0117594788557
 20
1.518806389521669
 30
0.0
 10
193.9033887738718
 20
1.518936007544972
 30
0.0
 10
193.7981454235897
 20
1.518525298666344
 30
0.0
 10
193.7056237819413
 20
1.519802100475339
 30
0.0
 10
193.6268130800707
 20
1.516389029107925
 30
0.0
 10
193.5839674565378
 20
1.523214864122628
 30
0.0
 10
193.5449499586516
 20
1.513632005770661
 30
0.0
 10
193.5526365271863
 20
1.547189159414851
 30
0.0
 10
193.5485464404312
 20
1.578216866981753
 30
0.0
 10
193.5485531368814
 20
1.625346656468424
 30
0.0
 10
193.5526239724911
 20
1.656390780227205
 30
0.0
 10
193.5449495574582
 20
1.689999980118435
 30
0.0
 10
193.5834819405495
 20
1.680465467968139
 30
0.0
 10
193.6241228014479
 20
1.686955718740125
 30
0.0
 10
193.6951471850463
 20
1.683982870261961
 30
0.0
 10
193.7729318149633
 20
1.684728977750995
 30
0.0
 10
193.8507292246474
 20
1.685459504204675
 30
0.0
 10
193.9217232089907
 20
1.682523718901023
 30
0.0
 10
193.962427979182
 20
1.68893605148894
 30
0.0
 10
194.0009853489909
 20
1.679486605519459
 30
0.0
 10
193.9927342754928
 20
1.715628285347262
 30
0.0
 10
193.9982346669358
 20
1.754279739891687
 30
0.0
 10
193.9955754206163
 20
1.82211664937781
 30
0.0
 10
193.9965815471533
 20
1.898897779146817
 30
0.0
 10
193.9960178018318
 20
1.981475299586988
 30
0.0
 10
193.9970714526592
 20
2.058154656058197
 30
0.0
 10
193.994267586313
 20
2.126301271526416
 30
0.0
 10
194.0000702721303
 20
2.164305361852883
 30
0.0
 10
193.9915654551158
 20
2.20056584453588
 30
0.0
 10
194.0255610233125
 20
2.190538601477936
 30
0.0
 10
194.0594575683099
 20
2.193714031896485
 30
0.0
 10
194.1126669060346
 20
2.18807102016551
 30
0.0
 10
194.1660768574483
 20
2.187329108123668
 30
0.0
 10
194.199591464949
 20
2.181173598589218
 30
0.0
 10
194.2388086183039
 20
2.186441661495349
 30
0.0
 10
194.2120263698492
 20
2.145515171694272
 30
0.0
 10
194.1708111001724
 20
2.156693409140551
 30
0.0
 10
194.1782641540873
 20
2.111651925680656
 30
0.0
 10
194.1742227952184
 20
2.067104144040862
 30
0.0
 10
194.176171404964
 20
1.995217089976449
 30
0.0
 10
194.1752364849758
 20
1.914667669647127
 30
0.0
 10
194.176510719003
 20
1.834721317809366
 30
0.0
 10
194.1732043793863
 20
1.761399734591249
 30
0.0
 10
194.1802106179962
 20
1.719867793785097
 30
0.0
 10
194.1701440380125
 20
1.680505549440539
 30
0.0
 10
194.2029814803921
 20
1.687661998069231
 30
0.0
 10
194.236457729648
 20
1.683253795138863
 30
0.0
 10
194.2915053476019
 20
1.685160797238392
 30
0.0
 10
194.3489502595315
 20
1.684835027832302
 30
0.0
 10
194.402302624831
 20
1.684044451090242
 30
0.0
 10
194.4398540896639
 20
1.686120954940156
 30
0.0
 10
194.4623172523238
 20
1.683204745430517
 30
0.0
 10
194.4751678073732
 20
1.688706890199964
 30
0.0
 10
194.485825568589
 20
1.69099254573733
 30
0.0
 10
194.4986635650145
 20
1.697931089639944
 30
0.0
 10
194.5145991033071
 20
1.681511826896123
 30
0.0
 10
194.5410623920893
 20
1.670072586953919
 30
0.0
 10
194.5726805253759
 20
1.649428242111326
 30
0.0
 10
194.5987255892152
 20
1.634150060042364
 30
0.0
 10
194.6128517723974
 20
1.625651126991262
 30
0.0
 10
194.617025414848
 20
1.6231400788697
 30
0.0
 11
194.617025414848
 21
1.6231400788697
 31
0.0
 11
194.6049990002244
 21
1.607717075401299
 31
0.0
 11
194.5848961795565
 21
1.596355426098601
 31
0.0
 11
194.4778986355813
 21
1.37738756607101
 31
0.0
 11
194.3477039934324
 21
1.166153378881025
 31
0.0
 11
194.1996540366071
 21
0.9650419540342092
 31
0.0
 11
194.2734958253735
 21
0.9144552131132082
 31
0.0
 11
194.36056643118
 21
0.8528654802968096
 31
0.0
 11
194.4518003750405
 21
0.7871129697036747
 31
0.0
 11
194.5381321779688
 21
0.7240378954524641
 31
0.0
 11
194.6104963609787
 21
0.6704804716618387
 31
0.0
 11
194.6598274450843
 21
0.6332809124504593
 31
0.0
 11
194.6486940702213
 21
0.6176954724543573
 31
0.0
 11
194.6221452532403
 21
0.5805301924636525
 31
0.0
 11
194.5904579555533
 21
0.5361716324747469
 31
0.0
 11
194.5639091385723
 21
0.4990063524840421
 31
0.0
 11
194.5527757637093
 21
0.4834209124879401
 31
0.0
 11
194.4807013362948
 21
0.5505214506655962
 31
0.0
 11
194.3852856985382
 21
0.6329149055061136
 31
0.0
 11
194.279326415217
 21
0.7208315374285814
 31
0.0
 11
194.175621051109
 21
0.8045016068520887
 31
0.0
 11
194.175621051109
 21
0.7860282427680508
 31
0.0
 11
194.175621051109
 21
0.7346023913989719
 31
0.0
 11
194.175621051109
 21
0.6562154140694055
 31
0.0
 11
194.175621051109
 21
0.5568586721039046
 31
0.0
 11
194.175621051109
 21
0.4425235268270201
 31
0.0
 11
194.175621051109
 21
0.3192013395633077
 31
0.0
 11
194.175621051109
 21
0.1928834716373188
 31
0.0
 11
194.175621051109
 21
0.0695612843736064
 31
0.0
 11
194.175621051109
 21
-0.0447738609032781
 31
0.0
 11
194.175621051109
 21
-0.1441306028687792
 31
0.0
 11
194.175621051109
 21
-0.2225175801983461
 31
0.0
 11
194.175621051109
 21
-0.2739434315674245
 31
0.0
 11
194.175621051109
 21
-0.2924167956514623
 31
0.0
 11
194.1569720893626
 21
-0.2924167956514623
 31
0.0
 11
194.1125014882749
 21
-0.2924167956514623
 31
0.0
 11
194.0594236740736
 21
-0.2924167956514623
 31
0.0
 11
194.0149530729859
 21
-0.2924167956514623
 31
0.0
 11
193.9963041112395
 21
-0.2924167956514623
 31
0.0
 11
193.9963041112395
 21
-0.2721506616383955
 31
0.0
 11
193.9963041112395
 21
-0.216120761719916
 31
0.0
 11
193.9963041112395
 21
-0.1314798490771074
 31
0.0
 11
193.9963041112395
 21
-0.0253806768910517
 31
0.0
 11
193.9963041112395
 21
0.0950240016571702
 31
0.0
 11
193.9963041112395
 21
0.2225814333864733
 31
0.0
 11
193.9963041112395
 21
0.3501388651157764
 31
0.0
 11
193.9963041112395
 21
0.4705435436639982
 31
0.0
 11
193.9963041112395
 21
0.576642715850054
 31
0.0
 11
193.9963041112395
 21
0.6612836284928626
 31
0.0
 11
193.9963041112395
 21
0.7173135284113421
 31
0.0
 11
193.9963041112395
 21
0.7375796624244089
 31
0.0
 11
193.7883272849481
 21
0.5463013464999791
 31
0.0
 11
193.5763486358425
 21
0.3871302180675293
 31
0.0
 11
193.5495629014482
 21
0.4411280832803717
 31
0.0
 11
193.5138765415024
 21
0.499872769479686
 31
0.0
 11
193.4799697494124
 21
0.5449100791391892
 31
0.0
 11
193.6830287742319
 21
0.6886152357699626
 31
0.0
 11
193.881853195826
 21
0.864665599059308
 31
0.0
 11
194.0677041444178
 21
1.066256509008924
 31
0.0
 11
194.2318427502303
 21
1.286583305620514
 31
0.0
 11
194.3655301434865
 21
1.518841328895778
 31
0.0
 11
194.3465256724482
 21
1.518841328895778
 31
0.0
 11
194.2944166389563
 21
1.518841328895778
 31
0.0
 11
194.2165596124448
 21
1.518841328895778
 31
0.0
 11
194.1203111623479
 21
1.518841328895778
 31
0.0
 11
194.0130278580997
 21
1.518841328895778
 31
0.0
 11
193.9020662691345
 21
1.518841328895778
 31
0.0
 11
193.7947829648864
 21
1.518841328895778
 31
0.0
 11
193.6985345147895
 21
1.518841328895778
 31
0.0
 11
193.620677488278
 21
1.518841328895778
 31
0.0
 11
193.568568454786
 21
1.518841328895778
 31
0.0
 11
193.5495639837478
 21
1.518841328895778
 31
0.0
 11
193.5495639837478
 21
1.536093361669244
 31
0.0
 11
193.5495639837478
 21
1.577232824436739
 31
0.0
 11
193.5495639837478
 21
1.62633476386891
 31
0.0
 11
193.5495639837478
 21
1.667474226636406
 31
0.0
 11
193.5495639837478
 21
1.684726259409871
 31
0.0
 11
193.5687598486009
 21
1.684726259409871
 31
0.0
 11
193.6193671286684
 21
1.684726259409871
 31
0.0
 11
193.690915352212
 21
1.684726259409871
 31
0.0
 11
193.7729340474937
 21
1.684726259409871
 31
0.0
 11
193.8549527427753
 21
1.684726259409871
 31
0.0
 11
193.9265009663189
 21
1.684726259409871
 31
0.0
 11
193.9771082463864
 21
1.684726259409871
 31
0.0
 11
193.9963041112395
 21
1.684726259409871
 31
0.0
 11
193.9963041112395
 21
1.702246890311601
 31
0.0
 11
193.9963041112395
 21
1.749202181128237
 31
0.0
 11
193.9963041112395
 21
1.817182229026951
 31
0.0
 11
193.9963041112395
 21
1.897777131174909
 31
0.0
 11
193.9963041112395
 21
1.982576984739282
 31
0.0
 11
193.9963041112395
 21
2.06317188688724
 31
0.0
 11
193.9963041112395
 21
2.131151934785954
 31
0.0
 11
193.9963041112395
 21
2.17810722560259
 31
0.0
 11
193.9963041112395
 21
2.19562785650432
 31
0.0
 11
194.0135484112111
 21
2.19463942543461
 31
0.0
 11
194.0566591611401
 21
2.192168347760334
 31
0.0
 11
194.1127031360477
 21
2.188955946783775
 31
0.0
 11
194.1687471109553
 21
2.185743545807216
 31
0.0
 11
194.2118578608843
 21
2.18327246813294
 31
0.0
 11
194.2291021608559
 21
2.18228403706323
 31
0.0
 11
194.2143774674852
 21
2.158544297485817
 31
0.0
 11
194.175621051109
 21
2.144819037072541
 31
0.0
 11
194.175621051109
 21
2.125049425532348
 31
0.0
 11
194.175621051109
 21
2.072929540562749
 31
0.0
 11
194.175621051109
 21
1.999242806640212
 31
0.0
 11
194.175621051109
 21
1.914772648241206
 31
0.0
 11
194.175621051109
 21
1.8303024898422
 31
0.0
 11
194.175621051109
 21
1.756615755919663
 31
0.0
 11
194.175621051109
 21
1.704495870950064
 31
0.0
 11
194.175621051109
 21
1.684726259409871
 31
0.0
 11
194.1916227112936
 21
1.684726259409871
 31
0.0
 11
194.232890150717
 21
1.684726259409871
 31
0.0
 11
194.2893170576837
 21
1.684726259409871
 31
0.0
 11
194.3507971204982
 21
1.684726259409871
 31
0.0
 11
194.4072240274649
 21
1.684726259409871
 31
0.0
 11
194.4484914668883
 21
1.684726259409871
 31
0.0
 11
194.4644931270729
 21
1.684726259409871
 31
0.0
 11
194.4728206422926
 21
1.687495238318627
 31
0.0
 11
194.4882860277004
 21
1.692637627720603
 31
0.0
 11
194.4966135429201
 21
1.695406606629359
 31
0.0
 11
194.5091363776006
 21
1.687890887742355
 31
0.0
 11
194.5389985218387
 21
1.669968788857959
 31
0.0
 11
194.5746404359294
 21
1.6485778966411
 31
0.0
 11
194.6045025801675
 21
1.630655797756704
 31
0.0
 11
194.617025414848
 21
1.6231400788697
 31
0.0
  0
SPLINE
  5
A6
102
{ACAD_REACTORS
330
C3
102
}
330
49
100
AcDbEntity
  8
_U_30EC_U_30A4_U_30E4_U_30FC_1
  6
Continuous
 62
     2
100
AcDbSpline
210
0.0
220
0.0
230
1.0
 70
    11
 71
     3
 72
    91
 73
    87
 74
    85
 42
0.000000001
 43
0.0000000001
 44
0.00000001
 40
0.0
 40
0.0
 40
0.0
 40
0.0
 40
0.0267532254356696
 40
0.0856103386464095
 40
0.1444674521996616
 40
0.1712206856618516
 40
0.2039416005642537
 40
0.2955601971652485
 40
0.4362601844616919
 40
0.6162252844507251
 40
0.8256392189704699
 40
1.054685709844411
 40
1.293548478893531
 40
1.532411247938303
 40
1.761457738799568
 40
1.970871673298537
 40
2.150836773256732
 40
2.291536760495593
 40
2.3831553568367
 40
2.41587628410132
 40
2.442629517487963
 40
2.501486630949095
 40
2.560343744424243
 40
2.587096977826515
 40
2.617068194440943
 40
2.699247336756084
 40
2.822032643466396
 40
2.973822353257926
 40
3.143014704823368
 40
3.318007936879947
 40
3.48720028818678
 40
3.638989997548261
 40
3.76177530379476
 40
3.843954445753095
 40
3.87392566222979
 40
3.890812773500497
 40
3.907699884771676
 40
3.937960767857283
 40
3.980983618142315
 40
4.199085915228438
 40
4.439444339237229
 40
4.677588241260857
 40
5.050698317837771
 40
5.4482124547631
 40
5.855291218044568
 40
6.138575438885215
 40
6.417434507584018
 40
6.444551104393676
 40
6.504207617362951
 40
6.563864130314274
 40
6.590980727103842
 40
6.848609460381226
 40
7.109611990668185
 40
7.352910904445848
 40
7.557830220705219
 40
7.587518925913137
 40
7.652834077375554
 40
7.718149228845489
 40
7.747837934061792
 40
7.854880190300743
 40
7.976511257403285
 40
8.36948789659203
 40
8.757514959223352
 40
9.126072419330843
 40
9.460639380391905
 40
9.746695593035646
 40
9.777569943118392
 40
9.80705032093144
 40
9.830377336128574
 40
9.886003295435659
 40
9.952395569429582
 40
10.00802152870595
 40
10.03134854388188
 40
10.21356951009559
 40
10.42203479292841
 40
10.66154556731033
 40
10.91693789564274
 40
11.15832906556535
 40
11.18982674596593
 40
11.27286608520377
 40
11.39026653033319
 40
11.52484752840855
 40
11.65942852648417
 40
11.77682897161453
 40
11.85986831085652
 40
11.89136598230398
 40
11.89136598230398
 40
11.89136598230398
 40
11.89136598230398
 10
190.7027885008196
 20
0.6599773707771384
 30
0.0
 10
190.7028237765288
 20
0.6688598368792704
 30
0.0
 10
190.7029366710796
 20
0.6972837342328804
 30
0.0
 10
190.701298456849
 20
0.7470777554574479
 30
0.0
 10
190.706975029291
 20
0.7895570085409602
 30
0.0
 10
190.6956928731707
 20
0.8402829123278879
 30
0.0
 10
190.7632296979031
 20
0.8231103711605076
 30
0.0
 10
190.83880292107
 20
0.8358836354193738
 30
0.0
 10
190.9828357056
 20
0.8292786583332383
 30
0.0
 10
191.1569419185427
 20
0.8318659858240743
 30
0.0
 10
191.3639599611003
 20
0.830987283314946
 30
0.0
 10
191.5894688172378
 20
0.8312634429596905
 30
0.0
 10
191.8251162293406
 20
0.8311647603460401
 30
0.0
 10
192.0607640531348
 20
0.8312632078870928
 30
0.0
 10
192.2862717580626
 20
0.830988145667301
 30
0.0
 10
192.4932934632805
 20
0.8318632264667662
 30
0.0
 10
192.6673888915288
 20
0.8292865905438804
 30
0.0
 10
192.8114492071986
 20
0.8358642682515482
 30
0.0
 10
192.8869691915292
 20
0.823143797815461
 30
0.0
 10
192.954577603703
 20
0.8402453656762818
 30
0.0
 10
192.9430840140676
 20
0.789729221788822
 30
0.0
 10
192.9505104581733
 20
0.7455138860244296
 30
0.0
 10
192.9428838927985
 20
0.7016610287955158
 30
0.0
 10
192.9546489459425
 20
0.651765108552693
 30
0.0
 10
192.8930788491983
 20
0.6669136408845401
 30
0.0
 10
192.8256791738672
 20
0.6560880172661512
 30
0.0
 10
192.7013004056221
 20
0.6615016800217808
 30
0.0
 10
192.555442823657
 20
0.6594734176672672
 30
0.0
 10
192.3893576440085
 20
0.6601391395432858
 30
0.0
 10
192.2188412621724
 20
0.6598777989718372
 30
0.0
 10
192.0519790855388
 20
0.6601968976703563
 30
0.0
 10
191.9087346827105
 20
0.6593343896670405
 30
0.0
 10
191.7773313869834
 20
0.6616143685892972
 30
0.0
 10
191.7239859134656
 20
0.6570584075014393
 30
0.0
 10
191.6485188456912
 20
0.66298051368819
 30
0.0
 10
191.6769075779233
 20
0.6539230571929474
 30
0.0
 10
191.7033652409542
 20
0.6502404864487115
 30
0.0
 10
191.6633522907701
 20
0.6195240834421578
 30
0.0
 10
191.5713663691868
 20
0.6296572755057698
 30
0.0
 10
191.543939620707
 20
0.3833063862372441
 30
0.0
 10
191.4478793967235
 20
0.2279769514031803
 30
0.0
 10
191.1917277964474
 20
-0.1017644569249132
 30
0.0
 10
191.7627537732763
 20
0.0372815858639283
 30
0.0
 10
192.0173656320517
 20
0.0358991634930469
 30
0.0
 10
192.6279647048617
 20
-0.049112943819721
 30
0.0
 10
192.3340698578084
 20
0.2498355393414537
 30
0.0
 10
192.0133304286517
 20
0.3962899327771834
 30
0.0
 10
192.1313543360434
 20
0.453236771942295
 30
0.0
 10
192.1724716466261
 20
0.4771823624929105
 30
0.0
 10
192.2156812394411
 20
0.4989789518717109
 30
0.0
 10
192.317457409445
 20
0.5622685762984958
 30
0.0
 10
192.4328867625248
 20
0.3044528778471964
 30
0.0
 10
192.6329591642277
 20
0.1691417748962497
 30
0.0
 10
192.7269077387229
 20
-0.0090906848517611
 30
0.0
 10
192.9558829746391
 20
-0.1670404259700973
 30
0.0
 10
192.8596031846708
 20
-0.2178589104775808
 30
0.0
 10
192.8167959763779
 20
-0.2482057110100326
 30
0.0
 10
192.7718243528779
 20
-0.2723573334259876
 30
0.0
 10
192.7121720925214
 20
-0.3214971687648926
 30
0.0
 10
192.6789731061324
 20
-0.1870438795044876
 30
0.0
 10
192.5582013350796
 20
-0.0310759833747853
 30
0.0
 10
192.1970976005979
 20
-0.1613193556450211
 30
0.0
 10
191.8385061955541
 20
-0.144771692145758
 30
0.0
 10
191.4570920450079
 20
-0.1537063427219195
 30
0.0
 10
191.1703455282893
 20
-0.2181919195165452
 30
0.0
 10
190.8592055599711
 20
-0.1047119543122527
 30
0.0
 10
190.8268737818789
 20
-0.2157960369628942
 30
0.0
 10
190.7896178253318
 20
-0.2350554977404458
 30
0.0
 10
190.7865737632755
 20
-0.1882707953676048
 30
0.0
 10
190.7679892860607
 20
-0.1489500970492361
 30
0.0
 10
190.7512436616778
 20
-0.0893588014582474
 30
0.0
 10
190.7383730915754
 20
-0.0449989375277503
 30
0.0
 10
190.7042327806427
 20
0.0440446749614263
 30
0.0
 10
190.9482714457753
 20
-0.0252082068028771
 30
0.0
 10
191.1441394486671
 20
-0.0467149456631419
 30
0.0
 10
191.2395426381277
 20
0.235246208544049
 30
0.0
 10
191.2945135769597
 20
0.3966118179706443
 30
0.0
 10
191.5159619357156
 20
0.6668931396568016
 30
0.0
 10
191.3849239381216
 20
0.6584658322967614
 30
0.0
 10
191.3110026555854
 20
0.6607714487291184
 30
0.0
 10
191.1977459876244
 20
0.6596951469759939
 30
0.0
 10
191.0694251807484
 20
0.660057754524514
 30
0.0
 10
190.9404252030415
 20
0.6599586084202758
 30
0.0
 10
190.828784094629
 20
0.6599806908851391
 30
0.0
 10
190.7514663970026
 20
0.659977155656118
 30
0.0
 10
190.713287653201
 20
0.6599773222102282
 30
0.0
 10
190.7027885008196
 20
0.6599773707771384
 30
0.0
 11
190.7027885008196
 21
0.6599773707771384
 31
0.0
 11
190.7027885008196
 21
0.686730604277393
 31
0.0
 11
190.7027885008196
 21
0.7455877179779531
 31
0.0
 11
190.7027885008196
 21
0.8044448316785132
 31
0.0
 11
190.7027885008196
 21
0.8311980651787678
 31
0.0
 11
190.7355094280989
 21
0.8311980651787678
 31
0.0
 11
190.8271280244809
 21
0.8311980651787678
 31
0.0
 11
190.9678280117818
 21
0.8311980651787678
 31
0.0
 11
191.1477931118179
 21
0.8311980651787679
 31
0.0
 11
191.3572070464054
 21
0.8311980651787677
 31
0.0
 11
191.5862535373604
 21
0.8311980651787677
 31
0.0
 11
191.8251163064992
 21
0.8311980651787678
 31
0.0
 11
192.0639790756381
 21
0.8311980651787678
 31
0.0
 11
192.2930255665931
 21
0.8311980651787678
 31
0.0
 11
192.5024395011806
 21
0.8311980651787678
 31
0.0
 11
192.6824046012167
 21
0.8311980651787678
 31
0.0
 11
192.8231045885176
 21
0.8311980651787678
 31
0.0
 11
192.9147231848996
 21
0.8311980651787678
 31
0.0
 11
192.9474441121789
 21
0.8311980651787678
 31
0.0
 11
192.9474441121789
 21
0.8044448316785133
 31
0.0
 11
192.9474441121789
 21
0.7455877179779531
 31
0.0
 11
192.9474441121789
 21
0.686730604277393
 31
0.0
 11
192.9474441121789
 21
0.6599773707771384
 31
0.0
 11
192.9174728954758
 21
0.6599773707771384
 31
0.0
 11
192.8352937529027
 21
0.6599773707771384
 31
0.0
 11
192.7125084457639
 21
0.6599773707771383
 31
0.0
 11
192.5607187353642
 21
0.6599773707771384
 31
0.0
 11
192.3915263830077
 21
0.6599773707771384
 31
0.0
 11
192.2165331499991
 21
0.6599773707771385
 31
0.0
 11
192.0473407976426
 21
0.6599773707771384
 31
0.0
 11
191.8955510872428
 21
0.6599773707771384
 31
0.0
 11
191.7727657801042
 21
0.6599773707771384
 31
0.0
 11
191.690586637531
 21
0.6599773707771384
 31
0.0
 11
191.6606154208279
 21
0.6599773707771384
 31
0.0
 11
191.6766359412525
 21
0.6546371971673537
 31
0.0
 11
191.6926564616771
 21
0.649297023557569
 31
0.0
 11
191.670615568142
 21
0.6285625096738441
 31
0.0
 11
191.6284861855363
 21
0.6198400791205181
 31
0.0
 11
191.5365235541378
 21
0.4220738368859859
 31
0.0
 11
191.4279078521764
 21
0.2076564835445038
 31
0.0
 11
191.3127500824808
 21
-0.0007930457243823
 31
0.0
 11
191.6857366675021
 21
0.0088057762897062
 31
0.0
 11
192.0830700036151
 21
0.020793687809364
 31
0.0
 11
192.4899342191145
 21
0.0340084820447402
 31
0.0
 11
192.2983119496979
 21
0.2426489767842184
 31
0.0
 11
192.0966752013699
 21
0.4352755652777383
 31
0.0
 11
192.120494779475
 21
0.4482346364550636
 31
0.0
 11
192.1728978513062
 21
0.4767445930451792
 31
0.0
 11
192.2253009231374
 21
0.5052545496352949
 31
0.0
 11
192.2491205012425
 21
0.5182136208126202
 31
0.0
 11
192.4387101558627
 21
0.3437764474620987
 31
0.0
 11
192.6200310940435
 21
0.1560398275003321
 31
0.0
 11
192.7777729231147
 21
-0.0291948263162181
 31
0.0
 11
192.8966252504058
 21
-0.1961261012310906
 31
0.0
 11
192.8715408217923
 21
-0.2120066133798921
 31
0.0
 11
192.8163550788425
 21
-0.2469437401072553
 31
0.0
 11
192.7611693358928
 21
-0.2818808668346186
 31
0.0
 11
192.7360849072793
 21
-0.2977613789834201
 31
0.0
 11
192.6775518151612
 21
-0.2081403894224887
 31
0.0
 11
192.6050015078457
 21
-0.1105157540302599
 31
0.0
 11
192.2125412924095
 21
-0.1306557668029905
 31
0.0
 11
191.8249474069561
 21
-0.1489856062428513
 31
0.0
 11
191.4567378976213
 21
-0.1649968490166289
 31
0.0
 11
191.1224308105412
 21
-0.1781810717911104
 31
0.0
 11
190.8365441918518
 21
-0.1880298512330825
 31
0.0
 11
190.8211862321741
 21
-0.2148134015736272
 31
0.0
 11
190.7937434290547
 21
-0.2255830456681309
 31
0.0
 11
190.786792719232
 21
-0.203315641784809
 31
0.0
 11
190.7702179496549
 21
-0.1502164479091947
 31
0.0
 11
190.7504351601596
 21
-0.0868399907028168
 31
0.0
 11
190.7338603905825
 21
-0.0337407968272025
 31
0.0
 11
190.7269096807598
 21
-0.0114733929438806
 31
0.0
 11
190.9091199859153
 21
-0.0095022471110546
 31
0.0
 11
191.1174975848588
 21
-0.0034565179458603
 31
0.0
 11
191.2303203127216
 21
0.2078168667749548
 31
0.0
 11
191.3407936722035
 21
0.4380794953182089
 31
0.0
 11
191.4358254265627
 21
0.6599773707771384
 31
0.0
 11
191.4043277461597
 21
0.6599773707771384
 31
0.0
 11
191.3212884069153
 21
0.6599773707771384
 31
0.0
 11
191.2038879617768
 21
0.6599773707771384
 31
0.0
 11
191.0693069636912
 21
0.6599773707771384
 31
0.0
 11
190.9347259656055
 21
0.6599773707771384
 31
0.0
 11
190.817325520467
 21
0.6599773707771384
 31
0.0
 11
190.7342861812226
 21
0.6599773707771384
 31
0.0
 11
190.7027885008196
 21
0.6599773707771384
 31
0.0
  0
SPLINE
  5
A7
102
{ACAD_REACTORS
330
C4
102
}
330
49
100
AcDbEntity
  8
_U_30EC_U_30A4_U_30E4_U_30FC_1
  6
Continuous
 62
     2
100
AcDbSpline
210
0.0
220
0.0
230
1.0
 70
    11
 71
     3
 72
    35
 73
    31
 74
    29
 42
0.000000001
 43
0.0000000001
 44
0.00000001
 40
0.0
 40
0.0
 40
0.0
 40
0.0
 40
0.0335231036619923
 40
0.07132185717124
 40
0.4278866681487554
 40
0.81168658419648
 40
1.198190238000141
 40
1.561379546812798
 40
1.659983174622178
 40
1.759315573807344
 40
2.132719617231205
 40
2.52523336358891
 40
2.910815397779779
 40
3.265244364303346
 40
3.592606723582122
 40
3.964386154604108
 40
4.359942131737906
 40
4.758154118639438
 40
4.843846538700013
 40
4.936650065543374
 40
5.256616602537525
 40
5.581707404416236
 40
5.899719158308331
 40
6.198363494280914
 40
6.466301046615932
 40
6.493895311537254
 40
6.559697020197047
 40
6.638234543442622
 40
6.704036252154375
 40
6.731630508423181
 40
6.731630508423181
 40
6.731630508423181
 40
6.731630508423181
 10
191.9736010568669
 20
2.18761980095076
 30
0.0
 10
191.9676006097789
 20
2.177788269182647
 30
0.0
 10
191.9548344099158
 20
2.15687124955734
 30
0.0
 10
191.7949362006552
 20
2.124252629086554
 30
0.0
 10
192.2322025842338
 20
1.835048167126343
 30
0.0
 10
192.4345394828262
 20
1.633392747343837
 30
0.0
 10
192.6819564267974
 20
1.390475239792171
 30
0.0
 10
193.1831513624608
 20
1.313457991337162
 30
0.0
 10
193.012556219897
 20
1.171750755505973
 30
0.0
 10
192.9383299463201
 20
0.9700850258505297
 30
0.0
 10
192.6131432248188
 20
1.322544235506649
 30
0.0
 10
192.3277741670665
 20
1.484733489355061
 30
0.0
 10
192.0337604077658
 20
1.6898526642899
 30
0.0
 10
191.8084452691136
 20
2.171256249713969
 30
0.0
 10
191.5993085055521
 20
1.706411829851638
 30
0.0
 10
191.3207873674834
 20
1.49649088628856
 30
0.0
 10
191.0371383177209
 20
1.327225927359267
 30
0.0
 10
190.7078639527832
 20
0.9544049728387418
 30
0.0
 10
190.6277012318224
 20
1.150061508349469
 30
0.0
 10
190.4759724909745
 20
1.277892405665356
 30
0.0
 10
190.9083395826795
 20
1.357521681418755
 30
0.0
 10
191.0962565329766
 20
1.553247712914159
 30
0.0
 10
191.3468477420504
 20
1.769311332926968
 30
0.0
 10
191.5714350470161
 20
1.934891286760002
 30
0.0
 10
191.6259775409713
 20
2.214321010127691
 30
0.0
 10
191.7494661029011
 20
2.200360867840204
 30
0.0
 10
191.806027334452
 20
2.198194052435893
 30
0.0
 10
191.8761870984944
 20
2.193449962573021
 30
0.0
 10
191.9333414022106
 20
2.190075657264832
 30
0.0
 10
191.9644190320839
 20
2.188179910870609
 30
0.0
 10
191.9736010568669
 20
2.18761980095076
 30
0.0
 11
191.9736010568669
 21
2.18761980095076
 31
0.0
 11
191.9525319069885
 21
2.161545113457275
 31
0.0
 11
191.9174464559425
 21
2.147482509294107
 31
0.0
 11
192.1512374769095
 21
1.878260975073241
 31
0.0
 11
192.4414585957567
 21
1.627115443452016
 31
0.0
 11
192.7612797483685
 21
1.410091239947255
 31
0.0
 11
193.083870870629
 21
1.24323369007578
 31
0.0
 11
193.0213299868077
 21
1.167001719608699
 31
0.0
 11
192.9688035818975
 21
1.082693342893659
 31
0.0
 11
192.6436279095814
 21
1.266245412075219
 31
0.0
 11
192.3237227768437
 21
1.493682761193704
 31
0.0
 11
192.0354200158609
 21
1.749719914992522
 31
0.0
 11
191.8050514588096
 21
2.019071398215079
 31
0.0
 11
191.5995531719516
 21
1.764244850969778
 31
0.0
 11
191.3288301341535
 21
1.509433186536978
 31
0.0
 11
191.0119538423247
 21
1.272676027307981
 31
0.0
 11
190.6679957933741
 21
1.07201299567409
 31
0.0
 11
190.6218855341338
 21
1.144242040794954
 31
0.0
 11
190.5636970460348
 21
1.21653723174909
 31
0.0
 11
190.8433040489016
 21
1.372095933376865
 31
0.0
 11
191.1093004621155
 21
1.55899146166347
 31
0.0
 11
191.3499997459747
 21
1.766826326611505
 31
0.0
 11
191.5537153607774
 21
1.985203038223578
 31
0.0
 11
191.7087607668218
 21
2.203724106502289
 31
0.0
 11
191.7363041569865
 21
2.202049258724931
 31
0.0
 11
191.8019845489177
 21
2.198055390948151
 31
0.0
 11
191.880377274771
 21
2.193288516504898
 31
0.0
 11
191.9460576667022
 21
2.18929464872812
 31
0.0
 11
191.9736010568669
 21
2.18761980095076
 31
0.0
  0
SPLINE
  5
A8
102
{ACAD_REACTORS
330
C5
102
}
330
49
100
AcDbEntity
  8
_U_30EC_U_30A4_U_30E4_U_30FC_1
  6
Continuous
 62
     2
100
AcDbSpline
210
0.0
220
0.0
230
1.0
 70
    11
 71
     3
 72
    15
 73
    11
 74
     9
 42
0.000000001
 43
0.0000000001
 44
0.00000001
 40
0.0
 40
0.0
 40
0.0
 40
0.0
 40
0.2785535985097476
 40
0.5215624748198971
 40
0.60769173760406
 40
0.693821000174134
 40
0.9405019146455164
 40
1.221691403489151
 40
1.300471877081069
 40
1.379252341684833
 40
1.379252341684833
 40
1.379252341684833
 40
1.379252341684833
 10
189.5681493630999
 20
2.18228403706323
 30
0.0
 10
189.6296017794179
 20
2.12989782968659
 30
0.0
 10
189.7446649974114
 20
2.031810131741719
 30
0.0
 10
190.0397348497243
 20
1.881879222731615
 30
0.0
 10
189.9025147631857
 20
1.796413638909558
 30
0.0
 10
189.8041227843778
 20
1.663839215774964
 30
0.0
 10
189.7130033590649
 20
1.969151221573622
 30
0.0
 10
189.3636839480655
 20
2.032660058413165
 30
0.0
 10
189.511925837657
 20
2.131946462568203
 30
0.0
 10
189.5494081874236
 20
2.165504847783244
 30
0.0
 10
189.5681493630999
 20
2.18228403706323
 30
0.0
 11
189.5681493630999
 21
2.18228403706323
 31
0.0
 11
189.7919222440597
 21
2.016399106549144
 31
0.0
 11
189.9695046306383
 21
1.850514176035059
 31
0.0
 11
189.9066308127979
 21
1.791648794105339
 31
0.0
 11
189.8437569949575
 21
1.732783412175618
 31
0.0
 11
189.6688535117725
 21
1.90673813435433
 31
0.0
 11
189.447825685614
 21
2.080560564866449
 31
0.0
 11
189.507987524357
 21
2.131422300964839
 31
0.0
 11
189.5681493630999
 21
2.18228403706323
 31
0.0
  0
SPLINE
  5
A9
102
{ACAD_REACTORS
330
C6
102
}
330
49
100
AcDbEntity
  8
_U_30EC_U_30A4_U_30E4_U_30FC_1
  6
Continuous
 62
     2
100
AcDbSpline
210
0.0
220
0.0
230
1.0
 70
    11
 71
     3
 72
    75
 73
    71
 74
    69
 42
0.000000001
 43
0.0000000001
 44
0.00000001
 40
0.0
 40
0.0
 40
0.0
 40
0.0
 40
0.0342546099129689
 40
0.1245622414432352
 40
0.2522385480897537
 40
0.3985991922940686
 40
0.5449598364980842
 40
0.6726361431438851
 40
0.7629437746736956
 40
0.7971983935297986
 40
1.101723623449743
 40
1.408591244036776
 40
1.433332471690482
 40
1.48776317245027
 40
1.542193873082095
 40
1.566935100592642
 40
1.923523931821955
 40
2.2717557049537
 40
2.590579755100942
 40
2.858943305581171
 40
2.889120339309208
 40
2.918305855191206
 40
2.941366645531328
 40
2.996357760973207
 40
3.06199231814075
 40
3.116983433626917
 40
3.140044223997606
 40
3.4112731229365
 40
3.732441619741109
 40
3.761068217532807
 40
3.837787499630371
 40
3.948858699126011
 40
4.080541049104391
 40
4.219093782625775
 40
4.350776132722325
 40
4.461847332405662
 40
4.538566614678394
 40
4.567193212544641
 40
4.594907573998899
 40
4.666381453557438
 40
4.764111044011049
 40
4.870592538125852
 40
4.968322128642303
 40
5.039796008286988
 40
5.067510369784447
 40
5.094263603185659
 40
5.153120716668291
 40
5.211977830150735
 40
5.238731063551738
 40
5.272290535138977
 40
5.363380529444838
 40
5.497618415781515
 40
5.660621563453757
 40
5.838007341749458
 40
6.01539311991081
 40
6.178396267038435
 40
6.312634151842387
 40
6.403724143059376
 40
6.437283612672472
 40
6.464036846261087
 40
6.5228939600047
 40
6.581751071483962
 40
6.608504301590907
 40
6.637253941281054
 40
6.711397748902906
 40
6.812778057283518
 40
6.923237199249295
 40
7.024617507623939
 40
7.098761315207591
 40
7.127510946007542
 40
7.127510946007542
 40
7.127510946007542
 40
7.127510946007542
 10
188.4418622390564
 20
0.9114726484920688
 30
0.0
 10
188.4418622819707
 20
0.9000544978466286
 30
0.0
 10
188.4418624481128
 20
0.858533942185714
 30
0.0
 10
188.4418593081787
 20
0.7744505837971459
 30
0.0
 10
188.44187882798
 20
0.6530263369827084
 30
0.0
 10
188.4417912187737
 20
0.5127863042339043
 30
0.0
 10
188.442111623523
 20
0.3730469317051874
 30
0.0
 10
188.441160590974
 20
0.2504317527087122
 30
0.0
 10
188.4431978595967
 20
0.1688521081398541
 30
0.0
 10
188.4349433178746
 20
0.0156940345363751
 30
0.0
 10
188.7430797940902
 20
0.1785837243066019
 30
0.0
 10
189.0350645173736
 20
0.34781075063946
 30
0.0
 10
189.0408354448709
 20
0.2127137215785338
 30
0.0
 10
189.0455471719891
 20
0.1691535753638616
 30
0.0
 10
189.0482535411918
 20
0.1250938572648738
 30
0.0
 10
189.0672545672957
 20
-0.0242927326092528
 30
0.0
 10
188.6583942247303
 20
0.0397930861720471
 30
0.0
 10
188.3793710348833
 20
-0.0740552221304288
 30
0.0
 10
188.1018081587166
 20
-0.1733776781291407
 30
0.0
 10
187.8099837184402
 20
-0.1307117602770494
 30
0.0
 10
187.7869144678658
 20
-0.233801838795182
 30
0.0
 10
187.7537474383333
 20
-0.2601077237958986
 30
0.0
 10
187.7480653962739
 20
-0.2124655458775581
 30
0.0
 10
187.7284214559045
 20
-0.1752152750898797
 30
0.0
 10
187.7095089485623
 20
-0.1169447577649753
 30
0.0
 10
187.6942849867709
 20
-0.0731666261625247
 30
0.0
 10
187.6477246372935
 20
0.0405755742224701
 30
0.0
 10
187.9890897312451
 20
0.0087443749599205
 30
0.0
 10
188.2679649367387
 20
-0.0254042851757797
 30
0.0
 10
188.2617753034907
 20
0.1221211285559396
 30
0.0
 10
188.2630935452773
 20
0.1931128728477407
 30
0.0
 10
188.2624831689948
 20
0.300179043346037
 30
0.0
 10
188.2625871570725
 20
0.4269666616193994
 30
0.0
 10
188.2629987964055
 20
0.5614737987199245
 30
0.0
 10
188.2613907841968
 20
0.6869368632712678
 30
0.0
 10
188.2659902567925
 20
0.7980338309505971
 30
0.0
 10
188.256418650221
 20
0.8606002317663126
 30
0.0
 10
188.2704001783691
 20
0.9189352467094366
 30
0.0
 10
188.2147384386705
 20
0.905878469581807
 30
0.0
 10
188.1575655197821
 20
0.9143444412544147
 30
0.0
 10
188.0616048925648
 20
0.9102811245657877
 30
0.0
 10
187.963376752282
 20
0.9126902622841712
 30
0.0
 10
187.867258245756
 20
0.9084973698933068
 30
0.0
 10
187.8104648525812
 20
0.9172748281710557
 30
0.0
 10
187.7550356873384
 20
0.9039307322606367
 30
0.0
 10
187.7670679427917
 20
0.953350473351991
 30
0.0
 10
187.7592003173937
 20
0.9969212440633786
 30
0.0
 10
187.7666295563828
 20
1.041286054944671
 30
0.0
 10
187.7551930564143
 20
1.092004341399325
 30
0.0
 10
187.8232102370133
 20
1.074605971336854
 30
0.0
 10
187.8968496879747
 20
1.087155866131299
 30
0.0
 10
188.0325064058211
 20
1.080978133870394
 30
0.0
 10
188.1884909024525
 20
1.083273394690254
 30
0.0
 10
188.3615926358143
 20
1.08239104638472
 30
0.0
 10
188.5346942964181
 20
1.083273435183498
 30
0.0
 10
188.6906789811217
 20
1.080977993314917
 30
0.0
 10
188.8263351889797
 20
1.087156226383731
 30
0.0
 10
188.8999756705652
 20
1.07460530594277
 30
0.0
 10
188.9679914174723
 20
1.092005093880844
 30
0.0
 10
188.9565590885922
 20
1.041282667904972
 30
0.0
 10
188.9639539458297
 20
0.9969519718705027
 30
0.0
 10
188.9562039912271
 20
0.9532644392613849
 30
0.0
 10
188.9681203741877
 20
0.9036172647441953
 30
0.0
 10
188.9108170223617
 20
0.9175954771436825
 30
0.0
 10
188.8520145789772
 20
0.9083789204919688
 30
0.0
 10
188.7525293633199
 20
0.9125040454087197
 30
0.0
 10
188.649428009835
 20
0.9112089640183012
 30
0.0
 10
188.5537846354573
 20
0.9115221345358351
 30
0.0
 10
188.4857467971617
 20
0.9114691307308791
 30
0.0
 10
188.4514462213443
 20
0.9114718824759858
 30
0.0
 10
188.4418622390564
 20
0.9114726484920688
 30
0.0
 11
188.4418622390564
 21
0.9114726484920688
 31
0.0
 11
188.4418622390564
 21
0.8772180296312742
 31
0.0
 11
188.4418622390564
 21
0.7869103980891795
 31
0.0
 11
188.4418622390564
 21
0.659234091426218
 31
0.0
 11
188.4418622390564
 21
0.5128734472028231
 31
0.0
 11
188.4418622390564
 21
0.3665128029794282
 31
0.0
 11
188.4418622390564
 21
0.2388364963164668
 31
0.0
 11
188.4418622390564
 21
0.148528864774372
 31
0.0
 11
188.4418622390564
 21
0.1142742459135775
 31
0.0
 11
188.7391932644568
 21
0.1800761208971009
 31
0.0
 11
189.0384623627246
 21
0.2479417458801407
 31
0.0
 11
189.0405487124978
 21
0.2232886425876966
 31
0.0
 11
189.0451386819987
 21
0.1690518153443197
 31
0.0
 11
189.0497286514996
 21
0.1148149881009427
 31
0.0
 11
189.0518150012728
 21
0.0901618848084986
 31
0.0
 11
188.705639688924
 21
0.0046150651683963
 31
0.0
 11
188.3669653138838
 21
-0.0764098599415677
 31
0.0
 11
188.0563731516688
 21
-0.1483909959912882
 31
0.0
 11
187.7944444777956
 21
-0.20680644845066
 31
0.0
 11
187.7817515029292
 21
-0.2341842088604471
 31
0.0
 11
187.7569794787513
 21
-0.2496160317732326
 31
0.0
 11
187.7491867589501
 21
-0.2279118023342198
 31
0.0
 11
187.7306041194242
 21
-0.1761555629027276
 31
0.0
 11
187.70842483999
 21
-0.114381986807076
 31
0.0
 11
187.6898422004641
 21
-0.0626257473755838
 31
0.0
 11
187.6820494806629
 21
-0.040921517936571
 31
0.0
 11
187.9482776335932
 21
0.0109213813560762
 31
0.0
 11
188.2626334936289
 21
0.0767210514785184
 31
0.0
 11
188.2626334936289
 21
0.1053476494556633
 31
0.0
 11
188.2626334936289
 21
0.1820669320344123
 31
0.0
 11
188.2626334936289
 21
0.2931381321857348
 31
0.0
 11
188.2626334936289
 21
0.4248204828806028
 31
0.0
 11
188.2626334936289
 21
0.5633732170899843
 31
0.0
 11
188.2626334936289
 21
0.6950555677848523
 31
0.0
 11
188.2626334936289
 21
0.8061267679361748
 31
0.0
 11
188.2626334936289
 21
0.8828460505149239
 31
0.0
 11
188.2626334936289
 21
0.9114726484920688
 31
0.0
 11
188.2349191321108
 21
0.9114726484920685
 31
0.0
 11
188.1634452524063
 21
0.9114726484920687
 31
0.0
 11
188.06571566179
 21
0.9114726484920689
 31
0.0
 11
187.9592341675364
 21
0.9114726484920689
 31
0.0
 11
187.8615045769201
 21
0.9114726484920688
 31
0.0
 11
187.7900306972156
 21
0.9114726484920687
 31
0.0
 11
187.7623163356975
 21
0.9114726484920688
 31
0.0
 11
187.7623163356975
 21
0.9382258819923172
 31
0.0
 11
187.7623163356975
 21
0.9970829956928638
 31
0.0
 11
187.7623163356975
 21
1.05594010939341
 31
0.0
 11
187.7623163356975
 21
1.082693342893659
 31
0.0
 11
187.7958758072874
 21
1.082693342893659
 31
0.0
 11
187.8869658016031
 21
1.082693342893659
 31
0.0
 11
188.0212036879629
 21
1.082693342893659
 31
0.0
 11
188.1842068356856
 21
1.082693342893659
 31
0.0
 11
188.3615926140897
 21
1.082693342893659
 31
0.0
 11
188.5389783924938
 21
1.082693342893659
 31
0.0
 11
188.7019815402164
 21
1.082693342893659
 31
0.0
 11
188.8362194265763
 21
1.082693342893659
 31
0.0
 11
188.9273094208918
 21
1.082693342893659
 31
0.0
 11
188.9608688924818
 21
1.082693342893659
 31
0.0
 11
188.9608688924818
 21
1.05594010939341
 31
0.0
 11
188.9608688924818
 21
0.9970829956928638
 31
0.0
 11
188.9608688924818
 21
0.9382258819923173
 31
0.0
 11
188.9608688924818
 21
0.9114726484920688
 31
0.0
 11
188.9321192527877
 21
0.9114726484920685
 31
0.0
 11
188.8579754451555
 21
0.9114726484920687
 31
0.0
 11
188.7565951367604
 21
0.9114726484920689
 31
0.0
 11
188.6461359947778
 21
0.9114726484920689
 31
0.0
 11
188.5447556863827
 21
0.9114726484920688
 31
0.0
 11
188.4706118787505
 21
0.9114726484920687
 31
0.0
 11
188.4418622390564
 21
0.9114726484920688
 31
0.0
  0
SPLINE
  5
AA
102
{ACAD_REACTORS
330
C7
102
}
330
49
100
AcDbEntity
  8
_U_30EC_U_30A4_U_30E4_U_30FC_1
  6
Continuous
 62
     2
100
AcDbSpline
210
0.0
220
0.0
230
1.0
 70
    11
 71
     3
 72
    91
 73
    87
 74
    85
 42
0.000000001
 43
0.0000000001
 44
0.00000001
 40
0.0
 40
0.0
 40
0.0
 40
0.0
 40
0.0345987051695434
 40
0.1258134969461085
 40
0.2547723404888703
 40
0.4026032099153841
 40
0.5504340793416704
 40
0.679392922883608
 40
0.770607714657132
 40
0.8052064287780925
 40
1.124852390615273
 40
1.427402236308861
 40
1.7063566274535
 40
1.955541417875175
 40
2.16948593856632
 40
2.344350786664772
 40
2.480568411561922
 40
2.590440557428944
 40
2.649189927151148
 40
2.749320643306351
 40
2.912632739880046
 40
3.147745656000243
 40
3.244827496385185
 40
3.338490056946723
 40
3.583815413207148
 40
3.761423943238508
 40
3.886956104362658
 40
3.985855451886864
 40
4.091766255337749
 40
4.250186473811942
 40
4.422734315084588
 40
4.628285684838666
 40
4.872093227758486
 40
5.152549652145604
 40
5.464967135837584
 40
5.803201477852501
 40
6.160362988813974
 40
6.193449448276029
 40
6.284170385501683
 40
6.419718138764553
 40
6.587285046385803
 40
6.774063446723718
 40
6.9672456781137
 40
7.154024078817686
 40
7.321590987026072
 40
7.45713874089043
 40
7.547859678556167
 40
7.580946138182727
 40
7.608533084714781
 40
7.669224367077764
 40
7.729915649429988
 40
7.757502595950044
 40
7.790278062553497
 40
7.880146277430995
 40
8.014419963180458
 40
8.180411842397959
 40
8.365434637679428
 40
8.55680107162273
 40
8.741823866830842
 40
8.907815745916352
 40
9.042089431507506
 40
9.131957646249631
 40
9.164733112797208
 40
9.415425063140132
 40
9.667986180958593
 40
9.69416980746276
 40
9.756607686047719
 40
9.831130315322525
 40
9.89356819389999
 40
9.919751820398806
 40
9.95096796469064
 40
9.996421631210751
 40
10.22087981037464
 40
10.44341866197552
 40
10.47847970788864
 40
10.57091337438762
 40
10.70159545461242
 40
10.85140174170367
 40
11.00120802880487
 40
11.1318901090739
 40
11.22432377583015
 40
11.25938480938964
 40
11.28697175596153
 40
11.34766303835927
 40
11.40835432042078
 40
11.43594125892113
 40
11.43594125892113
 40
11.43594125892113
 40
11.43594125892113
 10
190.081811433329
 20
1.50540931501018
 30
0.0
 10
190.0702785844942
 20
1.505409266638562
 30
0.0
 10
190.0283409444999
 20
1.505409100801052
 30
0.0
 10
189.9434129719027
 20
1.505412621768494
 30
0.0
 10
189.8207688553129
 20
1.505390628118194
 30
0.0
 10
189.6791206916994
 20
1.505489375529949
 30
0.0
 10
189.537975369849
 20
1.505128226083617
 30
0.0
 10
189.4141351317905
 20
1.506200199850293
 30
0.0
 10
189.3317217825382
 20
1.503903854672094
 30
0.0
 10
189.1727791229692
 20
1.513467057493602
 30
0.0
 10
189.3503402353376
 20
1.150835306873118
 30
0.0
 10
189.3379739205453
 20
0.905412640990553
 30
0.0
 10
189.4064519473865
 20
0.6216063770077689
 30
0.0
 10
189.469302432097
 20
0.385491363149767
 30
0.0
 10
189.5452253431728
 20
0.1862487677207117
 30
0.0
 10
189.6303189577016
 20
0.0304348382731575
 30
0.0
 10
189.7244607592935
 20
-0.0704400584266652
 30
0.0
 10
189.8282648207727
 20
-0.1223601098509179
 30
0.0
 10
189.9125872030774
 20
-0.0709537924444359
 30
0.0
 10
189.9351322179452
 20
0.0444268041345951
 30
0.0
 10
189.9745730975371
 20
0.1718328607832391
 30
0.0
 10
189.9202919734942
 20
0.4892046446269694
 30
0.0
 10
190.0451218072473
 20
0.3428031651684994
 30
0.0
 10
190.2019291513603
 20
0.310934367071088
 30
0.0
 10
190.0947720007057
 20
0.0771949414356939
 30
0.0
 10
190.0808711209867
 20
-0.0872908704040038
 30
0.0
 10
190.0234709467226
 20
-0.2157099450157799
 30
0.0
 10
189.9335020145008
 20
-0.2868306127123031
 30
0.0
 10
189.8095274657877
 20
-0.302695394818048
 30
0.0
 10
189.663427319686
 20
-0.2670806606988635
 30
0.0
 10
189.5243894320284
 20
-0.1470129312378156
 30
0.0
 10
189.4102003962144
 20
0.0273381892626193
 30
0.0
 10
189.3146141301486
 20
0.2524473948718347
 30
0.0
 10
189.2318652572626
 20
0.5168638238238341
 30
0.0
 10
189.1807179256412
 20
0.8348606947448496
 30
0.0
 10
189.0770189207337
 20
1.108418648648531
 30
0.0
 10
189.2042841208523
 20
1.51303954988808
 30
0.0
 10
189.0357890623018
 20
1.504105042256194
 30
0.0
 10
188.9511995787077
 20
1.50614097794304
 30
0.0
 10
188.8189876387627
 20
1.505120737643471
 30
0.0
 10
188.6560505094104
 20
1.5055136669437
 30
0.0
 10
188.4733759170532
 20
1.505338326893097
 30
0.0
 10
188.2847057373383
 20
1.505582416834092
 30
0.0
 10
188.1014469020189
 20
1.504837942821772
 30
0.0
 10
187.9404746832718
 20
1.507144968983666
 30
0.0
 10
187.8029808335276
 20
1.500979412596032
 30
0.0
 10
187.728959037231
 20
1.513309748341518
 30
0.0
 10
187.6613215186856
 20
1.496274600994968
 30
0.0
 10
187.673237371927
 20
1.548225748234689
 30
0.0
 10
187.6655677285694
 20
1.593695613424704
 30
0.0
 10
187.6732592225115
 20
1.63912590079647
 30
0.0
 10
187.6613141797762
 20
1.691005323605123
 30
0.0
 10
187.7283588305866
 20
1.674172798662062
 30
0.0
 10
187.8017375665677
 20
1.686335454686126
 30
0.0
 10
187.9379128305271
 20
1.680253674509007
 30
0.0
 10
188.0973811801513
 20
1.682529706909997
 30
0.0
 10
188.2789173085836
 20
1.681793703749043
 30
0.0
 10
188.4658034862179
 20
1.682040905720755
 30
0.0
 10
188.6468012316836
 20
1.681845371751952
 30
0.0
 10
188.8080802578878
 20
1.682303710907811
 30
0.0
 10
188.9393882124887
 20
1.681108101271478
 30
0.0
 10
189.0225051322596
 20
1.683494836956846
 30
0.0
 10
189.1556236547814
 20
1.675287421014055
 30
0.0
 10
189.0645893502657
 20
1.930510053285965
 30
0.0
 10
188.978963307442
 20
2.19462494704189
 30
0.0
 10
189.0990589003455
 20
2.182025793451068
 30
0.0
 10
189.1514264948544
 20
2.179923721390172
 30
0.0
 10
189.2214497569715
 20
2.178335362655982
 30
0.0
 10
189.2671922337817
 20
2.169007039140543
 30
0.0
 10
189.3220812646934
 20
2.178441032913685
 30
0.0
 10
189.296357478568
 20
2.130311650311147
 30
0.0
 10
189.1825397571453
 20
2.135649661201092
 30
0.0
 10
189.3159346621135
 20
1.90747310952718
 30
0.0
 10
189.1943658735474
 20
1.674549929718649
 30
0.0
 10
189.3223188769413
 20
1.683853952603806
 30
0.0
 10
189.4049048406462
 20
1.680991381306221
 30
0.0
 10
189.5307214850825
 20
1.682215737882444
 30
0.0
 10
189.6741469838059
 20
1.682305682649064
 30
0.0
 10
189.8157420951729
 20
1.680442995597953
 30
0.0
 10
189.9459127249968
 20
1.686312123131042
 30
0.0
 10
190.0193452286192
 20
1.673684771991456
 30
0.0
 10
190.0891112922097
 20
1.69175699486355
 30
0.0
 10
190.0775772605397
 20
1.63910986922268
 30
0.0
 10
190.0833184346683
 20
1.595194540624886
 30
0.0
 10
190.0816615770912
 20
1.5438811905249
 30
0.0
 10
190.081775756167
 20
1.514569283975754
 30
0.0
 10
190.081811433329
 20
1.50540931501018
 30
0.0
 11
190.081811433329
 21
1.50540931501018
 31
0.0
 11
190.0472127192052
 21
1.50540931501018
 31
0.0
 11
189.9559979274242
 21
1.50540931501018
 31
0.0
 11
189.8270390838718
 21
1.50540931501018
 31
0.0
 11
189.6792082144337
 21
1.50540931501018
 31
0.0
 11
189.5313773449955
 21
1.50540931501018
 31
0.0
 11
189.4024185014431
 21
1.50540931501018
 31
0.0
 11
189.3112037096621
 21
1.50540931501018
 31
0.0
 11
189.2766049955383
 21
1.50540931501018
 31
0.0
 11
189.3083140497694
 21
1.18734001306062
 31
0.0
 11
189.3527866656866
 21
0.8880765916402182
 31
0.0
 11
189.409238911832
 21
0.6148940588851743
 31
0.0
 11
189.4768868567478
 21
0.3750674229316888
 31
0.0
 11
189.5549465689761
 21
0.1758716919159623
 31
0.0
 11
189.6426341170591
 21
0.0245818739741952
 31
0.0
 11
189.7391655695388
 21
-0.0715270227574121
 31
0.0
 11
189.8437569949575
 21
-0.1051799901426591
 31
0.0
 11
189.8943077302786
 21
-0.0752448664522297
 31
0.0
 11
189.9310588991552
 21
0.0178975619098942
 31
0.0
 11
189.9562640977528
 21
0.1792528808799664
 31
0.0
 11
189.9721769222368
 21
0.4138266763942404
 31
0.0
 11
190.0494082682584
 21
0.3550031868255941
 31
0.0
 11
190.1327184184385
 21
0.3122002180863177
 31
0.0
 11
190.1066365811217
 21
0.0682652503695158
 31
0.0
 11
190.0673317805105
 21
-0.1049396073649607
 31
0.0
 11
190.0105702596765
 21
-0.2169059117814088
 31
0.0
 11
189.932118261691
 21
-0.2771252195441267
 31
0.0
 11
189.8277420296256
 21
-0.295089087317411
 31
0.0
 11
189.6738595065097
 21
-0.2574442361169714
 31
0.0
 11
189.5388902376747
 21
-0.1499451474665504
 31
0.0
 11
189.4221739916163
 21
0.0192549812075055
 31
0.0
 11
189.32305053683
 21
0.2420029524788498
 31
0.0
 11
189.2408596418113
 21
0.5101455689211359
 31
0.0
 11
189.1749410750559
 21
0.8155296331080173
 31
0.0
 11
189.1246346050593
 21
1.150001947613148
 31
0.0
 11
189.0892800003171
 21
1.50540931501018
 31
0.0
 11
189.0561935405844
 21
1.50540931501018
 31
0.0
 11
188.9654726026075
 21
1.50540931501018
 31
0.0
 11
188.8299248482185
 21
1.50540931501018
 31
0.0
 11
188.6623579392495
 21
1.50540931501018
 31
0.0
 11
188.4755795375324
 21
1.50540931501018
 31
0.0
 11
188.2823973048992
 21
1.50540931501018
 31
0.0
 11
188.0956189031822
 21
1.50540931501018
 31
0.0
 11
187.9280519942131
 21
1.50540931501018
 31
0.0
 11
187.7925042398241
 21
1.50540931501018
 31
0.0
 11
187.7017833018473
 21
1.50540931501018
 31
0.0
 11
187.6686968421145
 21
1.50540931501018
 31
0.0
 11
187.6686968421145
 21
1.53299626161787
 31
0.0
 11
187.6686968421145
 21
1.59368754415479
 31
0.0
 11
187.6686968421145
 21
1.654378826691709
 31
0.0
 11
187.6686968421145
 21
1.6819657732994
 31
0.0
 11
187.7014723087631
 21
1.6819657732994
 31
0.0
 11
187.7913405237673
 21
1.6819657732994
 31
0.0
 11
187.9256142097148
 21
1.6819657732994
 31
0.0
 11
188.0916060891932
 21
1.6819657732994
 31
0.0
 11
188.2766288847901
 21
1.6819657732994
 31
0.0
 11
188.4679953190932
 21
1.6819657732994
 31
0.0
 11
188.6530181146902
 21
1.6819657732994
 31
0.0
 11
188.8190099941685
 21
1.6819657732994
 31
0.0
 11
188.953283680116
 21
1.6819657732994
 31
0.0
 11
189.0431518951202
 21
1.6819657732994
 31
0.0
 11
189.0759273617688
 21
1.6819657732994
 31
0.0
 11
189.0659183950103
 21
1.932457839209005
 31
0.0
 11
189.0599112510663
 21
2.184947509284729
 31
0.0
 11
189.0860575870659
 21
2.183550579840635
 31
0.0
 11
189.1484065421419
 21
2.180219440397026
 31
0.0
 11
189.2228230369099
 21
2.176243564286912
 31
0.0
 11
189.2851719919859
 21
2.172912424843303
 31
0.0
 11
189.3113183279855
 21
2.171515495399209
 31
0.0
 11
189.298293111304
 21
2.143146649920217
 31
0.0
 11
189.2551649266405
 21
2.12879410652106
 31
0.0
 11
189.2574991961822
 21
1.904348064910498
 31
0.0
 11
189.2658452735904
 21
1.6819657732994
 31
0.0
 11
189.3009063195167
 21
1.6819657732994
 31
0.0
 11
189.3933399860495
 21
1.6819657732994
 31
0.0
 11
189.5240220663202
 21
1.6819657732994
 31
0.0
 11
189.6738283534597
 21
1.6819657732994
 31
0.0
 11
189.8236346405992
 21
1.6819657732994
 31
0.0
 11
189.9543167208698
 21
1.6819657732994
 31
0.0
 11
190.0467503874027
 21
1.6819657732994
 31
0.0
 11
190.081811433329
 21
1.6819657732994
 31
0.0
 11
190.081811433329
 21
1.654378826691709
 31
0.0
 11
190.081811433329
 21
1.59368754415479
 31
0.0
 11
190.081811433329
 21
1.532996261617871
 31
0.0
 11
190.081811433329
 21
1.50540931501018
 31
0.0
  0
SPLINE
  5
AB
102
{ACAD_REACTORS
330
C8
102
}
330
49
100
AcDbEntity
  8
_U_30EC_U_30A4_U_30E4_U_30FC_1
  6
Continuous
 62
     2
100
AcDbSpline
210
0.0
220
0.0
230
1.0
 70
    11
 71
     3
 72
   118
 73
   114
 74
   112
 42
0.000000001
 43
0.0000000001
 44
0.00000001
 40
0.0
 40
0.0
 40
0.0
 40
0.0
 40
0.1054708162973412
 40
0.246609827005209
 40
0.3965912874591585
 40
0.5285525069754519
 40
0.6156245055642777
 40
0.6431434105798098
 40
0.703685003798696
 40
0.7642265984505535
 40
0.7917455052356015
 40
0.9287404319990711
 40
1.106572819088123
 40
1.287544879681153
 40
1.317578308030671
 40
1.399928030857307
 40
1.522968204800081
 40
1.675072986590704
 40
1.844616533180783
 40
2.019973001638846
 40
2.189516548880158
 40
2.341621331585495
 40
2.464661506320632
 40
2.547011229647196
 40
2.577044658168162
 40
2.603797890893232
 40
2.662655002908919
 40
2.721512114949731
 40
2.748265347702911
 40
2.774215307344987
 40
2.845959313407318
 40
2.954338556588517
 40
3.090194227585695
 40
3.244367517100659
 40
3.407699615844417
 40
3.571031714539567
 40
3.725205003920243
 40
3.861060674729744
 40
3.969439917716437
 40
4.041183923629109
 40
4.067133883213103
 40
4.311886746012289
 40
4.547897258335634
 40
4.764747083044074
 40
4.952749679951863
 40
5.045772974196016
 40
5.137862019645069
 40
5.330543169793089
 40
5.553448265244067
 40
5.795083855888246
 40
6.043293412177307
 40
6.285761695541233
 40
6.313902908752716
 40
6.384255941793306
 40
6.475714884766866
 40
6.5671738277589
 40
6.637526860839678
 40
6.665668074074013
 40
6.692018920327986
 40
6.749990782071061
 40
6.807962643790431
 40
6.834313490017906
 40
6.856393084245185
 40
6.913335195649808
 40
6.991194817302444
 40
7.076026942283705
 40
7.153886563725167
 40
7.210828674844721
 40
7.232908268931056
 40
7.258199334923578
 40
7.324875781592227
 40
7.419142481924886
 40
7.527204308841827
 40
7.635266135230404
 40
7.729532834168391
 40
7.796209279292713
 40
7.821500344594659
 40
7.844652988850729
 40
7.899863140541508
 40
7.965759128053674
 40
8.020969279770958
 40
8.044121924046424
 40
8.069356610160497
 40
8.109134395441298
 40
8.132238100191008
 40
8.193147867786372
 40
8.279261678876544
 40
8.377977512673759
 40
8.476693347146544
 40
8.562807160411596
 40
8.623716930826381
 40
8.646820636853333
 40
8.671988793774146
 40
8.734909185828085
 40
8.8167056951888
 40
8.898502204815399
 40
8.961422597377888
 40
8.986590754551
 40
9.012941600733157
 40
9.070913462380243
 40
9.12888532408174
 40
9.155236170325061
 40
9.180404327929104
 40
9.243324721948206
 40
9.325121234211998
 40
9.406917746637681
 40
9.469838141978165
 40
9.49500628827094
 40
9.517811184379081
 40
9.572192090487075
 40
9.6370983332813
 40
9.691479239515495
 40
9.714284125643532
 40
9.714284125643532
 40
9.714284125643532
 40
9.714284125643532
 10
185.2874469028653
 20
1.22187299563662
 30
0.0
 10
185.3090990569038
 20
1.194100056187539
 30
0.0
 10
185.3597257109474
 20
1.129161909371778
 30
0.0
 10
185.4349383202592
 20
1.021891966888409
 30
0.0
 10
185.5248482274347
 20
0.9067557464256757
 30
0.0
 10
185.5709169676674
 20
0.8065518212426239
 30
0.0
 10
185.6655825294656
 20
0.737321431908847
 30
0.0
 10
185.6204439320414
 20
0.6906977605421488
 30
0.0
 10
185.594704778579
 20
0.6495844524198082
 30
0.0
 10
185.5645196708012
 20
0.6136410810388067
 30
0.0
 10
185.5193684730561
 20
0.538779189720373
 30
0.0
 10
185.4710504458563
 20
0.7608066062954705
 30
0.0
 10
185.3968539713073
 20
0.7980881371365305
 30
0.0
 10
185.2836047324607
 20
1.069083385065433
 30
0.0
 10
185.2885133578169
 20
0.9539346482217055
 30
0.0
 10
185.2868486556306
 20
0.8813481215756923
 30
0.0
 10
185.2876830076713
 20
0.759237248599282
 30
0.0
 10
185.2873609540265
 20
0.6121193718640241
 30
0.0
 10
185.2875076912455
 20
0.4460520033249863
 30
0.0
 10
185.2872950092722
 20
0.2748569098454376
 30
0.0
 10
185.2879497252035
 20
0.1085096501143994
 30
0.0
 10
185.2859192461139
 20
-0.0376669056836482
 30
0.0
 10
185.291346039993
 20
-0.1623081614944744
 30
0.0
 10
185.2804930868708
 20
-0.2298320708343163
 30
0.0
 10
185.2956739155554
 20
-0.2915280220703617
 30
0.0
 10
185.2457895108134
 20
-0.2797435972705643
 30
0.0
 10
185.2017150342522
 20
-0.2875804084408907
 30
0.0
 10
185.15823716302
 20
-0.2794142225135524
 30
0.0
 10
185.1092346786488
 20
-0.2916380688559051
 30
0.0
 10
185.1218731234825
 20
-0.2374119637474528
 30
0.0
 10
185.1130182968449
 20
-0.1776494471650049
 30
0.0
 10
185.1175058770314
 20
-0.0677983457968796
 30
0.0
 10
185.1157960135991
 20
0.0632811178162011
 30
0.0
 10
185.1163550915986
 20
0.2149614782026959
 30
0.0
 10
185.1161928768693
 20
0.3750921130589504
 30
0.0
 10
185.1162269924675
 20
0.5353500205050798
 30
0.0
 10
185.1162514960127
 20
0.6866838389638144
 30
0.0
 10
185.1161453543225
 20
0.8188029271454266
 30
0.0
 10
185.1164299141931
 20
0.9259293890913505
 30
0.0
 10
185.1158675547567
 20
0.9910675595541548
 30
0.0
 10
185.118076508369
 20
1.11917094234617
 30
0.0
 10
185.0319435998601
 20
0.7439574676751892
 30
0.0
 10
184.9555140818501
 20
0.5921632949933597
 30
0.0
 10
184.8660040767833
 20
0.4306434282224761
 30
0.0
 10
184.7640413217327
 20
0.1576998519611506
 30
0.0
 10
184.7187976491039
 20
0.320154829724491
 30
0.0
 10
184.6102355941671
 20
0.4090356843406435
 30
0.0
 10
184.7995791751753
 20
0.5584793133735098
 30
0.0
 10
184.85653405457
 20
0.7504727335086918
 30
0.0
 10
184.9717520993353
 20
0.9819775928269738
 30
0.0
 10
184.9940151630134
 20
1.170953961350039
 30
0.0
 10
185.1771905152138
 20
1.447522257018711
 30
0.0
 10
185.0538033597552
 20
1.439971152080348
 30
0.0
 10
184.9925684166834
 20
1.441549087420588
 30
0.0
 10
184.9081999617064
 20
1.441807289496138
 30
0.0
 10
184.8204235085967
 20
1.438429821271464
 30
0.0
 10
184.7656768696123
 20
1.44692951357961
 30
0.0
 10
184.7104703026026
 20
1.433466974257296
 30
0.0
 10
184.7222823035536
 20
1.482295785027048
 30
0.0
 10
184.7142496151794
 20
1.525671412726499
 30
0.0
 10
184.7228186104679
 20
1.568075746855145
 30
0.0
 10
184.7102943409157
 20
1.6156593292806
 30
0.0
 10
184.7555101538736
 20
1.605653493710509
 30
0.0
 10
184.8014815562724
 20
1.611922415500029
 30
0.0
 10
184.8777222047711
 20
1.608916977818137
 30
0.0
 10
184.9561296131994
 20
1.610685846544828
 30
0.0
 10
185.0323992648933
 20
1.607629303576018
 30
0.0
 10
185.0783009459474
 20
1.614021077521187
 30
0.0
 10
185.12317339654
 20
1.603919593548381
 30
0.0
 10
185.1105552275633
 20
1.654553379578401
 30
0.0
 10
185.1191936582707
 20
1.707993982580115
 30
0.0
 10
185.1152361595443
 20
1.80161391507622
 30
0.0
 10
185.1162325068335
 20
1.904107430648656
 30
0.0
 10
185.1171927413073
 20
2.00651406624105
 30
0.0
 10
185.1133211458005
 20
2.100340659852629
 30
0.0
 10
185.1217789814364
 20
2.153346792162949
 30
0.0
 10
185.1093075932835
 20
2.2050957202713
 30
0.0
 10
185.1542106389849
 20
2.191488836026987
 30
0.0
 10
185.1955083836772
 20
2.193986166965271
 30
0.0
 10
185.259534428105
 20
2.189461969504296
 30
0.0
 10
185.2986111148787
 20
2.180791394192505
 30
0.0
 10
185.3476543498741
 20
2.188132384466289
 30
0.0
 10
185.3225080030591
 20
2.149010324276985
 30
0.0
 10
185.2815901333723
 20
2.158619788317505
 30
0.0
 10
185.2910109616604
 20
2.108382845457198
 30
0.0
 10
185.2855647318746
 20
2.056840820154317
 30
0.0
 10
185.2881699601804
 20
1.972578439604624
 30
0.0
 10
185.2870102202153
 20
1.878572719593497
 30
0.0
 10
185.2883591064231
 20
1.784950017714674
 30
0.0
 10
185.2849970101509
 20
1.699776539281646
 30
0.0
 10
185.2920959917769
 20
1.650149924479861
 30
0.0
 10
185.2812569154545
 20
1.602918313459305
 30
0.0
 10
185.3304010225246
 20
1.614998113127941
 30
0.0
 10
185.3794877630147
 20
1.607455297389529
 30
0.0
 10
185.4573714280642
 20
1.609842067373745
 30
0.0
 10
185.5350365172896
 20
1.611975182813561
 30
0.0
 10
185.5845393931356
 20
1.604915282983967
 30
0.0
 10
185.6344594750639
 20
1.616582883121555
 30
0.0
 10
185.6223198516882
 20
1.568383717473343
 30
0.0
 10
185.6305838229144
 20
1.525473561771767
 30
0.0
 10
185.6223198650785
 20
1.482563382273257
 30
0.0
 10
185.6344594549855
 20
1.434364251308055
 30
0.0
 10
185.5845395158748
 20
1.446031708474519
 30
0.0
 10
185.5350350651203
 20
1.438973388109867
 30
0.0
 10
185.4573784382973
 20
1.441098016045442
 30
0.0
 10
185.379464386576
 20
1.443515257417008
 30
0.0
 10
185.3304500352717
 20
1.435899845704266
 30
0.0
 10
185.2813246108942
 20
1.448060889335331
 30
0.0
 10
185.2915559988572
 20
1.403711498000996
 30
0.0
 10
185.2856677678053
 20
1.362235725788529
 30
0.0
 10
185.2878788305569
 20
1.30213530691245
 30
0.0
 10
185.2874109346146
 20
1.255239191388313
 30
0.0
 10
185.2874386992913
 20
1.22948282794139
 30
0.0
 10
185.2874469028653
 20
1.22187299563662
 30
0.0
 11
185.2874469028653
 21
1.22187299563662
 31
0.0
 11
185.3516977534484
 21
1.138231360101992
 31
0.0
 11
185.4348258835499
 21
1.024170261241633
 31
0.0
 11
185.5216831568896
 21
0.9018990357166595
 31
0.0
 11
185.5971214371873
 21
0.7936270201881839
 31
0.0
 11
185.6459925881627
 21
0.7215635513173204
 31
0.0
 11
185.6296821285094
 21
0.6993991850034122
 31
0.0
 11
185.593799117272
 21
0.6506375791128143
 31
0.0
 11
185.5579161060346
 21
0.6018759732222163
 31
0.0
 11
185.5416056463813
 21
0.5797116069083081
 31
0.0
 11
185.4763067109446
 21
0.7001427539975492
 31
0.0
 11
185.3848434243235
 21
0.8526512004614859
 31
0.0
 11
185.2874469028653
 21
1.00517924569084
 31
0.0
 11
185.2874469028653
 21
0.9751458170419495
 31
0.0
 11
185.2874469028653
 21
0.8927960933272496
 31
0.0
 11
185.2874469028653
 21
0.7697559178946981
 31
0.0
 11
185.2874469028653
 21
0.6176511340922518
 31
0.0
 11
185.2874469028653
 21
0.4481075852678698
 31
0.0
 11
185.2874469028653
 21
0.2727511147695089
 31
0.0
 11
185.2874469028653
 21
0.1032075659451269
 31
0.0
 11
185.2874469028653
 21
-0.0488972178573195
 31
0.0
 11
185.2874469028653
 21
-0.1719373932898709
 31
0.0
 11
185.2874469028653
 21
-0.2542871170045707
 31
0.0
 11
185.2874469028653
 21
-0.2843205456534612
 31
0.0
 11
185.2606936700409
 21
-0.2843205456534612
 31
0.0
 11
185.2018365578272
 21
-0.2843205456534612
 31
0.0
 11
185.1429794456134
 21
-0.2843205456534612
 31
0.0
 11
185.116226212789
 21
-0.2843205456534612
 31
0.0
 11
185.116226212789
 21
-0.258370585928082
 31
0.0
 11
185.116226212789
 21
-0.1866265796285032
 31
0.0
 11
185.116226212789
 21
-0.078247336069566
 31
0.0
 11
185.116226212789
 21
0.0576083354338903
 31
0.0
 11
185.116226212789
 21
0.2117816255670277
 31
0.0
 11
185.116226212789
 21
0.3751137250150034
 31
0.0
 11
185.116226212789
 21
0.5384458244629791
 31
0.0
 11
185.116226212789
 21
0.6926191145961165
 31
0.0
 11
185.116226212789
 21
0.8284747860995728
 31
0.0
 11
185.116226212789
 21
0.93685402965851
 31
0.0
 11
185.116226212789
 21
1.008598035958089
 31
0.0
 11
185.116226212789
 21
1.034547995683468
 31
0.0
 11
185.0379865861721
 21
0.8026373967831388
 31
0.0
 11
184.9497110789304
 21
0.5837575270461985
 31
0.0
 11
184.8544106930046
 21
0.3889712770948854
 31
0.0
 11
184.7550964303357
 21
0.2293415375514378
 31
0.0
 11
184.7109198342406
 21
0.3112058257254073
 31
0.0
 11
184.6588057383481
 21
0.3871302180675293
 31
0.0
 11
184.7627302590299
 21
0.5493822430269912
 31
0.0
 11
184.8629319864735
 21
0.7484960179772265
 31
0.0
 11
184.9550446607902
 21
0.971885842921382
 31
0.0
 11
185.0347020220912
 21
1.206966017862611
 31
0.0
 11
185.097537810488
 21
1.44115084280406
 31
0.0
 11
185.0693965972142
 21
1.44115084280406
 31
0.0
 11
184.9990435640297
 21
1.44115084280406
 31
0.0
 11
184.9075846208898
 21
1.44115084280406
 31
0.0
 11
184.81612567775
 21
1.44115084280406
 31
0.0
 11
184.7457726445655
 21
1.44115084280406
 31
0.0
 11
184.7176314312917
 21
1.44115084280406
 31
0.0
 11
184.7176314312917
 21
1.467501689151635
 31
0.0
 11
184.7176314312917
 21
1.525473551116299
 31
0.0
 11
184.7176314312917
 21
1.583445413080963
 31
0.0
 11
184.7176314312917
 21
1.609796259428538
 31
0.0
 11
184.739711025602
 21
1.609796259428538
 31
0.0
 11
184.7966531372445
 21
1.609796259428538
 31
0.0
 11
184.8745127592863
 21
1.609796259428538
 31
0.0
 11
184.9593448847945
 21
1.609796259428538
 31
0.0
 11
185.0372045068362
 21
1.609796259428538
 31
0.0
 11
185.0941466184786
 21
1.609796259428538
 31
0.0
 11
185.116226212789
 21
1.609796259428538
 31
0.0
 11
185.116226212789
 21
1.635087325502947
 31
0.0
 11
185.116226212789
 21
1.701763772426388
 31
0.0
 11
185.116226212789
 21
1.796030473249185
 31
0.0
 11
185.116226212789
 21
1.904092301021659
 31
0.0
 11
185.116226212789
 21
2.012154128794134
 31
0.0
 11
185.116226212789
 21
2.106420829616931
 31
0.0
 11
185.116226212789
 21
2.173097276540372
 31
0.0
 11
185.116226212789
 21
2.198388342614781
 31
0.0
 11
185.1393181988665
 21
2.19671349483742
 31
0.0
 11
185.1943837041284
 21
2.192719627060635
 31
0.0
 11
185.2601070491184
 21
2.187952752617376
 31
0.0
 11
185.3151725543802
 21
2.183958884840592
 31
0.0
 11
185.3382645404578
 21
2.18228403706323
 31
0.0
 11
185.3249012644362
 21
2.160878142971333
 31
0.0
 11
185.2874469028653
 21
2.147482509294107
 31
0.0
 11
185.2874469028653
 21
2.124378803245196
 31
0.0
 11
185.2874469028653
 21
2.063469032752612
 31
0.0
 11
185.2874469028653
 21
1.977355219297579
 31
0.0
 11
185.2874469028653
 21
1.878639384361322
 31
0.0
 11
185.2874469028653
 21
1.779923549425066
 31
0.0
 11
185.2874469028653
 21
1.693809735970033
 31
0.0
 11
185.2874469028653
 21
1.632899965477449
 31
0.0
 11
185.2874469028653
 21
1.609796259428538
 31
0.0
 11
185.3126150604809
 21
1.609796259428538
 31
0.0
 11
185.3755354545199
 21
1.609796259428538
 31
0.0
 11
185.4573319667706
 21
1.609796259428538
 31
0.0
 11
185.5391284790213
 21
1.609796259428538
 31
0.0
 11
185.6020488730603
 21
1.609796259428538
 31
0.0
 11
185.6272170306759
 21
1.609796259428538
 31
0.0
 11
185.6272170306759
 21
1.583445413080963
 31
0.0
 11
185.6272170306759
 21
1.525473551116299
 31
0.0
 11
185.6272170306759
 21
1.467501689151635
 31
0.0
 11
185.6272170306759
 21
1.44115084280406
 31
0.0
 11
185.6020488730603
 21
1.44115084280406
 31
0.0
 11
185.5391284790213
 21
1.44115084280406
 31
0.0
 11
185.4573319667706
 21
1.44115084280406
 31
0.0
 11
185.3755354545199
 21
1.44115084280406
 31
0.0
 11
185.3126150604809
 21
1.44115084280406
 31
0.0
 11
185.2874469028653
 21
1.44115084280406
 31
0.0
 11
185.2874469028653
 21
1.418345946698647
 31
0.0
 11
185.2874469028653
 21
1.363965040601122
 31
0.0
 11
185.2874469028653
 21
1.299058797839558
 31
0.0
 11
185.2874469028653
 21
1.244677891742034
 31
0.0
 11
185.2874469028653
 21
1.22187299563662
 31
0.0
  0
SPLINE
  5
AC
102
{ACAD_REACTORS
330
C9
102
}
330
49
100
AcDbEntity
  8
_U_30EC_U_30A4_U_30E4_U_30FC_1
  6
Continuous
 62
     2
100
AcDbSpline
210
0.0
220
0.0
230
1.0
 70
    11
 71
     3
 72
    47
 73
    43
 74
    41
 42
0.000000001
 43
0.0000000001
 44
0.00000001
 40
0.0
 40
0.0
 40
0.0
 40
0.0
 40
0.2207912809957244
 40
0.4459404186303169
 40
0.4902387190459675
 40
0.5327473892722348
 40
0.574226045122596
 40
0.615543263056182
 40
0.656816406631617
 40
0.6982511618781664
 40
0.740766392931761
 40
0.78513667431754
 40
1.010288833836349
 40
1.231080507002202
 40
1.451765243652425
 40
1.676638205891714
 40
1.720461045359684
 40
1.830018144043549
 40
1.97244237235318
 40
2.114866600677547
 40
2.224423699395173
 40
2.268246538883413
 40
2.493628801207243
 40
2.715602830286635
 40
2.934211330706403
 40
3.149502369855401
 40
3.231387784850962
 40
3.318231873853997
 40
3.40514319819807
 40
3.486970301720508
 40
3.702258172493957
 40
3.920866283534199
 40
4.142839325931986
 40
4.368221903865445
 40
4.412044743359925
 40
4.521601842095937
 40
4.664026070452419
 40
4.806450298809127
 40
4.916007397546821
 40
4.959830237043144
 40
5.184703515847179
 40
5.405387250767554
 40
5.405387250767554
 40
5.405387250767554
 40
5.405387250767554
 10
182.6507427258645
 20
1.687045773298138
 30
0.0
 10
182.6568139420002
 20
1.750566188771521
 30
0.0
 10
182.6690762107241
 20
1.878860750655689
 30
0.0
 10
182.5604706879413
 20
2.154643565500212
 30
0.0
 10
182.6761985896603
 20
2.124862698079959
 30
0.0
 10
182.7171842509016
 20
2.120636926387627
 30
0.0
 10
182.7591205797518
 20
2.116085827655481
 30
0.0
 10
182.8004196625711
 20
2.115001193054269
 30
0.0
 10
182.8417032115556
 20
2.116084745711693
 30
0.0
 10
182.8836148270647
 20
2.120642490872852
 30
0.0
 10
182.924598354902
 20
2.124855665856708
 30
0.0
 10
183.0404922843488
 20
2.154757476934778
 30
0.0
 10
182.9295652727457
 20
1.876379429858303
 30
0.0
 10
182.9574856365267
 20
1.695812772008949
 30
0.0
 10
182.940426734697
 20
1.462591787224132
 30
0.0
 10
182.9414637282103
 20
1.302047589190877
 30
0.0
 10
182.9414099399405
 20
1.175829539346635
 30
0.0
 10
182.9414277372481
 20
1.077270997121831
 30
0.0
 10
182.941418858108
 20
0.9457883881890468
 30
0.0
 10
182.9414263928034
 20
0.8143098134459166
 30
0.0
 10
182.9414129405128
 20
0.7157435907003223
 30
0.0
 10
182.9414531717492
 20
0.5893787200009405
 30
0.0
 10
182.9406746403818
 20
0.427802051988124
 30
0.0
 10
182.9565958319266
 20
0.1965995826885579
 30
0.0
 10
182.9333468885409
 20
0.0117248834794533
 30
0.0
 10
183.0360183444365
 20
-0.2576626085400401
 30
0.0
 10
182.8820238362837
 20
-0.2204175093824015
 30
0.0
 10
182.8004129802833
 20
-0.225638689435234
 30
0.0
 10
182.7188192292583
 20
-0.2204124324570579
 30
0.0
 10
182.5648513666842
 20
-0.2576479373867462
 30
0.0
 10
182.6674183421917
 20
0.0117326623882227
 30
0.0
 10
182.6442045316087
 20
0.1965972170135669
 30
0.0
 10
182.6600444655139
 20
0.4278035494158043
 30
0.0
 10
182.6593296313429
 20
0.5893784868444522
 30
0.0
 10
182.6593664569907
 20
0.7157436758646235
 30
0.0
 10
182.6593549000272
 20
0.8143089301192341
 30
0.0
 10
182.6593575019214
 20
0.9457926379316139
 30
0.0
 10
182.659364853178
 20
1.077256844071413
 30
0.0
 10
182.6593442541351
 20
1.175859226512675
 30
0.0
 10
182.6594082192029
 20
1.301942857303689
 30
0.0
 10
182.6581733947591
 20
1.465082277597133
 30
0.0
 10
182.6532040396745
 20
1.613523201534915
 30
0.0
 10
182.6507427258645
 20
1.687045773298138
 30
0.0
 11
182.6507427258645
 21
1.687045773298138
 31
0.0
 11
182.6417328200379
 21
1.907653151715192
 31
0.0
 11
182.6318769706146
 21
2.132586467631221
 31
0.0
 11
182.6756985840801
 21
2.126105278396708
 31
0.0
 11
182.7178400934215
 21
2.120530287078669
 31
0.0
 11
182.7591371409791
 21
2.116653038815727
 31
0.0
 11
182.8004341885366
 21
2.11536209263549
 31
0.0
 11
182.8416871388731
 21
2.116653038815727
 31
0.0
 11
182.8829400892098
 21
2.120530287078669
 31
0.0
 11
182.9250882131343
 21
2.126105278396708
 31
0.0
 11
182.9689825870145
 21
2.132586467631221
 31
0.0
 11
182.9590577693891
 21
1.907653151715192
 31
0.0
 11
182.950038420831
 21
1.687045773298138
 31
0.0
 11
182.9435638463435
 21
1.466456033769963
 31
0.0
 11
182.9414218238286
 21
1.241593273409489
 31
0.0
 11
182.9414218238286
 21
1.197770433914274
 31
0.0
 11
182.9414218238286
 21
1.088213335176238
 31
0.0
 11
182.9414218238286
 21
0.9457891068167897
 31
0.0
 11
182.9414218238286
 21
0.8033648784573417
 31
0.0
 11
182.9414218238286
 21
0.6938077797193054
 31
0.0
 11
182.9414218238286
 21
0.6499849402240905
 31
0.0
 11
182.9435638463435
 21
0.4246128569470846
 31
0.0
 11
182.950038420831
 21
0.202733273669228
 31
0.0
 11
182.9590577693892
 21
-0.015689087387293
 31
0.0
 11
182.9689825870145
 21
-0.2307512401113208
 31
0.0
 11
182.8872616168771
 21
-0.2255643043487234
 31
0.0
 11
182.8004341885366
 21
-0.2238632540019516
 31
0.0
 11
182.7135395119339
 21
-0.2255643043487234
 31
0.0
 11
182.6318769706146
 21
-0.2307512401113208
 31
0.0
 11
182.6417328200379
 21
-0.015689087387293
 31
0.0
 11
182.6507427258645
 21
0.202733273669228
 31
0.0
 11
182.6571833838798
 21
0.4246128569470846
 31
0.0
 11
182.6593583588024
 21
0.6499849402240905
 31
0.0
 11
182.6593583588024
 21
0.693807779719305
 31
0.0
 11
182.6593583588024
 21
0.8033648784573424
 31
0.0
 11
182.6593583588024
 21
0.9457891068167897
 31
0.0
 11
182.6593583588024
 21
1.088213335176237
 31
0.0
 11
182.6593583588024
 21
1.197770433914275
 31
0.0
 11
182.6593583588024
 21
1.241593273409489
 31
0.0
 11
182.6571833838799
 21
1.466456033769963
 31
0.0
 11
182.6507427258645
 21
1.687045773298138
 31
0.0
  0
SPLINE
  5
AD
102
{ACAD_REACTORS
330
CA
102
}
330
49
100
AcDbEntity
  8
_U_30EC_U_30A4_U_30E4_U_30FC_1
  6
Continuous
 62
     2
100
AcDbSpline
210
0.0
220
0.0
230
1.0
 70
    11
 71
     3
 72
   110
 73
   106
 74
   104
 42
0.000000001
 43
0.0000000001
 44
0.00000001
 40
0.0
 40
0.0
 40
0.0
 40
0.0
 40
0.2203406257277706
 40
0.4407808782838139
 40
0.5952494494614553
 40
0.7488431659393125
 40
0.9023581831308543
 40
1.05680196867041
 40
1.210736449099825
 40
1.363041386539703
 40
1.515315729683075
 40
1.669377239148083
 40
1.721611652756576
 40
1.773199502942964
 40
1.824933793210013
 40
1.877110426487982
 40
1.982682281206773
 40
2.078781667087639
 40
2.172809640822332
 40
2.271937807378929
 40
2.378349933379407
 40
2.494131557736596
 40
2.626681683943729
 40
2.783145050796157
 40
2.89070123294101
 40
2.993130312454905
 40
3.09986973069189
 40
3.220237816691383
 40
3.352695482737674
 40
3.481732806389922
 40
3.593499473690454
 40
3.67432301333197
 40
3.817951711952863
 40
3.946167120793832
 40
4.061405053453545
 40
4.166480796003158
 40
4.262478775059252
 40
4.350736673551152
 40
4.433071991254037
 40
4.511216293814639
 40
4.564262454117952
 40
4.618474415571561
 40
4.670128488754162
 40
4.722296879126345
 40
4.819540945314214
 40
4.931194984128069
 40
5.049996040257683
 40
5.168643755415257
 40
5.283970811762469
 40
5.392260784910294
 40
5.486512254876341
 40
5.559178233949683
 40
5.591425852853352
 40
5.62621596963773
 40
5.667155838674271
 40
5.717449290214077
 40
5.738402360944691
 40
5.784499116553661
 40
5.830595872164636
 40
5.851548942897494
 40
5.87301928066161
 40
5.924217778408152
 40
5.98532566281753
 40
6.036524160567546
 40
6.057994498334075
 40
6.236847789607324
 40
6.381409928945501
 40
6.493190424178527
 40
6.574067534230339
 40
6.691018086205461
 40
6.81488155422035
 40
6.944307823240303
 40
7.071266716065927
 40
7.193488604461772
 40
7.309042773128085
 40
7.414007203170653
 40
7.505140441886381
 40
7.531150360599527
 40
7.559221645322117
 40
7.587202218920773
 40
7.612569159498987
 40
7.662550809480861
 40
7.702878875764005
 40
7.85732820523082
 40
8.010799568088466
 40
8.165256399657416
 40
8.322232698713755
 40
8.479564855016413
 40
8.63521623029056
 40
8.790882550925534
 40
8.948305154947043
 40
9.168271839032741
 40
9.387358980987004
 40
9.608047961033256
 40
9.832914234792455
 40
9.85833869496279
 40
9.925366817229797
 40
10.02013071422738
 40
10.12876249858977
 40
10.23739428295227
 40
10.33215817995169
 40
10.39918630222372
 40
10.42461076239761
 40
10.64992019336921
 40
10.87188524531167
 40
10.87188524531167
 40
10.87188524531167
 40
10.87188524531167
 10
179.9057788376619
 20
1.692213967741328
 30
0.0
 10
179.9092864933542
 20
1.759145984497462
 30
0.0
 10
179.9163033987662
 20
1.893040282918004
 30
0.0
 10
179.8198027599074
 20
2.178466913474119
 30
0.0
 10
180.0510134726109
 20
2.115825225662249
 30
0.0
 10
180.1919290057156
 20
2.122996904319335
 30
0.0
 10
180.3490417757589
 20
2.115340194541858
 30
0.0
 10
180.5025913427287
 20
2.115508886589821
 30
0.0
 10
180.6545104935081
 20
2.114801769113742
 30
0.0
 10
180.8142214813232
 20
2.125082947275819
 30
0.0
 10
180.9408972601118
 20
2.107946474566924
 30
0.0
 10
181.1370821122081
 20
2.180253964830916
 30
0.0
 10
181.1034395279079
 20
2.07938835456059
 30
0.0
 10
181.1052011317185
 20
2.029173903236124
 30
0.0
 10
181.1027342073459
 20
1.980104719624081
 30
0.0
 10
181.1347076966011
 20
1.893616272229404
 30
0.0
 10
181.0010399903256
 20
1.942955749842794
 30
0.0
 10
180.9172208688057
 20
1.937287706901094
 30
0.0
 10
180.8173861139324
 20
1.947636530822394
 30
0.0
 10
180.7186576720146
 20
1.953845867870293
 30
0.0
 10
180.612153277111
 20
1.95995900192719
 30
0.0
 10
180.491051169806
 20
1.96887019860529
 30
0.0
 10
180.3703381502453
 20
1.95819742288325
 30
0.0
 10
180.1812553843437
 20
2.01766639456309
 30
0.0
 10
180.2129028505312
 20
1.858564564534816
 30
0.0
 10
180.1995563316833
 20
1.761372647158466
 30
0.0
 10
180.1974958426451
 20
1.649322014860449
 30
0.0
 10
180.1958188044672
 20
1.529978220052926
 30
0.0
 10
180.1973336794234
 20
1.40330728531052
 30
0.0
 10
180.195658247867
 20
1.275997243920587
 30
0.0
 10
180.2058844271658
 20
1.17749702780406
 30
0.0
 10
180.1779006596583
 20
1.036868390015739
 30
0.0
 10
180.3508029999305
 20
1.092876875100361
 30
0.0
 10
180.4645020202773
 20
1.080180878544399
 30
0.0
 10
180.5840151672239
 20
1.087465134271964
 30
0.0
 10
180.6888491425072
 20
1.091761534326976
 30
0.0
 10
180.7843084898612
 20
1.096287046349178
 30
0.0
 10
180.8763823507032
 20
1.104473375221433
 30
0.0
 10
180.9476551782439
 20
1.099419870140522
 30
0.0
 10
181.0544931705684
 20
1.13834561407616
 30
0.0
 10
181.0226603598037
 20
1.05815258381821
 30
0.0
 10
181.0266164503931
 20
1.008610732219755
 30
0.0
 10
181.0234502392013
 20
0.958556144157617
 30
0.0
 10
181.0550791490583
 20
0.8742698398796447
 30
0.0
 10
180.9210133677692
 20
0.9272350187109987
 30
0.0
 10
180.82923227932
 20
0.9183821726638273
 30
0.0
 10
180.7079729189603
 20
0.9286818634109655
 30
0.0
 10
180.5914113119772
 20
0.930470481434439
 30
0.0
 10
180.4783375745879
 20
0.9308515348563702
 30
0.0
 10
180.3679246308471
 20
0.9371358584811966
 30
0.0
 10
180.2898124067841
 20
0.9248726963130676
 30
0.0
 10
180.1913625833644
 20
0.9575202399206583
 30
0.0
 10
180.2012355173562
 20
0.9006788443014775
 30
0.0
 10
180.1973923244402
 20
0.8669026693392641
 30
0.0
 10
180.196678988427
 20
0.8241774108535309
 30
0.0
 10
180.1963369642976
 20
0.7869974363809559
 30
0.0
 10
180.1963834255346
 20
0.7478537374671306
 30
0.0
 10
180.1963649429928
 20
0.7101498587362794
 30
0.0
 10
180.1963703431808
 20
0.6724309160834461
 30
0.0
 10
180.1963697214202
 20
0.6429246112109157
 30
0.0
 10
180.1963698151546
 20
0.6117171407524278
 30
0.0
 10
180.1963704287922
 20
0.5671256128402666
 30
0.0
 10
180.1963671499338
 20
0.5126209288479285
 30
0.0
 10
180.1963759623482
 20
0.4680367657738964
 30
0.0
 10
180.1963359653418
 20
0.3841594496168205
 30
0.0
 10
180.1976024270257
 20
0.2703565705362017
 30
0.0
 10
180.1950274117841
 20
0.1212853230965107
 30
0.0
 10
180.206500938172
 20
0.0189534018984746
 30
0.0
 10
180.1823506222263
 20
-0.113629597382254
 30
0.0
 10
180.3332993946476
 20
-0.0680613135203718
 30
0.0
 10
180.4428436671556
 20
-0.0827485146170871
 30
0.0
 10
180.573397047392
 20
-0.0778142849899534
 30
0.0
 10
180.6990312209514
 20
-0.0744415830069561
 30
0.0
 10
180.8188730625602
 20
-0.0699036612528558
 30
0.0
 10
180.9391362611426
 20
-0.0565332744205157
 30
0.0
 10
181.0222761663517
 20
-0.06633150841462
 30
0.0
 10
181.1456080421073
 20
-0.0057564900073774
 30
0.0
 10
181.1244269203957
 20
-0.0616940349003857
 30
0.0
 10
181.1235950270116
 20
-0.0876261425171137
 30
0.0
 10
181.1218963707558
 20
-0.1150460743311922
 30
0.0
 10
181.1217974888829
 20
-0.1496366841767284
 30
0.0
 10
181.1203659301329
 20
-0.1865145540329069
 30
0.0
 10
181.153280419219
 20
-0.2785502260225305
 30
0.0
 10
180.9551306988107
 20
-0.2056984764922543
 30
0.0
 10
180.8300548294891
 20
-0.2287613711545179
 30
0.0
 10
180.6673071295156
 20
-0.2224784163827154
 30
0.0
 10
180.5129366450001
 20
-0.2244091971413144
 30
0.0
 10
180.3566670436944
 20
-0.2230810102478958
 30
0.0
 10
180.1970544465282
 20
-0.2264199113619541
 30
0.0
 10
180.0540326342237
 20
-0.2143606789581621
 30
0.0
 10
179.819714488163
 20
-0.2774986164714032
 30
0.0
 10
179.9173810751197
 20
0.0091866384225968
 30
0.0
 10
179.900686878006
 20
0.2028644451860139
 30
0.0
 10
179.9146296709684
 20
0.4314637925623669
 30
0.0
 10
179.9142987846632
 20
0.5868273033098936
 30
0.0
 10
179.9143078119263
 20
0.6926447282006758
 30
0.0
 10
179.9143055876316
 20
0.7550392050015602
 30
0.0
 10
179.9143065551888
 20
0.8451856162426828
 30
0.0
 10
179.9143065473262
 20
0.9491930353337981
 30
0.0
 10
179.9143053861102
 20
1.053202677512379
 30
0.0
 10
179.9143090971503
 20
1.143343800647094
 30
0.0
 10
179.9143011051051
 20
1.205749394731569
 30
0.0
 10
179.9143334275019
 20
1.311669723370606
 30
0.0
 10
179.913144078832
 20
1.469248529206821
 30
0.0
 10
179.9082216489257
 20
1.618263561980078
 30
0.0
 10
179.9057788376619
 20
1.692213967741328
 30
0.0
 11
179.9057788376619
 21
1.692213967741328
 31
0.0
 11
179.896691822374
 21
1.912367144769597
 31
0.0
 11
179.8868249573134
 21
2.132586467631221
 31
0.0
 11
180.04115751414
 21
2.126105278396708
 31
0.0
 11
180.1946500189047
 21
2.120530287078669
 31
0.0
 11
180.3481160653367
 21
2.116653038815727
 31
0.0
 11
180.502554455494
 21
2.11536209263549
 31
0.0
 11
180.6564835227473
 21
2.116653038815727
 31
0.0
 11
180.80873910046
 21
2.120530287078669
 31
0.0
 11
180.9609113551074
 21
2.126105278396708
 31
0.0
 11
181.1148364762484
 21
2.132586467631221
 31
0.0
 11
181.1070811703125
 21
2.080930981533005
 31
0.0
 11
181.1044991623592
 21
2.029407787101459
 31
0.0
 11
181.1070811703125
 21
1.977737969406018
 31
0.0
 11
181.1148364762484
 21
1.92614091212727
 31
0.0
 11
181.0094874054411
 21
1.932995825319994
 31
0.0
 11
180.913637570006
 21
1.93991688434599
 31
0.0
 11
180.8198593171903
 21
1.946765182955404
 31
0.0
 11
180.7209679915882
 21
1.953613481564819
 31
0.0
 11
180.6147532199924
 21
1.960091363507662
 31
0.0
 11
180.4991060528038
 21
1.965669662117371
 31
0.0
 11
180.3666126447258
 21
1.969546910380299
 31
0.0
 11
180.2101546018423
 21
1.970837856560539
 31
0.0
 11
180.2062663293721
 21
1.863351979851287
 31
0.0
 11
180.20153800484
 21
1.761032092724069
 31
0.0
 11
180.197660756675
 21
1.654363117056292
 31
0.0
 11
180.1963698105273
 21
1.53400195389192
 31
0.0
 11
180.1967799146837
 21
1.401544922675065
 31
0.0
 11
180.1980896021502
 21
1.27251424562397
 31
0.0
 11
180.199407457705
 21
1.160755348082505
 31
0.0
 11
180.1998191153661
 21
1.079932856783259
 31
0.0
 11
180.3434452935875
 21
1.080783933171916
 31
0.0
 11
180.4716343930758
 21
1.083381259560188
 31
0.0
 11
180.5868078221796
 21
1.087236459211955
 31
0.0
 11
180.691775631222
 21
1.091997856780179
 31
0.0
 11
180.7876346289422
 21
1.097161641501169
 31
0.0
 11
180.8757413374193
 21
1.102325426222098
 31
0.0
 11
180.9578881438496
 21
1.107893802956808
 31
0.0
 11
181.0357692335571
 21
1.114302231774659
 31
0.0
 11
181.0280180445186
 21
1.061825434912784
 31
0.0
 11
181.0254328449318
 21
1.007675148468
 31
0.0
 11
181.0280180445186
 21
0.9560858082030865
 31
0.0
 11
181.0357692335571
 21
0.9044964679382481
 31
0.0
 11
180.9389813454014
 21
0.9139046102969912
 31
0.0
 11
180.8275950722015
 21
0.9216326484895383
 31
0.0
 11
180.7089261429373
 21
0.9272340981408713
 31
0.0
 11
180.5903167449213
 21
0.930249245709529
 31
0.0
 11
180.4750025117521
 21
0.9319690373758025
 31
0.0
 11
180.36672619507
 21
0.93368882904198
 31
0.0
 11
180.2724839317708
 21
0.9350062335555878
 31
0.0
 11
180.1998191153661
 21
0.9354174401527082
 31
0.0
 11
180.199407457705
 21
0.9031724488413255
 31
0.0
 11
180.1980896021502
 21
0.8684073012805982
 31
0.0
 11
180.1967799146836
 21
0.8274883863602667
 31
0.0
 11
180.1963698105273
 21
0.77719660685894
 31
0.0
 11
180.1963698105273
 21
0.7562435361176414
 31
0.0
 11
180.1963698105273
 21
0.7101467804867845
 31
0.0
 11
180.1963698105273
 21
0.6640500248559276
 31
0.0
 11
180.1963698105273
 21
0.643096954114629
 31
0.0
 11
180.1963698105273
 21
0.6216266163422226
 31
0.0
 11
180.1963698105273
 21
0.5704281185772536
 31
0.0
 11
180.1963698105273
 21
0.509320234148096
 31
0.0
 11
180.1963698105273
 21
0.4581217363831271
 31
0.0
 11
180.1963698105273
 21
0.4366513986107208
 31
0.0
 11
180.1967799146837
 21
0.257798577474897
 31
0.0
 11
180.1980896021502
 21
0.1132423709138379
 31
0.0
 11
180.2002868589709
 21
0.0014834733723115
 31
0.0
 11
180.2032586986985
 21
-0.0793390179269302
 31
0.0
 11
180.3202092517448
 21
-0.0793390179269302
 31
0.0
 11
180.4440727208746
 21
-0.0793390179269302
 31
0.0
 11
180.5734925526422
 21
-0.0780480717466823
 31
0.0
 11
180.7003922282244
 21
-0.074170823483751
 31
0.0
 11
180.8224658067973
 21
-0.0681515526519281
 31
0.0
 11
180.9377587499464
 21
-0.0603860318205491
 31
0.0
 11
181.0421754573518
 21
-0.0496770214065561
 31
0.0
 11
181.1320599255448
 21
-0.0346420734936608
 31
0.0
 11
181.1264254031191
 21
-0.0600343564734303
 31
0.0
 11
181.1234433285423
 21
-0.0879467957025604
 31
0.0
 11
181.12213398812
 21
-0.1158967175705556
 31
0.0
 11
181.1217235369195
 21
-0.1412603373558596
 31
0.0
 11
181.1243087365064
 21
-0.1911750856073202
 31
0.0
 11
181.1320599255448
 21
-0.2307512401113208
 31
0.0
 11
180.9776977178344
 21
-0.2255643043487234
 31
0.0
 11
180.8242357818765
 21
-0.2238632540019516
 31
0.0
 11
180.6697789496483
 21
-0.2238632540019516
 31
0.0
 11
180.5128026496768
 21
-0.2238632540019516
 31
0.0
 11
180.3554704921536
 21
-0.2238632540019516
 31
0.0
 11
180.1998191153661
 21
-0.2238632540019516
 31
0.0
 11
180.0441620874242
 21
-0.2255643043487234
 31
0.0
 11
179.8868249573134
 21
-0.2307512401113208
 31
0.0
 11
179.896691822374
 21
-0.0110059623884808
 31
0.0
 11
179.9057788376619
 21
0.2078926486679187
 31
0.0
 11
179.9121721518401
 21
0.4284890027794441
 31
0.0
 11
179.9143063455009
 21
0.6533451485565678
 31
0.0
 11
179.9143063455009
 21
0.6787696087281628
 31
0.0
 11
179.9143063455009
 21
0.7457977309987318
 31
0.0
 11
179.9143063455009
 21
0.8405616280019501
 31
0.0
 11
179.9143063455009
 21
0.9491934123714929
 31
0.0
 11
179.9143063455009
 21
1.057825196741036
 31
0.0
 11
179.9143063455009
 21
1.152589093744254
 31
0.0
 11
179.9143063455009
 21
1.219617216014823
 31
0.0
 11
179.9143063455009
 21
1.245041676186418
 31
0.0
 11
179.9121721518401
 21
1.470340999046768
 31
0.0
 11
179.9057788376619
 21
1.692213967741328
 31
0.0
  0
SPLINE
  5
AE
102
{ACAD_REACTORS
330
CB
102
}
330
49
100
AcDbEntity
  8
_U_30EC_U_30A4_U_30E4_U_30FC_1
  6
Continuous
 62
     2
100
AcDbSpline
210
0.0
220
0.0
230
1.0
 70
    11
 71
     3
 72
    95
 73
    91
 74
    89
 42
0.000000001
 43
0.0000000001
 44
0.00000001
 40
0.0
 40
0.0
 40
0.0
 40
0.0
 40
0.6550406656911113
 40
1.308087289031873
 40
1.420803739835742
 40
1.566130759770737
 40
1.757067341888406
 40
2.006513545026408
 40
2.087328263121503
 40
2.185328872295578
 40
2.294612454748311
 40
2.40893638053476
 40
2.526802767798509
 40
2.646360524615558
 40
2.762535723971526
 40
2.870057342870096
 40
2.966883448431589
 40
3.050803243518243
 40
3.115818222436554
 40
3.156030057150207
 40
3.213914225080195
 40
3.276689026450596
 40
3.342960320981316
 40
3.404230667150623
 40
3.453822809493454
 40
3.53249982718849
 40
3.634775188507241
 40
3.754909333008237
 40
3.88973676166074
 40
4.035769602175308
 40
4.187256681197698
 40
4.338733685676035
 40
4.4884787346762
 40
4.634708317831663
 40
4.771493189921351
 40
4.89268657156129
 40
5.199775528944527
 40
5.460353566929714
 40
5.667603142345593
 40
5.814722905404572
 40
5.828990806219899
 40
5.855488336304624
 40
5.869756237118985
 40
6.18979650776297
 40
6.531890469873119
 40
6.883053637017108
 40
7.230512024911583
 40
7.566966656764725
 40
7.885203559707517
 40
8.172887439719338
 40
8.41801159406293
 40
8.443926721190852
 40
8.51076047061334
 40
8.602145393795848
 40
8.701714041647286
 40
8.793098965075519
 40
8.859932715058092
 40
8.88584784260374
 40
9.24230125661296
 40
9.58927545501691
 40
9.92180854316432
 40
10.23479624298483
 40
10.29968150889194
 40
10.35323493887782
 40
10.4015462535517
 40
10.46482922477851
 40
10.55973900668434
 40
10.69239545985645
 40
10.84920353475699
 40
11.01626328594807
 40
11.18672024367472
 40
11.35372582577239
 40
11.50257442292455
 40
11.61866495023319
 40
11.71329869152903
 40
11.82511050573936
 40
11.94464880845744
 40
12.06929242642534
 40
12.19707290435204
 40
12.32562632860557
 40
12.45034565331308
 40
12.56646595170356
 40
12.67099007414664
 40
12.76077625936811
 40
12.82703233506723
 40
12.87429132786021
 40
12.89831990323361
 40
12.92234847860049
 40
13.53984767410355
 40
14.182942843594
 40
14.182942843594
 40
14.182942843594
 40
14.182942843594
 10
177.3067935648021
 20
0.6619617457766687
 30
0.0
 10
177.1752019758551
 20
0.7756319497917457
 30
0.0
 10
176.9124193802729
 20
1.002626326921011
 30
0.0
 10
176.3997393441022
 20
1.845125993322284
 30
0.0
 10
176.4106654595363
 20
1.487215139529619
 30
0.0
 10
176.4041226527991
 20
1.345655286480753
 30
0.0
 10
176.4028026631773
 20
1.147194416752231
 30
0.0
 10
176.4018117602537
 20
0.9744843242192444
 30
0.0
 10
176.4024101751975
 20
0.8316350963352133
 30
0.0
 10
176.4038994301884
 20
0.7356314178929984
 30
0.0
 10
176.4055683588473
 20
0.6284363963908317
 30
0.0
 10
176.4071934954618
 20
0.5146234789352396
 30
0.0
 10
176.4092429501686
 20
0.3973970898053062
 30
0.0
 10
176.4123165501928
 20
0.2795454760891181
 30
0.0
 10
176.4156339697043
 20
0.1652622369656251
 30
0.0
 10
176.419360534028
 20
0.0581953824321901
 30
0.0
 10
176.4217338161424
 20
-0.0369445485713622
 30
0.0
 10
176.4278718888357
 20
-0.1214330641836289
 30
0.0
 10
176.4239784495947
 20
-0.1777877632591702
 30
0.0
 10
176.4455230443078
 20
-0.2487684115170664
 30
0.0
 10
176.3680940058618
 20
-0.2179918601957417
 30
0.0
 10
176.3116353240191
 20
-0.2269062110644348
 30
0.0
 10
176.2540495896807
 20
-0.2180564522578298
 30
0.0
 10
176.1690163478472
 20
-0.2496363839811638
 30
0.0
 10
176.2009714146383
 20
-0.1660670763186989
 30
0.0
 10
176.1990705282539
 20
-0.0981925465574833
 30
0.0
 10
176.21079600473
 20
0.0053139314035911
 30
0.0
 10
176.2164241053
 20
0.1230026199263713
 30
0.0
 10
176.2237902178941
 20
0.2568674554036526
 30
0.0
 10
176.2320759701612
 20
0.4006228924857375
 30
0.0
 10
176.2398851897428
 20
0.550121592193867
 30
0.0
 10
176.2457571222658
 20
0.7009068577802016
 30
0.0
 10
176.2503667817969
 20
0.8499808025437963
 30
0.0
 10
176.2542632117542
 20
0.9942104953896422
 30
0.0
 10
176.2570715126564
 20
1.128820415889591
 30
0.0
 10
176.2576698755024
 20
1.317677507232965
 30
0.0
 10
176.261602386715
 20
1.542736306890955
 30
0.0
 10
176.24421753785
 20
1.816652275016495
 30
0.0
 10
176.2850417342582
 20
1.980852484745389
 30
0.0
 10
176.1995153256003
 20
2.180477978410387
 30
0.0
 10
176.2660558907688
 20
2.176835947799203
 30
0.0
 10
176.2838724273231
 20
2.177115835367961
 30
0.0
 10
176.4056801797501
 20
2.179310637745529
 30
0.0
 10
176.5080770335464
 20
1.89973255097459
 30
0.0
 10
176.7580021509356
 20
1.698611449119415
 30
0.0
 10
176.9870035331111
 20
1.430907513638596
 30
0.0
 10
177.2245151213108
 20
1.179445502383151
 30
0.0
 10
177.4486090740772
 20
0.9426811043730489
 30
0.0
 10
177.6750716283009
 20
0.685168289590189
 30
0.0
 10
177.8325687886515
 20
0.5694747143286241
 30
0.0
 10
178.0472129612674
 20
0.232952889147344
 30
0.0
 10
178.042264597462
 20
0.3576289046754535
 30
0.0
 10
178.0433931602548
 20
0.4162582831167891
 30
0.0
 10
178.0428877841517
 20
0.5034179874791882
 30
0.0
 10
178.0430475158114
 20
0.5971427955881401
 30
0.0
 10
178.0430054891319
 20
0.6831710767297686
 30
0.0
 10
178.0430202040373
 20
0.7445202832143715
 30
0.0
 10
178.0429706255985
 20
0.894333678969351
 30
0.0
 10
178.0458811522811
 20
1.132877488860461
 30
0.0
 10
178.0259521041161
 20
1.497846462446432
 30
0.0
 10
178.0750433936247
 20
1.760977683693537
 30
0.0
 10
177.9177951509181
 20
2.172270413236963
 30
0.0
 10
178.0762112872421
 20
2.116964189276901
 30
0.0
 10
178.1311680478628
 20
2.114978228761168
 30
0.0
 10
178.182788776674
 20
2.11562914624194
 30
0.0
 10
178.2713198965367
 20
2.1566766411419
 30
0.0
 10
178.2204898303168
 20
2.009944629989301
 30
0.0
 10
178.2313389930283
 20
1.903181083303751
 30
0.0
 10
178.2166036994847
 20
1.743838417900548
 30
0.0
 10
178.2099976446205
 20
1.581511980288161
 30
0.0
 10
178.2014961399914
 20
1.412906582683374
 30
0.0
 10
178.19432272022
 20
1.251129510794823
 30
0.0
 10
178.1889063215389
 20
1.107204678338743
 30
0.0
 10
178.1871713967648
 20
0.9873562984286677
 30
0.0
 10
178.1875440672319
 20
0.8798423796645654
 30
0.0
 10
178.1873656126263
 20
0.7711816102152772
 30
0.0
 10
178.1877010863139
 20
0.6525170654147228
 30
0.0
 10
178.1890040622184
 20
0.5285329988868309
 30
0.0
 10
178.1908887351574
 20
0.4015643054704666
 30
0.0
 10
178.192500445485
 20
0.274519979269735
 30
0.0
 10
178.194140313743
 20
0.1515302086811905
 30
0.0
 10
178.1962570745752
 20
0.0359906775970073
 30
0.0
 10
178.1963848422364
 20
-0.0661095966822131
 30
0.0
 10
178.2006514396555
 20
-0.1569201478590189
 30
0.0
 10
178.190844008529
 20
-0.2148824241527208
 30
0.0
 10
178.211847477169
 20
-0.2818473349202948
 30
0.0
 10
178.1725639739897
 20
-0.2741070965737049
 30
0.0
 10
177.9595307117752
 20
-0.2894660947886536
 30
0.0
 10
177.7636297943183
 20
0.267011944704084
 30
0.0
 10
177.4611197631544
 20
0.5285417172445166
 30
0.0
 10
177.3067935648021
 20
0.6619617457766687
 30
0.0
 11
177.3067935648021
 21
0.6619617457766687
 31
0.0
 11
176.8595529338511
 21
1.140557717879193
 31
0.0
 11
176.4124049070644
 21
1.616507856649118
 31
0.0
 11
176.4089664262494
 21
1.503843863621744
 31
0.0
 11
176.40556101835
 21
1.358556745602527
 31
0.0
 11
176.4029636920274
 21
1.167637822039099
 31
0.0
 11
176.4021126156603
 21
0.9181930651569878
 31
0.0
 11
176.402523923029
 21
0.8373793933022147
 31
0.0
 11
176.4038420329818
 21
0.739387648535029
 31
0.0
 11
176.4055192267718
 21
0.6301169367568131
 31
0.0
 11
176.4072367127518
 21
0.5158059124798093
 31
0.0
 11
176.4094007838773
 21
0.397959393412076
 31
0.0
 11
176.4124049070644
 21
0.2784393847614091
 31
0.0
 11
176.4158359733138
 21
0.1623148622209838
 31
0.0
 11
176.4192928929998
 21
0.0548488292617186
 31
0.0
 11
176.4227085253088
 21
-0.0419170127279327
 31
0.0
 11
176.4261896983793
 21
-0.1257645734708603
 31
0.0
 11
176.4296006184313
 21
-0.1906900161629799
 31
0.0
 11
176.4330776843149
 21
-0.2307512401113208
 31
0.0
 11
176.3754263821571
 21
-0.2255643043487234
 31
0.0
 11
176.3126746318309
 21
-0.2238632540019516
 31
0.0
 11
176.2464251717157
 21
-0.2255643043487234
 31
0.0
 11
176.1853747739675
 21
-0.2307512401113208
 31
0.0
 11
176.1926772737813
 21
-0.1816996949846805
 31
0.0
 11
176.2008793569054
 21
-0.1034513790320411
 31
0.0
 11
176.2090098822349
 21
-0.0014997037102948
 31
0.0
 11
176.2163406441397
 21
0.118410565356939
 31
0.0
 11
176.2236358280422
 21
0.2530404871983167
 31
0.0
 11
176.2318444255597
 21
0.3988424402868702
 31
0.0
 11
176.2395504149467
 21
0.5501333951101532
 31
0.0
 11
176.2455763002094
 21
0.7014904957667589
 31
0.0
 11
176.2503046247416
 21
0.8511608776737756
 31
0.0
 11
176.254192897212
 21
0.9973387595816376
 31
0.0
 11
176.2567527408965
 21
1.13409967968638
 31
0.0
 11
176.2576324804575
 21
1.255289870628321
 31
0.0
 11
176.257192610677
 21
1.562378516384861
 31
0.0
 11
176.2559126888348
 21
1.822953412153069
 31
0.0
 11
176.2528658717893
 21
2.030180590920673
 31
0.0
 11
176.2473049112763
 21
2.177195217620039
 31
0.0
 11
176.2615728121469
 21
2.177195217620039
 31
0.0
 11
176.2880703423353
 21
2.177195217620039
 31
0.0
 11
176.3023382432059
 21
2.177195217620039
 31
0.0
 11
176.5194743650277
 21
1.942083160387147
 31
0.0
 11
176.7512744123079
 21
1.690494176075038
 31
0.0
 11
176.9894816018839
 21
1.432476919195126
 31
0.0
 11
177.2260074557521
 21
1.177952162314309
 31
0.0
 11
177.4555698717706
 21
0.9319789592507981
 31
0.0
 11
177.6731797360103
 21
0.6997707041004908
 31
0.0
 11
177.8713724913707
 21
0.4912481694304187
 31
0.0
 11
178.0430143099087
 21
0.3162483430853094
 31
0.0
 11
178.0430143099087
 21
0.3421634706298485
 31
0.0
 11
178.0430143099087
 21
0.4089972206131338
 31
0.0
 11
178.0430143099087
 21
0.5003821440596669
 31
0.0
 11
178.0430143099087
 21
0.5999507919939517
 31
0.0
 11
178.0430143099087
 21
0.6913357154404847
 31
0.0
 11
178.0430143099087
 21
0.7581694654237698
 31
0.0
 11
178.0430143099087
 21
0.7840845929683091
 31
0.0
 11
178.041723363761
 21
1.140535669268094
 31
0.0
 11
178.0378461155958
 21
1.48748820390357
 31
0.0
 11
178.0296197790002
 21
1.819919523264938
 31
0.0
 11
178.0154535467228
 21
2.132586467631221
 31
0.0
 11
178.0790351249618
 21
2.119645035342764
 31
0.0
 11
178.1324170159611
 21
2.11536209263549
 31
0.0
 11
178.1805381084833
 21
2.119645035342764
 31
0.0
 11
178.2424836798198
 21
2.132586467631221
 31
0.0
 11
178.2351216487575
 21
2.037962648210424
 31
0.0
 11
178.2269790968818
 21
1.905556328799069
 31
0.0
 11
178.2183705364004
 21
1.748984731615981
 31
0.0
 11
178.2097547223215
 21
1.582147301102129
 31
0.0
 11
178.2016187850289
 21
1.411884618853022
 31
0.0
 11
178.1942501393836
 21
1.245041676186418
 31
0.0
 11
178.1891406931522
 21
1.096280799487515
 31
0.0
 11
178.1874503478904
 21
0.9802025790304292
 31
0.0
 11
178.1874503478904
 21
0.8855688377346054
 31
0.0
 11
178.1874503478904
 21
0.773757023526489
 31
0.0
 11
178.1878461204497
 21
0.6542193759869073
 31
0.0
 11
178.1890819450708
 21
0.5295818846986187
 31
0.0
 11
178.1908392193317
 21
0.4018134906333319
 31
0.0
 11
178.1925303477608
 21
0.2732711903182086
 31
0.0
 11
178.1942876220214
 21
0.148564245904967
 31
0.0
 11
178.1959787504505
 21
0.0324562598229079
 31
0.0
 11
178.1972884379173
 21
-0.0720596689704096
 31
0.0
 11
178.1976985420736
 21
-0.1618449206840609
 31
0.0
 11
178.1976985420736
 21
-0.2281009970564219
 31
0.0
 11
178.1976985420736
 21
-0.2753599901001707
 31
0.0
 11
178.1736699662977
 21
-0.2753599901001707
 31
0.0
 11
178.1496413905218
 21
-0.2753599901001707
 31
0.0
 11
177.7410729200423
 21
0.1876487163813239
 31
0.0
 11
177.3067935648021
 21
0.6619617457766687
 31
0.0
  0
SPLINE
  5
AF
102
{ACAD_REACTORS
330
CC
102
}
330
49
100
AcDbEntity
  8
_U_30EC_U_30A4_U_30E4_U_30FC_1
  6
Continuous
 62
     2
100
AcDbSpline
210
0.0
220
0.0
230
1.0
 70
    11
 71
     3
 72
    25
 73
    21
 74
    19
 42
0.000000001
 43
0.0000000001
 44
0.00000001
 40
0.0
 40
0.0
 40
0.0
 40
0.0
 40
0.0911479969064538
 40
0.1858117896203816
 40
0.2804128399734209
 40
0.371588919071366
 40
0.4679080494217858
 40
0.5642683809229232
 40
0.6605683222644141
 40
0.756965301581026
 40
0.8561348172522728
 40
1.092615965104301
 40
1.374867658141894
 40
1.611348812011582
 40
1.71051832842524
 40
1.809403163726546
 40
2.045205463294068
 40
2.326646917622115
 40
2.562449217190586
 40
2.661334043833892
 40
2.661334043833892
 40
2.661334043833892
 40
2.661334043833892
 10
173.26837005672
 20
0.8391267457323508
 30
0.0
 10
173.2987525917923
 20
0.8389621609049737
 30
0.0
 10
173.3606895889112
 20
0.8386266506586455
 30
0.0
 10
173.4541356960331
 20
0.8356719182794108
 30
0.0
 10
173.5475095236357
 20
0.8327588925309267
 30
0.0
 10
173.6417760753476
 20
0.8319233801935814
 30
0.0
 10
173.7354964790967
 20
0.8329478103398895
 30
0.0
 10
173.8352040303205
 20
0.8321511384691308
 30
0.0
 10
173.9188949546312
 20
0.8421954661116117
 30
0.0
 10
174.0637996315047
 20
0.8153275405010564
 30
0.0
 10
173.9396132444801
 20
0.989636666559912
 30
0.0
 10
173.8965867286283
 20
1.149498473820345
 30
0.0
 10
173.7808922142209
 20
1.408165949261546
 30
0.0
 10
173.7017565431257
 20
1.54529189237803
 30
0.0
 10
173.6431576621817
 20
1.762351695100187
 30
0.0
 10
173.586480393944
 20
1.545642705893681
 30
0.0
 10
173.5052809900478
 20
1.406251488141811
 30
0.0
 10
173.4063701281488
 20
1.157051057461351
 30
0.0
 10
173.3253625094259
 20
0.9722396660201755
 30
0.0
 10
173.2813683325839
 20
0.8694858323205958
 30
0.0
 10
173.26837005672
 20
0.8391267457323508
 30
0.0
 11
173.26837005672
 21
0.8391267457323508
 31
0.0
 11
173.3595137737821
 21
0.8382425964270226
 31
0.0
 11
173.4541428297581
 21
0.8356783429554078
 31
0.0
 11
173.5487082179706
 21
0.8330810165671929
 31
0.0
 11
173.6398803250196
 21
0.832229940178518
 31
0.0
 11
173.7361985777706
 21
0.8326411467756318
 31
0.0
 11
173.8325499034377
 21
0.833958551289129
 31
0.0
 11
173.9288262638286
 21
0.8360895495525442
 31
0.0
 11
174.0251753846344
 21
0.8391267457323508
 31
0.0
 11
173.9854633323142
 21
0.9299977857096289
 31
0.0
 11
173.8907653613969
 21
1.146690265655446
 31
0.0
 11
173.7777387509471
 21
1.405323225590775
 31
0.0
 11
173.6830407800298
 21
1.622015705536592
 31
0.0
 11
173.6433287277096
 21
1.71288674551387
 31
0.0
 11
173.6043330259267
 21
1.622015705536592
 31
0.0
 11
173.5113432755213
 21
1.405323225590775
 31
0.0
 11
173.4003555089083
 21
1.146690265655446
 31
0.0
 11
173.3073657585029
 21
0.9299977857096289
 31
0.0
 11
173.26837005672
 21
0.8391267457323508
 31
0.0
  0
SPLINE
  5
B0
102
{ACAD_REACTORS
330
CC
102
}
330
49
100
AcDbEntity
  8
_U_30EC_U_30A4_U_30E4_U_30FC_1
  6
Continuous
 62
     2
100
AcDbSpline
210
0.0
220
0.0
230
1.0
 70
    11
 71
     3
 72
    57
 73
    53
 74
    51
 42
0.000000001
 43
0.0000000001
 44
0.00000001
 40
0.0
 40
0.0
 40
0.0
 40
0.0
 40
0.0471632082808686
 40
0.0914861054632174
 40
0.135776251970241
 40
0.1826527001610704
 40
0.2295203288572613
 40
0.2737751972220783
 40
0.3181310461543093
 40
0.3652607198398553
 40
0.4571007286314479
 40
0.5671851029165436
 40
0.6894623283868438
 40
0.8181758272545814
 40
0.951008722927416
 40
1.085852229674072
 40
1.218126164475308
 40
1.343545131142399
 40
1.454537202956816
 40
1.567187607530825
 40
1.680710966642415
 40
1.794226869736722
 40
1.900009184247607
 40
2.004085860447887
 40
2.108162674451718
 40
2.214000150155319
 40
2.496038577352134
 40
2.762350745479262
 40
2.997275353279405
 40
3.185110082137754
 40
3.246407890063925
 40
3.312607550212713
 40
3.378877742711587
 40
3.440140399651471
 40
4.100501696006512
 40
4.75491308556358
 40
5.411331693423961
 40
6.077890432568744
 40
6.110575292671023
 40
6.143260152775803
 40
6.367989363395194
 40
6.610525374951593
 40
6.863389136467353
 40
7.119380025547631
 40
7.376036605091134
 40
7.631164770966325
 40
7.876722425456479
 40
8.104953735855991
 40
8.312916685924353
 40
8.497730294941341
 40
8.651018984313902
 40
8.764738853624635
 40
8.764738853624635
 40
8.764738853624635
 40
8.764738853624635
 10
174.7922649500513
 20
-0.2307512401113208
 30
0.0
 10
174.7766616726931
 20
-0.2287563254498079
 30
0.0
 10
174.7463947960302
 20
-0.2248866226375782
 30
0.0
 10
174.7010994202253
 20
-0.2235987865678948
 30
0.0
 10
174.6559553129349
 20
-0.2239318007000651
 30
0.0
 10
174.60990171234
 20
-0.2238720494983343
 30
0.0
 10
174.5640496172096
 20
-0.2237604997405661
 30
0.0
 10
174.5183711648164
 20
-0.2242403016746694
 30
0.0
 10
174.4750811541608
 20
-0.2224075400533572
 30
0.0
 10
174.4039947951513
 20
-0.2465230680940403
 30
0.0
 10
174.4057477261442
 20
-0.1251716964680349
 30
0.0
 10
174.3586196370569
 20
-0.039756238728266
 30
0.0
 10
174.3191478251762
 20
0.0778506572107668
 30
0.0
 10
174.2706635532647
 20
0.1953088891638362
 30
0.0
 10
174.2201017402522
 20
0.3170407213744957
 30
0.0
 10
174.1718634610477
 20
0.4437410423840582
 30
0.0
 10
174.1135232947596
 20
0.5523182416089647
 30
0.0
 10
174.0980892667261
 20
0.7091879351035096
 30
0.0
 10
173.9566586330635
 20
0.6767158292426385
 30
0.0
 10
173.8508397414904
 20
0.6881102505812181
 30
0.0
 10
173.7358569725222
 20
0.6869072789055688
 30
0.0
 10
173.6253142252141
 20
0.6880508172334973
 30
0.0
 10
173.5176583522783
 20
0.6871648641346798
 30
0.0
 10
173.4121322529243
 20
0.6871473876646096
 30
0.0
 10
173.3109192682012
 20
0.6801216884835631
 30
0.0
 10
173.1266804827753
 20
0.7043399623581132
 30
0.0
 10
173.1157393685411
 20
0.4003982749782685
 30
0.0
 10
173.0087691634751
 20
0.1765131362933661
 30
0.0
 10
172.9098148604347
 20
-0.0080654933155884
 30
0.0
 10
172.9225090524007
 20
-0.2517165881985372
 30
0.0
 10
172.8050091716398
 20
-0.2219381687085964
 30
0.0
 10
172.7422055868309
 20
-0.22443774114454
 30
0.0
 10
172.67858720934
 20
-0.2235778852125238
 30
0.0
 10
172.3946014194073
 20
-0.2660382368212039
 30
0.0
 10
173.0251638499382
 20
0.4538008882073119
 30
0.0
 10
173.1087645289072
 20
0.9657467581166641
 30
0.0
 10
173.4929252789339
 20
1.486518799259875
 30
0.0
 10
173.4777208288565
 20
2.188177626291568
 30
0.0
 10
173.7239265722697
 20
2.176437694571985
 30
0.0
 10
173.8256346157561
 20
2.185231408287147
 30
0.0
 10
173.8249752035818
 20
1.933577871062884
 30
0.0
 10
173.9428317155829
 20
1.751161571098999
 30
0.0
 10
174.0315515260485
 20
1.508618770388079
 30
0.0
 10
174.1322292485259
 20
1.276381669060698
 30
0.0
 10
174.2311142712243
 20
1.039727809428554
 30
0.0
 10
174.3299676990669
 20
0.8075987554603407
 30
0.0
 10
174.4256166390926
 20
0.5842035916473357
 30
0.0
 10
174.5159904573271
 20
0.3757068542525546
 30
0.0
 10
174.598994456819
 20
0.1860658490526559
 30
0.0
 10
174.6726088582798
 20
0.0196124244403897
 30
0.0
 10
174.7342815895546
 20
-0.1178416399795927
 30
0.0
 10
174.7749458885604
 20
-0.1970262419402496
 30
0.0
 10
174.7922649500513
 20
-0.2307512401113208
 30
0.0
 11
174.7922649500513
 21
-0.2307512401113208
 31
0.0
 11
174.7453878317448
 21
-0.2255643043487234
 31
0.0
 11
174.7010975896125
 21
-0.2238632540019516
 31
0.0
 11
174.6568074431729
 21
-0.2238632540019516
 31
0.0
 11
174.6099309947159
 21
-0.2238632540019516
 31
0.0
 11
174.5630633657033
 21
-0.2238632540019516
 31
0.0
 11
174.5188084970408
 21
-0.2238632540019516
 31
0.0
 11
174.4744852776854
 21
-0.2255643043487234
 31
0.0
 11
174.4276419021443
 21
-0.2307512401113208
 31
0.0
 11
174.3992532136326
 21
-0.1434089745081355
 31
0.0
 11
174.3622721815898
 21
-0.0397220734923813
 31
0.0
 11
174.3188386236701
 21
0.0745812337706933
 31
0.0
 11
174.2711055866937
 21
0.1941166764491094
 31
0.0
 11
174.2208160133237
 21
0.3170619368350693
 31
0.0
 11
174.1696467003932
 21
0.4418195930538786
 31
0.0
 11
174.1197531801326
 21
0.564322778787135
 31
0.0
 11
174.0733119111841
 21
0.6808265374385876
 31
0.0
 11
173.9623611907589
 21
0.683856016604476
 31
0.0
 11
173.8497309225089
 21
0.6859859124373209
 31
0.0
 11
173.7362152069449
 21
0.6873033169508203
 31
0.0
 11
173.6227000476801
 21
0.6877145235479389
 31
0.0
 11
173.5169185312816
 21
0.6873033169508203
 31
0.0
 11
173.4128501919225
 21
0.6859859124373209
 31
0.0
 11
173.3087951724046
 21
0.683856016604476
 31
0.0
 11
173.2030010615596
 21
0.6808265374385876
 31
0.0
 11
173.0980914750139
 21
0.4190257388929233
 31
0.0
 11
173.0034868690332
 21
0.1700836903440184
 31
0.0
 11
172.9252231210298
 21
-0.0514210665450081
 31
0.0
 11
172.8693431224555
 21
-0.2307512401113208
 31
0.0
 11
172.8082651639442
 21
-0.2255643043487234
 31
0.0
 11
172.742087361813
 21
-0.2238632540019516
 31
0.0
 11
172.6758390041282
 21
-0.2255643043487234
 31
0.0
 11
172.6147963233938
 21
-0.2307512401113208
 31
0.0
 11
172.889968495193
 21
0.3695464507108421
 31
0.0
 11
173.1582945734171
 21
0.9664177873671598
 31
0.0
 11
173.4240277350405
 21
1.566643820203233
 31
0.0
 11
173.6914740737033
 21
2.177195217620039
 31
0.0
 11
173.7241589339806
 21
2.177195217620039
 31
0.0
 11
173.7568437942579
 21
2.177195217620039
 31
0.0
 11
173.8428300681057
 21
1.969566754130256
 31
0.0
 11
173.9357285813609
 21
1.745527509394588
 31
0.0
 11
174.0328714521463
 21
1.512067995564105
 31
0.0
 11
174.1317936458031
 21
1.275962648400878
 31
0.0
 11
174.2315341249927
 21
1.039479167557256
 31
0.0
 11
174.3313071129353
 21
0.8046691762965281
 31
0.0
 11
174.4280608257449
 21
0.5789762857279199
 31
0.0
 11
174.5188084970408
 21
0.3695618847386193
 31
0.0
 11
174.6022150834546
 21
0.1790574750640328
 31
0.0
 11
174.6770293263377
 21
0.01006369038409
 31
0.0
 11
174.7410729186603
 21
-0.1292052592339031
 31
0.0
 11
174.7922649500513
 21
-0.2307512401113208
 31
0.0
  0
SPLINE
  5
B1
102
{ACAD_REACTORS
330
CD
102
}
330
49
100
AcDbEntity
  8
_U_30EC_U_30A4_U_30E4_U_30FC_1
  6
Continuous
 62
     2
100
AcDbSpline
210
0.0
220
0.0
230
1.0
 70
    11
 71
     3
 72
    99
 73
    95
 74
    93
 42
0.000000001
 43
0.0000000001
 44
0.00000001
 40
0.0
 40
0.0
 40
0.0
 40
0.0
 40
0.0796417172272851
 40
0.162176854235596
 40
0.2486489160957595
 40
0.3404969668524566
 40
0.4381912511165129
 40
0.5434463660244868
 40
0.6518115192847187
 40
0.7530190937887574
 40
0.8492196919725621
 40
0.9419290312998857
 40
1.034249663570056
 40
1.129078600620246
 40
1.22669702757327
 40
1.327220425421732
 40
1.470572134938042
 40
1.595489863371201
 40
1.719934125348447
 40
1.850576620127492
 40
1.98905962998738
 40
2.134139054226999
 40
2.280698007207259
 40
2.424529739039476
 40
2.565929576985864
 40
2.708239260773597
 40
2.861717887443715
 40
3.045168540347425
 40
3.183798301138671
 40
3.314813961455515
 40
3.442083470447364
 40
3.569912708373023
 40
3.702177512509423
 40
3.842307559659665
 40
3.992872223246042
 40
4.156750662218375
 40
4.310981861107597
 40
4.445859909322642
 40
4.572393936131635
 40
4.701656719782104
 40
4.768279086008586
 40
4.835960697898528
 40
4.912788918729465
 40
5.006285208481681
 40
5.026909478751757
 40
5.047533749021322
 40
5.101808031471374
 40
5.162325165538676
 40
5.226919745995997
 40
5.294231806596869
 40
5.364544852554994
 40
5.438319055467993
 40
5.517877651324328
 40
5.607647714861725
 40
5.700449642544571
 40
5.788251142364302
 40
5.872714706039882
 40
5.955167292575443
 40
6.037192395190493
 40
6.120669181469216
 40
6.206848616686479
 40
6.296680855416892
 40
6.442558392872719
 40
6.568190371608407
 40
6.692904567360511
 40
6.824220446557264
 40
6.9631218503295
 40
7.107843738851289
 40
7.253431663907426
 40
7.395187468036901
 40
7.533140753237887
 40
7.670550457175432
 40
7.816236511769437
 40
7.987691657359394
 40
8.142277421969421
 40
8.293662615415197
 40
8.442962460879452
 40
8.591598316185443
 40
8.743678992361964
 40
8.903725323699375
 40
9.076307008890694
 40
9.265578604680693
 40
9.459203795360924
 40
9.617619810273737
 40
9.75360967136207
 40
9.874873300004195
 40
9.954520184977868
 40
10.02416413719254
 40
10.09769764405454
 40
10.18909955924981
 40
10.20974586420142
 40
10.23039218263388
 40
10.30057101881274
 40
10.37632012987554
 40
10.37632012987554
 40
10.37632012987554
 40
10.37632012987554
 10
170.1465954835851
 20
0.0909379959193579
 30
0.0
 10
170.1632217851219
 20
0.0701874522125493
 30
0.0
 10
170.1970784206578
 20
0.0279324808784674
 30
0.0
 10
170.2599822541036
 20
-0.0267205223198835
 30
0.0
 10
170.3332500940393
 20
-0.0740283850300682
 30
0.0
 10
170.4175969238636
 20
-0.1117463218612499
 30
0.0
 10
170.513224061546
 20
-0.1366124389210492
 30
0.0
 10
170.6171853775346
 20
-0.1439230427812182
 30
0.0
 10
170.7224020220405
 20
-0.1355954083000342
 30
0.0
 10
170.8206626371335
 20
-0.10552683972533
 30
0.0
 10
170.9058986427548
 20
-0.0585304065217914
 30
0.0
 10
170.9779220206104
 20
0.0025112762679503
 30
0.0
 10
171.0350917709095
 20
0.0771110595453033
 30
0.0
 10
171.0767868747441
 20
0.1630060103611141
 30
0.0
 10
171.1026952846292
 20
0.257839868081546
 30
0.0
 10
171.1118037332653
 20
0.3715311541430824
 30
0.0
 10
171.0986864796487
 20
0.4963072414671721
 30
0.0
 10
171.0325330334416
 20
0.6131285554784012
 30
0.0
 10
170.9369370919569
 20
0.6981067595331283
 30
0.0
 10
170.8249681022369
 20
0.7671482083510388
 30
0.0
 10
170.699365958327
 20
0.8250227842183279
 30
0.0
 10
170.5656691620856
 20
0.876718596602829
 30
0.0
 10
170.4313122818831
 20
0.9319722877312226
 30
0.0
 10
170.3051983986877
 20
1.002379070175935
 30
0.0
 10
170.1926579987536
 20
1.090836771071915
 30
0.0
 10
170.0969963064458
 20
1.202792042444122
 30
0.0
 10
170.0334157151826
 20
1.35248046477325
 30
0.0
 10
170.0200706505015
 20
1.512309307610836
 30
0.0
 10
170.0320510987448
 20
1.66346541682787
 30
0.0
 10
170.0712298928841
 20
1.791073809674806
 30
0.0
 10
170.135498775091
 20
1.903790104067864
 30
0.0
 10
170.223820499974
 20
1.999467456446278
 30
0.0
 10
170.3338091207627
 20
2.076523513616977
 30
0.0
 10
170.4632284401266
 20
2.134495333122165
 30
0.0
 10
170.6111838967793
 20
2.170373139647644
 30
0.0
 10
170.7682069455487
 20
2.180448554265062
 30
0.0
 10
170.917494046643
 20
2.171617741385318
 30
0.0
 10
171.0596253614169
 20
2.14373035716295
 30
0.0
 10
171.1595922609626
 20
2.087114510770772
 30
0.0
 10
171.3125074736186
 20
2.039727384814513
 30
0.0
 10
171.2455131717169
 20
1.954956893771267
 30
0.0
 10
171.229647912027
 20
1.887370382494262
 30
0.0
 10
171.1978750531298
 20
1.822242291691321
 30
0.0
 10
171.215020220957
 20
1.720215896328949
 30
0.0
 10
171.1666427208231
 20
1.727913480578444
 30
0.0
 10
171.1315789440766
 20
1.721049081007497
 30
0.0
 10
171.1296697985719
 20
1.785619675341408
 30
0.0
 10
171.0985692931989
 20
1.831237759973354
 30
0.0
 10
171.0664551628455
 20
1.888591730043968
 30
0.0
 10
171.0208038475168
 20
1.938385990684997
 30
0.0
 10
170.9658508218387
 20
1.982929500949356
 30
0.0
 10
170.9010841173009
 20
2.020621252124937
 30
0.0
 10
170.8232377310597
 20
2.045815121672947
 30
0.0
 10
170.7355160553352
 20
2.052293673740524
 30
0.0
 10
170.6452903277807
 20
2.045338456615486
 30
0.0
 10
170.5594594694064
 20
2.022073268368644
 30
0.0
 10
170.4828343638596
 20
1.984297804834831
 30
0.0
 10
170.4165265636201
 20
1.933497774655191
 30
0.0
 10
170.3622560536964
 20
1.870292797831509
 30
0.0
 10
170.322492534546
 20
1.795745920863068
 30
0.0
 10
170.2976775510587
 20
1.712154503737068
 30
0.0
 10
170.289212426287
 20
1.604910847582267
 30
0.0
 10
170.3019697987104
 20
1.482635936435014
 30
0.0
 10
170.3681548409273
 20
1.364478606671525
 30
0.0
 10
170.4640977399832
 20
1.279044620854712
 30
0.0
 10
170.5757914963182
 20
1.208814986826627
 30
0.0
 10
170.7010863668702
 20
1.149572986812461
 30
0.0
 10
170.8349823941447
 20
1.099148444620726
 30
0.0
 10
170.968993033315
 20
1.04620653360323
 30
0.0
 10
171.0950885316915
 20
0.980483070011217
 30
0.0
 10
171.2076216638417
 20
0.8977848891325719
 30
0.0
 10
171.3031370284233
 20
0.7929414268601971
 30
0.0
 10
171.3672706486963
 20
0.6523525362751023
 30
0.0
 10
171.3811103725278
 20
0.4936354582753417
 30
0.0
 10
171.367395471223
 20
0.33451291593817
 30
0.0
 10
171.3244739153984
 20
0.1878196519515191
 30
0.0
 10
171.2545906329066
 20
0.0541793296308685
 30
0.0
 10
171.157459221383
 20
-0.061694759247708
 30
0.0
 10
171.0347806023657
 20
-0.1561188185396902
 30
0.0
 10
170.8874408413168
 20
-0.2252259297207616
 30
0.0
 10
170.7177132497125
 20
-0.2674865276520481
 30
0.0
 10
170.5317404979597
 20
-0.2792012739365123
 30
0.0
 10
170.3528955926183
 20
-0.2689237694062108
 30
0.0
 10
170.1881733753744
 20
-0.2273528985490571
 30
0.0
 10
170.0834410841056
 20
-0.1590422074011779
 30
0.0
 10
169.9350960790367
 20
-0.1102664459195191
 30
0.0
 10
169.9980378194729
 20
-0.0172527233321553
 30
0.0
 10
170.0072274430059
 20
0.0559467262422212
 30
0.0
 10
170.0303711301233
 20
0.1223443087728725
 30
0.0
 10
170.0034588335316
 20
0.2227294590352198
 30
0.0
 10
170.0521338956339
 20
0.2153216989332034
 30
0.0
 10
170.0916530580697
 20
0.2219219999683641
 30
0.0
 10
170.0996204944703
 20
0.1437683959487351
 30
0.0
 10
170.1305436967922
 20
0.108990637517981
 30
0.0
 10
170.1465954835851
 20
0.0909379959193579
 30
0.0
 11
170.1465954835851
 21
0.0909379959193579
 31
0.0
 11
170.1982038075864
 21
0.0302800619067769
 31
0.0
 11
170.2601105501335
 21
-0.0243056846073806
 31
0.0
 11
170.3327764009802
 21
-0.0711788269567482
 31
0.0
 11
170.4166468655843
 21
-0.1086195734752096
 31
0.0
 11
170.511221073241
 21
-0.1331122731218017
 31
0.0
 11
170.6161603327165
 21
-0.1412603373558596
 31
0.0
 11
170.7240739497552
 21
-0.1313781498583548
 31
0.0
 11
170.8208419941617
 21
-0.1017315873657623
 31
0.0
 11
170.9050776083319
 21
-0.0552674467523908
 31
0.0
 11
170.9756144207687
 21
0.004895495940918
 31
0.0
 11
171.031944210998
 21
0.0780395584226121
 31
0.0
 11
171.0736690016004
 21
0.1631957042346386
 31
0.0
 11
171.0994680808032
 21
0.2573432736555432
 31
0.0
 11
171.1080824729446
 21
0.357496884741618
 31
0.0
 11
171.0878517703357
 21
0.4994138725533919
 31
0.0
 11
171.0272522666732
 21
0.6086482041232877
 31
0.0
 11
170.9364971286286
 21
0.6937944280603667
 31
0.0
 11
170.826010188474
 21
0.7635088290845893
 31
0.0
 11
170.7008523531254
 21
0.8227799054586495
 31
0.0
 11
170.5662951950998
 21
0.877023898500628
 31
0.0
 11
170.4316884277007
 21
0.9349941068194623
 31
0.0
 11
170.3065802017259
 21
1.005955356801739
 31
0.0
 11
170.196027609828
 21
1.094114523446358
 31
0.0
 11
170.1053381235265
 21
1.203784315085589
 31
0.0
 11
170.0447055469484
 21
1.34477856852257
 31
0.0
 11
170.0245079172553
 21
1.527113967782558
 31
0.0
 11
170.0374030471347
 21
1.66514268302584
 31
0.0
 11
170.0761016659391
 21
1.790312648272309
 31
0.0
 11
170.1393141731506
 21
1.900773985050254
 31
0.0
 11
170.2257499954545
 21
1.994950217665629
 31
0.0
 11
170.3336492808962
 21
2.071446771465928
 31
0.0
 11
170.4613526283329
 21
2.129138064854288
 31
0.0
 11
170.6075393259923
 21
2.165182031859154
 31
0.0
 11
170.770976856545
 21
2.177195217620039
 31
0.0
 11
170.9248918431289
 21
2.167324054428059
 31
0.0
 11
171.0564887242607
 21
2.137754662074389
 31
0.0
 11
171.172563634494
 21
2.087381302711942
 31
0.0
 11
171.2800792741123
 21
2.015622995438189
 31
0.0
 11
171.2516994050445
 21
1.955347604828285
 31
0.0
 11
171.2284855254284
 21
1.891771537135899
 31
0.0
 11
171.2078381040801
 21
1.817769783682114
 31
0.0
 11
171.1871840681487
 21
1.726583342732699
 31
0.0
 11
171.1665597978415
 21
1.726583342732699
 31
0.0
 11
171.1459355275343
 21
1.726583342732699
 31
0.0
 11
171.1256706495791
 21
1.776932448622893
 31
0.0
 11
171.0994658759421
 21
1.831481814928708
 31
0.0
 11
171.0650468924451
 21
1.886142526720565
 31
0.0
 11
171.0203554612937
 21
1.936477301013529
 31
0.0
 11
170.9657333359511
 21
1.980753116974706
 31
0.0
 11
170.9016722004327
 21
2.017342787104429
 31
0.0
 11
170.8259682961141
 21
2.041806823556688
 31
0.0
 11
170.7365722046449
 21
2.049992370429639
 31
0.0
 11
170.6440937174207
 21
2.042251103070434
 31
0.0
 11
170.5594072091645
 21
2.019071398215079
 31
0.0
 11
170.483702448884
 21
1.981616320099501
 31
0.0
 11
170.4183754766516
 21
1.931309106570438
 31
0.0
 11
170.3650487887665
 21
1.86898429755822
 31
0.0
 11
170.3254809233902
 21
1.795480842715488
 31
0.0
 11
170.3009523754711
 21
1.712865799333331
 31
0.0
 11
170.2927954104108
 21
1.623404662202947
 31
0.0
 11
170.3130095765617
 21
1.478934445225157
 31
0.0
 11
170.373625616682
 21
1.36889313448879
 31
0.0
 11
170.4643479320758
 21
1.283318065065732
 31
0.0
 11
170.5748676948813
 21
1.212400912305668
 31
0.0
 11
170.7000089937719
 21
1.152124419265211
 31
0.0
 11
170.8345826882553
 21
1.098885842889629
 31
0.0
 11
170.9691729191968
 21
1.043376259570158
 31
0.0
 11
171.0942976816298
 21
0.9767541762535181
 31
0.0
 11
171.204800907977
 21
0.8941700009269145
 31
0.0
 11
171.2955397598289
 21
0.7909813985221383
 31
0.0
 11
171.3561557999489
 21
0.658504523555262
 31
0.0
 11
171.3763699660998
 21
0.4882451485978088
 31
0.0
 11
171.3621839747998
 21
0.334311667733548
 31
0.0
 11
171.3196087009193
 21
0.1890366764503888
 31
0.0
 11
171.2499752884265
 21
0.0569699056501003
 31
0.0
 11
171.1544992078714
 21
-0.0569464484881017
 31
0.0
 11
171.0341060772624
 21
-0.149865910270405
 31
0.0
 11
170.8896160201846
 21
-0.2186950595587796
 31
0.0
 11
170.7223519532714
 21
-0.2612058842009085
 31
0.0
 11
170.5336103348227
 21
-0.2753599901001707
 31
0.0
 11
170.3405031726388
 21
-0.2612058842009085
 31
0.0
 11
170.1878975900911
 21
-0.2186950595587796
 31
0.0
 11
170.0661897942203
 21
-0.1580283061016861
 31
0.0
 11
169.9660261826364
 21
-0.0896754068132104
 31
0.0
 11
169.9922320587039
 21
-0.0144631846098178
 31
0.0
 11
170.0090121537618
 21
0.0531290375955393
 31
0.0
 11
170.0206196447852
 21
0.1257406261190384
 31
0.0
 11
170.0313606254139
 21
0.2165092458880089
 31
0.0
 11
170.0520069443315
 21
0.2165092458880089
 31
0.0
 11
170.0726532632492
 21
0.2165092458880089
 31
0.0
 11
170.1048916391629
 21
0.1541734125702519
 31
0.0
 11
170.1465954835851
 21
0.0909379959193579
 31
0.0
  0
LWPOLYLINE
  5
B2
102
{ACAD_REACTORS
330
BF
102
}
330
49
100
AcDbEntity
  8
_U_30EC_U_30A4_U_30E4_U_30FC_1
  6
Continuous
 62
     2
100
AcDbPolyline
 90
        5
 70
     1
 43
0.0
 10
192.4578138032672
 20
1.35020473171568
 10
192.4578138032672
 20
1.18173570398
 10
191.1602971697032
 20
1.18173570398
 10
191.1602971697032
 20
1.35020473171568
 10
192.4578138032672
 20
1.35020473171568
  0
MTEXT
  5
B4
330
49
100
AcDbEntity
  8
1
 62
     2
100
AcDbMText
 10
32.5
 20
267.9529813637598
 30
0.0
 40
5.0
 41
0.0
 71
     5
 72
     1
  1
図番
  7
CONVERTER_11
 73
     1
 44
0.45454545454545
  0
MTEXT
  5
B5
330
49
100
AcDbEntity
  8
1
 62
     2
100
AcDbMText
 10
29.0
 20
19.95298136375942
 30
0.0
 40
3.5
 41
0.0
 71
     5
 72
     1
  1
備考
  7
CONVERTER_11
 73
     1
 44
0.45454545454545
  0
MTEXT
  5
B6
330
49
100
AcDbEntity
  8
1
 62
     2
100
AcDbMText
 10
29.0
 20
8.70298136375942
 30
0.0
 40
3.5
 41
0.0
 71
     5
 72
     1
  1
品名
  7
CONVERTER_11
 73
     1
 44
0.72727272727273
  0
MTEXT
  5
B7
330
49
100
AcDbEntity
  8
1
 62
     2
100
AcDbMText
 10
29.0
 20
0.20298136375942
 30
0.0
 40
3.5
 41
0.0
 71
     5
 72
     1
  1
品番
  7
CONVERTER_11
 73
     1
 44
0.72727272727273
  0
MTEXT
  5
B8
330
49
100
AcDbEntity
  8
1
 62
     2
100
AcDbMText
 10
101.5
 20
10.95298136375944
 30
0.0
 40
3.0
 41
0.0
 71
     5
 72
     1
  1
承認
  7
CONVERTER_11
 73
     1
 44
0.59090909090909
  0
MTEXT
  5
B9
330
49
100
AcDbEntity
  8
1
 62
     2
100
AcDbMText
 10
175.0
 20
9.45298136375944
 30
0.0
 40
3.5
 41
0.0
 71
     5
 72
     1
  1
第三角法
  7
CONVERTER_11
 73
     1
 44
0.54545454545455
  0
MTEXT
  5
BA
330
49
100
AcDbEntity
  8
1
 62
     2
100
AcDbMText
 10
118.5
 20
10.95298136375944
 30
0.0
 40
3.0
 41
0.0
 71
     5
 72
     1
  1
検図
  7
CONVERTER_11
 73
     1
 44
0.59090909090909
  0
MTEXT
  5
BB
330
49
100
AcDbEntity
  8
1
 62
     2
100
AcDbMText
 10
152.5
 20
10.95298136375944
 30
0.0
 40
3.0
 41
0.0
 71
     5
 72
     1
  1
設計
  7
CONVERTER_11
 73
     1
 44
0.59090909090909
  0
MTEXT
  5
BC
330
49
100
AcDbEntity
  8
1
 62
     2
100
AcDbMText
 10
135.4999999999999
 20
10.95298136375944
 30
0.0
 40
3.0
 41
0.0
 71
     5
 72
     1
  1
製図
  7
CONVERTER_11
 73
     1
 44
0.59090909090909
  0
MTEXT
  5
BD
330
49
100
AcDbEntity
  8
1
 62
     2
100
AcDbMText
 10
89.49999999999997
 20
9.95298136375944
 30
0.0
 40
3.5
 41
0.0
 71
     5
 72
     1
  1
尺度
  7
CONVERTER_11
 73
     1
 44
0.54545454545455
  0
MTEXT
  5
BE
330
49
100
AcDbEntity
  8
1
 62
   250
100
AcDbMText
 10
25.0
 20
-9.04701863624058
 30
0.0
 40
3.5
 41
0.0
 71
     4
 72
     1
  1
備考欄の文字列 原点位置=4
  7
CONVERTER_11
 73
     1
 44
0.54545454545455
  0
HATCH
  5
BF
330
49
100
AcDbEntity
  8
1
  6
Continuous
 62
     2
100
AcDbHatch
 10
0.0
 20
0.0
 30
0.0
210
0.0
220
0.0
230
1.0
  2
CUSTOM0
 70
     0
 71
     1
 91
        1
 92
        1
 93
        4
 72
     1
 10
192.4578138032672
 20
1.350204731715678
 11
192.4578138032672
 21
1.181735703979999
 72
     1
 10
192.4578138032672
 20
1.181735703979999
 11
191.1602971697032
 21
1.181735703979999
 72
     1
 10
191.1602971697032
 20
1.181735703979999
 11
191.1602971697032
 21
1.350204731715678
 72
     1
 10
191.1602971697032
 20
1.350204731715678
 11
192.4578138032672
 21
1.350204731715678
 97
        1
330
B2
 75
     1
 76
     2
 52
45.0
 41
0.1
 77
     0
 78
     1
 53
45.0
 43
0.0
 44
0.0
 45
-0.282842712474619
 46
0.0
 79
     0
 98
        1
 10
0.0
 20
0.0
  0
HATCH
  5
C0
330
49
100
AcDbEntity
  8
1
  6
Continuous
 62
     2
100
AcDbHatch
 10
0.0
 20
0.0
 30
0.0
210
0.0
220
0.0
230
1.0
  2
CUSTOM1
 70
     0
 71
     1
 91
        1
 92
        1
 93
        3
 72
     4
 94
        3
 73
     0
 74
     0
 95
       24
 96
       20
 40
0.0
 40
0.0
 40
0.0
 40
0.0
 40
0.2211075008753708
 40
0.4273218586245496
 40
0.5080174679239285
 40
0.5914835907869668
 40
0.8143265690192347
 40
1.054651302686526
 40
1.295452694023112
 40
1.518109231328748
 40
1.540864321905363
 40
1.595126460622623
 40
1.659890947895937
 40
1.714153085187295
 40
1.736908174961596
 40
1.764951100735243
 40
1.801562291220888
 40
1.953914424543563
 40
2.126104167379632
 40
2.126104167379632
 40
2.126104167379632
 40
2.126104167379632
 10
185.9375369556889
 20
1.542874314889588
 10
185.9112579081812
 20
1.483957646103162
 10
185.8604698894425
 20
1.370092760551969
 10
185.8131784839113
 20
1.097400946090566
 10
185.7043482802617
 20
1.197436189513951
 10
185.5514800279638
 20
1.224167297432778
 10
185.7686155181201
 20
1.438162713935706
 10
185.7838483674381
 20
1.656302541584304
 10
185.8906889492003
 20
1.837497154423662
 10
185.8305380947077
 20
2.122113626873424
 10
185.9334317395402
 20
2.094122255983924
 10
185.9779933468151
 20
2.085413879782415
 10
186.0380842395396
 20
2.074377905592967
 10
186.0756619587439
 20
2.060656594315007
 10
186.1252466928605
 20
2.060542125361654
 10
186.0930158919326
 20
2.026047287745624
 10
186.017180222188
 20
2.037022409139132
 10
186.0429447159694
 20
1.851571059583913
 10
186.005589676385
 20
1.760004499255309
 10
185.985770496161
 20
1.711422717736468
 72
     4
 94
        3
 73
     0
 74
     0
 95
       70
 96
       66
 40
0.0
 40
0.0
 40
0.0
 40
0.0
 40
0.0241731073021472
 40
0.0846058988986729
 40
0.1631685280352999
 40
0.2417311571788903
 40
0.3021639488291898
 40
0.3263370654894688
 40
0.3533118254248053
 40
0.4228783438921276
 40
0.5179999095312576
 40
0.6216398239465256
 40
0.7167613891498908
 40
0.7863279069649062
 40
0.8133026791761034
 40
0.8372943998770875
 40
0.8945054261372068
 40
0.9627895541962121
 40
1.020000580349079
 40
1.043992300975177
 40
1.071934345522954
 40
1.113121768772886
 40
1.145225199332207
 40
1.225483775412745
 40
1.329819923771457
 40
1.434156071994348
 40
1.514414647795768
 40
1.546518078208376
 40
1.578974764260178
 40
1.662678849314116
 40
1.777131373668337
 40
1.901833377474728
 40
2.016285900500489
 40
2.099989982527828
 40
2.132446666570186
 40
2.158782354485909
 40
2.216720867907699
 40
2.27465938133412
 40
2.300995069256055
 40
2.333451754066028
 40
2.41715583654368
 40
2.531608358985119
 40
2.656310362283614
 40
2.770762886388718
 40
2.854466971339855
 40
2.886923657363662
 40
2.913597976833093
 40
2.982389642874895
 40
3.076451716946761
 40
3.178937260458373
 40
3.272999334739774
 40
3.341791001058995
 40
3.368465320663307
 40
3.396976080738528
 40
3.472140811845736
 40
3.578408190308425
 40
3.700226892455833
 40
3.82204559463405
 40
3.928312973256129
 40
4.003477705314526
 40
4.031988456866592
 40
4.058324144797393
 40
4.116262658236556
 40
4.174201171400359
 40
4.200536849608294
 40
4.200536849608294
 40
4.200536849608294
 40
4.200536849608294
 10
185.985770496161
 20
1.711422717736468
 10
185.993825954468
 20
1.711424961876286
 10
186.0220200663241
 20
1.711432824087393
 10
186.0765534803674
 20
1.711288912043134
 10
186.1482891808604
 20
1.712072568758397
 10
186.2236240137062
 20
1.709257068397527
 10
186.2713052366439
 20
1.715965397768993
 10
186.3195071245615
 20
1.704957000683741
 10
186.3062571799874
 20
1.758445393729752
 10
186.3151093964538
 20
1.813477199190332
 10
186.3108698036285
 20
1.907180451020507
 10
186.313348348128
 20
2.002576185944743
 10
186.309093870606
 20
2.096549583593291
 10
186.3179818665847
 20
2.150931988139543
 10
186.3046977409945
 20
2.205321340674027
 10
186.3514119277109
 20
2.191403527112991
 10
186.3943254545736
 20
2.194020137499857
 10
186.4605443456685
 20
2.189465588266962
 10
186.5013342271799
 20
2.18076298510104
 10
186.552514569082
 20
2.188299362661356
 10
186.52537204872
 20
2.146481065992329
 10
186.4803096055708
 20
2.155831284485343
 10
186.4942065045051
 20
2.091393437477798
 10
186.4858414431655
 20
2.026763560033404
 10
186.4903632178399
 20
1.928272775698293
 10
186.4854741311169
 20
1.828940692185122
 10
186.4950258992083
 20
1.765912519289101
 10
186.4799761455201
 20
1.702621478757295
 10
186.5449159457209
 20
1.718132093202109
 10
186.6116246399498
 20
1.707975240737543
 10
186.7241435470828
 20
1.712869364753087
 10
186.8390235448954
 20
1.709893411087255
 10
186.9519871999747
 20
1.715198005609327
 10
187.0176267597678
 20
1.704054428480309
 10
187.0816276691053
 20
1.72042668695799
 10
187.0703142889189
 20
1.670598262812165
 10
187.0775339871509
 20
1.627148515880645
 10
187.070314261127
 20
1.583698819633866
 10
187.0816277175993
 20
1.533870315728182
 10
187.0176263598972
 20
1.550243024673043
 10
186.9519921240459
 20
1.539094080375297
 10
186.8389974317331
 20
1.544429935827961
 10
186.7242456548643
 20
1.541324820397628
 10
186.6113183686861
 20
1.546630310585309
 10
186.5455220903585
 20
1.535554363955355
 10
186.4816097975359
 20
1.551857342235596
 10
186.4936015165127
 20
1.497216607716836
 10
186.4862104613005
 20
1.441524314237839
 10
186.4892684841984
 20
1.349478255165122
 10
186.4893422785685
 20
1.254772462490433
 10
186.486031357836
 20
1.162509192782077
 10
186.4939505989904
 20
1.107339051120821
 10
186.4815076611619
 20
1.053563054760789
 10
186.5389116551632
 20
1.067519052387231
 10
186.5994708140384
 20
1.058095942601696
 10
186.7048680855081
 20
1.062410223046473
 10
186.8204294070623
 20
1.061336409879743
 10
186.9359688877797
 20
1.060241022769375
 10
187.0414181130841
 20
1.06460662146575
 10
187.1018680471804
 20
1.055075624066136
 10
187.159283773911
 20
1.069154259823223
 10
187.1477773876709
 20
1.020052896416252
 10
187.1537566781749
 20
0.9786279439459125
 10
187.1520311050802
 20
0.9294981434263762
 10
187.1521500122971
 20
0.9015256482354983
 10
187.1521871691833
 20
0.8927842457189179
 72
     4
 94
        3
 73
     0
 74
     0
 95
       62
 96
       58
 40
0.0
 40
0.0
 40
0.0
 40
0.0
 40
0.0598250028308485
 40
0.2024846486897331
 40
0.3727558389221031
 40
0.515415484793607
 40
0.5752404975785339
 40
0.9332326775487216
 40
1.290451762839473
 40
1.602077253145874
 40
1.699931634112086
 40
1.799359756424966
 40
2.27012014965708
 40
2.804661928461486
 40
2.882342287383198
 40
3.076543185719047
 40
3.329004354835506
 40
3.58146552456833
 40
3.775666424543611
 40
3.853346784558231
 40
3.899120679595006
 40
3.984129341792032
 40
4.029903236817409
 40
4.105797496059567
 40
4.295533144152524
 40
4.542189486611766
 40
4.788845828875715
 40
4.978581476410099
 40
5.054475735244343
 40
5.621734664339359
 40
6.130867242037371
 40
6.225249780948582
 40
6.318913039727323
 40
6.663579954558939
 40
7.047498900224806
 40
7.435230791575722
 40
7.498943906668134
 40
7.650875181210071
 40
7.832212509001553
 40
7.984143783696939
 40
8.047856898903067
 40
8.091554632732576
 40
8.172707566964238
 40
8.216405300767965
 40
8.289021782160821
 40
8.462184160757166
 40
8.668861838005276
 40
8.84202421526381
 40
8.914640695475006
 40
8.989881580861208
 40
9.155411528827113
 40
9.320941477743894
 40
9.396182352487143
 40
9.45470901114369
 40
9.583467660170625
 40
9.712226309012904
 40
9.770752957989357
 40
9.770752957989357
 40
9.770752957989357
 40
9.770752957989357
 10
187.1521871691833
 20
0.8927842457189179
 10
187.1322348171623
 20
0.8927901194461308
 10
187.0647037716466
 20
0.8928100018209957
 10
186.9410612161788
 20
0.8924749889626742
 10
186.7863180150056
 20
0.8940581012645357
 10
186.669734948248
 20
0.8898421523643684
 10
186.455094263424
 20
0.9051334170756791
 10
186.8518948407229
 20
0.5449685766213437
 10
186.8945656069267
 20
0.3280863977310685
 10
187.3189162146611
 20
0.1462319888739207
 10
187.1439821496075
 20
0.042833329440136
 10
187.0194523925084
 20
-0.1687034041133958
 10
186.7666277235943
 20
0.3010421737749622
 10
186.4797602893627
 20
0.9480965336046074
 10
186.4906335926662
 20
0.6408080853063504
 10
186.488289277796
 20
0.4758675334771946
 10
186.4861096126412
 20
0.241778070876347
 10
186.4980774396347
 20
-0.0020379120227516
 10
186.4687984740632
 20
-0.1484606676307417
 10
186.511452262547
 20
-0.2958837344952069
 10
186.423981400564
 20
-0.2801606631783807
 10
186.3768527606745
 20
-0.2800756008060346
 10
186.2898973207712
 20
-0.2959243814114982
 10
186.3313474021722
 20
-0.1517409220129635
 10
186.3029875004285
 20
-0.0084681092560266
 10
186.31459737753
 20
0.2297308374120633
 10
186.3124175648271
 20
0.4581537161628793
 10
186.3103111127994
 20
0.6200386575193644
 10
186.3208035438323
 20
0.9345184570969354
 10
186.0128963252893
 20
0.2452760724838092
 10
185.7055258267456
 20
-0.2322511338101161
 10
185.5851367066275
 20
-0.0096075098662804
 10
185.4074607910722
 20
0.1030917133150409
 10
185.8853326362894
 20
0.278462798414055
 10
185.9353959057207
 20
0.5139006562796968
 10
186.3583799621718
 20
0.9062112572054926
 10
186.127675427354
 20
0.8895344340500728
 10
186.0049685859341
 20
0.8956765532471251
 10
185.8325483095663
 20
0.8861095907551564
 10
185.7213224694449
 20
0.9074695486560725
 10
185.6025779627449
 20
0.8743440173336168
 10
185.6183169706686
 20
0.955020369828254
 10
185.6178550933764
 20
0.9994355066679602
 10
185.6027881889931
 20
1.08265218154475
 10
185.7372380935444
 20
1.043607883598262
 10
185.8619755545747
 20
1.070378657043644
 10
186.062875523728
 20
1.053620854199951
 10
186.1921540949353
 20
1.07502362288946
 10
186.3328419928295
 20
1.041669152293634
 10
186.2980927452614
 20
1.179500121610102
 10
186.3222185666713
 20
1.302613937254233
 10
186.2967086182393
 20
1.423221920462774
 10
186.3333251146684
 20
1.558380015174366
 10
186.2211417027769
 20
1.533926821578327
 10
186.1280356457136
 20
1.546058862179641
 10
186.0191547579819
 20
1.542557664459356
 10
185.9569697640964
 20
1.542798923275442
 10
185.9375369557246
 20
1.542874315000859
 97
        3
330
A3
330
A1
330
A2
 75
     1
 76
     2
 52
45.0
 41
0.1
 77
     0
 78
     1
 53
45.0
 43
0.0
 44
0.0
 45
-0.282842712474619
 46
0.0
 79
     0
 98
        1
 10
0.0
 20
0.0
  0
HATCH
  5
C1
330
49
100
AcDbEntity
  8
1
  6
Continuous
 62
     2
100
AcDbHatch
 10
0.0
 20
0.0
 30
0.0
210
0.0
220
0.0
230
1.0
  2
CUSTOM2
 70
     0
 71
     1
 91
        1
 92
        1
 93
        1
 72
     4
 94
        3
 73
     0
 74
     0
 95
      124
 96
      120
 40
0.0
 40
0.0
 40
0.0
 40
0.0
 40
0.0278187229624226
 40
0.1011590162383985
 40
0.2048470170589954
 40
0.3237088716558677
 40
0.4425707262521431
 40
0.5462587270698694
 40
0.6195990203311229
 40
0.6474177522577808
 40
0.6750060736114388
 40
0.7357003855241906
 40
0.7963946998053627
 40
0.8239830245570935
 40
0.8540933811102028
 40
0.9373396629408709
 40
1.063094687343152
 40
1.22073126863799
 40
1.399622220914664
 40
1.589140358637649
 40
1.778658496423815
 40
1.957549448940425
 40
2.115186030873075
 40
2.240941056914379
 40
2.324187341760449
 40
2.354297700109298
 40
2.381886024671805
 40
2.442580338710393
 40
2.503274652750417
 40
2.530862977314524
 40
2.560983949278477
 40
2.640393784452851
 40
2.752662861759074
 40
2.881361560118063
 40
3.010060258455166
 40
3.122329335705342
 40
3.201739170817927
 40
3.231860142753316
 40
3.264298024030373
 40
3.352343701778243
 40
3.482095226868768
 40
3.639650650173029
 40
3.811108022565487
 40
3.982565394927994
 40
4.140120818152576
 40
4.269872343141287
 40
4.357918020802352
 40
4.39035590204398
 40
4.423256253992549
 40
4.508104530073099
 40
4.624121560636866
 40
4.750528176031623
 40
4.866545206602098
 40
4.951393482692084
 40
4.984293834645485
 40
5.011450833242399
 40
5.071196230152184
 40
5.130941627057259
 40
5.158098625648925
 40
5.190998977601615
 40
5.275847253689441
 40
5.391864284256932
 40
5.518270899648477
 40
5.634287930209516
 40
5.71913620628819
 40
5.752036558236106
 40
5.782130946283131
 40
5.862783906229304
 40
5.979550131775173
 40
6.117984316640579
 40
6.263641154588125
 40
6.402075339414329
 40
6.518841564908122
 40
6.599494524815707
 40
6.629588912848945
 40
6.654403028226521
 40
6.71357514948826
 40
6.784199939329577
 40
6.843372060493622
 40
6.868186175802868
 40
6.896246243201958
 40
6.939586233758272
 40
6.967846564564903
 40
7.043584251089836
 40
7.153234334451696
 40
7.283231855734444
 40
7.420011856035476
 40
7.550009376579827
 40
7.659659458835226
 40
7.735397144417218
 40
7.76365747485139
 40
7.796409728011047
 40
7.880876065096321
 40
7.996370852465707
 40
8.122208446418602
 40
8.237703224799196
 40
8.322169562010918
 40
8.354921815205904
 40
8.382078813307684
 40
8.44182420920699
 40
8.50156960524014
 40
8.528726603485717
 40
8.561478856695738
 40
8.645945193877788
 40
8.761439980865328
 40
8.88727758076447
 40
9.002772362000991
 40
9.087238696661183
 40
9.119990949235666
 40
9.152428830613363
 40
9.24047450863858
 40
9.370226034149532
 40
9.527781457984416
 40
9.699238830981406
 40
9.870696203978598
 40
10.02825162781402
 40
10.15800315332564
 40
10.24604883135119
 40
10.27848670378521
 40
10.27848670378521
 40
10.27848670378521
 40
10.27848670378521
 10
195.3821827564384
 20
-0.0329134623830107
 10
195.3914554737524
 20
-0.0329136511278399
 10
195.4251744536861
 20
-0.0329143274734377
 10
195.4934706812466
 20
-0.0329005638075362
 10
195.592014171158
 20
-0.0329863940451351
 10
195.7062066464812
 20
-0.0326010801180775
 10
195.8185894417071
 20
-0.0340102772651301
 10
195.9214376600119
 20
-0.0298274620181549
 10
195.9806839874848
 20
-0.0387877437207536
 10
196.0371265937033
 20
-0.0253742909799805
 10
196.0246255586954
 20
-0.0761466501069729
 10
196.0329549635703
 20
-0.1211254268499135
 10
196.0248170841119
 20
-0.1664511063357016
 10
196.0370529214457
 20
-0.2176993121559222
 10
195.9747773490333
 20
-0.2025390825878216
 10
195.9060513026868
 20
-0.2134211291331502
 10
195.7782756749591
 20
-0.207905588760865
 10
195.6262984511643
 20
-0.210010123703597
 10
195.4502695972523
 20
-0.2093086103558496
 10
195.2644431934287
 20
-0.2095662609276678
 10
195.0786167437175
 20
-0.2093085847945501
 10
194.9025880142168
 20
-0.2100102177632744
 10
194.7506104154194
 20
-0.2079053139406983
 10
194.6228357664555
 20
-0.213421828564182
 10
194.554107783658
 20
-0.2025378649811592
 10
194.4918349042883
 20
-0.2177007693984916
 10
194.5040616290017
 20
-0.1664435281888664
 10
194.4960004462597
 20
-0.1211939035163308
 10
194.5040675809892
 20
-0.0759550566873526
 10
194.4918238487083
 20
-0.0246768671410061
 10
194.5525017120698
 20
-0.0395228626092316
 10
194.6162810745737
 20
-0.0294541545332386
 10
194.7277314353503
 20
-0.0340721941205847
 10
194.8497533443823
 20
-0.0328853471858966
 10
194.9719538137824
 20
-0.0318599972342337
 10
195.0829794287393
 20
-0.0360938800065688
 10
195.1476517413959
 20
-0.0268327910231943
 10
195.2091162810502
 20
-0.0409744057437655
 10
195.1930065601338
 20
0.0253366426045836
 10
195.2042980327359
 20
0.0974592649791786
 10
195.1987400822561
 20
0.2281189726422781
 10
195.2008035061691
 20
0.3790546008418323
 10
195.2000167127295
 20
0.5463400948382806
 10
195.2007845215628
 20
0.7135924670824495
 10
195.1988038785629
 20
0.8646142564585659
 10
195.2041306156621
 20
0.9950420592893748
 10
195.1933101388426
 20
1.067635789818419
 10
195.2090326429876
 20
1.134486058127408
 10
195.1432708132491
 20
1.118786488667673
 10
195.0756367830764
 20
1.12907379459938
 10
194.961588529381
 20
1.124119232230645
 10
194.8451242674903
 20
1.127122644064179
 10
194.7306554121477
 20
1.121784395193316
 10
194.6640324657812
 20
1.132994044507675
 10
194.5990769715186
 20
1.11647269040954
 10
194.6107989758707
 20
1.167718568530018
 10
194.6032830189121
 20
1.212484701600334
 10
194.6107989878835
 20
1.25725081273904
 10
194.5990769505347
 20
1.308496725056835
 10
194.66403263392
 20
1.29197518142758
 10
194.7306533339821
 20
1.303187077498865
 10
194.8451352858064
 20
1.297835730866069
 10
194.9615454436963
 20
1.300893251470598
 10
195.0757660174642
 20
1.295766353866509
 10
195.1430150439227
 20
1.306438697315415
 10
195.2083325941439
 20
1.29040219045019
 10
195.1941391448553
 20
1.352478221259959
 10
195.2036059462997
 20
1.418848980047056
 10
195.1990269004085
 20
1.535381091179086
 10
195.2007696555949
 20
1.667248213983185
 10
195.1997551495392
 20
1.809140965262159
 10
195.2017191344373
 20
1.940671870785228
 10
195.1964668553852
 20
2.058227136589447
 10
195.2073408763475
 20
2.122459253775266
 10
195.1919536641854
 20
2.184069389209897
 10
195.2407591537801
 20
2.170005437580535
 10
195.2853995564726
 20
2.172528784512565
 10
195.3538643946741
 20
2.168109337776525
 10
195.3959106169103
 20
2.159111619199776
 10
195.4487544758775
 20
2.167098512424537
 10
195.4207035002014
 20
2.124120539876184
 10
195.3749142248595
 20
2.135576884197755
 10
195.3869539073266
 20
2.074716563810791
 10
195.3796086070642
 20
2.01067435844715
 10
195.3831195826162
 20
1.902075052398535
 10
195.3819806760175
 20
1.777924555206951
 10
195.3819174780264
 20
1.644878562058204
 10
195.3832872966868
 20
1.52095517625498
 10
195.3791638801314
 20
1.411664742252809
 10
195.3877763103565
 20
1.349067164701125
 10
195.3746757454403
 20
1.290382696723082
 10
195.4393884328199
 20
1.306602501868449
 10
195.5060405953157
 20
1.295683967592542
 10
195.6198779541103
 20
1.300918765496985
 10
195.7357259122097
 20
1.297836838928561
 10
195.8496924263281
 20
1.303163961884551
 10
195.9160341018099
 20
1.292023445424855
 10
195.9807188525481
 20
1.3084511596912
 10
195.9689820772723
 20
1.25724061585993
 10
195.9765168063042
 20
1.212484704969436
 10
195.9689820992259
 20
1.167728753859703
 10
195.9807188140737
 20
1.116518272469838
 10
195.9160344075253
 20
1.132945641701625
 10
195.8496886430826
 20
1.121809208232126
 10
195.7357459487013
 20
1.127112522690626
 10
195.6197995623055
 20
1.124129009694869
 10
195.5062756882124
 20
1.129050286443361
 10
195.4389231318804
 20
1.118832238894628
 10
195.3734285122497
 20
1.13444132514759
 10
195.3891713619218
 20
1.067619882033541
 10
195.3783275998215
 20
0.9950519419182114
 10
195.3836581629792
 20
0.8646038399035881
 10
195.3817136151857
 20
0.7136269456116799
 10
195.3823133683213
 20
0.5462038031010072
 10
195.3821506559607
 20
0.379543124943136
 10
195.3821895488136
 20
0.2265827929757774
 10
195.3821816413101
 20
0.1014731536164714
 10
195.3821828382744
 20
0.0180602736736154
 10
195.382182771621
 20
-0.0221008534208227
 10
195.3821827564384
 20
-0.0329134623830107
 97
        1
330
A4
 75
     1
 76
     2
 52
45.0
 41
0.1
 77
     0
 78
     1
 53
45.0
 43
0.0
 44
0.0
 45
-0.282842712474619
 46
0.0
 79
     0
 98
        1
 10
0.0
 20
0.0
  0
HATCH
  5
C2
330
49
100
AcDbEntity
  8
1
  6
Continuous
 62
     2
100
AcDbHatch
 10
0.0
 20
0.0
 30
0.0
210
0.0
220
0.0
230
1.0
  2
CUSTOM3
 70
     0
 71
     1
 91
        1
 92
        1
 93
        1
 72
     4
 94
        3
 73
     0
 74
     0
 95
      131
 96
      127
 40
0.0
 40
0.0
 40
0.0
 40
0.0
 40
0.0195577029826547
 40
0.0426490537462319
 40
0.2863607575857519
 40
0.5344948436190233
 40
0.7842238845574135
 40
0.8737315789468555
 40
0.9803832810314053
 40
1.092842274517151
 40
1.199761146656909
 40
1.289788768186614
 40
1.351573580786286
 40
1.370727117561512
 40
1.416400936017925
 40
1.470914848356067
 40
1.516588666791858
 40
1.535742203552937
 40
1.634216592293247
 40
1.76028334117504
 40
1.897966686682167
 40
2.031216387369011
 40
2.049689751138005
 40
2.101115601646939
 40
2.179502577740059
 40
2.278859318314173
 40
2.393194462258831
 40
2.516516648383945
 40
2.642834515406072
 40
2.766156701983577
 40
2.880491846754689
 40
2.979848588358731
 40
3.058235565443908
 40
3.109661416669062
 40
3.128134780704239
 40
3.146783742386556
 40
3.191254343315417
 40
3.244332157316076
 40
3.288802758225979
 40
3.307451719895222
 40
3.327717853844834
 40
3.383747753580196
 40
3.468388665924587
 40
3.574487837698892
 40
3.694892515728997
 40
3.822449946852136
 40
3.950007377920526
 40
4.070412055800618
 40
4.176511227368173
 40
4.26115213950162
 40
4.31718203907681
 40
4.337448172964732
 40
4.620011002696345
 40
4.885096638397611
 40
4.945373043518429
 40
5.014107710488744
 40
5.070481727652141
 40
5.319246955636665
 40
5.584812164506157
 40
5.859000912057009
 40
6.133746937542191
 40
6.401732212969023
 40
6.420736683995642
 40
6.472845717451236
 40
6.55070274389422
 40
6.646951193874429
 40
6.754234497930753
 40
6.865196086587559
 40
6.972479390358018
 40
7.068727839772208
 40
7.146584865451217
 40
7.198693898189447
 40
7.217698368905587
 40
7.234950401631065
 40
7.276089864270107
 40
7.325191803516212
 40
7.366331266090598
 40
7.383583298769951
 40
7.402779163492328
 40
7.453386443254759
 40
7.524934666445761
 40
7.6069533614061
 40
7.688972056429252
 40
7.760520279784503
 40
7.811127559734745
 40
7.830323424546366
 40
7.847844055299995
 40
7.894799345667036
 40
7.962779392744723
 40
8.043374293560774
 40
8.12817414514968
 40
8.20876904481748
 40
8.276749090377182
 40
8.323704379669747
 40
8.341225010056478
 40
8.358497614800626
 40
8.401679126686831
 40
8.45781509218589
 40
8.513951057728294
 40
8.55713256970825
 40
8.574405174505292
 40
8.602340668616627
 40
8.643455660540221
 40
8.663225271966892
 40
8.715345156564535
 40
8.789031889628873
 40
8.873502045520603
 40
8.957972194324226
 40
9.031658925568118
 40
9.083778811234808
 40
9.103548423003271
 40
9.119550083123837
 40
9.16081752238011
 40
9.217244429110504
 40
9.278724491645018
 40
9.335151398295803
 40
9.376418837358127
 40
9.392420497300915
 40
9.40119630273516
 40
9.417494229384609
 40
9.426270027749908
 40
9.440875075477916
 40
9.47570249699912
 40
9.517270709866281
 40
9.552098131994448
 40
9.566703169884656
 40
9.566703169884656
 40
9.566703169884656
 40
9.566703169884656
 10
194.617025414848
 20
1.6231400788697
 10
194.6134345093372
 20
1.617518270781016
 10
194.6056039123625
 20
1.605258907950537
 10
194.5129968974547
 20
1.569000524169271
 10
194.4887622233247
 20
1.35446580588652
 10
194.3858709845938
 20
1.174954208856515
 10
194.1220492364305
 20
0.9891371017408512
 10
194.284547156918
 20
0.9125747294202371
 10
194.3607225760838
 20
0.8515482957138383
 10
194.4492171072759
 20
0.7881394092070146
 10
194.538993023311
 20
0.728237705955024
 10
194.5883817636047
 20
0.6740029122515099
 10
194.6745708157381
 20
0.6458437691777494
 10
194.641126067423
 20
0.6101144602875338
 10
194.621467116631
 20
0.5784852436784773
 10
194.5919888217882
 20
0.5377400917201138
 10
194.5688989446031
 20
0.5080279986558551
 10
194.5380205968357
 20
0.4550955904443701
 10
194.472919336574
 20
0.5803847131484379
 10
194.3796000122416
 20
0.6351203660987979
 10
194.2950636285139
 20
0.6921456031528171
 10
194.1722498125741
 20
0.849734238034652
 10
194.1764450847302
 20
0.7733394314277824
 10
194.1751478652677
 20
0.7265941653723748
 10
194.1758126448076
 20
0.6488292218854282
 10
194.1755549986957
 20
0.552002047003645
 10
194.1756431239922
 20
0.4394841545475087
 10
194.1756077302281
 20
0.3182222232164116
 10
194.1756511758278
 20
0.1938503423490298
 10
194.1755199942406
 20
0.0726582000727808
 10
194.1759477562046
 20
-0.0401071470431488
 10
194.174667820231
 20
-0.136189498553141
 10
194.1779759851044
 20
-0.2158803715535825
 10
194.1715197740086
 20
-0.2588668783527408
 10
194.1806208705556
 20
-0.297464312520156
 10
194.1447910339934
 20
-0.2889097589998753
 10
194.1115223815252
 20
-0.2935934363861189
 10
194.060456257604
 20
-0.2935056486427397
 10
194.0269723972813
 20
-0.2890743334023747
 10
193.9907585408754
 20
-0.2974106978154864
 10
194.0009782568665
 20
-0.2555658644477387
 10
193.9936487887774
 20
-0.2092330280388444
 10
193.9973633136102
 20
-0.1232703251804396
 10
193.9959480554896
 20
-0.0209672091920908
 10
193.9964105554638
 20
0.0975136030745329
 10
193.996277368623
 20
0.2225581952929769
 10
193.9963015910046
 20
0.347739644829915
 10
193.996335492555
 20
0.4658478175499948
 10
193.9962060293133
 20
0.569268850854578
 10
193.996550754908
 20
0.6523017252960819
 10
193.995869827869
 20
0.7044150489718487
 10
193.9994586600623
 20
0.832110441973028
 10
193.7826171386437
 20
0.5334685319556141
 10
193.602135492195
 20
0.3056211788745733
 10
193.5490322295611
 20
0.4467157966575586
 10
193.5200429133149
 20
0.4962390393688566
 10
193.419664806282
 20
0.599399161660488
 10
193.7405127723261
 20
0.6799317139972227
 10
193.868989700543
 20
0.8636441941237603
 10
194.0906454325359
 20
1.072301321477046
 10
194.1770224894069
 20
1.246373476042882
 10
194.4549394229075
 20
1.52265187718456
 10
194.3346247839285
 20
1.518326959270564
 10
194.286319735135
 20
1.519129925784959
 10
194.2102377454905
 20
1.518727185225265
 10
194.1167010009751
 20
1.518884119875521
 10
194.0117594788557
 20
1.518806389521669
 10
193.9033887738718
 20
1.518936007544972
 10
193.7981454235897
 20
1.518525298666344
 10
193.7056237819413
 20
1.519802100475339
 10
193.6268130800707
 20
1.516389029107925
 10
193.5839674565378
 20
1.523214864122628
 10
193.5449499586516
 20
1.513632005770661
 10
193.5526365271863
 20
1.547189159414851
 10
193.5485464404312
 20
1.578216866981753
 10
193.5485531368814
 20
1.625346656468424
 10
193.5526239724911
 20
1.656390780227205
 10
193.5449495574582
 20
1.689999980118435
 10
193.5834819405495
 20
1.680465467968139
 10
193.6241228014479
 20
1.686955718740125
 10
193.6951471850463
 20
1.683982870261961
 10
193.7729318149633
 20
1.684728977750995
 10
193.8507292246474
 20
1.685459504204675
 10
193.9217232089907
 20
1.682523718901023
 10
193.962427979182
 20
1.68893605148894
 10
194.0009853489909
 20
1.679486605519459
 10
193.9927342754928
 20
1.715628285347262
 10
193.9982346669358
 20
1.754279739891687
 10
193.9955754206163
 20
1.82211664937781
 10
193.9965815471533
 20
1.898897779146817
 10
193.9960178018318
 20
1.981475299586988
 10
193.9970714526592
 20
2.058154656058197
 10
193.994267586313
 20
2.126301271526416
 10
194.0000702721303
 20
2.164305361852883
 10
193.9915654551158
 20
2.20056584453588
 10
194.0255610233125
 20
2.190538601477936
 10
194.0594575683099
 20
2.193714031896485
 10
194.1126669060346
 20
2.18807102016551
 10
194.1660768574483
 20
2.187329108123668
 10
194.199591464949
 20
2.181173598589218
 10
194.2388086183039
 20
2.186441661495349
 10
194.2120263698492
 20
2.145515171694272
 10
194.1708111001724
 20
2.156693409140551
 10
194.1782641540873
 20
2.111651925680656
 10
194.1742227952184
 20
2.067104144040862
 10
194.176171404964
 20
1.995217089976449
 10
194.1752364849758
 20
1.914667669647127
 10
194.176510719003
 20
1.834721317809366
 10
194.1732043793863
 20
1.761399734591249
 10
194.1802106179962
 20
1.719867793785097
 10
194.1701440380125
 20
1.680505549440539
 10
194.2029814803921
 20
1.687661998069231
 10
194.236457729648
 20
1.683253795138863
 10
194.2915053476019
 20
1.685160797238392
 10
194.3489502595315
 20
1.684835027832302
 10
194.402302624831
 20
1.684044451090242
 10
194.4398540896639
 20
1.686120954940156
 10
194.4623172523238
 20
1.683204745430517
 10
194.4751678073732
 20
1.688706890199964
 10
194.485825568589
 20
1.69099254573733
 10
194.4986635650145
 20
1.697931089639944
 10
194.5145991033071
 20
1.681511826896123
 10
194.5410623920893
 20
1.670072586953919
 10
194.5726805253759
 20
1.649428242111326
 10
194.5987255892152
 20
1.634150060042364
 10
194.6128517723974
 20
1.625651126991262
 10
194.617025414848
 20
1.6231400788697
 97
        1
330
A5
 75
     1
 76
     2
 52
45.0
 41
0.1
 77
     0
 78
     1
 53
45.0
 43
0.0
 44
0.0
 45
-0.282842712474619
 46
0.0
 79
     0
 98
        1
 10
0.0
 20
0.0
  0
HATCH
  5
C3
330
49
100
AcDbEntity
  8
1
  6
Continuous
 62
     2
100
AcDbHatch
 10
0.0
 20
0.0
 30
0.0
210
0.0
220
0.0
230
1.0
  2
CUSTOM4
 70
     0
 71
     1
 91
        1
 92
        1
 93
        1
 72
     4
 94
        3
 73
     0
 74
     0
 95
       91
 96
       87
 40
0.0
 40
0.0
 40
0.0
 40
0.0
 40
0.0267532254356696
 40
0.0856103386464095
 40
0.1444674521996616
 40
0.1712206856618516
 40
0.2039416005642537
 40
0.2955601971652485
 40
0.4362601844616919
 40
0.6162252844507251
 40
0.8256392189704699
 40
1.054685709844411
 40
1.293548478893531
 40
1.532411247938303
 40
1.761457738799568
 40
1.970871673298537
 40
2.150836773256732
 40
2.291536760495593
 40
2.3831553568367
 40
2.41587628410132
 40
2.442629517487963
 40
2.501486630949095
 40
2.560343744424243
 40
2.587096977826515
 40
2.617068194440943
 40
2.699247336756084
 40
2.822032643466396
 40
2.973822353257926
 40
3.143014704823368
 40
3.318007936879947
 40
3.48720028818678
 40
3.638989997548261
 40
3.76177530379476
 40
3.843954445753095
 40
3.87392566222979
 40
3.890812773500497
 40
3.907699884771676
 40
3.937960767857283
 40
3.980983618142315
 40
4.199085915228438
 40
4.439444339237229
 40
4.677588241260857
 40
5.050698317837771
 40
5.4482124547631
 40
5.855291218044568
 40
6.138575438885215
 40
6.417434507584018
 40
6.444551104393676
 40
6.504207617362951
 40
6.563864130314274
 40
6.590980727103842
 40
6.848609460381226
 40
7.109611990668185
 40
7.352910904445848
 40
7.557830220705219
 40
7.587518925913137
 40
7.652834077375554
 40
7.718149228845489
 40
7.747837934061792
 40
7.854880190300743
 40
7.976511257403285
 40
8.36948789659203
 40
8.757514959223352
 40
9.126072419330843
 40
9.460639380391905
 40
9.746695593035646
 40
9.777569943118392
 40
9.80705032093144
 40
9.830377336128574
 40
9.886003295435659
 40
9.952395569429582
 40
10.00802152870595
 40
10.03134854388188
 40
10.21356951009559
 40
10.42203479292841
 40
10.66154556731033
 40
10.91693789564274
 40
11.15832906556535
 40
11.18982674596593
 40
11.27286608520377
 40
11.39026653033319
 40
11.52484752840855
 40
11.65942852648417
 40
11.77682897161453
 40
11.85986831085652
 40
11.89136598230398
 40
11.89136598230398
 40
11.89136598230398
 40
11.89136598230398
 10
190.7027885008196
 20
0.6599773707771384
 10
190.7028237765288
 20
0.6688598368792704
 10
190.7029366710796
 20
0.6972837342328804
 10
190.701298456849
 20
0.7470777554574479
 10
190.706975029291
 20
0.7895570085409602
 10
190.6956928731707
 20
0.8402829123278879
 10
190.7632296979031
 20
0.8231103711605076
 10
190.83880292107
 20
0.8358836354193738
 10
190.9828357056
 20
0.8292786583332383
 10
191.1569419185427
 20
0.8318659858240743
 10
191.3639599611003
 20
0.830987283314946
 10
191.5894688172378
 20
0.8312634429596905
 10
191.8251162293406
 20
0.8311647603460401
 10
192.0607640531348
 20
0.8312632078870928
 10
192.2862717580626
 20
0.830988145667301
 10
192.4932934632805
 20
0.8318632264667662
 10
192.6673888915288
 20
0.8292865905438804
 10
192.8114492071986
 20
0.8358642682515482
 10
192.8869691915292
 20
0.823143797815461
 10
192.954577603703
 20
0.8402453656762818
 10
192.9430840140676
 20
0.789729221788822
 10
192.9505104581733
 20
0.7455138860244296
 10
192.9428838927985
 20
0.7016610287955158
 10
192.9546489459425
 20
0.651765108552693
 10
192.8930788491983
 20
0.6669136408845401
 10
192.8256791738672
 20
0.6560880172661512
 10
192.7013004056221
 20
0.6615016800217808
 10
192.555442823657
 20
0.6594734176672672
 10
192.3893576440085
 20
0.6601391395432858
 10
192.2188412621724
 20
0.6598777989718372
 10
192.0519790855388
 20
0.6601968976703563
 10
191.9087346827105
 20
0.6593343896670405
 10
191.7773313869834
 20
0.6616143685892972
 10
191.7239859134656
 20
0.6570584075014393
 10
191.6485188456912
 20
0.66298051368819
 10
191.6769075779233
 20
0.6539230571929474
 10
191.7033652409542
 20
0.6502404864487115
 10
191.6633522907701
 20
0.6195240834421578
 10
191.5713663691868
 20
0.6296572755057698
 10
191.543939620707
 20
0.3833063862372441
 10
191.4478793967235
 20
0.2279769514031803
 10
191.1917277964474
 20
-0.1017644569249132
 10
191.7627537732763
 20
0.0372815858639283
 10
192.0173656320517
 20
0.0358991634930469
 10
192.6279647048617
 20
-0.049112943819721
 10
192.3340698578084
 20
0.2498355393414537
 10
192.0133304286517
 20
0.3962899327771834
 10
192.1313543360434
 20
0.453236771942295
 10
192.1724716466261
 20
0.4771823624929105
 10
192.2156812394411
 20
0.4989789518717109
 10
192.317457409445
 20
0.5622685762984958
 10
192.4328867625248
 20
0.3044528778471964
 10
192.6329591642277
 20
0.1691417748962497
 10
192.7269077387229
 20
-0.0090906848517611
 10
192.9558829746391
 20
-0.1670404259700973
 10
192.8596031846708
 20
-0.2178589104775808
 10
192.8167959763779
 20
-0.2482057110100326
 10
192.7718243528779
 20
-0.2723573334259876
 10
192.7121720925214
 20
-0.3214971687648926
 10
192.6789731061324
 20
-0.1870438795044876
 10
192.5582013350796
 20
-0.0310759833747853
 10
192.1970976005979
 20
-0.1613193556450211
 10
191.8385061955541
 20
-0.144771692145758
 10
191.4570920450079
 20
-0.1537063427219195
 10
191.1703455282893
 20
-0.2181919195165452
 10
190.8592055599711
 20
-0.1047119543122527
 10
190.8268737818789
 20
-0.2157960369628942
 10
190.7896178253318
 20
-0.2350554977404458
 10
190.7865737632755
 20
-0.1882707953676048
 10
190.7679892860607
 20
-0.1489500970492361
 10
190.7512436616778
 20
-0.0893588014582474
 10
190.7383730915754
 20
-0.0449989375277503
 10
190.7042327806427
 20
0.0440446749614263
 10
190.9482714457753
 20
-0.0252082068028771
 10
191.1441394486671
 20
-0.0467149456631419
 10
191.2395426381277
 20
0.235246208544049
 10
191.2945135769597
 20
0.3966118179706443
 10
191.5159619357156
 20
0.6668931396568016
 10
191.3849239381216
 20
0.6584658322967614
 10
191.3110026555854
 20
0.6607714487291184
 10
191.1977459876244
 20
0.6596951469759939
 10
191.0694251807484
 20
0.660057754524514
 10
190.9404252030415
 20
0.6599586084202758
 10
190.828784094629
 20
0.6599806908851391
 10
190.7514663970026
 20
0.659977155656118
 10
190.713287653201
 20
0.6599773222102282
 10
190.7027885008196
 20
0.6599773707771384
 97
        1
330
A6
 75
     1
 76
     2
 52
45.0
 41
0.1
 77
     0
 78
     1
 53
45.0
 43
0.0
 44
0.0
 45
-0.282842712474619
 46
0.0
 79
     0
 98
        1
 10
0.0
 20
0.0
  0
HATCH
  5
C4
330
49
100
AcDbEntity
  8
1
  6
Continuous
 62
     2
100
AcDbHatch
 10
0.0
 20
0.0
 30
0.0
210
0.0
220
0.0
230
1.0
  2
CUSTOM5
 70
     0
 71
     1
 91
        1
 92
        1
 93
        1
 72
     4
 94
        3
 73
     0
 74
     0
 95
       35
 96
       31
 40
0.0
 40
0.0
 40
0.0
 40
0.0
 40
0.0335231036619923
 40
0.07132185717124
 40
0.4278866681487554
 40
0.81168658419648
 40
1.198190238000141
 40
1.561379546812798
 40
1.659983174622178
 40
1.759315573807344
 40
2.132719617231205
 40
2.52523336358891
 40
2.910815397779779
 40
3.265244364303346
 40
3.592606723582122
 40
3.964386154604108
 40
4.359942131737906
 40
4.758154118639438
 40
4.843846538700013
 40
4.936650065543374
 40
5.256616602537525
 40
5.581707404416236
 40
5.899719158308331
 40
6.198363494280914
 40
6.466301046615932
 40
6.493895311537254
 40
6.559697020197047
 40
6.638234543442622
 40
6.704036252154375
 40
6.731630508423181
 40
6.731630508423181
 40
6.731630508423181
 40
6.731630508423181
 10
191.9736010568669
 20
2.18761980095076
 10
191.9676006097789
 20
2.177788269182647
 10
191.9548344099158
 20
2.15687124955734
 10
191.7949362006552
 20
2.124252629086554
 10
192.2322025842338
 20
1.835048167126343
 10
192.4345394828262
 20
1.633392747343837
 10
192.6819564267974
 20
1.390475239792171
 10
193.1831513624608
 20
1.313457991337162
 10
193.012556219897
 20
1.171750755505973
 10
192.9383299463201
 20
0.9700850258505297
 10
192.6131432248188
 20
1.322544235506649
 10
192.3277741670665
 20
1.484733489355061
 10
192.0337604077658
 20
1.6898526642899
 10
191.8084452691136
 20
2.171256249713969
 10
191.5993085055521
 20
1.706411829851638
 10
191.3207873674834
 20
1.49649088628856
 10
191.0371383177209
 20
1.327225927359267
 10
190.7078639527832
 20
0.9544049728387418
 10
190.6277012318224
 20
1.150061508349469
 10
190.4759724909745
 20
1.277892405665356
 10
190.9083395826795
 20
1.357521681418755
 10
191.0962565329766
 20
1.553247712914159
 10
191.3468477420504
 20
1.769311332926968
 10
191.5714350470161
 20
1.934891286760002
 10
191.6259775409713
 20
2.214321010127691
 10
191.7494661029011
 20
2.200360867840204
 10
191.806027334452
 20
2.198194052435893
 10
191.8761870984944
 20
2.193449962573021
 10
191.9333414022106
 20
2.190075657264832
 10
191.9644190320839
 20
2.188179910870609
 10
191.9736010568669
 20
2.18761980095076
 97
        1
330
A7
 75
     1
 76
     2
 52
45.0
 41
0.1
 77
     0
 78
     1
 53
45.0
 43
0.0
 44
0.0
 45
-0.282842712474619
 46
0.0
 79
     0
 98
        1
 10
0.0
 20
0.0
  0
HATCH
  5
C5
330
49
100
AcDbEntity
  8
1
  6
Continuous
 62
     2
100
AcDbHatch
 10
0.0
 20
0.0
 30
0.0
210
0.0
220
0.0
230
1.0
  2
CUSTOM6
 70
     0
 71
     1
 91
        1
 92
        1
 93
        1
 72
     4
 94
        3
 73
     0
 74
     0
 95
       15
 96
       11
 40
0.0
 40
0.0
 40
0.0
 40
0.0
 40
0.2785535985097476
 40
0.5215624748198971
 40
0.60769173760406
 40
0.693821000174134
 40
0.9405019146455164
 40
1.221691403489151
 40
1.300471877081069
 40
1.379252341684833
 40
1.379252341684833
 40
1.379252341684833
 40
1.379252341684833
 10
189.5681493630999
 20
2.18228403706323
 10
189.6296017794179
 20
2.12989782968659
 10
189.7446649974114
 20
2.031810131741719
 10
190.0397348497243
 20
1.881879222731615
 10
189.9025147631857
 20
1.796413638909558
 10
189.8041227843778
 20
1.663839215774964
 10
189.7130033590649
 20
1.969151221573622
 10
189.3636839480655
 20
2.032660058413165
 10
189.511925837657
 20
2.131946462568203
 10
189.5494081874236
 20
2.165504847783244
 10
189.5681493630999
 20
2.18228403706323
 97
        1
330
A8
 75
     1
 76
     2
 52
45.0
 41
0.1
 77
     0
 78
     1
 53
45.0
 43
0.0
 44
0.0
 45
-0.282842712474619
 46
0.0
 79
     0
 98
        1
 10
0.0
 20
0.0
  0
HATCH
  5
C6
330
49
100
AcDbEntity
  8
1
  6
Continuous
 62
     2
100
AcDbHatch
 10
0.0
 20
0.0
 30
0.0
210
0.0
220
0.0
230
1.0
  2
CUSTOM7
 70
     0
 71
     1
 91
        1
 92
        1
 93
        1
 72
     4
 94
        3
 73
     0
 74
     0
 95
       75
 96
       71
 40
0.0
 40
0.0
 40
0.0
 40
0.0
 40
0.0342546099129689
 40
0.1245622414432352
 40
0.2522385480897537
 40
0.3985991922940686
 40
0.5449598364980842
 40
0.6726361431438851
 40
0.7629437746736956
 40
0.7971983935297986
 40
1.101723623449743
 40
1.408591244036776
 40
1.433332471690482
 40
1.48776317245027
 40
1.542193873082095
 40
1.566935100592642
 40
1.923523931821955
 40
2.2717557049537
 40
2.590579755100942
 40
2.858943305581171
 40
2.889120339309208
 40
2.918305855191206
 40
2.941366645531328
 40
2.996357760973207
 40
3.06199231814075
 40
3.116983433626917
 40
3.140044223997606
 40
3.4112731229365
 40
3.732441619741109
 40
3.761068217532807
 40
3.837787499630371
 40
3.948858699126011
 40
4.080541049104391
 40
4.219093782625775
 40
4.350776132722325
 40
4.461847332405662
 40
4.538566614678394
 40
4.567193212544641
 40
4.594907573998899
 40
4.666381453557438
 40
4.764111044011049
 40
4.870592538125852
 40
4.968322128642303
 40
5.039796008286988
 40
5.067510369784447
 40
5.094263603185659
 40
5.153120716668291
 40
5.211977830150735
 40
5.238731063551738
 40
5.272290535138977
 40
5.363380529444838
 40
5.497618415781515
 40
5.660621563453757
 40
5.838007341749458
 40
6.01539311991081
 40
6.178396267038435
 40
6.312634151842387
 40
6.403724143059376
 40
6.437283612672472
 40
6.464036846261087
 40
6.5228939600047
 40
6.581751071483962
 40
6.608504301590907
 40
6.637253941281054
 40
6.711397748902906
 40
6.812778057283518
 40
6.923237199249295
 40
7.024617507623939
 40
7.098761315207591
 40
7.127510946007542
 40
7.127510946007542
 40
7.127510946007542
 40
7.127510946007542
 10
188.4418622390564
 20
0.9114726484920688
 10
188.4418622819707
 20
0.9000544978466286
 10
188.4418624481128
 20
0.858533942185714
 10
188.4418593081787
 20
0.7744505837971459
 10
188.44187882798
 20
0.6530263369827084
 10
188.4417912187737
 20
0.5127863042339043
 10
188.442111623523
 20
0.3730469317051874
 10
188.441160590974
 20
0.2504317527087122
 10
188.4431978595967
 20
0.1688521081398541
 10
188.4349433178746
 20
0.0156940345363751
 10
188.7430797940902
 20
0.1785837243066019
 10
189.0350645173736
 20
0.34781075063946
 10
189.0408354448709
 20
0.2127137215785338
 10
189.0455471719891
 20
0.1691535753638616
 10
189.0482535411918
 20
0.1250938572648738
 10
189.0672545672957
 20
-0.0242927326092528
 10
188.6583942247303
 20
0.0397930861720471
 10
188.3793710348833
 20
-0.0740552221304288
 10
188.1018081587166
 20
-0.1733776781291407
 10
187.8099837184402
 20
-0.1307117602770494
 10
187.7869144678658
 20
-0.233801838795182
 10
187.7537474383333
 20
-0.2601077237958986
 10
187.7480653962739
 20
-0.2124655458775581
 10
187.7284214559045
 20
-0.1752152750898797
 10
187.7095089485623
 20
-0.1169447577649753
 10
187.6942849867709
 20
-0.0731666261625247
 10
187.6477246372935
 20
0.0405755742224701
 10
187.9890897312451
 20
0.0087443749599205
 10
188.2679649367387
 20
-0.0254042851757797
 10
188.2617753034907
 20
0.1221211285559396
 10
188.2630935452773
 20
0.1931128728477407
 10
188.2624831689948
 20
0.300179043346037
 10
188.2625871570725
 20
0.4269666616193994
 10
188.2629987964055
 20
0.5614737987199245
 10
188.2613907841968
 20
0.6869368632712678
 10
188.2659902567925
 20
0.7980338309505971
 10
188.256418650221
 20
0.8606002317663126
 10
188.2704001783691
 20
0.9189352467094366
 10
188.2147384386705
 20
0.905878469581807
 10
188.1575655197821
 20
0.9143444412544147
 10
188.0616048925648
 20
0.9102811245657877
 10
187.963376752282
 20
0.9126902622841712
 10
187.867258245756
 20
0.9084973698933068
 10
187.8104648525812
 20
0.9172748281710557
 10
187.7550356873384
 20
0.9039307322606367
 10
187.7670679427917
 20
0.953350473351991
 10
187.7592003173937
 20
0.9969212440633786
 10
187.7666295563828
 20
1.041286054944671
 10
187.7551930564143
 20
1.092004341399325
 10
187.8232102370133
 20
1.074605971336854
 10
187.8968496879747
 20
1.087155866131299
 10
188.0325064058211
 20
1.080978133870394
 10
188.1884909024525
 20
1.083273394690254
 10
188.3615926358143
 20
1.08239104638472
 10
188.5346942964181
 20
1.083273435183498
 10
188.6906789811217
 20
1.080977993314917
 10
188.8263351889797
 20
1.087156226383731
 10
188.8999756705652
 20
1.07460530594277
 10
188.9679914174723
 20
1.092005093880844
 10
188.9565590885922
 20
1.041282667904972
 10
188.9639539458297
 20
0.9969519718705027
 10
188.9562039912271
 20
0.9532644392613849
 10
188.9681203741877
 20
0.9036172647441953
 10
188.9108170223617
 20
0.9175954771436825
 10
188.8520145789772
 20
0.9083789204919688
 10
188.7525293633199
 20
0.9125040454087197
 10
188.649428009835
 20
0.9112089640183012
 10
188.5537846354573
 20
0.9115221345358351
 10
188.4857467971617
 20
0.9114691307308791
 10
188.4514462213443
 20
0.9114718824759858
 10
188.4418622390564
 20
0.9114726484920688
 97
        1
330
A9
 75
     1
 76
     2
 52
45.0
 41
0.1
 77
     0
 78
     1
 53
45.0
 43
0.0
 44
0.0
 45
-0.282842712474619
 46
0.0
 79
     0
 98
        1
 10
0.0
 20
0.0
  0
HATCH
  5
C7
330
49
100
AcDbEntity
  8
1
  6
Continuous
 62
     2
100
AcDbHatch
 10
0.0
 20
0.0
 30
0.0
210
0.0
220
0.0
230
1.0
  2
CUSTOM8
 70
     0
 71
     1
 91
        1
 92
        1
 93
        1
 72
     4
 94
        3
 73
     0
 74
     0
 95
       91
 96
       87
 40
0.0
 40
0.0
 40
0.0
 40
0.0
 40
0.0345987051695434
 40
0.1258134969461085
 40
0.2547723404888703
 40
0.4026032099153841
 40
0.5504340793416704
 40
0.679392922883608
 40
0.770607714657132
 40
0.8052064287780925
 40
1.124852390615273
 40
1.427402236308861
 40
1.7063566274535
 40
1.955541417875175
 40
2.16948593856632
 40
2.344350786664772
 40
2.480568411561922
 40
2.590440557428944
 40
2.649189927151148
 40
2.749320643306351
 40
2.912632739880046
 40
3.147745656000243
 40
3.244827496385185
 40
3.338490056946723
 40
3.583815413207148
 40
3.761423943238508
 40
3.886956104362658
 40
3.985855451886864
 40
4.091766255337749
 40
4.250186473811942
 40
4.422734315084588
 40
4.628285684838666
 40
4.872093227758486
 40
5.152549652145604
 40
5.464967135837584
 40
5.803201477852501
 40
6.160362988813974
 40
6.193449448276029
 40
6.284170385501683
 40
6.419718138764553
 40
6.587285046385803
 40
6.774063446723718
 40
6.9672456781137
 40
7.154024078817686
 40
7.321590987026072
 40
7.45713874089043
 40
7.547859678556167
 40
7.580946138182727
 40
7.608533084714781
 40
7.669224367077764
 40
7.729915649429988
 40
7.757502595950044
 40
7.790278062553497
 40
7.880146277430995
 40
8.014419963180458
 40
8.180411842397959
 40
8.365434637679428
 40
8.55680107162273
 40
8.741823866830842
 40
8.907815745916352
 40
9.042089431507506
 40
9.131957646249631
 40
9.164733112797208
 40
9.415425063140132
 40
9.667986180958593
 40
9.69416980746276
 40
9.756607686047719
 40
9.831130315322525
 40
9.89356819389999
 40
9.919751820398806
 40
9.95096796469064
 40
9.996421631210751
 40
10.22087981037464
 40
10.44341866197552
 40
10.47847970788864
 40
10.57091337438762
 40
10.70159545461242
 40
10.85140174170367
 40
11.00120802880487
 40
11.1318901090739
 40
11.22432377583015
 40
11.25938480938964
 40
11.28697175596153
 40
11.34766303835927
 40
11.40835432042078
 40
11.43594125892113
 40
11.43594125892113
 40
11.43594125892113
 40
11.43594125892113
 10
190.081811433329
 20
1.50540931501018
 10
190.0702785844942
 20
1.505409266638562
 10
190.0283409444999
 20
1.505409100801052
 10
189.9434129719027
 20
1.505412621768494
 10
189.8207688553129
 20
1.505390628118194
 10
189.6791206916994
 20
1.505489375529949
 10
189.537975369849
 20
1.505128226083617
 10
189.4141351317905
 20
1.506200199850293
 10
189.3317217825382
 20
1.503903854672094
 10
189.1727791229692
 20
1.513467057493602
 10
189.3503402353376
 20
1.150835306873118
 10
189.3379739205453
 20
0.905412640990553
 10
189.4064519473865
 20
0.6216063770077689
 10
189.469302432097
 20
0.385491363149767
 10
189.5452253431728
 20
0.1862487677207117
 10
189.6303189577016
 20
0.0304348382731575
 10
189.7244607592935
 20
-0.0704400584266652
 10
189.8282648207727
 20
-0.1223601098509179
 10
189.9125872030774
 20
-0.0709537924444359
 10
189.9351322179452
 20
0.0444268041345951
 10
189.9745730975371
 20
0.1718328607832391
 10
189.9202919734942
 20
0.4892046446269694
 10
190.0451218072473
 20
0.3428031651684994
 10
190.2019291513603
 20
0.310934367071088
 10
190.0947720007057
 20
0.0771949414356939
 10
190.0808711209867
 20
-0.0872908704040038
 10
190.0234709467226
 20
-0.2157099450157799
 10
189.9335020145008
 20
-0.2868306127123031
 10
189.8095274657877
 20
-0.302695394818048
 10
189.663427319686
 20
-0.2670806606988635
 10
189.5243894320284
 20
-0.1470129312378156
 10
189.4102003962144
 20
0.0273381892626193
 10
189.3146141301486
 20
0.2524473948718347
 10
189.2318652572626
 20
0.5168638238238341
 10
189.1807179256412
 20
0.8348606947448496
 10
189.0770189207337
 20
1.108418648648531
 10
189.2042841208523
 20
1.51303954988808
 10
189.0357890623018
 20
1.504105042256194
 10
188.9511995787077
 20
1.50614097794304
 10
188.8189876387627
 20
1.505120737643471
 10
188.6560505094104
 20
1.5055136669437
 10
188.4733759170532
 20
1.505338326893097
 10
188.2847057373383
 20
1.505582416834092
 10
188.1014469020189
 20
1.504837942821772
 10
187.9404746832718
 20
1.507144968983666
 10
187.8029808335276
 20
1.500979412596032
 10
187.728959037231
 20
1.513309748341518
 10
187.6613215186856
 20
1.496274600994968
 10
187.673237371927
 20
1.548225748234689
 10
187.6655677285694
 20
1.593695613424704
 10
187.6732592225115
 20
1.63912590079647
 10
187.6613141797762
 20
1.691005323605123
 10
187.7283588305866
 20
1.674172798662062
 10
187.8017375665677
 20
1.686335454686126
 10
187.9379128305271
 20
1.680253674509007
 10
188.0973811801513
 20
1.682529706909997
 10
188.2789173085836
 20
1.681793703749043
 10
188.4658034862179
 20
1.682040905720755
 10
188.6468012316836
 20
1.681845371751952
 10
188.8080802578878
 20
1.682303710907811
 10
188.9393882124887
 20
1.681108101271478
 10
189.0225051322596
 20
1.683494836956846
 10
189.1556236547814
 20
1.675287421014055
 10
189.0645893502657
 20
1.930510053285965
 10
188.978963307442
 20
2.19462494704189
 10
189.0990589003455
 20
2.182025793451068
 10
189.1514264948544
 20
2.179923721390172
 10
189.2214497569715
 20
2.178335362655982
 10
189.2671922337817
 20
2.169007039140543
 10
189.3220812646934
 20
2.178441032913685
 10
189.296357478568
 20
2.130311650311147
 10
189.1825397571453
 20
2.135649661201092
 10
189.3159346621135
 20
1.90747310952718
 10
189.1943658735474
 20
1.674549929718649
 10
189.3223188769413
 20
1.683853952603806
 10
189.4049048406462
 20
1.680991381306221
 10
189.5307214850825
 20
1.682215737882444
 10
189.6741469838059
 20
1.682305682649064
 10
189.8157420951729
 20
1.680442995597953
 10
189.9459127249968
 20
1.686312123131042
 10
190.0193452286192
 20
1.673684771991456
 10
190.0891112922097
 20
1.69175699486355
 10
190.0775772605397
 20
1.63910986922268
 10
190.0833184346683
 20
1.595194540624886
 10
190.0816615770912
 20
1.5438811905249
 10
190.081775756167
 20
1.514569283975754
 10
190.081811433329
 20
1.50540931501018
 97
        1
330
AA
 75
     1
 76
     2
 52
45.0
 41
0.1
 77
     0
 78
     1
 53
45.0
 43
0.0
 44
0.0
 45
-0.282842712474619
 46
0.0
 79
     0
 98
        1
 10
0.0
 20
0.0
  0
HATCH
  5
C8
330
49
100
AcDbEntity
  8
1
  6
Continuous
 62
     2
100
AcDbHatch
 10
0.0
 20
0.0
 30
0.0
210
0.0
220
0.0
230
1.0
  2
CUSTOM9
 70
     0
 71
     1
 91
        1
 92
        1
 93
        1
 72
     4
 94
        3
 73
     0
 74
     0
 95
      118
 96
      114
 40
0.0
 40
0.0
 40
0.0
 40
0.0
 40
0.1054708162973412
 40
0.246609827005209
 40
0.3965912874591585
 40
0.5285525069754519
 40
0.6156245055642777
 40
0.6431434105798098
 40
0.703685003798696
 40
0.7642265984505535
 40
0.7917455052356015
 40
0.9287404319990711
 40
1.106572819088123
 40
1.287544879681153
 40
1.317578308030671
 40
1.399928030857307
 40
1.522968204800081
 40
1.675072986590704
 40
1.844616533180783
 40
2.019973001638846
 40
2.189516548880158
 40
2.341621331585495
 40
2.464661506320632
 40
2.547011229647196
 40
2.577044658168162
 40
2.603797890893232
 40
2.662655002908919
 40
2.721512114949731
 40
2.748265347702911
 40
2.774215307344987
 40
2.845959313407318
 40
2.954338556588517
 40
3.090194227585695
 40
3.244367517100659
 40
3.407699615844417
 40
3.571031714539567
 40
3.725205003920243
 40
3.861060674729744
 40
3.969439917716437
 40
4.041183923629109
 40
4.067133883213103
 40
4.311886746012289
 40
4.547897258335634
 40
4.764747083044074
 40
4.952749679951863
 40
5.045772974196016
 40
5.137862019645069
 40
5.330543169793089
 40
5.553448265244067
 40
5.795083855888246
 40
6.043293412177307
 40
6.285761695541233
 40
6.313902908752716
 40
6.384255941793306
 40
6.475714884766866
 40
6.5671738277589
 40
6.637526860839678
 40
6.665668074074013
 40
6.692018920327986
 40
6.749990782071061
 40
6.807962643790431
 40
6.834313490017906
 40
6.856393084245185
 40
6.913335195649808
 40
6.991194817302444
 40
7.076026942283705
 40
7.153886563725167
 40
7.210828674844721
 40
7.232908268931056
 40
7.258199334923578
 40
7.324875781592227
 40
7.419142481924886
 40
7.527204308841827
 40
7.635266135230404
 40
7.729532834168391
 40
7.796209279292713
 40
7.821500344594659
 40
7.844652988850729
 40
7.899863140541508
 40
7.965759128053674
 40
8.020969279770958
 40
8.044121924046424
 40
8.069356610160497
 40
8.109134395441298
 40
8.132238100191008
 40
8.193147867786372
 40
8.279261678876544
 40
8.377977512673759
 40
8.476693347146544
 40
8.562807160411596
 40
8.623716930826381
 40
8.646820636853333
 40
8.671988793774146
 40
8.734909185828085
 40
8.8167056951888
 40
8.898502204815399
 40
8.961422597377888
 40
8.986590754551
 40
9.012941600733157
 40
9.070913462380243
 40
9.12888532408174
 40
9.155236170325061
 40
9.180404327929104
 40
9.243324721948206
 40
9.325121234211998
 40
9.406917746637681
 40
9.469838141978165
 40
9.49500628827094
 40
9.517811184379081
 40
9.572192090487075
 40
9.6370983332813
 40
9.691479239515495
 40
9.714284125643532
 40
9.714284125643532
 40
9.714284125643532
 40
9.714284125643532
 10
185.2874469028653
 20
1.22187299563662
 10
185.3090990569038
 20
1.194100056187539
 10
185.3597257109474
 20
1.129161909371778
 10
185.4349383202592
 20
1.021891966888409
 10
185.5248482274347
 20
0.9067557464256757
 10
185.5709169676674
 20
0.8065518212426239
 10
185.6655825294656
 20
0.737321431908847
 10
185.6204439320414
 20
0.6906977605421488
 10
185.594704778579
 20
0.6495844524198082
 10
185.5645196708012
 20
0.6136410810388067
 10
185.5193684730561
 20
0.538779189720373
 10
185.4710504458563
 20
0.7608066062954705
 10
185.3968539713073
 20
0.7980881371365305
 10
185.2836047324607
 20
1.069083385065433
 10
185.2885133578169
 20
0.9539346482217055
 10
185.2868486556306
 20
0.8813481215756923
 10
185.2876830076713
 20
0.759237248599282
 10
185.2873609540265
 20
0.6121193718640241
 10
185.2875076912455
 20
0.4460520033249863
 10
185.2872950092722
 20
0.2748569098454376
 10
185.2879497252035
 20
0.1085096501143994
 10
185.2859192461139
 20
-0.0376669056836482
 10
185.291346039993
 20
-0.1623081614944744
 10
185.2804930868708
 20
-0.2298320708343163
 10
185.2956739155554
 20
-0.2915280220703617
 10
185.2457895108134
 20
-0.2797435972705643
 10
185.2017150342522
 20
-0.2875804084408907
 10
185.15823716302
 20
-0.2794142225135524
 10
185.1092346786488
 20
-0.2916380688559051
 10
185.1218731234825
 20
-0.2374119637474528
 10
185.1130182968449
 20
-0.1776494471650049
 10
185.1175058770314
 20
-0.0677983457968796
 10
185.1157960135991
 20
0.0632811178162011
 10
185.1163550915986
 20
0.2149614782026959
 10
185.1161928768693
 20
0.3750921130589504
 10
185.1162269924675
 20
0.5353500205050798
 10
185.1162514960127
 20
0.6866838389638144
 10
185.1161453543225
 20
0.8188029271454266
 10
185.1164299141931
 20
0.9259293890913505
 10
185.1158675547567
 20
0.9910675595541548
 10
185.118076508369
 20
1.11917094234617
 10
185.0319435998601
 20
0.7439574676751892
 10
184.9555140818501
 20
0.5921632949933597
 10
184.8660040767833
 20
0.4306434282224761
 10
184.7640413217327
 20
0.1576998519611506
 10
184.7187976491039
 20
0.320154829724491
 10
184.6102355941671
 20
0.4090356843406435
 10
184.7995791751753
 20
0.5584793133735098
 10
184.85653405457
 20
0.7504727335086918
 10
184.9717520993353
 20
0.9819775928269738
 10
184.9940151630134
 20
1.170953961350039
 10
185.1771905152138
 20
1.447522257018711
 10
185.0538033597552
 20
1.439971152080348
 10
184.9925684166834
 20
1.441549087420588
 10
184.9081999617064
 20
1.441807289496138
 10
184.8204235085967
 20
1.438429821271464
 10
184.7656768696123
 20
1.44692951357961
 10
184.7104703026026
 20
1.433466974257296
 10
184.7222823035536
 20
1.482295785027048
 10
184.7142496151794
 20
1.525671412726499
 10
184.7228186104679
 20
1.568075746855145
 10
184.7102943409157
 20
1.6156593292806
 10
184.7555101538736
 20
1.605653493710509
 10
184.8014815562724
 20
1.611922415500029
 10
184.8777222047711
 20
1.608916977818137
 10
184.9561296131994
 20
1.610685846544828
 10
185.0323992648933
 20
1.607629303576018
 10
185.0783009459474
 20
1.614021077521187
 10
185.12317339654
 20
1.603919593548381
 10
185.1105552275633
 20
1.654553379578401
 10
185.1191936582707
 20
1.707993982580115
 10
185.1152361595443
 20
1.80161391507622
 10
185.1162325068335
 20
1.904107430648656
 10
185.1171927413073
 20
2.00651406624105
 10
185.1133211458005
 20
2.100340659852629
 10
185.1217789814364
 20
2.153346792162949
 10
185.1093075932835
 20
2.2050957202713
 10
185.1542106389849
 20
2.191488836026987
 10
185.1955083836772
 20
2.193986166965271
 10
185.259534428105
 20
2.189461969504296
 10
185.2986111148787
 20
2.180791394192505
 10
185.3476543498741
 20
2.188132384466289
 10
185.3225080030591
 20
2.149010324276985
 10
185.2815901333723
 20
2.158619788317505
 10
185.2910109616604
 20
2.108382845457198
 10
185.2855647318746
 20
2.056840820154317
 10
185.2881699601804
 20
1.972578439604624
 10
185.2870102202153
 20
1.878572719593497
 10
185.2883591064231
 20
1.784950017714674
 10
185.2849970101509
 20
1.699776539281646
 10
185.2920959917769
 20
1.650149924479861
 10
185.2812569154545
 20
1.602918313459305
 10
185.3304010225246
 20
1.614998113127941
 10
185.3794877630147
 20
1.607455297389529
 10
185.4573714280642
 20
1.609842067373745
 10
185.5350365172896
 20
1.611975182813561
 10
185.5845393931356
 20
1.604915282983967
 10
185.6344594750639
 20
1.616582883121555
 10
185.6223198516882
 20
1.568383717473343
 10
185.6305838229144
 20
1.525473561771767
 10
185.6223198650785
 20
1.482563382273257
 10
185.6344594549855
 20
1.434364251308055
 10
185.5845395158748
 20
1.446031708474519
 10
185.5350350651203
 20
1.438973388109867
 10
185.4573784382973
 20
1.441098016045442
 10
185.379464386576
 20
1.443515257417008
 10
185.3304500352717
 20
1.435899845704266
 10
185.2813246108942
 20
1.448060889335331
 10
185.2915559988572
 20
1.403711498000996
 10
185.2856677678053
 20
1.362235725788529
 10
185.2878788305569
 20
1.30213530691245
 10
185.2874109346146
 20
1.255239191388313
 10
185.2874386992913
 20
1.22948282794139
 10
185.2874469028653
 20
1.22187299563662
 97
        1
330
AB
 75
     1
 76
     2
 52
45.0
 41
0.1
 77
     0
 78
     1
 53
45.0
 43
0.0
 44
0.0
 45
-0.282842712474619
 46
0.0
 79
     0
 98
        1
 10
0.0
 20
0.0
  0
HATCH
  5
C9
330
49
100
AcDbEntity
  8
1
  6
Continuous
 62
     2
100
AcDbHatch
 10
0.0
 20
0.0
 30
0.0
210
0.0
220
0.0
230
1.0
  2
CUSTOM10
 70
     0
 71
     1
 91
        1
 92
        1
 93
        1
 72
     4
 94
        3
 73
     0
 74
     0
 95
       47
 96
       43
 40
0.0
 40
0.0
 40
0.0
 40
0.0
 40
0.2207912809957244
 40
0.4459404186303169
 40
0.4902387190459675
 40
0.5327473892722348
 40
0.574226045122596
 40
0.615543263056182
 40
0.656816406631617
 40
0.6982511618781664
 40
0.740766392931761
 40
0.78513667431754
 40
1.010288833836349
 40
1.231080507002202
 40
1.451765243652425
 40
1.676638205891714
 40
1.720461045359684
 40
1.830018144043549
 40
1.97244237235318
 40
2.114866600677547
 40
2.224423699395173
 40
2.268246538883413
 40
2.493628801207243
 40
2.715602830286635
 40
2.934211330706403
 40
3.149502369855401
 40
3.231387784850962
 40
3.318231873853997
 40
3.40514319819807
 40
3.486970301720508
 40
3.702258172493957
 40
3.920866283534199
 40
4.142839325931986
 40
4.368221903865445
 40
4.412044743359925
 40
4.521601842095937
 40
4.664026070452419
 40
4.806450298809127
 40
4.916007397546821
 40
4.959830237043144
 40
5.184703515847179
 40
5.405387250767554
 40
5.405387250767554
 40
5.405387250767554
 40
5.405387250767554
 10
182.6507427258645
 20
1.687045773298138
 10
182.6568139420002
 20
1.750566188771521
 10
182.6690762107241
 20
1.878860750655689
 10
182.5604706879413
 20
2.154643565500212
 10
182.6761985896603
 20
2.124862698079959
 10
182.7171842509016
 20
2.120636926387627
 10
182.7591205797518
 20
2.116085827655481
 10
182.8004196625711
 20
2.115001193054269
 10
182.8417032115556
 20
2.116084745711693
 10
182.8836148270647
 20
2.120642490872852
 10
182.924598354902
 20
2.124855665856708
 10
183.0404922843488
 20
2.154757476934778
 10
182.9295652727457
 20
1.876379429858303
 10
182.9574856365267
 20
1.695812772008949
 10
182.940426734697
 20
1.462591787224132
 10
182.9414637282103
 20
1.302047589190877
 10
182.9414099399405
 20
1.175829539346635
 10
182.9414277372481
 20
1.077270997121831
 10
182.941418858108
 20
0.9457883881890468
 10
182.9414263928034
 20
0.8143098134459166
 10
182.9414129405128
 20
0.7157435907003223
 10
182.9414531717492
 20
0.5893787200009405
 10
182.9406746403818
 20
0.427802051988124
 10
182.9565958319266
 20
0.1965995826885579
 10
182.9333468885409
 20
0.0117248834794533
 10
183.0360183444365
 20
-0.2576626085400401
 10
182.8820238362837
 20
-0.2204175093824015
 10
182.8004129802833
 20
-0.225638689435234
 10
182.7188192292583
 20
-0.2204124324570579
 10
182.5648513666842
 20
-0.2576479373867462
 10
182.6674183421917
 20
0.0117326623882227
 10
182.6442045316087
 20
0.1965972170135669
 10
182.6600444655139
 20
0.4278035494158043
 10
182.6593296313429
 20
0.5893784868444522
 10
182.6593664569907
 20
0.7157436758646235
 10
182.6593549000272
 20
0.8143089301192341
 10
182.6593575019214
 20
0.9457926379316139
 10
182.659364853178
 20
1.077256844071413
 10
182.6593442541351
 20
1.175859226512675
 10
182.6594082192029
 20
1.301942857303689
 10
182.6581733947591
 20
1.465082277597133
 10
182.6532040396745
 20
1.613523201534915
 10
182.6507427258645
 20
1.687045773298138
 97
        1
330
AC
 75
     1
 76
     2
 52
45.0
 41
0.1
 77
     0
 78
     1
 53
45.0
 43
0.0
 44
0.0
 45
-0.282842712474619
 46
0.0
 79
     0
 98
        1
 10
0.0
 20
0.0
  0
HATCH
  5
CA
330
49
100
AcDbEntity
  8
1
  6
Continuous
 62
     2
100
AcDbHatch
 10
0.0
 20
0.0
 30
0.0
210
0.0
220
0.0
230
1.0
  2
CUSTOM11
 70
     0
 71
     1
 91
        1
 92
        1
 93
        1
 72
     4
 94
        3
 73
     0
 74
     0
 95
      110
 96
      106
 40
0.0
 40
0.0
 40
0.0
 40
0.0
 40
0.2203406257277706
 40
0.4407808782838139
 40
0.5952494494614553
 40
0.7488431659393125
 40
0.9023581831308543
 40
1.05680196867041
 40
1.210736449099825
 40
1.363041386539703
 40
1.515315729683075
 40
1.669377239148083
 40
1.721611652756576
 40
1.773199502942964
 40
1.824933793210013
 40
1.877110426487982
 40
1.982682281206773
 40
2.078781667087639
 40
2.172809640822332
 40
2.271937807378929
 40
2.378349933379407
 40
2.494131557736596
 40
2.626681683943729
 40
2.783145050796157
 40
2.89070123294101
 40
2.993130312454905
 40
3.09986973069189
 40
3.220237816691383
 40
3.352695482737674
 40
3.481732806389922
 40
3.593499473690454
 40
3.67432301333197
 40
3.817951711952863
 40
3.946167120793832
 40
4.061405053453545
 40
4.166480796003158
 40
4.262478775059252
 40
4.350736673551152
 40
4.433071991254037
 40
4.511216293814639
 40
4.564262454117952
 40
4.618474415571561
 40
4.670128488754162
 40
4.722296879126345
 40
4.819540945314214
 40
4.931194984128069
 40
5.049996040257683
 40
5.168643755415257
 40
5.283970811762469
 40
5.392260784910294
 40
5.486512254876341
 40
5.559178233949683
 40
5.591425852853352
 40
5.62621596963773
 40
5.667155838674271
 40
5.717449290214077
 40
5.738402360944691
 40
5.784499116553661
 40
5.830595872164636
 40
5.851548942897494
 40
5.87301928066161
 40
5.924217778408152
 40
5.98532566281753
 40
6.036524160567546
 40
6.057994498334075
 40
6.236847789607324
 40
6.381409928945501
 40
6.493190424178527
 40
6.574067534230339
 40
6.691018086205461
 40
6.81488155422035
 40
6.944307823240303
 40
7.071266716065927
 40
7.193488604461772
 40
7.309042773128085
 40
7.414007203170653
 40
7.505140441886381
 40
7.531150360599527
 40
7.559221645322117
 40
7.587202218920773
 40
7.612569159498987
 40
7.662550809480861
 40
7.702878875764005
 40
7.85732820523082
 40
8.010799568088466
 40
8.165256399657416
 40
8.322232698713755
 40
8.479564855016413
 40
8.63521623029056
 40
8.790882550925534
 40
8.948305154947043
 40
9.168271839032741
 40
9.387358980987004
 40
9.608047961033256
 40
9.832914234792455
 40
9.85833869496279
 40
9.925366817229797
 40
10.02013071422738
 40
10.12876249858977
 40
10.23739428295227
 40
10.33215817995169
 40
10.39918630222372
 40
10.42461076239761
 40
10.64992019336921
 40
10.87188524531167
 40
10.87188524531167
 40
10.87188524531167
 40
10.87188524531167
 10
179.9057788376619
 20
1.692213967741328
 10
179.9092864933542
 20
1.759145984497462
 10
179.9163033987662
 20
1.893040282918004
 10
179.8198027599074
 20
2.178466913474119
 10
180.0510134726109
 20
2.115825225662249
 10
180.1919290057156
 20
2.122996904319335
 10
180.3490417757589
 20
2.115340194541858
 10
180.5025913427287
 20
2.115508886589821
 10
180.6545104935081
 20
2.114801769113742
 10
180.8142214813232
 20
2.125082947275819
 10
180.9408972601118
 20
2.107946474566924
 10
181.1370821122081
 20
2.180253964830916
 10
181.1034395279079
 20
2.07938835456059
 10
181.1052011317185
 20
2.029173903236124
 10
181.1027342073459
 20
1.980104719624081
 10
181.1347076966011
 20
1.893616272229404
 10
181.0010399903256
 20
1.942955749842794
 10
180.9172208688057
 20
1.937287706901094
 10
180.8173861139324
 20
1.947636530822394
 10
180.7186576720146
 20
1.953845867870293
 10
180.612153277111
 20
1.95995900192719
 10
180.491051169806
 20
1.96887019860529
 10
180.3703381502453
 20
1.95819742288325
 10
180.1812553843437
 20
2.01766639456309
 10
180.2129028505312
 20
1.858564564534816
 10
180.1995563316833
 20
1.761372647158466
 10
180.1974958426451
 20
1.649322014860449
 10
180.1958188044672
 20
1.529978220052926
 10
180.1973336794234
 20
1.40330728531052
 10
180.195658247867
 20
1.275997243920587
 10
180.2058844271658
 20
1.17749702780406
 10
180.1779006596583
 20
1.036868390015739
 10
180.3508029999305
 20
1.092876875100361
 10
180.4645020202773
 20
1.080180878544399
 10
180.5840151672239
 20
1.087465134271964
 10
180.6888491425072
 20
1.091761534326976
 10
180.7843084898612
 20
1.096287046349178
 10
180.8763823507032
 20
1.104473375221433
 10
180.9476551782439
 20
1.099419870140522
 10
181.0544931705684
 20
1.13834561407616
 10
181.0226603598037
 20
1.05815258381821
 10
181.0266164503931
 20
1.008610732219755
 10
181.0234502392013
 20
0.958556144157617
 10
181.0550791490583
 20
0.8742698398796447
 10
180.9210133677692
 20
0.9272350187109987
 10
180.82923227932
 20
0.9183821726638273
 10
180.7079729189603
 20
0.9286818634109655
 10
180.5914113119772
 20
0.930470481434439
 10
180.4783375745879
 20
0.9308515348563702
 10
180.3679246308471
 20
0.9371358584811966
 10
180.2898124067841
 20
0.9248726963130676
 10
180.1913625833644
 20
0.9575202399206583
 10
180.2012355173562
 20
0.9006788443014775
 10
180.1973923244402
 20
0.8669026693392641
 10
180.196678988427
 20
0.8241774108535309
 10
180.1963369642976
 20
0.7869974363809559
 10
180.1963834255346
 20
0.7478537374671306
 10
180.1963649429928
 20
0.7101498587362794
 10
180.1963703431808
 20
0.6724309160834461
 10
180.1963697214202
 20
0.6429246112109157
 10
180.1963698151546
 20
0.6117171407524278
 10
180.1963704287922
 20
0.5671256128402666
 10
180.1963671499338
 20
0.5126209288479285
 10
180.1963759623482
 20
0.4680367657738964
 10
180.1963359653418
 20
0.3841594496168205
 10
180.1976024270257
 20
0.2703565705362017
 10
180.1950274117841
 20
0.1212853230965107
 10
180.206500938172
 20
0.0189534018984746
 10
180.1823506222263
 20
-0.113629597382254
 10
180.3332993946476
 20
-0.0680613135203718
 10
180.4428436671556
 20
-0.0827485146170871
 10
180.573397047392
 20
-0.0778142849899534
 10
180.6990312209514
 20
-0.0744415830069561
 10
180.8188730625602
 20
-0.0699036612528558
 10
180.9391362611426
 20
-0.0565332744205157
 10
181.0222761663517
 20
-0.06633150841462
 10
181.1456080421073
 20
-0.0057564900073774
 10
181.1244269203957
 20
-0.0616940349003857
 10
181.1235950270116
 20
-0.0876261425171137
 10
181.1218963707558
 20
-0.1150460743311922
 10
181.1217974888829
 20
-0.1496366841767284
 10
181.1203659301329
 20
-0.1865145540329069
 10
181.153280419219
 20
-0.2785502260225305
 10
180.9551306988107
 20
-0.2056984764922543
 10
180.8300548294891
 20
-0.2287613711545179
 10
180.6673071295156
 20
-0.2224784163827154
 10
180.5129366450001
 20
-0.2244091971413144
 10
180.3566670436944
 20
-0.2230810102478958
 10
180.1970544465282
 20
-0.2264199113619541
 10
180.0540326342237
 20
-0.2143606789581621
 10
179.819714488163
 20
-0.2774986164714032
 10
179.9173810751197
 20
0.0091866384225968
 10
179.900686878006
 20
0.2028644451860139
 10
179.9146296709684
 20
0.4314637925623669
 10
179.9142987846632
 20
0.5868273033098936
 10
179.9143078119263
 20
0.6926447282006758
 10
179.9143055876316
 20
0.7550392050015602
 10
179.9143065551888
 20
0.8451856162426828
 10
179.9143065473262
 20
0.9491930353337981
 10
179.9143053861102
 20
1.053202677512379
 10
179.9143090971503
 20
1.143343800647094
 10
179.9143011051051
 20
1.205749394731569
 10
179.9143334275019
 20
1.311669723370606
 10
179.913144078832
 20
1.469248529206821
 10
179.9082216489257
 20
1.618263561980078
 10
179.9057788376619
 20
1.692213967741328
 97
        1
330
AD
 75
     1
 76
     2
 52
45.0
 41
0.1
 77
     0
 78
     1
 53
45.0
 43
0.0
 44
0.0
 45
-0.282842712474619
 46
0.0
 79
     0
 98
        1
 10
0.0
 20
0.0
  0
HATCH
  5
CB
330
49
100
AcDbEntity
  8
1
  6
Continuous
 62
     2
100
AcDbHatch
 10
0.0
 20
0.0
 30
0.0
210
0.0
220
0.0
230
1.0
  2
CUSTOM12
 70
     0
 71
     1
 91
        1
 92
        1
 93
        1
 72
     4
 94
        3
 73
     0
 74
     0
 95
       95
 96
       91
 40
0.0
 40
0.0
 40
0.0
 40
0.0
 40
0.6550406656911113
 40
1.308087289031873
 40
1.420803739835742
 40
1.566130759770737
 40
1.757067341888406
 40
2.006513545026408
 40
2.087328263121503
 40
2.185328872295578
 40
2.294612454748311
 40
2.40893638053476
 40
2.526802767798509
 40
2.646360524615558
 40
2.762535723971526
 40
2.870057342870096
 40
2.966883448431589
 40
3.050803243518243
 40
3.115818222436554
 40
3.156030057150207
 40
3.213914225080195
 40
3.276689026450596
 40
3.342960320981316
 40
3.404230667150623
 40
3.453822809493454
 40
3.53249982718849
 40
3.634775188507241
 40
3.754909333008237
 40
3.88973676166074
 40
4.035769602175308
 40
4.187256681197698
 40
4.338733685676035
 40
4.4884787346762
 40
4.634708317831663
 40
4.771493189921351
 40
4.89268657156129
 40
5.199775528944527
 40
5.460353566929714
 40
5.667603142345593
 40
5.814722905404572
 40
5.828990806219899
 40
5.855488336304624
 40
5.869756237118985
 40
6.18979650776297
 40
6.531890469873119
 40
6.883053637017108
 40
7.230512024911583
 40
7.566966656764725
 40
7.885203559707517
 40
8.172887439719338
 40
8.41801159406293
 40
8.443926721190852
 40
8.51076047061334
 40
8.602145393795848
 40
8.701714041647286
 40
8.793098965075519
 40
8.859932715058092
 40
8.88584784260374
 40
9.24230125661296
 40
9.58927545501691
 40
9.92180854316432
 40
10.23479624298483
 40
10.29968150889194
 40
10.35323493887782
 40
10.4015462535517
 40
10.46482922477851
 40
10.55973900668434
 40
10.69239545985645
 40
10.84920353475699
 40
11.01626328594807
 40
11.18672024367472
 40
11.35372582577239
 40
11.50257442292455
 40
11.61866495023319
 40
11.71329869152903
 40
11.82511050573936
 40
11.94464880845744
 40
12.06929242642534
 40
12.19707290435204
 40
12.32562632860557
 40
12.45034565331308
 40
12.56646595170356
 40
12.67099007414664
 40
12.76077625936811
 40
12.82703233506723
 40
12.87429132786021
 40
12.89831990323361
 40
12.92234847860049
 40
13.53984767410355
 40
14.182942843594
 40
14.182942843594
 40
14.182942843594
 40
14.182942843594
 10
177.3067935648021
 20
0.6619617457766687
 10
177.1752019758551
 20
0.7756319497917457
 10
176.9124193802729
 20
1.002626326921011
 10
176.3997393441022
 20
1.845125993322284
 10
176.4106654595363
 20
1.487215139529619
 10
176.4041226527991
 20
1.345655286480753
 10
176.4028026631773
 20
1.147194416752231
 10
176.4018117602537
 20
0.9744843242192444
 10
176.4024101751975
 20
0.8316350963352133
 10
176.4038994301884
 20
0.7356314178929984
 10
176.4055683588473
 20
0.6284363963908317
 10
176.4071934954618
 20
0.5146234789352396
 10
176.4092429501686
 20
0.3973970898053062
 10
176.4123165501928
 20
0.2795454760891181
 10
176.4156339697043
 20
0.1652622369656251
 10
176.419360534028
 20
0.0581953824321901
 10
176.4217338161424
 20
-0.0369445485713622
 10
176.4278718888357
 20
-0.1214330641836289
 10
176.4239784495947
 20
-0.1777877632591702
 10
176.4455230443078
 20
-0.2487684115170664
 10
176.3680940058618
 20
-0.2179918601957417
 10
176.3116353240191
 20
-0.2269062110644348
 10
176.2540495896807
 20
-0.2180564522578298
 10
176.1690163478472
 20
-0.2496363839811638
 10
176.2009714146383
 20
-0.1660670763186989
 10
176.1990705282539
 20
-0.0981925465574833
 10
176.21079600473
 20
0.0053139314035911
 10
176.2164241053
 20
0.1230026199263713
 10
176.2237902178941
 20
0.2568674554036526
 10
176.2320759701612
 20
0.4006228924857375
 10
176.2398851897428
 20
0.550121592193867
 10
176.2457571222658
 20
0.7009068577802016
 10
176.2503667817969
 20
0.8499808025437963
 10
176.2542632117542
 20
0.9942104953896422
 10
176.2570715126564
 20
1.128820415889591
 10
176.2576698755024
 20
1.317677507232965
 10
176.261602386715
 20
1.542736306890955
 10
176.24421753785
 20
1.816652275016495
 10
176.2850417342582
 20
1.980852484745389
 10
176.1995153256003
 20
2.180477978410387
 10
176.2660558907688
 20
2.176835947799203
 10
176.2838724273231
 20
2.177115835367961
 10
176.4056801797501
 20
2.179310637745529
 10
176.5080770335464
 20
1.89973255097459
 10
176.7580021509356
 20
1.698611449119415
 10
176.9870035331111
 20
1.430907513638596
 10
177.2245151213108
 20
1.179445502383151
 10
177.4486090740772
 20
0.9426811043730489
 10
177.6750716283009
 20
0.685168289590189
 10
177.8325687886515
 20
0.5694747143286241
 10
178.0472129612674
 20
0.232952889147344
 10
178.042264597462
 20
0.3576289046754535
 10
178.0433931602548
 20
0.4162582831167891
 10
178.0428877841517
 20
0.5034179874791882
 10
178.0430475158114
 20
0.5971427955881401
 10
178.0430054891319
 20
0.6831710767297686
 10
178.0430202040373
 20
0.7445202832143715
 10
178.0429706255985
 20
0.894333678969351
 10
178.0458811522811
 20
1.132877488860461
 10
178.0259521041161
 20
1.497846462446432
 10
178.0750433936247
 20
1.760977683693537
 10
177.9177951509181
 20
2.172270413236963
 10
178.0762112872421
 20
2.116964189276901
 10
178.1311680478628
 20
2.114978228761168
 10
178.182788776674
 20
2.11562914624194
 10
178.2713198965367
 20
2.1566766411419
 10
178.2204898303168
 20
2.009944629989301
 10
178.2313389930283
 20
1.903181083303751
 10
178.2166036994847
 20
1.743838417900548
 10
178.2099976446205
 20
1.581511980288161
 10
178.2014961399914
 20
1.412906582683374
 10
178.19432272022
 20
1.251129510794823
 10
178.1889063215389
 20
1.107204678338743
 10
178.1871713967648
 20
0.9873562984286677
 10
178.1875440672319
 20
0.8798423796645654
 10
178.1873656126263
 20
0.7711816102152772
 10
178.1877010863139
 20
0.6525170654147228
 10
178.1890040622184
 20
0.5285329988868309
 10
178.1908887351574
 20
0.4015643054704666
 10
178.192500445485
 20
0.274519979269735
 10
178.194140313743
 20
0.1515302086811905
 10
178.1962570745752
 20
0.0359906775970073
 10
178.1963848422364
 20
-0.0661095966822131
 10
178.2006514396555
 20
-0.1569201478590189
 10
178.190844008529
 20
-0.2148824241527208
 10
178.211847477169
 20
-0.2818473349202948
 10
178.1725639739897
 20
-0.2741070965737049
 10
177.9595307117752
 20
-0.2894660947886536
 10
177.7636297943183
 20
0.267011944704084
 10
177.4611197631544
 20
0.5285417172445166
 10
177.3067935648021
 20
0.6619617457766687
 97
        1
330
AE
 75
     1
 76
     2
 52
45.0
 41
0.1
 77
     0
 78
     1
 53
45.0
 43
0.0
 44
0.0
 45
-0.282842712474619
 46
0.0
 79
     0
 98
        1
 10
0.0
 20
0.0
  0
HATCH
  5
CC
330
49
100
AcDbEntity
  8
1
  6
Continuous
 62
     2
100
AcDbHatch
 10
0.0
 20
0.0
 30
0.0
210
0.0
220
0.0
230
1.0
  2
CUSTOM13
 70
     0
 71
     1
 91
        2
 92
        1
 93
        1
 72
     4
 94
        3
 73
     0
 74
     0
 95
       57
 96
       53
 40
0.0
 40
0.0
 40
0.0
 40
0.0
 40
0.0471632082808686
 40
0.0914861054632174
 40
0.135776251970241
 40
0.1826527001610704
 40
0.2295203288572613
 40
0.2737751972220783
 40
0.3181310461543093
 40
0.3652607198398553
 40
0.4571007286314479
 40
0.5671851029165436
 40
0.6894623283868438
 40
0.8181758272545814
 40
0.951008722927416
 40
1.085852229674072
 40
1.218126164475308
 40
1.343545131142399
 40
1.454537202956816
 40
1.567187607530825
 40
1.680710966642415
 40
1.794226869736722
 40
1.900009184247607
 40
2.004085860447887
 40
2.108162674451718
 40
2.214000150155319
 40
2.496038577352134
 40
2.762350745479262
 40
2.997275353279405
 40
3.185110082137754
 40
3.246407890063925
 40
3.312607550212713
 40
3.378877742711587
 40
3.440140399651471
 40
4.100501696006512
 40
4.75491308556358
 40
5.411331693423961
 40
6.077890432568744
 40
6.110575292671023
 40
6.143260152775803
 40
6.367989363395194
 40
6.610525374951593
 40
6.863389136467353
 40
7.119380025547631
 40
7.376036605091134
 40
7.631164770966325
 40
7.876722425456479
 40
8.104953735855991
 40
8.312916685924353
 40
8.497730294941341
 40
8.651018984313902
 40
8.764738853624635
 40
8.764738853624635
 40
8.764738853624635
 40
8.764738853624635
 10
174.7922649500513
 20
-0.2307512401113208
 10
174.7766616726931
 20
-0.2287563254498079
 10
174.7463947960302
 20
-0.2248866226375782
 10
174.7010994202253
 20
-0.2235987865678948
 10
174.6559553129349
 20
-0.2239318007000651
 10
174.60990171234
 20
-0.2238720494983343
 10
174.5640496172096
 20
-0.2237604997405661
 10
174.5183711648164
 20
-0.2242403016746694
 10
174.4750811541608
 20
-0.2224075400533572
 10
174.4039947951513
 20
-0.2465230680940403
 10
174.4057477261442
 20
-0.1251716964680349
 10
174.3586196370569
 20
-0.039756238728266
 10
174.3191478251762
 20
0.0778506572107668
 10
174.2706635532647
 20
0.1953088891638362
 10
174.2201017402522
 20
0.3170407213744957
 10
174.1718634610477
 20
0.4437410423840582
 10
174.1135232947596
 20
0.5523182416089647
 10
174.0980892667261
 20
0.7091879351035096
 10
173.9566586330635
 20
0.6767158292426385
 10
173.8508397414904
 20
0.6881102505812181
 10
173.7358569725222
 20
0.6869072789055688
 10
173.6253142252141
 20
0.6880508172334973
 10
173.5176583522783
 20
0.6871648641346798
 10
173.4121322529243
 20
0.6871473876646096
 10
173.3109192682012
 20
0.6801216884835631
 10
173.1266804827753
 20
0.7043399623581132
 10
173.1157393685411
 20
0.4003982749782685
 10
173.0087691634751
 20
0.1765131362933661
 10
172.9098148604347
 20
-0.0080654933155884
 10
172.9225090524007
 20
-0.2517165881985372
 10
172.8050091716398
 20
-0.2219381687085964
 10
172.7422055868309
 20
-0.22443774114454
 10
172.67858720934
 20
-0.2235778852125238
 10
172.3946014194073
 20
-0.2660382368212039
 10
173.0251638499382
 20
0.4538008882073119
 10
173.1087645289072
 20
0.9657467581166641
 10
173.4929252789339
 20
1.486518799259875
 10
173.4777208288565
 20
2.188177626291568
 10
173.7239265722697
 20
2.176437694571985
 10
173.8256346157561
 20
2.185231408287147
 10
173.8249752035818
 20
1.933577871062884
 10
173.9428317155829
 20
1.751161571098999
 10
174.0315515260485
 20
1.508618770388079
 10
174.1322292485259
 20
1.276381669060698
 10
174.2311142712243
 20
1.039727809428554
 10
174.3299676990669
 20
0.8075987554603407
 10
174.4256166390926
 20
0.5842035916473357
 10
174.5159904573271
 20
0.3757068542525546
 10
174.598994456819
 20
0.1860658490526559
 10
174.6726088582798
 20
0.0196124244403897
 10
174.7342815895546
 20
-0.1178416399795927
 10
174.7749458885604
 20
-0.1970262419402496
 10
174.7922649500513
 20
-0.2307512401113208
 97
        1
330
B0
 92
       16
 93
        1
 72
     4
 94
        3
 73
     0
 74
     0
 95
       25
 96
       21
 40
0.0
 40
0.0
 40
0.0
 40
0.0
 40
0.0911479969064538
 40
0.1858117896203816
 40
0.2804128399734209
 40
0.371588919071366
 40
0.4679080494217858
 40
0.5642683809229232
 40
0.6605683222644141
 40
0.756965301581026
 40
0.8561348172522728
 40
1.092615965104301
 40
1.374867658141894
 40
1.611348812011582
 40
1.71051832842524
 40
1.809403163726546
 40
2.045205463294068
 40
2.326646917622115
 40
2.562449217190586
 40
2.661334043833892
 40
2.661334043833892
 40
2.661334043833892
 40
2.661334043833892
 10
173.26837005672
 20
0.8391267457323508
 10
173.2987525917923
 20
0.8389621609049737
 10
173.3606895889112
 20
0.8386266506586455
 10
173.4541356960331
 20
0.8356719182794108
 10
173.5475095236357
 20
0.8327588925309267
 10
173.6417760753476
 20
0.8319233801935814
 10
173.7354964790967
 20
0.8329478103398895
 10
173.8352040303205
 20
0.8321511384691308
 10
173.9188949546312
 20
0.8421954661116117
 10
174.0637996315047
 20
0.8153275405010564
 10
173.9396132444801
 20
0.989636666559912
 10
173.8965867286283
 20
1.149498473820345
 10
173.7808922142209
 20
1.408165949261546
 10
173.7017565431257
 20
1.54529189237803
 10
173.6431576621817
 20
1.762351695100187
 10
173.586480393944
 20
1.545642705893681
 10
173.5052809900478
 20
1.406251488141811
 10
173.4063701281488
 20
1.157051057461351
 10
173.3253625094259
 20
0.9722396660201755
 10
173.2813683325839
 20
0.8694858323205958
 10
173.26837005672
 20
0.8391267457323508
 97
        1
330
AF
 75
     1
 76
     2
 52
45.0
 41
0.1
 77
     0
 78
     1
 53
45.0
 43
0.0
 44
0.0
 45
-0.282842712474619
 46
0.0
 79
     0
 98
        1
 10
0.0
 20
0.0
  0
HATCH
  5
CD
330
49
100
AcDbEntity
  8
1
  6
Continuous
 62
     2
100
AcDbHatch
 10
0.0
 20
0.0
 30
0.0
210
0.0
220
0.0
230
1.0
  2
CUSTOM14
 70
     0
 71
     1
 91
        1
 92
        1
 93
        1
 72
     4
 94
        3
 73
     0
 74
     0
 95
       99
 96
       95
 40
0.0
 40
0.0
 40
0.0
 40
0.0
 40
0.0796417172272851
 40
0.162176854235596
 40
0.2486489160957595
 40
0.3404969668524566
 40
0.4381912511165129
 40
0.5434463660244868
 40
0.6518115192847187
 40
0.7530190937887574
 40
0.8492196919725621
 40
0.9419290312998857
 40
1.034249663570056
 40
1.129078600620246
 40
1.22669702757327
 40
1.327220425421732
 40
1.470572134938042
 40
1.595489863371201
 40
1.719934125348447
 40
1.850576620127492
 40
1.98905962998738
 40
2.134139054226999
 40
2.280698007207259
 40
2.424529739039476
 40
2.565929576985864
 40
2.708239260773597
 40
2.861717887443715
 40
3.045168540347425
 40
3.183798301138671
 40
3.314813961455515
 40
3.442083470447364
 40
3.569912708373023
 40
3.702177512509423
 40
3.842307559659665
 40
3.992872223246042
 40
4.156750662218375
 40
4.310981861107597
 40
4.445859909322642
 40
4.572393936131635
 40
4.701656719782104
 40
4.768279086008586
 40
4.835960697898528
 40
4.912788918729465
 40
5.006285208481681
 40
5.026909478751757
 40
5.047533749021322
 40
5.101808031471374
 40
5.162325165538676
 40
5.226919745995997
 40
5.294231806596869
 40
5.364544852554994
 40
5.438319055467993
 40
5.517877651324328
 40
5.607647714861725
 40
5.700449642544571
 40
5.788251142364302
 40
5.872714706039882
 40
5.955167292575443
 40
6.037192395190493
 40
6.120669181469216
 40
6.206848616686479
 40
6.296680855416892
 40
6.442558392872719
 40
6.568190371608407
 40
6.692904567360511
 40
6.824220446557264
 40
6.9631218503295
 40
7.107843738851289
 40
7.253431663907426
 40
7.395187468036901
 40
7.533140753237887
 40
7.670550457175432
 40
7.816236511769437
 40
7.987691657359394
 40
8.142277421969421
 40
8.293662615415197
 40
8.442962460879452
 40
8.591598316185443
 40
8.743678992361964
 40
8.903725323699375
 40
9.076307008890694
 40
9.265578604680693
 40
9.459203795360924
 40
9.617619810273737
 40
9.75360967136207
 40
9.874873300004195
 40
9.954520184977868
 40
10.02416413719254
 40
10.09769764405454
 40
10.18909955924981
 40
10.20974586420142
 40
10.23039218263388
 40
10.30057101881274
 40
10.37632012987554
 40
10.37632012987554
 40
10.37632012987554
 40
10.37632012987554
 10
170.1465954835851
 20
0.0909379959193579
 10
170.1632217851219
 20
0.0701874522125493
 10
170.1970784206578
 20
0.0279324808784674
 10
170.2599822541036
 20
-0.0267205223198835
 10
170.3332500940393
 20
-0.0740283850300682
 10
170.4175969238636
 20
-0.1117463218612499
 10
170.513224061546
 20
-0.1366124389210492
 10
170.6171853775346
 20
-0.1439230427812182
 10
170.7224020220405
 20
-0.1355954083000342
 10
170.8206626371335
 20
-0.10552683972533
 10
170.9058986427548
 20
-0.0585304065217914
 10
170.9779220206104
 20
0.0025112762679503
 10
171.0350917709095
 20
0.0771110595453033
 10
171.0767868747441
 20
0.1630060103611141
 10
171.1026952846292
 20
0.257839868081546
 10
171.1118037332653
 20
0.3715311541430824
 10
171.0986864796487
 20
0.4963072414671721
 10
171.0325330334416
 20
0.6131285554784012
 10
170.9369370919569
 20
0.6981067595331283
 10
170.8249681022369
 20
0.7671482083510388
 10
170.699365958327
 20
0.8250227842183279
 10
170.5656691620856
 20
0.876718596602829
 10
170.4313122818831
 20
0.9319722877312226
 10
170.3051983986877
 20
1.002379070175935
 10
170.1926579987536
 20
1.090836771071915
 10
170.0969963064458
 20
1.202792042444122
 10
170.0334157151826
 20
1.35248046477325
 10
170.0200706505015
 20
1.512309307610836
 10
170.0320510987448
 20
1.66346541682787
 10
170.0712298928841
 20
1.791073809674806
 10
170.135498775091
 20
1.903790104067864
 10
170.223820499974
 20
1.999467456446278
 10
170.3338091207627
 20
2.076523513616977
 10
170.4632284401266
 20
2.134495333122165
 10
170.6111838967793
 20
2.170373139647644
 10
170.7682069455487
 20
2.180448554265062
 10
170.917494046643
 20
2.171617741385318
 10
171.0596253614169
 20
2.14373035716295
 10
171.1595922609626
 20
2.087114510770772
 10
171.3125074736186
 20
2.039727384814513
 10
171.2455131717169
 20
1.954956893771267
 10
171.229647912027
 20
1.887370382494262
 10
171.1978750531298
 20
1.822242291691321
 10
171.215020220957
 20
1.720215896328949
 10
171.1666427208231
 20
1.727913480578444
 10
171.1315789440766
 20
1.721049081007497
 10
171.1296697985719
 20
1.785619675341408
 10
171.0985692931989
 20
1.831237759973354
 10
171.0664551628455
 20
1.888591730043968
 10
171.0208038475168
 20
1.938385990684997
 10
170.9658508218387
 20
1.982929500949356
 10
170.9010841173009
 20
2.020621252124937
 10
170.8232377310597
 20
2.045815121672947
 10
170.7355160553352
 20
2.052293673740524
 10
170.6452903277807
 20
2.045338456615486
 10
170.5594594694064
 20
2.022073268368644
 10
170.4828343638596
 20
1.984297804834831
 10
170.4165265636201
 20
1.933497774655191
 10
170.3622560536964
 20
1.870292797831509
 10
170.322492534546
 20
1.795745920863068
 10
170.2976775510587
 20
1.712154503737068
 10
170.289212426287
 20
1.604910847582267
 10
170.3019697987104
 20
1.482635936435014
 10
170.3681548409273
 20
1.364478606671525
 10
170.4640977399832
 20
1.279044620854712
 10
170.5757914963182
 20
1.208814986826627
 10
170.7010863668702
 20
1.149572986812461
 10
170.8349823941447
 20
1.099148444620726
 10
170.968993033315
 20
1.04620653360323
 10
171.0950885316915
 20
0.980483070011217
 10
171.2076216638417
 20
0.8977848891325719
 10
171.3031370284233
 20
0.7929414268601971
 10
171.3672706486963
 20
0.6523525362751023
 10
171.3811103725278
 20
0.4936354582753417
 10
171.367395471223
 20
0.33451291593817
 10
171.3244739153984
 20
0.1878196519515191
 10
171.2545906329066
 20
0.0541793296308685
 10
171.157459221383
 20
-0.061694759247708
 10
171.0347806023657
 20
-0.1561188185396902
 10
170.8874408413168
 20
-0.2252259297207616
 10
170.7177132497125
 20
-0.2674865276520481
 10
170.5317404979597
 20
-0.2792012739365123
 10
170.3528955926183
 20
-0.2689237694062108
 10
170.1881733753744
 20
-0.2273528985490571
 10
170.0834410841056
 20
-0.1590422074011779
 10
169.9350960790367
 20
-0.1102664459195191
 10
169.9980378194729
 20
-0.0172527233321553
 10
170.0072274430059
 20
0.0559467262422212
 10
170.0303711301233
 20
0.1223443087728725
 10
170.0034588335316
 20
0.2227294590352198
 10
170.0521338956339
 20
0.2153216989332034
 10
170.0916530580697
 20
0.2219219999683641
 10
170.0996204944703
 20
0.1437683959487351
 10
170.1305436967922
 20
0.108990637517981
 10
170.1465954835851
 20
0.0909379959193579
 97
        1
330
B1
 75
     1
 76
     2
 52
45.0
 41
0.1
 77
     0
 78
     1
 53
45.0
 43
0.0
 44
0.0
 45
-0.282842712474619
 46
0.0
 79
     0
 98
        1
 10
0.0
 20
0.0
  0
ENDBLK
  5
4B
330
49
100
AcDbEntity
  8
0
100
AcDbBlockEnd
  0
BLOCK
  5
4E
330
4C
100
AcDbEntity
  8
0
100
AcDbBlockBegin
  2
開示A4枠
 70
     0
 10
0.0
 20
-14.04701863624058
 30
0.0
  3
開示A4枠
  1

  0
INSERT
  5
4D
330
4C
100
AcDbEntity
  8
1
100
AcDbBlockReference
  2
開示A4
 10
0.0
 20
-14.04701863624058
 30
0.0
  0
ENDBLK
  5
4F
330
4C
100
AcDbEntity
  8
0
100
AcDbBlockEnd
  0
BLOCK
  5
169
330
161
100
AcDbEntity
  8
0
100
AcDbBlockBegin
  2
*D3
 70
     1
 10
0.0
 20
0.0
 30
0.0
  3
*D3
  1

  0
LINE
  5
162
330
161
100
AcDbEntity
  8
1
  6
Continuous
 62
     2
100
AcDbLine
 10
149.4595568491801
 20
199.0482518073936
 30
0.0
 11
149.4595568491801
 21
175.5482518073936
 31
0.0
  0
LINE
  5
163
330
161
100
AcDbEntity
  8
1
  6
Continuous
 62
     2
100
AcDbLine
 10
149.4595568491801
 20
208.5161526042178
 30
0.0
 11
149.4595568491801
 21
199.0482518073936
 31
0.0
  0
LINE
  5
164
330
161
100
AcDbEntity
  8
1
  6
Continuous
 62
     2
100
AcDbLine
 10
144.5238940938984
 20
175.5482518073936
 30
0.0
 11
150.4595568491801
 21
175.5482518073936
 31
0.0
  0
LINE
  5
165
330
161
100
AcDbEntity
  8
1
  6
Continuous
 62
     2
100
AcDbLine
 10
144.5238940938984
 20
199.0482518073936
 30
0.0
 11
150.4595568491801
 21
199.0482518073936
 31
0.0
  0
SOLID
  5
166
330
161
100
AcDbEntity
  8
1
 62
     2
100
AcDbTrace
 10
149.920340590736
 20
195.5482518073936
 30
0.0
 11
148.9987731076242
 21
195.5482518073936
 31
0.0
 12
149.4595568491801
 22
199.0482518073936
 32
0.0
 13
149.4595568491801
 23
199.0482518073936
 33
0.0
  0
SOLID
  5
167
330
161
100
AcDbEntity
  8
1
 62
     2
100
AcDbTrace
 10
148.9987731076242
 20
179.0482518073936
 30
0.0
 11
149.920340590736
 21
179.0482518073936
 31
0.0
 12
149.4595568491801
 22
175.5482518073936
 32
0.0
 13
149.4595568491801
 23
175.5482518073936
 33
0.0
  0
MTEXT
  5
168
330
161
100
AcDbEntity
  8
1
 62
     7
100
AcDbMText
 10
148.4595568491801
 20
203.2661526042178
 30
0.0
 40
3.5
 41
0.0
 71
     7
 72
     1
  1
24
  7
CONVERTER_12
 11
0.0
 21
1.0
 31
0.0
 73
     1
 44
0.60024009603842
  0
ENDBLK
  5
16A
330
161
100
AcDbEntity
  8
0
100
AcDbBlockEnd
  0
BLOCK
  5
174
330
16D
100
AcDbEntity
  8
0
100
AcDbBlockBegin
  2
*D4
 70
     1
 10
0.0
 20
0.0
 30
0.0
  3
*D4
  1

  0
LINE
  5
16E
330
16D
100
AcDbEntity
  8
1
  6
Continuous
 62
     2
100
AcDbLine
 10
105.5238940938984
 20
76.29825180739351
 30
0.0
 11
105.5238940938984
 21
134.2982518073936
 31
0.0
  0
LINE
  5
16F
330
16D
100
AcDbEntity
  8
1
  6
Continuous
 62
     2
100
AcDbLine
 10
116.5238940938984
 20
134.2982518073936
 30
0.0
 11
104.5238940938984
 21
134.2982518073936
 31
0.0
  0
LINE
  5
170
330
16D
100
AcDbEntity
  8
1
  6
Continuous
 62
     2
100
AcDbLine
 10
116.5238940938984
 20
76.29825180739351
 30
0.0
 11
104.5238940938984
 21
76.29825180739351
 31
0.0
  0
SOLID
  5
171
330
16D
100
AcDbEntity
  8
1
 62
     2
100
AcDbTrace
 10
105.0631103523425
 20
79.79825180739351
 30
0.0
 11
105.9846778354543
 21
79.79825180739351
 31
0.0
 12
105.5238940938984
 22
76.29825180739351
 32
0.0
 13
105.5238940938984
 23
76.29825180739351
 33
0.0
  0
SOLID
  5
172
330
16D
100
AcDbEntity
  8
1
 62
     2
100
AcDbTrace
 10
105.9846778354543
 20
130.7982518073936
 30
0.0
 11
105.0631103523425
 21
130.7982518073936
 31
0.0
 12
105.5238940938984
 22
134.2982518073936
 32
0.0
 13
105.5238940938984
 23
134.2982518073936
 33
0.0
  0
MTEXT
  5
173
330
16D
100
AcDbEntity
  8
1
 62
     7
100
AcDbMText
 10
104.5238940938984
 20
101.9629431235328
 30
0.0
 40
3.5
 41
0.0
 71
     7
 72
     1
  1
\C7;{\Fgdt;n}\C7;58
  7
CONVERTER_12
 11
0.0
 21
1.0
 31
0.0
 73
     1
 44
0.60024009603842
  0
ENDBLK
  5
175
330
16D
100
AcDbEntity
  8
0
100
AcDbBlockEnd
  0
BLOCK
  5
17F
330
178
100
AcDbEntity
  8
0
100
AcDbBlockBegin
  2
*D5
 70
     1
 10
0.0
 20
0.0
 30
0.0
  3
*D5
  1

  0
LINE
  5
179
330
178
100
AcDbEntity
  8
1
  6
Continuous
 62
     2
100
AcDbLine
 10
187.1471374576915
 20
91.2982518073936
 30
0.0
 11
187.1471374576915
 21
119.2982518073936
 31
0.0
  0
LINE
  5
17A
330
178
100
AcDbEntity
  8
1
  6
Continuous
 62
     2
100
AcDbLine
 10
175.5238940938984
 20
119.2982518073936
 30
0.0
 11
188.1471374576915
 21
119.2982518073936
 31
0.0
  0
LINE
  5
17B
330
178
100
AcDbEntity
  8
1
  6
Continuous
 62
     2
100
AcDbLine
 10
175.5238940938984
 20
91.2982518073936
 30
0.0
 11
188.1471374576915
 21
91.2982518073936
 31
0.0
  0
SOLID
  5
17C
330
178
100
AcDbEntity
  8
1
 62
     2
100
AcDbTrace
 10
186.6863537161356
 20
94.7982518073936
 30
0.0
 11
187.6079211992474
 21
94.7982518073936
 31
0.0
 12
187.1471374576915
 22
91.2982518073936
 32
0.0
 13
187.1471374576915
 23
91.2982518073936
 33
0.0
  0
SOLID
  5
17D
330
178
100
AcDbEntity
  8
1
 62
     2
100
AcDbTrace
 10
187.6079211992474
 20
115.7982518073936
 30
0.0
 11
186.6863537161356
 21
115.7982518073936
 31
0.0
 12
187.1471374576915
 22
119.2982518073936
 32
0.0
 13
187.1471374576915
 23
119.2982518073936
 33
0.0
  0
MTEXT
  5
17E
330
178
100
AcDbEntity
  8
1
 62
     7
100
AcDbMText
 10
186.1471374576915
 20
102.2146515137108
 30
0.0
 40
3.5
 41
0.0
 71
     7
 72
     1
  1
\C7;{\Fgdt;n}\C7;28
  7
CONVERTER_12
 11
0.0
 21
1.0
 31
0.0
 73
     1
 44
0.60024009603842
  0
ENDBLK
  5
180
330
178
100
AcDbEntity
  8
0
100
AcDbBlockEnd
  0
BLOCK
  5
18C
330
183
100
AcDbEntity
  8
0
100
AcDbBlockBegin
  2
*D6
 70
     1
 10
0.0
 20
0.0
 30
0.0
  3
*D6
  1

  0
LINE
  5
184
330
183
100
AcDbEntity
  8
1
  6
Continuous
 62
     2
100
AcDbLine
 10
119.5238940938984
 20
145.2982518073936
 30
0.0
 11
126.5238940938984
 21
145.2982518073936
 31
0.0
  0
LINE
  5
185
330
183
100
AcDbEntity
  8
1
  6
Continuous
 62
     2
100
AcDbLine
 10
116.5238940938984
 20
145.2982518073936
 30
0.0
 11
119.5238940938984
 21
145.2982518073936
 31
0.0
  0
LINE
  5
186
330
183
100
AcDbEntity
  8
1
  6
Continuous
 62
     2
100
AcDbLine
 10
109.5238940938984
 20
145.2982518073936
 30
0.0
 11
116.5238940938984
 21
145.2982518073936
 31
0.0
  0
LINE
  5
187
330
183
100
AcDbEntity
  8
1
  6
Continuous
 62
     2
100
AcDbLine
 10
119.5238940938984
 20
134.2982518073936
 30
0.0
 11
119.5238940938984
 21
146.2982518073936
 31
0.0
  0
LINE
  5
188
330
183
100
AcDbEntity
  8
1
  6
Continuous
 62
     2
100
AcDbLine
 10
116.5238940938984
 20
134.2982518073936
 30
0.0
 11
116.5238940938984
 21
146.2982518073936
 31
0.0
  0
SOLID
  5
189
330
183
100
AcDbEntity
  8
1
 62
     2
100
AcDbTrace
 10
113.0238940938984
 20
144.8374680658377
 30
0.0
 11
113.0238940938984
 21
145.7590355489495
 31
0.0
 12
116.5238940938984
 22
145.2982518073936
 32
0.0
 13
116.5238940938984
 23
145.2982518073936
 33
0.0
  0
SOLID
  5
18A
330
183
100
AcDbEntity
  8
1
 62
     2
100
AcDbTrace
 10
123.0238940938984
 20
145.7590355489495
 30
0.0
 11
123.0238940938984
 21
144.8374680658377
 31
0.0
 12
119.5238940938984
 22
145.2982518073936
 32
0.0
 13
119.5238940938984
 23
145.2982518073936
 33
0.0
  0
MTEXT
  5
18B
330
183
100
AcDbEntity
  8
1
 62
     7
100
AcDbMText
 10
116.8186253109046
 20
146.2982518073936
 30
0.0
 40
3.5
 41
0.0
 71
     7
 72
     1
  1
3
  7
CONVERTER_12
 11
0.9999999999970619
 21
2.424068405545306E-6
 31
0.0
 73
     1
 44
0.60024009603842
  0
ENDBLK
  5
18D
330
183
100
AcDbEntity
  8
0
100
AcDbBlockEnd
  0
BLOCK
  5
197
330
190
100
AcDbEntity
  8
0
100
AcDbBlockBegin
  2
*D7
 70
     1
 10
0.0
 20
0.0
 30
0.0
  3
*D7
  1

  0
LINE
  5
191
330
190
100
AcDbEntity
  8
1
  6
Continuous
 62
     2
100
AcDbLine
 10
119.5238940938983
 20
145.2982518073936
 30
0.0
 11
176.5238940938983
 21
145.2982518073936
 31
0.0
  0
LINE
  5
192
330
190
100
AcDbEntity
  8
1
  6
Continuous
 62
     2
100
AcDbLine
 10
176.5238940938983
 20
118.2982518073936
 30
0.0
 11
176.5238940938983
 21
146.2982518073936
 31
0.0
  0
LINE
  5
193
330
190
100
AcDbEntity
  8
1
  6
Continuous
 62
     2
100
AcDbLine
 10
119.5238940938983
 20
134.2982518073936
 30
0.0
 11
119.5238940938983
 21
146.2982518073936
 31
0.0
  0
SOLID
  5
194
330
190
100
AcDbEntity
  8
1
 62
     2
100
AcDbTrace
 10
123.0238940938983
 20
145.7590355489495
 30
0.0
 11
123.0238940938983
 21
144.8374680658377
 31
0.0
 12
119.5238940938983
 22
145.2982518073936
 32
0.0
 13
119.5238940938983
 23
145.2982518073936
 33
0.0
  0
SOLID
  5
195
330
190
100
AcDbEntity
  8
1
 62
     2
100
AcDbTrace
 10
173.0238940938983
 20
144.8374680658377
 30
0.0
 11
173.0238940938983
 21
145.7590355489495
 31
0.0
 12
176.5238940938983
 22
145.2982518073936
 32
0.0
 13
176.5238940938983
 23
145.2982518073936
 33
0.0
  0
MTEXT
  5
196
330
190
100
AcDbEntity
  8
1
 62
     7
100
AcDbMText
 10
142.2042839683064
 20
146.2982518073936
 30
0.0
 40
3.5
 41
0.0
 71
     7
 72
     1
  1
57
  7
CONVERTER_12
 11
0.9999999999970619
 21
2.424068405545306E-6
 31
0.0
 73
     1
 44
0.60024009603842
  0
ENDBLK
  5
198
330
190
100
AcDbEntity
  8
0
100
AcDbBlockEnd
  0
BLOCK
  5
1A0
330
19B
100
AcDbEntity
  8
0
100
AcDbBlockBegin
  2
*D8
 70
     1
 10
0.0
 20
0.0
 30
0.0
  3
*D8
  1

  0
LINE
  5
19C
330
19B
100
AcDbEntity
  8
1
  6
Continuous
 62
     2
100
AcDbLine
 10
42.78711750009226
 20
84.20077669391576
 30
0.0
 11
90.18733124546105
 21
137.4298157849469
 31
0.0
  0
SOLID
  5
19D
330
19B
100
AcDbEntity
  8
1
 62
     2
100
AcDbTrace
 10
78.85359748634663
 20
125.3952404367243
 30
0.0
 11
79.54183631963305
 21
124.7823669307824
 31
0.0
 12
76.87009867632058
 22
122.4749572095171
 32
0.0
 13
76.87009867632058
 23
122.4749572095171
 33
0.0
  0
SOLID
  5
19E
330
19B
100
AcDbEntity
  8
1
 62
     2
100
AcDbTrace
 10
44.29504603007011
 20
85.2012631780629
 30
0.0
 11
43.6068071967837
 21
85.81413668400481
 31
0.0
 12
46.27854484009616
 22
88.12154640527007
 32
0.0
 13
46.27854484009616
 23
88.12154640527007
 33
0.0
  0
MTEXT
  5
19F
330
19B
100
AcDbEntity
  8
1
 62
     7
100
AcDbMText
 10
84.04044368123517
 20
132.0307257437672
 30
0.0
 40
3.5
 41
0.0
 71
     7
 72
     1
  1
\C7;{\Fgdt;n}\C7;46
  7
CONVERTER_12
 11
0.6650337790483608
 21
0.7468132783532012
 31
0.0
 73
     1
 44
0.60024009603842
  0
ENDBLK
  5
1A1
330
19B
100
AcDbEntity
  8
0
100
AcDbBlockEnd
  0
ENDSEC
  0
SECTION
  2
ENTITIES
  0
INSERT
  5
50
330
1F
100
AcDbEntity
  8
0
100
AcDbBlockReference
  2
開示A4枠
 10
0.0
 20
-14.04701863624058
 30
0.0
  0
LINE
  5
CE
330
1F
100
AcDbEntity
  8
1
  6
Continuous
 62
     7
100
AcDbLine
 10
116.5238940938984
 20
99.43746280733481
 30
0.0
 11
116.5238940938984
 21
76.29825180739351
 31
0.0
  0
LINE
  5
CF
330
1F
100
AcDbEntity
  8
1
  6
Continuous
 62
     7
100
AcDbLine
 10
129.0238940938984
 20
171.7982518073936
 30
0.0
 11
130.0238940938984
 21
172.7982518073936
 31
0.0
  0
LINE
  5
D0
330
1F
100
AcDbEntity
  8
1
  6
Continuous
 62
     7
100
AcDbLine
 10
129.0238940938984
 20
202.7982518073936
 30
0.0
 11
130.0238940938984
 21
201.7982518073936
 31
0.0
  0
LINE
  5
D1
330
1F
100
AcDbEntity
  8
1
  6
Continuous
 62
     7
100
AcDbLine
 10
130.0238940938984
 20
201.7982518073936
 30
0.0
 11
130.0238940938984
 21
198.0782518073936
 31
0.0
  0
LINE
  5
D2
330
1F
100
AcDbEntity
  8
1
  6
Continuous
 62
     7
100
AcDbLine
 10
142.5238940938984
 20
173.2982518073936
 30
0.0
 11
144.5238940938984
 21
175.5482518073936
 31
0.0
  0
LINE
  5
D3
330
1F
100
AcDbEntity
  8
1
  6
Continuous
 62
     7
100
AcDbLine
 10
142.5238940938984
 20
201.2982518073936
 30
0.0
 11
144.5238940938984
 21
199.0482518073936
 31
0.0
  0
LINE
  5
D4
330
1F
100
AcDbEntity
  8
1
  6
Continuous
 62
     7
100
AcDbLine
 10
120.5238940938984
 20
199.0482518073936
 30
0.0
 11
120.5238940938984
 21
175.5482518073936
 31
0.0
  0
LINE
  5
D5
330
1F
100
AcDbEntity
  8
1
  6
Continuous
 62
     7
100
AcDbLine
 10
159.5238940938984
 20
199.0482518073936
 30
0.0
 11
144.5238940938984
 21
199.0482518073936
 31
0.0
  0
LINE
  5
D6
330
1F
100
AcDbEntity
  8
1
  6
Continuous
 62
     7
100
AcDbLine
 10
120.5238940938984
 20
175.5482518073936
 30
0.0
 11
120.5238940938984
 21
158.2982518073935
 31
0.0
  0
LINE
  5
D7
330
1F
100
AcDbEntity
  8
1
  6
Continuous
 62
     7
100
AcDbLine
 10
159.5238940938984
 20
175.5482518073936
 30
0.0
 11
144.5238940938984
 21
175.5482518073936
 31
0.0
  0
LINE
  5
D8
330
1F
100
AcDbEntity
  8
1
  6
DASH_CENTER
 62
     2
100
AcDbLine
 10
113.5238940938984
 20
187.2982518073936
 30
0.0
 11
179.5238940938984
 21
187.2982518073936
 31
0.0
  0
LINE
  5
D9
330
1F
100
AcDbEntity
  8
1
  6
Continuous
 62
     7
100
AcDbLine
 10
120.5238940938984
 20
158.2982518073935
 30
0.0
 11
119.5238940938984
 21
158.2982518073935
 31
0.0
  0
LINE
  5
DA
330
1F
100
AcDbEntity
  8
1
  6
Continuous
 62
     7
100
AcDbLine
 10
120.5238940938984
 20
216.2982518073936
 30
0.0
 11
120.5238940938984
 21
158.2982518073935
 31
0.0
  0
LINE
  5
DB
330
1F
100
AcDbEntity
  8
1
  6
Continuous
 62
     7
100
AcDbLine
 10
119.5238940938984
 20
216.2982518073936
 30
0.0
 11
120.5238940938984
 21
216.2982518073936
 31
0.0
  0
LINE
  5
DC
330
1F
100
AcDbEntity
  8
1
  6
Continuous
 62
     7
100
AcDbLine
 10
120.5238940938984
 20
158.2982518073935
 30
0.0
 11
121.0238940938984
 21
158.2982518073935
 31
0.0
  0
LINE
  5
DD
330
1F
100
AcDbEntity
  8
1
  6
Continuous
 62
     7
100
AcDbLine
 10
120.5238940938984
 20
216.2982518073936
 30
0.0
 11
120.5238940938984
 21
199.0482518073936
 31
0.0
  0
LINE
  5
DE
330
1F
100
AcDbEntity
  8
1
  6
Continuous
 62
     7
100
AcDbLine
 10
121.0238940938984
 20
216.2982518073936
 30
0.0
 11
120.5238940938984
 21
216.2982518073936
 31
0.0
  0
LINE
  5
DF
330
1F
100
AcDbEntity
  8
LAY-3
  6
Continuous
 62
     7
100
AcDbLine
 10
129.0238940938984
 20
171.7982518073936
 30
0.0
 11
125.0238940938984
 21
171.7982518073936
 31
0.0
  0
LINE
  5
E0
330
1F
100
AcDbEntity
  8
LAY-3
  6
Continuous
 62
     7
100
AcDbLine
 10
129.0238940938984
 20
187.2982518073936
 30
0.0
 11
124.0238940938984
 21
187.2982518073936
 31
0.0
  0
LINE
  5
E1
330
1F
100
AcDbEntity
  8
LAY-3
  6
Continuous
 62
     7
100
AcDbLine
 10
125.0238940938984
 20
202.7982518073936
 30
0.0
 11
129.0238940938984
 21
202.7982518073936
 31
0.0
  0
LINE
  5
E2
330
1F
100
AcDbEntity
  8
1
  6
Continuous
 62
     7
100
AcDbLine
 10
124.0238940938984
 20
216.2982518073936
 30
0.0
 11
124.0238940938984
 21
158.2982518073935
 31
0.0
  0
LINE
  5
E3
330
1F
100
AcDbEntity
  8
1
  6
Continuous
 62
     7
100
AcDbLine
 10
121.0238940938984
 20
216.2982518073936
 30
0.0
 11
124.0238940938984
 21
216.2982518073936
 31
0.0
  0
LINE
  5
E4
330
1F
100
AcDbEntity
  8
1
  6
Continuous
 62
     7
100
AcDbLine
 10
121.0238940938984
 20
158.2982518073935
 30
0.0
 11
121.0238940938984
 21
216.2982518073936
 31
0.0
  0
LINE
  5
E5
330
1F
100
AcDbEntity
  8
1
  6
Continuous
 62
     7
100
AcDbLine
 10
124.0238940938984
 20
158.2982518073935
 30
0.0
 11
121.0238940938984
 21
158.2982518073935
 31
0.0
  0
LINE
  5
E6
330
1F
100
AcDbEntity
  8
1
  6
Continuous
 62
     7
100
AcDbLine
 10
130.0238940938984
 20
198.0782518073936
 30
0.0
 11
130.0238940938984
 21
172.7982518073936
 31
0.0
  0
LINE
  5
E7
330
1F
100
AcDbEntity
  8
1
  6
Continuous
 62
     7
100
AcDbLine
 10
119.5238940938984
 20
158.2982518073935
 30
0.0
 11
119.5238940938984
 21
216.2982518073936
 31
0.0
  0
LINE
  5
E8
330
1F
100
AcDbEntity
  8
1
  6
Continuous
 62
     7
100
AcDbLine
 10
119.5238940938984
 20
216.2982518073936
 30
0.0
 11
116.5238940938984
 21
216.2982518073936
 31
0.0
  0
LINE
  5
E9
330
1F
100
AcDbEntity
  8
1
  6
Continuous
 62
     7
100
AcDbLine
 10
116.5238940938984
 20
158.2982518073935
 30
0.0
 11
119.5238940938984
 21
158.2982518073935
 31
0.0
  0
LINE
  5
EA
330
1F
100
AcDbEntity
  8
1
  6
Continuous
 62
     7
100
AcDbLine
 10
116.5238940938984
 20
216.2982518073936
 30
0.0
 11
116.5238940938984
 21
158.2982518073935
 31
0.0
  0
LINE
  5
EB
330
1F
100
AcDbEntity
  8
1
  6
DASH_CENTER
 62
     2
100
AcDbLine
 10
61.57432175820836
 20
74.29825180739363
 30
0.0
 11
61.5743217582084
 21
136.2982518073936
 31
0.0
  0
LINE
  5
EC
330
1F
100
AcDbEntity
  8
1
  6
Continuous
 62
     7
100
AcDbLine
 10
120.5238940938984
 20
103.2684734943752
 30
0.0
 11
120.5238940938984
 21
97.68658313357452
 31
0.0
  0
LINE
  5
ED
330
1F
100
AcDbEntity
  8
1
  6
Continuous
 62
     2
100
AcDbLine
 10
144.5238940938984
 20
97.68658313357452
 30
0.0
 11
154.0238940938984
 21
107.328030120412
 31
0.0
  0
LINE
  5
EE
330
1F
100
AcDbEntity
  8
1
  6
Continuous
 62
     7
100
AcDbLine
 10
120.5238940938984
 20
107.328030120412
 30
0.0
 11
120.5238940938984
 21
103.2684734943752
 31
0.0
  0
LINE
  5
EF
330
1F
100
AcDbEntity
  8
1
  6
Continuous
 62
     2
100
AcDbLine
 10
144.5238940938984
 20
112.9099204812127
 30
0.0
 11
154.0238940938984
 21
103.2684734943752
 31
0.0
  0
LINE
  5
F0
330
1F
100
AcDbEntity
  8
1
  6
Continuous
 62
     7
100
AcDbLine
 10
154.0238940938984
 20
112.9099204812127
 30
0.0
 11
144.5238940938984
 21
112.9099204812127
 31
0.0
  0
LINE
  5
F1
330
1F
100
AcDbEntity
  8
1
  6
Continuous
 62
     7
100
AcDbLine
 10
144.5238940938984
 20
112.9099204812127
 30
0.0
 11
144.5238940938984
 21
105.2982518073936
 31
0.0
  0
LINE
  5
F2
330
1F
100
AcDbEntity
  8
1
  6
Continuous
 62
     7
100
AcDbLine
 10
120.5238940938984
 20
97.68658313357452
 30
0.0
 11
120.5238940938984
 21
76.29825180739351
 31
0.0
  0
LINE
  5
F3
330
1F
100
AcDbEntity
  8
1
  6
Continuous
 62
     7
100
AcDbLine
 10
144.5238940938984
 20
97.68658313357452
 30
0.0
 11
154.0238940938984
 21
97.68658313357452
 31
0.0
  0
LINE
  5
F4
330
1F
100
AcDbEntity
  8
1
  6
Continuous
 62
     7
100
AcDbLine
 10
144.5238940938984
 20
105.2982518073936
 30
0.0
 11
144.5238940938984
 21
97.68658313357452
 31
0.0
  0
LINE
  5
F5
330
1F
100
AcDbEntity
  8
1
  6
Continuous
 62
     7
100
AcDbLine
 10
120.5238940938984
 20
76.29825180739351
 30
0.0
 11
119.5238940938984
 21
76.29825180739351
 31
0.0
  0
LINE
  5
F6
330
1F
100
AcDbEntity
  8
1
  6
Continuous
 62
     7
100
AcDbLine
 10
120.5238940938984
 20
134.2982518073936
 30
0.0
 11
120.5238940938984
 21
76.29825180739351
 31
0.0
  0
LINE
  5
F7
330
1F
100
AcDbEntity
  8
1
  6
Continuous
 62
     7
100
AcDbLine
 10
119.5238940938984
 20
134.2982518073936
 30
0.0
 11
120.5238940938984
 21
134.2982518073936
 31
0.0
  0
LINE
  5
F8
330
1F
100
AcDbEntity
  8
1
  6
Continuous
 62
     7
100
AcDbLine
 10
120.5238940938984
 20
76.29825180739351
 30
0.0
 11
121.0238940938984
 21
76.29825180739351
 31
0.0
  0
LINE
  5
F9
330
1F
100
AcDbEntity
  8
1
  6
Continuous
 62
     7
100
AcDbLine
 10
120.5238940938984
 20
134.2982518073936
 30
0.0
 11
120.5238940938984
 21
107.328030120412
 31
0.0
  0
LINE
  5
FA
330
1F
100
AcDbEntity
  8
1
  6
Continuous
 62
     7
100
AcDbLine
 10
121.0238940938984
 20
134.2982518073936
 30
0.0
 11
120.5238940938984
 21
134.2982518073936
 31
0.0
  0
LINE
  5
FB
330
1F
100
AcDbEntity
  8
1
  6
Continuous
 62
     7
100
AcDbLine
 10
129.0238940938984
 20
89.79825180739363
 30
0.0
 11
130.0238940938984
 21
90.79825180739363
 31
0.0
  0
LINE
  5
FC
330
1F
100
AcDbEntity
  8
1
  6
Continuous
 62
     7
100
AcDbLine
 10
129.0238940938984
 20
120.7982518073936
 30
0.0
 11
130.0238940938984
 21
119.7982518073936
 31
0.0
  0
LINE
  5
FD
330
1F
100
AcDbEntity
  8
LAY-3
  6
Continuous
 62
     7
100
AcDbLine
 10
124.0238940938984
 20
111.8493226348935
 30
0.0
 11
129.0238940938984
 21
111.8493226348935
 31
0.0
  0
LINE
  5
FE
330
1F
100
AcDbEntity
  8
LAY-3
  6
Continuous
 62
     7
100
AcDbLine
 10
129.0238940938984
 20
89.79825180739363
 30
0.0
 11
125.0238940938984
 21
89.79825180739363
 31
0.0
  0
LINE
  5
FF
330
1F
100
AcDbEntity
  8
LAY-3
  6
Continuous
 62
     7
100
AcDbLine
 10
129.0238940938984
 20
97.5482518074437
 30
0.0
 11
124.0238940938984
 21
97.5482518074437
 31
0.0
  0
LINE
  5
100
330
1F
100
AcDbEntity
  8
LAY-3
  6
Continuous
 62
     7
100
AcDbLine
 10
125.0238940938984
 20
120.7982518073936
 30
0.0
 11
129.0238940938984
 21
120.7982518073936
 31
0.0
  0
LINE
  5
101
330
1F
100
AcDbEntity
  8
1
  6
Continuous
 62
     7
100
AcDbLine
 10
124.0238940938984
 20
134.2982518073936
 30
0.0
 11
124.0238940938984
 21
76.29825180739351
 31
0.0
  0
LINE
  5
102
330
1F
100
AcDbEntity
  8
1
  6
Continuous
 62
     7
100
AcDbLine
 10
121.0238940938984
 20
134.2982518073936
 30
0.0
 11
124.0238940938984
 21
134.2982518073936
 31
0.0
  0
LINE
  5
103
330
1F
100
AcDbEntity
  8
1
  6
Continuous
 62
     7
100
AcDbLine
 10
121.0238940938984
 20
76.29825180739351
 30
0.0
 11
121.0238940938984
 21
134.2982518073936
 31
0.0
  0
LINE
  5
104
330
1F
100
AcDbEntity
  8
1
  6
Continuous
 62
     7
100
AcDbLine
 10
124.0238940938984
 20
76.29825180739351
 30
0.0
 11
121.0238940938984
 21
76.29825180739351
 31
0.0
  0
LINE
  5
105
330
1F
100
AcDbEntity
  8
1
  6
DASH_CENTER
 62
     2
100
AcDbLine
 10
113.5238940938984
 20
105.2982518073936
 30
0.0
 11
144.5238940938984
 21
105.2982518073936
 31
0.0
  0
LINE
  5
106
330
1F
100
AcDbEntity
  8
1
  6
Continuous
 62
     7
100
AcDbLine
 10
130.0238940938984
 20
116.0782518073936
 30
0.0
 11
130.0238940938984
 21
90.79825180739363
 31
0.0
  0
LINE
  5
107
330
1F
100
AcDbEntity
  8
1
  6
Continuous
 62
     7
100
AcDbLine
 10
130.0238940938984
 20
119.7982518073936
 30
0.0
 11
130.0238940938984
 21
116.0782518073936
 31
0.0
  0
LINE
  5
108
330
1F
100
AcDbEntity
  8
1
  6
Continuous
 62
     7
100
AcDbLine
 10
119.5238940938984
 20
76.29825180739351
 30
0.0
 11
119.5238940938984
 21
134.2982518073936
 31
0.0
  0
LINE
  5
109
330
1F
100
AcDbEntity
  8
1
  6
Continuous
 62
     7
100
AcDbLine
 10
119.5238940938984
 20
134.2982518073936
 30
0.0
 11
116.5238940938984
 21
134.2982518073936
 31
0.0
  0
LINE
  5
10A
330
1F
100
AcDbEntity
  8
1
  6
Continuous
 62
     7
100
AcDbLine
 10
116.5238940938984
 20
76.29825180739351
 30
0.0
 11
119.5238940938984
 21
76.29825180739351
 31
0.0
  0
LINE
  5
10B
330
1F
100
AcDbEntity
  8
0
  6
Continuous
 62
     7
100
AcDbLine
 10
61.57432175820837
 20
98.08137344252333
 30
0.0
 11
55.32432175820837
 21
101.6898126249585
 31
0.0
  0
LINE
  5
10C
330
1F
100
AcDbEntity
  8
0
  6
Continuous
 62
     7
100
AcDbLine
 10
55.32432175820837
 20
101.6898126249585
 30
0.0
 11
55.32432175820838
 21
108.9066909898288
 31
0.0
  0
LINE
  5
10D
330
1F
100
AcDbEntity
  8
0
  6
Continuous
 62
     7
100
AcDbLine
 10
55.32432175820838
 20
108.9066909898288
 30
0.0
 11
58.44932175820838
 21
110.7109105810464
 31
0.0
  0
LINE
  5
10E
330
1F
100
AcDbEntity
  8
0
  6
Continuous
 62
     7
100
AcDbLine
 10
58.44932175820838
 20
110.7109105810464
 30
0.0
 11
61.57432175820838
 21
112.5151301722639
 31
0.0
  0
LINE
  5
10F
330
1F
100
AcDbEntity
  8
0
  6
Continuous
 62
     7
100
AcDbLine
 10
61.57432175820838
 20
112.5151301722639
 30
0.0
 11
67.82432175820838
 21
108.9066909898288
 31
0.0
  0
LINE
  5
110
330
1F
100
AcDbEntity
  8
0
  6
Continuous
 62
     7
100
AcDbLine
 10
67.82432175820838
 20
108.9066909898288
 30
0.0
 11
67.82432175820837
 21
101.6898126249584
 31
0.0
  0
LINE
  5
111
330
1F
100
AcDbEntity
  8
0
  6
Continuous
 62
     7
100
AcDbLine
 10
67.82432175820837
 20
101.6898126249584
 30
0.0
 11
64.69932175820837
 21
99.88559303374092
 31
0.0
  0
LINE
  5
112
330
1F
100
AcDbEntity
  8
0
  6
Continuous
 62
     7
100
AcDbLine
 10
64.69932175820837
 20
99.88559303374092
 30
0.0
 11
61.57432175820837
 21
98.08137344252333
 31
0.0
  0
LINE
  5
113
330
1F
100
AcDbEntity
  8
1
  6
DASH_CENTER
 62
     2
100
AcDbLine
 10
30.57432175820834
 20
105.2982518073936
 30
0.0
 11
84.57432175820824
 21
105.2982518073936
 31
0.0
  0
LINE
  5
114
330
1F
100
AcDbEntity
  8
1
  6
DASH_CENTER
 62
     2
100
AcDbLine
 10
75.59567460918063
 20
97.20301996448202
 30
0.0
 11
87.37085610118825
 21
90.40461576031473
 31
0.0
  0
LINE
  5
115
330
1F
100
AcDbEntity
  8
1
  6
DASH_CENTER
 62
     2
100
AcDbLine
 10
47.39399840985476
 20
97.11123830502561
 30
0.0
 11
35.91747653247776
 21
90.48526530976142
 31
0.0
  0
LINE
  5
116
330
1F
100
AcDbEntity
  8
1
  6
Continuous
 62
     7
100
AcDbLine
 10
176.5238940938984
 20
105.2982518073936
 30
0.0
 11
176.5238940938984
 21
92.29825180739363
 31
0.0
  0
LINE
  5
117
330
1F
100
AcDbEntity
  8
1
  6
DASH_CENTER
 62
     2
100
AcDbLine
 10
144.5238940938984
 20
105.2982518073936
 30
0.0
 11
179.5238940938984
 21
105.2982518073936
 31
0.0
  0
LINE
  5
118
330
1F
100
AcDbEntity
  8
1
  6
Continuous
 62
     2
100
AcDbLine
 10
130.0238940938984
 20
92.11025180739361
 30
0.0
 11
176.3358940938984
 21
92.11025180739361
 31
0.0
  0
LINE
  5
119
330
1F
100
AcDbEntity
  8
1
  6
Continuous
 62
     7
100
AcDbLine
 10
130.0238940938984
 20
91.29825180739363
 30
0.0
 11
175.5238940938984
 21
91.29825180739363
 31
0.0
  0
LINE
  5
11A
330
1F
100
AcDbEntity
  8
1
  6
Continuous
 62
     2
100
AcDbLine
 10
130.0238940938984
 20
118.4862518073936
 30
0.0
 11
176.3358940938984
 21
118.4862518073936
 31
0.0
  0
LINE
  5
11B
330
1F
100
AcDbEntity
  8
1
  6
Continuous
 62
     7
100
AcDbLine
 10
130.0238940938984
 20
119.2982518073936
 30
0.0
 11
175.5238940938984
 21
119.2982518073936
 31
0.0
  0
LINE
  5
11C
330
1F
100
AcDbEntity
  8
1
  6
Continuous
 62
     7
100
AcDbLine
 10
176.5238940938984
 20
118.2982518073936
 30
0.0
 11
176.5238940938984
 21
105.2982518073936
 31
0.0
  0
LINE
  5
11D
330
1F
100
AcDbEntity
  8
1
  6
Continuous
 62
     7
100
AcDbLine
 10
175.5238940938984
 20
119.2982518073936
 30
0.0
 11
176.5238940938984
 21
118.2982518073936
 31
0.0
  0
LINE
  5
11E
330
1F
100
AcDbEntity
  8
1
  6
Continuous
 62
     7
100
AcDbLine
 10
175.5238940938984
 20
91.29825180739363
 30
0.0
 11
176.5238940938984
 21
92.29825180739363
 31
0.0
  0
LINE
  5
11F
330
1F
100
AcDbEntity
  8
1
  6
Continuous
 62
     7
100
AcDbLine
 10
175.5238940938984
 20
119.2982518073936
 30
0.0
 11
175.5238940938984
 21
91.29825180739363
 31
0.0
  0
LINE
  5
120
330
1F
100
AcDbEntity
  8
1
  6
Continuous
 62
     2
100
AcDbLine
 10
154.0238940938984
 20
103.2684734943752
 30
0.0
 11
159.5238940938984
 21
97.68658313357452
 31
0.0
  0
LINE
  5
121
330
1F
100
AcDbEntity
  8
1
  6
Continuous
 62
     2
100
AcDbLine
 10
154.0238940938984
 20
107.328030120412
 30
0.0
 11
159.5238940938984
 21
112.9099204812127
 31
0.0
  0
LINE
  5
122
330
1F
100
AcDbEntity
  8
1
  6
Continuous
 62
     7
100
AcDbLine
 10
159.5238940938984
 20
112.9099204812127
 30
0.0
 11
154.0238940938984
 21
112.9099204812127
 31
0.0
  0
LINE
  5
123
330
1F
100
AcDbEntity
  8
1
  6
Continuous
 62
     7
100
AcDbLine
 10
159.5238940938984
 20
105.2982518073936
 30
0.0
 11
159.5238940938984
 21
112.9099204812127
 31
0.0
  0
LINE
  5
124
330
1F
100
AcDbEntity
  8
1
  6
Continuous
 62
     7
100
AcDbLine
 10
154.0238940938984
 20
97.68658313357452
 30
0.0
 11
159.5238940938984
 21
97.68658313357452
 31
0.0
  0
LINE
  5
125
330
1F
100
AcDbEntity
  8
1
  6
Continuous
 62
     7
100
AcDbLine
 10
159.5238940938984
 20
97.68658313357452
 30
0.0
 11
159.5238940938984
 21
105.2982518073936
 31
0.0
  0
LINE
  5
126
330
1F
100
AcDbEntity
  8
1
  6
Continuous
 62
     7
100
AcDbLine
 10
130.0238940938984
 20
201.2982518073936
 30
0.0
 11
142.5238940938984
 21
201.2982518073936
 31
0.0
  0
LINE
  5
127
330
1F
100
AcDbEntity
  8
1
  6
Continuous
 62
     2
100
AcDbLine
 10
130.0238940938984
 20
200.4862518073936
 30
0.0
 11
143.2456718716762
 21
200.4862518073936
 31
0.0
  0
LINE
  5
128
330
1F
100
AcDbEntity
  8
1
  6
Continuous
 62
     2
100
AcDbLine
 10
130.0238940938984
 20
174.1102518073936
 30
0.0
 11
143.2456718716762
 21
174.1102518073936
 31
0.0
  0
LINE
  5
129
330
1F
100
AcDbEntity
  8
1
  6
Continuous
 62
     7
100
AcDbLine
 10
130.0238940938984
 20
173.2982518073936
 30
0.0
 11
142.5238940938984
 21
173.2982518073936
 31
0.0
  0
LINE
  5
12A
330
1F
100
AcDbEntity
  8
1
  6
Continuous
 62
     7
100
AcDbLine
 10
176.5238940938984
 20
187.2982518073936
 30
0.0
 11
176.5238940938984
 21
174.2982518073936
 31
0.0
  0
LINE
  5
12B
330
1F
100
AcDbEntity
  8
1
  6
Continuous
 62
     7
100
AcDbLine
 10
176.5238940938984
 20
200.2982518073936
 30
0.0
 11
176.5238940938984
 21
187.2982518073936
 31
0.0
  0
LINE
  5
12C
330
1F
100
AcDbEntity
  8
1
  6
Continuous
 62
     7
100
AcDbLine
 10
175.5238940938984
 20
201.2982518073936
 30
0.0
 11
176.5238940938984
 21
200.2982518073936
 31
0.0
  0
LINE
  5
12D
330
1F
100
AcDbEntity
  8
1
  6
Continuous
 62
     7
100
AcDbLine
 10
175.5238940938984
 20
173.2982518073936
 30
0.0
 11
176.5238940938984
 21
174.2982518073936
 31
0.0
  0
LINE
  5
12E
330
1F
100
AcDbEntity
  8
1
  6
Continuous
 62
     7
100
AcDbLine
 10
175.5238940938984
 20
201.2982518073936
 30
0.0
 11
175.5238940938984
 21
173.2982518073936
 31
0.0
  0
LINE
  5
12F
330
1F
100
AcDbEntity
  8
1
  6
Continuous
 62
     7
100
AcDbLine
 10
159.5238940938984
 20
175.5482518073936
 30
0.0
 11
161.5238940938984
 21
173.2982518073936
 31
0.0
  0
LINE
  5
130
330
1F
100
AcDbEntity
  8
1
  6
Continuous
 62
     7
100
AcDbLine
 10
161.5238940938984
 20
173.2982518073936
 30
0.0
 11
175.5238940938984
 21
173.2982518073936
 31
0.0
  0
LINE
  5
131
330
1F
100
AcDbEntity
  8
1
  6
Continuous
 62
     7
100
AcDbLine
 10
159.5238940938984
 20
199.0482518073936
 30
0.0
 11
161.5238940938984
 21
201.2982518073936
 31
0.0
  0
LINE
  5
132
330
1F
100
AcDbEntity
  8
1
  6
Continuous
 62
     7
100
AcDbLine
 10
161.5238940938984
 20
201.2982518073936
 30
0.0
 11
175.5238940938984
 21
201.2982518073936
 31
0.0
  0
LINE
  5
133
330
1F
100
AcDbEntity
  8
1
  6
Continuous
 62
     2
100
AcDbLine
 10
160.8021163161206
 20
174.1102518073936
 30
0.0
 11
176.3358940938984
 21
174.1102518073936
 31
0.0
  0
LINE
  5
134
330
1F
100
AcDbEntity
  8
1
  6
Continuous
 62
     2
100
AcDbLine
 10
176.3358940938984
 20
174.1102518073936
 30
0.0
 11
176.5238940938984
 21
174.1102518073936
 31
0.0
  0
LINE
  5
135
330
1F
100
AcDbEntity
  8
1
  6
Continuous
 62
     2
100
AcDbLine
 10
160.8021163161206
 20
200.4862518073936
 30
0.0
 11
176.3358940938984
 21
200.4862518073936
 31
0.0
  0
LINE
  5
136
330
1F
100
AcDbEntity
  8
1
  6
Continuous
 62
     7
100
AcDbLine
 10
116.5238940938984
 20
134.2982518073936
 30
0.0
 11
116.5238940938984
 21
99.43746280733481
 31
0.0
  0
LINE
  5
137
330
1F
100
AcDbEntity
  8
1
  6
DASH_CENTER
 62
     2
100
AcDbLine
 10
84.57432175820824
 20
105.2982518073936
 30
0.0
 11
92.57432175820837
 21
105.2982518073936
 31
0.0
  0
ARC
  5
138
330
1F
100
AcDbEntity
  8
1
  6
Continuous
 62
     7
100
AcDbCircle
 10
99.49264409389833
 20
179.5482518073936
 30
0.0
 40
30.53125000000007
100
AcDbArc
 50
345.2952412802153
 51
14.70475871978469
  0
ARC
  5
139
330
1F
100
AcDbEntity
  8
1
  6
Continuous
 62
     7
100
AcDbCircle
 10
99.49264409389833
 20
195.0482518073936
 30
0.0
 40
30.53125000000007
100
AcDbArc
 50
345.2952412802153
 51
14.70475871978469
  0
ARC
  5
13A
330
1F
100
AcDbEntity
  8
LAY-3
  6
Continuous
 62
     7
100
AcDbCircle
 10
125.0238940938984
 20
170.7982518073936
 30
0.0
 40
1.0
100
AcDbArc
 50
90.0
 51
180.0
  0
ARC
  5
13B
330
1F
100
AcDbEntity
  8
LAY-3
  6
Continuous
 62
     7
100
AcDbCircle
 10
125.0238940938984
 20
203.7982518073936
 30
0.0
 40
1.0
100
AcDbArc
 50
180.0
 51
270.0
  0
ARC
  5
13C
330
1F
100
AcDbEntity
  8
1
  6
Continuous
 62
     7
100
AcDbCircle
 10
158.0082690938982
 20
105.2982518073936
 30
0.0
 40
15.48437499999979
100
AcDbArc
 50
150.5561131292354
 51
209.4438868707645
  0
ARC
  5
13D
330
1F
100
AcDbEntity
  8
1
  6
Continuous
 62
     7
100
AcDbCircle
 10
119.543621246798
 20
116.3237872211435
 30
0.0
 40
10.48314869631614
100
AcDbArc
 50
334.7337976200247
 51
25.26620237997569
  0
ARC
  5
13E
330
1F
100
AcDbEntity
  8
1
  6
Continuous
 62
     7
100
AcDbCircle
 10
104.1384946375003
 20
104.6987872211686
 30
0.0
 40
25.89233984805995
100
AcDbArc
 50
343.9685994952333
 51
16.03140050476672
  0
ARC
  5
13F
330
1F
100
AcDbEntity
  8
LAY-3
  6
Continuous
 62
     7
100
AcDbCircle
 10
125.0238940938984
 20
88.79825180739363
 30
0.0
 40
1.0
100
AcDbArc
 50
90.0
 51
180.0
  0
ARC
  5
140
330
1F
100
AcDbEntity
  8
LAY-3
  6
Continuous
 62
     7
100
AcDbCircle
 10
125.0238940938984
 20
121.7982518073936
 30
0.0
 40
1.0
100
AcDbArc
 50
180.0
 51
270.0
  0
ARC
  5
141
330
1F
100
AcDbEntity
  8
1
  6
Continuous
 62
     7
100
AcDbCircle
 10
122.0160815938015
 20
93.67325180741861
 30
0.0
 40
8.007812500096891
100
AcDbArc
 50
331.0594118000473
 51
28.9405881999534
  0
ARC
  5
142
330
1F
100
AcDbEntity
  8
1
  6
Continuous
 62
     7
100
AcDbCircle
 10
146.0395190938986
 20
105.2982518073936
 30
0.0
 40
15.48437499999979
100
AcDbArc
 50
330.5561131292355
 51
29.44388687076459
  0
CIRCLE
  5
143
330
1F
100
AcDbEntity
  8
1
  6
Continuous
 62
     2
100
AcDbCircle
 10
61.57432175820837
 20
105.2982518073936
 30
0.0
 40
10.5
  0
CIRCLE
  5
144
330
1F
100
AcDbEntity
  8
1
  6
Continuous
 62
     7
100
AcDbCircle
 10
61.57432175820837
 20
105.2982518073936
 30
0.0
 40
9.299999999999898
  0
CIRCLE
  5
145
330
1F
100
AcDbEntity
  8
1
  6
Continuous
 62
     7
100
AcDbCircle
 10
61.57432175820837
 20
105.2982518073936
 30
0.0
 40
8.8521609366842
  0
CIRCLE
  5
146
330
1F
100
AcDbEntity
  8
1
  6
Continuous
 62
     7
100
AcDbCircle
 10
61.57432175820838
 20
128.2982518073935
 30
0.0
 40
2.250000000000014
  0
CIRCLE
  5
147
330
1F
100
AcDbEntity
  8
1
  6
Continuous
 62
     7
100
AcDbCircle
 10
41.65573747116627
 20
93.79825180739351
 30
0.0
 40
2.25
  0
CIRCLE
  5
148
330
1F
100
AcDbEntity
  8
1
  6
Continuous
 62
     7
100
AcDbCircle
 10
81.49290604525049
 20
93.79825180739351
 30
0.0
 40
2.25
  0
CIRCLE
  5
149
330
1F
100
AcDbEntity
  8
1
  6
Continuous
 62
     7
100
AcDbCircle
 10
61.57432175820838
 20
128.2982518073935
 30
0.0
 40
4.250000000000085
  0
CIRCLE
  5
14A
330
1F
100
AcDbEntity
  8
1
  6
Continuous
 62
     7
100
AcDbCircle
 10
41.65573747116627
 20
93.79825180739351
 30
0.0
 40
4.249999999999777
  0
CIRCLE
  5
14B
330
1F
100
AcDbEntity
  8
1
  6
Continuous
 62
     7
100
AcDbCircle
 10
81.49290604525049
 20
93.79825180739351
 30
0.0
 40
4.25000000000002
  0
CIRCLE
  5
14C
330
1F
100
AcDbEntity
  8
1
  6
Continuous
 62
     7
100
AcDbCircle
 10
61.57432175820837
 20
105.2982518073936
 30
0.0
 40
29.00000000000009
  0
CIRCLE
  5
14D
330
1F
100
AcDbEntity
  8
1
  6
DASH_CENTER
 62
     2
100
AcDbCircle
 10
61.57432175820837
 20
105.2982518073936
 30
0.0
 40
22.99999999999987
  0
SOLID
  5
14E
330
1F
100
AcDbEntity
  8
1
 62
     2
100
AcDbTrace
 10
115.1729445197366
 20
96.17598202331133
 30
0.0
 11
114.3748436680602
 21
96.63676576486722
 31
0.0
 12
116.5238940938984
 22
99.43746280733481
 32
0.0
 13
116.5238940938984
 23
99.43746280733481
 33
0.0
  0
LEADER
  5
14F
330
1F
100
AcDbEntity
  8
1
  6
Continuous
 62
     2
100
AcDbLeader
  3
Standard
 71
     0
 76
     3
 10
116.5238940938984
 20
99.43746280733481
 30
0.0
 10
98.47254645645702
 20
68.171611554198
 30
0.0
 10
79.59825851403745
 20
68.171611554198
 30
0.0
  0
SOLID
  5
150
330
1F
100
AcDbEntity
  8
1
 62
     2
100
AcDbTrace
 10
134.4397382102466
 20
88.49755476492604
 30
0.0
 11
133.6416373585702
 21
88.03677102337015
 31
0.0
 12
132.2906877844084
 22
91.29825180739363
 32
0.0
 13
132.2906877844084
 23
91.29825180739363
 33
0.0
  0
LEADER
  5
151
330
1F
100
AcDbEntity
  8
1
  6
Continuous
 62
     2
100
AcDbLeader
  3
Standard
 71
     0
 76
     3
 10
132.2906877844084
 20
91.29825180739363
 30
0.0
 10
146.724444514149
 20
66.29825180739357
 30
0.0
 10
165.6830352588025
 20
66.29825180739357
 30
0.0
  0
MTEXT
  5
153
330
1F
100
AcDbEntity
  8
1
 62
     7
100
AcDbMText
 10
157.4999999999999
 20
-1.54701863624058
 30
0.0
 40
2.5
 41
0.0
 71
     5
 72
     1
  1
10
  7
CONVERTER_12
 73
     1
 44
0.7202881152461
  0
MTEXT
  5
154
330
1F
100
AcDbEntity
  8
1
 62
     7
100
AcDbMText
 10
151.7499999999999
 20
-1.54701863624058
 30
0.0
 40
2.5
 41
0.0
 71
     5
 72
     1
  1
03
  7
CONVERTER_12
 73
     1
 44
0.7202881152461
  0
MTEXT
  5
155
330
1F
100
AcDbEntity
  8
1
 62
     7
100
AcDbMText
 10
140.4999999999999
 20
-1.54701863624058
 30
0.0
 40
2.5
 41
0.0
 71
     5
 72
     1
  1
10
  7
CONVERTER_12
 73
     1
 44
0.7202881152461
  0
MTEXT
  5
156
330
1F
100
AcDbEntity
  8
1
 62
     7
100
AcDbMText
 10
134.7499999999999
 20
-1.54701863624058
 30
0.0
 40
2.5
 41
0.0
 71
     5
 72
     1
  1
03
  7
CONVERTER_12
 73
     1
 44
0.7202881152461
  0
MTEXT
  5
157
330
1F
100
AcDbEntity
  8
1
 62
     7
100
AcDbMText
 10
123.4999999999999
 20
-1.54701863624058
 30
0.0
 40
2.5
 41
0.0
 71
     5
 72
     1
  1
10
  7
CONVERTER_12
 73
     1
 44
0.7202881152461
  0
MTEXT
  5
158
330
1F
100
AcDbEntity
  8
1
 62
     7
100
AcDbMText
 10
117.7499999999999
 20
-1.54701863624058
 30
0.0
 40
2.5
 41
0.0
 71
     5
 72
     1
  1
03
  7
CONVERTER_12
 73
     1
 44
0.7202881152461
  0
MTEXT
  5
159
330
1F
100
AcDbEntity
  8
1
 62
     7
100
AcDbMText
 10
100.75
 20
-1.54701863624058
 30
0.0
 40
2.5
 41
0.0
 71
     5
 72
     1
  1
03
  7
CONVERTER_12
 73
     1
 44
0.7202881152461
  0
MTEXT
  5
15A
330
1F
100
AcDbEntity
  8
1
 62
     7
100
AcDbMText
 10
106.5
 20
-1.54701863624058
 30
0.0
 40
2.5
 41
0.0
 71
     5
 72
     1
  1
10
  7
CONVERTER_12
 73
     1
 44
0.7202881152461
  0
MTEXT
  5
15B
330
1F
100
AcDbEntity
  8
1
 62
     7
100
AcDbMText
 10
89.34010082772026
 20
71.16747066021821
 30
0.0
 40
3.0
 41
0.0
 71
     5
 72
     1
  1
Rp1/2
  7
CONVERTER_12
 73
     1
 44
0.7202881152461
  0
MTEXT
  5
15C
330
1F
100
AcDbEntity
  8
1
 62
     7
100
AcDbMText
 10
156.3304314511735
 20
69.42224382785352
 30
0.0
 40
3.0
 41
0.0
 71
     5
 72
     1
  1
M28×1,5
  7
CONVERTER_11
 73
     1
 44
0.54545454545455
  0
MTEXT
  5
15D
330
1F
100
AcDbEntity
  8
1
 62
     7
100
AcDbMText
 10
85.24999999999997
 20
2.95298136375942
 30
0.0
 40
3.5
 41
0.0
 71
     5
 72
     1
  1
1
  7
CONVERTER_12
 73
     1
 44
0.7202881152461
  0
MTEXT
  5
15E
330
1F
100
AcDbEntity
  8
1
 62
     7
100
AcDbMText
 10
56.99999999999997
 20
8.70298136375944
 30
0.0
 40
3.5
 41
0.0
 71
     5
 72
     1
  1
ユニット取出し金具
  7
CONVERTER_11
 73
     1
 44
0.54545454545455
  0
MTEXT
  5
15F
330
1F
100
AcDbEntity
  8
1
 62
     7
100
AcDbMText
 10
56.99999999999997
 20
0.20298136375942
 30
0.0
 40
3.5
 41
0.0
 71
     5
 72
     1
  1
T2226-13
  7
CONVERTER_12
 73
     1
 44
0.7202881152461
  0
MTEXT
  5
160
330
1F
100
AcDbEntity
  8
1
 62
     7
100
AcDbMText
 10
93.74999999999997
 20
2.95298136375942
 30
0.0
 40
3.5
 41
0.0
 71
     5
 72
     1
  1
1
  7
CONVERTER_12
 73
     1
 44
0.7202881152461
  0
DIMENSION
  5
16C
330
1F
100
AcDbEntity
  8
1
100
AcDbDimension
  2
*D3
 10
149.4595568491801
 20
199.0482518073936
 30
0.0
 11
146.7095568491801
 21
205.8911526042178
 31
0.0
 70
    32
  1
24
 71
     5
 42
-1.0
 53
90.0
  3
ME10_DIM_10
100
AcDbAlignedDimension
 13
144.5238940938984
 23
175.5482518073936
 33
0.0
 14
144.5238940938984
 24
199.0482518073936
 34
0.0
 50
90.0
100
AcDbRotatedDimension
  0
DIMENSION
  5
177
330
1F
100
AcDbEntity
  8
1
100
AcDbDimension
  2
*D4
 10
105.5238940938984
 20
76.29825180739351
 30
0.0
 11
102.7738940938984
 21
105.3579431235328
 31
0.0
 70
    32
  1
{\Fgdt;n}58
 71
     5
 42
-1.0
 53
90.0
  3
ME10_DIM_11
100
AcDbAlignedDimension
 13
116.5238940938984
 23
134.2982518073936
 33
0.0
 14
116.5238940938984
 24
76.29825180739351
 34
0.0
 50
90.0
100
AcDbRotatedDimension
  0
DIMENSION
  5
182
330
1F
100
AcDbEntity
  8
1
100
AcDbDimension
  2
*D5
 10
187.1471374576915
 20
91.2982518073936
 30
0.0
 11
184.3971374576915
 21
105.6096515137108
 31
0.0
 70
    33
  1
<>
 71
     5
 42
-1.0
 53
90.0
  3
ME10_DIM_12
100
AcDbAlignedDimension
 13
175.5238940938984
 23
119.2982518073936
 33
0.0
 14
175.5238940938984
 24
91.29825180739363
 34
0.0
  0
DIMENSION
  5
18F
330
1F
100
AcDbEntity
  8
1
100
AcDbDimension
  2
*D6
 10
116.5238940938984
 20
145.2982518073936
 30
0.0
 11
117.8686253109046
 21
148.0482518073936
 31
0.0
 70
    33
  1
<>
 71
     5
 42
-1.0
 53
0.00013888888889
  3
ME10_DIM_13
100
AcDbAlignedDimension
 13
119.5238940938984
 23
134.2982518073936
 33
0.0
 14
116.5238940938984
 24
134.2982518073936
 34
0.0
  0
DIMENSION
  5
19A
330
1F
100
AcDbEntity
  8
1
100
AcDbDimension
  2
*D7
 10
119.5238940938983
 20
145.2982518073936
 30
0.0
 11
144.8292839683064
 21
148.0482518073936
 31
0.0
 70
    32
  1
<>
 71
     5
 42
-1.0
 53
0.00013888888889
  3
ME10_DIM_14
100
AcDbAlignedDimension
 13
176.5238940938984
 23
118.2982518073936
 33
0.0
 14
119.5238940938984
 24
134.2982518073936
 34
0.0
100
AcDbRotatedDimension
  0
INSERT
  5
1A2
330
1F
100
AcDbEntity
  8
1
100
AcDbBlockReference
  2
*D8
 10
0.0
 20
0.0
 30
0.0
  0
ENDSEC
  0
SECTION
  2
OBJECTS
  0
DICTIONARY
  5
C
330
0
100
AcDbDictionary
281
     1
  3
ACAD_GROUP
350
D
  3
ACAD_LAYOUT
350
1A
  3
ACAD_MATERIAL
350
3B
  3
ACAD_MLEADERSTYLE
350
1A5
  3
ACAD_MLINESTYLE
350
17
  3
ACAD_PLOTSETTINGS
350
19
  3
ACAD_PLOTSTYLENAME
350
E
  3
ACAD_VISUALSTYLE
350
2A
  3
AcDbVariableDictionary
350
1A3
  0
DICTIONARY
  5
D
102
{ACAD_REACTORS
330
C
102
}
330
C
100
AcDbDictionary
281
     1
  0
DICTIONARY
  5
1A
102
{ACAD_REACTORS
330
C
102
}
330
C
100
AcDbDictionary
281
     1
  3
Layout1
350
1E
  3
Layout2
350
26
  3
Model
350
22
  0
DICTIONARY
  5
3B
102
{ACAD_REACTORS
330
C
102
}
330
C
100
AcDbDictionary
281
     1
  3
ByBlock
350
3D
  3
ByLayer
350
3C
  3
Global
350
3E
  0
DICTIONARY
  5
1A5
102
{ACAD_REACTORS
330
C
102
}
330
C
100
AcDbDictionary
281
     1
  0
DICTIONARY
  5
17
102
{ACAD_REACTORS
330
C
102
}
330
C
100
AcDbDictionary
281
     1
  3
Standard
350
18
  0
DICTIONARY
  5
19
102
{ACAD_REACTORS
330
C
102
}
330
C
100
AcDbDictionary
281
     1
  0
ACDBDICTIONARYWDFLT
  5
E
102
{ACAD_REACTORS
330
C
102
}
330
C
100
AcDbDictionary
281
     1
  3
Normal
350
F
100
AcDbDictionaryWithDefault
340
F
  0
DICTIONARY
  5
2A
102
{ACAD_REACTORS
330
C
102
}
330
C
100
AcDbDictionary
281
     1
  3
2dWireframe
350
2F
  3
3D Hidden
350
31
  3
3dWireframe
350
30
  3
Basic
350
32
  3
Brighten
350
36
  3
ColorChange
350
3A
  3
Conceptual
350
34
  3
Dim
350
35
  3
Facepattern
350
39
  3
Flat
350
2B
  3
FlatWithEdges
350
2C
  3
Gouraud
350
2D
  3
GouraudWithEdges
350
2E
  3
Linepattern
350
38
  3
Realistic
350
33
  3
Thicken
350
37
  0
DICTIONARY
  5
1A3
102
{ACAD_REACTORS
330
C
102
}
330
C
100
AcDbDictionary
281
     1
  3
DIMASSOC
350
1A6
  3
HIDETEXT
350
1A7
  0
LAYOUT
  5
1E
102
{ACAD_REACTORS
330
1A
102
}
330
1A
100
AcDbPlotSettings
  1

  2
none_device
  4

  6

 40
0.0
 41
0.0
 42
0.0
 43
0.0
 44
0.0
 45
0.0
 46
0.0
 47
0.0
 48
0.0
 49
0.0
140
0.0
141
0.0
142
1.0
143
1.0
 70
   688
 72
     0
 73
     0
 74
     5
  7

 75
    16
147
1.0
148
0.0
149
0.0
100
AcDbLayout
  1
Layout1
 70
     1
 71
     1
 10
0.0
 20
0.0
 11
12.0
 21
9.0
 12
0.0
 22
0.0
 32
0.0
 14
1.00000000000000E+20
 24
1.00000000000000E+20
 34
1.00000000000000E+20
 15
-1.00000000000000E+20
 25
-1.00000000000000E+20
 35
-1.00000000000000E+20
146
0.0
 13
0.0
 23
0.0
 33
0.0
 16
1.0
 26
0.0
 36
0.0
 17
0.0
 27
1.0
 37
0.0
 76
     0
330
1B
  0
LAYOUT
  5
26
102
{ACAD_REACTORS
330
1A
102
}
330
1A
100
AcDbPlotSettings
  1

  2
none_device
  4

  6

 40
0.0
 41
0.0
 42
0.0
 43
0.0
 44
0.0
 45
0.0
 46
0.0
 47
0.0
 48
0.0
 49
0.0
140
0.0
141
0.0
142
1.0
143
1.0
 70
   688
 72
     0
 73
     0
 74
     5
  7

 75
    16
147
1.0
148
0.0
149
0.0
100
AcDbLayout
  1
Layout2
 70
     1
 71
     2
 10
0.0
 20
0.0
 11
0.0
 21
0.0
 12
0.0
 22
0.0
 32
0.0
 14
0.0
 24
0.0
 34
0.0
 15
0.0
 25
0.0
 35
0.0
146
0.0
 13
0.0
 23
0.0
 33
0.0
 16
1.0
 26
0.0
 36
0.0
 17
0.0
 27
1.0
 37
0.0
 76
     0
330
23
  0
LAYOUT
  5
22
102
{ACAD_REACTORS
330
1A
102
}
330
1A
100
AcDbPlotSettings
  1

  2
none_device
  4

  6

 40
0.0
 41
0.0
 42
0.0
 43
0.0
 44
0.0
 45
0.0
 46
0.0
 47
0.0
 48
0.0
 49
0.0
140
0.0
141
0.0
142
1.0
143
1.0
 70
  1712
 72
     0
 73
     0
 74
     0
  7

 75
     0
147
1.0
148
0.0
149
0.0
100
AcDbLayout
  1
Model
 70
     1
 71
     0
 10
0.0
 20
0.0
 11
12.0
 21
9.0
 12
0.0
 22
0.0
 32
0.0
 14
0.0
 24
-14.04701863624058
 34
0.0
 15
210.0
 25
282.9529813637594
 35
0.0
146
0.0
 13
0.0
 23
0.0
 33
0.0
 16
1.0
 26
0.0
 36
0.0
 17
0.0
 27
1.0
 37
0.0
 76
     0
330
1F
331
29
  0
MATERIAL
  5
3D
102
{ACAD_REACTORS
330
3B
102
}
102
{ACAD_XDICTIONARY
360
1CA
102
}
330
3B
100
AcDbMaterial
  1
ByBlock
  0
MATERIAL
  5
3C
102
{ACAD_REACTORS
330
3B
102
}
102
{ACAD_XDICTIONARY
360
1C8
102
}
330
3B
100
AcDbMaterial
  1
ByLayer
  0
MATERIAL
  5
3E
102
{ACAD_REACTORS
330
3B
102
}
102
{ACAD_XDICTIONARY
360
1CC
102
}
330
3B
100
AcDbMaterial
  1
Global
  0
MLINESTYLE
  5
18
102
{ACAD_REACTORS
330
17
102
}
330
17
100
AcDbMlineStyle
  2
Standard
 70
     0
  3

 62
   256
 51
90.0
 52
90.0
 71
     2
 49
0.5
 62
   256
  6
BYLAYER
 49
-0.5
 62
   256
  6
BYLAYER
  0
ACDBPLACEHOLDER
  5
F
102
{ACAD_REACTORS
330
E
102
}
330
E
  0
VISUALSTYLE
  5
2F
102
{ACAD_REACTORS
330
2A
102
}
102
{ACAD_XDICTIONARY
360
1B0
102
}
330
2A
100
AcDbVisualStyle
  2
2dWireframe
 70
     4
 71
     0
 72
     2
 73
     0
 90
        0
 40
-0.6
 41
-30.0
 62
     5
 63
     7
 74
     1
 91
        4
 64
     7
 65
   257
 75
     1
175
     1
 42
1.0
 92
        0
 66
   257
 43
1.0
 76
     1
 77
     6
 78
     2
 67
     7
 79
     5
170
     0
171
     0
290
     0
174
     0
 93
        1
 44
0.0
173
     0
291
     0
 45
0.0
1001
ACAD
1000
AcDbSavedByObjectVersion
1070
     0
  0
VISUALSTYLE
  5
31
102
{ACAD_REACTORS
330
2A
102
}
102
{ACAD_XDICTIONARY
360
1B4
102
}
330
2A
100
AcDbVisualStyle
  2
3D Hidden
 70
     6
 71
     1
 72
     2
 73
     2
 90
        0
 40
-0.6
 41
-30.0
 62
     5
 63
     7
 74
     2
 91
        2
 64
     7
 65
   257
 75
     2
175
     1
 42
40.0
 92
        0
 66
   257
 43
1.0
 76
     1
 77
     6
 78
     2
 67
     7
 79
     3
170
     0
171
     0
290
     0
174
     0
 93
        1
 44
0.0
173
     0
291
     0
 45
0.0
1001
ACAD
1000
AcDbSavedByObjectVersion
1070
     0
  0
VISUALSTYLE
  5
30
102
{ACAD_REACTORS
330
2A
102
}
102
{ACAD_XDICTIONARY
360
1B2
102
}
330
2A
100
AcDbVisualStyle
  2
3dWireframe
 70
     5
 71
     0
 72
     2
 73
     0
 90
        0
 40
-0.6
 41
-30.0
 62
     5
 63
     7
 74
     1
 91
        4
 64
     7
 65
   257
 75
     1
175
     1
 42
1.0
 92
        0
 66
   257
 43
1.0
 76
     1
 77
     6
 78
     2
 67
     7
 79
     5
170
     0
171
     0
290
     0
174
     0
 93
        1
 44
0.0
173
     0
291
     0
 45
0.0
1001
ACAD
1000
AcDbSavedByObjectVersion
1070
     0
  0
VISUALSTYLE
  5
32
102
{ACAD_REACTORS
330
2A
102
}
102
{ACAD_XDICTIONARY
360
1B6
102
}
330
2A
100
AcDbVisualStyle
  2
Basic
 70
     7
 71
     1
 72
     0
 73
     1
 90
        0
 40
-0.6
 41
-30.0
 62
     5
 63
     7
 74
     0
 91
        4
 64
     7
 65
   257
 75
     1
175
     1
 42
1.0
 92
        8
 66
     7
 43
1.0
 76
     1
 77
     6
 78
     2
 67
     7
 79
     5
170
     0
171
     0
290
     0
174
     0
 93
        1
 44
0.0
173
     0
291
     1
 45
0.0
1001
ACAD
1000
AcDbSavedByObjectVersion
1070
     0
  0
VISUALSTYLE
  5
36
102
{ACAD_REACTORS
330
2A
102
}
102
{ACAD_XDICTIONARY
360
1BE
102
}
330
2A
100
AcDbVisualStyle
  2
Brighten
 70
    12
 71
     2
 72
     2
 73
     0
 90
        0
 40
-0.6
 41
-30.0
 62
     5
 63
     7
 74
     1
 91
        4
 64
     7
 65
   257
 75
     1
175
     1
 42
1.0
 92
        8
 66
     7
 43
1.0
 76
     1
 77
     6
 78
     2
 67
     7
 79
     5
170
     0
171
     0
290
     0
174
     0
 93
        1
 44
50.0
173
     0
291
     1
 45
0.0
1001
ACAD
1000
AcDbSavedByObjectVersion
1070
     0
  0
VISUALSTYLE
  5
3A
102
{ACAD_REACTORS
330
2A
102
}
102
{ACAD_XDICTIONARY
360
1C6
102
}
330
2A
100
AcDbVisualStyle
  2
ColorChange
 70
    16
 71
     2
 72
     2
 73
     3
 90
        0
 40
-0.6
 41
-30.0
 62
     5
 63
     8
 74
     1
 91
        4
 64
     7
 65
   257
 75
     1
175
     1
 42
1.0
 92
        8
 66
     8
 43
1.0
 76
     1
 77
     6
 78
     2
 67
     7
 79
     5
170
     0
171
     0
290
     0
174
     0
 93
        1
 44
0.0
173
     0
291
     1
 45
0.0
1001
ACAD
1000
AcDbSavedByObjectVersion
1070
     0
  0
VISUALSTYLE
  5
34
102
{ACAD_REACTORS
330
2A
102
}
102
{ACAD_XDICTIONARY
360
1BA
102
}
330
2A
100
AcDbVisualStyle
  2
Conceptual
 70
     9
 71
     3
 72
     2
 73
     0
 90
        0
 40
-0.6
 41
-30.0
 62
     5
 63
     7
 74
     2
 91
        2
 64
     7
 65
   257
 75
     1
175
     1
 42
40.0
 92
        8
 66
     7
 43
1.0
 76
     1
 77
     6
 78
     2
 67
     7
 79
     3
170
     0
171
     0
290
     0
174
     0
 93
        1
 44
0.0
173
     0
291
     0
 45
0.0
1001
ACAD
1000
AcDbSavedByObjectVersion
1070
     0
  0
VISUALSTYLE
  5
35
102
{ACAD_REACTORS
330
2A
102
}
102
{ACAD_XDICTIONARY
360
1BC
102
}
330
2A
100
AcDbVisualStyle
  2
Dim
 70
    11
 71
     2
 72
     2
 73
     0
 90
        0
 40
-0.6
 41
-30.0
 62
     5
 63
     7
 74
     1
 91
        4
 64
     7
 65
   257
 75
     1
175
     1
 42
1.0
 92
        8
 66
     7
 43
1.0
 76
     1
 77
     6
 78
     2
 67
     7
 79
     5
170
     0
171
     0
290
     0
174
     0
 93
        1
 44
-50.0
173
     0
291
     1
 45
0.0
1001
ACAD
1000
AcDbSavedByObjectVersion
1070
     0
  0
VISUALSTYLE
  5
39
102
{ACAD_REACTORS
330
2A
102
}
102
{ACAD_XDICTIONARY
360
1C4
102
}
330
2A
100
AcDbVisualStyle
  2
Facepattern
 70
    15
 71
     2
 72
     2
 73
     0
 90
        0
 40
-0.6
 41
-30.0
 62
     5
 63
     7
 74
     1
 91
        4
 64
     7
 65
   257
 75
     1
175
     1
 42
1.0
 92
        8
 66
     7
 43
1.0
 76
     1
 77
     6
 78
     2
 67
     7
 79
     5
170
     0
171
     0
290
     0
174
     0
 93
        1
 44
0.0
173
     0
291
     1
 45
0.0
1001
ACAD
1000
AcDbSavedByObjectVersion
1070
     0
  0
VISUALSTYLE
  5
2B
102
{ACAD_REACTORS
330
2A
102
}
102
{ACAD_XDICTIONARY
360
1A8
102
}
330
2A
100
AcDbVisualStyle
  2
Flat
 70
     0
 71
     2
 72
     1
 73
     1
 90
        2
 40
-0.6
 41
30.0
 62
     5
 63
     7
 74
     0
 91
        4
 64
     7
 65
   257
 75
     1
175
     1
 42
1.0
 92
        8
 66
     7
 43
1.0
 76
     1
 77
     6
 78
     2
 67
     7
 79
     5
170
     0
171
     0
290
     0
174
     0
 93
       13
 44
0.0
173
     0
291
     1
 45
0.0
1001
ACAD
1000
AcDbSavedByObjectVersion
1070
     0
  0
VISUALSTYLE
  5
2C
102
{ACAD_REACTORS
330
2A
102
}
102
{ACAD_XDICTIONARY
360
1AA
102
}
330
2A
100
AcDbVisualStyle
  2
FlatWithEdges
 70
     1
 71
     2
 72
     1
 73
     1
 90
        2
 40
-0.6
 41
30.0
 62
     5
 63
     7
 74
     1
 91
        4
 64
     7
 65
   257
 75
     1
175
     1
 42
1.0
 92
        0
 66
   257
 43
1.0
 76
     1
 77
     6
 78
     2
 67
     7
 79
     5
170
     0
171
     0
290
     0
174
     0
 93
       13
 44
0.0
173
     0
291
     1
 45
0.0
1001
ACAD
1000
AcDbSavedByObjectVersion
1070
     0
  0
VISUALSTYLE
  5
2D
102
{ACAD_REACTORS
330
2A
102
}
102
{ACAD_XDICTIONARY
360
1AC
102
}
330
2A
100
AcDbVisualStyle
  2
Gouraud
 70
     2
 71
     2
 72
     2
 73
     1
 90
        2
 40
-0.6
 41
30.0
 62
     5
 63
     7
 74
     0
 91
        4
 64
     7
 65
   257
 75
     1
175
     1
 42
1.0
 92
        0
 66
     7
 43
1.0
 76
     1
 77
     6
 78
     2
 67
     7
 79
     5
170
     0
171
     0
290
     0
174
     0
 93
       13
 44
0.0
173
     0
291
     1
 45
0.0
1001
ACAD
1000
AcDbSavedByObjectVersion
1070
     0
  0
VISUALSTYLE
  5
2E
102
{ACAD_REACTORS
330
2A
102
}
102
{ACAD_XDICTIONARY
360
1AE
102
}
330
2A
100
AcDbVisualStyle
  2
GouraudWithEdges
 70
     3
 71
     2
 72
     2
 73
     1
 90
        2
 40
-0.6
 41
30.0
 62
     5
 63
     7
 74
     1
 91
        4
 64
     7
 65
   257
 75
     1
175
     1
 42
1.0
 92
        0
 66
   257
 43
1.0
 76
     1
 77
     6
 78
     2
 67
     7
 79
     5
170
     0
171
     0
290
     0
174
     0
 93
       13
 44
0.0
173
     0
291
     1
 45
0.0
1001
ACAD
1000
AcDbSavedByObjectVersion
1070
     0
  0
VISUALSTYLE
  5
38
102
{ACAD_REACTORS
330
2A
102
}
102
{ACAD_XDICTIONARY
360
1C2
102
}
330
2A
100
AcDbVisualStyle
  2
Linepattern
 70
    14
 71
     2
 72
     2
 73
     0
 90
        0
 40
-0.6
 41
-30.0
 62
     5
 63
     7
 74
     1
 91
        4
 64
     7
 65
   257
 75
     7
175
     7
 42
1.0
 92
        8
 66
     7
 43
1.0
 76
     1
 77
     6
 78
     2
 67
     7
 79
     5
170
     0
171
     0
290
     0
174
     0
 93
        1
 44
0.0
173
     0
291
     1
 45
0.0
1001
ACAD
1000
AcDbSavedByObjectVersion
1070
     0
  0
VISUALSTYLE
  5
33
102
{ACAD_REACTORS
330
2A
102
}
102
{ACAD_XDICTIONARY
360
1B8
102
}
330
2A
100
AcDbVisualStyle
  2
Realistic
 70
     8
 71
     2
 72
     2
 73
     0
 90
        0
 40
-0.6
 41
-30.0
 62
     5
 63
     7
 74
     1
 91
        0
 64
     7
 65
   257
 75
     1
175
     1
 42
1.0
 92
        8
 66
     8
 43
1.0
 76
     1
 77
     6
 78
     2
 67
     7
 79
     5
170
     0
171
     0
290
     0
174
     0
 93
       13
 44
0.0
173
     0
291
     0
 45
0.0
1001
ACAD
1000
AcDbSavedByObjectVersion
1070
     0
  0
VISUALSTYLE
  5
37
102
{ACAD_REACTORS
330
2A
102
}
102
{ACAD_XDICTIONARY
360
1C0
102
}
330
2A
100
AcDbVisualStyle
  2
Thicken
 70
    13
 71
     2
 72
     2
 73
     0
 90
        0
 40
-0.6
 41
-30.0
 62
     5
 63
     7
 74
     1
 91
        4
 64
     7
 65
   257
 75
     1
175
     1
 42
1.0
 92
       12
 66
     7
 43
1.0
 76
     1
 77
     6
 78
     2
 67
     7
 79
     5
170
     0
171
     0
290
     0
174
     0
 93
        1
 44
0.0
173
     0
291
     1
 45
0.0
1001
ACAD
1000
AcDbSavedByObjectVersion
1070
     0
  0
DICTIONARYVAR
  5
1A6
102
{ACAD_REACTORS
330
1A3
102
}
330
1A3
100
DictionaryVariables
280
     0
  1
2
  0
DICTIONARYVAR
  5
1A7
102
{ACAD_REACTORS
330
1A3
102
}
330
1A3
100
DictionaryVariables
280
     0
  1
1
  0
DICTIONARY
  5
1CA
330
3D
100
AcDbDictionary
280
     1
281
     1
  3
ACAD_XREC_ROUNDTRIP
360
1CB
  0
DICTIONARY
  5
1C8
330
3C
100
AcDbDictionary
280
     1
281
     1
  3
ACAD_XREC_ROUNDTRIP
360
1C9
  0
DICTIONARY
  5
1CC
330
3E
100
AcDbDictionary
280
     1
281
     1
  3
ACAD_XREC_ROUNDTRIP
360
1CD
  0
DICTIONARY
  5
1B0
330
2F
100
AcDbDictionary
280
     1
281
     1
  3
ACAD_XREC_ROUNDTRIP
360
1B1
  0
DICTIONARY
  5
1B4
330
31
100
AcDbDictionary
280
     1
281
     1
  3
ACAD_XREC_ROUNDTRIP
360
1B5
  0
DICTIONARY
  5
1B2
330
30
100
AcDbDictionary
280
     1
281
     1
  3
ACAD_XREC_ROUNDTRIP
360
1B3
  0
DICTIONARY
  5
1B6
330
32
100
AcDbDictionary
280
     1
281
     1
  3
ACAD_XREC_ROUNDTRIP
360
1B7
  0
DICTIONARY
  5
1BE
330
36
100
AcDbDictionary
280
     1
281
     1
  3
ACAD_XREC_ROUNDTRIP
360
1BF
  0
DICTIONARY
  5
1C6
330
3A
100
AcDbDictionary
280
     1
281
     1
  3
ACAD_XREC_ROUNDTRIP
360
1C7
  0
DICTIONARY
  5
1BA
330
34
100
AcDbDictionary
280
     1
281
     1
  3
ACAD_XREC_ROUNDTRIP
360
1BB
  0
DICTIONARY
  5
1BC
330
35
100
AcDbDictionary
280
     1
281
     1
  3
ACAD_XREC_ROUNDTRIP
360
1BD
  0
DICTIONARY
  5
1C4
330
39
100
AcDbDictionary
280
     1
281
     1
  3
ACAD_XREC_ROUNDTRIP
360
1C5
  0
DICTIONARY
  5
1A8
330
2B
100
AcDbDictionary
280
     1
281
     1
  3
ACAD_XREC_ROUNDTRIP
360
1A9
  0
DICTIONARY
  5
1AA
330
2C
100
AcDbDictionary
280
     1
281
     1
  3
ACAD_XREC_ROUNDTRIP
360
1AB
  0
DICTIONARY
  5
1AC
330
2D
100
AcDbDictionary
280
     1
281
     1
  3
ACAD_XREC_ROUNDTRIP
360
1AD
  0
DICTIONARY
  5
1AE
330
2E
100
AcDbDictionary
280
     1
281
     1
  3
ACAD_XREC_ROUNDTRIP
360
1AF
  0
DICTIONARY
  5
1C2
330
38
100
AcDbDictionary
280
     1
281
     1
  3
ACAD_XREC_ROUNDTRIP
360
1C3
  0
DICTIONARY
  5
1B8
330
33
100
AcDbDictionary
280
     1
281
     1
  3
ACAD_XREC_ROUNDTRIP
360
1B9
  0
DICTIONARY
  5
1C0
330
37
100
AcDbDictionary
280
     1
281
     1
  3
ACAD_XREC_ROUNDTRIP
360
1C1
  0
XRECORD
  5
1CB
102
{ACAD_REACTORS
330
1CA
102
}
330
1CA
100
AcDbXrecord
280
     1
102
MATERIAL
148
0.0
149
0.0
149
0.0
 93
        0
 94
      127
282
     0
 72
     1
 77
     1
171
     1
175
     1
179
     1
273
     0
  0
XRECORD
  5
1C9
102
{ACAD_REACTORS
330
1C8
102
}
330
1C8
100
AcDbXrecord
280
     1
102
MATERIAL
148
0.0
149
0.0
149
0.0
 93
        0
 94
      127
282
     0
 72
     1
 77
     1
171
     1
175
     1
179
     1
273
     0
  0
XRECORD
  5
1CD
102
{ACAD_REACTORS
330
1CC
102
}
330
1CC
100
AcDbXrecord
280
     1
102
MATERIAL
148
0.0
149
0.0
149
0.0
 93
        0
 94
      127
282
     0
 72
     1
 77
     1
171
     1
175
     1
179
     1
273
     0
  0
XRECORD
  5
1B1
102
{ACAD_REACTORS
330
1B0
102
}
330
1B0
100
AcDbXrecord
280
     1
102
RTVSPropertyOp0
 70
     1
102
RTVSPropertyOp1
 70
     1
102
RTVSPropertyOp2
 70
     1
102
RTVSPropertyOp3
 70
     1
102
RTVSPropertyOp4
 70
     1
102
RTVSPropertyOp5
 70
     1
102
RTVSPropertyOp6
 70
     1
102
RTVSPropertyOp7
 70
     1
102
RTVSPropertyOp8
 70
     1
102
RTVSPropertyOp9
 70
     1
102
RTVSPropertyOp10
 70
     1
102
RTVSPropertyOp11
 70
     1
102
RTVSPropertyOp12
 70
     1
102
RTVSPropertyOp13
 70
     1
102
RTVSPropertyOp14
 70
     1
102
RTVSPropertyOp15
 70
     1
102
RTVSPropertyOp16
 70
     1
102
RTVSPropertyOp17
 70
     1
102
RTVSPropertyOp18
 70
     1
102
RTVSPropertyOp19
 70
     1
102
RTVSPropertyOp20
 70
     1
102
RTVSPropertyOp21
 70
     1
102
RTVSPropertyOp22
 70
     1
102
RTVSPropertyOp23
 70
     1
102
RTVSPropertyOp24
 70
     1
102
RTVSPropertyOp25
 70
     1
102
RTVSPropertyOp26
 70
     1
102
RTVSPropertyOp27
 70
     1
102
RTVSPropertyOp28
 70
     1
102
RTVSPropertyOp29
 70
     1
102
RTVSPropertyOp30
 70
     1
102
RTVSPropertyOp31
 70
     1
102
RTVSPropertyOp32
 70
     1
  0
XRECORD
  5
1B5
102
{ACAD_REACTORS
330
1B4
102
}
330
1B4
100
AcDbXrecord
280
     1
102
RTVSPropertyOp0
 70
     1
102
RTVSPropertyOp1
 70
     1
102
RTVSPropertyOp2
 70
     1
102
RTVSPropertyOp3
 70
     1
102
RTVSPropertyOp4
 70
     1
102
RTVSPropertyOp5
 70
     1
102
RTVSPropertyOp6
 70
     1
102
RTVSPropertyOp7
 70
     1
102
RTVSPropertyOp8
 70
     1
102
RTVSPropertyOp9
 70
     1
102
RTVSPropertyOp10
 70
     1
102
RTVSPropertyOp11
 70
     1
102
RTVSPropertyOp12
 70
     1
102
RTVSPropertyOp13
 70
     1
102
RTVSPropertyOp14
 70
     1
102
RTVSPropertyOp15
 70
     1
102
RTVSPropertyOp16
 70
     1
102
RTVSPropertyOp17
 70
     1
102
RTVSPropertyOp18
 70
     1
102
RTVSPropertyOp19
 70
     1
102
RTVSPropertyOp20
 70
     1
102
RTVSPropertyOp21
 70
     1
102
RTVSPropertyOp22
 70
     1
102
RTVSPropertyOp23
 70
     1
102
RTVSPropertyOp24
 70
     1
102
RTVSPropertyOp25
 70
     1
102
RTVSPropertyOp26
 70
     1
102
RTVSPropertyOp27
 70
     1
102
RTVSPropertyOp28
 70
     1
102
RTVSPropertyOp29
 70
     1
102
RTVSPropertyOp30
 70
     1
102
RTVSPropertyOp31
 70
     1
102
RTVSPropertyOp32
 70
     1
  0
XRECORD
  5
1B3
102
{ACAD_REACTORS
330
1B2
102
}
330
1B2
100
AcDbXrecord
280
     1
102
RTVSPropertyOp0
 70
     1
102
RTVSPropertyOp1
 70
     1
102
RTVSPropertyOp2
 70
     1
102
RTVSPropertyOp3
 70
     1
102
RTVSPropertyOp4
 70
     1
102
RTVSPropertyOp5
 70
     1
102
RTVSPropertyOp6
 70
     1
102
RTVSPropertyOp7
 70
     1
102
RTVSPropertyOp8
 70
     1
102
RTVSPropertyOp9
 70
     1
102
RTVSPropertyOp10
 70
     1
102
RTVSPropertyOp11
 70
     1
102
RTVSPropertyOp12
 70
     1
102
RTVSPropertyOp13
 70
     1
102
RTVSPropertyOp14
 70
     1
102
RTVSPropertyOp15
 70
     1
102
RTVSPropertyOp16
 70
     1
102
RTVSPropertyOp17
 70
     1
102
RTVSPropertyOp18
 70
     1
102
RTVSPropertyOp19
 70
     1
102
RTVSPropertyOp20
 70
     1
102
RTVSPropertyOp21
 70
     1
102
RTVSPropertyOp22
 70
     1
102
RTVSPropertyOp23
 70
     1
102
RTVSPropertyOp24
 70
     1
102
RTVSPropertyOp25
 70
     1
102
RTVSPropertyOp26
 70
     1
102
RTVSPropertyOp27
 70
     1
102
RTVSPropertyOp28
 70
     1
102
RTVSPropertyOp29
 70
     1
102
RTVSPropertyOp30
 70
     1
102
RTVSPropertyOp31
 70
     1
102
RTVSPropertyOp32
 70
     1
  0
XRECORD
  5
1B7
102
{ACAD_REACTORS
330
1B6
102
}
330
1B6
100
AcDbXrecord
280
     1
102
RTVSPropertyOp0
 70
     1
102
RTVSPropertyOp1
 70
     1
102
RTVSPropertyOp2
 70
     1
102
RTVSPropertyOp3
 70
     1
102
RTVSPropertyOp4
 70
     1
102
RTVSPropertyOp5
 70
     1
102
RTVSPropertyOp6
 70
     1
102
RTVSPropertyOp7
 70
     1
102
RTVSPropertyOp8
 70
     1
102
RTVSPropertyOp9
 70
     1
102
RTVSPropertyOp10
 70
     1
102
RTVSPropertyOp11
 70
     1
102
RTVSPropertyOp12
 70
     1
102
RTVSPropertyOp13
 70
     1
102
RTVSPropertyOp14
 70
     1
102
RTVSPropertyOp15
 70
     1
102
RTVSPropertyOp16
 70
     1
102
RTVSPropertyOp17
 70
     1
102
RTVSPropertyOp18
 70
     1
102
RTVSPropertyOp19
 70
     1
102
RTVSPropertyOp20
 70
     1
102
RTVSPropertyOp21
 70
     1
102
RTVSPropertyOp22
 70
     1
102
RTVSPropertyOp23
 70
     1
102
RTVSPropertyOp24
 70
     1
102
RTVSPropertyOp25
 70
     1
102
RTVSPropertyOp26
 70
     1
102
RTVSPropertyOp27
 70
     1
102
RTVSPropertyOp28
 70
     1
102
RTVSPropertyOp29
 70
     1
102
RTVSPropertyOp30
 70
     1
102
RTVSPropertyOp31
 70
     1
102
RTVSPropertyOp32
 70
     1
  0
XRECORD
  5
1BF
102
{ACAD_REACTORS
330
1BE
102
}
330
1BE
100
AcDbXrecord
280
     1
102
RTVSPropertyOp0
 70
     1
102
RTVSPropertyOp1
 70
     1
102
RTVSPropertyOp2
 70
     1
102
RTVSPropertyOp3
 70
     1
102
RTVSPropertyOp4
 70
     1
102
RTVSPropertyOp5
 70
     1
102
RTVSPropertyOp6
 70
     1
102
RTVSPropertyOp7
 70
     1
102
RTVSPropertyOp8
 70
     1
102
RTVSPropertyOp9
 70
     1
102
RTVSPropertyOp10
 70
     1
102
RTVSPropertyOp11
 70
     1
102
RTVSPropertyOp12
 70
     1
102
RTVSPropertyOp13
 70
     1
102
RTVSPropertyOp14
 70
     1
102
RTVSPropertyOp15
 70
     1
102
RTVSPropertyOp16
 70
     1
102
RTVSPropertyOp17
 70
     1
102
RTVSPropertyOp18
 70
     1
102
RTVSPropertyOp19
 70
     1
102
RTVSPropertyOp20
 70
     1
102
RTVSPropertyOp21
 70
     1
102
RTVSPropertyOp22
 70
     1
102
RTVSPropertyOp23
 70
     1
102
RTVSPropertyOp24
 70
     1
102
RTVSPropertyOp25
 70
     1
102
RTVSPropertyOp26
 70
     1
102
RTVSPropertyOp27
 70
     1
102
RTVSPropertyOp28
 70
     1
102
RTVSPropertyOp29
 70
     1
102
RTVSPropertyOp30
 70
     1
102
RTVSPropertyOp31
 70
     1
102
RTVSPropertyOp32
 70
     1
  0
XRECORD
  5
1C7
102
{ACAD_REACTORS
330
1C6
102
}
330
1C6
100
AcDbXrecord
280
     1
102
RTVSPropertyOp0
 70
     1
102
RTVSPropertyOp1
 70
     1
102
RTVSPropertyOp2
 70
     1
102
RTVSPropertyOp3
 70
     1
102
RTVSPropertyOp4
 70
     1
102
RTVSPropertyOp5
 70
     1
102
RTVSPropertyOp6
 70
     1
102
RTVSPropertyOp7
 70
     1
102
RTVSPropertyOp8
 70
     1
102
RTVSPropertyOp9
 70
     1
102
RTVSPropertyOp10
 70
     1
102
RTVSPropertyOp11
 70
     1
102
RTVSPropertyOp12
 70
     1
102
RTVSPropertyOp13
 70
     1
102
RTVSPropertyOp14
 70
     1
102
RTVSPropertyOp15
 70
     1
102
RTVSPropertyOp16
 70
     1
102
RTVSPropertyOp17
 70
     1
102
RTVSPropertyOp18
 70
     1
102
RTVSPropertyOp19
 70
     1
102
RTVSPropertyOp20
 70
     1
102
RTVSPropertyOp21
 70
     1
102
RTVSPropertyOp22
 70
     1
102
RTVSPropertyOp23
 70
     1
102
RTVSPropertyOp24
 70
     1
102
RTVSPropertyOp25
 70
     1
102
RTVSPropertyOp26
 70
     1
102
RTVSPropertyOp27
 70
     1
102
RTVSPropertyOp28
 70
     1
102
RTVSPropertyOp29
 70
     1
102
RTVSPropertyOp30
 70
     1
102
RTVSPropertyOp31
 70
     1
102
RTVSPropertyOp32
 70
     1
  0
XRECORD
  5
1BB
102
{ACAD_REACTORS
330
1BA
102
}
330
1BA
100
AcDbXrecord
280
     1
102
RTVSPropertyOp0
 70
     1
102
RTVSPropertyOp1
 70
     1
102
RTVSPropertyOp2
 70
     1
102
RTVSPropertyOp3
 70
     1
102
RTVSPropertyOp4
 70
     1
102
RTVSPropertyOp5
 70
     1
102
RTVSPropertyOp6
 70
     1
102
RTVSPropertyOp7
 70
     1
102
RTVSPropertyOp8
 70
     1
102
RTVSPropertyOp9
 70
     1
102
RTVSPropertyOp10
 70
     1
102
RTVSPropertyOp11
 70
     1
102
RTVSPropertyOp12
 70
     1
102
RTVSPropertyOp13
 70
     1
102
RTVSPropertyOp14
 70
     1
102
RTVSPropertyOp15
 70
     1
102
RTVSPropertyOp16
 70
     1
102
RTVSPropertyOp17
 70
     1
102
RTVSPropertyOp18
 70
     1
102
RTVSPropertyOp19
 70
     1
102
RTVSPropertyOp20
 70
     1
102
RTVSPropertyOp21
 70
     1
102
RTVSPropertyOp22
 70
     1
102
RTVSPropertyOp23
 70
     1
102
RTVSPropertyOp24
 70
     1
102
RTVSPropertyOp25
 70
     1
102
RTVSPropertyOp26
 70
     1
102
RTVSPropertyOp27
 70
     1
102
RTVSPropertyOp28
 70
     1
102
RTVSPropertyOp29
 70
     1
102
RTVSPropertyOp30
 70
     1
102
RTVSPropertyOp31
 70
     1
102
RTVSPropertyOp32
 70
     1
  0
XRECORD
  5
1BD
102
{ACAD_REACTORS
330
1BC
102
}
330
1BC
100
AcDbXrecord
280
     1
102
RTVSPropertyOp0
 70
     1
102
RTVSPropertyOp1
 70
     1
102
RTVSPropertyOp2
 70
     1
102
RTVSPropertyOp3
 70
     1
102
RTVSPropertyOp4
 70
     1
102
RTVSPropertyOp5
 70
     1
102
RTVSPropertyOp6
 70
     1
102
RTVSPropertyOp7
 70
     1
102
RTVSPropertyOp8
 70
     1
102
RTVSPropertyOp9
 70
     1
102
RTVSPropertyOp10
 70
     1
102
RTVSPropertyOp11
 70
     1
102
RTVSPropertyOp12
 70
     1
102
RTVSPropertyOp13
 70
     1
102
RTVSPropertyOp14
 70
     1
102
RTVSPropertyOp15
 70
     1
102
RTVSPropertyOp16
 70
     1
102
RTVSPropertyOp17
 70
     1
102
RTVSPropertyOp18
 70
     1
102
RTVSPropertyOp19
 70
     1
102
RTVSPropertyOp20
 70
     1
102
RTVSPropertyOp21
 70
     1
102
RTVSPropertyOp22
 70
     1
102
RTVSPropertyOp23
 70
     1
102
RTVSPropertyOp24
 70
     1
102
RTVSPropertyOp25
 70
     1
102
RTVSPropertyOp26
 70
     1
102
RTVSPropertyOp27
 70
     1
102
RTVSPropertyOp28
 70
     1
102
RTVSPropertyOp29
 70
     1
102
RTVSPropertyOp30
 70
     1
102
RTVSPropertyOp31
 70
     1
102
RTVSPropertyOp32
 70
     1
  0
XRECORD
  5
1C5
102
{ACAD_REACTORS
330
1C4
102
}
330
1C4
100
AcDbXrecord
280
     1
102
RTVSPropertyOp0
 70
     1
102
RTVSPropertyOp1
 70
     1
102
RTVSPropertyOp2
 70
     1
102
RTVSPropertyOp3
 70
     1
102
RTVSPropertyOp4
 70
     1
102
RTVSPropertyOp5
 70
     1
102
RTVSPropertyOp6
 70
     1
102
RTVSPropertyOp7
 70
     1
102
RTVSPropertyOp8
 70
     1
102
RTVSPropertyOp9
 70
     1
102
RTVSPropertyOp10
 70
     1
102
RTVSPropertyOp11
 70
     1
102
RTVSPropertyOp12
 70
     1
102
RTVSPropertyOp13
 70
     1
102
RTVSPropertyOp14
 70
     1
102
RTVSPropertyOp15
 70
     1
102
RTVSPropertyOp16
 70
     1
102
RTVSPropertyOp17
 70
     1
102
RTVSPropertyOp18
 70
     1
102
RTVSPropertyOp19
 70
     1
102
RTVSPropertyOp20
 70
     1
102
RTVSPropertyOp21
 70
     1
102
RTVSPropertyOp22
 70
     1
102
RTVSPropertyOp23
 70
     1
102
RTVSPropertyOp24
 70
     1
102
RTVSPropertyOp25
 70
     1
102
RTVSPropertyOp26
 70
     1
102
RTVSPropertyOp27
 70
     1
102
RTVSPropertyOp28
 70
     1
102
RTVSPropertyOp29
 70
     1
102
RTVSPropertyOp30
 70
     1
102
RTVSPropertyOp31
 70
     1
102
RTVSPropertyOp32
 70
     1
  0
XRECORD
  5
1A9
102
{ACAD_REACTORS
330
1A8
102
}
330
1A8
100
AcDbXrecord
280
     1
102
RTVSPropertyOp0
 70
     1
102
RTVSPropertyOp1
 70
     1
102
RTVSPropertyOp2
 70
     1
102
RTVSPropertyOp3
 70
     1
102
RTVSPropertyOp4
 70
     1
102
RTVSPropertyOp5
 70
     1
102
RTVSPropertyOp6
 70
     1
102
RTVSPropertyOp7
 70
     1
102
RTVSPropertyOp8
 70
     1
102
RTVSPropertyOp9
 70
     1
102
RTVSPropertyOp10
 70
     1
102
RTVSPropertyOp11
 70
     1
102
RTVSPropertyOp12
 70
     1
102
RTVSPropertyOp13
 70
     1
102
RTVSPropertyOp14
 70
     1
102
RTVSPropertyOp15
 70
     1
102
RTVSPropertyOp16
 70
     1
102
RTVSPropertyOp17
 70
     1
102
RTVSPropertyOp18
 70
     1
102
RTVSPropertyOp19
 70
     1
102
RTVSPropertyOp20
 70
     1
102
RTVSPropertyOp21
 70
     1
102
RTVSPropertyOp22
 70
     1
102
RTVSPropertyOp23
 70
     1
102
RTVSPropertyOp24
 70
     1
102
RTVSPropertyOp25
 70
     1
102
RTVSPropertyOp26
 70
     1
102
RTVSPropertyOp27
 70
     1
102
RTVSPropertyOp28
 70
     1
102
RTVSPropertyOp29
 70
     1
102
RTVSPropertyOp30
 70
     1
102
RTVSPropertyOp31
 70
     1
102
RTVSPropertyOp32
 70
     1
  0
XRECORD
  5
1AB
102
{ACAD_REACTORS
330
1AA
102
}
330
1AA
100
AcDbXrecord
280
     1
102
RTVSPropertyOp0
 70
     1
102
RTVSPropertyOp1
 70
     1
102
RTVSPropertyOp2
 70
     1
102
RTVSPropertyOp3
 70
     1
102
RTVSPropertyOp4
 70
     1
102
RTVSPropertyOp5
 70
     1
102
RTVSPropertyOp6
 70
     1
102
RTVSPropertyOp7
 70
     1
102
RTVSPropertyOp8
 70
     1
102
RTVSPropertyOp9
 70
     1
102
RTVSPropertyOp10
 70
     1
102
RTVSPropertyOp11
 70
     1
102
RTVSPropertyOp12
 70
     1
102
RTVSPropertyOp13
 70
     1
102
RTVSPropertyOp14
 70
     1
102
RTVSPropertyOp15
 70
     1
102
RTVSPropertyOp16
 70
     1
102
RTVSPropertyOp17
 70
     1
102
RTVSPropertyOp18
 70
     1
102
RTVSPropertyOp19
 70
     1
102
RTVSPropertyOp20
 70
     1
102
RTVSPropertyOp21
 70
     1
102
RTVSPropertyOp22
 70
     1
102
RTVSPropertyOp23
 70
     1
102
RTVSPropertyOp24
 70
     1
102
RTVSPropertyOp25
 70
     1
102
RTVSPropertyOp26
 70
     1
102
RTVSPropertyOp27
 70
     1
102
RTVSPropertyOp28
 70
     1
102
RTVSPropertyOp29
 70
     1
102
RTVSPropertyOp30
 70
     1
102
RTVSPropertyOp31
 70
     1
102
RTVSPropertyOp32
 70
     1
  0
XRECORD
  5
1AD
102
{ACAD_REACTORS
330
1AC
102
}
330
1AC
100
AcDbXrecord
280
     1
102
RTVSPropertyOp0
 70
     1
102
RTVSPropertyOp1
 70
     1
102
RTVSPropertyOp2
 70
     1
102
RTVSPropertyOp3
 70
     1
102
RTVSPropertyOp4
 70
     1
102
RTVSPropertyOp5
 70
     1
102
RTVSPropertyOp6
 70
     1
102
RTVSPropertyOp7
 70
     1
102
RTVSPropertyOp8
 70
     1
102
RTVSPropertyOp9
 70
     1
102
RTVSPropertyOp10
 70
     1
102
RTVSPropertyOp11
 70
     1
102
RTVSPropertyOp12
 70
     1
102
RTVSPropertyOp13
 70
     1
102
RTVSPropertyOp14
 70
     1
102
RTVSPropertyOp15
 70
     1
102
RTVSPropertyOp16
 70
     1
102
RTVSPropertyOp17
 70
     1
102
RTVSPropertyOp18
 70
     1
102
RTVSPropertyOp19
 70
     1
102
RTVSPropertyOp20
 70
     1
102
RTVSPropertyOp21
 70
     1
102
RTVSPropertyOp22
 70
     1
102
RTVSPropertyOp23
 70
     1
102
RTVSPropertyOp24
 70
     1
102
RTVSPropertyOp25
 70
     1
102
RTVSPropertyOp26
 70
     1
102
RTVSPropertyOp27
 70
     1
102
RTVSPropertyOp28
 70
     1
102
RTVSPropertyOp29
 70
     1
102
RTVSPropertyOp30
 70
     1
102
RTVSPropertyOp31
 70
     1
102
RTVSPropertyOp32
 70
     1
  0
XRECORD
  5
1AF
102
{ACAD_REACTORS
330
1AE
102
}
330
1AE
100
AcDbXrecord
280
     1
102
RTVSPropertyOp0
 70
     1
102
RTVSPropertyOp1
 70
     1
102
RTVSPropertyOp2
 70
     1
102
RTVSPropertyOp3
 70
     1
102
RTVSPropertyOp4
 70
     1
102
RTVSPropertyOp5
 70
     1
102
RTVSPropertyOp6
 70
     1
102
RTVSPropertyOp7
 70
     1
102
RTVSPropertyOp8
 70
     1
102
RTVSPropertyOp9
 70
     1
102
RTVSPropertyOp10
 70
     1
102
RTVSPropertyOp11
 70
     1
102
RTVSPropertyOp12
 70
     1
102
RTVSPropertyOp13
 70
     1
102
RTVSPropertyOp14
 70
     1
102
RTVSPropertyOp15
 70
     1
102
RTVSPropertyOp16
 70
     1
102
RTVSPropertyOp17
 70
     1
102
RTVSPropertyOp18
 70
     1
102
RTVSPropertyOp19
 70
     1
102
RTVSPropertyOp20
 70
     1
102
RTVSPropertyOp21
 70
     1
102
RTVSPropertyOp22
 70
     1
102
RTVSPropertyOp23
 70
     1
102
RTVSPropertyOp24
 70
     1
102
RTVSPropertyOp25
 70
     1
102
RTVSPropertyOp26
 70
     1
102
RTVSPropertyOp27
 70
     1
102
RTVSPropertyOp28
 70
     1
102
RTVSPropertyOp29
 70
     1
102
RTVSPropertyOp30
 70
     1
102
RTVSPropertyOp31
 70
     1
102
RTVSPropertyOp32
 70
     1
  0
XRECORD
  5
1C3
102
{ACAD_REACTORS
330
1C2
102
}
330
1C2
100
AcDbXrecord
280
     1
102
RTVSPropertyOp0
 70
     1
102
RTVSPropertyOp1
 70
     1
102
RTVSPropertyOp2
 70
     1
102
RTVSPropertyOp3
 70
     1
102
RTVSPropertyOp4
 70
     1
102
RTVSPropertyOp5
 70
     1
102
RTVSPropertyOp6
 70
     1
102
RTVSPropertyOp7
 70
     1
102
RTVSPropertyOp8
 70
     1
102
RTVSPropertyOp9
 70
     1
102
RTVSPropertyOp10
 70
     1
102
RTVSPropertyOp11
 70
     1
102
RTVSPropertyOp12
 70
     1
102
RTVSPropertyOp13
 70
     1
102
RTVSPropertyOp14
 70
     1
102
RTVSPropertyOp15
 70
     1
102
RTVSPropertyOp16
 70
     1
102
RTVSPropertyOp17
 70
     1
102
RTVSPropertyOp18
 70
     1
102
RTVSPropertyOp19
 70
     1
102
RTVSPropertyOp20
 70
     1
102
RTVSPropertyOp21
 70
     1
102
RTVSPropertyOp22
 70
     1
102
RTVSPropertyOp23
 70
     1
102
RTVSPropertyOp24
 70
     1
102
RTVSPropertyOp25
 70
     1
102
RTVSPropertyOp26
 70
     1
102
RTVSPropertyOp27
 70
     1
102
RTVSPropertyOp28
 70
     1
102
RTVSPropertyOp29
 70
     1
102
RTVSPropertyOp30
 70
     1
102
RTVSPropertyOp31
 70
     1
102
RTVSPropertyOp32
 70
     1
  0
XRECORD
  5
1B9
102
{ACAD_REACTORS
330
1B8
102
}
330
1B8
100
AcDbXrecord
280
     1
102
RTVSPropertyOp0
 70
     1
102
RTVSPropertyOp1
 70
     1
102
RTVSPropertyOp2
 70
     1
102
RTVSPropertyOp3
 70
     1
102
RTVSPropertyOp4
 70
     1
102
RTVSPropertyOp5
 70
     1
102
RTVSPropertyOp6
 70
     1
102
RTVSPropertyOp7
 70
     1
102
RTVSPropertyOp8
 70
     1
102
RTVSPropertyOp9
 70
     1
102
RTVSPropertyOp10
 70
     1
102
RTVSPropertyOp11
 70
     1
102
RTVSPropertyOp12
 70
     1
102
RTVSPropertyOp13
 70
     1
102
RTVSPropertyOp14
 70
     1
102
RTVSPropertyOp15
 70
     1
102
RTVSPropertyOp16
 70
     1
102
RTVSPropertyOp17
 70
     1
102
RTVSPropertyOp18
 70
     1
102
RTVSPropertyOp19
 70
     1
102
RTVSPropertyOp20
 70
     1
102
RTVSPropertyOp21
 70
     1
102
RTVSPropertyOp22
 70
     1
102
RTVSPropertyOp23
 70
     1
102
RTVSPropertyOp24
 70
     1
102
RTVSPropertyOp25
 70
     1
102
RTVSPropertyOp26
 70
     1
102
RTVSPropertyOp27
 70
     1
102
RTVSPropertyOp28
 70
     1
102
RTVSPropertyOp29
 70
     1
102
RTVSPropertyOp30
 70
     1
102
RTVSPropertyOp31
 70
     1
102
RTVSPropertyOp32
 70
     1
  0
XRECORD
  5
1C1
102
{ACAD_REACTORS
330
1C0
102
}
330
1C0
100
AcDbXrecord
280
     1
102
RTVSPropertyOp0
 70
     1
102
RTVSPropertyOp1
 70
     1
102
RTVSPropertyOp2
 70
     1
102
RTVSPropertyOp3
 70
     1
102
RTVSPropertyOp4
 70
     1
102
RTVSPropertyOp5
 70
     1
102
RTVSPropertyOp6
 70
     1
102
RTVSPropertyOp7
 70
     1
102
RTVSPropertyOp8
 70
     1
102
RTVSPropertyOp9
 70
     1
102
RTVSPropertyOp10
 70
     1
102
RTVSPropertyOp11
 70
     1
102
RTVSPropertyOp12
 70
     1
102
RTVSPropertyOp13
 70
     1
102
RTVSPropertyOp14
 70
     1
102
RTVSPropertyOp15
 70
     1
102
RTVSPropertyOp16
 70
     1
102
RTVSPropertyOp17
 70
     1
102
RTVSPropertyOp18
 70
     1
102
RTVSPropertyOp19
 70
     1
102
RTVSPropertyOp20
 70
     1
102
RTVSPropertyOp21
 70
     1
102
RTVSPropertyOp22
 70
     1
102
RTVSPropertyOp23
 70
     1
102
RTVSPropertyOp24
 70
     1
102
RTVSPropertyOp25
 70
     1
102
RTVSPropertyOp26
 70
     1
102
RTVSPropertyOp27
 70
     1
102
RTVSPropertyOp28
 70
     1
102
RTVSPropertyOp29
 70
     1
102
RTVSPropertyOp30
 70
     1
102
RTVSPropertyOp31
 70
     1
102
RTVSPropertyOp32
 70
     1
  0
ENDSEC
  0
EOF
