  0
SECTION
  2
HEADER
  9
$ACADVER
  1
AC1015
  9
$ACADMAINTVER
 70
     6
  9
$DWGCODEPAGE
  3
ANSI_932
  9
$INSBASE
 10
0.0
 20
0.0
 30
0.0
  9
$EXTMIN
 10
0.0
 20
0.0
 30
0.0
  9
$EXTMAX
 10
209.9999999999999
 20
297.0
 30
0.0
  9
$LIMMIN
 10
0.0
 20
0.0
  9
$LIMMAX
 10
12.0
 20
9.0
  9
$ORTHOMODE
 70
     0
  9
$REGENMODE
 70
     1
  9
$FILLMODE
 70
     1
  9
$QTEXTMODE
 70
     0
  9
$MIRRTEXT
 70
     1
  9
$LTSCALE
 40
1.0
  9
$ATTMODE
 70
     1
  9
$TEXTSIZE
 40
0.2
  9
$TRACEWID
 40
0.05
  9
$TEXTSTYLE
  7
Standard
  9
$CLAYER
  8
0
  9
$CELTYPE
  6
ByLayer
  9
$CECOLOR
 62
   256
  9
$CELTSCALE
 40
1.0
  9
$DISPSILH
 70
     0
  9
$DIMSCALE
 40
1.0
  9
$DIMASZ
 40
0.18
  9
$DIMEXO
 40
0.0625
  9
$DIMDLI
 40
0.38
  9
$DIMRND
 40
0.0
  9
$DIMDLE
 40
0.0
  9
$DIMEXE
 40
0.18
  9
$DIMTP
 40
0.0
  9
$DIMTM
 40
0.0
  9
$DIMTXT
 40
0.18
  9
$DIMCEN
 40
0.09
  9
$DIMTSZ
 40
0.0
  9
$DIMTOL
 70
     0
  9
$DIMLIM
 70
     0
  9
$DIMTIH
 70
     1
  9
$DIMTOH
 70
     1
  9
$DIMSE1
 70
     0
  9
$DIMSE2
 70
     0
  9
$DIMTAD
 70
     0
  9
$DIMZIN
 70
     0
  9
$DIMBLK
  1

  9
$DIMASO
 70
     1
  9
$DIMSHO
 70
     1
  9
$DIMPOST
  1

  9
$DIMAPOST
  1

  9
$DIMALT
 70
     0
  9
$DIMALTD
 70
     2
  9
$DIMALTF
 40
25.4
  9
$DIMLFAC
 40
1.0
  9
$DIMTOFL
 70
     0
  9
$DIMTVP
 40
0.0
  9
$DIMTIX
 70
     0
  9
$DIMSOXD
 70
     0
  9
$DIMSAH
 70
     0
  9
$DIMBLK1
  1

  9
$DIMBLK2
  1

  9
$DIMSTYLE
  2
Standard
  9
$DIMCLRD
 70
     0
  9
$DIMCLRE
 70
     0
  9
$DIMCLRT
 70
     0
  9
$DIMTFAC
 40
1.0
  9
$DIMGAP
 40
0.09
  9
$DIMJUST
 70
     0
  9
$DIMSD1
 70
     0
  9
$DIMSD2
 70
     0
  9
$DIMTOLJ
 70
     1
  9
$DIMTZIN
 70
     0
  9
$DIMALTZ
 70
     0
  9
$DIMALTTZ
 70
     0
  9
$DIMUPT
 70
     0
  9
$DIMDEC
 70
     4
  9
$DIMTDEC
 70
     4
  9
$DIMALTU
 70
     2
  9
$DIMALTTD
 70
     2
  9
$DIMTXSTY
  7
Standard
  9
$DIMAUNIT
 70
     0
  9
$DIMADEC
 70
     0
  9
$DIMALTRND
 40
0.0
  9
$DIMAZIN
 70
     0
  9
$DIMDSEP
 70
    46
  9
$DIMATFIT
 70
     3
  9
$DIMFRAC
 70
     0
  9
$DIMLDRBLK
  1

  9
$DIMLUNIT
 70
     2
  9
$DIMLWD
 70
    -2
  9
$DIMLWE
 70
    -2
  9
$DIMTMOVE
 70
     0
  9
$LUNITS
 70
     2
  9
$LUPREC
 70
     4
  9
$SKETCHINC
 40
0.1
  9
$FILLETRAD
 40
0.5
  9
$AUNITS
 70
     0
  9
$AUPREC
 70
     0
  9
$MENU
  1
.
  9
$ELEVATION
 40
0.0
  9
$PELEVATION
 40
0.0
  9
$THICKNESS
 40
0.0
  9
$LIMCHECK
 70
     0
  9
$CHAMFERA
 40
0.5
  9
$CHAMFERB
 40
0.5
  9
$CHAMFERC
 40
1.0
  9
$CHAMFERD
 40
0.0
  9
$SKPOLY
 70
     0
  9
$TDCREATE
 40
2460348.556342014
  9
$TDUCREATE
 40
2460348.181342014
  9
$TDUPDATE
 40
2460348.55634346
  9
$TDUUPDATE
 40
2460348.18134346
  9
$TDINDWG
 40
0.0000000116
  9
$TDUSRTIMER
 40
0.0000000116
  9
$USRTIMER
 70
     1
  9
$ANGBASE
 50
0.0
  9
$ANGDIR
 70
     0
  9
$PDMODE
 70
     0
  9
$PDSIZE
 40
0.0
  9
$PLINEWID
 40
0.0
  9
$SPLFRAME
 70
     0
  9
$SPLINETYPE
 70
     6
  9
$SPLINESEGS
 70
     8
  9
$HANDSEED
  5
1CE
  9
$SURFTAB1
 70
     6
  9
$SURFTAB2
 70
     6
  9
$SURFTYPE
 70
     6
  9
$SURFU
 70
     6
  9
$SURFV
 70
     6
  9
$UCSBASE
  2

  9
$UCSNAME
  2

  9
$UCSORG
 10
0.0
 20
0.0
 30
0.0
  9
$UCSXDIR
 10
1.0
 20
0.0
 30
0.0
  9
$UCSYDIR
 10
0.0
 20
1.0
 30
0.0
  9
$UCSORTHOREF
  2

  9
$UCSORTHOVIEW
 70
     0
  9
$UCSORGTOP
 10
0.0
 20
0.0
 30
0.0
  9
$UCSORGBOTTOM
 10
0.0
 20
0.0
 30
0.0
  9
$UCSORGLEFT
 10
0.0
 20
0.0
 30
0.0
  9
$UCSORGRIGHT
 10
0.0
 20
0.0
 30
0.0
  9
$UCSORGFRONT
 10
0.0
 20
0.0
 30
0.0
  9
$UCSORGBACK
 10
0.0
 20
0.0
 30
0.0
  9
$PUCSBASE
  2

  9
$PUCSNAME
  2

  9
$PUCSORG
 10
0.0
 20
0.0
 30
0.0
  9
$PUCSXDIR
 10
1.0
 20
0.0
 30
0.0
  9
$PUCSYDIR
 10
0.0
 20
1.0
 30
0.0
  9
$PUCSORTHOREF
  2

  9
$PUCSORTHOVIEW
 70
     0
  9
$PUCSORGTOP
 10
0.0
 20
0.0
 30
0.0
  9
$PUCSORGBOTTOM
 10
0.0
 20
0.0
 30
0.0
  9
$PUCSORGLEFT
 10
0.0
 20
0.0
 30
0.0
  9
$PUCSORGRIGHT
 10
0.0
 20
0.0
 30
0.0
  9
$PUCSORGFRONT
 10
0.0
 20
0.0
 30
0.0
  9
$PUCSORGBACK
 10
0.0
 20
0.0
 30
0.0
  9
$USERI1
 70
     0
  9
$USERI2
 70
     0
  9
$USERI3
 70
     0
  9
$USERI4
 70
     0
  9
$USERI5
 70
     0
  9
$USERR1
 40
18.1
  9
$USERR2
 40
0.0
  9
$USERR3
 40
0.0
  9
$USERR4
 40
0.0
  9
$USERR5
 40
0.0
  9
$WORLDVIEW
 70
     1
  9
$SHADEDGE
 70
     3
  9
$SHADEDIF
 70
    70
  9
$TILEMODE
 70
     1
  9
$MAXACTVP
 70
    64
  9
$PINSBASE
 10
0.0
 20
0.0
 30
0.0
  9
$PLIMCHECK
 70
     0
  9
$PEXTMIN
 10
1.00000000000000E+20
 20
1.00000000000000E+20
 30
1.00000000000000E+20
  9
$PEXTMAX
 10
-1.00000000000000E+20
 20
-1.00000000000000E+20
 30
-1.00000000000000E+20
  9
$PLIMMIN
 10
0.0
 20
0.0
  9
$PLIMMAX
 10
12.0
 20
9.0
  9
$UNITMODE
 70
     0
  9
$VISRETAIN
 70
     1
  9
$PLINEGEN
 70
     0
  9
$PSLTSCALE
 70
     1
  9
$TREEDEPTH
 70
  3020
  9
$CMLSTYLE
  2
Standard
  9
$CMLJUST
 70
     0
  9
$CMLSCALE
 40
1.0
  9
$PROXYGRAPHICS
 70
     1
  9
$MEASUREMENT
 70
     1
  9
$CELWEIGHT
370
    -1
  9
$ENDCAPS
280
     0
  9
$JOINSTYLE
280
     0
  9
$LWDISPLAY
290
     0
  9
$INSUNITS
 70
     4
  9
$HYPERLINKBASE
  1

  9
$STYLESHEET
  1

  9
$XEDIT
290
     1
  9
$CEPSNTYPE
380
     0
  9
$PSTYLEMODE
290
     1
  9
$FINGERPRINTGUID
  2
{98974F3E-59EC-40BE-ACB2-2E4EFC62F1B7}
  9
$VERSIONGUID
  2
{FAEB1C32-E019-11D5-929B-00C0DF256EC4}
  9
$EXTNAMES
290
     1
  9
$PSVPSCALE
 40
0.0
  9
$OLESTARTUP
290
     0
  0
ENDSEC
  0
SECTION
  2
CLASSES
  0
CLASS
  1
ACDBDICTIONARYWDFLT
  2
AcDbDictionaryWithDefault
  3
ObjectDBX Classes
 90
        0
280
     0
281
     0
  0
CLASS
  1
VISUALSTYLE
  2
AcDbVisualStyle
  3
ObjectDBX Classes
 90
     4095
280
     0
281
     0
  0
CLASS
  1
MATERIAL
  2
AcDbMaterial
  3
ObjectDBX Classes
 90
     1153
280
     0
281
     0
  0
CLASS
  1
DICTIONARYVAR
  2
AcDbDictionaryVar
  3
ObjectDBX Classes
 90
        0
280
     0
281
     0
  0
CLASS
  1
ACDBPLACEHOLDER
  2
AcDbPlaceHolder
  3
ObjectDBX Classes
 90
        0
280
     0
281
     0
  0
CLASS
  1
LAYOUT
  2
AcDbLayout
  3
ObjectDBX Classes
 90
        0
280
     0
281
     0
  0
ENDSEC
  0
SECTION
  2
TABLES
  0
TABLE
  2
VPORT
  5
8
330
0
100
AcDbSymbolTable
 70
     1
  0
VPORT
  5
29
330
8
100
AcDbSymbolTableRecord
100
AcDbViewportTableRecord
  2
*Active
 70
     0
 10
0.0
 20
0.0
 11
1.0
 21
1.0
 12
104.9999999999999
 22
148.5
 13
0.0
 23
0.0
 14
0.5
 24
0.5
 15
0.5
 25
0.5
 16
0.0
 26
0.0
 36
1.0
 17
0.0
 27
0.0
 37
0.0
 40
326.7
 41
1.60267857142857
 42
50.0
 43
0.0
 44
0.0
 50
0.0
 51
0.0
 71
     0
 72
   100
 73
     1
 74
     3
 75
     0
 76
     0
 77
     0
 78
     0
281
     0
 65
     1
110
0.0
120
0.0
130
0.0
111
1.0
121
0.0
131
0.0
112
0.0
122
1.0
132
0.0
 79
     0
146
0.0
  0
ENDTAB
  0
TABLE
  2
LTYPE
  5
5
330
0
100
AcDbSymbolTable
 70
     8
  0
LTYPE
  5
14
330
5
100
AcDbSymbolTableRecord
100
AcDbLinetypeTableRecord
  2
ByBlock
 70
     0
  3

 72
    65
 73
     0
 40
0.0
  0
LTYPE
  5
15
330
5
100
AcDbSymbolTableRecord
100
AcDbLinetypeTableRecord
  2
ByLayer
 70
     0
  3

 72
    65
 73
     0
 40
0.0
  0
LTYPE
  5
16
330
5
100
AcDbSymbolTableRecord
100
AcDbLinetypeTableRecord
  2
Continuous
 70
     0
  3
Solid line
 72
    65
 73
     0
 40
0.0
  0
LTYPE
  5
3F
330
5
100
AcDbSymbolTableRecord
100
AcDbLinetypeTableRecord
  2
DASHED
 70
     0
  3
Dashed
 72
    65
 73
     2
 40
15.0
 49
7.0
 74
     0
 49
-8.0
 74
     0
  0
LTYPE
  5
40
330
5
100
AcDbSymbolTableRecord
100
AcDbLinetypeTableRecord
  2
DOTTED
 70
     0
  3
Dotted
 72
    65
 73
     2
 40
1.0
 49
0.0
 74
     0
 49
-1.0
 74
     0
  0
LTYPE
  5
41
330
5
100
AcDbSymbolTableRecord
100
AcDbLinetypeTableRecord
  2
DOT_CENTER
 70
     0
  3
Dot_Center
 72
    65
 73
     4
 40
14.0
 49
12.0
 74
     0
 49
-1.0
 74
     0
 49
0.0
 74
     0
 49
-1.0
 74
     0
  0
LTYPE
  5
42
330
5
100
AcDbSymbolTableRecord
100
AcDbLinetypeTableRecord
  2
LONG_DASHED
 70
     0
  3
Long_Dashed
 72
    65
 73
     2
 40
15.0
 49
10.0
 74
     0
 49
-5.0
 74
     0
  0
LTYPE
  5
43
330
5
100
AcDbSymbolTableRecord
100
AcDbLinetypeTableRecord
  2
DASH_CENTER
 70
     0
  3
Dash_Center
 72
    65
 73
     4
 40
14.0
 49
11.0
 74
     0
 49
-1.0
 74
     0
 49
1.0
 74
     0
 49
-1.0
 74
     0
  0
LTYPE
  5
44
330
5
100
AcDbSymbolTableRecord
100
AcDbLinetypeTableRecord
  2
PHANTOM
 70
     0
  3
Phantom
 72
    65
 73
     6
 40
13.0
 49
10.0
 74
     0
 49
-1.0
 74
     0
 49
0.0
 74
     0
 49
-1.0
 74
     0
 49
0.0
 74
     0
 49
-1.0
 74
     0
  0
LTYPE
  5
45
330
5
100
AcDbSymbolTableRecord
100
AcDbLinetypeTableRecord
  2
CENTER_DASH_DASH
 70
     0
  3
Center_Dash_Dash
 72
    65
 73
     6
 40
14.0
 49
9.0
 74
     0
 49
-1.0
 74
     0
 49
1.0
 74
     0
 49
-1.0
 74
     0
 49
1.0
 74
     0
 49
-1.0
 74
     0
  0
ENDTAB
  0
TABLE
  2
LAYER
  5
2
330
0
100
AcDbSymbolTable
 70
     4
  0
LAYER
  5
10
330
2
100
AcDbSymbolTableRecord
100
AcDbLayerTableRecord
  2
0
 70
     0
 62
     7
  6
Continuous
370
    -3
390
F
  0
LAYER
  5
46
330
2
100
AcDbSymbolTableRecord
100
AcDbLayerTableRecord
  2
1
 70
     0
 62
     7
  6
Continuous
370
    -3
390
F
  0
LAYER
  5
47
330
2
100
AcDbSymbolTableRecord
100
AcDbLayerTableRecord
  2
LAY-1
 70
     0
 62
     7
  6
Continuous
370
    -3
390
F
  0
LAYER
  5
48
330
2
100
AcDbSymbolTableRecord
100
AcDbLayerTableRecord
  2
_U_30EC_U_30A4_U_30E4_U_30FC_1
 70
     0
 62
     7
  6
Continuous
370
    -3
390
F
  0
ENDTAB
  0
TABLE
  2
STYLE
  5
3
330
0
100
AcDbSymbolTable
 70
     3
  0
STYLE
  5
11
330
3
100
AcDbSymbolTableRecord
100
AcDbTextStyleTableRecord
  2
Standard
 70
     0
 40
0.0
 41
1.0
 50
0.0
 71
     0
 42
0.2
  3
txt
  4

  0
STYLE
  5
BF
330
3
100
AcDbSymbolTableRecord
100
AcDbTextStyleTableRecord
  2
CONVERTER_11
 70
     0
 40
0.0
 41
0.89
 50
0.0
 71
     0
 42
0.2
  3
MS Mincho.ttf
  4

1001
ACAD
1000
MS Mincho
1071
    32785
  0
STYLE
  5
15E
330
3
100
AcDbSymbolTableRecord
100
AcDbTextStyleTableRecord
  2
CONVERTER_12
 70
     0
 40
0.0
 41
0.9
 50
0.0
 71
     0
 42
0.2
  3
txt.shx
  4

  0
ENDTAB
  0
TABLE
  2
VIEW
  5
6
330
0
100
AcDbSymbolTable
 70
     0
  0
ENDTAB
  0
TABLE
  2
UCS
  5
7
330
0
100
AcDbSymbolTable
 70
     0
  0
ENDTAB
  0
TABLE
  2
APPID
  5
9
330
0
100
AcDbSymbolTable
 70
     1
  0
APPID
  5
12
330
9
100
AcDbSymbolTableRecord
100
AcDbRegAppTableRecord
  2
ACAD
 70
     0
  0
ENDTAB
  0
TABLE
  2
DIMSTYLE
  5
A
330
0
100
AcDbSymbolTable
 70
     3
100
AcDbDimStyleTable
  0
DIMSTYLE
105
27
330
A
100
AcDbSymbolTableRecord
100
AcDbDimStyleTableRecord
  2
Standard
 70
     0
178
     0
340
11
  0
DIMSTYLE
105
176
102
{ACAD_REACTORS
330
177
102
}
330
A
100
AcDbSymbolTableRecord
100
AcDbDimStyleTableRecord
  2
ME10_DIM_10
 70
     0
 41
3.5
 42
0.0
 44
1.0
 73
     0
 74
     0
 77
     1
 78
     8
140
3.5
147
1.0
172
     1
173
     1
174
     1
175
     1
176
     2
177
     2
271
     2
178
     7
271
     2
340
15E
  0
DIMSTYLE
105
181
102
{ACAD_REACTORS
330
182
102
}
330
A
100
AcDbSymbolTableRecord
100
AcDbDimStyleTableRecord
  2
ME10_DIM_11
 70
     0
 41
3.5
 42
0.0
 44
1.0
 73
     0
 74
     0
 77
     1
 78
     8
140
3.5
147
1.0
172
     1
173
     1
174
     1
175
     1
176
     2
177
     2
271
     2
178
     7
271
     2
340
15E
  0
ENDTAB
  0
TABLE
  2
BLOCK_RECORD
  5
1
330
0
100
AcDbSymbolTable
 70
    12
  0
BLOCK_RECORD
  5
1F
330
1
100
AcDbSymbolTableRecord
100
AcDbBlockTableRecord
  2
*Model_Space
340
22
  0
BLOCK_RECORD
  5
1B
330
1
100
AcDbSymbolTableRecord
100
AcDbBlockTableRecord
  2
*Paper_Space
340
1E
  0
BLOCK_RECORD
  5
23
330
1
100
AcDbSymbolTableRecord
100
AcDbBlockTableRecord
  2
*Paper_Space0
340
26
  0
BLOCK_RECORD
  5
49
330
1
100
AcDbSymbolTableRecord
100
AcDbBlockTableRecord
  2
開示A4
340
0
102
{BLKREFS
331
4D
102
}
  0
BLOCK_RECORD
  5
4C
330
1
100
AcDbSymbolTableRecord
100
AcDbBlockTableRecord
  2
開示A4枠
340
0
102
{BLKREFS
331
59
102
}
  0
BLOCK_RECORD
  5
50
330
1
100
AcDbSymbolTableRecord
100
AcDbBlockTableRecord
  2
TOP
340
0
102
{BLKREFS
331
5A
102
}
  0
BLOCK_RECORD
  5
53
330
1
100
AcDbSymbolTableRecord
100
AcDbBlockTableRecord
  2
_1
340
0
102
{BLKREFS
331
5B
102
}
  0
BLOCK_RECORD
  5
56
330
1
100
AcDbSymbolTableRecord
100
AcDbBlockTableRecord
  2
nut
340
0
102
{BLKREFS
331
5C
102
}
  0
BLOCK_RECORD
  5
16D
330
1
100
AcDbSymbolTableRecord
100
AcDbBlockTableRecord
  2
*D6
340
0
  0
BLOCK_RECORD
  5
178
330
1
100
AcDbSymbolTableRecord
100
AcDbBlockTableRecord
  2
*D7
340
0
  0
BLOCK_RECORD
  5
183
330
1
100
AcDbSymbolTableRecord
100
AcDbBlockTableRecord
  2
*D8
340
0
102
{BLKREFS
331
18A
102
}
  0
BLOCK_RECORD
  5
18B
330
1
100
AcDbSymbolTableRecord
100
AcDbBlockTableRecord
  2
*D9
340
0
102
{BLKREFS
331
192
102
}
  0
BLOCK_RECORD
  5
193
330
1
100
AcDbSymbolTableRecord
100
AcDbBlockTableRecord
  2
*D10
340
0
102
{BLKREFS
331
19A
102
}
  0
BLOCK_RECORD
  5
19B
330
1
100
AcDbSymbolTableRecord
100
AcDbBlockTableRecord
  2
*D11
340
0
102
{BLKREFS
331
1A2
102
}
  0
ENDTAB
  0
ENDSEC
  0
SECTION
  2
BLOCKS
  0
BLOCK
  5
20
330
1F
100
AcDbEntity
  8
0
100
AcDbBlockBegin
  2
*Model_Space
 70
     0
 10
0.0
 20
0.0
 30
0.0
  3
*Model_Space
  1

  0
ENDBLK
  5
21
330
1F
100
AcDbEntity
  8
0
100
AcDbBlockEnd
  0
BLOCK
  5
1C
330
1B
100
AcDbEntity
 67
     1
  8
0
100
AcDbBlockBegin
  2
*Paper_Space
 70
     0
 10
0.0
 20
0.0
 30
0.0
  3
*Paper_Space
  1

  0
ENDBLK
  5
1D
330
1B
100
AcDbEntity
 67
     1
  8
0
100
AcDbBlockEnd
  0
BLOCK
  5
24
330
23
100
AcDbEntity
  8
0
100
AcDbBlockBegin
  2
*Paper_Space0
 70
     0
 10
0.0
 20
0.0
 30
0.0
  3
*Paper_Space0
  1

  0
ENDBLK
  5
25
330
23
100
AcDbEntity
  8
0
100
AcDbBlockEnd
  0
BLOCK
  5
4A
330
49
100
AcDbEntity
  8
0
100
AcDbBlockBegin
  2
開示A4
 70
     0
 10
0.0
 20
0.0
 30
0.0
  3
開示A4
  1

  0
POINT
  5
5D
330
49
100
AcDbEntity
  8
1
 62
     4
100
AcDbPoint
 10
182.9999999999999
 20
15.0
 30
0.0
  0
POINT
  5
5E
330
49
100
AcDbEntity
  8
1
 62
     4
100
AcDbPoint
 10
93.74999999999991
 20
17.0
 30
0.0
  0
POINT
  5
5F
330
49
100
AcDbEntity
  8
1
 62
     4
100
AcDbPoint
 10
85.24999999999997
 20
17.0
 30
0.0
  0
POINT
  5
60
330
49
100
AcDbEntity
  8
1
 62
     4
100
AcDbPoint
 10
106.4999999999999
 20
19.0
 30
0.0
  0
POINT
  5
61
330
49
100
AcDbEntity
  8
1
 62
     4
100
AcDbPoint
 10
106.4999999999999
 20
12.5
 30
0.0
  0
POINT
  5
62
330
49
100
AcDbEntity
  8
1
 62
     4
100
AcDbPoint
 10
112.2499999999999
 20
12.5
 30
0.0
  0
POINT
  5
63
330
49
100
AcDbEntity
  8
1
 62
     4
100
AcDbPoint
 10
100.7499999999999
 20
12.5
 30
0.0
  0
POINT
  5
64
330
49
100
AcDbEntity
  8
1
 62
     4
100
AcDbPoint
 10
123.4999999999999
 20
19.0
 30
0.0
  0
POINT
  5
65
330
49
100
AcDbEntity
  8
1
 62
     4
100
AcDbPoint
 10
123.4999999999999
 20
12.5
 30
0.0
  0
POINT
  5
66
330
49
100
AcDbEntity
  8
1
 62
     4
100
AcDbPoint
 10
129.2499999999999
 20
12.5
 30
0.0
  0
POINT
  5
67
330
49
100
AcDbEntity
  8
1
 62
     4
100
AcDbPoint
 10
117.7499999999999
 20
12.5
 30
0.0
  0
POINT
  5
68
330
49
100
AcDbEntity
  8
1
 62
     4
100
AcDbPoint
 10
140.4999999999999
 20
19.0
 30
0.0
  0
POINT
  5
69
330
49
100
AcDbEntity
  8
1
 62
     4
100
AcDbPoint
 10
140.4999999999999
 20
12.5
 30
0.0
  0
POINT
  5
6A
330
49
100
AcDbEntity
  8
1
 62
     4
100
AcDbPoint
 10
146.2499999999999
 20
12.5
 30
0.0
  0
POINT
  5
6B
330
49
100
AcDbEntity
  8
1
 62
     4
100
AcDbPoint
 10
134.7499999999999
 20
12.5
 30
0.0
  0
POINT
  5
6C
330
49
100
AcDbEntity
  8
1
 62
     4
100
AcDbPoint
 10
151.7499999999999
 20
12.5
 30
0.0
  0
POINT
  5
6D
330
49
100
AcDbEntity
  8
1
 62
     4
100
AcDbPoint
 10
163.2499999999999
 20
12.5
 30
0.0
  0
POINT
  5
6E
330
49
100
AcDbEntity
  8
1
 62
     4
100
AcDbPoint
 10
157.4999999999999
 20
12.5
 30
0.0
  0
POINT
  5
6F
330
49
100
AcDbEntity
  8
1
 62
     4
100
AcDbPoint
 10
56.99999999999997
 20
14.25
 30
0.0
  0
POINT
  5
70
330
49
100
AcDbEntity
  8
1
 62
     4
100
AcDbPoint
 10
56.99999999999997
 20
22.75
 30
0.0
  0
POINT
  5
71
330
49
100
AcDbEntity
  8
1
 62
     4
100
AcDbPoint
 10
47.5
 20
282.0000000000002
 30
0.0
  0
POINT
  5
72
330
49
100
AcDbEntity
  8
1
 62
     4
100
AcDbPoint
 10
157.4999999999999
 20
19.0
 30
0.0
  0
POINT
  5
73
330
49
100
AcDbEntity
  8
1
 62
     4
100
AcDbPoint
 10
56.99999999999997
 20
16.25
 30
0.0
  0
POINT
  5
74
330
49
100
AcDbEntity
  8
1
 62
     4
100
AcDbPoint
 10
56.99999999999997
 20
24.75
 30
0.0
  0
POINT
  5
75
330
49
100
AcDbEntity
  8
1
 62
     4
100
AcDbPoint
 10
56.99999999999997
 20
20.75
 30
0.0
  0
POINT
  5
76
330
49
100
AcDbEntity
  8
1
 62
     4
100
AcDbPoint
 10
56.99999999999997
 20
12.25
 30
0.0
  0
POINT
  5
77
330
49
100
AcDbEntity
  8
1
 62
     4
100
AcDbPoint
 10
34.0
 20
34.0
 30
0.0
  0
LINE
  5
7C
330
49
100
AcDbEntity
  8
1
  6
Continuous
 62
     7
100
AcDbLine
 10
104.9999999999999
 20
10.0
 30
0.0
 11
199.9999999999999
 21
10.0
 31
0.0
  0
LINE
  5
7D
330
49
100
AcDbEntity
  8
1
  6
Continuous
 62
     2
100
AcDbLine
 10
104.9999999999999
 20
10.0
 30
0.0
 11
104.9999999999999
 21
5.0
 31
0.0
  0
LINE
  5
7E
330
49
100
AcDbEntity
  8
1
  6
Continuous
 62
     7
100
AcDbLine
 10
199.9999999999999
 20
148.5
 30
0.0
 11
199.9999999999999
 21
287.0000000000002
 31
0.0
  0
LINE
  5
7F
330
49
100
AcDbEntity
  8
1
  6
Continuous
 62
     2
100
AcDbLine
 10
199.9999999999999
 20
148.5
 30
0.0
 11
204.9999999999999
 21
148.5
 31
0.0
  0
LINE
  5
80
330
49
100
AcDbEntity
  8
1
  6
Continuous
 62
     7
100
AcDbLine
 10
25.0
 20
148.5
 30
0.0
 11
25.0
 21
287.0000000000002
 31
0.0
  0
LINE
  5
81
330
49
100
AcDbEntity
  8
1
  6
Continuous
 62
     2
100
AcDbLine
 10
25.0
 20
148.5
 30
0.0
 11
20.0
 21
148.5
 31
0.0
  0
LINE
  5
82
330
49
100
AcDbEntity
  8
1
  6
Continuous
 62
     7
100
AcDbLine
 10
104.9999999999999
 20
287.0000000000002
 30
0.0
 11
25.0
 21
287.0000000000002
 31
0.0
  0
LINE
  5
83
330
49
100
AcDbEntity
  8
1
  6
Continuous
 62
     2
100
AcDbLine
 10
104.9999999999999
 20
287.0000000000002
 30
0.0
 11
104.9999999999999
 21
292.0000000000002
 31
0.0
  0
LINE
  5
84
330
49
100
AcDbEntity
  8
1
  6
Continuous
 62
     2
100
AcDbLine
 10
165.9999999999999
 20
20.0
 30
0.0
 11
199.9999999999999
 21
20.0
 31
0.0
  0
LINE
  5
85
330
49
100
AcDbEntity
  8
1
  6
Continuous
 62
     2
100
AcDbLine
 10
97.99999999999991
 20
27.0
 30
0.0
 11
97.99999999999991
 21
10.0
 31
0.0
  0
LINE
  5
86
330
49
100
AcDbEntity
  8
1
  6
Continuous
 62
     2
100
AcDbLine
 10
114.9999999999999
 20
27.0
 30
0.0
 11
114.9999999999999
 21
10.0
 31
0.0
  0
LINE
  5
87
330
49
100
AcDbEntity
  8
1
  6
Continuous
 62
     2
100
AcDbLine
 10
148.9999999999999
 20
27.0
 30
0.0
 11
148.9999999999999
 21
10.0
 31
0.0
  0
LINE
  5
88
330
49
100
AcDbEntity
  8
1
  6
Continuous
 62
     2
100
AcDbLine
 10
131.9999999999999
 20
27.0
 30
0.0
 11
131.9999999999999
 21
10.0
 31
0.0
  0
LINE
  5
89
330
49
100
AcDbEntity
  8
1
  6
Continuous
 62
     2
100
AcDbLine
 10
165.9999999999999
 20
27.0
 30
0.0
 11
165.9999999999999
 21
10.0
 31
0.0
  0
LINE
  5
8A
330
49
100
AcDbEntity
  8
1
  6
Continuous
 62
     2
100
AcDbLine
 10
55.0
 20
277.0000000000002
 30
0.0
 11
25.0
 21
277.0000000000002
 31
0.0
  0
LINE
  5
8B
330
49
100
AcDbEntity
  8
1
  6
Continuous
 62
     7
100
AcDbLine
 10
25.0
 20
10.0
 30
0.0
 11
25.0
 21
148.5
 31
0.0
  0
LINE
  5
8C
330
49
100
AcDbEntity
  8
1
  6
Continuous
 62
     2
100
AcDbLine
 10
40.0
 20
287.0000000000002
 30
0.0
 11
40.0
 21
277.0000000000002
 31
0.0
  0
LINE
  5
8D
330
49
100
AcDbEntity
  8
1
  6
Continuous
 62
     2
100
AcDbLine
 10
55.0
 20
287.0000000000002
 30
0.0
 11
55.0
 21
277.0000000000002
 31
0.0
  0
LINE
  5
8E
330
49
100
AcDbEntity
  8
1
  6
Continuous
 62
     2
100
AcDbLine
 10
33.0
 20
41.0
 30
0.0
 11
33.0
 21
27.0
 31
0.0
  0
LINE
  5
8F
330
49
100
AcDbEntity
  8
1
  6
Continuous
 62
     7
100
AcDbLine
 10
199.9999999999999
 20
27.0
 30
0.0
 11
25.0
 21
27.0
 31
0.0
  0
LINE
  5
90
330
49
100
AcDbEntity
  8
1
  6
Continuous
 62
     7
100
AcDbLine
 10
25.0
 20
41.0
 30
0.0
 11
199.9999999999999
 21
41.0
 31
0.0
  0
LINE
  5
91
330
49
100
AcDbEntity
  8
1
  6
PHANTOM
 62
     4
100
AcDbLine
 10
0.0
 20
0.0
 30
0.0
 11
209.9999999999999
 21
0.0
 31
0.0
  0
LINE
  5
92
330
49
100
AcDbEntity
  8
1
  6
PHANTOM
 62
     4
100
AcDbLine
 10
209.9999999999999
 20
0.0
 30
0.0
 11
209.9999999999999
 21
297.0
 31
0.0
  0
LINE
  5
93
330
49
100
AcDbEntity
  8
1
  6
PHANTOM
 62
     4
100
AcDbLine
 10
209.9999999999999
 20
297.0
 30
0.0
 11
0.0
 21
297.0
 31
0.0
  0
LINE
  5
94
330
49
100
AcDbEntity
  8
1
  6
PHANTOM
 62
     4
100
AcDbLine
 10
0.0
 20
297.0
 30
0.0
 11
0.0
 21
0.0
 31
0.0
  0
LINE
  5
95
330
49
100
AcDbEntity
  8
1
  6
Continuous
 62
     7
100
AcDbLine
 10
25.0
 20
10.0
 30
0.0
 11
104.9999999999999
 21
10.0
 31
0.0
  0
LINE
  5
96
330
49
100
AcDbEntity
  8
1
  6
Continuous
 62
     7
100
AcDbLine
 10
199.9999999999999
 20
10.0
 30
0.0
 11
199.9999999999999
 21
148.5
 31
0.0
  0
LINE
  5
97
330
49
100
AcDbEntity
  8
1
  6
Continuous
 62
     7
100
AcDbLine
 10
199.9999999999999
 20
287.0000000000002
 30
0.0
 11
104.9999999999999
 21
287.0000000000002
 31
0.0
  0
LINE
  5
98
330
49
100
AcDbEntity
  8
1
  6
Continuous
 62
     2
100
AcDbLine
 10
25.0
 20
18.5
 30
0.0
 11
80.99999999999997
 21
18.5
 31
0.0
  0
LINE
  5
99
330
49
100
AcDbEntity
  8
1
  6
Continuous
 62
     2
100
AcDbLine
 10
33.0
 20
27.0
 30
0.0
 11
33.0
 21
10.0
 31
0.0
  0
LINE
  5
9A
330
49
100
AcDbEntity
  8
1
  6
Continuous
 62
     7
100
AcDbLine
 10
190.9999999999999
 20
24.7
 30
0.0
 11
190.9999999999999
 21
22.3
 31
0.0
  0
LINE
  5
9B
330
49
100
AcDbEntity
  8
1
  6
Continuous
 62
     7
100
AcDbLine
 10
190.9999999999999
 20
24.7
 30
0.0
 11
195.9999999999999
 21
25.5
 31
0.0
  0
LINE
  5
9C
330
49
100
AcDbEntity
  8
1
  6
Continuous
 62
     7
100
AcDbLine
 10
195.9999999999999
 20
25.5
 30
0.0
 11
195.9999999999999
 21
21.5
 31
0.0
  0
LINE
  5
9D
330
49
100
AcDbEntity
  8
1
  6
Continuous
 62
     7
100
AcDbLine
 10
195.9999999999999
 20
21.5
 30
0.0
 11
190.9999999999999
 21
22.3
 31
0.0
  0
LINE
  5
9E
330
49
100
AcDbEntity
  8
1
  6
DOT_CENTER
 62
     2
100
AcDbLine
 10
183.9999999999999
 20
23.5
 30
0.0
 11
196.9999999999999
 21
23.5
 31
0.0
  0
LINE
  5
9F
330
49
100
AcDbEntity
  8
1
  6
DOT_CENTER
 62
     2
100
AcDbLine
 10
186.9999999999999
 20
26.5
 30
0.0
 11
186.9999999999999
 21
20.5
 31
0.0
  0
LINE
  5
A0
330
49
100
AcDbEntity
  8
1
  6
Continuous
 62
     2
100
AcDbLine
 10
80.99999999999997
 20
27.0
 30
0.0
 11
80.99999999999997
 21
10.0
 31
0.0
  0
CIRCLE
  5
A1
330
49
100
AcDbEntity
  8
1
  6
Continuous
 62
     7
100
AcDbCircle
 10
103.4999999999999
 20
12.5
 30
0.0
 40
0.3000000000000966
  0
CIRCLE
  5
A2
330
49
100
AcDbEntity
  8
1
  6
Continuous
 62
     7
100
AcDbCircle
 10
109.4999999999999
 20
12.5
 30
0.0
 40
0.3000000000000966
  0
CIRCLE
  5
A3
330
49
100
AcDbEntity
  8
1
  6
Continuous
 62
     7
100
AcDbCircle
 10
120.4999999999999
 20
12.5
 30
0.0
 40
0.3000000000000966
  0
CIRCLE
  5
A4
330
49
100
AcDbEntity
  8
1
  6
Continuous
 62
     7
100
AcDbCircle
 10
126.4999999999999
 20
12.5
 30
0.0
 40
0.3000000000000966
  0
CIRCLE
  5
A5
330
49
100
AcDbEntity
  8
1
  6
Continuous
 62
     7
100
AcDbCircle
 10
137.4999999999999
 20
12.5
 30
0.0
 40
0.3000000000001251
  0
CIRCLE
  5
A6
330
49
100
AcDbEntity
  8
1
  6
Continuous
 62
     7
100
AcDbCircle
 10
143.4999999999999
 20
12.5
 30
0.0
 40
0.3000000000001251
  0
CIRCLE
  5
A7
330
49
100
AcDbEntity
  8
1
  6
Continuous
 62
     7
100
AcDbCircle
 10
160.4999999999999
 20
12.5
 30
0.0
 40
0.3000000000001251
  0
CIRCLE
  5
A8
330
49
100
AcDbEntity
  8
1
  6
Continuous
 62
     7
100
AcDbCircle
 10
154.4999999999999
 20
12.5
 30
0.0
 40
0.3000000000001251
  0
CIRCLE
  5
A9
330
49
100
AcDbEntity
  8
1
  6
Continuous
 62
     7
100
AcDbCircle
 10
186.9999999999999
 20
23.5
 30
0.0
 40
1.200000000000216
  0
CIRCLE
  5
AA
330
49
100
AcDbEntity
  8
1
  6
Continuous
 62
     7
100
AcDbCircle
 10
186.9999999999999
 20
23.5
 30
0.0
 40
2.0
  0
CIRCLE
  5
AB
330
49
100
AcDbEntity
  8
1
  6
DOT_CENTER
 62
     7
100
AcDbCircle
 10
89.49999999999997
 20
16.0
 30
0.0
 40
0.1000000000001364
  0
CIRCLE
  5
AC
330
49
100
AcDbEntity
  8
1
  6
DOT_CENTER
 62
     7
100
AcDbCircle
 10
89.49999999999997
 20
18.0
 30
0.0
 40
0.1000000000001364
  0
SPLINE
  5
AD
102
{ACAD_REACTORS
330
CC
102
}
330
49
100
AcDbEntity
  8
_U_30EC_U_30A4_U_30E4_U_30FC_1
  6
Continuous
 62
     2
100
AcDbSpline
210
0.0
220
0.0
230
1.0
 70
     8
 71
     3
 72
    24
 73
    20
 74
    18
 42
0.000000001
 43
0.0000000001
 44
0.00000001
 40
0.0
 40
0.0
 40
0.0
 40
0.0
 40
0.2211075008753987
 40
0.4273218586245354
 40
0.5080174679239279
 40
0.5914835907870152
 40
0.8143265690192731
 40
1.054651302686589
 40
1.295452694023176
 40
1.518109231328829
 40
1.540864321905445
 40
1.59512646062265
 40
1.659890947895936
 40
1.714153085187267
 40
1.736908174961567
 40
1.7649511007352
 40
1.801562291220762
 40
1.953914424543454
 40
2.126104167379516
 40
2.126104167379516
 40
2.126104167379516
 40
2.126104167379516
 10
185.9375369556889
 20
15.58989295113017
 30
0.0
 10
185.9112579081812
 20
15.53097628234375
 30
0.0
 10
185.8604698894425
 20
15.41711139679257
 30
0.0
 10
185.8131784839111
 20
15.14441958233118
 30
0.0
 10
185.7043482802618
 20
15.24445482575453
 30
0.0
 10
185.5514800279637
 20
15.27118593367329
 30
0.0
 10
185.7686155181199
 20
15.48518135017632
 30
0.0
 10
185.7838483674381
 20
15.70332117782487
 30
0.0
 10
185.8906889492001
 20
15.88451579066425
 30
0.0
 10
185.8305380947077
 20
16.16913226311403
 30
0.0
 10
185.9334317395401
 20
16.14114089222451
 30
0.0
 10
185.9779933468149
 20
16.13243251602299
 30
0.0
 10
186.0380842395396
 20
16.12139654183355
 30
0.0
 10
186.0756619587437
 20
16.10767523055559
 30
0.0
 10
186.1252466928604
 20
16.10756076160224
 30
0.0
 10
186.0930158919325
 20
16.07306592398622
 30
0.0
 10
186.017180222188
 20
16.08404104537965
 30
0.0
 10
186.0429447159693
 20
15.8985896958245
 30
0.0
 10
186.0055896763849
 20
15.80702313549589
 30
0.0
 10
185.9857704961609
 20
15.75844135397705
 30
0.0
 11
185.9375369556889
 21
15.58989295113017
 31
0.0
 11
185.8616471328552
 21
15.38221708318559
 31
0.0
 11
185.7717402238433
 21
15.19663392356193
 31
0.0
 11
185.701149392311
 21
15.2357327256355
 31
0.0
 11
185.6245525192651
 21
15.26889163187718
 31
0.0
 11
185.7214026947455
 21
15.46958801203538
 31
0.0
 11
185.7994641467471
 21
15.69688163177024
 31
0.0
 11
185.858971692972
 21
15.93021436608691
 31
0.0
 11
185.9001601511226
 21
16.14902808999054
 31
0.0
 11
185.9224183822214
 21
16.14429889221395
 31
0.0
 11
185.9754957025339
 21
16.13302157443899
 31
0.0
 11
186.0388460525843
 21
16.11956154999792
 31
0.0
 11
186.0919233728969
 21
16.10828423222296
 31
0.0
 11
186.1141816039957
 21
16.10355503444637
 31
0.0
 11
186.096409715746
 21
16.0818625084101
 31
0.0
 11
186.0606122998071
 21
16.07418628445367
 31
0.0
 11
186.0281953301479
 21
15.92532288171313
 31
0.0
 11
185.9857704961609
 21
15.75844135397705
 31
0.0
  0
SPLINE
  5
AE
102
{ACAD_REACTORS
330
CC
102
}
330
49
100
AcDbEntity
  8
_U_30EC_U_30A4_U_30E4_U_30FC_1
  6
Continuous
 62
     2
100
AcDbSpline
210
0.0
220
0.0
230
1.0
 70
     8
 71
     3
 72
    70
 73
    66
 74
    64
 42
0.000000001
 43
0.0000000001
 44
0.00000001
 40
0.0
 40
0.0
 40
0.0
 40
0.0
 40
0.0241731073021472
 40
0.0846058988987013
 40
0.1631685280353284
 40
0.2417311571789756
 40
0.3021639488292751
 40
0.3263370654895541
 40
0.3533118254248881
 40
0.4228783438922111
 40
0.5179999095313402
 40
0.6216398239466102
 40
0.7167613891499706
 40
0.7863279069649863
 40
0.8133026791761836
 40
0.8372943998771674
 40
0.8945054261372869
 40
0.9627895541962639
 40
1.020000580349074
 40
1.043992300975172
 40
1.071934345522902
 40
1.113121768772912
 40
1.145225199332236
 40
1.225483775412775
 40
1.329819923771487
 40
1.434156071994376
 40
1.514414647795801
 40
1.546518078208409
 40
1.578974764260183
 40
1.662678849314178
 40
1.777131373668398
 40
1.901833377474789
 40
2.016285900500579
 40
2.099989982527946
 40
2.132446666570305
 40
2.158782354486027
 40
2.216720867907817
 40
2.27465938133424
 40
2.300995069256174
 40
2.333451754066147
 40
2.417155836543827
 40
2.531608358985267
 40
2.656310362283762
 40
2.770762886388894
 40
2.854466971340059
 40
2.886923657363866
 40
2.9135979768333
 40
2.982389642875102
 40
3.076451716946965
 40
3.178937260458577
 40
3.272999334739978
 40
3.341791001059198
 40
3.36846532066351
 40
3.396976080738732
 40
3.472140811845968
 40
3.578408190308657
 40
3.700226892456094
 40
3.822045594634311
 40
3.928312973256418
 40
4.003477705314815
 40
4.03198845686688
 40
4.058324144797679
 40
4.11626265823684
 40
4.17420117140064
 40
4.200536849608572
 40
4.200536849608572
 40
4.200536849608572
 40
4.200536849608572
 10
185.9857704961609
 20
15.75844135397705
 30
0.0
 10
185.9938259544679
 20
15.75844359811686
 30
0.0
 10
186.0220200663241
 20
15.75845146032798
 30
0.0
 10
186.0765534803672
 20
15.75830754828372
 30
0.0
 10
186.1482891808604
 20
15.75909120499898
 30
0.0
 10
186.2236240137062
 20
15.75627570463811
 30
0.0
 10
186.2713052366438
 20
15.76298403400957
 30
0.0
 10
186.3195071245616
 20
15.75197563692433
 30
0.0
 10
186.3062571799873
 20
15.80546402997033
 30
0.0
 10
186.3151093964539
 20
15.86049583543092
 30
0.0
 10
186.3108698036285
 20
15.95419908726109
 30
0.0
 10
186.313348348128
 20
16.04959482218532
 30
0.0
 10
186.309093870606
 20
16.14356821983387
 30
0.0
 10
186.3179818665846
 20
16.19795062438012
 30
0.0
 10
186.3046977409945
 20
16.25233997691461
 30
0.0
 10
186.3514119277109
 20
16.23842216335358
 30
0.0
 10
186.3943254545736
 20
16.24103877374043
 30
0.0
 10
186.4605443456685
 20
16.23648422450755
 30
0.0
 10
186.5013342271798
 20
16.22778162134162
 30
0.0
 10
186.5525145690819
 20
16.23531799890195
 30
0.0
 10
186.52537204872
 20
16.19349970223285
 30
0.0
 10
186.4803096055707
 20
16.20284992072597
 30
0.0
 10
186.4942065045051
 20
16.13841207371838
 30
0.0
 10
186.4858414431654
 20
16.073782196274
 30
0.0
 10
186.4903632178399
 20
15.97529141193888
 30
0.0
 10
186.4854741311167
 20
15.87595932842571
 30
0.0
 10
186.4950258992081
 20
15.81293115552969
 30
0.0
 10
186.4799761455201
 20
15.74964011499789
 30
0.0
 10
186.5449159457208
 20
15.76515072944269
 30
0.0
 10
186.6116246399496
 20
15.75499387697812
 30
0.0
 10
186.7241435470828
 20
15.75988800099367
 30
0.0
 10
186.8390235448953
 20
15.75691204732783
 30
0.0
 10
186.9519871999747
 20
15.76221664184991
 30
0.0
 10
187.0176267597677
 20
15.75107306472089
 30
0.0
 10
187.0816276691053
 20
15.76744532319857
 30
0.0
 10
187.0703142889189
 20
15.71761689905274
 30
0.0
 10
187.077533987151
 20
15.67416715212123
 30
0.0
 10
187.0703142611268
 20
15.63071745587445
 30
0.0
 10
187.0816277175994
 20
15.58088895196876
 30
0.0
 10
187.0176263598971
 20
15.59726166091362
 30
0.0
 10
186.951992124046
 20
15.58611271661588
 30
0.0
 10
186.838997431733
 20
15.59144857206854
 30
0.0
 10
186.7242456548644
 20
15.58834345663822
 30
0.0
 10
186.611318368686
 20
15.59364894682588
 30
0.0
 10
186.5455220903585
 20
15.58257300019594
 30
0.0
 10
186.4816097975358
 20
15.59887597847617
 30
0.0
 10
186.4936015165126
 20
15.54423524395742
 30
0.0
 10
186.4862104613006
 20
15.48854295047842
 30
0.0
 10
186.4892684841982
 20
15.3964968914057
 30
0.0
 10
186.4893422785683
 20
15.30179109873102
 30
0.0
 10
186.4860313578359
 20
15.20952782902266
 30
0.0
 10
186.4939505989903
 20
15.1543576873614
 30
0.0
 10
186.4815076611617
 20
15.10058169100137
 30
0.0
 10
186.5389116551632
 20
15.11453768862782
 30
0.0
 10
186.5994708140382
 20
15.10511457884227
 30
0.0
 10
186.7048680855081
 20
15.10942885928705
 30
0.0
 10
186.8204294070622
 20
15.10835504612032
 30
0.0
 10
186.9359688877797
 20
15.10725965900995
 30
0.0
 10
187.0414181130841
 20
15.11162525770633
 30
0.0
 10
187.1018680471804
 20
15.10209426030672
 30
0.0
 10
187.159283773911
 20
15.1161728960638
 30
0.0
 10
187.1477773876709
 20
15.06707153265684
 30
0.0
 10
187.153756678175
 20
15.0256465801865
 30
0.0
 10
187.1520311050801
 20
14.97651677966696
 30
0.0
 10
187.1521500122971
 20
14.94854428447609
 30
0.0
 10
187.1521871691833
 20
14.93980288195951
 30
0.0
 11
185.9857704961609
 21
15.75844135397705
 31
0.0
 11
186.0099436128282
 21
15.75844135397705
 31
0.0
 11
186.0703764044962
 21
15.75844135397705
 31
0.0
 11
186.1489390336648
 21
15.75844135397705
 31
0.0
 11
186.2275016628334
 21
15.75844135397705
 31
0.0
 11
186.2879344545015
 21
15.75844135397705
 31
0.0
 11
186.3121075711687
 21
15.75844135397705
 31
0.0
 11
186.3121075711687
 21
15.78541612620063
 31
0.0
 11
186.3121075711687
 21
15.85498264404039
 31
0.0
 11
186.3121075711687
 21
15.95010420924985
 31
0.0
 11
186.3121075711687
 21
16.05374412358256
 31
0.0
 11
186.3121075711687
 21
16.14886568879202
 31
0.0
 11
186.3121075711687
 21
16.21843220663178
 31
0.0
 11
186.3121075711687
 21
16.24540697885536
 31
0.0
 11
186.3360407604892
 21
16.243732131078
 31
0.0
 11
186.3931122119458
 21
16.23973826330121
 31
0.0
 11
186.461229750781
 21
16.23497138885795
 31
0.0
 11
186.5183012022376
 21
16.23097752108117
 31
0.0
 11
186.5422343915581
 21
16.22930267330381
 31
0.0
 11
186.5274972731229
 21
16.2055629337264
 31
0.0
 11
186.4886640249976
 21
16.19183767331313
 31
0.0
 11
186.4886640249976
 21
16.1597342422512
 31
0.0
 11
186.4886640249976
 21
16.07947566459637
 31
0.0
 11
186.4886640249976
 21
15.97513951364509
 31
0.0
 11
186.4886640249976
 21
15.87080336269381
 31
0.0
 11
186.4886640249976
 21
15.79054478503898
 31
0.0
 11
186.4886640249976
 21
15.75844135397705
 31
0.0
 11
186.5211207110824
 21
15.75844135397705
 31
0.0
 11
186.6048247962486
 21
15.75844135397705
 31
0.0
 11
186.7192773208634
 21
15.75844135397705
 31
0.0
 11
186.8439793252946
 21
15.75844135397705
 31
0.0
 11
186.9584318499095
 21
15.75844135397705
 31
0.0
 11
187.0421359350756
 21
15.75844135397705
 31
0.0
 11
187.0745926211604
 21
15.75844135397705
 31
0.0
 11
187.0745926211604
 21
15.73210566604961
 31
0.0
 11
187.0745926211604
 21
15.67416715260924
 31
0.0
 11
187.0745926211604
 21
15.61622863916888
 31
0.0
 11
187.0745926211604
 21
15.58989295124144
 31
0.0
 11
187.0421359350756
 21
15.58989295124144
 31
0.0
 11
186.9584318499095
 21
15.58989295124144
 31
0.0
 11
186.8439793252946
 21
15.58989295124144
 31
0.0
 11
186.7192773208634
 21
15.58989295124144
 31
0.0
 11
186.6048247962485
 21
15.58989295124144
 31
0.0
 11
186.5211207110824
 21
15.58989295124144
 31
0.0
 11
186.4886640249976
 21
15.58989295124144
 31
0.0
 11
186.4886640249976
 21
15.56321863152022
 31
0.0
 11
186.4886640249976
 21
15.49442696487075
 31
0.0
 11
186.4886640249976
 21
15.40036489006434
 31
0.0
 11
186.4886640249976
 21
15.29787934587228
 31
0.0
 11
186.4886640249976
 21
15.20381727106587
 31
0.0
 11
186.4886640249976
 21
15.1350256044164
 31
0.0
 11
186.4886640249976
 21
15.10835128469518
 31
0.0
 11
186.5171747850993
 21
15.10835128469518
 31
0.0
 11
186.5923395162766
 21
15.10835128469518
 31
0.0
 11
186.6986068948376
 21
15.10835128469518
 31
0.0
 11
186.8204255970904
 21
15.10835128469518
 31
0.0
 11
186.9422442993433
 21
15.10835128469518
 31
0.0
 11
187.0485116779043
 21
15.10835128469518
 31
0.0
 11
187.1236764090816
 21
15.10835128469518
 31
0.0
 11
187.1521871691833
 21
15.10835128469518
 31
0.0
 11
187.1521871691833
 21
15.08201559676773
 31
0.0
 11
187.1521871691833
 21
15.02407708332735
 31
0.0
 11
187.1521871691833
 21
14.96613856988696
 31
0.0
 11
187.1521871691833
 21
14.93980288195951
 31
0.0
  0
SPLINE
  5
AF
102
{ACAD_REACTORS
330
CC
102
}
330
49
100
AcDbEntity
  8
_U_30EC_U_30A4_U_30E4_U_30FC_1
  6
Continuous
 62
     2
100
AcDbSpline
210
0.0
220
0.0
230
1.0
 70
     8
 71
     3
 72
    62
 73
    58
 74
    56
 42
0.000000001
 43
0.0000000001
 44
0.00000001
 40
0.0
 40
0.0
 40
0.0
 40
0.0
 40
0.0598250028308485
 40
0.2024846486897331
 40
0.3727558389221031
 40
0.515415484793607
 40
0.5752404975785339
 40
0.9332326775487474
 40
1.290451762839499
 40
1.602077253145879
 40
1.699931634112135
 40
1.799359756425044
 40
2.270120149657079
 40
2.804661928461528
 40
2.882342287383237
 40
3.076543185719088
 40
3.329004354835547
 40
3.581465524568373
 40
3.775666424543653
 40
3.853346784558273
 40
3.899120679595019
 40
3.984129341792017
 40
4.029903236817365
 40
4.105797496059521
 40
4.295533144152483
 40
4.542189486611727
 40
4.788845828875679
 40
4.978581476410064
 40
5.054475735244308
 40
5.621734664339314
 40
6.130867242037342
 40
6.225249780948582
 40
6.318913039727278
 40
6.663579954558876
 40
7.047498900224722
 40
7.435230791575634
 40
7.498943906668018
 40
7.650875181210012
 40
7.832212509001465
 40
7.984143783696851
 40
8.047856898902978
 40
8.091554632732484
 40
8.17270756696414
 40
8.216405300767864
 40
8.289021782160749
 40
8.462184160757122
 40
8.668861838005203
 40
8.842024215263795
 40
8.91464069547499
 40
8.989881580861196
 40
9.155411528827099
 40
9.32094147774388
 40
9.396182352487129
 40
9.454709011143676
 40
9.58346766017061
 40
9.71222630901289
 40
9.770752957989343
 40
9.770752957989343
 40
9.770752957989343
 40
9.770752957989343
 10
187.1521871691833
 20
14.93980288195951
 30
0.0
 10
187.1322348171623
 20
14.93980875568673
 30
0.0
 10
187.0647037716466
 20
14.93982863806158
 30
0.0
 10
186.9410612161788
 20
14.93949362520326
 30
0.0
 10
186.7863180150056
 20
14.94107673750513
 30
0.0
 10
186.6697349482479
 20
14.93686078860496
 30
0.0
 10
186.455094263424
 20
14.95215205331627
 30
0.0
 10
186.8518948407229
 20
14.59198721286193
 30
0.0
 10
186.8945656069267
 20
14.37510503397167
 30
0.0
 10
187.3189162146612
 20
14.19325062511446
 30
0.0
 10
187.1439821496074
 20
14.08985196568072
 30
0.0
 10
187.0194523925084
 20
13.87831523212725
 30
0.0
 10
186.7666277235942
 20
14.34806081001562
 30
0.0
 10
186.4797602893628
 20
14.99511516984521
 30
0.0
 10
186.4906335926659
 20
14.68782672154693
 30
0.0
 10
186.488289277796
 20
14.52288616971778
 30
0.0
 10
186.4861096126411
 20
14.28879670711693
 30
0.0
 10
186.4980774396346
 20
14.04498072421783
 30
0.0
 10
186.468798474063
 20
13.89855796860985
 30
0.0
 10
186.511452262547
 20
13.75113490174538
 30
0.0
 10
186.4239814005639
 20
13.7668579730622
 30
0.0
 10
186.3768527606744
 20
13.76694303543455
 30
0.0
 10
186.2898973207712
 20
13.75109425482909
 30
0.0
 10
186.3313474021722
 20
13.89527771422763
 30
0.0
 10
186.3029875004286
 20
14.03855052698455
 30
0.0
 10
186.31459737753
 20
14.27674947365266
 30
0.0
 10
186.3124175648272
 20
14.50517235240347
 30
0.0
 10
186.3103111127993
 20
14.66705729375995
 30
0.0
 10
186.3208035438323
 20
14.98153709333753
 30
0.0
 10
186.0128963252893
 20
14.29229470872433
 30
0.0
 10
185.7055258267456
 20
13.81476750243054
 30
0.0
 10
185.5851367066275
 20
14.03741112637427
 30
0.0
 10
185.4074607910721
 20
14.15011034955566
 30
0.0
 10
185.8853326362894
 20
14.32548143465463
 30
0.0
 10
185.9353959057207
 20
14.56091929252028
 30
0.0
 10
186.3583799621716
 20
14.95322989344609
 30
0.0
 10
186.127675427354
 20
14.93655307029066
 30
0.0
 10
186.0049685859341
 20
14.94269518948772
 30
0.0
 10
185.8325483095661
 20
14.93312822699574
 30
0.0
 10
185.7213224694449
 20
14.95448818489667
 30
0.0
 10
185.6025779627448
 20
14.92136265357421
 30
0.0
 10
185.6183169706686
 20
15.00203900606884
 30
0.0
 10
185.6178550933762
 20
15.04645414290855
 30
0.0
 10
185.6027881889931
 20
15.12967081778534
 30
0.0
 10
185.7372380935443
 20
15.09062651983884
 30
0.0
 10
185.8619755545747
 20
15.11739729328423
 30
0.0
 10
186.062875523728
 20
15.10063949044053
 30
0.0
 10
186.1921540949353
 20
15.12204225913005
 30
0.0
 10
186.3328419928294
 20
15.08868778853421
 30
0.0
 10
186.2980927452615
 20
15.22651875785069
 30
0.0
 10
186.3222185666713
 20
15.34963257349481
 30
0.0
 10
186.2967086182393
 20
15.47024055670336
 30
0.0
 10
186.3333251146684
 20
15.60539865141495
 30
0.0
 10
186.2211417027769
 20
15.58094545781891
 30
0.0
 10
186.1280356457136
 20
15.59307749842022
 30
0.0
 10
186.0191547579819
 20
15.58957630069994
 30
0.0
 10
185.9569697640964
 20
15.58981755951603
 30
0.0
 10
185.9375369557246
 20
15.58989295124144
 30
0.0
 11
187.1521871691833
 21
14.93980288195951
 31
0.0
 11
187.0923621563982
 21
14.93980288195951
 31
0.0
 11
186.949702510526
 21
14.93980288195951
 31
0.0
 11
186.7794313202913
 21
14.93980288195951
 31
0.0
 11
186.6367716744191
 21
14.93980288195951
 31
0.0
 11
186.576946661634
 21
14.93980288195951
 31
0.0
 11
186.7679960754843
 21
14.63705127966891
 31
0.0
 11
186.994127278563
 21
14.36051890576684
 31
0.0
 11
187.2244526173371
 21
14.15061253493457
 31
0.0
 11
187.1521596330704
 21
14.08466403668716
 31
0.0
 11
187.0879364402643
 21
14.00876059052561
 31
0.0
 11
186.7732818215558
 21
14.35891458349363
 31
0.0
 11
186.4886640249976
 21
14.811382951436
 31
0.0
 11
186.4886640249976
 21
14.73370259137312
 31
0.0
 11
186.4886640249976
 21
14.53950169121592
 31
0.0
 11
186.4886640249976
 21
14.28704052101156
 31
0.0
 11
186.4886640249976
 21
14.0345793508072
 31
0.0
 11
186.4886640249976
 21
13.84037845065
 31
0.0
 11
186.4886640249976
 21
13.76269809058712
 31
0.0
 11
186.4428901295605
 21
13.76269809058712
 31
0.0
 11
186.3578814666058
 21
13.76269809058712
 31
0.0
 11
186.3121075711687
 21
13.76269809058712
 31
0.0
 11
186.3121075711687
 21
13.8385923498274
 31
0.0
 11
186.3121075711687
 21
14.02832799792812
 31
0.0
 11
186.3121075711687
 21
14.27498434045904
 31
0.0
 11
186.3121075711687
 21
14.52164068298997
 31
0.0
 11
186.3121075711687
 21
14.71137633109067
 31
0.0
 11
186.3121075711687
 21
14.78727059033096
 31
0.0
 11
185.9987626399267
 21
14.31440946197694
 31
0.0
 11
185.6352328662148
 21
13.95795177109383
 31
0.0
 11
185.5773927461627
 21
14.03253450545023
 31
0.0
 11
185.5094852305341
 21
14.09704322939243
 31
0.0
 11
185.7750721898319
 21
14.3167221979589
 31
0.0
 11
186.0233764972061
 21
14.60953395971697
 31
0.0
 11
186.2264982805259
 21
14.93980288195951
 31
0.0
 11
186.162785165272
 21
14.93980288195951
 31
0.0
 11
186.0108538904358
 21
14.93980288195951
 31
0.0
 11
185.8295165624055
 21
14.93980288195951
 31
0.0
 11
185.6775852875693
 21
14.93980288195951
 31
0.0
 11
185.6138721723154
 21
14.93980288195951
 31
0.0
 11
185.6138721723154
 21
14.98350061600209
 31
0.0
 11
185.6138721723154
 21
15.0646535506526
 31
0.0
 11
185.6138721723154
 21
15.10835128469518
 31
0.0
 11
185.6864886537961
 21
15.10835128469518
 31
0.0
 11
185.8596510327118
 21
15.10835128469518
 31
0.0
 11
186.0663287107723
 21
15.10835128469518
 31
0.0
 11
186.239491089688
 21
15.10835128469518
 31
0.0
 11
186.3121075711687
 21
15.10835128469518
 31
0.0
 11
186.3121075711687
 21
15.18359217009304
 31
0.0
 11
186.3121075711687
 21
15.34912211796831
 31
0.0
 11
186.3121075711687
 21
15.51465206584359
 31
0.0
 11
186.3121075711687
 21
15.58989295124144
 31
0.0
 11
186.2535809125055
 21
15.58989295124144
 31
0.0
 11
186.1248222634467
 21
15.58989295124144
 31
0.0
 11
185.9960636143877
 21
15.58989295124144
 31
0.0
 11
185.9375369557246
 21
15.58989295124144
 31
0.0
  0
SPLINE
  5
B0
102
{ACAD_REACTORS
330
CD
102
}
330
49
100
AcDbEntity
  8
_U_30EC_U_30A4_U_30E4_U_30FC_1
  6
Continuous
 62
     2
100
AcDbSpline
210
0.0
220
0.0
230
1.0
 70
    11
 71
     3
 72
   124
 73
   120
 74
   118
 42
0.000000001
 43
0.0000000001
 44
0.00000001
 40
0.0
 40
0.0
 40
0.0
 40
0.0
 40
0.027818722962451
 40
0.1011590162384269
 40
0.204847017058967
 40
0.3237088716558393
 40
0.4425707262521147
 40
0.546258727069841
 40
0.6195990203310661
 40
0.6474177522577523
 40
0.6750060736114087
 40
0.7357003855241604
 40
0.7963946998053337
 40
0.823983024557063
 40
0.8540933811101723
 40
0.9373396629408404
 40
1.063094687343121
 40
1.220731268637931
 40
1.399622220914605
 40
1.589140358637562
 40
1.778658496423671
 40
1.957549448940338
 40
2.115186030872931
 40
2.240941056914235
 40
2.324187341760305
 40
2.354297700109155
 40
2.381886024671663
 40
2.44258033871025
 40
2.503274652750272
 40
2.530862977314379
 40
2.560983949278332
 40
2.640393784452677
 40
2.752662861758901
 40
2.881361560117917
 40
3.010060258454964
 40
3.122329335705111
 40
3.201739170817725
 40
3.231860142753086
 40
3.264298024030144
 40
3.352343701778014
 40
3.482095226868538
 40
3.639650650172803
 40
3.811108022565262
 40
3.982565394927771
 40
4.140120818152353
 40
4.269872343141066
 40
4.357918020802129
 40
4.390355902043757
 40
4.423256253992327
 40
4.508104530072848
 40
4.624121560636616
 40
4.750528176031373
 40
4.86654520660182
 40
4.951393482691777
 40
4.984293834645178
 40
5.01145083324209
 40
5.071196230151869
 40
5.130941627056939
 40
5.158098625648601
 40
5.190998977601292
 40
5.275847253689117
 40
5.391864284256552
 40
5.518270899648097
 40
5.634287930209136
 40
5.71913620628781
 40
5.752036558235697
 40
5.782130946282723
 40
5.862783906228898
 40
5.979550131774766
 40
6.117984316640174
 40
6.263641154587721
 40
6.402075339413929
 40
6.518841564907723
 40
6.599494524815309
 40
6.629588912848546
 40
6.654403028226123
 40
6.713575149487919
 40
6.784199939329294
 40
6.843372060493396
 40
6.868186175802641
 40
6.896246243201773
 40
6.939586233758143
 40
6.967846564564771
 40
7.043584251089713
 40
7.153234334451569
 40
7.283231855734321
 40
7.420011856035356
 40
7.550009376579708
 40
7.659659458835113
 40
7.735397144417106
 40
7.763657474851278
 40
7.796409728010935
 40
7.880876065096209
 40
7.996370852465595
 40
8.12220844641849
 40
8.237703224799084
 40
8.322169562010778
 40
8.354921815205792
 40
8.382078813307569
 40
8.44182420920687
 40
8.501569605240011
 40
8.528726603485588
 40
8.561478856695636
 40
8.645945193877687
 40
8.761439980865198
 40
8.88727758076434
 40
9.002772362000862
 40
9.087238696661082
 40
9.119990949235536
 40
9.152428830613236
 40
9.240474508638451
 40
9.370226034149407
 40
9.527781457984291
 40
9.699238830981281
 40
9.870696203978476
 40
10.0282516278139
 40
10.15800315332552
 40
10.24604883135107
 40
10.2784867037851
 40
10.2784867037851
 40
10.2784867037851
 40
10.2784867037851
 10
195.3821827564383
 20
14.01410517385756
 30
0.0
 10
195.3914554737523
 20
14.01410498511273
 30
0.0
 10
195.4251744536861
 20
14.01410430876713
 30
0.0
 10
195.4934706812465
 20
14.01411807243304
 30
0.0
 10
195.592014171158
 20
14.01403224219544
 30
0.0
 10
195.7062066464811
 20
14.01441755612249
 30
0.0
 10
195.818589441707
 20
14.01300835897544
 30
0.0
 10
195.9214376600117
 20
14.01719117422241
 30
0.0
 10
195.9806839874847
 20
14.00823089251981
 30
0.0
 10
196.0371265937032
 20
14.0216443452606
 30
0.0
 10
196.0246255586954
 20
13.97087198613361
 30
0.0
 10
196.0329549635702
 20
13.92589320939065
 30
0.0
 10
196.0248170841119
 20
13.88056752990487
 30
0.0
 10
196.0370529214456
 20
13.82931932408465
 30
0.0
 10
195.9747773490332
 20
13.84447955365275
 30
0.0
 10
195.9060513026867
 20
13.83359750710742
 30
0.0
 10
195.778275674959
 20
13.83911304747971
 30
0.0
 10
195.6262984511642
 20
13.83700851253698
 30
0.0
 10
195.4502695972522
 20
13.83771002588472
 30
0.0
 10
195.2644431934286
 20
13.8374523753129
 30
0.0
 10
195.0786167437175
 20
13.83771005144602
 30
0.0
 10
194.9025880142167
 20
13.8370084184773
 30
0.0
 10
194.7506104154194
 20
13.83911332229987
 30
0.0
 10
194.6228357664554
 20
13.83359680767639
 30
0.0
 10
194.5541077836581
 20
13.84448077125941
 30
0.0
 10
194.4918349042883
 20
13.82931786684208
 30
0.0
 10
194.5040616290017
 20
13.88057510805171
 30
0.0
 10
194.4960004462597
 20
13.92582473272424
 30
0.0
 10
194.5040675809892
 20
13.97106357955322
 30
0.0
 10
194.4918238487083
 20
14.02234176909957
 30
0.0
 10
194.5525017120697
 20
14.00749577363134
 30
0.0
 10
194.6162810745736
 20
14.01756448170734
 30
0.0
 10
194.7277314353502
 20
14.01294644211998
 30
0.0
 10
194.8497533443824
 20
14.01413328905468
 30
0.0
 10
194.9719538137823
 20
14.01515863900633
 30
0.0
 10
195.0829794287392
 20
14.010924756234
 30
0.0
 10
195.1476517413958
 20
14.02018584521738
 30
0.0
 10
195.2091162810501
 20
14.00604423049681
 30
0.0
 10
195.1930065601337
 20
14.07235527884516
 30
0.0
 10
195.2042980327358
 20
14.14447790121974
 30
0.0
 10
195.1987400822561
 20
14.27513760888285
 30
0.0
 10
195.2008035061691
 20
14.42607323708241
 30
0.0
 10
195.2000167127295
 20
14.59335873107886
 30
0.0
 10
195.2007845215627
 20
14.76061110332303
 30
0.0
 10
195.1988038785628
 20
14.91163289269915
 30
0.0
 10
195.2041306156621
 20
15.04206069552995
 30
0.0
 10
195.1933101388425
 20
15.114654426059
 30
0.0
 10
195.2090326429875
 20
15.18150469436799
 30
0.0
 10
195.143270813249
 20
15.16580512490825
 30
0.0
 10
195.0756367830764
 20
15.17609243083996
 30
0.0
 10
194.9615885293809
 20
15.17113786847123
 30
0.0
 10
194.8451242674902
 20
15.17414128030475
 30
0.0
 10
194.7306554121477
 20
15.16880303143389
 30
0.0
 10
194.6640324657812
 20
15.18001268074826
 30
0.0
 10
194.5990769715186
 20
15.16349132665012
 30
0.0
 10
194.6107989758707
 20
15.21473720477059
 30
0.0
 10
194.6032830189122
 20
15.25950333784091
 30
0.0
 10
194.6107989878835
 20
15.3042694489796
 30
0.0
 10
194.5990769505347
 20
15.3555153612974
 30
0.0
 10
194.66403263392
 20
15.33899381766814
 30
0.0
 10
194.7306533339822
 20
15.35020571373943
 30
0.0
 10
194.8451352858063
 20
15.34485436710663
 30
0.0
 10
194.9615454436962
 20
15.34791188771116
 30
0.0
 10
195.0757660174641
 20
15.34278499010707
 30
0.0
 10
195.1430150439227
 20
15.35345733355597
 30
0.0
 10
195.2083325941438
 20
15.33742082669076
 30
0.0
 10
195.1941391448553
 20
15.39949685750052
 30
0.0
 10
195.2036059462994
 20
15.46586761628762
 30
0.0
 10
195.1990269004085
 20
15.58239972741965
 30
0.0
 10
195.2007696555948
 20
15.71426685022375
 30
0.0
 10
195.1997551495392
 20
15.85615960150273
 30
0.0
 10
195.2017191344373
 20
15.9876905070258
 30
0.0
 10
195.196466855385
 20
16.10524577283001
 30
0.0
 10
195.2073408763475
 20
16.16947789001584
 30
0.0
 10
195.1919536641853
 20
16.23108802545046
 30
0.0
 10
195.2407591537801
 20
16.21702407382111
 30
0.0
 10
195.2853995564725
 20
16.21954742075313
 30
0.0
 10
195.3538643946743
 20
16.21512797401709
 30
0.0
 10
195.3959106169103
 20
16.20613025544036
 30
0.0
 10
195.4487544758776
 20
16.21411714866508
 30
0.0
 10
195.4207035002013
 20
16.17113917611678
 30
0.0
 10
195.3749142248594
 20
16.18259552043835
 30
0.0
 10
195.3869539073265
 20
16.12173520005138
 30
0.0
 10
195.3796086070641
 20
16.05769299468772
 30
0.0
 10
195.3831195826162
 20
15.94909368863911
 30
0.0
 10
195.3819806760173
 20
15.82494319144753
 30
0.0
 10
195.3819174780263
 20
15.69189719829877
 30
0.0
 10
195.3832872966869
 20
15.56797381249555
 30
0.0
 10
195.3791638801313
 20
15.45868337849337
 30
0.0
 10
195.3877763103564
 20
15.39608580094169
 30
0.0
 10
195.3746757454402
 20
15.33740133296364
 30
0.0
 10
195.4393884328198
 20
15.35362113810901
 30
0.0
 10
195.5060405953156
 20
15.34270260383311
 30
0.0
 10
195.6198779541103
 20
15.34793740173755
 30
0.0
 10
195.7357259122097
 20
15.34485547516912
 30
0.0
 10
195.849692426328
 20
15.35018259812512
 30
0.0
 10
195.9160341018099
 20
15.33904208166541
 30
0.0
 10
195.980718852548
 20
15.35546979593177
 30
0.0
 10
195.9689820772722
 20
15.30425925210049
 30
0.0
 10
195.9765168063041
 20
15.25950334121001
 30
0.0
 10
195.9689820992257
 20
15.21474739010027
 30
0.0
 10
195.9807188140736
 20
15.16353690871041
 30
0.0
 10
195.9160344075252
 20
15.1799642779422
 30
0.0
 10
195.8496886430824
 20
15.1688278444727
 30
0.0
 10
195.7357459487012
 20
15.17413115893121
 30
0.0
 10
195.6197995623054
 20
15.17114764593544
 30
0.0
 10
195.5062756882122
 20
15.17606892268395
 30
0.0
 10
195.4389231318804
 20
15.1658508751352
 30
0.0
 10
195.3734285122495
 20
15.18145996138816
 30
0.0
 10
195.3891713619218
 20
15.11463851827411
 30
0.0
 10
195.3783275998213
 20
15.04207057815879
 30
0.0
 10
195.3836581629792
 20
14.91162247614416
 30
0.0
 10
195.3817136151855
 20
14.76064558185226
 30
0.0
 10
195.3823133683214
 20
14.59322243934158
 30
0.0
 10
195.3821506559604
 20
14.42656176118371
 30
0.0
 10
195.3821895488136
 20
14.27360142921636
 30
0.0
 10
195.3821816413098
 20
14.14849178985704
 30
0.0
 10
195.3821828382746
 20
14.06507890991419
 30
0.0
 10
195.3821827716207
 20
14.02491778281975
 30
0.0
 10
195.3821827564383
 20
14.01410517385756
 30
0.0
 11
195.3821827564383
 21
14.01410517385756
 31
0.0
 11
195.4100014883675
 21
14.01410517385756
 31
0.0
 11
195.4833417816353
 21
14.01410517385756
 31
0.0
 11
195.5870297824622
 21
14.01410517385756
 31
0.0
 11
195.7058916370686
 21
14.01410517385756
 31
0.0
 11
195.824753491675
 21
14.01410517385756
 31
0.0
 11
195.9284414925019
 21
14.01410517385756
 31
0.0
 11
196.0017817857697
 21
14.01410517385756
 31
0.0
 11
196.0296005176989
 21
14.01410517385756
 31
0.0
 11
196.0296005176989
 21
13.98651684921169
 31
0.0
 11
196.0296005176989
 21
13.92582253499076
 31
0.0
 11
196.0296005176989
 21
13.86512822076983
 31
0.0
 11
196.0296005176989
 21
13.83753989612396
 31
0.0
 11
195.9994901593493
 21
13.83753989612396
 31
0.0
 11
195.9162438745003
 21
13.83753989612396
 31
0.0
 11
195.790488848452
 21
13.83753989612396
 31
0.0
 11
195.632852266504
 21
13.83753989612396
 31
0.0
 11
195.4539613139563
 21
13.83753989612396
 31
0.0
 11
195.2644431761088
 21
13.83753989612396
 31
0.0
 11
195.0749250382613
 21
13.83753989612396
 31
0.0
 11
194.8960340857136
 21
13.83753989612396
 31
0.0
 11
194.7383975037656
 21
13.83753989612396
 31
0.0
 11
194.6126424777172
 21
13.83753989612396
 31
0.0
 11
194.5293961928683
 21
13.83753989612396
 31
0.0
 11
194.4992858345187
 21
13.83753989612396
 31
0.0
 11
194.4992858345187
 21
13.86512822076984
 31
0.0
 11
194.4992858345187
 21
13.92582253499076
 31
0.0
 11
194.4992858345187
 21
13.98651684921169
 31
0.0
 11
194.4992858345187
 21
14.01410517385756
 31
0.0
 11
194.5294068064947
 21
14.01410517385756
 31
0.0
 11
194.608816641704
 21
14.01410517385756
 31
0.0
 11
194.721085719069
 21
14.01410517385756
 31
0.0
 11
194.8497844175118
 21
14.01410517385756
 31
0.0
 11
194.9784831159545
 21
14.01410517385756
 31
0.0
 11
195.0907521933195
 21
14.01410517385756
 31
0.0
 11
195.1701620285289
 21
14.01410517385756
 31
0.0
 11
195.2002830005048
 21
14.01410517385756
 31
0.0
 11
195.2002830005048
 21
14.04654305523834
 31
0.0
 11
195.2002830005048
 21
14.13458873327189
 31
0.0
 11
195.2002830005048
 21
14.26434025879502
 31
0.0
 11
195.2002830005048
 21
14.42189568264453
 31
0.0
 11
195.2002830005048
 21
14.59335305565724
 31
0.0
 11
195.2002830005048
 21
14.76481042866994
 31
0.0
 11
195.2002830005048
 21
14.92236585251945
 31
0.0
 11
195.2002830005048
 21
15.05211737804258
 31
0.0
 11
195.2002830005048
 21
15.14016305607613
 31
0.0
 11
195.2002830005048
 21
15.17260093745691
 31
0.0
 11
195.1673826485529
 21
15.17260093745691
 31
0.0
 11
195.0825343724662
 21
15.17260093745691
 31
0.0
 11
194.9665173418988
 21
15.17260093745691
 31
0.0
 11
194.8401107265044
 21
15.17260093745691
 31
0.0
 11
194.724093695937
 21
15.17260093745691
 31
0.0
 11
194.6392454198503
 21
15.17260093745691
 31
0.0
 11
194.6063450678984
 21
15.17260093745691
 31
0.0
 11
194.6063450678984
 21
15.19975793614803
 31
0.0
 11
194.6063450678984
 21
15.2595033332685
 31
0.0
 11
194.6063450678984
 21
15.31924873038897
 31
0.0
 11
194.6063450678984
 21
15.34640572908009
 31
0.0
 11
194.6392454198504
 21
15.34640572908009
 31
0.0
 11
194.724093695937
 21
15.34640572908009
 31
0.0
 11
194.8401107265044
 21
15.34640572908009
 31
0.0
 11
194.9665173418988
 21
15.34640572908009
 31
0.0
 11
195.0825343724662
 21
15.34640572908009
 31
0.0
 11
195.1673826485529
 21
15.34640572908009
 31
0.0
 11
195.2002830005048
 21
15.34640572908009
 31
0.0
 11
195.2002830005048
 21
15.37650011731369
 31
0.0
 11
195.2002830005048
 21
15.45715307777973
 31
0.0
 11
195.2002830005048
 21
15.57391930412608
 31
0.0
 11
195.2002830005048
 21
15.71235349000063
 31
0.0
 11
195.2002830005048
 21
15.85801032905123
 31
0.0
 11
195.2002830005048
 21
15.99644451492578
 31
0.0
 11
195.2002830005048
 21
16.11321074127213
 31
0.0
 11
195.2002830005048
 21
16.19386370173817
 31
0.0
 11
195.2002830005048
 21
16.22395808997177
 31
0.0
 11
195.2250405288618
 21
16.22228324219441
 31
0.0
 11
195.284077711867
 21
16.21828937441765
 31
0.0
 11
195.3545414464215
 21
16.21352249997441
 31
0.0
 11
195.4135786294266
 21
16.20952863219764
 31
0.0
 11
195.4383361577836
 21
16.20785378442028
 31
0.0
 11
195.423306722403
 21
16.1841581420651
 31
0.0
 11
195.3821827564383
 21
16.17047697887404
 31
0.0
 11
195.3821827564383
 21
16.14221664794832
 31
0.0
 11
195.3821827564383
 21
16.06647896106739
 31
0.0
 11
195.3821827564383
 21
15.95682887707561
 31
0.0
 11
195.3821827564383
 21
15.8268313548173
 31
0.0
 11
195.3821827564383
 21
15.69005135313683
 31
0.0
 11
195.3821827564383
 21
15.56005383087852
 31
0.0
 11
195.3821827564383
 21
15.45040374688673
 31
0.0
 11
195.3821827564383
 21
15.37466606000581
 31
0.0
 11
195.3821827564383
 21
15.34640572908009
 31
0.0
 11
195.4149350096115
 21
15.34640572908009
 31
0.0
 11
195.4994013467422
 21
15.34640572908009
 31
0.0
 11
195.6148961342476
 21
15.34640572908009
 31
0.0
 11
195.7407337385445
 21
15.34640572908009
 31
0.0
 11
195.8562285260498
 21
15.34640572908009
 31
0.0
 11
195.9406948631806
 21
15.34640572908009
 31
0.0
 11
195.9734471163538
 21
15.34640572908009
 31
0.0
 11
195.9734471163538
 21
15.31924873038897
 31
0.0
 11
195.9734471163538
 21
15.2595033332685
 31
0.0
 11
195.9734471163538
 21
15.19975793614803
 31
0.0
 11
195.9734471163538
 21
15.17260093745691
 31
0.0
 11
195.9406948631806
 21
15.17260093745691
 31
0.0
 11
195.8562285260498
 21
15.17260093745691
 31
0.0
 11
195.7407337385445
 21
15.17260093745691
 31
0.0
 11
195.6148961342476
 21
15.17260093745691
 31
0.0
 11
195.4994013467422
 21
15.17260093745691
 31
0.0
 11
195.4149350096114
 21
15.17260093745691
 31
0.0
 11
195.3821827564383
 21
15.17260093745691
 31
0.0
 11
195.3821827564383
 21
15.14016305607613
 31
0.0
 11
195.3821827564383
 21
15.05211737804258
 31
0.0
 11
195.3821827564383
 21
14.92236585251945
 31
0.0
 11
195.3821827564383
 21
14.76481042866994
 31
0.0
 11
195.3821827564383
 21
14.59335305565724
 31
0.0
 11
195.3821827564383
 21
14.42189568264453
 31
0.0
 11
195.3821827564383
 21
14.26434025879502
 31
0.0
 11
195.3821827564383
 21
14.13458873327189
 31
0.0
 11
195.3821827564383
 21
14.04654305523834
 31
0.0
 11
195.3821827564383
 21
14.01410517385756
 31
0.0
  0
SPLINE
  5
B1
102
{ACAD_REACTORS
330
CE
102
}
330
49
100
AcDbEntity
  8
_U_30EC_U_30A4_U_30E4_U_30FC_1
  6
Continuous
 62
     2
100
AcDbSpline
210
0.0
220
0.0
230
1.0
 70
    11
 71
     3
 72
   131
 73
   127
 74
   125
 42
0.000000001
 43
0.0000000001
 44
0.00000001
 40
0.0
 40
0.0
 40
0.0
 40
0.0
 40
0.019557702982603
 40
0.0426490537461317
 40
0.2863607575856427
 40
0.5344948436188943
 40
0.7842238845573177
 40
0.8737315789467363
 40
0.9803832810312859
 40
1.092842274517031
 40
1.199761146656791
 40
1.289788768186495
 40
1.351573580786189
 40
1.370727117561418
 40
1.416400936017831
 40
1.470914848355977
 40
1.51658866679177
 40
1.535742203552851
 40
1.634216592293206
 40
1.760283341175042
 40
1.897966686682104
 40
2.03121638736893
 40
2.049689751137924
 40
2.10111560164686
 40
2.179502577739977
 40
2.278859318314092
 40
2.393194462258749
 40
2.516516648383863
 40
2.642834515405992
 40
2.766156701983494
 40
2.880491846754608
 40
2.979848588358651
 40
3.058235565443828
 40
3.109661416668982
 40
3.128134780704158
 40
3.146783742386475
 40
3.191254343315307
 40
3.244332157315909
 40
3.288802758225784
 40
3.307451719895055
 40
3.327717853844669
 40
3.383747753580028
 40
3.46838866592442
 40
3.574487837698729
 40
3.694892515728835
 40
3.822449946851975
 40
3.950007377920366
 40
4.070412055800457
 40
4.176511227368014
 40
4.26115213950146
 40
4.317182039076654
 40
4.337448172964574
 40
4.620011002696212
 40
4.885096638397521
 40
4.945373043518314
 40
5.014107710488653
 40
5.070481727652042
 40
5.319246955636566
 40
5.584812164506058
 40
5.85900091205693
 40
6.133746937542095
 40
6.401732212968883
 40
6.420736683995474
 40
6.472845717451125
 40
6.550702743894052
 40
6.646951193874261
 40
6.754234497930642
 40
6.865196086587392
 40
6.972479390357907
 40
7.06872783977204
 40
7.146584865451078
 40
7.198693898189307
 40
7.217698368905448
 40
7.234950401630925
 40
7.276089864269967
 40
7.325191803516074
 40
7.366331266090458
 40
7.383583298769808
 40
7.402779163492213
 40
7.453386443254616
 40
7.524934666445675
 40
7.606953361406043
 40
7.688972056429223
 40
7.760520279784502
 40
7.811127559734772
 40
7.830323424546394
 40
7.847844055300025
 40
7.894799345667065
 40
7.962779392744754
 40
8.043374293560806
 40
8.128174145149714
 40
8.208769044817515
 40
8.27674909037722
 40
8.323704379669785
 40
8.341225010056515
 40
8.358497614800664
 40
8.40167912668684
 40
8.457815092185898
 40
8.513951057728303
 40
8.557132569708202
 40
8.574405174505245
 40
8.60234066861659
 40
8.643455660540155
 40
8.663225271966823
 40
8.71534515656447
 40
8.78903188962881
 40
8.87350204552054
 40
8.957972194324165
 40
9.03165892556806
 40
9.083778811234751
 40
9.103548423003213
 40
9.11955008312375
 40
9.160817522380052
 40
9.217244429110417
 40
9.278724491644903
 40
9.335151398295688
 40
9.376418837357983
 40
9.39242049730077
 40
9.40119630273499
 40
9.417494229384463
 40
9.426270027749734
 40
9.440875075477766
 40
9.475702496998947
 40
9.517270709866109
 40
9.552098131994278
 40
9.566703169884486
 40
9.566703169884486
 40
9.566703169884486
 40
9.566703169884486
 10
194.6170254148479
 20
15.67015871511026
 30
0.0
 10
194.6134345093371
 20
15.66453690702158
 30
0.0
 10
194.6056039123624
 20
15.65227754419112
 30
0.0
 10
194.5129968974549
 20
15.61601916040976
 30
0.0
 10
194.4887622233246
 20
15.40148444212713
 30
0.0
 10
194.3858709845938
 20
15.22197284509705
 30
0.0
 10
194.1220492364305
 20
15.03615573798147
 30
0.0
 10
194.2845471569179
 20
14.95959336566081
 30
0.0
 10
194.3607225760838
 20
14.89856693195442
 30
0.0
 10
194.4492171072758
 20
14.8351580454476
 30
0.0
 10
194.538993023311
 20
14.77525634219561
 30
0.0
 10
194.5883817636046
 20
14.72102154849208
 30
0.0
 10
194.6745708157382
 20
14.69286240541834
 30
0.0
 10
194.6411260674229
 20
14.65713309652811
 30
0.0
 10
194.621467116631
 20
14.62550387991905
 30
0.0
 10
194.5919888217882
 20
14.58475872796069
 30
0.0
 10
194.5688989446031
 20
14.55504663489643
 30
0.0
 10
194.5380205968357
 20
14.50211422668493
 30
0.0
 10
194.472919336574
 20
14.62740334938902
 30
0.0
 10
194.3796000122416
 20
14.68213900233934
 30
0.0
 10
194.2950636285138
 20
14.73916423939342
 30
0.0
 10
194.1722498125743
 20
14.89675287427523
 30
0.0
 10
194.1764450847301
 20
14.82035806766836
 30
0.0
 10
194.1751478652677
 20
14.77361280161296
 30
0.0
 10
194.1758126448076
 20
14.695847858126
 30
0.0
 10
194.1755549986957
 20
14.59902068324423
 30
0.0
 10
194.1756431239921
 20
14.48650279078809
 30
0.0
 10
194.1756077302282
 20
14.365240859457
 30
0.0
 10
194.1756511758278
 20
14.24086897858961
 30
0.0
 10
194.1755199942406
 20
14.11967683631337
 30
0.0
 10
194.1759477562046
 20
14.00691148919743
 30
0.0
 10
194.174667820231
 20
13.91082913768744
 30
0.0
 10
194.1779759851044
 20
13.831138264687
 30
0.0
 10
194.1715197740086
 20
13.78815175788784
 30
0.0
 10
194.1806208705556
 20
13.74955432372043
 30
0.0
 10
194.1447910339935
 20
13.7581088772407
 30
0.0
 10
194.1115223815253
 20
13.75342519985447
 30
0.0
 10
194.0604562576041
 20
13.75351298759784
 30
0.0
 10
194.0269723972813
 20
13.75794430283821
 30
0.0
 10
193.9907585408754
 20
13.74960793842508
 30
0.0
 10
194.0009782568666
 20
13.79145277179284
 30
0.0
 10
193.9936487887774
 20
13.83778560820174
 30
0.0
 10
193.9973633136103
 20
13.92374831106014
 30
0.0
 10
193.9959480554897
 20
14.0260514270485
 30
0.0
 10
193.9964105554639
 20
14.14453223931512
 30
0.0
 10
193.9962773686232
 20
14.26957683153356
 30
0.0
 10
193.9963015910046
 20
14.3947582810705
 30
0.0
 10
193.9963354925552
 20
14.51286645379058
 30
0.0
 10
193.9962060293132
 20
14.61628748709516
 30
0.0
 10
193.9965507549082
 20
14.69932036153668
 30
0.0
 10
193.9958698278691
 20
14.75143368521243
 30
0.0
 10
193.9994586600623
 20
14.87912907821363
 30
0.0
 10
193.7826171386437
 20
14.5804871681962
 30
0.0
 10
193.602135492195
 20
14.35263981511513
 30
0.0
 10
193.5490322295612
 20
14.49373443289816
 30
0.0
 10
193.5200429133148
 20
14.5432576756094
 30
0.0
 10
193.419664806282
 20
14.64641779790111
 30
0.0
 10
193.7405127723261
 20
14.72695035023779
 30
0.0
 10
193.868989700543
 20
14.91066283036436
 30
0.0
 10
194.090645432536
 20
15.11931995771762
 30
0.0
 10
194.1770224894069
 20
15.29339211228345
 30
0.0
 10
194.4549394229073
 20
15.56967051342512
 30
0.0
 10
194.3346247839284
 20
15.56534559551115
 30
0.0
 10
194.2863197351348
 20
15.56614856202553
 30
0.0
 10
194.2102377454905
 20
15.56574582146585
 30
0.0
 10
194.116701000975
 20
15.5659027561161
 30
0.0
 10
194.0117594788556
 20
15.56582502576225
 30
0.0
 10
193.9033887738718
 20
15.56595464378556
 30
0.0
 10
193.7981454235896
 20
15.56554393490692
 30
0.0
 10
193.7056237819411
 20
15.56682073671592
 30
0.0
 10
193.6268130800707
 20
15.5634076653485
 30
0.0
 10
193.5839674565378
 20
15.57023350036321
 30
0.0
 10
193.5449499586515
 20
15.56065064201124
 30
0.0
 10
193.5526365271863
 20
15.59420779565543
 30
0.0
 10
193.548546440431
 20
15.62523550322233
 30
0.0
 10
193.5485531368814
 20
15.67236529270901
 30
0.0
 10
193.5526239724909
 20
15.70340941646779
 30
0.0
 10
193.5449495574582
 20
15.73701861635902
 30
0.0
 10
193.5834819405494
 20
15.72748410420872
 30
0.0
 10
193.6241228014479
 20
15.73397435498071
 30
0.0
 10
193.6951471850463
 20
15.73100150650254
 30
0.0
 10
193.7729318149634
 20
15.73174761399158
 30
0.0
 10
193.8507292246475
 20
15.73247814044526
 30
0.0
 10
193.9217232089907
 20
15.7295423551416
 30
0.0
 10
193.9624279791822
 20
15.73595468772953
 30
0.0
 10
194.000985348991
 20
15.72650524176004
 30
0.0
 10
193.9927342754929
 20
15.76264692158785
 30
0.0
 10
193.9982346669358
 20
15.80129837613227
 30
0.0
 10
193.9955754206164
 20
15.86913528561839
 30
0.0
 10
193.9965815471533
 20
15.9459164153874
 30
0.0
 10
193.996017801832
 20
16.02849393582757
 30
0.0
 10
193.9970714526594
 20
16.10517329229879
 30
0.0
 10
193.9942675863131
 20
16.173319907767
 30
0.0
 10
194.0000702721304
 20
16.21132399809347
 30
0.0
 10
193.991565455116
 20
16.24758448077647
 30
0.0
 10
194.0255610233125
 20
16.23755723771853
 30
0.0
 10
194.05945756831
 20
16.24073266813706
 30
0.0
 10
194.1126669060347
 20
16.2350896564061
 30
0.0
 10
194.1660768574483
 20
16.23434774436426
 30
0.0
 10
194.199591464949
 20
16.2281922348298
 30
0.0
 10
194.2388086183039
 20
16.23346029773593
 30
0.0
 10
194.2120263698492
 20
16.19253380793488
 30
0.0
 10
194.1708111001724
 20
16.20371204538113
 30
0.0
 10
194.1782641540873
 20
16.15867056192125
 30
0.0
 10
194.1742227952184
 20
16.11412278028145
 30
0.0
 10
194.176171404964
 20
16.04223572621704
 30
0.0
 10
194.1752364849758
 20
15.96168630588771
 30
0.0
 10
194.176510719003
 20
15.88173995404995
 30
0.0
 10
194.1732043793863
 20
15.80841837083183
 30
0.0
 10
194.1802106179961
 20
15.76688643002568
 30
0.0
 10
194.1701440380126
 20
15.72752418568113
 30
0.0
 10
194.2029814803921
 20
15.73468063430981
 30
0.0
 10
194.236457729648
 20
15.73027243137945
 30
0.0
 10
194.2915053476019
 20
15.73217943347897
 30
0.0
 10
194.3489502595314
 20
15.73185366407288
 30
0.0
 10
194.4023026248309
 20
15.73106308733082
 30
0.0
 10
194.4398540896638
 20
15.73313959118073
 30
0.0
 10
194.4623172523237
 20
15.7302233816711
 30
0.0
 10
194.4751678073731
 20
15.73572552644055
 30
0.0
 10
194.4858255685889
 20
15.7380111819779
 30
0.0
 10
194.4986635650143
 20
15.74494972588051
 30
0.0
 10
194.5145991033071
 20
15.72853046313671
 30
0.0
 10
194.5410623920892
 20
15.71709122319447
 30
0.0
 10
194.5726805253758
 20
15.6964468783519
 30
0.0
 10
194.5987255892151
 20
15.68116869628293
 30
0.0
 10
194.6128517723973
 20
15.67266976323182
 30
0.0
 10
194.6170254148479
 20
15.67015871511026
 30
0.0
 11
194.6170254148479
 21
15.67015871511026
 31
0.0
 11
194.6049990002243
 21
15.65473571164188
 31
0.0
 11
194.5848961795565
 21
15.64337406233918
 31
0.0
 11
194.4778986355813
 21
15.42440620231159
 31
0.0
 11
194.3477039934325
 21
15.21317201512161
 31
0.0
 11
194.1996540366071
 21
15.01206059027479
 31
0.0
 11
194.2734958253735
 21
14.96147384935379
 31
0.0
 11
194.36056643118
 21
14.89988411653739
 31
0.0
 11
194.4518003750404
 21
14.83413160594426
 31
0.0
 11
194.5381321779687
 21
14.77105653169304
 31
0.0
 11
194.6104963609787
 21
14.71749910790242
 31
0.0
 11
194.6598274450843
 21
14.68029954869104
 31
0.0
 11
194.6486940702213
 21
14.66471410869494
 31
0.0
 11
194.6221452532403
 21
14.62754882870423
 31
0.0
 11
194.5904579555533
 21
14.58319026871532
 31
0.0
 11
194.5639091385723
 21
14.54602498872461
 31
0.0
 11
194.5527757637093
 21
14.53043954872851
 31
0.0
 11
194.4807013362947
 21
14.59754008690617
 31
0.0
 11
194.385285698538
 21
14.67993354174669
 31
0.0
 11
194.279326415217
 21
14.76785017366916
 31
0.0
 11
194.175621051109
 21
14.85152024309267
 31
0.0
 11
194.175621051109
 21
14.83304687900863
 31
0.0
 11
194.175621051109
 21
14.78162102763955
 31
0.0
 11
194.175621051109
 21
14.70323405030999
 31
0.0
 11
194.175621051109
 21
14.60387730834449
 31
0.0
 11
194.175621051109
 21
14.4895421630676
 31
0.0
 11
194.175621051109
 21
14.36621997580389
 31
0.0
 11
194.175621051109
 21
14.2399021078779
 31
0.0
 11
194.175621051109
 21
14.11657992061419
 31
0.0
 11
194.175621051109
 21
14.0022447753373
 31
0.0
 11
194.175621051109
 21
13.9028880333718
 31
0.0
 11
194.175621051109
 21
13.82450105604223
 31
0.0
 11
194.175621051109
 21
13.77307520467316
 31
0.0
 11
194.175621051109
 21
13.75460184058912
 31
0.0
 11
194.1569720893626
 21
13.75460184058912
 31
0.0
 11
194.112501488275
 21
13.75460184058912
 31
0.0
 11
194.0594236740737
 21
13.75460184058912
 31
0.0
 11
194.014953072986
 21
13.75460184058912
 31
0.0
 11
193.9963041112396
 21
13.75460184058912
 31
0.0
 11
193.9963041112396
 21
13.77486797460219
 31
0.0
 11
193.9963041112396
 21
13.83089787452066
 31
0.0
 11
193.9963041112396
 21
13.91553878716347
 31
0.0
 11
193.9963041112396
 21
14.02163795934953
 31
0.0
 11
193.9963041112396
 21
14.14204263789776
 31
0.0
 11
193.9963041112396
 21
14.26960006962706
 31
0.0
 11
193.9963041112396
 21
14.39715750135636
 31
0.0
 11
193.9963041112396
 21
14.51756217990459
 31
0.0
 11
193.9963041112396
 21
14.62366135209064
 31
0.0
 11
193.9963041112396
 21
14.70830226473345
 31
0.0
 11
193.9963041112396
 21
14.76433216465193
 31
0.0
 11
193.9963041112396
 21
14.784598298665
 31
0.0
 11
193.7883272849482
 21
14.59331998274057
 31
0.0
 11
193.5763486358425
 21
14.43414885430812
 31
0.0
 11
193.5495629014483
 21
14.48814671952095
 31
0.0
 11
193.5138765415024
 21
14.54689140572026
 31
0.0
 11
193.4799697494124
 21
14.59192871537977
 31
0.0
 11
193.6830287742319
 21
14.73563387201055
 31
0.0
 11
193.881853195826
 21
14.91168423529989
 31
0.0
 11
194.0677041444179
 21
15.11327514524951
 31
0.0
 11
194.2318427502303
 21
15.3336019418611
 31
0.0
 11
194.3655301434864
 21
15.56585996513636
 31
0.0
 11
194.3465256724482
 21
15.56585996513636
 31
0.0
 11
194.2944166389562
 21
15.56585996513636
 31
0.0
 11
194.2165596124447
 21
15.56585996513636
 31
0.0
 11
194.1203111623478
 21
15.56585996513636
 31
0.0
 11
194.0130278580996
 21
15.56585996513636
 31
0.0
 11
193.9020662691345
 21
15.56585996513636
 31
0.0
 11
193.7947829648863
 21
15.56585996513636
 31
0.0
 11
193.6985345147894
 21
15.56585996513636
 31
0.0
 11
193.6206774882779
 21
15.56585996513636
 31
0.0
 11
193.5685684547859
 21
15.56585996513636
 31
0.0
 11
193.5495639837477
 21
15.56585996513636
 31
0.0
 11
193.5495639837477
 21
15.58311199790982
 31
0.0
 11
193.5495639837477
 21
15.62425146067732
 31
0.0
 11
193.5495639837477
 21
15.67335340010949
 31
0.0
 11
193.5495639837477
 21
15.71449286287699
 31
0.0
 11
193.5495639837477
 21
15.73174489565045
 31
0.0
 11
193.5687598486009
 21
15.73174489565045
 31
0.0
 11
193.6193671286683
 21
15.73174489565045
 31
0.0
 11
193.6909153522119
 21
15.73174489565045
 31
0.0
 11
193.7729340474937
 21
15.73174489565045
 31
0.0
 11
193.8549527427754
 21
15.73174489565045
 31
0.0
 11
193.926500966319
 21
15.73174489565045
 31
0.0
 11
193.9771082463865
 21
15.73174489565045
 31
0.0
 11
193.9963041112396
 21
15.73174489565045
 31
0.0
 11
193.9963041112396
 21
15.74926552655218
 31
0.0
 11
193.9963041112396
 21
15.79622081736882
 31
0.0
 11
193.9963041112396
 21
15.86420086526753
 31
0.0
 11
193.9963041112396
 21
15.94479576741549
 31
0.0
 11
193.9963041112396
 21
16.02959562097987
 31
0.0
 11
193.9963041112396
 21
16.11019052312783
 31
0.0
 11
193.9963041112396
 21
16.17817057102654
 31
0.0
 11
193.9963041112396
 21
16.22512586184318
 31
0.0
 11
193.9963041112396
 21
16.24264649274491
 31
0.0
 11
194.0135484112112
 21
16.2416580616752
 31
0.0
 11
194.0566591611401
 21
16.23918698400092
 31
0.0
 11
194.1127031360478
 21
16.23597458302436
 31
0.0
 11
194.1687471109554
 21
16.2327621820478
 31
0.0
 11
194.2118578608843
 21
16.23029110437352
 31
0.0
 11
194.2291021608559
 21
16.22930267330381
 31
0.0
 11
194.2143774674851
 21
16.2055629337264
 31
0.0
 11
194.175621051109
 21
16.19183767331313
 31
0.0
 11
194.175621051109
 21
16.17206806177294
 31
0.0
 11
194.175621051109
 21
16.11994817680334
 31
0.0
 11
194.175621051109
 21
16.0462614428808
 31
0.0
 11
194.175621051109
 21
15.96179128448179
 31
0.0
 11
194.175621051109
 21
15.87732112608278
 31
0.0
 11
194.175621051109
 21
15.80363439216024
 31
0.0
 11
194.175621051109
 21
15.75151450719064
 31
0.0
 11
194.175621051109
 21
15.73174489565045
 31
0.0
 11
194.1916227112935
 21
15.73174489565045
 31
0.0
 11
194.232890150717
 21
15.73174489565045
 31
0.0
 11
194.2893170576837
 21
15.73174489565045
 31
0.0
 11
194.3507971204981
 21
15.73174489565045
 31
0.0
 11
194.4072240274648
 21
15.73174489565045
 31
0.0
 11
194.4484914668882
 21
15.73174489565045
 31
0.0
 11
194.4644931270728
 21
15.73174489565045
 31
0.0
 11
194.4728206422924
 21
15.73451387455921
 31
0.0
 11
194.4882860277004
 21
15.73965626396118
 31
0.0
 11
194.49661354292
 21
15.74242524286993
 31
0.0
 11
194.5091363776005
 21
15.73490952398292
 31
0.0
 11
194.5389985218386
 21
15.71698742509852
 31
0.0
 11
194.5746404359293
 21
15.69559653288166
 31
0.0
 11
194.6045025801674
 21
15.67767443399727
 31
0.0
 11
194.6170254148479
 21
15.67015871511026
 31
0.0
  0
SPLINE
  5
B2
102
{ACAD_REACTORS
330
CF
102
}
330
49
100
AcDbEntity
  8
_U_30EC_U_30A4_U_30E4_U_30FC_1
  6
Continuous
 62
     2
100
AcDbSpline
210
0.0
220
0.0
230
1.0
 70
    11
 71
     3
 72
    91
 73
    87
 74
    85
 42
0.000000001
 43
0.0000000001
 44
0.00000001
 40
0.0
 40
0.0
 40
0.0
 40
0.0
 40
0.0267532254356701
 40
0.0856103386464102
 40
0.1444674521996621
 40
0.1712206856618514
 40
0.2039416005642536
 40
0.2955601971652484
 40
0.4362601844617202
 40
0.6162252844507534
 40
0.8256392189704982
 40
1.054685709844468
 40
1.293548478893588
 40
1.532411247938332
 40
1.761457738799596
 40
1.970871673298593
 40
2.150836773256818
 40
2.291536760495679
 40
2.383155356836757
 40
2.415876284101405
 40
2.44262951748805
 40
2.50148663094918
 40
2.560343744424327
 40
2.5870969778266
 40
2.617068194441027
 40
2.699247336756197
 40
2.822032643466481
 40
2.973822353258039
 40
3.143014704823481
 40
3.31800793688006
 40
3.487200288186894
 40
3.638989997548431
 40
3.76177530379493
 40
3.843954445753265
 40
3.87392566222996
 40
3.890812773500666
 40
3.907699884771844
 40
3.93796076785748
 40
3.980983618142596
 40
4.199085915228713
 40
4.439444339237479
 40
4.67758824126112
 40
5.050698317837977
 40
5.448212454763363
 40
5.855291218044803
 40
6.138575438885404
 40
6.417434507584235
 40
6.444551104393892
 40
6.504207617363191
 40
6.563864130314487
 40
6.590980727104054
 40
6.848609460381438
 40
7.109611990668396
 40
7.352910904446081
 40
7.557830220705424
 40
7.587518925913319
 40
7.652834077375737
 40
7.718149228845698
 40
7.747837934061978
 40
7.85488019030086
 40
7.976511257403383
 40
8.369487896592213
 40
8.757514959223563
 40
9.126072419331026
 40
9.460639380392088
 40
9.74669559303583
 40
9.777569943118614
 40
9.80705032093171
 40
9.83037733612884
 40
9.886003295435916
 40
9.952395569429827
 40
10.00802152870618
 40
10.0313485438821
 40
10.21356951009584
 40
10.42203479292863
 40
10.66154556731053
 40
10.91693789564297
 40
11.15832906556557
 40
11.18982674596615
 40
11.27286608520399
 40
11.39026653033341
 40
11.52484752840878
 40
11.6594285264844
 40
11.77682897161475
 40
11.85986831085675
 40
11.8913659823042
 40
11.8913659823042
 40
11.8913659823042
 40
11.8913659823042
 10
190.7027885008196
 20
14.70699600701772
 30
0.0
 10
190.7028237765288
 20
14.71587847311985
 30
0.0
 10
190.7029366710796
 20
14.74430237047346
 30
0.0
 10
190.7012984568489
 20
14.79409639169803
 30
0.0
 10
190.7069750292911
 20
14.83657564478154
 30
0.0
 10
190.6956928731706
 20
14.88730154856847
 30
0.0
 10
190.7632296979031
 20
14.87012900740109
 30
0.0
 10
190.8388029210701
 20
14.88290227165996
 30
0.0
 10
190.9828357056001
 20
14.87629729457382
 30
0.0
 10
191.1569419185427
 20
14.87888462206466
 30
0.0
 10
191.3639599611003
 20
14.87800591955553
 30
0.0
 10
191.5894688172378
 20
14.87828207920027
 30
0.0
 10
191.8251162293406
 20
14.87818339658662
 30
0.0
 10
192.0607640531349
 20
14.87828184412767
 30
0.0
 10
192.2862717580626
 20
14.87800678190789
 30
0.0
 10
192.4932934632805
 20
14.87888186270734
 30
0.0
 10
192.667388891529
 20
14.87630522678446
 30
0.0
 10
192.8114492071986
 20
14.88288290449213
 30
0.0
 10
192.8869691915294
 20
14.87016243405604
 30
0.0
 10
192.954577603703
 20
14.88726400191687
 30
0.0
 10
192.9430840140677
 20
14.83674785802941
 30
0.0
 10
192.9505104581733
 20
14.79253252226501
 30
0.0
 10
192.9428838927986
 20
14.7486796650361
 30
0.0
 10
192.9546489459426
 20
14.69878374479327
 30
0.0
 10
192.8930788491983
 20
14.71393227712512
 30
0.0
 10
192.8256791738672
 20
14.70310665350673
 30
0.0
 10
192.7013004056222
 20
14.70852031626237
 30
0.0
 10
192.5554428236572
 20
14.70649205390785
 30
0.0
 10
192.3893576440086
 20
14.70715777578387
 30
0.0
 10
192.2188412621725
 20
14.70689643521242
 30
0.0
 10
192.0519790855389
 20
14.70721553391094
 30
0.0
 10
191.9087346827105
 20
14.70635302590762
 30
0.0
 10
191.7773313869834
 20
14.70863300482988
 30
0.0
 10
191.7239859134656
 20
14.70407704374202
 30
0.0
 10
191.6485188456912
 20
14.70999914992877
 30
0.0
 10
191.6769075779233
 20
14.70094169343353
 30
0.0
 10
191.7033652409542
 20
14.6972591226893
 30
0.0
 10
191.6633522907701
 20
14.66654271968271
 30
0.0
 10
191.5713663691866
 20
14.67667591174639
 30
0.0
 10
191.5439396207069
 20
14.43032502247784
 30
0.0
 10
191.4478793967234
 20
14.27499558764374
 30
0.0
 10
191.1917277964473
 20
13.94525417931569
 30
0.0
 10
191.7627537732762
 20
14.08430022210452
 30
0.0
 10
192.0173656320516
 20
14.08291779973364
 30
0.0
 10
192.6279647048616
 20
13.99790569242086
 30
0.0
 10
192.3340698578082
 20
14.29685417558206
 30
0.0
 10
192.0133304286519
 20
14.44330856901777
 30
0.0
 10
192.1313543360433
 20
14.50025540818289
 30
0.0
 10
192.1724716466261
 20
14.52420099873348
 30
0.0
 10
192.215681239441
 20
14.5459975881123
 30
0.0
 10
192.3174574094449
 20
14.60928721253906
 30
0.0
 10
192.4328867625247
 20
14.35147151408778
 30
0.0
 10
192.6329591642276
 20
14.21616041113682
 30
0.0
 10
192.7269077387227
 20
14.03792795138883
 30
0.0
 10
192.9558829746392
 20
13.87997821027052
 30
0.0
 10
192.8596031846706
 20
13.82915972576297
 30
0.0
 10
192.8167959763778
 20
13.79881292523052
 30
0.0
 10
192.7718243528778
 20
13.7746613028146
 30
0.0
 10
192.7121720925213
 20
13.72552146747566
 30
0.0
 10
192.6789731061325
 20
13.85997475673613
 30
0.0
 10
192.5582013350797
 20
14.01594265286578
 30
0.0
 10
192.1970976005979
 20
13.88569928059557
 30
0.0
 10
191.8385061955541
 20
13.90224694409483
 30
0.0
 10
191.457092045008
 20
13.89331229351865
 30
0.0
 10
191.1703455282891
 20
13.82882671672408
 30
0.0
 10
190.8592055599715
 20
13.94230668192828
 30
0.0
 10
190.8268737818787
 20
13.83122259927768
 30
0.0
 10
190.7896178253317
 20
13.81196313850013
 30
0.0
 10
190.7865737632754
 20
13.85874784087298
 30
0.0
 10
190.7679892860606
 20
13.89806853919136
 30
0.0
 10
190.7512436616778
 20
13.95765983478232
 30
0.0
 10
190.7383730915753
 20
14.00201969871284
 30
0.0
 10
190.7042327806428
 20
14.09106331120201
 30
0.0
 10
190.9482714457754
 20
14.02181042943771
 30
0.0
 10
191.1441394486671
 20
14.00030369057744
 30
0.0
 10
191.2395426381276
 20
14.28226484478466
 30
0.0
 10
191.2945135769598
 20
14.44363045421122
 30
0.0
 10
191.5159619357153
 20
14.71391177589736
 30
0.0
 10
191.3849239381217
 20
14.70548446853736
 30
0.0
 10
191.3110026555853
 20
14.70779008496969
 30
0.0
 10
191.1977459876244
 20
14.70671378321658
 30
0.0
 10
191.0694251807484
 20
14.7070763907651
 30
0.0
 10
190.9404252030415
 20
14.70697724466086
 30
0.0
 10
190.828784094629
 20
14.70699932712572
 30
0.0
 10
190.7514663970026
 20
14.7069957918967
 30
0.0
 10
190.713287653201
 20
14.70699595845081
 30
0.0
 10
190.7027885008196
 20
14.70699600701772
 30
0.0
 11
190.7027885008196
 21
14.70699600701772
 31
0.0
 11
190.7027885008196
 21
14.73374924051797
 31
0.0
 11
190.7027885008196
 21
14.79260635421853
 31
0.0
 11
190.7027885008196
 21
14.85146346791909
 31
0.0
 11
190.7027885008196
 21
14.87821670141935
 31
0.0
 11
190.7355094280989
 21
14.87821670141935
 31
0.0
 11
190.8271280244809
 21
14.87821670141935
 31
0.0
 11
190.9678280117819
 21
14.87821670141935
 31
0.0
 11
191.147793111818
 21
14.87821670141935
 31
0.0
 11
191.3572070464054
 21
14.87821670141935
 31
0.0
 11
191.5862535373604
 21
14.87821670141935
 31
0.0
 11
191.8251163064993
 21
14.87821670141935
 31
0.0
 11
192.0639790756381
 21
14.87821670141935
 31
0.0
 11
192.2930255665931
 21
14.87821670141935
 31
0.0
 11
192.5024395011806
 21
14.87821670141935
 31
0.0
 11
192.6824046012168
 21
14.87821670141935
 31
0.0
 11
192.8231045885177
 21
14.87821670141935
 31
0.0
 11
192.9147231848997
 21
14.87821670141935
 31
0.0
 11
192.947444112179
 21
14.87821670141935
 31
0.0
 11
192.947444112179
 21
14.85146346791909
 31
0.0
 11
192.947444112179
 21
14.79260635421853
 31
0.0
 11
192.947444112179
 21
14.73374924051797
 31
0.0
 11
192.947444112179
 21
14.70699600701772
 31
0.0
 11
192.9174728954758
 21
14.70699600701772
 31
0.0
 11
192.8352937529027
 21
14.70699600701772
 31
0.0
 11
192.712508445764
 21
14.70699600701772
 31
0.0
 11
192.5607187353642
 21
14.70699600701772
 31
0.0
 11
192.3915263830078
 21
14.70699600701772
 31
0.0
 11
192.2165331499991
 21
14.70699600701772
 31
0.0
 11
192.0473407976427
 21
14.70699600701772
 31
0.0
 11
191.8955510872428
 21
14.70699600701772
 31
0.0
 11
191.7727657801042
 21
14.70699600701772
 31
0.0
 11
191.690586637531
 21
14.70699600701772
 31
0.0
 11
191.6606154208279
 21
14.70699600701772
 31
0.0
 11
191.6766359412525
 21
14.70165583340794
 31
0.0
 11
191.6926564616771
 21
14.69631565979816
 31
0.0
 11
191.670615568142
 21
14.67558114591442
 31
0.0
 11
191.6284861855362
 21
14.66685871536109
 31
0.0
 11
191.5365235541377
 21
14.46909247312657
 31
0.0
 11
191.4279078521763
 21
14.25467511978508
 31
0.0
 11
191.3127500824807
 21
14.0462255905162
 31
0.0
 11
191.685736667502
 21
14.05582441253029
 31
0.0
 11
192.083070003615
 21
14.06781232404995
 31
0.0
 11
192.4899342191144
 21
14.08102711828533
 31
0.0
 11
192.2983119496978
 21
14.2896676130248
 31
0.0
 11
192.0966752013698
 21
14.48229420151833
 31
0.0
 11
192.1204947794749
 21
14.49525327269565
 31
0.0
 11
192.1728978513061
 21
14.52376322928577
 31
0.0
 11
192.2253009231373
 21
14.55227318587588
 31
0.0
 11
192.2491205012424
 21
14.5652322570532
 31
0.0
 11
192.4387101558626
 21
14.39079508370268
 31
0.0
 11
192.6200310940434
 21
14.20305846374091
 31
0.0
 11
192.7777729231146
 21
14.01782380992436
 31
0.0
 11
192.8966252504057
 21
13.85089253500948
 31
0.0
 11
192.8715408217922
 21
13.83501202286068
 31
0.0
 11
192.8163550788425
 21
13.80007489613331
 31
0.0
 11
192.7611693358927
 21
13.76513776940594
 31
0.0
 11
192.7360849072792
 21
13.74925725725714
 31
0.0
 11
192.6775518151613
 21
13.83887824681808
 31
0.0
 11
192.6050015078458
 21
13.93650288221031
 31
0.0
 11
192.2125412924095
 21
13.91636286943759
 31
0.0
 11
191.824947406956
 21
13.89803302999774
 31
0.0
 11
191.4567378976213
 21
13.88202178722396
 31
0.0
 11
191.1224308105412
 21
13.86883756444948
 31
0.0
 11
190.8365441918518
 21
13.85898878500751
 31
0.0
 11
190.821186232174
 21
13.83220523466695
 31
0.0
 11
190.7937434290546
 21
13.82143559057246
 31
0.0
 11
190.7867927192319
 21
13.84370299445578
 31
0.0
 11
190.7702179496548
 21
13.89680218833139
 31
0.0
 11
190.7504351601596
 21
13.96017864553777
 31
0.0
 11
190.7338603905825
 21
14.01327783941338
 31
0.0
 11
190.7269096807598
 21
14.0355452432967
 31
0.0
 11
190.9091199859153
 21
14.03751638912953
 31
0.0
 11
191.1174975848588
 21
14.04356211829472
 31
0.0
 11
191.2303203127215
 21
14.25483550301553
 31
0.0
 11
191.3407936722035
 21
14.48509813155879
 31
0.0
 11
191.4358254265627
 21
14.70699600701772
 31
0.0
 11
191.4043277461597
 21
14.70699600701772
 31
0.0
 11
191.3212884069153
 21
14.70699600701772
 31
0.0
 11
191.2038879617768
 21
14.70699600701772
 31
0.0
 11
191.0693069636912
 21
14.70699600701772
 31
0.0
 11
190.9347259656055
 21
14.70699600701772
 31
0.0
 11
190.817325520467
 21
14.70699600701772
 31
0.0
 11
190.7342861812226
 21
14.70699600701772
 31
0.0
 11
190.7027885008196
 21
14.70699600701772
 31
0.0
  0
SPLINE
  5
B3
102
{ACAD_REACTORS
330
D0
102
}
330
49
100
AcDbEntity
  8
_U_30EC_U_30A4_U_30E4_U_30FC_1
  6
Continuous
 62
     2
100
AcDbSpline
210
0.0
220
0.0
230
1.0
 70
    11
 71
     3
 72
    35
 73
    31
 74
    29
 42
0.000000001
 43
0.0000000001
 44
0.00000001
 40
0.0
 40
0.0
 40
0.0
 40
0.0
 40
0.0335231036620645
 40
0.0713218571712011
 40
0.4278866681487097
 40
0.8116865841964129
 40
1.198190238000074
 40
1.561379546812705
 40
1.659983174622058
 40
1.759315573807201
 40
2.132719617231135
 40
2.525233363588865
 40
2.910815397779737
 40
3.26524436430331
 40
3.592606723582056
 40
3.964386154604007
 40
4.359942131737832
 40
4.758154118639343
 40
4.843846538699981
 40
4.936650065543344
 40
5.256616602537477
 40
5.581707404416237
 40
5.899719158308353
 40
6.198363494280918
 40
6.466301046615931
 40
6.493895311537281
 40
6.559697020197073
 40
6.638234543442676
 40
6.704036252154457
 40
6.731630508423263
 40
6.731630508423263
 40
6.731630508423263
 40
6.731630508423263
 10
191.9736010568669
 20
16.23463843719134
 30
0.0
 10
191.9676006097789
 20
16.22480690542322
 30
0.0
 10
191.9548344099157
 20
16.20388988579798
 30
0.0
 10
191.7949362006552
 20
16.17127126532691
 30
0.0
 10
192.2322025842338
 20
15.88206680336702
 30
0.0
 10
192.4345394828261
 20
15.68041138358438
 30
0.0
 10
192.6819564267973
 20
15.43749387603276
 30
0.0
 10
193.1831513624606
 20
15.36047662757774
 30
0.0
 10
193.012556219897
 20
15.21876939174656
 30
0.0
 10
192.9383299463202
 20
15.01710366209106
 30
0.0
 10
192.6131432248187
 20
15.36956287174722
 30
0.0
 10
192.3277741670663
 20
15.53175212559563
 30
0.0
 10
192.0337604077658
 20
15.73687130053048
 30
0.0
 10
191.8084452691133
 20
16.21827488595456
 30
0.0
 10
191.5993085055522
 20
15.75343046609223
 30
0.0
 10
191.3207873674834
 20
15.54350952252912
 30
0.0
 10
191.0371383177208
 20
15.37424456359983
 30
0.0
 10
190.7078639527832
 20
15.00142360907936
 30
0.0
 10
190.6277012318224
 20
15.19708014459003
 30
0.0
 10
190.4759724909742
 20
15.32491104190589
 30
0.0
 10
190.9083395826795
 20
15.40454031765936
 30
0.0
 10
191.0962565329765
 20
15.60026634915472
 30
0.0
 10
191.3468477420503
 20
15.81632996916752
 30
0.0
 10
191.571435047016
 20
15.9819099230006
 30
0.0
 10
191.6259775409713
 20
16.26133964636826
 30
0.0
 10
191.749466102901
 20
16.24737950408078
 30
0.0
 10
191.806027334452
 20
16.24521268867647
 30
0.0
 10
191.8761870984944
 20
16.24046859881359
 30
0.0
 10
191.9333414022105
 20
16.23709429350541
 30
0.0
 10
191.9644190320838
 20
16.23519854711119
 30
0.0
 10
191.9736010568669
 20
16.23463843719134
 30
0.0
 11
191.9736010568669
 21
16.23463843719134
 31
0.0
 11
191.9525319069884
 21
16.20856374969785
 31
0.0
 11
191.9174464559425
 21
16.1945011455347
 31
0.0
 11
192.1512374769094
 21
15.92527961131382
 31
0.0
 11
192.4414585957566
 21
15.67413407969259
 31
0.0
 11
192.7612797483684
 21
15.45710987618783
 31
0.0
 11
193.0838708706289
 21
15.29025232631636
 31
0.0
 11
193.0213299868076
 21
15.21402035584929
 31
0.0
 11
192.9688035818975
 21
15.12971197913424
 31
0.0
 11
192.6436279095813
 21
15.3132640483158
 31
0.0
 11
192.3237227768435
 21
15.54070139743428
 31
0.0
 11
192.0354200158608
 21
15.7967385512331
 31
0.0
 11
191.8050514588095
 21
16.06609003445567
 31
0.0
 11
191.5995531719516
 21
15.81126348721036
 31
0.0
 11
191.3288301341535
 21
15.55645182277755
 31
0.0
 11
191.0119538423246
 21
15.31969466354855
 31
0.0
 11
190.6679957933741
 21
15.11903163191465
 31
0.0
 11
190.6218855341338
 21
15.19126067703553
 31
0.0
 11
190.5636970460347
 21
15.26355586798965
 31
0.0
 11
190.8433040489014
 21
15.41911456961744
 31
0.0
 11
191.1093004621154
 21
15.60601009790405
 31
0.0
 11
191.3499997459746
 21
15.81384496285208
 31
0.0
 11
191.5537153607773
 21
16.03222167446415
 31
0.0
 11
191.7087607668217
 21
16.25074274274286
 31
0.0
 11
191.7363041569864
 21
16.24906789496551
 31
0.0
 11
191.8019845489176
 21
16.24507402718872
 31
0.0
 11
191.880377274771
 21
16.24030715274548
 31
0.0
 11
191.9460576667022
 21
16.2363132849687
 31
0.0
 11
191.9736010568669
 21
16.23463843719134
 31
0.0
  0
SPLINE
  5
B4
102
{ACAD_REACTORS
330
D1
102
}
330
49
100
AcDbEntity
  8
_U_30EC_U_30A4_U_30E4_U_30FC_1
  6
Continuous
 62
     2
100
AcDbSpline
210
0.0
220
0.0
230
1.0
 70
    11
 71
     3
 72
    15
 73
    11
 74
     9
 42
0.000000001
 43
0.0000000001
 44
0.00000001
 40
0.0
 40
0.0
 40
0.0
 40
0.0
 40
0.2785535985095889
 40
0.5215624748197358
 40
0.6076917376038786
 40
0.693821000173952
 40
0.9405019146452968
 40
1.221691403488895
 40
1.30047187708084
 40
1.379252341684653
 40
1.379252341684653
 40
1.379252341684653
 40
1.379252341684653
 10
189.5681493631
 20
16.22930267330381
 30
0.0
 10
189.6296017794178
 20
16.17691646592716
 30
0.0
 10
189.7446649974114
 20
16.07882876798223
 30
0.0
 10
190.0397348497242
 20
15.92889785897223
 30
0.0
 10
189.9025147631855
 20
15.84343227515012
 30
0.0
 10
189.8041227843778
 20
15.71085785201556
 30
0.0
 10
189.7130033590649
 20
16.01616985781421
 30
0.0
 10
189.3636839480655
 20
16.07967869465375
 30
0.0
 10
189.511925837657
 20
16.17896509880878
 30
0.0
 10
189.5494081874238
 20
16.21252348402383
 30
0.0
 10
189.5681493631
 20
16.22930267330381
 30
0.0
 11
189.5681493631
 21
16.22930267330381
 31
0.0
 11
189.7919222440596
 21
16.06341774278972
 31
0.0
 11
189.9695046306382
 21
15.89753281227564
 31
0.0
 11
189.9066308127978
 21
15.83866743034592
 31
0.0
 11
189.8437569949574
 21
15.7798020484162
 31
0.0
 11
189.6688535117725
 21
15.95375677059492
 31
0.0
 11
189.447825685614
 21
16.12757920110701
 31
0.0
 11
189.507987524357
 21
16.17844093720541
 31
0.0
 11
189.5681493631
 21
16.22930267330381
 31
0.0
  0
SPLINE
  5
B5
102
{ACAD_REACTORS
330
D2
102
}
330
49
100
AcDbEntity
  8
_U_30EC_U_30A4_U_30E4_U_30FC_1
  6
Continuous
 62
     2
100
AcDbSpline
210
0.0
220
0.0
230
1.0
 70
    11
 71
     3
 72
    75
 73
    71
 74
    69
 42
0.000000001
 43
0.0000000001
 44
0.00000001
 40
0.0
 40
0.0
 40
0.0
 40
0.0
 40
0.0342546099129691
 40
0.1245622414432346
 40
0.2522385480897518
 40
0.398599192294068
 40
0.5449598364980821
 40
0.6726361431438816
 40
0.762943774673696
 40
0.7971983935297973
 40
1.101723623449658
 40
1.408591244036661
 40
1.433332471690369
 40
1.487763172450163
 40
1.542193873081994
 40
1.566935100592542
 40
1.923523931821851
 40
2.271755704953705
 40
2.590579755100891
 40
2.858943305581149
 40
2.889120339309145
 40
2.918305855191073
 40
2.941366645531194
 40
2.996357760973094
 40
3.061992318140657
 40
3.116983433626851
 40
3.140044223997528
 40
3.411273122936452
 40
3.732441619741117
 40
3.761068217532815
 40
3.837787499630377
 40
3.948858699126018
 40
4.080541049104392
 40
4.219093782625775
 40
4.350776132722325
 40
4.461847332405661
 40
4.538566614678391
 40
4.567193212544639
 40
4.594907573998897
 40
4.666381453557465
 40
4.764111044011104
 40
4.870592538125907
 40
4.968322128642386
 40
5.0397960082871
 40
5.067510369784559
 40
5.094263603185771
 40
5.153120716668404
 40
5.211977830150847
 40
5.238731063551851
 40
5.27229053513909
 40
5.363380529444923
 40
5.4976184157816
 40
5.660621563453871
 40
5.838007341749572
 40
6.015393119910895
 40
6.17839626703852
 40
6.3126341518425
 40
6.40372414305949
 40
6.437283612672585
 40
6.464036846261202
 40
6.522893960004815
 40
6.581751071484074
 40
6.608504301591021
 40
6.637253941281168
 40
6.711397748903019
 40
6.812778057283575
 40
6.923237199249295
 40
7.024617507623939
 40
7.098761315207591
 40
7.127510946007542
 40
7.127510946007542
 40
7.127510946007542
 40
7.127510946007542
 10
188.4418622390564
 20
14.95849128473265
 30
0.0
 10
188.4418622819707
 20
14.9470731340872
 30
0.0
 10
188.4418624481129
 20
14.9055525784263
 30
0.0
 10
188.4418593081786
 20
14.82146922003772
 30
0.0
 10
188.44187882798
 20
14.70004497322329
 30
0.0
 10
188.4417912187737
 20
14.55980494047449
 30
0.0
 10
188.442111623523
 20
14.42006556794577
 30
0.0
 10
188.4411605909741
 20
14.29745038894929
 30
0.0
 10
188.4431978595967
 20
14.21587074438044
 30
0.0
 10
188.4349433178746
 20
14.06271267077698
 30
0.0
 10
188.7430797940901
 20
14.22560236054721
 30
0.0
 10
189.0350645173736
 20
14.39482938688003
 30
0.0
 10
189.0408354448707
 20
14.2597323578191
 30
0.0
 10
189.0455471719891
 20
14.21617221160443
 30
0.0
 10
189.0482535411918
 20
14.17211249350544
 30
0.0
 10
189.0672545672958
 20
14.02272590363131
 30
0.0
 10
188.6583942247303
 20
14.08681172241262
 30
0.0
 10
188.3793710348831
 20
13.9729634141102
 30
0.0
 10
188.1018081587167
 20
13.87364095811139
 30
0.0
 10
187.8099837184399
 20
13.91630687596363
 30
0.0
 10
187.7869144678658
 20
13.81321679744542
 30
0.0
 10
187.7537474383334
 20
13.7869109124447
 30
0.0
 10
187.7480653962739
 20
13.83455309036305
 30
0.0
 10
187.7284214559045
 20
13.87180336115069
 30
0.0
 10
187.7095089485623
 20
13.93007387847562
 30
0.0
 10
187.6942849867707
 20
13.97385201007804
 30
0.0
 10
187.6477246372936
 20
14.08759421046311
 30
0.0
 10
187.9890897312449
 20
14.05576301120048
 30
0.0
 10
188.2679649367387
 20
14.02161435106481
 30
0.0
 10
188.2617753034907
 20
14.16913976479653
 30
0.0
 10
188.2630935452773
 20
14.24013150908833
 30
0.0
 10
188.2624831689948
 20
14.34719767958663
 30
0.0
 10
188.2625871570725
 20
14.47398529785999
 30
0.0
 10
188.2629987964055
 20
14.60849243496051
 30
0.0
 10
188.2613907841968
 20
14.73395549951185
 30
0.0
 10
188.2659902567925
 20
14.84505246719118
 30
0.0
 10
188.256418650221
 20
14.9076188680069
 30
0.0
 10
188.2704001783691
 20
14.96595388295002
 30
0.0
 10
188.2147384386705
 20
14.95289710582239
 30
0.0
 10
188.157565519782
 20
14.96136307749499
 30
0.0
 10
188.0616048925648
 20
14.95729976080638
 30
0.0
 10
187.963376752282
 20
14.95970889852476
 30
0.0
 10
187.8672582457559
 20
14.95551600613388
 30
0.0
 10
187.810464852581
 20
14.96429346441164
 30
0.0
 10
187.7550356873382
 20
14.95094936850122
 30
0.0
 10
187.7670679427916
 20
15.00036910959257
 30
0.0
 10
187.7592003173936
 20
15.04393988030396
 30
0.0
 10
187.7666295563828
 20
15.08830469118525
 30
0.0
 10
187.7551930564143
 20
15.13902297763991
 30
0.0
 10
187.8232102370131
 20
15.12162460757743
 30
0.0
 10
187.8968496879746
 20
15.13417450237189
 30
0.0
 10
188.0325064058209
 20
15.12799677011097
 30
0.0
 10
188.1884909024524
 20
15.13029203093084
 30
0.0
 10
188.3615926358142
 20
15.1294096826253
 30
0.0
 10
188.534694296418
 20
15.13029207142408
 30
0.0
 10
188.6906789811216
 20
15.1279966295555
 30
0.0
 10
188.8263351889796
 20
15.13417486262432
 30
0.0
 10
188.8999756705651
 20
15.12162394218334
 30
0.0
 10
188.9679914174722
 20
15.13902373012143
 30
0.0
 10
188.9565590885921
 20
15.08830130414555
 30
0.0
 10
188.9639539458296
 20
15.04397060811109
 30
0.0
 10
188.9562039912269
 20
15.00028307550197
 30
0.0
 10
188.9681203741875
 20
14.95063590098477
 30
0.0
 10
188.9108170223615
 20
14.96461411338426
 30
0.0
 10
188.8520145789771
 20
14.95539755673255
 30
0.0
 10
188.75252936332
 20
14.9595226816493
 30
0.0
 10
188.6494280098349
 20
14.95822760025889
 30
0.0
 10
188.5537846354573
 20
14.95854077077641
 30
0.0
 10
188.4857467971616
 20
14.95848776697146
 30
0.0
 10
188.4514462213443
 20
14.95849051871657
 30
0.0
 10
188.4418622390564
 20
14.95849128473265
 30
0.0
 11
188.4418622390564
 21
14.95849128473265
 31
0.0
 11
188.4418622390564
 21
14.92423666587186
 31
0.0
 11
188.4418622390564
 21
14.83392903432976
 31
0.0
 11
188.4418622390564
 21
14.7062527276668
 31
0.0
 11
188.4418622390564
 21
14.5598920834434
 31
0.0
 11
188.4418622390564
 21
14.41353143922001
 31
0.0
 11
188.4418622390564
 21
14.28585513255705
 31
0.0
 11
188.4418622390564
 21
14.19554750101495
 31
0.0
 11
188.4418622390564
 21
14.16129288215416
 31
0.0
 11
188.7391932644567
 21
14.22709475713768
 31
0.0
 11
189.0384623627245
 21
14.29496038212071
 31
0.0
 11
189.0405487124976
 21
14.27030727882826
 31
0.0
 11
189.0451386819987
 21
14.21607045158489
 31
0.0
 11
189.0497286514996
 21
14.1618336243415
 31
0.0
 11
189.0518150012728
 21
14.13718052104906
 31
0.0
 11
188.705639688924
 21
14.05163370140897
 31
0.0
 11
188.3669653138837
 21
13.97060877629902
 31
0.0
 11
188.0563731516688
 21
13.8986276402493
 31
0.0
 11
187.7944444777955
 21
13.84021218778992
 31
0.0
 11
187.7817515029292
 21
13.81283442738014
 31
0.0
 11
187.7569794787514
 21
13.79740260446735
 31
0.0
 11
187.7491867589502
 21
13.81910683390636
 31
0.0
 11
187.7306041194242
 21
13.87086307333786
 31
0.0
 11
187.70842483999
 21
13.93263664943351
 31
0.0
 11
187.689842200464
 21
13.984392888865
 31
0.0
 11
187.6820494806628
 21
14.00609711830401
 31
0.0
 11
187.9482776335931
 21
14.05794001759666
 31
0.0
 11
188.2626334936289
 21
14.12373968771911
 31
0.0
 11
188.2626334936289
 21
14.15236628569625
 31
0.0
 11
188.2626334936289
 21
14.229085568275
 31
0.0
 11
188.2626334936289
 21
14.34015676842633
 31
0.0
 11
188.2626334936289
 21
14.47183911912119
 31
0.0
 11
188.2626334936289
 21
14.61039185333057
 31
0.0
 11
188.2626334936289
 21
14.74207420402544
 31
0.0
 11
188.2626334936289
 21
14.85314540417676
 31
0.0
 11
188.2626334936289
 21
14.9298646867555
 31
0.0
 11
188.2626334936289
 21
14.95849128473265
 31
0.0
 11
188.2349191321108
 21
14.95849128473265
 31
0.0
 11
188.1634452524063
 21
14.95849128473265
 31
0.0
 11
188.06571566179
 21
14.95849128473265
 31
0.0
 11
187.9592341675364
 21
14.95849128473265
 31
0.0
 11
187.86150457692
 21
14.95849128473265
 31
0.0
 11
187.7900306972155
 21
14.95849128473265
 31
0.0
 11
187.7623163356974
 21
14.95849128473265
 31
0.0
 11
187.7623163356974
 21
14.9852445182329
 31
0.0
 11
187.7623163356974
 21
15.04410163193345
 31
0.0
 11
187.7623163356974
 21
15.10295874563399
 31
0.0
 11
187.7623163356974
 21
15.12971197913424
 31
0.0
 11
187.7958758072873
 21
15.12971197913424
 31
0.0
 11
187.8869658016029
 21
15.12971197913424
 31
0.0
 11
188.0212036879628
 21
15.12971197913424
 31
0.0
 11
188.1842068356855
 21
15.12971197913424
 31
0.0
 11
188.3615926140895
 21
15.12971197913424
 31
0.0
 11
188.5389783924936
 21
15.12971197913424
 31
0.0
 11
188.7019815402163
 21
15.12971197913424
 31
0.0
 11
188.8362194265762
 21
15.12971197913424
 31
0.0
 11
188.9273094208917
 21
15.12971197913424
 31
0.0
 11
188.9608688924817
 21
15.12971197913424
 31
0.0
 11
188.9608688924817
 21
15.10295874563399
 31
0.0
 11
188.9608688924817
 21
15.04410163193344
 31
0.0
 11
188.9608688924817
 21
14.9852445182329
 31
0.0
 11
188.9608688924817
 21
14.95849128473265
 31
0.0
 11
188.9321192527876
 21
14.95849128473265
 31
0.0
 11
188.8579754451554
 21
14.95849128473265
 31
0.0
 11
188.7565951367604
 21
14.95849128473265
 31
0.0
 11
188.6461359947778
 21
14.95849128473265
 31
0.0
 11
188.5447556863827
 21
14.95849128473265
 31
0.0
 11
188.4706118787505
 21
14.95849128473265
 31
0.0
 11
188.4418622390564
 21
14.95849128473265
 31
0.0
  0
SPLINE
  5
B6
102
{ACAD_REACTORS
330
D3
102
}
330
49
100
AcDbEntity
  8
_U_30EC_U_30A4_U_30E4_U_30FC_1
  6
Continuous
 62
     2
100
AcDbSpline
210
0.0
220
0.0
230
1.0
 70
    11
 71
     3
 72
    91
 73
    87
 74
    85
 42
0.000000001
 43
0.0000000001
 44
0.00000001
 40
0.0
 40
0.0
 40
0.0
 40
0.0
 40
0.0345987051695718
 40
0.1258134969461369
 40
0.2547723404888987
 40
0.4026032099154125
 40
0.5504340793416704
 40
0.679392922883608
 40
0.7706077146571035
 40
0.8052064287780925
 40
1.124852390615273
 40
1.427402236308864
 40
1.706356627453497
 40
1.95554141787518
 40
2.169485938566315
 40
2.344350786664754
 40
2.480568411561923
 40
2.590440557428945
 40
2.649189927151124
 40
2.74932064330633
 40
2.912632739880038
 40
3.147745656000243
 40
3.244827496385144
 40
3.338490056946728
 40
3.583815413207164
 40
3.761423943238531
 40
3.886956104362697
 40
3.985855451886905
 40
4.091766255337817
 40
4.250186473811983
 40
4.422734315084607
 40
4.628285684838704
 40
4.872093227758526
 40
5.152549652145646
 40
5.464967135837631
 40
5.803201477852549
 40
6.160362988814022
 40
6.193449448276077
 40
6.28417038550176
 40
6.419718138764573
 40
6.587285046385851
 40
6.774063446723794
 40
6.967245678113748
 40
7.154024078817763
 40
7.32159098702612
 40
7.45713874089045
 40
7.547859678556215
 40
7.580946138182775
 40
7.608533084714828
 40
7.669224367077812
 40
7.729915649430037
 40
7.75750259595009
 40
7.790278062553543
 40
7.88014627743107
 40
8.014419963180504
 40
8.180411842398033
 40
8.365434637679503
 40
8.556801071622832
 40
8.741823866830945
 40
8.907815745916512
 40
9.042089431507666
 40
9.131957646249791
 40
9.164733112797368
 40
9.415425063140285
 40
9.667986180958765
 40
9.694169807462904
 40
9.756607686047891
 40
9.831130315322783
 40
9.893568193900247
 40
9.919751820399064
 40
9.950967964690888
 40
9.996421631210998
 40
10.22087981037489
 40
10.44341866197577
 40
10.4784797078889
 40
10.5709133743879
 40
10.70159545461265
 40
10.85140174170395
 40
11.00120802880513
 40
11.13189010907418
 40
11.22432377583046
 40
11.25938480938992
 40
11.28697175596181
 40
11.34766303835955
 40
11.40835432042106
 40
11.43594125892141
 40
11.43594125892141
 40
11.43594125892141
 40
11.43594125892141
 10
190.0818114333289
 20
15.55242795125076
 30
0.0
 10
190.0702785844941
 20
15.55242790287914
 30
0.0
 10
190.0283409444998
 20
15.55242773704163
 30
0.0
 10
189.9434129719026
 20
15.55243125800908
 30
0.0
 10
189.8207688553128
 20
15.55240926435877
 30
0.0
 10
189.6791206916993
 20
15.55250801177053
 30
0.0
 10
189.537975369849
 20
15.5521468623242
 30
0.0
 10
189.4141351317905
 20
15.55321883609088
 30
0.0
 10
189.3317217825381
 20
15.55092249091268
 30
0.0
 10
189.1727791229693
 20
15.56048569373418
 30
0.0
 10
189.3503402353375
 20
15.1978539431137
 30
0.0
 10
189.3379739205452
 20
14.95243127723114
 30
0.0
 10
189.4064519473864
 20
14.66862501324834
 30
0.0
 10
189.469302432097
 20
14.43250999939036
 30
0.0
 10
189.5452253431727
 20
14.2332674039613
 30
0.0
 10
189.6303189577015
 20
14.07745347451371
 30
0.0
 10
189.7244607592934
 20
13.97657857781392
 30
0.0
 10
189.8282648207727
 20
13.92465852638966
 30
0.0
 10
189.9125872030773
 20
13.97606484379615
 30
0.0
 10
189.9351322179451
 20
14.09144544037518
 30
0.0
 10
189.974573097537
 20
14.21885149702381
 30
0.0
 10
189.9202919734942
 20
14.53622328086758
 30
0.0
 10
190.0451218072473
 20
14.38982180140905
 30
0.0
 10
190.2019291513603
 20
14.35795300331173
 30
0.0
 10
190.0947720007057
 20
14.12421357767628
 30
0.0
 10
190.0808711209866
 20
13.95972776583656
 30
0.0
 10
190.0234709467226
 20
13.8313086912248
 30
0.0
 10
189.9335020145007
 20
13.76018802352826
 30
0.0
 10
189.8095274657877
 20
13.74432324142253
 30
0.0
 10
189.6634273196859
 20
13.77993797554171
 30
0.0
 10
189.5243894320284
 20
13.90000570500278
 30
0.0
 10
189.4102003962143
 20
14.07435682550318
 30
0.0
 10
189.3146141301486
 20
14.29946603111242
 30
0.0
 10
189.2318652572626
 20
14.56388246006442
 30
0.0
 10
189.180717925641
 20
14.88187933098543
 30
0.0
 10
189.0770189207337
 20
15.15543728488912
 30
0.0
 10
189.204284120852
 20
15.56005818612866
 30
0.0
 10
189.0357890623017
 20
15.55112367849677
 30
0.0
 10
188.9511995787076
 20
15.55315961418362
 30
0.0
 10
188.8189876387626
 20
15.55213937388405
 30
0.0
 10
188.6560505094102
 20
15.55253230318428
 30
0.0
 10
188.4733759170531
 20
15.55235696313368
 30
0.0
 10
188.2847057373381
 20
15.55260105307467
 30
0.0
 10
188.1014469020188
 20
15.55185657906235
 30
0.0
 10
187.9404746832717
 20
15.55416360522425
 30
0.0
 10
187.8029808335274
 20
15.54799804883661
 30
0.0
 10
187.728959037231
 20
15.5603283845821
 30
0.0
 10
187.6613215186856
 20
15.54329323723555
 30
0.0
 10
187.6732373719269
 20
15.59524438447527
 30
0.0
 10
187.6655677285693
 20
15.64071424966528
 30
0.0
 10
187.6732592225114
 20
15.68614453703705
 30
0.0
 10
187.661314179776
 20
15.7380239598457
 30
0.0
 10
187.7283588305866
 20
15.72119143490264
 30
0.0
 10
187.8017375665674
 20
15.7333540909267
 30
0.0
 10
187.9379128305272
 20
15.72727231074959
 30
0.0
 10
188.097381180151
 20
15.72954834315057
 30
0.0
 10
188.2789173085836
 20
15.72881233998962
 30
0.0
 10
188.4658034862178
 20
15.72905954196134
 30
0.0
 10
188.6468012316835
 20
15.72886400799253
 30
0.0
 10
188.8080802578878
 20
15.72932234714839
 30
0.0
 10
188.9393882124886
 20
15.72812673751205
 30
0.0
 10
189.0225051322597
 20
15.73051347319743
 30
0.0
 10
189.1556236547814
 20
15.72230605725463
 30
0.0
 10
189.064589350266
 20
15.97752868952655
 30
0.0
 10
188.9789633074418
 20
16.2416435832825
 30
0.0
 10
189.0990589003454
 20
16.22904442969165
 30
0.0
 10
189.1514264948542
 20
16.22694235763076
 30
0.0
 10
189.2214497569716
 20
16.22535399889658
 30
0.0
 10
189.2671922337817
 20
16.21602567538112
 30
0.0
 10
189.3220812646933
 20
16.22545966915426
 30
0.0
 10
189.2963574785681
 20
16.17733028655174
 30
0.0
 10
189.1825397571452
 20
16.18266829744167
 30
0.0
 10
189.3159346621136
 20
15.95449174576777
 30
0.0
 10
189.1943658735471
 20
15.72156856595923
 30
0.0
 10
189.3223188769413
 20
15.73087258884438
 30
0.0
 10
189.4049048406461
 20
15.7280100175468
 30
0.0
 10
189.5307214850824
 20
15.72923437412302
 30
0.0
 10
189.6741469838057
 20
15.72932431888965
 30
0.0
 10
189.8157420951728
 20
15.72746163183853
 30
0.0
 10
189.9459127249967
 20
15.73333075937163
 30
0.0
 10
190.0193452286191
 20
15.72070340823203
 30
0.0
 10
190.0891112922096
 20
15.73877563110412
 30
0.0
 10
190.0775772605396
 20
15.68612850546326
 30
0.0
 10
190.0833184346682
 20
15.64221317686546
 30
0.0
 10
190.0816615770911
 20
15.59089982676548
 30
0.0
 10
190.081775756167
 20
15.56158792021633
 30
0.0
 10
190.0818114333289
 20
15.55242795125076
 30
0.0
 11
190.0818114333289
 21
15.55242795125076
 31
0.0
 11
190.0472127192051
 21
15.55242795125076
 31
0.0
 11
189.9559979274241
 21
15.55242795125076
 31
0.0
 11
189.8270390838717
 21
15.55242795125076
 31
0.0
 11
189.6792082144335
 21
15.55242795125076
 31
0.0
 11
189.5313773449954
 21
15.55242795125076
 31
0.0
 11
189.402418501443
 21
15.55242795125076
 31
0.0
 11
189.311203709662
 21
15.55242795125076
 31
0.0
 11
189.2766049955382
 21
15.55242795125076
 31
0.0
 11
189.3083140497693
 21
15.2343586493012
 31
0.0
 11
189.3527866656865
 21
14.9350952278808
 31
0.0
 11
189.4092389118319
 21
14.66191269512576
 31
0.0
 11
189.4768868567477
 21
14.42208605917227
 31
0.0
 11
189.554946568976
 21
14.22289032815654
 31
0.0
 11
189.642634117059
 21
14.07160051021477
 31
0.0
 11
189.7391655695388
 21
13.97549161348317
 31
0.0
 11
189.8437569949574
 21
13.94183864609792
 31
0.0
 11
189.8943077302785
 21
13.97177376978835
 31
0.0
 11
189.9310588991551
 21
14.06491619815048
 31
0.0
 11
189.9562640977527
 21
14.22627151712055
 31
0.0
 11
189.9721769222368
 21
14.46084531263483
 31
0.0
 11
190.0494082682583
 21
14.40202182306618
 31
0.0
 11
190.1327184184385
 21
14.35921885432691
 31
0.0
 11
190.1066365811217
 21
14.1152838866101
 31
0.0
 11
190.0673317805105
 21
13.94207902887562
 31
0.0
 11
190.0105702596765
 21
13.83011272445916
 31
0.0
 11
189.932118261691
 21
13.76989341669644
 31
0.0
 11
189.8277420296255
 21
13.75192954892316
 31
0.0
 11
189.6738595065096
 21
13.7895744001236
 31
0.0
 11
189.5388902376747
 21
13.89707348877402
 31
0.0
 11
189.4221739916162
 21
14.06627361744808
 31
0.0
 11
189.32305053683
 21
14.28902158871943
 31
0.0
 11
189.2408596418113
 21
14.55716420516172
 31
0.0
 11
189.1749410750558
 21
14.8625482693486
 31
0.0
 11
189.1246346050592
 21
15.19702058385373
 31
0.0
 11
189.089280000317
 21
15.55242795125076
 31
0.0
 11
189.0561935405842
 21
15.55242795125076
 31
0.0
 11
188.9654726026073
 21
15.55242795125076
 31
0.0
 11
188.8299248482184
 21
15.55242795125076
 31
0.0
 11
188.6623579392493
 21
15.55242795125076
 31
0.0
 11
188.4755795375322
 21
15.55242795125076
 31
0.0
 11
188.2823973048991
 21
15.55242795125076
 31
0.0
 11
188.095618903182
 21
15.55242795125076
 31
0.0
 11
187.928051994213
 21
15.55242795125076
 31
0.0
 11
187.792504239824
 21
15.55242795125076
 31
0.0
 11
187.7017833018471
 21
15.55242795125076
 31
0.0
 11
187.6686968421144
 21
15.55242795125076
 31
0.0
 11
187.6686968421144
 21
15.58001489785845
 31
0.0
 11
187.6686968421144
 21
15.64070618039537
 31
0.0
 11
187.6686968421144
 21
15.70139746293229
 31
0.0
 11
187.6686968421144
 21
15.72898440953998
 31
0.0
 11
187.701472308763
 21
15.72898440953998
 31
0.0
 11
187.7913405237672
 21
15.72898440953998
 31
0.0
 11
187.9256142097147
 21
15.72898440953998
 31
0.0
 11
188.0916060891931
 21
15.72898440953998
 31
0.0
 11
188.27662888479
 21
15.72898440953998
 31
0.0
 11
188.4679953190931
 21
15.72898440953998
 31
0.0
 11
188.6530181146901
 21
15.72898440953998
 31
0.0
 11
188.8190099941685
 21
15.72898440953998
 31
0.0
 11
188.953283680116
 21
15.72898440953998
 31
0.0
 11
189.0431518951202
 21
15.72898440953998
 31
0.0
 11
189.0759273617688
 21
15.72898440953998
 31
0.0
 11
189.0659183950103
 21
15.97947647544958
 31
0.0
 11
189.0599112510662
 21
16.23196614552532
 31
0.0
 11
189.0860575870658
 21
16.23056921608122
 31
0.0
 11
189.1484065421418
 21
16.22723807663762
 31
0.0
 11
189.2228230369099
 21
16.2232622005275
 31
0.0
 11
189.2851719919859
 21
16.21993106108388
 31
0.0
 11
189.3113183279855
 21
16.21853413163979
 31
0.0
 11
189.298293111304
 21
16.19016528616081
 31
0.0
 11
189.2551649266405
 21
16.17581274276165
 31
0.0
 11
189.2574991961821
 21
15.95136670115108
 31
0.0
 11
189.2658452735903
 21
15.72898440953998
 31
0.0
 11
189.3009063195165
 21
15.72898440953998
 31
0.0
 11
189.3933399860495
 21
15.72898440953998
 31
0.0
 11
189.5240220663201
 21
15.72898440953998
 31
0.0
 11
189.6738283534596
 21
15.72898440953998
 31
0.0
 11
189.8236346405991
 21
15.72898440953998
 31
0.0
 11
189.9543167208697
 21
15.72898440953998
 31
0.0
 11
190.0467503874027
 21
15.72898440953998
 31
0.0
 11
190.0818114333289
 21
15.72898440953998
 31
0.0
 11
190.0818114333289
 21
15.70139746293229
 31
0.0
 11
190.0818114333289
 21
15.64070618039537
 31
0.0
 11
190.0818114333289
 21
15.58001489785845
 31
0.0
 11
190.0818114333289
 21
15.55242795125076
 31
0.0
  0
SPLINE
  5
B7
102
{ACAD_REACTORS
330
D4
102
}
330
49
100
AcDbEntity
  8
_U_30EC_U_30A4_U_30E4_U_30FC_1
  6
Continuous
 62
     2
100
AcDbSpline
210
0.0
220
0.0
230
1.0
 70
    11
 71
     3
 72
   118
 73
   114
 74
   112
 42
0.000000001
 43
0.0000000001
 44
0.00000001
 40
0.0
 40
0.0
 40
0.0
 40
0.0
 40
0.1054708162973237
 40
0.2466098270051723
 40
0.3965912874591032
 40
0.5285525069753729
 40
0.6156245055642011
 40
0.6431434105797323
 40
0.7036850037986028
 40
0.7642265984504425
 40
0.7917455052354729
 40
0.9287404319989697
 40
1.10657281908802
 40
1.287544879681011
 40
1.317578308030528
 40
1.399928030857166
 40
1.522968204799941
 40
1.675072986590562
 40
1.844616533180639
 40
2.019973001638704
 40
2.189516548880016
 40
2.341621331585355
 40
2.464661506320491
 40
2.547011229647055
 40
2.577044658168019
 40
2.603797890893089
 40
2.662655002908776
 40
2.721512114949588
 40
2.748265347702768
 40
2.774215307344845
 40
2.845959313407175
 40
2.954338556588375
 40
3.090194227585554
 40
3.244367517100519
 40
3.40769961584428
 40
3.57103171453943
 40
3.725205003920106
 40
3.861060674729609
 40
3.969439917716301
 40
4.041183923628976
 40
4.06713388321297
 40
4.311886746012155
 40
4.547897258335522
 40
4.764747083043963
 40
4.952749679951765
 40
5.045772974195888
 40
5.137862019644975
 40
5.330543169793017
 40
5.553448265244006
 40
5.795083855888163
 40
6.043293412177242
 40
6.285761695541191
 40
6.313902908752703
 40
6.384255941793293
 40
6.475714884766881
 40
6.567173827758972
 40
6.637526860839778
 40
6.665668074074142
 40
6.69201892032812
 40
6.749990782071197
 40
6.807962643790572
 40
6.834313490018048
 40
6.856393084245327
 40
6.91333519564995
 40
6.991194817302614
 40
7.076026942283876
 40
7.153886563725366
 40
7.210828674844948
 40
7.232908268931284
 40
7.258199334923805
 40
7.324875781592453
 40
7.419142481925108
 40
7.527204308842047
 40
7.635266135230622
 40
7.729532834168604
 40
7.796209279292927
 40
7.821500344594873
 40
7.844652988850943
 40
7.899863140541722
 40
7.965759128053889
 40
8.020969279771172
 40
8.044121924046639
 40
8.069356610160717
 40
8.10913439544151
 40
8.132238100191222
 40
8.193147867786584
 40
8.27926167887676
 40
8.377977512673974
 40
8.476693347146758
 40
8.56280716041181
 40
8.623716930826596
 40
8.64682063685355
 40
8.671988793774362
 40
8.734909185828274
 40
8.816705695188988
 40
8.898502204815559
 40
8.96142259737802
 40
8.986590754551132
 40
9.012941600733292
 40
9.070913462380382
 40
9.128885324081885
 40
9.155236170325209
 40
9.180404327929251
 40
9.243324721948325
 40
9.325121234212117
 40
9.406917746637772
 40
9.469838141978228
 40
9.495006288271002
 40
9.517811184379143
 40
9.572192090487144
 40
9.637098333281372
 40
9.691479239515573
 40
9.714284125643612
 40
9.714284125643612
 40
9.714284125643612
 40
9.714284125643612
 10
185.2874469028653
 20
15.26889163187718
 30
0.0
 10
185.3090990569037
 20
15.2411186924281
 30
0.0
 10
185.3597257109473
 20
15.17618054561233
 30
0.0
 10
185.4349383202592
 20
15.06891060312898
 30
0.0
 10
185.5248482274345
 20
14.95377438266625
 30
0.0
 10
185.5709169676673
 20
14.85357045748318
 30
0.0
 10
185.6655825294655
 20
14.78434006814944
 30
0.0
 10
185.6204439320412
 20
14.73771639678274
 30
0.0
 10
185.594704778579
 20
14.6966030886604
 30
0.0
 10
185.5645196708012
 20
14.6606597172794
 30
0.0
 10
185.5193684730561
 20
14.58579782596094
 30
0.0
 10
185.4710504458563
 20
14.80782524253607
 30
0.0
 10
185.3968539713072
 20
14.8451067733771
 30
0.0
 10
185.2836047324607
 20
15.11610202130601
 30
0.0
 10
185.2885133578168
 20
15.00095328446228
 30
0.0
 10
185.2868486556307
 20
14.92836675781628
 30
0.0
 10
185.2876830076714
 20
14.80625588483986
 30
0.0
 10
185.2873609540264
 20
14.6591380081046
 30
0.0
 10
185.2875076912455
 20
14.49307063956557
 30
0.0
 10
185.2872950092723
 20
14.32187554608602
 30
0.0
 10
185.2879497252034
 20
14.15552828635498
 30
0.0
 10
185.2859192461139
 20
14.00935173055693
 30
0.0
 10
185.291346039993
 20
13.8847104747461
 30
0.0
 10
185.2804930868708
 20
13.81718656540626
 30
0.0
 10
185.2956739155555
 20
13.75549061417022
 30
0.0
 10
185.2457895108133
 20
13.76727503897002
 30
0.0
 10
185.2017150342522
 20
13.75943822779969
 30
0.0
 10
185.15823716302
 20
13.76760441372703
 30
0.0
 10
185.1092346786489
 20
13.75538056738468
 30
0.0
 10
185.1218731234825
 20
13.80960667249313
 30
0.0
 10
185.113018296845
 20
13.86936918907558
 30
0.0
 10
185.1175058770314
 20
13.97922029044371
 30
0.0
 10
185.115796013599
 20
14.11029975405678
 30
0.0
 10
185.1163550915987
 20
14.26198011444329
 30
0.0
 10
185.1161928768693
 20
14.42211074929953
 30
0.0
 10
185.1162269924675
 20
14.58236865674567
 30
0.0
 10
185.1162514960126
 20
14.7337024752044
 30
0.0
 10
185.1161453543226
 20
14.86582156338602
 30
0.0
 10
185.116429914193
 20
14.97294802533193
 30
0.0
 10
185.1158675547568
 20
15.03808619579475
 30
0.0
 10
185.1180765083689
 20
15.16618957858676
 30
0.0
 10
185.0319435998602
 20
14.79097610391577
 30
0.0
 10
184.9555140818499
 20
14.63918193123396
 30
0.0
 10
184.8660040767834
 20
14.47766206446307
 30
0.0
 10
184.7640413217327
 20
14.20471848820173
 30
0.0
 10
184.7187976491038
 20
14.36717346596511
 30
0.0
 10
184.610235594167
 20
14.45605432058121
 30
0.0
 10
184.7995791751752
 20
14.60549794961409
 30
0.0
 10
184.8565340545701
 20
14.79749136974925
 30
0.0
 10
184.9717520993352
 20
15.02899622906757
 30
0.0
 10
184.9940151630132
 20
15.21797259759062
 30
0.0
 10
185.1771905152141
 20
15.4945408932593
 30
0.0
 10
185.0538033597552
 20
15.48698978832093
 30
0.0
 10
184.9925684166834
 20
15.48856772366117
 30
0.0
 10
184.9081999617064
 20
15.48882592573671
 30
0.0
 10
184.8204235085965
 20
15.48544845751204
 30
0.0
 10
184.7656768696123
 20
15.49394814982019
 30
0.0
 10
184.7104703026024
 20
15.48048561049787
 30
0.0
 10
184.7222823035537
 20
15.52931442126763
 30
0.0
 10
184.7142496151793
 20
15.57269004896708
 30
0.0
 10
184.7228186104678
 20
15.61509438309573
 30
0.0
 10
184.7102943409157
 20
15.66267796552119
 30
0.0
 10
184.7555101538735
 20
15.6526721299511
 30
0.0
 10
184.8014815562724
 20
15.65894105174062
 30
0.0
 10
184.877722204771
 20
15.65593561405873
 30
0.0
 10
184.9561296131993
 20
15.65770448278542
 30
0.0
 10
185.0323992648932
 20
15.65464793981661
 30
0.0
 10
185.0783009459475
 20
15.66103971376178
 30
0.0
 10
185.12317339654
 20
15.65093822978897
 30
0.0
 10
185.1105552275634
 20
15.701572015819
 30
0.0
 10
185.1191936582707
 20
15.7550126188207
 30
0.0
 10
185.1152361595443
 20
15.84863255131681
 30
0.0
 10
185.1162325068335
 20
15.95112606688924
 30
0.0
 10
185.1171927413073
 20
16.05353270248163
 30
0.0
 10
185.1133211458005
 20
16.14735929609321
 30
0.0
 10
185.1217789814364
 20
16.20036542840353
 30
0.0
 10
185.1093075932835
 20
16.25211435651188
 30
0.0
 10
185.1542106389849
 20
16.23850747226757
 30
0.0
 10
185.1955083836772
 20
16.24100480320585
 30
0.0
 10
185.259534428105
 20
16.23648060574487
 30
0.0
 10
185.2986111148786
 20
16.22781003043308
 30
0.0
 10
185.3476543498742
 20
16.23515102070687
 30
0.0
 10
185.3225080030591
 20
16.19602896051756
 30
0.0
 10
185.2815901333723
 20
16.2056384245581
 30
0.0
 10
185.2910109616604
 20
16.15540148169779
 30
0.0
 10
185.2855647318746
 20
16.10385945639491
 30
0.0
 10
185.2881699601804
 20
16.01959707584522
 30
0.0
 10
185.2870102202154
 20
15.92559135583409
 30
0.0
 10
185.2883591064231
 20
15.83196865395527
 30
0.0
 10
185.2849970101509
 20
15.74679517552224
 30
0.0
 10
185.2920959917769
 20
15.69716856072045
 30
0.0
 10
185.2812569154545
 20
15.6499369496999
 30
0.0
 10
185.3304010225245
 20
15.66201674936852
 30
0.0
 10
185.3794877630146
 20
15.65447393363012
 30
0.0
 10
185.4573714280641
 20
15.65686070361433
 30
0.0
 10
185.5350365172896
 20
15.65899381905415
 30
0.0
 10
185.5845393931355
 20
15.65193391922456
 30
0.0
 10
185.6344594750639
 20
15.66360151936215
 30
0.0
 10
185.6223198516881
 20
15.61540235371393
 30
0.0
 10
185.6305838229144
 20
15.57249219801235
 30
0.0
 10
185.6223198650783
 20
15.52958201851384
 30
0.0
 10
185.6344594549854
 20
15.48138288754864
 30
0.0
 10
185.5845395158746
 20
15.49305034471509
 30
0.0
 10
185.5350350651202
 20
15.48599202435044
 30
0.0
 10
185.4573784382973
 20
15.48811665228602
 30
0.0
 10
185.379464386576
 20
15.49053389365759
 30
0.0
 10
185.3304500352716
 20
15.48291848194484
 30
0.0
 10
185.2813246108943
 20
15.49507952557592
 30
0.0
 10
185.2915559988571
 20
15.45073013424156
 30
0.0
 10
185.2856677678053
 20
15.4092543620291
 30
0.0
 10
185.2878788305568
 20
15.34915394315302
 30
0.0
 10
185.2874109346146
 20
15.30225782762887
 30
0.0
 10
185.2874386992913
 20
15.27650146418195
 30
0.0
 10
185.2874469028653
 20
15.26889163187718
 30
0.0
 11
185.2874469028653
 21
15.26889163187718
 31
0.0
 11
185.3516977534484
 21
15.18524999634255
 31
0.0
 11
185.4348258835499
 21
15.0711888974822
 31
0.0
 11
185.5216831568895
 21
14.94891767195723
 31
0.0
 11
185.5971214371872
 21
14.84064565642876
 31
0.0
 11
185.6459925881626
 21
14.76858218755791
 31
0.0
 11
185.6296821285093
 21
14.746417821244
 31
0.0
 11
185.5937991172719
 21
14.6976562153534
 31
0.0
 11
185.5579161060346
 21
14.64889460946281
 31
0.0
 11
185.5416056463813
 21
14.6267302431489
 31
0.0
 11
185.4763067109446
 21
14.74716139023814
 31
0.0
 11
185.3848434243234
 21
14.89966983670208
 31
0.0
 11
185.2874469028653
 21
15.05219788193142
 31
0.0
 11
185.2874469028653
 21
15.02216445328253
 31
0.0
 11
185.2874469028653
 21
14.93981472956783
 31
0.0
 11
185.2874469028653
 21
14.81677455413528
 31
0.0
 11
185.2874469028653
 21
14.66466977033283
 31
0.0
 11
185.2874469028653
 21
14.49512622150845
 31
0.0
 11
185.2874469028653
 21
14.31976975101009
 31
0.0
 11
185.2874469028653
 21
14.15022620218571
 31
0.0
 11
185.2874469028653
 21
13.99812141838326
 31
0.0
 11
185.2874469028653
 21
13.87508124295071
 31
0.0
 11
185.2874469028653
 21
13.79273151923601
 31
0.0
 11
185.2874469028653
 21
13.76269809058712
 31
0.0
 11
185.2606936700409
 21
13.76269809058712
 31
0.0
 11
185.2018365578272
 21
13.76269809058712
 31
0.0
 11
185.1429794456134
 21
13.76269809058712
 31
0.0
 11
185.116226212789
 21
13.76269809058712
 31
0.0
 11
185.116226212789
 21
13.7886480503125
 31
0.0
 11
185.116226212789
 21
13.86039205661208
 31
0.0
 11
185.116226212789
 21
13.96877130017102
 31
0.0
 11
185.116226212789
 21
14.10462697167448
 31
0.0
 11
185.116226212789
 21
14.25880026180761
 31
0.0
 11
185.116226212789
 21
14.42213236125559
 31
0.0
 11
185.116226212789
 21
14.58546446070357
 31
0.0
 11
185.116226212789
 21
14.7396377508367
 31
0.0
 11
185.116226212789
 21
14.87549342234016
 31
0.0
 11
185.116226212789
 21
14.9838726658991
 31
0.0
 11
185.116226212789
 21
15.05561667219868
 31
0.0
 11
185.116226212789
 21
15.08156663192406
 31
0.0
 11
185.0379865861721
 21
14.84965603302373
 31
0.0
 11
184.9497110789303
 21
14.63077616328679
 31
0.0
 11
184.8544106930045
 21
14.43598991333548
 31
0.0
 11
184.7550964303356
 21
14.27636017379203
 31
0.0
 11
184.7109198342406
 21
14.358224461966
 31
0.0
 11
184.658805738348
 21
14.43414885430812
 31
0.0
 11
184.7627302590299
 21
14.59640087926757
 31
0.0
 11
184.8629319864735
 21
14.7955146542178
 31
0.0
 11
184.9550446607901
 21
15.01890447916196
 31
0.0
 11
185.0347020220912
 21
15.25398465410319
 31
0.0
 11
185.0975378104881
 21
15.48816947904464
 31
0.0
 11
185.0693965972143
 21
15.48816947904464
 31
0.0
 11
184.9990435640298
 21
15.48816947904464
 31
0.0
 11
184.9075846208899
 21
15.48816947904464
 31
0.0
 11
184.81612567775
 21
15.48816947904464
 31
0.0
 11
184.7457726445654
 21
15.48816947904464
 31
0.0
 11
184.7176314312916
 21
15.48816947904464
 31
0.0
 11
184.7176314312916
 21
15.51452032539222
 31
0.0
 11
184.7176314312916
 21
15.57249218735689
 31
0.0
 11
184.7176314312916
 21
15.63046404932155
 31
0.0
 11
184.7176314312916
 21
15.65681489566913
 31
0.0
 11
184.739711025602
 21
15.65681489566913
 31
0.0
 11
184.7966531372444
 21
15.65681489566913
 31
0.0
 11
184.8745127592862
 21
15.65681489566913
 31
0.0
 11
184.9593448847944
 21
15.65681489566913
 31
0.0
 11
185.0372045068361
 21
15.65681489566913
 31
0.0
 11
185.0941466184786
 21
15.65681489566913
 31
0.0
 11
185.116226212789
 21
15.65681489566913
 31
0.0
 11
185.116226212789
 21
15.68210596174354
 31
0.0
 11
185.116226212789
 21
15.74878240866698
 31
0.0
 11
185.116226212789
 21
15.84304910948977
 31
0.0
 11
185.116226212789
 21
15.95111093726225
 31
0.0
 11
185.116226212789
 21
16.05917276503472
 31
0.0
 11
185.116226212789
 21
16.15343946585751
 31
0.0
 11
185.116226212789
 21
16.22011591278095
 31
0.0
 11
185.116226212789
 21
16.24540697885536
 31
0.0
 11
185.1393181988665
 21
16.243732131078
 31
0.0
 11
185.1943837041284
 21
16.23973826330122
 31
0.0
 11
185.2601070491184
 21
16.23497138885796
 31
0.0
 11
185.3151725543802
 21
16.23097752108117
 31
0.0
 11
185.3382645404578
 21
16.22930267330381
 31
0.0
 11
185.3249012644362
 21
16.20789677921191
 31
0.0
 11
185.2874469028653
 21
16.1945011455347
 31
0.0
 11
185.2874469028653
 21
16.17139743948579
 31
0.0
 11
185.2874469028653
 21
16.11048766899321
 31
0.0
 11
185.2874469028653
 21
16.02437385553817
 31
0.0
 11
185.2874469028653
 21
15.92565802060192
 31
0.0
 11
185.2874469028653
 21
15.82694218566566
 31
0.0
 11
185.2874469028653
 21
15.74082837221063
 31
0.0
 11
185.2874469028653
 21
15.67991860171804
 31
0.0
 11
185.2874469028653
 21
15.65681489566913
 31
0.0
 11
185.3126150604809
 21
15.65681489566913
 31
0.0
 11
185.3755354545199
 21
15.65681489566913
 31
0.0
 11
185.4573319667706
 21
15.65681489566913
 31
0.0
 11
185.5391284790212
 21
15.65681489566913
 31
0.0
 11
185.6020488730602
 21
15.65681489566913
 31
0.0
 11
185.6272170306758
 21
15.65681489566913
 31
0.0
 11
185.6272170306758
 21
15.63046404932155
 31
0.0
 11
185.6272170306758
 21
15.57249218735689
 31
0.0
 11
185.6272170306758
 21
15.51452032539222
 31
0.0
 11
185.6272170306758
 21
15.48816947904464
 31
0.0
 11
185.6020488730602
 21
15.48816947904464
 31
0.0
 11
185.5391284790212
 21
15.48816947904464
 31
0.0
 11
185.4573319667705
 21
15.48816947904464
 31
0.0
 11
185.3755354545199
 21
15.48816947904464
 31
0.0
 11
185.3126150604809
 21
15.48816947904464
 31
0.0
 11
185.2874469028653
 21
15.48816947904464
 31
0.0
 11
185.2874469028653
 21
15.46536458293923
 31
0.0
 11
185.2874469028653
 21
15.41098367684169
 31
0.0
 11
185.2874469028653
 21
15.34607743408013
 31
0.0
 11
185.2874469028653
 21
15.2916965279826
 31
0.0
 11
185.2874469028653
 21
15.26889163187718
 31
0.0
  0
SPLINE
  5
B8
102
{ACAD_REACTORS
330
D5
102
}
330
49
100
AcDbEntity
  8
_U_30EC_U_30A4_U_30E4_U_30FC_1
  6
Continuous
 62
     2
100
AcDbSpline
210
0.0
220
0.0
230
1.0
 70
    11
 71
     3
 72
    47
 73
    43
 74
    41
 42
0.000000001
 43
0.0000000001
 44
0.00000001
 40
0.0
 40
0.0
 40
0.0
 40
0.0
 40
0.220791280995723
 40
0.4459404186302935
 40
0.4902387190458858
 40
0.5327473892720981
 40
0.5742260451225145
 40
0.6155432630560724
 40
0.6568164066315645
 40
0.6982511618780559
 40
0.7407663929317082
 40
0.7851366743175132
 40
1.0102888338363
 40
1.231080507002152
 40
1.451765243652377
 40
1.676638205891676
 40
1.720461045359648
 40
1.830018144043506
 40
1.972442372353133
 40
2.114866600677499
 40
2.224423699395117
 40
2.268246538883358
 40
2.493628801207194
 40
2.715602830286598
 40
2.934211330706356
 40
3.149502369855354
 40
3.231387784851028
 40
3.318231873854035
 40
3.405143198198023
 40
3.48697030172046
 40
3.702258172493906
 40
3.920866283534142
 40
4.142839325931936
 40
4.368221903865403
 40
4.412044743359883
 40
4.521601842095893
 40
4.664026070452368
 40
4.806450298809074
 40
4.916007397546761
 40
4.959830237043083
 40
5.18470351584713
 40
5.405387250767502
 40
5.405387250767502
 40
5.405387250767502
 40
5.405387250767502
 10
182.6507427258645
 20
15.73406440953872
 30
0.0
 10
182.6568139420002
 20
15.7975848250121
 30
0.0
 10
182.6690762107243
 20
15.92587938689627
 30
0.0
 10
182.5604706879412
 20
16.20166220174072
 30
0.0
 10
182.6761985896603
 20
16.17188133432055
 30
0.0
 10
182.7171842509015
 20
16.16765556262817
 30
0.0
 10
182.7591205797517
 20
16.16310446389607
 30
0.0
 10
182.800419662571
 20
16.16201982929483
 30
0.0
 10
182.8417032115555
 20
16.16310338195227
 30
0.0
 10
182.8836148270647
 20
16.16766112711342
 30
0.0
 10
182.9245983549019
 20
16.17187430209728
 30
0.0
 10
183.0404922843489
 20
16.2017761131753
 30
0.0
 10
182.9295652727456
 20
15.9233980660989
 30
0.0
 10
182.9574856365267
 20
15.74283140824953
 30
0.0
 10
182.9404267346969
 20
15.50961042346471
 30
0.0
 10
182.9414637282102
 20
15.34906622543144
 30
0.0
 10
182.9414099399404
 20
15.22284817558721
 30
0.0
 10
182.941427737248
 20
15.1242896333624
 30
0.0
 10
182.941418858108
 20
14.99280702442962
 30
0.0
 10
182.9414263928034
 20
14.8613284496865
 30
0.0
 10
182.9414129405128
 20
14.76276222694091
 30
0.0
 10
182.9414531717492
 20
14.63639735624152
 30
0.0
 10
182.9406746403817
 20
14.47482068822871
 30
0.0
 10
182.9565958319266
 20
14.24361821892914
 30
0.0
 10
182.9333468885407
 20
14.05874351972001
 30
0.0
 10
183.0360183444366
 20
13.78935602770052
 30
0.0
 10
182.8820238362836
 20
13.82660112685817
 30
0.0
 10
182.8004129802832
 20
13.82137994680532
 30
0.0
 10
182.7188192292583
 20
13.82660620378351
 30
0.0
 10
182.5648513666842
 20
13.78937069885384
 30
0.0
 10
182.6674183421917
 20
14.0587512986288
 30
0.0
 10
182.6442045316088
 20
14.24361585325414
 30
0.0
 10
182.6600444655139
 20
14.47482218565639
 30
0.0
 10
182.6593296313426
 20
14.63639712308503
 30
0.0
 10
182.6593664569907
 20
14.76276231210522
 30
0.0
 10
182.659354900027
 20
14.86132756635982
 30
0.0
 10
182.6593575019214
 20
14.9928112741722
 30
0.0
 10
182.6593648531779
 20
15.12427548031199
 30
0.0
 10
182.6593442541351
 20
15.22287786275325
 30
0.0
 10
182.6594082192028
 20
15.34896149354426
 30
0.0
 10
182.658173394759
 20
15.51210091383771
 30
0.0
 10
182.6532040396745
 20
15.6605418377755
 30
0.0
 10
182.6507427258645
 20
15.73406440953872
 30
0.0
 11
182.6507427258645
 21
15.73406440953872
 31
0.0
 11
182.6417328200379
 21
15.95467178795577
 31
0.0
 11
182.6318769706146
 21
16.17960510387178
 31
0.0
 11
182.6756985840801
 21
16.17312391463728
 31
0.0
 11
182.7178400934214
 21
16.16754892331923
 31
0.0
 11
182.759137140979
 21
16.1636716750563
 31
0.0
 11
182.8004341885365
 21
16.16238072887606
 31
0.0
 11
182.841687138873
 21
16.1636716750563
 31
0.0
 11
182.8829400892097
 21
16.16754892331923
 31
0.0
 11
182.9250882131343
 21
16.17312391463728
 31
0.0
 11
182.9689825870145
 21
16.17960510387178
 31
0.0
 11
182.9590577693891
 21
15.95467178795577
 31
0.0
 11
182.950038420831
 21
15.73406440953872
 31
0.0
 11
182.9435638463435
 21
15.51347467001055
 31
0.0
 11
182.9414218238286
 21
15.28861190965006
 31
0.0
 11
182.9414218238286
 21
15.24478907015484
 31
0.0
 11
182.9414218238286
 21
15.13523197141681
 31
0.0
 11
182.9414218238286
 21
14.99280774305737
 31
0.0
 11
182.9414218238286
 21
14.85038351469792
 31
0.0
 11
182.9414218238286
 21
14.74082641595989
 31
0.0
 11
182.9414218238286
 21
14.69700357646468
 31
0.0
 11
182.9435638463435
 21
14.47163149318767
 31
0.0
 11
182.950038420831
 21
14.2497519099098
 31
0.0
 11
182.9590577693891
 21
14.03132954885329
 31
0.0
 11
182.9689825870145
 21
13.81626739612926
 31
0.0
 11
182.887261616877
 21
13.82145433189185
 31
0.0
 11
182.8004341885365
 21
13.82315538223861
 31
0.0
 11
182.7135395119339
 21
13.82145433189185
 31
0.0
 11
182.6318769706146
 21
13.81626739612926
 31
0.0
 11
182.6417328200379
 21
14.03132954885329
 31
0.0
 11
182.6507427258645
 21
14.2497519099098
 31
0.0
 11
182.6571833838798
 21
14.47163149318767
 31
0.0
 11
182.6593583588023
 21
14.69700357646468
 31
0.0
 11
182.6593583588023
 21
14.74082641595989
 31
0.0
 11
182.6593583588023
 21
14.85038351469793
 31
0.0
 11
182.6593583588023
 21
14.99280774305737
 31
0.0
 11
182.6593583588023
 21
15.13523197141681
 31
0.0
 11
182.6593583588023
 21
15.24478907015485
 31
0.0
 11
182.6593583588023
 21
15.28861190965006
 31
0.0
 11
182.6571833838798
 21
15.51347467001055
 31
0.0
 11
182.6507427258645
 21
15.73406440953872
 31
0.0
  0
SPLINE
  5
B9
102
{ACAD_REACTORS
330
D6
102
}
330
49
100
AcDbEntity
  8
_U_30EC_U_30A4_U_30E4_U_30FC_1
  6
Continuous
 62
     2
100
AcDbSpline
210
0.0
220
0.0
230
1.0
 70
    11
 71
     3
 72
   110
 73
   106
 74
   104
 42
0.000000001
 43
0.0000000001
 44
0.00000001
 40
0.0
 40
0.0
 40
0.0
 40
0.0
 40
0.2203406257277785
 40
0.4407808782838093
 40
0.5952494494615068
 40
0.7488431659393077
 40
0.902358183130849
 40
1.056801968670404
 40
1.210736449099905
 40
1.363041386539783
 40
1.515315729683069
 40
1.669377239148077
 40
1.72161165275656
 40
1.773199502942937
 40
1.824933793209979
 40
1.877110426487958
 40
1.982682281206722
 40
2.07878166708753
 40
2.172809640822252
 40
2.271937807378905
 40
2.378349933379326
 40
2.494131557736487
 40
2.626681683943592
 40
2.783145050796162
 40
2.890701232941012
 40
2.993130312454904
 40
3.09986973069189
 40
3.220237816691376
 40
3.352695482737667
 40
3.481732806389926
 40
3.593499473690456
 40
3.674323013331962
 40
3.817951711952855
 40
3.94616712079391
 40
4.061405053453567
 40
4.166480796003236
 40
4.262478775059273
 40
4.350736673551229
 40
4.433071991254116
 40
4.511216293814719
 40
4.564262454118041
 40
4.618474415571663
 40
4.670128488754268
 40
4.722296879126476
 40
4.819540945314346
 40
4.931194984128203
 40
5.049996040257845
 40
5.16864375541539
 40
5.283970811762602
 40
5.392260784910513
 40
5.486512254876559
 40
5.559178233949901
 40
5.591425852853579
 40
5.626215969637956
 40
5.667155838674507
 40
5.717449290214328
 40
5.738402360944938
 40
5.784499116553897
 40
5.830595872164863
 40
5.851548942897716
 40
5.873019280661828
 40
5.92421777840837
 40
5.985325662817746
 40
6.036524160567759
 40
6.057994498334286
 40
6.236847789607551
 40
6.381409928945731
 40
6.493190424178759
 40
6.574067534230582
 40
6.691018086205506
 40
6.814881554220395
 40
6.944307823240404
 40
7.071266716066084
 40
7.193488604461929
 40
7.309042773128156
 40
7.414007203170754
 40
7.505140441886424
 40
7.531150360599562
 40
7.559221645322129
 40
7.587202218920792
 40
7.612569159499024
 40
7.662550809480893
 40
7.702878875764021
 40
7.857328205230721
 40
8.010799568088451
 40
8.165256399657288
 40
8.32223269871374
 40
8.479564855016399
 40
8.635216230290546
 40
8.79088255092552
 40
8.948305154947029
 40
9.16827183903273
 40
9.38735898098699
 40
9.608047961033238
 40
9.832914234792456
 40
9.858338694962791
 40
9.925366817229797
 40
10.02013071422738
 40
10.12876249858976
 40
10.23739428295227
 40
10.33215817995168
 40
10.39918630222371
 40
10.4246107623976
 40
10.6499201933692
 40
10.87188524531164
 40
10.87188524531164
 40
10.87188524531164
 40
10.87188524531164
 10
179.9057788376618
 20
15.73923260398189
 30
0.0
 10
179.9092864933542
 20
15.80616462073803
 30
0.0
 10
179.9163033987663
 20
15.94005891915858
 30
0.0
 10
179.8198027599072
 20
16.22548554971468
 30
0.0
 10
180.0510134726108
 20
16.16284386190284
 30
0.0
 10
180.1919290057156
 20
16.17001554055988
 30
0.0
 10
180.3490417757588
 20
16.16235883078244
 30
0.0
 10
180.5025913427287
 20
16.16252752283038
 30
0.0
 10
180.6545104935081
 20
16.16182040535433
 30
0.0
 10
180.8142214813231
 20
16.17210158351637
 30
0.0
 10
180.9408972601117
 20
16.15496511080752
 30
0.0
 10
181.1370821122081
 20
16.22727260107147
 30
0.0
 10
181.1034395279078
 20
16.12640699080116
 30
0.0
 10
181.1052011317184
 20
16.07619253947671
 30
0.0
 10
181.1027342073458
 20
16.02712335586466
 30
0.0
 10
181.1347076966011
 20
15.94063490846999
 30
0.0
 10
181.0010399903256
 20
15.98997438608338
 30
0.0
 10
180.9172208688056
 20
15.98430634314167
 30
0.0
 10
180.8173861139324
 20
15.99465516706299
 30
0.0
 10
180.7186576720145
 20
16.00086450411087
 30
0.0
 10
180.612153277111
 20
16.00697763816776
 30
0.0
 10
180.491051169806
 20
16.01588883484585
 30
0.0
 10
180.3703381502453
 20
16.00521605912383
 30
0.0
 10
180.1812553843436
 20
16.06468503080371
 30
0.0
 10
180.2129028505311
 20
15.90558320077541
 30
0.0
 10
180.1995563316834
 20
15.80839128339904
 30
0.0
 10
180.197495842645
 20
15.69634065110104
 30
0.0
 10
180.195818804467
 20
15.57699685629352
 30
0.0
 10
180.1973336794232
 20
15.4503259215511
 30
0.0
 10
180.195658247867
 20
15.32301588016117
 30
0.0
 10
180.2058844271657
 20
15.22451566404464
 30
0.0
 10
180.1779006596582
 20
15.08388702625633
 30
0.0
 10
180.3508029999305
 20
15.13989551134096
 30
0.0
 10
180.464502020277
 20
15.12719951478496
 30
0.0
 10
180.584015167224
 20
15.13448377051256
 30
0.0
 10
180.6888491425071
 20
15.13878017056754
 30
0.0
 10
180.7843084898612
 20
15.14330568258977
 30
0.0
 10
180.8763823507032
 20
15.15149201146198
 30
0.0
 10
180.9476551782439
 20
15.14643850638111
 30
0.0
 10
181.0544931705685
 20
15.18536425031675
 30
0.0
 10
181.0226603598036
 20
15.1051712200588
 30
0.0
 10
181.0266164503929
 20
15.05562936846034
 30
0.0
 10
181.0234502392013
 20
15.00557478039819
 30
0.0
 10
181.0550791490585
 20
14.92128847612021
 30
0.0
 10
180.9210133677691
 20
14.97425365495158
 30
0.0
 10
180.82923227932
 20
14.96540080890442
 30
0.0
 10
180.7079729189603
 20
14.97570049965155
 30
0.0
 10
180.5914113119771
 20
14.977489117675
 30
0.0
 10
180.4783375745878
 20
14.97787017109694
 30
0.0
 10
180.367924630847
 20
14.98415449472179
 30
0.0
 10
180.289812406784
 20
14.97189133255364
 30
0.0
 10
180.1913625833644
 20
15.00453887616125
 30
0.0
 10
180.2012355173561
 20
14.94769748054206
 30
0.0
 10
180.1973923244402
 20
14.91392130557984
 30
0.0
 10
180.1966789884268
 20
14.8711960470941
 30
0.0
 10
180.1963369642975
 20
14.83401607262152
 30
0.0
 10
180.1963834255346
 20
14.7948723737077
 30
0.0
 10
180.1963649429926
 20
14.75716849497686
 30
0.0
 10
180.1963703431806
 20
14.71944955232403
 30
0.0
 10
180.19636972142
 20
14.6899432474515
 30
0.0
 10
180.1963698151545
 20
14.65873577699302
 30
0.0
 10
180.196370428792
 20
14.61414424908086
 30
0.0
 10
180.1963671499337
 20
14.55963956508853
 30
0.0
 10
180.196375962348
 20
14.51505540201449
 30
0.0
 10
180.1963359653417
 20
14.43117808585742
 30
0.0
 10
180.1976024270255
 20
14.31737520677679
 30
0.0
 10
180.1950274117842
 20
14.16830395933709
 30
0.0
 10
180.206500938172
 20
14.06597203813906
 30
0.0
 10
180.1823506222264
 20
13.93338903885838
 30
0.0
 10
180.3332993946476
 20
13.9789573227202
 30
0.0
 10
180.4428436671555
 20
13.96427012162348
 30
0.0
 10
180.5733970473919
 20
13.96920435125064
 30
0.0
 10
180.6990312209513
 20
13.97257705323359
 30
0.0
 10
180.8188730625601
 20
13.97711497498772
 30
0.0
 10
180.9391362611426
 20
13.99048536182004
 30
0.0
 10
181.0222761663514
 20
13.98068712782594
 30
0.0
 10
181.1456080421074
 20
14.04126214623317
 30
0.0
 10
181.1244269203955
 20
13.9853246013402
 30
0.0
 10
181.1235950270117
 20
13.95939249372346
 30
0.0
 10
181.1218963707557
 20
13.93197256190939
 30
0.0
 10
181.1217974888828
 20
13.89738195206385
 30
0.0
 10
181.1203659301329
 20
13.86050408220768
 30
0.0
 10
181.1532804192188
 20
13.76846841021807
 30
0.0
 10
180.9551306988107
 20
13.84132015974834
 30
0.0
 10
180.830054829489
 20
13.81825726508604
 30
0.0
 10
180.6673071295156
 20
13.82454021985785
 30
0.0
 10
180.5129366450001
 20
13.82260943909924
 30
0.0
 10
180.3566670436944
 20
13.82393762599267
 30
0.0
 10
180.1970544465281
 20
13.82059872487861
 30
0.0
 10
180.0540326342237
 20
13.83265795728241
 30
0.0
 10
179.8197144881628
 20
13.76952001976918
 30
0.0
 10
179.9173810751197
 20
14.05620527466317
 30
0.0
 10
179.9006868780059
 20
14.2498830814266
 30
0.0
 10
179.9146296709685
 20
14.47848242880295
 30
0.0
 10
179.9142987846632
 20
14.63384593955048
 30
0.0
 10
179.9143078119264
 20
14.73966336444127
 30
0.0
 10
179.9143055876317
 20
14.80205784124215
 30
0.0
 10
179.914306555189
 20
14.89220425248327
 30
0.0
 10
179.9143065473262
 20
14.99621167157438
 30
0.0
 10
179.9143053861104
 20
15.10022131375296
 30
0.0
 10
179.9143090971503
 20
15.19036243688768
 30
0.0
 10
179.9143011051052
 20
15.25276803097215
 30
0.0
 10
179.9143334275019
 20
15.35868835961119
 30
0.0
 10
179.9131440788319
 20
15.5162671654474
 30
0.0
 10
179.9082216489256
 20
15.66528219822065
 30
0.0
 10
179.9057788376618
 20
15.73923260398189
 30
0.0
 11
179.9057788376618
 21
15.73923260398189
 31
0.0
 11
179.8966918223741
 21
15.95938578101017
 31
0.0
 11
179.8868249573133
 21
16.17960510387178
 31
0.0
 11
180.04115751414
 21
16.17312391463728
 31
0.0
 11
180.1946500189046
 21
16.16754892331923
 31
0.0
 11
180.3481160653366
 21
16.1636716750563
 31
0.0
 11
180.5025544554939
 21
16.16238072887606
 31
0.0
 11
180.6564835227473
 21
16.1636716750563
 31
0.0
 11
180.80873910046
 21
16.16754892331923
 31
0.0
 11
180.9609113551073
 21
16.17312391463728
 31
0.0
 11
181.1148364762483
 21
16.17960510387178
 31
0.0
 11
181.1070811703123
 21
16.12794961777357
 31
0.0
 11
181.1044991623591
 21
16.07642642334204
 31
0.0
 11
181.1070811703123
 21
16.0247566056466
 31
0.0
 11
181.1148364762483
 21
15.97315954836785
 31
0.0
 11
181.0094874054411
 21
15.98001446156058
 31
0.0
 11
180.913637570006
 21
15.98693552058657
 31
0.0
 11
180.8198593171903
 21
15.99378381919599
 31
0.0
 11
180.7209679915881
 21
16.0006321178054
 31
0.0
 11
180.6147532199923
 21
16.00710999974824
 31
0.0
 11
180.4991060528038
 21
16.01268829835794
 31
0.0
 11
180.3666126447258
 21
16.01656554662087
 31
0.0
 11
180.2101546018422
 21
16.01785649280112
 31
0.0
 11
180.2062663293721
 21
15.91037061609187
 31
0.0
 11
180.20153800484
 21
15.80805072896465
 31
0.0
 11
180.1976607566749
 21
15.70138175329687
 31
0.0
 11
180.1963698105272
 21
15.58102059013251
 31
0.0
 11
180.1967799146836
 21
15.44856355891566
 31
0.0
 11
180.1980896021502
 21
15.31953288186455
 31
0.0
 11
180.1994074577049
 21
15.20777398432309
 31
0.0
 11
180.199819115366
 21
15.12695149302385
 31
0.0
 11
180.3434452935874
 21
15.1278025694125
 31
0.0
 11
180.4716343930758
 21
15.13039989580076
 31
0.0
 11
180.5868078221795
 21
15.13425509545254
 31
0.0
 11
180.691775631222
 21
15.13901649302076
 31
0.0
 11
180.7876346289421
 21
15.14418027774175
 31
0.0
 11
180.8757413374193
 21
15.14934406246266
 31
0.0
 11
180.9578881438496
 21
15.15491243919739
 31
0.0
 11
181.0357692335571
 21
15.16132086801525
 31
0.0
 11
181.0280180445186
 21
15.10884407115337
 31
0.0
 11
181.0254328449317
 21
15.05469378470858
 31
0.0
 11
181.0280180445186
 21
15.00310444444366
 31
0.0
 11
181.0357692335571
 21
14.95151510417881
 31
0.0
 11
180.9389813454014
 21
14.96092324653757
 31
0.0
 11
180.8275950722015
 21
14.96865128473013
 31
0.0
 11
180.7089261429373
 21
14.97425273438146
 31
0.0
 11
180.5903167449213
 21
14.9772678819501
 31
0.0
 11
180.4750025117521
 21
14.97898767361638
 31
0.0
 11
180.3667261950699
 21
14.98070746528256
 31
0.0
 11
180.2724839317708
 21
14.98202486979617
 31
0.0
 11
180.199819115366
 21
14.9824360763933
 31
0.0
 11
180.199407457705
 21
14.95019108508191
 31
0.0
 11
180.1980896021502
 21
14.91542593752118
 31
0.0
 11
180.1967799146836
 21
14.87450702260084
 31
0.0
 11
180.1963698105272
 21
14.8242152430995
 31
0.0
 11
180.1963698105272
 21
14.80326217235821
 31
0.0
 11
180.1963698105272
 21
14.75716541672736
 31
0.0
 11
180.1963698105272
 21
14.71106866109651
 31
0.0
 11
180.1963698105272
 21
14.69011559035522
 31
0.0
 11
180.1963698105272
 21
14.66864525258281
 31
0.0
 11
180.1963698105272
 21
14.61744675481785
 31
0.0
 11
180.1963698105272
 21
14.55633887038869
 31
0.0
 11
180.1963698105272
 21
14.50514037262372
 31
0.0
 11
180.1963698105272
 21
14.48367003485132
 31
0.0
 11
180.1967799146836
 21
14.30481721371548
 31
0.0
 11
180.1980896021502
 21
14.16026100715442
 31
0.0
 11
180.2002868589709
 21
14.04850210961289
 31
0.0
 11
180.2032586986986
 21
13.96767961831364
 31
0.0
 11
180.3202092517446
 21
13.96767961831364
 31
0.0
 11
180.4440727208745
 21
13.96767961831364
 31
0.0
 11
180.5734925526421
 21
13.9689705644939
 31
0.0
 11
180.7003922282244
 21
13.97284781275681
 31
0.0
 11
180.8224658067973
 21
13.97886708358864
 31
0.0
 11
180.9377587499463
 21
13.98663260442001
 31
0.0
 11
181.0421754573518
 21
13.99734161483402
 31
0.0
 11
181.1320599255447
 21
14.01237656274691
 31
0.0
 11
181.126425403119
 21
13.98698427976715
 31
0.0
 11
181.1234433285423
 21
13.95907184053803
 31
0.0
 11
181.1221339881199
 21
13.93112191867003
 31
0.0
 11
181.1217235369194
 21
13.90575829888471
 31
0.0
 11
181.1243087365064
 21
13.85584355063326
 31
0.0
 11
181.1320599255447
 21
13.81626739612926
 31
0.0
 11
180.9776977178344
 21
13.82145433189185
 31
0.0
 11
180.8242357818764
 21
13.82315538223861
 31
0.0
 11
180.6697789496483
 21
13.82315538223861
 31
0.0
 11
180.5128026496767
 21
13.82315538223861
 31
0.0
 11
180.3554704921536
 21
13.82315538223861
 31
0.0
 11
180.199819115366
 21
13.82315538223861
 31
0.0
 11
180.0441620874241
 21
13.82145433189185
 31
0.0
 11
179.8868249573133
 21
13.81626739612926
 31
0.0
 11
179.896691822374
 21
14.0360126738521
 31
0.0
 11
179.9057788376618
 21
14.2549112849085
 31
0.0
 11
179.9121721518401
 21
14.47550763902002
 31
0.0
 11
179.914306345501
 21
14.70036378479716
 31
0.0
 11
179.914306345501
 21
14.72578824496875
 31
0.0
 11
179.914306345501
 21
14.79281636723932
 31
0.0
 11
179.914306345501
 21
14.88758026424254
 31
0.0
 11
179.914306345501
 21
14.99621204861208
 31
0.0
 11
179.914306345501
 21
15.10484383298162
 31
0.0
 11
179.914306345501
 21
15.19960772998484
 31
0.0
 11
179.914306345501
 21
15.2666358522554
 31
0.0
 11
179.914306345501
 21
15.292060312427
 31
0.0
 11
179.9121721518401
 21
15.51735963528735
 31
0.0
 11
179.9057788376618
 21
15.73923260398189
 31
0.0
  0
SPLINE
  5
BA
102
{ACAD_REACTORS
330
D7
102
}
330
49
100
AcDbEntity
  8
_U_30EC_U_30A4_U_30E4_U_30FC_1
  6
Continuous
 62
     2
100
AcDbSpline
210
0.0
220
0.0
230
1.0
 70
    11
 71
     3
 72
    95
 73
    91
 74
    89
 42
0.000000001
 43
0.0000000001
 44
0.00000001
 40
0.0
 40
0.0
 40
0.0
 40
0.0
 40
0.655040665691112
 40
1.308087289031874
 40
1.420803739835745
 40
1.566130759770736
 40
1.757067341888415
 40
2.006513545026396
 40
2.087328263121496
 40
2.185328872295576
 40
2.294612454748327
 40
2.408936380534761
 40
2.526802767798511
 40
2.646360524615556
 40
2.762535723971525
 40
2.870057342870099
 40
2.966883448431602
 40
3.050803243518245
 40
3.115818222436554
 40
3.156030057150201
 40
3.213914225080132
 40
3.276689026450504
 40
3.34296032098131
 40
3.404230667150446
 40
3.453822809493259
 40
3.532499827188299
 40
3.634775188507053
 40
3.754909333008054
 40
3.889736761660544
 40
4.035769602175109
 40
4.187256681197488
 40
4.338733685675841
 40
4.488478734676003
 40
4.63470831783148
 40
4.771493189921156
 40
4.892686571561105
 40
5.199775528944333
 40
5.46035356692953
 40
5.667603142345397
 40
5.814722905404377
 40
5.828990806219675
 40
5.855488336304372
 40
5.869756237118704
 40
6.189796507762722
 40
6.531890469872946
 40
6.883053637016887
 40
7.230512024911302
 40
7.566966656764473
 40
7.885203559707231
 40
8.172887439719078
 40
8.418011594062651
 40
8.443926721190572
 40
8.510760470613057
 40
8.602145393795567
 40
8.701714041647005
 40
8.793098965075234
 40
8.859932715057806
 40
8.885847842603454
 40
9.242301256612674
 40
9.589275455016645
 40
9.921808543164046
 40
10.23479624298453
 40
10.29968150889164
 40
10.35323493887752
 40
10.40154625355136
 40
10.46482922477812
 40
10.55973900668391
 40
10.69239545985603
 40
10.84920353475657
 40
11.01626328594767
 40
11.1867202436743
 40
11.35372582577197
 40
11.50257442292413
 40
11.61866495023278
 40
11.71329869152861
 40
11.82511050573894
 40
11.94464880845702
 40
12.06929242642492
 40
12.19707290435162
 40
12.32562632860515
 40
12.45034565331265
 40
12.56646595170314
 40
12.67099007414621
 40
12.76077625936768
 40
12.8270323350668
 40
12.87429132785979
 40
12.89831990323318
 40
12.92234847860006
 40
13.53984767410305
 40
14.18294284359357
 40
14.18294284359357
 40
14.18294284359357
 40
14.18294284359357
 10
177.306793564802
 20
14.70898038201725
 30
0.0
 10
177.1752019758549
 20
14.82265058603232
 30
0.0
 10
176.9124193802728
 20
15.0496449631616
 30
0.0
 10
176.3997393441019
 20
15.89214462956286
 30
0.0
 10
176.4106654595363
 20
15.5342337757702
 30
0.0
 10
176.4041226527989
 20
15.39267392272133
 30
0.0
 10
176.4028026631773
 20
15.19421305299282
 30
0.0
 10
176.4018117602538
 20
15.02150296045983
 30
0.0
 10
176.4024101751974
 20
14.8786537325758
 30
0.0
 10
176.4038994301883
 20
14.78265005413357
 30
0.0
 10
176.4055683588472
 20
14.6754550326314
 30
0.0
 10
176.4071934954618
 20
14.56164211517581
 30
0.0
 10
176.4092429501686
 20
14.44441572604589
 30
0.0
 10
176.4123165501926
 20
14.3265641123297
 30
0.0
 10
176.4156339697043
 20
14.21228087320621
 30
0.0
 10
176.4193605340281
 20
14.10521401867277
 30
0.0
 10
176.4217338161423
 20
14.01007408766921
 30
0.0
 10
176.4278718888357
 20
13.92558557205695
 30
0.0
 10
176.4239784495946
 20
13.86923087298141
 30
0.0
 10
176.4455230443078
 20
13.79825022472354
 30
0.0
 10
176.3680940058617
 20
13.82902677604483
 30
0.0
 10
176.3116353240191
 20
13.82011242517612
 30
0.0
 10
176.2540495896807
 20
13.82896218398276
 30
0.0
 10
176.1690163478473
 20
13.79738225225946
 30
0.0
 10
176.2009714146382
 20
13.8809515599219
 30
0.0
 10
176.1990705282539
 20
13.94882608968309
 30
0.0
 10
176.2107960047299
 20
14.05233256764418
 30
0.0
 10
176.2164241053
 20
14.17002125616695
 30
0.0
 10
176.223790217894
 20
14.30388609164424
 30
0.0
 10
176.2320759701611
 20
14.44764152872632
 30
0.0
 10
176.2398851897425
 20
14.59714022843444
 30
0.0
 10
176.2457571222658
 20
14.74792549402078
 30
0.0
 10
176.2503667817967
 20
14.89699943878438
 30
0.0
 10
176.2542632117543
 20
15.04122913163023
 30
0.0
 10
176.2570715126564
 20
15.17583905213017
 30
0.0
 10
176.2576698755022
 20
15.36469614347355
 30
0.0
 10
176.261602386715
 20
15.58975494313155
 30
0.0
 10
176.2442175378499
 20
15.86367091125708
 30
0.0
 10
176.2850417342582
 20
16.02787112098597
 30
0.0
 10
176.1995153256003
 20
16.22749661465096
 30
0.0
 10
176.2660558907688
 20
16.22385458403978
 30
0.0
 10
176.283872427323
 20
16.22413447160854
 30
0.0
 10
176.4056801797506
 20
16.22632927398613
 30
0.0
 10
176.5080770335461
 20
15.94675118721514
 30
0.0
 10
176.7580021509357
 20
15.74563008536007
 30
0.0
 10
176.987003533111
 20
15.47792614987917
 30
0.0
 10
177.2245151213108
 20
15.2264641386237
 30
0.0
 10
177.4486090740772
 20
14.98969974061364
 30
0.0
 10
177.6750716283008
 20
14.73218692583075
 30
0.0
 10
177.8325687886514
 20
14.61649335056924
 30
0.0
 10
178.0472129612673
 20
14.27997152538791
 30
0.0
 10
178.0422645974619
 20
14.40464754091604
 30
0.0
 10
178.0433931602546
 20
14.46327691935736
 30
0.0
 10
178.0428877841517
 20
14.55043662371977
 30
0.0
 10
178.0430475158114
 20
14.64416143182872
 30
0.0
 10
178.0430054891317
 20
14.73018971297034
 30
0.0
 10
178.0430202040373
 20
14.79153891945494
 30
0.0
 10
178.0429706255983
 20
14.94135231520992
 30
0.0
 10
178.0458811522811
 20
15.17989612510104
 30
0.0
 10
178.025952104116
 20
15.54486509868701
 30
0.0
 10
178.0750433936246
 20
15.80799631993413
 30
0.0
 10
177.917795150918
 20
16.21928904947749
 30
0.0
 10
178.0762112872421
 20
16.16398282551748
 30
0.0
 10
178.1311680478629
 20
16.16199686500174
 30
0.0
 10
178.182788776674
 20
16.16264778248251
 30
0.0
 10
178.2713198965366
 20
16.20369527738244
 30
0.0
 10
178.2204898303168
 20
16.05696326622986
 30
0.0
 10
178.2313389930283
 20
15.95019971954433
 30
0.0
 10
178.2166036994847
 20
15.79085705414112
 30
0.0
 10
178.2099976446205
 20
15.62853061652874
 30
0.0
 10
178.2014961399913
 20
15.45992521892394
 30
0.0
 10
178.1943227202199
 20
15.29814814703541
 30
0.0
 10
178.1889063215389
 20
15.15422331457932
 30
0.0
 10
178.1871713967648
 20
15.03437493466924
 30
0.0
 10
178.1875440672319
 20
14.92686101590514
 30
0.0
 10
178.1873656126263
 20
14.81820024645585
 30
0.0
 10
178.1877010863139
 20
14.6995357016553
 30
0.0
 10
178.1890040622184
 20
14.57555163512741
 30
0.0
 10
178.1908887351575
 20
14.44858294171105
 30
0.0
 10
178.1925004454849
 20
14.32153861551032
 30
0.0
 10
178.194140313743
 20
14.19854884492178
 30
0.0
 10
178.1962570745751
 20
14.08300931383759
 30
0.0
 10
178.1963848422364
 20
13.98090903955837
 30
0.0
 10
178.2006514396554
 20
13.89009848838157
 30
0.0
 10
178.1908440085289
 20
13.83213621208787
 30
0.0
 10
178.2118474771689
 20
13.7651713013203
 30
0.0
 10
178.1725639739897
 20
13.77291153966689
 30
0.0
 10
177.9595307117744
 20
13.75755254145193
 30
0.0
 10
177.7636297943188
 20
14.31403058094474
 30
0.0
 10
177.4611197631543
 20
14.57556035348512
 30
0.0
 10
177.306793564802
 20
14.70898038201725
 30
0.0
 11
177.306793564802
 21
14.70898038201725
 31
0.0
 11
176.859552933851
 21
15.18757635411978
 31
0.0
 11
176.4124049070643
 21
15.6635264928897
 31
0.0
 11
176.4089664262494
 21
15.55086249986232
 31
0.0
 11
176.4055610183499
 21
15.40557538184311
 31
0.0
 11
176.4029636920274
 21
15.21465645827967
 31
0.0
 11
176.4021126156603
 21
14.96521170139758
 31
0.0
 11
176.4025239230289
 21
14.8843980295428
 31
0.0
 11
176.4038420329817
 21
14.78640628477561
 31
0.0
 11
176.4055192267718
 21
14.67713557299738
 31
0.0
 11
176.4072367127518
 21
14.56282454872039
 31
0.0
 11
176.4094007838772
 21
14.44497802965265
 31
0.0
 11
176.4124049070643
 21
14.32545802100199
 31
0.0
 11
176.4158359733138
 21
14.20933349846156
 31
0.0
 11
176.4192928929999
 21
14.1018674655023
 31
0.0
 11
176.4227085253087
 21
14.00510162351263
 31
0.0
 11
176.4261896983793
 21
13.92125406276972
 31
0.0
 11
176.4296006184313
 21
13.8563286200776
 31
0.0
 11
176.4330776843148
 21
13.81626739612926
 31
0.0
 11
176.3754263821571
 21
13.82145433189185
 31
0.0
 11
176.3126746318309
 21
13.82315538223861
 31
0.0
 11
176.2464251717156
 21
13.82145433189185
 31
0.0
 11
176.1853747739676
 21
13.81626739612926
 31
0.0
 11
176.1926772737813
 21
13.8653189412559
 31
0.0
 11
176.2008793569054
 21
13.94356725720854
 31
0.0
 11
176.2090098822348
 21
14.04551893253029
 31
0.0
 11
176.2163406441397
 21
14.16542920159753
 31
0.0
 11
176.2236358280421
 21
14.3000591234389
 31
0.0
 11
176.2318444255596
 21
14.44586107652745
 31
0.0
 11
176.2395504149465
 21
14.59715203135072
 31
0.0
 11
176.2455763002093
 21
14.74850913200734
 31
0.0
 11
176.2503046247415
 21
14.89817951391436
 31
0.0
 11
176.254192897212
 21
15.04435739582223
 31
0.0
 11
176.2567527408965
 21
15.18111831592696
 31
0.0
 11
176.2576324804574
 21
15.30230850686891
 31
0.0
 11
176.257192610677
 21
15.60939715262544
 31
0.0
 11
176.2559126888347
 21
15.86997204839366
 31
0.0
 11
176.2528658717893
 21
16.07719922716125
 31
0.0
 11
176.2473049112763
 21
16.22421385386062
 31
0.0
 11
176.2615728121469
 21
16.22421385386062
 31
0.0
 11
176.2880703423352
 21
16.22421385386062
 31
0.0
 11
176.3023382432058
 21
16.22421385386062
 31
0.0
 11
176.5194743650277
 21
15.98910179662774
 31
0.0
 11
176.751274412308
 21
15.73751281231563
 31
0.0
 11
176.9894816018839
 21
15.4794955554357
 31
0.0
 11
177.226007455752
 21
15.22497079855489
 31
0.0
 11
177.4555698717705
 21
14.97899759549137
 31
0.0
 11
177.6731797360102
 21
14.74678934034108
 31
0.0
 11
177.8713724913707
 21
14.538266805671
 31
0.0
 11
178.0430143099086
 21
14.36326697932589
 31
0.0
 11
178.0430143099086
 21
14.38918210687043
 31
0.0
 11
178.0430143099086
 21
14.45601585685371
 31
0.0
 11
178.0430143099086
 21
14.54740078030024
 31
0.0
 11
178.0430143099086
 21
14.64696942823453
 31
0.0
 11
178.0430143099086
 21
14.73835435168106
 31
0.0
 11
178.0430143099086
 21
14.80518810166434
 31
0.0
 11
178.0430143099086
 21
14.83110322920888
 31
0.0
 11
178.0417233637609
 21
15.18755430550867
 31
0.0
 11
178.0378461155957
 21
15.53450684014416
 31
0.0
 11
178.0296197790001
 21
15.86693815950552
 31
0.0
 11
178.0154535467228
 21
16.17960510387178
 31
0.0
 11
178.0790351249618
 21
16.16666367158334
 31
0.0
 11
178.1324170159611
 21
16.16238072887606
 31
0.0
 11
178.1805381084833
 21
16.16666367158334
 31
0.0
 11
178.2424836798197
 21
16.17960510387178
 31
0.0
 11
178.2351216487575
 21
16.084981284451
 31
0.0
 11
178.2269790968818
 21
15.95257496503965
 31
0.0
 11
178.2183705364004
 21
15.79600336785656
 31
0.0
 11
178.2097547223215
 21
15.62916593734269
 31
0.0
 11
178.2016187850288
 21
15.4589032550936
 31
0.0
 11
178.1942501393835
 21
15.292060312427
 31
0.0
 11
178.1891406931522
 21
15.14329943572809
 31
0.0
 11
178.1874503478904
 21
15.027221215271
 31
0.0
 11
178.1874503478904
 21
14.93258747397518
 31
0.0
 11
178.1874503478904
 21
14.82077565976707
 31
0.0
 11
178.1878461204496
 21
14.70123801222749
 31
0.0
 11
178.1890819450708
 21
14.5766005209392
 31
0.0
 11
178.1908392193317
 21
14.44883212687392
 31
0.0
 11
178.1925303477607
 21
14.32028982655879
 31
0.0
 11
178.1942876220214
 21
14.19558288214555
 31
0.0
 11
178.1959787504505
 21
14.07947489606349
 31
0.0
 11
178.1972884379172
 21
13.97495896727018
 31
0.0
 11
178.1976985420735
 21
13.88517371555653
 31
0.0
 11
178.1976985420735
 21
13.81891763918417
 31
0.0
 11
178.1976985420735
 21
13.77165864614042
 31
0.0
 11
178.1736699662976
 21
13.77165864614042
 31
0.0
 11
178.1496413905217
 21
13.77165864614042
 31
0.0
 11
177.7410729200423
 21
14.2346673526219
 31
0.0
 11
177.306793564802
 21
14.70898038201725
 31
0.0
  0
SPLINE
  5
BB
102
{ACAD_REACTORS
330
D8
102
}
330
49
100
AcDbEntity
  8
_U_30EC_U_30A4_U_30E4_U_30FC_1
  6
Continuous
 62
     2
100
AcDbSpline
210
0.0
220
0.0
230
1.0
 70
    11
 71
     3
 72
    25
 73
    21
 74
    19
 42
0.000000001
 43
0.0000000001
 44
0.00000001
 40
0.0
 40
0.0
 40
0.0
 40
0.0
 40
0.0911479969064821
 40
0.1858117896204662
 40
0.2804128399734491
 40
0.3715889190714511
 40
0.4679080494218709
 40
0.5642683809229232
 40
0.6605683222644707
 40
0.7569653015810254
 40
0.8561348172522754
 40
1.092615965104299
 40
1.374867658141889
 40
1.611348812011619
 40
1.710518328425268
 40
1.809403163726587
 40
2.045205463294096
 40
2.326646917622162
 40
2.562449217190631
 40
2.66133404383395
 40
2.66133404383395
 40
2.66133404383395
 40
2.66133404383395
 10
173.2683700567199
 20
14.88614538197291
 30
0.0
 10
173.2987525917922
 20
14.88598079714553
 30
0.0
 10
173.3606895889112
 20
14.88564528689922
 30
0.0
 10
173.4541356960329
 20
14.88269055452001
 30
0.0
 10
173.5475095236357
 20
14.8797775287715
 30
0.0
 10
173.6417760753476
 20
14.87894201643416
 30
0.0
 10
173.7354964790967
 20
14.87996644658046
 30
0.0
 10
173.8352040303205
 20
14.87916977470972
 30
0.0
 10
173.9188949546312
 20
14.88921410235218
 30
0.0
 10
174.0637996315045
 20
14.86234617674163
 30
0.0
 10
173.9396132444801
 20
15.03665530280048
 30
0.0
 10
173.8965867286282
 20
15.19651711006092
 30
0.0
 10
173.7808922142209
 20
15.45518458550216
 30
0.0
 10
173.7017565431256
 20
15.59231052861859
 30
0.0
 10
173.6431576621816
 20
15.80937033134078
 30
0.0
 10
173.5864803939438
 20
15.59266134213429
 30
0.0
 10
173.5052809900477
 20
15.45327012438236
 30
0.0
 10
173.4063701281488
 20
15.20406969370194
 30
0.0
 10
173.3253625094258
 20
15.01925830226072
 30
0.0
 10
173.2813683325838
 20
14.91650446856116
 30
0.0
 10
173.2683700567199
 20
14.88614538197291
 30
0.0
 11
173.2683700567199
 21
14.88614538197291
 31
0.0
 11
173.359513773782
 21
14.88526123266759
 31
0.0
 11
173.4541428297581
 21
14.882696979196
 31
0.0
 11
173.5487082179706
 21
14.88009965280777
 31
0.0
 11
173.6398803250196
 21
14.87924857641909
 31
0.0
 11
173.7361985777706
 21
14.8796597830162
 31
0.0
 11
173.8325499034376
 21
14.88097718752971
 31
0.0
 11
173.9288262638286
 21
14.88310818579312
 31
0.0
 11
174.0251753846343
 21
14.88614538197291
 31
0.0
 11
173.9854633323141
 21
14.97701642195019
 31
0.0
 11
173.8907653613968
 21
15.19370890189602
 31
0.0
 11
173.7777387509471
 21
15.45234186183136
 31
0.0
 11
173.6830407800297
 21
15.66903434177718
 31
0.0
 11
173.6433287277095
 21
15.75990538175446
 31
0.0
 11
173.6043330259266
 21
15.66903434177718
 31
0.0
 11
173.5113432755212
 21
15.45234186183136
 31
0.0
 11
173.4003555089082
 21
15.19370890189602
 31
0.0
 11
173.3073657585028
 21
14.97701642195019
 31
0.0
 11
173.2683700567199
 21
14.88614538197291
 31
0.0
  0
SPLINE
  5
BC
102
{ACAD_REACTORS
330
D8
102
}
330
49
100
AcDbEntity
  8
_U_30EC_U_30A4_U_30E4_U_30FC_1
  6
Continuous
 62
     2
100
AcDbSpline
210
0.0
220
0.0
230
1.0
 70
    11
 71
     3
 72
    57
 73
    53
 74
    51
 42
0.000000001
 43
0.0000000001
 44
0.00000001
 40
0.0
 40
0.0
 40
0.0
 40
0.0
 40
0.047163208280924
 40
0.0914861054632156
 40
0.1357762519702108
 40
0.1826527001609834
 40
0.2295203288572311
 40
0.2737751972220765
 40
0.3181310461543356
 40
0.3652607198398523
 40
0.4571007286314579
 40
0.5671851029165677
 40
0.6894623283868495
 40
0.8181758272546042
 40
0.9510087229274
 40
1.085852229674064
 40
1.218126164475321
 40
1.343545131142383
 40
1.4545372029568
 40
1.567187607530724
 40
1.680710966642456
 40
1.794226869736792
 40
1.900009184247591
 40
2.004085860447871
 40
2.108162674451759
 40
2.214000150155303
 40
2.49603857735213
 40
2.76235074547926
 40
2.997275353279401
 40
3.185110082137734
 40
3.246407890063933
 40
3.312607550212777
 40
3.378877742711651
 40
3.440140399651449
 40
4.100501696006479
 40
4.754913085563524
 40
5.411331693423938
 40
6.07789043256872
 40
6.110575292670999
 40
6.143260152775779
 40
6.367989363395169
 40
6.610525374951577
 40
6.863389136467314
 40
7.119380025547563
 40
7.376036605091098
 40
7.631164770966267
 40
7.876722425456439
 40
8.104953735855988
 40
8.312916685924316
 40
8.497730294941311
 40
8.651018984313877
 40
8.764738853624612
 40
8.764738853624612
 40
8.764738853624612
 40
8.764738853624612
 10
174.7922649500513
 20
13.81626739612926
 30
0.0
 10
174.7766616726931
 20
13.81826231079077
 30
0.0
 10
174.7463947960302
 20
13.82213201360299
 30
0.0
 10
174.7010994202252
 20
13.82341984967266
 30
0.0
 10
174.6559553129349
 20
13.82308683554049
 30
0.0
 10
174.60990171234
 20
13.82314658674223
 30
0.0
 10
174.5640496172096
 20
13.8232581365
 30
0.0
 10
174.5183711648165
 20
13.82277833456589
 30
0.0
 10
174.4750811541608
 20
13.82461109618722
 30
0.0
 10
174.4039947951514
 20
13.80049556814656
 30
0.0
 10
174.4057477261441
 20
13.92184693977254
 30
0.0
 10
174.3586196370569
 20
14.0072623975123
 30
0.0
 10
174.3191478251761
 20
14.12486929345136
 30
0.0
 10
174.2706635532646
 20
14.24232752540438
 30
0.0
 10
174.2201017402522
 20
14.3640593576151
 30
0.0
 10
174.1718634610477
 20
14.49075967862465
 30
0.0
 10
174.1135232947594
 20
14.59933687784952
 30
0.0
 10
174.0980892667261
 20
14.75620657134409
 30
0.0
 10
173.9566586330636
 20
14.72373446548323
 30
0.0
 10
173.8508397414903
 20
14.73512888682181
 30
0.0
 10
173.7358569725222
 20
14.73392591514614
 30
0.0
 10
173.6253142252141
 20
14.73506945347409
 30
0.0
 10
173.5176583522783
 20
14.73418350037526
 30
0.0
 10
173.4121322529243
 20
14.7341660239052
 30
0.0
 10
173.3109192682012
 20
14.72714032472415
 30
0.0
 10
173.1266804827754
 20
14.75135859859866
 30
0.0
 10
173.1157393685411
 20
14.44741691121885
 30
0.0
 10
173.008769163475
 20
14.22353177253397
 30
0.0
 10
172.9098148604347
 20
14.03895314292498
 30
0.0
 10
172.9225090524007
 20
13.79530204804204
 30
0.0
 10
172.8050091716397
 20
13.82508046753198
 30
0.0
 10
172.742205586831
 20
13.82258089509601
 30
0.0
 10
172.6785872093399
 20
13.82344075102805
 30
0.0
 10
172.3946014194075
 20
13.7809803994194
 30
0.0
 10
173.0251638499381
 20
14.50081952444789
 30
0.0
 10
173.1087645289071
 20
15.01276539435727
 30
0.0
 10
173.4929252789339
 20
15.53353743550045
 30
0.0
 10
173.4777208288565
 20
16.2351962625321
 30
0.0
 10
173.7239265722697
 20
16.22345633081257
 30
0.0
 10
173.8256346157561
 20
16.23225004452773
 30
0.0
 10
173.8249752035818
 20
15.98059650730346
 30
0.0
 10
173.9428317155828
 20
15.79818020733957
 30
0.0
 10
174.0315515260484
 20
15.55563740662868
 30
0.0
 10
174.1322292485257
 20
15.32340030530123
 30
0.0
 10
174.2311142712243
 20
15.08674644566917
 30
0.0
 10
174.3299676990667
 20
14.8546173917009
 30
0.0
 10
174.4256166390926
 20
14.6312222278879
 30
0.0
 10
174.5159904573271
 20
14.42272549049315
 30
0.0
 10
174.5989944568189
 20
14.2330844852932
 30
0.0
 10
174.6726088582799
 20
14.06663106068099
 30
0.0
 10
174.7342815895545
 20
13.92917699626098
 30
0.0
 10
174.7749458885604
 20
13.84999239430033
 30
0.0
 10
174.7922649500513
 20
13.81626739612926
 30
0.0
 11
174.7922649500513
 21
13.81626739612926
 31
0.0
 11
174.7453878317448
 21
13.82145433189185
 31
0.0
 11
174.7010975896125
 21
13.82315538223861
 31
0.0
 11
174.6568074431729
 21
13.82315538223861
 31
0.0
 11
174.609930994716
 21
13.82315538223861
 31
0.0
 11
174.5630633657034
 21
13.82315538223861
 31
0.0
 11
174.5188084970408
 21
13.82315538223861
 31
0.0
 11
174.4744852776853
 21
13.82145433189185
 31
0.0
 11
174.4276419021443
 21
13.81626739612926
 31
0.0
 11
174.3992532136325
 21
13.90360966173244
 31
0.0
 11
174.3622721815897
 21
14.0072965627482
 31
0.0
 11
174.3188386236701
 21
14.12159987001127
 31
0.0
 11
174.2711055866936
 21
14.24113531268969
 31
0.0
 11
174.2208160133237
 21
14.36408057307564
 31
0.0
 11
174.1696467003932
 21
14.48883822929446
 31
0.0
 11
174.1197531801326
 21
14.61134141502772
 31
0.0
 11
174.0733119111841
 21
14.72784517367916
 31
0.0
 11
173.9623611907589
 21
14.73087465284506
 31
0.0
 11
173.849730922509
 21
14.73300454867791
 31
0.0
 11
173.7362152069449
 21
14.7343219531914
 31
0.0
 11
173.62270004768
 21
14.73473315978853
 31
0.0
 11
173.5169185312816
 21
14.7343219531914
 31
0.0
 11
173.4128501919225
 21
14.73300454867791
 31
0.0
 11
173.3087951724045
 21
14.73087465284506
 31
0.0
 11
173.2030010615596
 21
14.72784517367916
 31
0.0
 11
173.0980914750139
 21
14.46604437513351
 31
0.0
 11
173.0034868690331
 21
14.21710232658461
 31
0.0
 11
172.9252231210298
 21
13.99559756969557
 31
0.0
 11
172.8693431224555
 21
13.81626739612926
 31
0.0
 11
172.8082651639442
 21
13.82145433189185
 31
0.0
 11
172.7420873618129
 21
13.82315538223861
 31
0.0
 11
172.6758390041282
 21
13.82145433189185
 31
0.0
 11
172.6147963233938
 21
13.81626739612926
 31
0.0
 11
172.889968495193
 21
14.41656508695142
 31
0.0
 11
173.158294573417
 21
15.01343642360774
 31
0.0
 11
173.4240277350405
 21
15.61366245644381
 31
0.0
 11
173.6914740737033
 21
16.22421385386062
 31
0.0
 11
173.7241589339806
 21
16.22421385386062
 31
0.0
 11
173.7568437942579
 21
16.22421385386062
 31
0.0
 11
173.8428300681057
 21
16.01658539037084
 31
0.0
 11
173.9357285813609
 21
15.79254614563516
 31
0.0
 11
174.0328714521463
 21
15.55908663180469
 31
0.0
 11
174.131793645803
 21
15.32298128464146
 31
0.0
 11
174.2315341249926
 21
15.08649780379784
 31
0.0
 11
174.3313071129352
 21
14.85168781253711
 31
0.0
 11
174.4280608257448
 21
14.62599492196849
 31
0.0
 11
174.5188084970408
 21
14.41658052097918
 31
0.0
 11
174.6022150834546
 21
14.22607611130461
 31
0.0
 11
174.6770293263377
 21
14.05708232662468
 31
0.0
 11
174.7410729186603
 21
13.91781337700668
 31
0.0
 11
174.7922649500513
 21
13.81626739612926
 31
0.0
  0
SPLINE
  5
BD
102
{ACAD_REACTORS
330
D9
102
}
330
49
100
AcDbEntity
  8
_U_30EC_U_30A4_U_30E4_U_30FC_1
  6
Continuous
 62
     2
100
AcDbSpline
210
0.0
220
0.0
230
1.0
 70
    11
 71
     3
 72
    99
 73
    95
 74
    93
 42
0.000000001
 43
0.0000000001
 44
0.00000001
 40
0.0
 40
0.0
 40
0.0
 40
0.0
 40
0.0796417172272938
 40
0.1621768542355654
 40
0.2486489160958263
 40
0.3404969668526
 40
0.4381912511166036
 40
0.5434463660246343
 40
0.6518115192847254
 40
0.7530190937887411
 40
0.8492196919725673
 40
0.9419290312998737
 40
1.034249663570092
 40
1.12907860062025
 40
1.226697027573283
 40
1.327220425421739
 40
1.47057213493806
 40
1.595489863371254
 40
1.719934125348462
 40
1.850576620127521
 40
1.98905962998734
 40
2.134139054226957
 40
2.280698007207245
 40
2.424529739039514
 40
2.565929576985876
 40
2.708239260773649
 40
2.861717887443737
 40
3.045168540347433
 40
3.183798301138674
 40
3.31481396145553
 40
3.442083470447385
 40
3.569912708373038
 40
3.702177512509393
 40
3.842307559659609
 40
3.992872223246013
 40
4.156750662218402
 40
4.310981861107566
 40
4.445859909322665
 40
4.572393936131635
 40
4.701656719782064
 40
4.768279086008545
 40
4.835960697898477
 40
4.912788918729427
 40
5.00628520848163
 40
5.026909478751707
 40
5.047533749021271
 40
5.101808031471366
 40
5.162325165538676
 40
5.226919745995969
 40
5.29423180659682
 40
5.364544852554948
 40
5.438319055468022
 40
5.517877651324355
 40
5.607647714861667
 40
5.700449642544513
 40
5.788251142364244
 40
5.872714706039882
 40
5.955167292575462
 40
6.037192395190501
 40
6.120669181469236
 40
6.206848616686458
 40
6.296680855416875
 40
6.442558392872687
 40
6.568190371608362
 40
6.692904567360422
 40
6.824220446557224
 40
6.963121850329411
 40
7.107843738851168
 40
7.253431663907336
 40
7.395187468036787
 40
7.53314075323777
 40
7.670550457175305
 40
7.816236511769334
 40
7.987691657359306
 40
8.142277421969322
 40
8.293662615415087
 40
8.442962460879352
 40
8.591598316185395
 40
8.743678992361874
 40
8.903725323699254
 40
9.076307008890629
 40
9.265578604680655
 40
9.45920379536083
 40
9.617619810273698
 40
9.753609671362003
 40
9.874873300004158
 40
9.95452018497785
 40
10.02416413719252
 40
10.09769764405452
 40
10.18909955924979
 40
10.20974586420147
 40
10.23039218263395
 40
10.30057101881276
 40
10.37632012987553
 40
10.37632012987553
 40
10.37632012987553
 40
10.37632012987553
 10
170.146595483585
 20
14.13795663215993
 30
0.0
 10
170.1632217851219
 20
14.11720608845314
 30
0.0
 10
170.1970784206576
 20
14.07495111711908
 30
0.0
 10
170.2599822541035
 20
14.02029811392064
 30
0.0
 10
170.3332500940393
 20
13.97299025121052
 30
0.0
 10
170.4175969238636
 20
13.93527231437936
 30
0.0
 10
170.5132240615461
 20
13.9104061973195
 30
0.0
 10
170.6171853775346
 20
13.90309559345935
 30
0.0
 10
170.7224020220405
 20
13.91142322794055
 30
0.0
 10
170.8206626371333
 20
13.94149179651529
 30
0.0
 10
170.9058986427548
 20
13.98848822971876
 30
0.0
 10
170.9779220206102
 20
14.04952991250859
 30
0.0
 10
171.0350917709096
 20
14.12412969578584
 30
0.0
 10
171.0767868747439
 20
14.21002464660175
 30
0.0
 10
171.1026952846292
 20
14.30485850432211
 30
0.0
 10
171.1118037332653
 20
14.41854979038366
 30
0.0
 10
171.0986864796487
 20
14.54332587770778
 30
0.0
 10
171.0325330334413
 20
14.66014719171892
 30
0.0
 10
170.9369370919568
 20
14.74512539577375
 30
0.0
 10
170.8249681022368
 20
14.81416684459155
 30
0.0
 10
170.6993659583269
 20
14.87204142045894
 30
0.0
 10
170.5656691620857
 20
14.9237372328434
 30
0.0
 10
170.431312281883
 20
14.97899092397181
 30
0.0
 10
170.3051983986877
 20
15.04939770641649
 30
0.0
 10
170.1926579987534
 20
15.13785540731252
 30
0.0
 10
170.0969963064456
 20
15.24981067868466
 30
0.0
 10
170.0334157151826
 20
15.39949910101386
 30
0.0
 10
170.0200706505015
 20
15.55932794385141
 30
0.0
 10
170.0320510987449
 20
15.71048405306844
 30
0.0
 10
170.071229892884
 20
15.83809244591538
 30
0.0
 10
170.1354987750911
 20
15.95080874030845
 30
0.0
 10
170.223820499974
 20
16.04648609268684
 30
0.0
 10
170.3338091207627
 20
16.12354214985757
 30
0.0
 10
170.4632284401264
 20
16.18151396936275
 30
0.0
 10
170.6111838967793
 20
16.21739177588823
 30
0.0
 10
170.7682069455486
 20
16.22746719050564
 30
0.0
 10
170.917494046643
 20
16.21863637762589
 30
0.0
 10
171.0596253614169
 20
16.19074899340355
 30
0.0
 10
171.1595922609625
 20
16.13413314701137
 30
0.0
 10
171.3125074736186
 20
16.08674602105507
 30
0.0
 10
171.2455131717168
 20
16.00197553001184
 30
0.0
 10
171.2296479120269
 20
15.93438901873484
 30
0.0
 10
171.1978750531295
 20
15.86926092793191
 30
0.0
 10
171.2150202209572
 20
15.76723453256952
 30
0.0
 10
171.1666427208231
 20
15.774932116819
 30
0.0
 10
171.1315789440766
 20
15.76806771724806
 30
0.0
 10
171.1296697985718
 20
15.83263831158196
 30
0.0
 10
171.0985692931988
 20
15.87825639621393
 30
0.0
 10
171.0664551628456
 20
15.93561036628456
 30
0.0
 10
171.0208038475168
 20
15.98540462692559
 30
0.0
 10
170.9658508218387
 20
16.02994813718997
 30
0.0
 10
170.9010841173007
 20
16.0676398883655
 30
0.0
 10
170.8232377310596
 20
16.09283375791352
 30
0.0
 10
170.7355160553352
 20
16.0993123099811
 30
0.0
 10
170.6452903277806
 20
16.09235709285607
 30
0.0
 10
170.5594594694064
 20
16.06909190460923
 30
0.0
 10
170.4828343638597
 20
16.03131644107541
 30
0.0
 10
170.4165265636199
 20
15.98051641089579
 30
0.0
 10
170.3622560536964
 20
15.91731143407206
 30
0.0
 10
170.3224925345459
 20
15.84276455710367
 30
0.0
 10
170.2976775510588
 20
15.75917313997762
 30
0.0
 10
170.2892124262872
 20
15.65192948382286
 30
0.0
 10
170.3019697987103
 20
15.52965457267559
 30
0.0
 10
170.3681548409273
 20
15.41149724291212
 30
0.0
 10
170.4640977399832
 20
15.32606325709526
 30
0.0
 10
170.5757914963182
 20
15.25583362306724
 30
0.0
 10
170.7010863668702
 20
15.19659162305302
 30
0.0
 10
170.8349823941446
 20
15.14616708086131
 30
0.0
 10
170.9689930333149
 20
15.09322516984382
 30
0.0
 10
171.0950885316914
 20
15.02750170625178
 30
0.0
 10
171.2076216638416
 20
14.94480352537315
 30
0.0
 10
171.3031370284233
 20
14.83996006310078
 30
0.0
 10
171.3672706486962
 20
14.69937117251569
 30
0.0
 10
171.3811103725279
 20
14.54065409451592
 30
0.0
 10
171.367395471223
 20
14.38153155217875
 30
0.0
 10
171.3244739153985
 20
14.23483828819211
 30
0.0
 10
171.2545906329066
 20
14.10119796587142
 30
0.0
 10
171.1574592213829
 20
13.98532387699292
 30
0.0
 10
171.0347806023657
 20
13.89089981770087
 30
0.0
 10
170.8874408413168
 20
13.82179270651982
 30
0.0
 10
170.7177132497124
 20
13.77953210858854
 30
0.0
 10
170.5317404979597
 20
13.76781736230408
 30
0.0
 10
170.3528955926182
 20
13.77809486683439
 30
0.0
 10
170.1881733753743
 20
13.81966573769152
 30
0.0
 10
170.0834410841056
 20
13.88797642883941
 30
0.0
 10
169.9350960790365
 20
13.93675219032108
 30
0.0
 10
169.9980378194729
 20
14.02976591290842
 30
0.0
 10
170.0072274430059
 20
14.1029653624828
 30
0.0
 10
170.0303711301232
 20
14.16936294501346
 30
0.0
 10
170.0034588335317
 20
14.26974809527582
 30
0.0
 10
170.052133895634
 20
14.26234033517378
 30
0.0
 10
170.0916530580697
 20
14.26894063620896
 30
0.0
 10
170.0996204944702
 20
14.19078703218932
 30
0.0
 10
170.1305436967922
 20
14.15600927375856
 30
0.0
 10
170.146595483585
 20
14.13795663215993
 30
0.0
 11
170.146595483585
 21
14.13795663215993
 31
0.0
 11
170.1982038075864
 21
14.07729869814736
 31
0.0
 11
170.2601105501334
 21
14.0227129516332
 31
0.0
 11
170.3327764009802
 21
13.97583980928383
 31
0.0
 11
170.4166468655844
 21
13.93839906276537
 31
0.0
 11
170.511221073241
 21
13.91390636311877
 31
0.0
 11
170.6161603327166
 21
13.90575829888471
 31
0.0
 11
170.7240739497551
 21
13.91564048638222
 31
0.0
 11
170.8208419941616
 21
13.94528704887483
 31
0.0
 11
170.9050776083319
 21
13.99175118948819
 31
0.0
 11
170.9756144207686
 21
14.05191413218151
 31
0.0
 11
171.031944210998
 21
14.1250581946632
 31
0.0
 11
171.0736690016003
 21
14.21021434047523
 31
0.0
 11
171.0994680808032
 21
14.30436190989612
 31
0.0
 11
171.1080824729446
 21
14.40451552098219
 31
0.0
 11
171.0878517703357
 21
14.54643250879397
 31
0.0
 11
171.0272522666731
 21
14.65566684036386
 31
0.0
 11
170.9364971286285
 21
14.74081306430094
 31
0.0
 11
170.8260101884739
 21
14.81052746532515
 31
0.0
 11
170.7008523531254
 21
14.86979854169923
 31
0.0
 11
170.5662951950998
 21
14.9240425347412
 31
0.0
 11
170.4316884277007
 21
14.98201274306004
 31
0.0
 11
170.3065802017258
 21
15.05297399304232
 31
0.0
 11
170.196027609828
 21
15.14113315968693
 31
0.0
 11
170.1053381235264
 21
15.25080295132617
 31
0.0
 11
170.0447055469484
 21
15.39179720476315
 31
0.0
 11
170.0245079172553
 21
15.57413260402313
 31
0.0
 11
170.0374030471347
 21
15.71216131926641
 31
0.0
 11
170.0761016659391
 21
15.83733128451289
 31
0.0
 11
170.1393141731506
 21
15.94779262129084
 31
0.0
 11
170.2257499954545
 21
16.04196885390621
 31
0.0
 11
170.3336492808962
 21
16.11846540770651
 31
0.0
 11
170.4613526283328
 21
16.17615670109487
 31
0.0
 11
170.6075393259923
 21
16.21220066809973
 31
0.0
 11
170.770976856545
 21
16.22421385386062
 31
0.0
 11
170.9248918431289
 21
16.21434269066864
 31
0.0
 11
171.0564887242607
 21
16.18477329831498
 31
0.0
 11
171.1725636344939
 21
16.13439993895252
 31
0.0
 11
171.2800792741122
 21
16.06264163167876
 31
0.0
 11
171.2516994050444
 21
16.00236624106886
 31
0.0
 11
171.2284855254283
 21
15.93879017337648
 31
0.0
 11
171.20783810408
 21
15.86478841992269
 31
0.0
 11
171.1871840681487
 21
15.77360197897326
 31
0.0
 11
171.1665597978415
 21
15.77360197897326
 31
0.0
 11
171.1459355275343
 21
15.77360197897326
 31
0.0
 11
171.125670649579
 21
15.82395108486347
 31
0.0
 11
171.099465875942
 21
15.87850045116929
 31
0.0
 11
171.0650468924451
 21
15.93316116296115
 31
0.0
 11
171.0203554612937
 21
15.98349593725411
 31
0.0
 11
170.9657333359511
 21
16.02777175321529
 31
0.0
 11
170.9016722004326
 21
16.06436142334502
 31
0.0
 11
170.825968296114
 21
16.08882545979727
 31
0.0
 11
170.7365722046449
 21
16.09701100667022
 31
0.0
 11
170.6440937174207
 21
16.08926973931102
 31
0.0
 11
170.5594072091645
 21
16.06609003445567
 31
0.0
 11
170.483702448884
 21
16.02863495634008
 31
0.0
 11
170.4183754766515
 21
15.97832774281102
 31
0.0
 11
170.3650487887664
 21
15.91600293379879
 31
0.0
 11
170.3254809233901
 21
15.84249947895606
 31
0.0
 11
170.3009523754711
 21
15.75988443557391
 31
0.0
 11
170.2927954104109
 21
15.67042329844352
 31
0.0
 11
170.3130095765618
 21
15.52595308146574
 31
0.0
 11
170.373625616682
 21
15.41591177072937
 31
0.0
 11
170.4643479320758
 21
15.33033670130632
 31
0.0
 11
170.5748676948813
 21
15.25941954854625
 31
0.0
 11
170.7000089937719
 21
15.19914305550579
 31
0.0
 11
170.8345826882552
 21
15.14590447913022
 31
0.0
 11
170.9691729191967
 21
15.09039489581074
 31
0.0
 11
171.0942976816297
 21
15.02377281249409
 31
0.0
 11
171.204800907977
 21
14.94118863716749
 31
0.0
 11
171.2955397598288
 21
14.83800003476273
 31
0.0
 11
171.3561557999489
 21
14.70552315979584
 31
0.0
 11
171.3763699660998
 21
14.53526378483838
 31
0.0
 11
171.3621839747998
 21
14.38133030397413
 31
0.0
 11
171.3196087009193
 21
14.23605531269098
 31
0.0
 11
171.2499752884265
 21
14.10398854189068
 31
0.0
 11
171.1544992078713
 21
13.99007218775248
 31
0.0
 11
171.0341060772624
 21
13.89715272597017
 31
0.0
 11
170.8896160201846
 21
13.82832357668181
 31
0.0
 11
170.7223519532713
 21
13.78581275203968
 31
0.0
 11
170.5336103348226
 21
13.77165864614042
 31
0.0
 11
170.3405031726387
 21
13.78581275203968
 31
0.0
 11
170.187897590091
 21
13.82832357668181
 31
0.0
 11
170.0661897942203
 21
13.8889903301389
 31
0.0
 11
169.9660261826363
 21
13.95734322942738
 31
0.0
 11
169.9922320587039
 21
14.03255545163076
 31
0.0
 11
170.0090121537618
 21
14.10014767383612
 31
0.0
 11
170.0206196447852
 21
14.17275926235961
 31
0.0
 11
170.0313606254139
 21
14.26352788212859
 31
0.0
 11
170.0520069443316
 21
14.26352788212859
 31
0.0
 11
170.0726532632493
 21
14.26352788212859
 31
0.0
 11
170.1048916391629
 21
14.20119204881084
 31
0.0
 11
170.146595483585
 21
14.13795663215993
 31
0.0
  0
LWPOLYLINE
  5
BE
102
{ACAD_REACTORS
330
CB
102
}
330
49
100
AcDbEntity
  8
_U_30EC_U_30A4_U_30E4_U_30FC_1
  6
Continuous
 62
     2
100
AcDbPolyline
 90
        5
 70
     1
 43
0.0
 10
192.4578138032672
 20
15.39722336795626
 10
192.4578138032672
 20
15.22875434022058
 10
191.1602971697031
 20
15.22875434022058
 10
191.1602971697031
 20
15.39722336795626
 10
192.4578138032672
 20
15.39722336795626
  0
MTEXT
  5
C0
330
49
100
AcDbEntity
  8
1
 62
     2
100
AcDbMText
 10
32.5
 20
282.0000000000002
 30
0.0
 40
5.0
 41
0.0
 71
     5
 72
     1
  1
図番
  7
CONVERTER_11
 73
     1
 44
0.45454545454545
  0
MTEXT
  5
C1
330
49
100
AcDbEntity
  8
1
 62
     2
100
AcDbMText
 10
29.0
 20
34.0
 30
0.0
 40
3.5
 41
0.0
 71
     5
 72
     1
  1
備考
  7
CONVERTER_11
 73
     1
 44
0.45454545454545
  0
MTEXT
  5
C2
330
49
100
AcDbEntity
  8
1
 62
     2
100
AcDbMText
 10
29.0
 20
22.75
 30
0.0
 40
3.5
 41
0.0
 71
     5
 72
     1
  1
品名
  7
CONVERTER_11
 73
     1
 44
0.72727272727273
  0
MTEXT
  5
C3
330
49
100
AcDbEntity
  8
1
 62
     2
100
AcDbMText
 10
29.0
 20
14.25
 30
0.0
 40
3.5
 41
0.0
 71
     5
 72
     1
  1
品番
  7
CONVERTER_11
 73
     1
 44
0.72727272727273
  0
MTEXT
  5
C4
330
49
100
AcDbEntity
  8
1
 62
     2
100
AcDbMText
 10
101.4999999999999
 20
25.0
 30
0.0
 40
3.0
 41
0.0
 71
     5
 72
     1
  1
承認
  7
CONVERTER_11
 73
     1
 44
0.59090909090909
  0
MTEXT
  5
C5
330
49
100
AcDbEntity
  8
1
 62
     2
100
AcDbMText
 10
174.9999999999999
 20
23.5
 30
0.0
 40
3.5
 41
0.0
 71
     5
 72
     1
  1
第三角法
  7
CONVERTER_11
 73
     1
 44
0.54545454545455
  0
MTEXT
  5
C6
330
49
100
AcDbEntity
  8
1
 62
     2
100
AcDbMText
 10
118.4999999999999
 20
25.0
 30
0.0
 40
3.0
 41
0.0
 71
     5
 72
     1
  1
検図
  7
CONVERTER_11
 73
     1
 44
0.59090909090909
  0
MTEXT
  5
C7
330
49
100
AcDbEntity
  8
1
 62
     2
100
AcDbMText
 10
152.4999999999999
 20
25.0
 30
0.0
 40
3.0
 41
0.0
 71
     5
 72
     1
  1
設計
  7
CONVERTER_11
 73
     1
 44
0.59090909090909
  0
MTEXT
  5
C8
330
49
100
AcDbEntity
  8
1
 62
     2
100
AcDbMText
 10
135.4999999999999
 20
25.0
 30
0.0
 40
3.0
 41
0.0
 71
     5
 72
     1
  1
製図
  7
CONVERTER_11
 73
     1
 44
0.59090909090909
  0
MTEXT
  5
C9
330
49
100
AcDbEntity
  8
1
 62
     2
100
AcDbMText
 10
89.49999999999997
 20
24.0
 30
0.0
 40
3.5
 41
0.0
 71
     5
 72
     1
  1
尺度
  7
CONVERTER_11
 73
     1
 44
0.54545454545455
  0
MTEXT
  5
CA
330
49
100
AcDbEntity
  8
1
 62
   250
100
AcDbMText
 10
25.0
 20
5.0
 30
0.0
 40
3.5
 41
0.0
 71
     4
 72
     1
  1
備考欄の文字列 原点位置=4
  7
CONVERTER_11
 73
     1
 44
0.54545454545455
  0
HATCH
  5
CB
330
49
100
AcDbEntity
  8
1
  6
Continuous
 62
     2
100
AcDbHatch
 10
0.0
 20
0.0
 30
0.0
210
0.0
220
0.0
230
1.0
  2
CUSTOM0
 70
     0
 71
     1
 91
        1
 92
        1
 93
        4
 72
     1
 10
192.4578138032672
 20
15.39722336795626
 11
192.4578138032672
 21
15.22875434022058
 72
     1
 10
192.4578138032672
 20
15.22875434022058
 11
191.1602971697031
 21
15.22875434022058
 72
     1
 10
191.1602971697031
 20
15.22875434022058
 11
191.1602971697031
 21
15.39722336795626
 72
     1
 10
191.1602971697031
 20
15.39722336795626
 11
192.4578138032672
 21
15.39722336795626
 97
        1
330
BE
 75
     1
 76
     2
 52
45.0
 41
0.1
 77
     0
 78
     1
 53
45.0
 43
0.0
 44
0.0
 45
-0.282842712474619
 46
0.0
 79
     0
 98
        1
 10
0.0
 20
0.0
  0
HATCH
  5
CC
330
49
100
AcDbEntity
  8
1
  6
Continuous
 62
     2
100
AcDbHatch
 10
0.0
 20
0.0
 30
0.0
210
0.0
220
0.0
230
1.0
  2
CUSTOM1
 70
     0
 71
     1
 91
        1
 92
        1
 93
        3
 72
     4
 94
        3
 73
     0
 74
     0
 95
       24
 96
       20
 40
0.0
 40
0.0
 40
0.0
 40
0.0
 40
0.2211075008753987
 40
0.4273218586245354
 40
0.5080174679239279
 40
0.5914835907870152
 40
0.8143265690192731
 40
1.054651302686589
 40
1.295452694023176
 40
1.518109231328829
 40
1.540864321905445
 40
1.59512646062265
 40
1.659890947895936
 40
1.714153085187267
 40
1.736908174961567
 40
1.7649511007352
 40
1.801562291220762
 40
1.953914424543454
 40
2.126104167379516
 40
2.126104167379516
 40
2.126104167379516
 40
2.126104167379516
 10
185.9375369556889
 20
15.58989295113017
 10
185.9112579081812
 20
15.53097628234375
 10
185.8604698894425
 20
15.41711139679257
 10
185.8131784839111
 20
15.14441958233118
 10
185.7043482802618
 20
15.24445482575453
 10
185.5514800279637
 20
15.27118593367329
 10
185.7686155181199
 20
15.48518135017632
 10
185.7838483674381
 20
15.70332117782487
 10
185.8906889492001
 20
15.88451579066425
 10
185.8305380947077
 20
16.16913226311403
 10
185.9334317395401
 20
16.14114089222451
 10
185.9779933468149
 20
16.13243251602299
 10
186.0380842395396
 20
16.12139654183355
 10
186.0756619587437
 20
16.10767523055559
 10
186.1252466928604
 20
16.10756076160224
 10
186.0930158919325
 20
16.07306592398622
 10
186.017180222188
 20
16.08404104537965
 10
186.0429447159693
 20
15.8985896958245
 10
186.0055896763849
 20
15.80702313549589
 10
185.9857704961609
 20
15.75844135397705
 72
     4
 94
        3
 73
     0
 74
     0
 95
       70
 96
       66
 40
0.0
 40
0.0
 40
0.0
 40
0.0
 40
0.0241731073021472
 40
0.0846058988987013
 40
0.1631685280353284
 40
0.2417311571789756
 40
0.3021639488292751
 40
0.3263370654895541
 40
0.3533118254248881
 40
0.4228783438922111
 40
0.5179999095313402
 40
0.6216398239466102
 40
0.7167613891499706
 40
0.7863279069649863
 40
0.8133026791761836
 40
0.8372943998771674
 40
0.8945054261372869
 40
0.9627895541962639
 40
1.020000580349074
 40
1.043992300975172
 40
1.071934345522902
 40
1.113121768772912
 40
1.145225199332236
 40
1.225483775412775
 40
1.329819923771487
 40
1.434156071994376
 40
1.514414647795801
 40
1.546518078208409
 40
1.578974764260183
 40
1.662678849314178
 40
1.777131373668398
 40
1.901833377474789
 40
2.016285900500579
 40
2.099989982527946
 40
2.132446666570305
 40
2.158782354486027
 40
2.216720867907817
 40
2.27465938133424
 40
2.300995069256174
 40
2.333451754066147
 40
2.417155836543827
 40
2.531608358985267
 40
2.656310362283762
 40
2.770762886388894
 40
2.854466971340059
 40
2.886923657363866
 40
2.9135979768333
 40
2.982389642875102
 40
3.076451716946965
 40
3.178937260458577
 40
3.272999334739978
 40
3.341791001059198
 40
3.36846532066351
 40
3.396976080738732
 40
3.472140811845968
 40
3.578408190308657
 40
3.700226892456094
 40
3.822045594634311
 40
3.928312973256418
 40
4.003477705314815
 40
4.03198845686688
 40
4.058324144797679
 40
4.11626265823684
 40
4.17420117140064
 40
4.200536849608572
 40
4.200536849608572
 40
4.200536849608572
 40
4.200536849608572
 10
185.9857704961609
 20
15.75844135397705
 10
185.9938259544679
 20
15.75844359811686
 10
186.0220200663241
 20
15.75845146032798
 10
186.0765534803672
 20
15.75830754828372
 10
186.1482891808604
 20
15.75909120499898
 10
186.2236240137062
 20
15.75627570463811
 10
186.2713052366438
 20
15.76298403400957
 10
186.3195071245616
 20
15.75197563692433
 10
186.3062571799873
 20
15.80546402997033
 10
186.3151093964539
 20
15.86049583543092
 10
186.3108698036285
 20
15.95419908726109
 10
186.313348348128
 20
16.04959482218532
 10
186.309093870606
 20
16.14356821983387
 10
186.3179818665846
 20
16.19795062438012
 10
186.3046977409945
 20
16.25233997691461
 10
186.3514119277109
 20
16.23842216335358
 10
186.3943254545736
 20
16.24103877374043
 10
186.4605443456685
 20
16.23648422450755
 10
186.5013342271798
 20
16.22778162134162
 10
186.5525145690819
 20
16.23531799890195
 10
186.52537204872
 20
16.19349970223285
 10
186.4803096055707
 20
16.20284992072597
 10
186.4942065045051
 20
16.13841207371838
 10
186.4858414431654
 20
16.073782196274
 10
186.4903632178399
 20
15.97529141193888
 10
186.4854741311167
 20
15.87595932842571
 10
186.4950258992081
 20
15.81293115552969
 10
186.4799761455201
 20
15.74964011499789
 10
186.5449159457208
 20
15.76515072944269
 10
186.6116246399496
 20
15.75499387697812
 10
186.7241435470828
 20
15.75988800099367
 10
186.8390235448953
 20
15.75691204732783
 10
186.9519871999747
 20
15.76221664184991
 10
187.0176267597677
 20
15.75107306472089
 10
187.0816276691053
 20
15.76744532319857
 10
187.0703142889189
 20
15.71761689905274
 10
187.077533987151
 20
15.67416715212123
 10
187.0703142611268
 20
15.63071745587445
 10
187.0816277175994
 20
15.58088895196876
 10
187.0176263598971
 20
15.59726166091362
 10
186.951992124046
 20
15.58611271661588
 10
186.838997431733
 20
15.59144857206854
 10
186.7242456548644
 20
15.58834345663822
 10
186.611318368686
 20
15.59364894682588
 10
186.5455220903585
 20
15.58257300019594
 10
186.4816097975358
 20
15.59887597847617
 10
186.4936015165126
 20
15.54423524395742
 10
186.4862104613006
 20
15.48854295047842
 10
186.4892684841982
 20
15.3964968914057
 10
186.4893422785683
 20
15.30179109873102
 10
186.4860313578359
 20
15.20952782902266
 10
186.4939505989903
 20
15.1543576873614
 10
186.4815076611617
 20
15.10058169100137
 10
186.5389116551632
 20
15.11453768862782
 10
186.5994708140382
 20
15.10511457884227
 10
186.7048680855081
 20
15.10942885928705
 10
186.8204294070622
 20
15.10835504612032
 10
186.9359688877797
 20
15.10725965900995
 10
187.0414181130841
 20
15.11162525770633
 10
187.1018680471804
 20
15.10209426030672
 10
187.159283773911
 20
15.1161728960638
 10
187.1477773876709
 20
15.06707153265684
 10
187.153756678175
 20
15.0256465801865
 10
187.1520311050801
 20
14.97651677966696
 10
187.1521500122971
 20
14.94854428447609
 10
187.1521871691833
 20
14.93980288195951
 72
     4
 94
        3
 73
     0
 74
     0
 95
       62
 96
       58
 40
0.0
 40
0.0
 40
0.0
 40
0.0
 40
0.0598250028308485
 40
0.2024846486897331
 40
0.3727558389221031
 40
0.515415484793607
 40
0.5752404975785339
 40
0.9332326775487474
 40
1.290451762839499
 40
1.602077253145879
 40
1.699931634112135
 40
1.799359756425044
 40
2.270120149657079
 40
2.804661928461528
 40
2.882342287383237
 40
3.076543185719088
 40
3.329004354835547
 40
3.581465524568373
 40
3.775666424543653
 40
3.853346784558273
 40
3.899120679595019
 40
3.984129341792017
 40
4.029903236817365
 40
4.105797496059521
 40
4.295533144152483
 40
4.542189486611727
 40
4.788845828875679
 40
4.978581476410064
 40
5.054475735244308
 40
5.621734664339314
 40
6.130867242037342
 40
6.225249780948582
 40
6.318913039727278
 40
6.663579954558876
 40
7.047498900224722
 40
7.435230791575634
 40
7.498943906668018
 40
7.650875181210012
 40
7.832212509001465
 40
7.984143783696851
 40
8.047856898902978
 40
8.091554632732484
 40
8.17270756696414
 40
8.216405300767864
 40
8.289021782160749
 40
8.462184160757122
 40
8.668861838005203
 40
8.842024215263795
 40
8.91464069547499
 40
8.989881580861196
 40
9.155411528827099
 40
9.32094147774388
 40
9.396182352487129
 40
9.454709011143676
 40
9.58346766017061
 40
9.71222630901289
 40
9.770752957989343
 40
9.770752957989343
 40
9.770752957989343
 40
9.770752957989343
 10
187.1521871691833
 20
14.93980288195951
 10
187.1322348171623
 20
14.93980875568673
 10
187.0647037716466
 20
14.93982863806158
 10
186.9410612161788
 20
14.93949362520326
 10
186.7863180150056
 20
14.94107673750513
 10
186.6697349482479
 20
14.93686078860496
 10
186.455094263424
 20
14.95215205331627
 10
186.8518948407229
 20
14.59198721286193
 10
186.8945656069267
 20
14.37510503397167
 10
187.3189162146612
 20
14.19325062511446
 10
187.1439821496074
 20
14.08985196568072
 10
187.0194523925084
 20
13.87831523212725
 10
186.7666277235942
 20
14.34806081001562
 10
186.4797602893628
 20
14.99511516984521
 10
186.4906335926659
 20
14.68782672154693
 10
186.488289277796
 20
14.52288616971778
 10
186.4861096126411
 20
14.28879670711693
 10
186.4980774396346
 20
14.04498072421783
 10
186.468798474063
 20
13.89855796860985
 10
186.511452262547
 20
13.75113490174538
 10
186.4239814005639
 20
13.7668579730622
 10
186.3768527606744
 20
13.76694303543455
 10
186.2898973207712
 20
13.75109425482909
 10
186.3313474021722
 20
13.89527771422763
 10
186.3029875004286
 20
14.03855052698455
 10
186.31459737753
 20
14.27674947365266
 10
186.3124175648272
 20
14.50517235240347
 10
186.3103111127993
 20
14.66705729375995
 10
186.3208035438323
 20
14.98153709333753
 10
186.0128963252893
 20
14.29229470872433
 10
185.7055258267456
 20
13.81476750243054
 10
185.5851367066275
 20
14.03741112637427
 10
185.4074607910721
 20
14.15011034955566
 10
185.8853326362894
 20
14.32548143465463
 10
185.9353959057207
 20
14.56091929252028
 10
186.3583799621716
 20
14.95322989344609
 10
186.127675427354
 20
14.93655307029066
 10
186.0049685859341
 20
14.94269518948772
 10
185.8325483095661
 20
14.93312822699574
 10
185.7213224694449
 20
14.95448818489667
 10
185.6025779627448
 20
14.92136265357421
 10
185.6183169706686
 20
15.00203900606884
 10
185.6178550933762
 20
15.04645414290855
 10
185.6027881889931
 20
15.12967081778534
 10
185.7372380935443
 20
15.09062651983884
 10
185.8619755545747
 20
15.11739729328423
 10
186.062875523728
 20
15.10063949044053
 10
186.1921540949353
 20
15.12204225913005
 10
186.3328419928294
 20
15.08868778853421
 10
186.2980927452615
 20
15.22651875785069
 10
186.3222185666713
 20
15.34963257349481
 10
186.2967086182393
 20
15.47024055670336
 10
186.3333251146684
 20
15.60539865141495
 10
186.2211417027769
 20
15.58094545781891
 10
186.1280356457136
 20
15.59307749842022
 10
186.0191547579819
 20
15.58957630069994
 10
185.9569697640964
 20
15.58981755951603
 10
185.9375369557246
 20
15.58989295124144
 97
        3
330
AF
330
AD
330
AE
 75
     1
 76
     2
 52
45.0
 41
0.1
 77
     0
 78
     1
 53
45.0
 43
0.0
 44
0.0
 45
-0.282842712474619
 46
0.0
 79
     0
 98
        1
 10
0.0
 20
0.0
  0
HATCH
  5
CD
330
49
100
AcDbEntity
  8
1
  6
Continuous
 62
     2
100
AcDbHatch
 10
0.0
 20
0.0
 30
0.0
210
0.0
220
0.0
230
1.0
  2
CUSTOM2
 70
     0
 71
     1
 91
        1
 92
        1
 93
        1
 72
     4
 94
        3
 73
     0
 74
     0
 95
      124
 96
      120
 40
0.0
 40
0.0
 40
0.0
 40
0.0
 40
0.027818722962451
 40
0.1011590162384269
 40
0.204847017058967
 40
0.3237088716558393
 40
0.4425707262521147
 40
0.546258727069841
 40
0.6195990203310661
 40
0.6474177522577523
 40
0.6750060736114087
 40
0.7357003855241604
 40
0.7963946998053337
 40
0.823983024557063
 40
0.8540933811101723
 40
0.9373396629408404
 40
1.063094687343121
 40
1.220731268637931
 40
1.399622220914605
 40
1.589140358637562
 40
1.778658496423671
 40
1.957549448940338
 40
2.115186030872931
 40
2.240941056914235
 40
2.324187341760305
 40
2.354297700109155
 40
2.381886024671663
 40
2.44258033871025
 40
2.503274652750272
 40
2.530862977314379
 40
2.560983949278332
 40
2.640393784452677
 40
2.752662861758901
 40
2.881361560117917
 40
3.010060258454964
 40
3.122329335705111
 40
3.201739170817725
 40
3.231860142753086
 40
3.264298024030144
 40
3.352343701778014
 40
3.482095226868538
 40
3.639650650172803
 40
3.811108022565262
 40
3.982565394927771
 40
4.140120818152353
 40
4.269872343141066
 40
4.357918020802129
 40
4.390355902043757
 40
4.423256253992327
 40
4.508104530072848
 40
4.624121560636616
 40
4.750528176031373
 40
4.86654520660182
 40
4.951393482691777
 40
4.984293834645178
 40
5.01145083324209
 40
5.071196230151869
 40
5.130941627056939
 40
5.158098625648601
 40
5.190998977601292
 40
5.275847253689117
 40
5.391864284256552
 40
5.518270899648097
 40
5.634287930209136
 40
5.71913620628781
 40
5.752036558235697
 40
5.782130946282723
 40
5.862783906228898
 40
5.979550131774766
 40
6.117984316640174
 40
6.263641154587721
 40
6.402075339413929
 40
6.518841564907723
 40
6.599494524815309
 40
6.629588912848546
 40
6.654403028226123
 40
6.713575149487919
 40
6.784199939329294
 40
6.843372060493396
 40
6.868186175802641
 40
6.896246243201773
 40
6.939586233758143
 40
6.967846564564771
 40
7.043584251089713
 40
7.153234334451569
 40
7.283231855734321
 40
7.420011856035356
 40
7.550009376579708
 40
7.659659458835113
 40
7.735397144417106
 40
7.763657474851278
 40
7.796409728010935
 40
7.880876065096209
 40
7.996370852465595
 40
8.12220844641849
 40
8.237703224799084
 40
8.322169562010778
 40
8.354921815205792
 40
8.382078813307569
 40
8.44182420920687
 40
8.501569605240011
 40
8.528726603485588
 40
8.561478856695636
 40
8.645945193877687
 40
8.761439980865198
 40
8.88727758076434
 40
9.002772362000862
 40
9.087238696661082
 40
9.119990949235536
 40
9.152428830613236
 40
9.240474508638451
 40
9.370226034149407
 40
9.527781457984291
 40
9.699238830981281
 40
9.870696203978476
 40
10.0282516278139
 40
10.15800315332552
 40
10.24604883135107
 40
10.2784867037851
 40
10.2784867037851
 40
10.2784867037851
 40
10.2784867037851
 10
195.3821827564383
 20
14.01410517385756
 10
195.3914554737523
 20
14.01410498511273
 10
195.4251744536861
 20
14.01410430876713
 10
195.4934706812465
 20
14.01411807243304
 10
195.592014171158
 20
14.01403224219544
 10
195.7062066464811
 20
14.01441755612249
 10
195.818589441707
 20
14.01300835897544
 10
195.9214376600117
 20
14.01719117422241
 10
195.9806839874847
 20
14.00823089251981
 10
196.0371265937032
 20
14.0216443452606
 10
196.0246255586954
 20
13.97087198613361
 10
196.0329549635702
 20
13.92589320939065
 10
196.0248170841119
 20
13.88056752990487
 10
196.0370529214456
 20
13.82931932408465
 10
195.9747773490332
 20
13.84447955365275
 10
195.9060513026867
 20
13.83359750710742
 10
195.778275674959
 20
13.83911304747971
 10
195.6262984511642
 20
13.83700851253698
 10
195.4502695972522
 20
13.83771002588472
 10
195.2644431934286
 20
13.8374523753129
 10
195.0786167437175
 20
13.83771005144602
 10
194.9025880142167
 20
13.8370084184773
 10
194.7506104154194
 20
13.83911332229987
 10
194.6228357664554
 20
13.83359680767639
 10
194.5541077836581
 20
13.84448077125941
 10
194.4918349042883
 20
13.82931786684208
 10
194.5040616290017
 20
13.88057510805171
 10
194.4960004462597
 20
13.92582473272424
 10
194.5040675809892
 20
13.97106357955322
 10
194.4918238487083
 20
14.02234176909957
 10
194.5525017120697
 20
14.00749577363134
 10
194.6162810745736
 20
14.01756448170734
 10
194.7277314353502
 20
14.01294644211998
 10
194.8497533443824
 20
14.01413328905468
 10
194.9719538137823
 20
14.01515863900633
 10
195.0829794287392
 20
14.010924756234
 10
195.1476517413958
 20
14.02018584521738
 10
195.2091162810501
 20
14.00604423049681
 10
195.1930065601337
 20
14.07235527884516
 10
195.2042980327358
 20
14.14447790121974
 10
195.1987400822561
 20
14.27513760888285
 10
195.2008035061691
 20
14.42607323708241
 10
195.2000167127295
 20
14.59335873107886
 10
195.2007845215627
 20
14.76061110332303
 10
195.1988038785628
 20
14.91163289269915
 10
195.2041306156621
 20
15.04206069552995
 10
195.1933101388425
 20
15.114654426059
 10
195.2090326429875
 20
15.18150469436799
 10
195.143270813249
 20
15.16580512490825
 10
195.0756367830764
 20
15.17609243083996
 10
194.9615885293809
 20
15.17113786847123
 10
194.8451242674902
 20
15.17414128030475
 10
194.7306554121477
 20
15.16880303143389
 10
194.6640324657812
 20
15.18001268074826
 10
194.5990769715186
 20
15.16349132665012
 10
194.6107989758707
 20
15.21473720477059
 10
194.6032830189122
 20
15.25950333784091
 10
194.6107989878835
 20
15.3042694489796
 10
194.5990769505347
 20
15.3555153612974
 10
194.66403263392
 20
15.33899381766814
 10
194.7306533339822
 20
15.35020571373943
 10
194.8451352858063
 20
15.34485436710663
 10
194.9615454436962
 20
15.34791188771116
 10
195.0757660174641
 20
15.34278499010707
 10
195.1430150439227
 20
15.35345733355597
 10
195.2083325941438
 20
15.33742082669076
 10
195.1941391448553
 20
15.39949685750052
 10
195.2036059462994
 20
15.46586761628762
 10
195.1990269004085
 20
15.58239972741965
 10
195.2007696555948
 20
15.71426685022375
 10
195.1997551495392
 20
15.85615960150273
 10
195.2017191344373
 20
15.9876905070258
 10
195.196466855385
 20
16.10524577283001
 10
195.2073408763475
 20
16.16947789001584
 10
195.1919536641853
 20
16.23108802545046
 10
195.2407591537801
 20
16.21702407382111
 10
195.2853995564725
 20
16.21954742075313
 10
195.3538643946743
 20
16.21512797401709
 10
195.3959106169103
 20
16.20613025544036
 10
195.4487544758776
 20
16.21411714866508
 10
195.4207035002013
 20
16.17113917611678
 10
195.3749142248594
 20
16.18259552043835
 10
195.3869539073265
 20
16.12173520005138
 10
195.3796086070641
 20
16.05769299468772
 10
195.3831195826162
 20
15.94909368863911
 10
195.3819806760173
 20
15.82494319144753
 10
195.3819174780263
 20
15.69189719829877
 10
195.3832872966869
 20
15.56797381249555
 10
195.3791638801313
 20
15.45868337849337
 10
195.3877763103564
 20
15.39608580094169
 10
195.3746757454402
 20
15.33740133296364
 10
195.4393884328198
 20
15.35362113810901
 10
195.5060405953156
 20
15.34270260383311
 10
195.6198779541103
 20
15.34793740173755
 10
195.7357259122097
 20
15.34485547516912
 10
195.849692426328
 20
15.35018259812512
 10
195.9160341018099
 20
15.33904208166541
 10
195.980718852548
 20
15.35546979593177
 10
195.9689820772722
 20
15.30425925210049
 10
195.9765168063041
 20
15.25950334121001
 10
195.9689820992257
 20
15.21474739010027
 10
195.9807188140736
 20
15.16353690871041
 10
195.9160344075252
 20
15.1799642779422
 10
195.8496886430824
 20
15.1688278444727
 10
195.7357459487012
 20
15.17413115893121
 10
195.6197995623054
 20
15.17114764593544
 10
195.5062756882122
 20
15.17606892268395
 10
195.4389231318804
 20
15.1658508751352
 10
195.3734285122495
 20
15.18145996138816
 10
195.3891713619218
 20
15.11463851827411
 10
195.3783275998213
 20
15.04207057815879
 10
195.3836581629792
 20
14.91162247614416
 10
195.3817136151855
 20
14.76064558185226
 10
195.3823133683214
 20
14.59322243934158
 10
195.3821506559604
 20
14.42656176118371
 10
195.3821895488136
 20
14.27360142921636
 10
195.3821816413098
 20
14.14849178985704
 10
195.3821828382746
 20
14.06507890991419
 10
195.3821827716207
 20
14.02491778281975
 10
195.3821827564383
 20
14.01410517385756
 97
        1
330
B0
 75
     1
 76
     2
 52
45.0
 41
0.1
 77
     0
 78
     1
 53
45.0
 43
0.0
 44
0.0
 45
-0.282842712474619
 46
0.0
 79
     0
 98
        1
 10
0.0
 20
0.0
  0
HATCH
  5
CE
330
49
100
AcDbEntity
  8
1
  6
Continuous
 62
     2
100
AcDbHatch
 10
0.0
 20
0.0
 30
0.0
210
0.0
220
0.0
230
1.0
  2
CUSTOM3
 70
     0
 71
     1
 91
        1
 92
        1
 93
        1
 72
     4
 94
        3
 73
     0
 74
     0
 95
      131
 96
      127
 40
0.0
 40
0.0
 40
0.0
 40
0.0
 40
0.019557702982603
 40
0.0426490537461317
 40
0.2863607575856427
 40
0.5344948436188943
 40
0.7842238845573177
 40
0.8737315789467363
 40
0.9803832810312859
 40
1.092842274517031
 40
1.199761146656791
 40
1.289788768186495
 40
1.351573580786189
 40
1.370727117561418
 40
1.416400936017831
 40
1.470914848355977
 40
1.51658866679177
 40
1.535742203552851
 40
1.634216592293206
 40
1.760283341175042
 40
1.897966686682104
 40
2.03121638736893
 40
2.049689751137924
 40
2.10111560164686
 40
2.179502577739977
 40
2.278859318314092
 40
2.393194462258749
 40
2.516516648383863
 40
2.642834515405992
 40
2.766156701983494
 40
2.880491846754608
 40
2.979848588358651
 40
3.058235565443828
 40
3.109661416668982
 40
3.128134780704158
 40
3.146783742386475
 40
3.191254343315307
 40
3.244332157315909
 40
3.288802758225784
 40
3.307451719895055
 40
3.327717853844669
 40
3.383747753580028
 40
3.46838866592442
 40
3.574487837698729
 40
3.694892515728835
 40
3.822449946851975
 40
3.950007377920366
 40
4.070412055800457
 40
4.176511227368014
 40
4.26115213950146
 40
4.317182039076654
 40
4.337448172964574
 40
4.620011002696212
 40
4.885096638397521
 40
4.945373043518314
 40
5.014107710488653
 40
5.070481727652042
 40
5.319246955636566
 40
5.584812164506058
 40
5.85900091205693
 40
6.133746937542095
 40
6.401732212968883
 40
6.420736683995474
 40
6.472845717451125
 40
6.550702743894052
 40
6.646951193874261
 40
6.754234497930642
 40
6.865196086587392
 40
6.972479390357907
 40
7.06872783977204
 40
7.146584865451078
 40
7.198693898189307
 40
7.217698368905448
 40
7.234950401630925
 40
7.276089864269967
 40
7.325191803516074
 40
7.366331266090458
 40
7.383583298769808
 40
7.402779163492213
 40
7.453386443254616
 40
7.524934666445675
 40
7.606953361406043
 40
7.688972056429223
 40
7.760520279784502
 40
7.811127559734772
 40
7.830323424546394
 40
7.847844055300025
 40
7.894799345667065
 40
7.962779392744754
 40
8.043374293560806
 40
8.128174145149714
 40
8.208769044817515
 40
8.27674909037722
 40
8.323704379669785
 40
8.341225010056515
 40
8.358497614800664
 40
8.40167912668684
 40
8.457815092185898
 40
8.513951057728303
 40
8.557132569708202
 40
8.574405174505245
 40
8.60234066861659
 40
8.643455660540155
 40
8.663225271966823
 40
8.71534515656447
 40
8.78903188962881
 40
8.87350204552054
 40
8.957972194324165
 40
9.03165892556806
 40
9.083778811234751
 40
9.103548423003213
 40
9.11955008312375
 40
9.160817522380052
 40
9.217244429110417
 40
9.278724491644903
 40
9.335151398295688
 40
9.376418837357983
 40
9.39242049730077
 40
9.40119630273499
 40
9.417494229384463
 40
9.426270027749734
 40
9.440875075477766
 40
9.475702496998947
 40
9.517270709866109
 40
9.552098131994278
 40
9.566703169884486
 40
9.566703169884486
 40
9.566703169884486
 40
9.566703169884486
 10
194.6170254148479
 20
15.67015871511026
 10
194.6134345093371
 20
15.66453690702158
 10
194.6056039123624
 20
15.65227754419112
 10
194.5129968974549
 20
15.61601916040976
 10
194.4887622233246
 20
15.40148444212713
 10
194.3858709845938
 20
15.22197284509705
 10
194.1220492364305
 20
15.03615573798147
 10
194.2845471569179
 20
14.95959336566081
 10
194.3607225760838
 20
14.89856693195442
 10
194.4492171072758
 20
14.8351580454476
 10
194.538993023311
 20
14.77525634219561
 10
194.5883817636046
 20
14.72102154849208
 10
194.6745708157382
 20
14.69286240541834
 10
194.6411260674229
 20
14.65713309652811
 10
194.621467116631
 20
14.62550387991905
 10
194.5919888217882
 20
14.58475872796069
 10
194.5688989446031
 20
14.55504663489643
 10
194.5380205968357
 20
14.50211422668493
 10
194.472919336574
 20
14.62740334938902
 10
194.3796000122416
 20
14.68213900233934
 10
194.2950636285138
 20
14.73916423939342
 10
194.1722498125743
 20
14.89675287427523
 10
194.1764450847301
 20
14.82035806766836
 10
194.1751478652677
 20
14.77361280161296
 10
194.1758126448076
 20
14.695847858126
 10
194.1755549986957
 20
14.59902068324423
 10
194.1756431239921
 20
14.48650279078809
 10
194.1756077302282
 20
14.365240859457
 10
194.1756511758278
 20
14.24086897858961
 10
194.1755199942406
 20
14.11967683631337
 10
194.1759477562046
 20
14.00691148919743
 10
194.174667820231
 20
13.91082913768744
 10
194.1779759851044
 20
13.831138264687
 10
194.1715197740086
 20
13.78815175788784
 10
194.1806208705556
 20
13.74955432372043
 10
194.1447910339935
 20
13.7581088772407
 10
194.1115223815253
 20
13.75342519985447
 10
194.0604562576041
 20
13.75351298759784
 10
194.0269723972813
 20
13.75794430283821
 10
193.9907585408754
 20
13.74960793842508
 10
194.0009782568666
 20
13.79145277179284
 10
193.9936487887774
 20
13.83778560820174
 10
193.9973633136103
 20
13.92374831106014
 10
193.9959480554897
 20
14.0260514270485
 10
193.9964105554639
 20
14.14453223931512
 10
193.9962773686232
 20
14.26957683153356
 10
193.9963015910046
 20
14.3947582810705
 10
193.9963354925552
 20
14.51286645379058
 10
193.9962060293132
 20
14.61628748709516
 10
193.9965507549082
 20
14.69932036153668
 10
193.9958698278691
 20
14.75143368521243
 10
193.9994586600623
 20
14.87912907821363
 10
193.7826171386437
 20
14.5804871681962
 10
193.602135492195
 20
14.35263981511513
 10
193.5490322295612
 20
14.49373443289816
 10
193.5200429133148
 20
14.5432576756094
 10
193.419664806282
 20
14.64641779790111
 10
193.7405127723261
 20
14.72695035023779
 10
193.868989700543
 20
14.91066283036436
 10
194.090645432536
 20
15.11931995771762
 10
194.1770224894069
 20
15.29339211228345
 10
194.4549394229073
 20
15.56967051342512
 10
194.3346247839284
 20
15.56534559551115
 10
194.2863197351348
 20
15.56614856202553
 10
194.2102377454905
 20
15.56574582146585
 10
194.116701000975
 20
15.5659027561161
 10
194.0117594788556
 20
15.56582502576225
 10
193.9033887738718
 20
15.56595464378556
 10
193.7981454235896
 20
15.56554393490692
 10
193.7056237819411
 20
15.56682073671592
 10
193.6268130800707
 20
15.5634076653485
 10
193.5839674565378
 20
15.57023350036321
 10
193.5449499586515
 20
15.56065064201124
 10
193.5526365271863
 20
15.59420779565543
 10
193.548546440431
 20
15.62523550322233
 10
193.5485531368814
 20
15.67236529270901
 10
193.5526239724909
 20
15.70340941646779
 10
193.5449495574582
 20
15.73701861635902
 10
193.5834819405494
 20
15.72748410420872
 10
193.6241228014479
 20
15.73397435498071
 10
193.6951471850463
 20
15.73100150650254
 10
193.7729318149634
 20
15.73174761399158
 10
193.8507292246475
 20
15.73247814044526
 10
193.9217232089907
 20
15.7295423551416
 10
193.9624279791822
 20
15.73595468772953
 10
194.000985348991
 20
15.72650524176004
 10
193.9927342754929
 20
15.76264692158785
 10
193.9982346669358
 20
15.80129837613227
 10
193.9955754206164
 20
15.86913528561839
 10
193.9965815471533
 20
15.9459164153874
 10
193.996017801832
 20
16.02849393582757
 10
193.9970714526594
 20
16.10517329229879
 10
193.9942675863131
 20
16.173319907767
 10
194.0000702721304
 20
16.21132399809347
 10
193.991565455116
 20
16.24758448077647
 10
194.0255610233125
 20
16.23755723771853
 10
194.05945756831
 20
16.24073266813706
 10
194.1126669060347
 20
16.2350896564061
 10
194.1660768574483
 20
16.23434774436426
 10
194.199591464949
 20
16.2281922348298
 10
194.2388086183039
 20
16.23346029773593
 10
194.2120263698492
 20
16.19253380793488
 10
194.1708111001724
 20
16.20371204538113
 10
194.1782641540873
 20
16.15867056192125
 10
194.1742227952184
 20
16.11412278028145
 10
194.176171404964
 20
16.04223572621704
 10
194.1752364849758
 20
15.96168630588771
 10
194.176510719003
 20
15.88173995404995
 10
194.1732043793863
 20
15.80841837083183
 10
194.1802106179961
 20
15.76688643002568
 10
194.1701440380126
 20
15.72752418568113
 10
194.2029814803921
 20
15.73468063430981
 10
194.236457729648
 20
15.73027243137945
 10
194.2915053476019
 20
15.73217943347897
 10
194.3489502595314
 20
15.73185366407288
 10
194.4023026248309
 20
15.73106308733082
 10
194.4398540896638
 20
15.73313959118073
 10
194.4623172523237
 20
15.7302233816711
 10
194.4751678073731
 20
15.73572552644055
 10
194.4858255685889
 20
15.7380111819779
 10
194.4986635650143
 20
15.74494972588051
 10
194.5145991033071
 20
15.72853046313671
 10
194.5410623920892
 20
15.71709122319447
 10
194.5726805253758
 20
15.6964468783519
 10
194.5987255892151
 20
15.68116869628293
 10
194.6128517723973
 20
15.67266976323182
 10
194.6170254148479
 20
15.67015871511026
 97
        1
330
B1
 75
     1
 76
     2
 52
45.0
 41
0.1
 77
     0
 78
     1
 53
45.0
 43
0.0
 44
0.0
 45
-0.282842712474619
 46
0.0
 79
     0
 98
        1
 10
0.0
 20
0.0
  0
HATCH
  5
CF
330
49
100
AcDbEntity
  8
1
  6
Continuous
 62
     2
100
AcDbHatch
 10
0.0
 20
0.0
 30
0.0
210
0.0
220
0.0
230
1.0
  2
CUSTOM4
 70
     0
 71
     1
 91
        1
 92
        1
 93
        1
 72
     4
 94
        3
 73
     0
 74
     0
 95
       91
 96
       87
 40
0.0
 40
0.0
 40
0.0
 40
0.0
 40
0.0267532254356701
 40
0.0856103386464102
 40
0.1444674521996621
 40
0.1712206856618514
 40
0.2039416005642536
 40
0.2955601971652484
 40
0.4362601844617202
 40
0.6162252844507534
 40
0.8256392189704982
 40
1.054685709844468
 40
1.293548478893588
 40
1.532411247938332
 40
1.761457738799596
 40
1.970871673298593
 40
2.150836773256818
 40
2.291536760495679
 40
2.383155356836757
 40
2.415876284101405
 40
2.44262951748805
 40
2.50148663094918
 40
2.560343744424327
 40
2.5870969778266
 40
2.617068194441027
 40
2.699247336756197
 40
2.822032643466481
 40
2.973822353258039
 40
3.143014704823481
 40
3.31800793688006
 40
3.487200288186894
 40
3.638989997548431
 40
3.76177530379493
 40
3.843954445753265
 40
3.87392566222996
 40
3.890812773500666
 40
3.907699884771844
 40
3.93796076785748
 40
3.980983618142596
 40
4.199085915228713
 40
4.439444339237479
 40
4.67758824126112
 40
5.050698317837977
 40
5.448212454763363
 40
5.855291218044803
 40
6.138575438885404
 40
6.417434507584235
 40
6.444551104393892
 40
6.504207617363191
 40
6.563864130314487
 40
6.590980727104054
 40
6.848609460381438
 40
7.109611990668396
 40
7.352910904446081
 40
7.557830220705424
 40
7.587518925913319
 40
7.652834077375737
 40
7.718149228845698
 40
7.747837934061978
 40
7.85488019030086
 40
7.976511257403383
 40
8.369487896592213
 40
8.757514959223563
 40
9.126072419331026
 40
9.460639380392088
 40
9.74669559303583
 40
9.777569943118614
 40
9.80705032093171
 40
9.83037733612884
 40
9.886003295435916
 40
9.952395569429827
 40
10.00802152870618
 40
10.0313485438821
 40
10.21356951009584
 40
10.42203479292863
 40
10.66154556731053
 40
10.91693789564297
 40
11.15832906556557
 40
11.18982674596615
 40
11.27286608520399
 40
11.39026653033341
 40
11.52484752840878
 40
11.6594285264844
 40
11.77682897161475
 40
11.85986831085675
 40
11.8913659823042
 40
11.8913659823042
 40
11.8913659823042
 40
11.8913659823042
 10
190.7027885008196
 20
14.70699600701772
 10
190.7028237765288
 20
14.71587847311985
 10
190.7029366710796
 20
14.74430237047346
 10
190.7012984568489
 20
14.79409639169803
 10
190.7069750292911
 20
14.83657564478154
 10
190.6956928731706
 20
14.88730154856847
 10
190.7632296979031
 20
14.87012900740109
 10
190.8388029210701
 20
14.88290227165996
 10
190.9828357056001
 20
14.87629729457382
 10
191.1569419185427
 20
14.87888462206466
 10
191.3639599611003
 20
14.87800591955553
 10
191.5894688172378
 20
14.87828207920027
 10
191.8251162293406
 20
14.87818339658662
 10
192.0607640531349
 20
14.87828184412767
 10
192.2862717580626
 20
14.87800678190789
 10
192.4932934632805
 20
14.87888186270734
 10
192.667388891529
 20
14.87630522678446
 10
192.8114492071986
 20
14.88288290449213
 10
192.8869691915294
 20
14.87016243405604
 10
192.954577603703
 20
14.88726400191687
 10
192.9430840140677
 20
14.83674785802941
 10
192.9505104581733
 20
14.79253252226501
 10
192.9428838927986
 20
14.7486796650361
 10
192.9546489459426
 20
14.69878374479327
 10
192.8930788491983
 20
14.71393227712512
 10
192.8256791738672
 20
14.70310665350673
 10
192.7013004056222
 20
14.70852031626237
 10
192.5554428236572
 20
14.70649205390785
 10
192.3893576440086
 20
14.70715777578387
 10
192.2188412621725
 20
14.70689643521242
 10
192.0519790855389
 20
14.70721553391094
 10
191.9087346827105
 20
14.70635302590762
 10
191.7773313869834
 20
14.70863300482988
 10
191.7239859134656
 20
14.70407704374202
 10
191.6485188456912
 20
14.70999914992877
 10
191.6769075779233
 20
14.70094169343353
 10
191.7033652409542
 20
14.6972591226893
 10
191.6633522907701
 20
14.66654271968271
 10
191.5713663691866
 20
14.67667591174639
 10
191.5439396207069
 20
14.43032502247784
 10
191.4478793967234
 20
14.27499558764374
 10
191.1917277964473
 20
13.94525417931569
 10
191.7627537732762
 20
14.08430022210452
 10
192.0173656320516
 20
14.08291779973364
 10
192.6279647048616
 20
13.99790569242086
 10
192.3340698578082
 20
14.29685417558206
 10
192.0133304286519
 20
14.44330856901777
 10
192.1313543360433
 20
14.50025540818289
 10
192.1724716466261
 20
14.52420099873348
 10
192.215681239441
 20
14.5459975881123
 10
192.3174574094449
 20
14.60928721253906
 10
192.4328867625247
 20
14.35147151408778
 10
192.6329591642276
 20
14.21616041113682
 10
192.7269077387227
 20
14.03792795138883
 10
192.9558829746392
 20
13.87997821027052
 10
192.8596031846706
 20
13.82915972576297
 10
192.8167959763778
 20
13.79881292523052
 10
192.7718243528778
 20
13.7746613028146
 10
192.7121720925213
 20
13.72552146747566
 10
192.6789731061325
 20
13.85997475673613
 10
192.5582013350797
 20
14.01594265286578
 10
192.1970976005979
 20
13.88569928059557
 10
191.8385061955541
 20
13.90224694409483
 10
191.457092045008
 20
13.89331229351865
 10
191.1703455282891
 20
13.82882671672408
 10
190.8592055599715
 20
13.94230668192828
 10
190.8268737818787
 20
13.83122259927768
 10
190.7896178253317
 20
13.81196313850013
 10
190.7865737632754
 20
13.85874784087298
 10
190.7679892860606
 20
13.89806853919136
 10
190.7512436616778
 20
13.95765983478232
 10
190.7383730915753
 20
14.00201969871284
 10
190.7042327806428
 20
14.09106331120201
 10
190.9482714457754
 20
14.02181042943771
 10
191.1441394486671
 20
14.00030369057744
 10
191.2395426381276
 20
14.28226484478466
 10
191.2945135769598
 20
14.44363045421122
 10
191.5159619357153
 20
14.71391177589736
 10
191.3849239381217
 20
14.70548446853736
 10
191.3110026555853
 20
14.70779008496969
 10
191.1977459876244
 20
14.70671378321658
 10
191.0694251807484
 20
14.7070763907651
 10
190.9404252030415
 20
14.70697724466086
 10
190.828784094629
 20
14.70699932712572
 10
190.7514663970026
 20
14.7069957918967
 10
190.713287653201
 20
14.70699595845081
 10
190.7027885008196
 20
14.70699600701772
 97
        1
330
B2
 75
     1
 76
     2
 52
45.0
 41
0.1
 77
     0
 78
     1
 53
45.0
 43
0.0
 44
0.0
 45
-0.282842712474619
 46
0.0
 79
     0
 98
        1
 10
0.0
 20
0.0
  0
HATCH
  5
D0
330
49
100
AcDbEntity
  8
1
  6
Continuous
 62
     2
100
AcDbHatch
 10
0.0
 20
0.0
 30
0.0
210
0.0
220
0.0
230
1.0
  2
CUSTOM5
 70
     0
 71
     1
 91
        1
 92
        1
 93
        1
 72
     4
 94
        3
 73
     0
 74
     0
 95
       35
 96
       31
 40
0.0
 40
0.0
 40
0.0
 40
0.0
 40
0.0335231036620645
 40
0.0713218571712011
 40
0.4278866681487097
 40
0.8116865841964129
 40
1.198190238000074
 40
1.561379546812705
 40
1.659983174622058
 40
1.759315573807201
 40
2.132719617231135
 40
2.525233363588865
 40
2.910815397779737
 40
3.26524436430331
 40
3.592606723582056
 40
3.964386154604007
 40
4.359942131737832
 40
4.758154118639343
 40
4.843846538699981
 40
4.936650065543344
 40
5.256616602537477
 40
5.581707404416237
 40
5.899719158308353
 40
6.198363494280918
 40
6.466301046615931
 40
6.493895311537281
 40
6.559697020197073
 40
6.638234543442676
 40
6.704036252154457
 40
6.731630508423263
 40
6.731630508423263
 40
6.731630508423263
 40
6.731630508423263
 10
191.9736010568669
 20
16.23463843719134
 10
191.9676006097789
 20
16.22480690542322
 10
191.9548344099157
 20
16.20388988579798
 10
191.7949362006552
 20
16.17127126532691
 10
192.2322025842338
 20
15.88206680336702
 10
192.4345394828261
 20
15.68041138358438
 10
192.6819564267973
 20
15.43749387603276
 10
193.1831513624606
 20
15.36047662757774
 10
193.012556219897
 20
15.21876939174656
 10
192.9383299463202
 20
15.01710366209106
 10
192.6131432248187
 20
15.36956287174722
 10
192.3277741670663
 20
15.53175212559563
 10
192.0337604077658
 20
15.73687130053048
 10
191.8084452691133
 20
16.21827488595456
 10
191.5993085055522
 20
15.75343046609223
 10
191.3207873674834
 20
15.54350952252912
 10
191.0371383177208
 20
15.37424456359983
 10
190.7078639527832
 20
15.00142360907936
 10
190.6277012318224
 20
15.19708014459003
 10
190.4759724909742
 20
15.32491104190589
 10
190.9083395826795
 20
15.40454031765936
 10
191.0962565329765
 20
15.60026634915472
 10
191.3468477420503
 20
15.81632996916752
 10
191.571435047016
 20
15.9819099230006
 10
191.6259775409713
 20
16.26133964636826
 10
191.749466102901
 20
16.24737950408078
 10
191.806027334452
 20
16.24521268867647
 10
191.8761870984944
 20
16.24046859881359
 10
191.9333414022105
 20
16.23709429350541
 10
191.9644190320838
 20
16.23519854711119
 10
191.9736010568669
 20
16.23463843719134
 97
        1
330
B3
 75
     1
 76
     2
 52
45.0
 41
0.1
 77
     0
 78
     1
 53
45.0
 43
0.0
 44
0.0
 45
-0.282842712474619
 46
0.0
 79
     0
 98
        1
 10
0.0
 20
0.0
  0
HATCH
  5
D1
330
49
100
AcDbEntity
  8
1
  6
Continuous
 62
     2
100
AcDbHatch
 10
0.0
 20
0.0
 30
0.0
210
0.0
220
0.0
230
1.0
  2
CUSTOM6
 70
     0
 71
     1
 91
        1
 92
        1
 93
        1
 72
     4
 94
        3
 73
     0
 74
     0
 95
       15
 96
       11
 40
0.0
 40
0.0
 40
0.0
 40
0.0
 40
0.2785535985095889
 40
0.5215624748197358
 40
0.6076917376038786
 40
0.693821000173952
 40
0.9405019146452968
 40
1.221691403488895
 40
1.30047187708084
 40
1.379252341684653
 40
1.379252341684653
 40
1.379252341684653
 40
1.379252341684653
 10
189.5681493631
 20
16.22930267330381
 10
189.6296017794178
 20
16.17691646592716
 10
189.7446649974114
 20
16.07882876798223
 10
190.0397348497242
 20
15.92889785897223
 10
189.9025147631855
 20
15.84343227515012
 10
189.8041227843778
 20
15.71085785201556
 10
189.7130033590649
 20
16.01616985781421
 10
189.3636839480655
 20
16.07967869465375
 10
189.511925837657
 20
16.17896509880878
 10
189.5494081874238
 20
16.21252348402383
 10
189.5681493631
 20
16.22930267330381
 97
        1
330
B4
 75
     1
 76
     2
 52
45.0
 41
0.1
 77
     0
 78
     1
 53
45.0
 43
0.0
 44
0.0
 45
-0.282842712474619
 46
0.0
 79
     0
 98
        1
 10
0.0
 20
0.0
  0
HATCH
  5
D2
330
49
100
AcDbEntity
  8
1
  6
Continuous
 62
     2
100
AcDbHatch
 10
0.0
 20
0.0
 30
0.0
210
0.0
220
0.0
230
1.0
  2
CUSTOM7
 70
     0
 71
     1
 91
        1
 92
        1
 93
        1
 72
     4
 94
        3
 73
     0
 74
     0
 95
       75
 96
       71
 40
0.0
 40
0.0
 40
0.0
 40
0.0
 40
0.0342546099129691
 40
0.1245622414432346
 40
0.2522385480897518
 40
0.398599192294068
 40
0.5449598364980821
 40
0.6726361431438816
 40
0.762943774673696
 40
0.7971983935297973
 40
1.101723623449658
 40
1.408591244036661
 40
1.433332471690369
 40
1.487763172450163
 40
1.542193873081994
 40
1.566935100592542
 40
1.923523931821851
 40
2.271755704953705
 40
2.590579755100891
 40
2.858943305581149
 40
2.889120339309145
 40
2.918305855191073
 40
2.941366645531194
 40
2.996357760973094
 40
3.061992318140657
 40
3.116983433626851
 40
3.140044223997528
 40
3.411273122936452
 40
3.732441619741117
 40
3.761068217532815
 40
3.837787499630377
 40
3.948858699126018
 40
4.080541049104392
 40
4.219093782625775
 40
4.350776132722325
 40
4.461847332405661
 40
4.538566614678391
 40
4.567193212544639
 40
4.594907573998897
 40
4.666381453557465
 40
4.764111044011104
 40
4.870592538125907
 40
4.968322128642386
 40
5.0397960082871
 40
5.067510369784559
 40
5.094263603185771
 40
5.153120716668404
 40
5.211977830150847
 40
5.238731063551851
 40
5.27229053513909
 40
5.363380529444923
 40
5.4976184157816
 40
5.660621563453871
 40
5.838007341749572
 40
6.015393119910895
 40
6.17839626703852
 40
6.3126341518425
 40
6.40372414305949
 40
6.437283612672585
 40
6.464036846261202
 40
6.522893960004815
 40
6.581751071484074
 40
6.608504301591021
 40
6.637253941281168
 40
6.711397748903019
 40
6.812778057283575
 40
6.923237199249295
 40
7.024617507623939
 40
7.098761315207591
 40
7.127510946007542
 40
7.127510946007542
 40
7.127510946007542
 40
7.127510946007542
 10
188.4418622390564
 20
14.95849128473265
 10
188.4418622819707
 20
14.9470731340872
 10
188.4418624481129
 20
14.9055525784263
 10
188.4418593081786
 20
14.82146922003772
 10
188.44187882798
 20
14.70004497322329
 10
188.4417912187737
 20
14.55980494047449
 10
188.442111623523
 20
14.42006556794577
 10
188.4411605909741
 20
14.29745038894929
 10
188.4431978595967
 20
14.21587074438044
 10
188.4349433178746
 20
14.06271267077698
 10
188.7430797940901
 20
14.22560236054721
 10
189.0350645173736
 20
14.39482938688003
 10
189.0408354448707
 20
14.2597323578191
 10
189.0455471719891
 20
14.21617221160443
 10
189.0482535411918
 20
14.17211249350544
 10
189.0672545672958
 20
14.02272590363131
 10
188.6583942247303
 20
14.08681172241262
 10
188.3793710348831
 20
13.9729634141102
 10
188.1018081587167
 20
13.87364095811139
 10
187.8099837184399
 20
13.91630687596363
 10
187.7869144678658
 20
13.81321679744542
 10
187.7537474383334
 20
13.7869109124447
 10
187.7480653962739
 20
13.83455309036305
 10
187.7284214559045
 20
13.87180336115069
 10
187.7095089485623
 20
13.93007387847562
 10
187.6942849867707
 20
13.97385201007804
 10
187.6477246372936
 20
14.08759421046311
 10
187.9890897312449
 20
14.05576301120048
 10
188.2679649367387
 20
14.02161435106481
 10
188.2617753034907
 20
14.16913976479653
 10
188.2630935452773
 20
14.24013150908833
 10
188.2624831689948
 20
14.34719767958663
 10
188.2625871570725
 20
14.47398529785999
 10
188.2629987964055
 20
14.60849243496051
 10
188.2613907841968
 20
14.73395549951185
 10
188.2659902567925
 20
14.84505246719118
 10
188.256418650221
 20
14.9076188680069
 10
188.2704001783691
 20
14.96595388295002
 10
188.2147384386705
 20
14.95289710582239
 10
188.157565519782
 20
14.96136307749499
 10
188.0616048925648
 20
14.95729976080638
 10
187.963376752282
 20
14.95970889852476
 10
187.8672582457559
 20
14.95551600613388
 10
187.810464852581
 20
14.96429346441164
 10
187.7550356873382
 20
14.95094936850122
 10
187.7670679427916
 20
15.00036910959257
 10
187.7592003173936
 20
15.04393988030396
 10
187.7666295563828
 20
15.08830469118525
 10
187.7551930564143
 20
15.13902297763991
 10
187.8232102370131
 20
15.12162460757743
 10
187.8968496879746
 20
15.13417450237189
 10
188.0325064058209
 20
15.12799677011097
 10
188.1884909024524
 20
15.13029203093084
 10
188.3615926358142
 20
15.1294096826253
 10
188.534694296418
 20
15.13029207142408
 10
188.6906789811216
 20
15.1279966295555
 10
188.8263351889796
 20
15.13417486262432
 10
188.8999756705651
 20
15.12162394218334
 10
188.9679914174722
 20
15.13902373012143
 10
188.9565590885921
 20
15.08830130414555
 10
188.9639539458296
 20
15.04397060811109
 10
188.9562039912269
 20
15.00028307550197
 10
188.9681203741875
 20
14.95063590098477
 10
188.9108170223615
 20
14.96461411338426
 10
188.8520145789771
 20
14.95539755673255
 10
188.75252936332
 20
14.9595226816493
 10
188.6494280098349
 20
14.95822760025889
 10
188.5537846354573
 20
14.95854077077641
 10
188.4857467971616
 20
14.95848776697146
 10
188.4514462213443
 20
14.95849051871657
 10
188.4418622390564
 20
14.95849128473265
 97
        1
330
B5
 75
     1
 76
     2
 52
45.0
 41
0.1
 77
     0
 78
     1
 53
45.0
 43
0.0
 44
0.0
 45
-0.282842712474619
 46
0.0
 79
     0
 98
        1
 10
0.0
 20
0.0
  0
HATCH
  5
D3
330
49
100
AcDbEntity
  8
1
  6
Continuous
 62
     2
100
AcDbHatch
 10
0.0
 20
0.0
 30
0.0
210
0.0
220
0.0
230
1.0
  2
CUSTOM8
 70
     0
 71
     1
 91
        1
 92
        1
 93
        1
 72
     4
 94
        3
 73
     0
 74
     0
 95
       91
 96
       87
 40
0.0
 40
0.0
 40
0.0
 40
0.0
 40
0.0345987051695718
 40
0.1258134969461369
 40
0.2547723404888987
 40
0.4026032099154125
 40
0.5504340793416704
 40
0.679392922883608
 40
0.7706077146571035
 40
0.8052064287780925
 40
1.124852390615273
 40
1.427402236308864
 40
1.706356627453497
 40
1.95554141787518
 40
2.169485938566315
 40
2.344350786664754
 40
2.480568411561923
 40
2.590440557428945
 40
2.649189927151124
 40
2.74932064330633
 40
2.912632739880038
 40
3.147745656000243
 40
3.244827496385144
 40
3.338490056946728
 40
3.583815413207164
 40
3.761423943238531
 40
3.886956104362697
 40
3.985855451886905
 40
4.091766255337817
 40
4.250186473811983
 40
4.422734315084607
 40
4.628285684838704
 40
4.872093227758526
 40
5.152549652145646
 40
5.464967135837631
 40
5.803201477852549
 40
6.160362988814022
 40
6.193449448276077
 40
6.28417038550176
 40
6.419718138764573
 40
6.587285046385851
 40
6.774063446723794
 40
6.967245678113748
 40
7.154024078817763
 40
7.32159098702612
 40
7.45713874089045
 40
7.547859678556215
 40
7.580946138182775
 40
7.608533084714828
 40
7.669224367077812
 40
7.729915649430037
 40
7.75750259595009
 40
7.790278062553543
 40
7.88014627743107
 40
8.014419963180504
 40
8.180411842398033
 40
8.365434637679503
 40
8.556801071622832
 40
8.741823866830945
 40
8.907815745916512
 40
9.042089431507666
 40
9.131957646249791
 40
9.164733112797368
 40
9.415425063140285
 40
9.667986180958765
 40
9.694169807462904
 40
9.756607686047891
 40
9.831130315322783
 40
9.893568193900247
 40
9.919751820399064
 40
9.950967964690888
 40
9.996421631210998
 40
10.22087981037489
 40
10.44341866197577
 40
10.4784797078889
 40
10.5709133743879
 40
10.70159545461265
 40
10.85140174170395
 40
11.00120802880513
 40
11.13189010907418
 40
11.22432377583046
 40
11.25938480938992
 40
11.28697175596181
 40
11.34766303835955
 40
11.40835432042106
 40
11.43594125892141
 40
11.43594125892141
 40
11.43594125892141
 40
11.43594125892141
 10
190.0818114333289
 20
15.55242795125076
 10
190.0702785844941
 20
15.55242790287914
 10
190.0283409444998
 20
15.55242773704163
 10
189.9434129719026
 20
15.55243125800908
 10
189.8207688553128
 20
15.55240926435877
 10
189.6791206916993
 20
15.55250801177053
 10
189.537975369849
 20
15.5521468623242
 10
189.4141351317905
 20
15.55321883609088
 10
189.3317217825381
 20
15.55092249091268
 10
189.1727791229693
 20
15.56048569373418
 10
189.3503402353375
 20
15.1978539431137
 10
189.3379739205452
 20
14.95243127723114
 10
189.4064519473864
 20
14.66862501324834
 10
189.469302432097
 20
14.43250999939036
 10
189.5452253431727
 20
14.2332674039613
 10
189.6303189577015
 20
14.07745347451371
 10
189.7244607592934
 20
13.97657857781392
 10
189.8282648207727
 20
13.92465852638966
 10
189.9125872030773
 20
13.97606484379615
 10
189.9351322179451
 20
14.09144544037518
 10
189.974573097537
 20
14.21885149702381
 10
189.9202919734942
 20
14.53622328086758
 10
190.0451218072473
 20
14.38982180140905
 10
190.2019291513603
 20
14.35795300331173
 10
190.0947720007057
 20
14.12421357767628
 10
190.0808711209866
 20
13.95972776583656
 10
190.0234709467226
 20
13.8313086912248
 10
189.9335020145007
 20
13.76018802352826
 10
189.8095274657877
 20
13.74432324142253
 10
189.6634273196859
 20
13.77993797554171
 10
189.5243894320284
 20
13.90000570500278
 10
189.4102003962143
 20
14.07435682550318
 10
189.3146141301486
 20
14.29946603111242
 10
189.2318652572626
 20
14.56388246006442
 10
189.180717925641
 20
14.88187933098543
 10
189.0770189207337
 20
15.15543728488912
 10
189.204284120852
 20
15.56005818612866
 10
189.0357890623017
 20
15.55112367849677
 10
188.9511995787076
 20
15.55315961418362
 10
188.8189876387626
 20
15.55213937388405
 10
188.6560505094102
 20
15.55253230318428
 10
188.4733759170531
 20
15.55235696313368
 10
188.2847057373381
 20
15.55260105307467
 10
188.1014469020188
 20
15.55185657906235
 10
187.9404746832717
 20
15.55416360522425
 10
187.8029808335274
 20
15.54799804883661
 10
187.728959037231
 20
15.5603283845821
 10
187.6613215186856
 20
15.54329323723555
 10
187.6732373719269
 20
15.59524438447527
 10
187.6655677285693
 20
15.64071424966528
 10
187.6732592225114
 20
15.68614453703705
 10
187.661314179776
 20
15.7380239598457
 10
187.7283588305866
 20
15.72119143490264
 10
187.8017375665674
 20
15.7333540909267
 10
187.9379128305272
 20
15.72727231074959
 10
188.097381180151
 20
15.72954834315057
 10
188.2789173085836
 20
15.72881233998962
 10
188.4658034862178
 20
15.72905954196134
 10
188.6468012316835
 20
15.72886400799253
 10
188.8080802578878
 20
15.72932234714839
 10
188.9393882124886
 20
15.72812673751205
 10
189.0225051322597
 20
15.73051347319743
 10
189.1556236547814
 20
15.72230605725463
 10
189.064589350266
 20
15.97752868952655
 10
188.9789633074418
 20
16.2416435832825
 10
189.0990589003454
 20
16.22904442969165
 10
189.1514264948542
 20
16.22694235763076
 10
189.2214497569716
 20
16.22535399889658
 10
189.2671922337817
 20
16.21602567538112
 10
189.3220812646933
 20
16.22545966915426
 10
189.2963574785681
 20
16.17733028655174
 10
189.1825397571452
 20
16.18266829744167
 10
189.3159346621136
 20
15.95449174576777
 10
189.1943658735471
 20
15.72156856595923
 10
189.3223188769413
 20
15.73087258884438
 10
189.4049048406461
 20
15.7280100175468
 10
189.5307214850824
 20
15.72923437412302
 10
189.6741469838057
 20
15.72932431888965
 10
189.8157420951728
 20
15.72746163183853
 10
189.9459127249967
 20
15.73333075937163
 10
190.0193452286191
 20
15.72070340823203
 10
190.0891112922096
 20
15.73877563110412
 10
190.0775772605396
 20
15.68612850546326
 10
190.0833184346682
 20
15.64221317686546
 10
190.0816615770911
 20
15.59089982676548
 10
190.081775756167
 20
15.56158792021633
 10
190.0818114333289
 20
15.55242795125076
 97
        1
330
B6
 75
     1
 76
     2
 52
45.0
 41
0.1
 77
     0
 78
     1
 53
45.0
 43
0.0
 44
0.0
 45
-0.282842712474619
 46
0.0
 79
     0
 98
        1
 10
0.0
 20
0.0
  0
HATCH
  5
D4
330
49
100
AcDbEntity
  8
1
  6
Continuous
 62
     2
100
AcDbHatch
 10
0.0
 20
0.0
 30
0.0
210
0.0
220
0.0
230
1.0
  2
CUSTOM9
 70
     0
 71
     1
 91
        1
 92
        1
 93
        1
 72
     4
 94
        3
 73
     0
 74
     0
 95
      118
 96
      114
 40
0.0
 40
0.0
 40
0.0
 40
0.0
 40
0.1054708162973237
 40
0.2466098270051723
 40
0.3965912874591032
 40
0.5285525069753729
 40
0.6156245055642011
 40
0.6431434105797323
 40
0.7036850037986028
 40
0.7642265984504425
 40
0.7917455052354729
 40
0.9287404319989697
 40
1.10657281908802
 40
1.287544879681011
 40
1.317578308030528
 40
1.399928030857166
 40
1.522968204799941
 40
1.675072986590562
 40
1.844616533180639
 40
2.019973001638704
 40
2.189516548880016
 40
2.341621331585355
 40
2.464661506320491
 40
2.547011229647055
 40
2.577044658168019
 40
2.603797890893089
 40
2.662655002908776
 40
2.721512114949588
 40
2.748265347702768
 40
2.774215307344845
 40
2.845959313407175
 40
2.954338556588375
 40
3.090194227585554
 40
3.244367517100519
 40
3.40769961584428
 40
3.57103171453943
 40
3.725205003920106
 40
3.861060674729609
 40
3.969439917716301
 40
4.041183923628976
 40
4.06713388321297
 40
4.311886746012155
 40
4.547897258335522
 40
4.764747083043963
 40
4.952749679951765
 40
5.045772974195888
 40
5.137862019644975
 40
5.330543169793017
 40
5.553448265244006
 40
5.795083855888163
 40
6.043293412177242
 40
6.285761695541191
 40
6.313902908752703
 40
6.384255941793293
 40
6.475714884766881
 40
6.567173827758972
 40
6.637526860839778
 40
6.665668074074142
 40
6.69201892032812
 40
6.749990782071197
 40
6.807962643790572
 40
6.834313490018048
 40
6.856393084245327
 40
6.91333519564995
 40
6.991194817302614
 40
7.076026942283876
 40
7.153886563725366
 40
7.210828674844948
 40
7.232908268931284
 40
7.258199334923805
 40
7.324875781592453
 40
7.419142481925108
 40
7.527204308842047
 40
7.635266135230622
 40
7.729532834168604
 40
7.796209279292927
 40
7.821500344594873
 40
7.844652988850943
 40
7.899863140541722
 40
7.965759128053889
 40
8.020969279771172
 40
8.044121924046639
 40
8.069356610160717
 40
8.10913439544151
 40
8.132238100191222
 40
8.193147867786584
 40
8.27926167887676
 40
8.377977512673974
 40
8.476693347146758
 40
8.56280716041181
 40
8.623716930826596
 40
8.64682063685355
 40
8.671988793774362
 40
8.734909185828274
 40
8.816705695188988
 40
8.898502204815559
 40
8.96142259737802
 40
8.986590754551132
 40
9.012941600733292
 40
9.070913462380382
 40
9.128885324081885
 40
9.155236170325209
 40
9.180404327929251
 40
9.243324721948325
 40
9.325121234212117
 40
9.406917746637772
 40
9.469838141978228
 40
9.495006288271002
 40
9.517811184379143
 40
9.572192090487144
 40
9.637098333281372
 40
9.691479239515573
 40
9.714284125643612
 40
9.714284125643612
 40
9.714284125643612
 40
9.714284125643612
 10
185.2874469028653
 20
15.26889163187718
 10
185.3090990569037
 20
15.2411186924281
 10
185.3597257109473
 20
15.17618054561233
 10
185.4349383202592
 20
15.06891060312898
 10
185.5248482274345
 20
14.95377438266625
 10
185.5709169676673
 20
14.85357045748318
 10
185.6655825294655
 20
14.78434006814944
 10
185.6204439320412
 20
14.73771639678274
 10
185.594704778579
 20
14.6966030886604
 10
185.5645196708012
 20
14.6606597172794
 10
185.5193684730561
 20
14.58579782596094
 10
185.4710504458563
 20
14.80782524253607
 10
185.3968539713072
 20
14.8451067733771
 10
185.2836047324607
 20
15.11610202130601
 10
185.2885133578168
 20
15.00095328446228
 10
185.2868486556307
 20
14.92836675781628
 10
185.2876830076714
 20
14.80625588483986
 10
185.2873609540264
 20
14.6591380081046
 10
185.2875076912455
 20
14.49307063956557
 10
185.2872950092723
 20
14.32187554608602
 10
185.2879497252034
 20
14.15552828635498
 10
185.2859192461139
 20
14.00935173055693
 10
185.291346039993
 20
13.8847104747461
 10
185.2804930868708
 20
13.81718656540626
 10
185.2956739155555
 20
13.75549061417022
 10
185.2457895108133
 20
13.76727503897002
 10
185.2017150342522
 20
13.75943822779969
 10
185.15823716302
 20
13.76760441372703
 10
185.1092346786489
 20
13.75538056738468
 10
185.1218731234825
 20
13.80960667249313
 10
185.113018296845
 20
13.86936918907558
 10
185.1175058770314
 20
13.97922029044371
 10
185.115796013599
 20
14.11029975405678
 10
185.1163550915987
 20
14.26198011444329
 10
185.1161928768693
 20
14.42211074929953
 10
185.1162269924675
 20
14.58236865674567
 10
185.1162514960126
 20
14.7337024752044
 10
185.1161453543226
 20
14.86582156338602
 10
185.116429914193
 20
14.97294802533193
 10
185.1158675547568
 20
15.03808619579475
 10
185.1180765083689
 20
15.16618957858676
 10
185.0319435998602
 20
14.79097610391577
 10
184.9555140818499
 20
14.63918193123396
 10
184.8660040767834
 20
14.47766206446307
 10
184.7640413217327
 20
14.20471848820173
 10
184.7187976491038
 20
14.36717346596511
 10
184.610235594167
 20
14.45605432058121
 10
184.7995791751752
 20
14.60549794961409
 10
184.8565340545701
 20
14.79749136974925
 10
184.9717520993352
 20
15.02899622906757
 10
184.9940151630132
 20
15.21797259759062
 10
185.1771905152141
 20
15.4945408932593
 10
185.0538033597552
 20
15.48698978832093
 10
184.9925684166834
 20
15.48856772366117
 10
184.9081999617064
 20
15.48882592573671
 10
184.8204235085965
 20
15.48544845751204
 10
184.7656768696123
 20
15.49394814982019
 10
184.7104703026024
 20
15.48048561049787
 10
184.7222823035537
 20
15.52931442126763
 10
184.7142496151793
 20
15.57269004896708
 10
184.7228186104678
 20
15.61509438309573
 10
184.7102943409157
 20
15.66267796552119
 10
184.7555101538735
 20
15.6526721299511
 10
184.8014815562724
 20
15.65894105174062
 10
184.877722204771
 20
15.65593561405873
 10
184.9561296131993
 20
15.65770448278542
 10
185.0323992648932
 20
15.65464793981661
 10
185.0783009459475
 20
15.66103971376178
 10
185.12317339654
 20
15.65093822978897
 10
185.1105552275634
 20
15.701572015819
 10
185.1191936582707
 20
15.7550126188207
 10
185.1152361595443
 20
15.84863255131681
 10
185.1162325068335
 20
15.95112606688924
 10
185.1171927413073
 20
16.05353270248163
 10
185.1133211458005
 20
16.14735929609321
 10
185.1217789814364
 20
16.20036542840353
 10
185.1093075932835
 20
16.25211435651188
 10
185.1542106389849
 20
16.23850747226757
 10
185.1955083836772
 20
16.24100480320585
 10
185.259534428105
 20
16.23648060574487
 10
185.2986111148786
 20
16.22781003043308
 10
185.3476543498742
 20
16.23515102070687
 10
185.3225080030591
 20
16.19602896051756
 10
185.2815901333723
 20
16.2056384245581
 10
185.2910109616604
 20
16.15540148169779
 10
185.2855647318746
 20
16.10385945639491
 10
185.2881699601804
 20
16.01959707584522
 10
185.2870102202154
 20
15.92559135583409
 10
185.2883591064231
 20
15.83196865395527
 10
185.2849970101509
 20
15.74679517552224
 10
185.2920959917769
 20
15.69716856072045
 10
185.2812569154545
 20
15.6499369496999
 10
185.3304010225245
 20
15.66201674936852
 10
185.3794877630146
 20
15.65447393363012
 10
185.4573714280641
 20
15.65686070361433
 10
185.5350365172896
 20
15.65899381905415
 10
185.5845393931355
 20
15.65193391922456
 10
185.6344594750639
 20
15.66360151936215
 10
185.6223198516881
 20
15.61540235371393
 10
185.6305838229144
 20
15.57249219801235
 10
185.6223198650783
 20
15.52958201851384
 10
185.6344594549854
 20
15.48138288754864
 10
185.5845395158746
 20
15.49305034471509
 10
185.5350350651202
 20
15.48599202435044
 10
185.4573784382973
 20
15.48811665228602
 10
185.379464386576
 20
15.49053389365759
 10
185.3304500352716
 20
15.48291848194484
 10
185.2813246108943
 20
15.49507952557592
 10
185.2915559988571
 20
15.45073013424156
 10
185.2856677678053
 20
15.4092543620291
 10
185.2878788305568
 20
15.34915394315302
 10
185.2874109346146
 20
15.30225782762887
 10
185.2874386992913
 20
15.27650146418195
 10
185.2874469028653
 20
15.26889163187718
 97
        1
330
B7
 75
     1
 76
     2
 52
45.0
 41
0.1
 77
     0
 78
     1
 53
45.0
 43
0.0
 44
0.0
 45
-0.282842712474619
 46
0.0
 79
     0
 98
        1
 10
0.0
 20
0.0
  0
HATCH
  5
D5
330
49
100
AcDbEntity
  8
1
  6
Continuous
 62
     2
100
AcDbHatch
 10
0.0
 20
0.0
 30
0.0
210
0.0
220
0.0
230
1.0
  2
CUSTOM10
 70
     0
 71
     1
 91
        1
 92
        1
 93
        1
 72
     4
 94
        3
 73
     0
 74
     0
 95
       47
 96
       43
 40
0.0
 40
0.0
 40
0.0
 40
0.0
 40
0.220791280995723
 40
0.4459404186302935
 40
0.4902387190458858
 40
0.5327473892720981
 40
0.5742260451225145
 40
0.6155432630560724
 40
0.6568164066315645
 40
0.6982511618780559
 40
0.7407663929317082
 40
0.7851366743175132
 40
1.0102888338363
 40
1.231080507002152
 40
1.451765243652377
 40
1.676638205891676
 40
1.720461045359648
 40
1.830018144043506
 40
1.972442372353133
 40
2.114866600677499
 40
2.224423699395117
 40
2.268246538883358
 40
2.493628801207194
 40
2.715602830286598
 40
2.934211330706356
 40
3.149502369855354
 40
3.231387784851028
 40
3.318231873854035
 40
3.405143198198023
 40
3.48697030172046
 40
3.702258172493906
 40
3.920866283534142
 40
4.142839325931936
 40
4.368221903865403
 40
4.412044743359883
 40
4.521601842095893
 40
4.664026070452368
 40
4.806450298809074
 40
4.916007397546761
 40
4.959830237043083
 40
5.18470351584713
 40
5.405387250767502
 40
5.405387250767502
 40
5.405387250767502
 40
5.405387250767502
 10
182.6507427258645
 20
15.73406440953872
 10
182.6568139420002
 20
15.7975848250121
 10
182.6690762107243
 20
15.92587938689627
 10
182.5604706879412
 20
16.20166220174072
 10
182.6761985896603
 20
16.17188133432055
 10
182.7171842509015
 20
16.16765556262817
 10
182.7591205797517
 20
16.16310446389607
 10
182.800419662571
 20
16.16201982929483
 10
182.8417032115555
 20
16.16310338195227
 10
182.8836148270647
 20
16.16766112711342
 10
182.9245983549019
 20
16.17187430209728
 10
183.0404922843489
 20
16.2017761131753
 10
182.9295652727456
 20
15.9233980660989
 10
182.9574856365267
 20
15.74283140824953
 10
182.9404267346969
 20
15.50961042346471
 10
182.9414637282102
 20
15.34906622543144
 10
182.9414099399404
 20
15.22284817558721
 10
182.941427737248
 20
15.1242896333624
 10
182.941418858108
 20
14.99280702442962
 10
182.9414263928034
 20
14.8613284496865
 10
182.9414129405128
 20
14.76276222694091
 10
182.9414531717492
 20
14.63639735624152
 10
182.9406746403817
 20
14.47482068822871
 10
182.9565958319266
 20
14.24361821892914
 10
182.9333468885407
 20
14.05874351972001
 10
183.0360183444366
 20
13.78935602770052
 10
182.8820238362836
 20
13.82660112685817
 10
182.8004129802832
 20
13.82137994680532
 10
182.7188192292583
 20
13.82660620378351
 10
182.5648513666842
 20
13.78937069885384
 10
182.6674183421917
 20
14.0587512986288
 10
182.6442045316088
 20
14.24361585325414
 10
182.6600444655139
 20
14.47482218565639
 10
182.6593296313426
 20
14.63639712308503
 10
182.6593664569907
 20
14.76276231210522
 10
182.659354900027
 20
14.86132756635982
 10
182.6593575019214
 20
14.9928112741722
 10
182.6593648531779
 20
15.12427548031199
 10
182.6593442541351
 20
15.22287786275325
 10
182.6594082192028
 20
15.34896149354426
 10
182.658173394759
 20
15.51210091383771
 10
182.6532040396745
 20
15.6605418377755
 10
182.6507427258645
 20
15.73406440953872
 97
        1
330
B8
 75
     1
 76
     2
 52
45.0
 41
0.1
 77
     0
 78
     1
 53
45.0
 43
0.0
 44
0.0
 45
-0.282842712474619
 46
0.0
 79
     0
 98
        1
 10
0.0
 20
0.0
  0
HATCH
  5
D6
330
49
100
AcDbEntity
  8
1
  6
Continuous
 62
     2
100
AcDbHatch
 10
0.0
 20
0.0
 30
0.0
210
0.0
220
0.0
230
1.0
  2
CUSTOM11
 70
     0
 71
     1
 91
        1
 92
        1
 93
        1
 72
     4
 94
        3
 73
     0
 74
     0
 95
      110
 96
      106
 40
0.0
 40
0.0
 40
0.0
 40
0.0
 40
0.2203406257277785
 40
0.4407808782838093
 40
0.5952494494615068
 40
0.7488431659393077
 40
0.902358183130849
 40
1.056801968670404
 40
1.210736449099905
 40
1.363041386539783
 40
1.515315729683069
 40
1.669377239148077
 40
1.72161165275656
 40
1.773199502942937
 40
1.824933793209979
 40
1.877110426487958
 40
1.982682281206722
 40
2.07878166708753
 40
2.172809640822252
 40
2.271937807378905
 40
2.378349933379326
 40
2.494131557736487
 40
2.626681683943592
 40
2.783145050796162
 40
2.890701232941012
 40
2.993130312454904
 40
3.09986973069189
 40
3.220237816691376
 40
3.352695482737667
 40
3.481732806389926
 40
3.593499473690456
 40
3.674323013331962
 40
3.817951711952855
 40
3.94616712079391
 40
4.061405053453567
 40
4.166480796003236
 40
4.262478775059273
 40
4.350736673551229
 40
4.433071991254116
 40
4.511216293814719
 40
4.564262454118041
 40
4.618474415571663
 40
4.670128488754268
 40
4.722296879126476
 40
4.819540945314346
 40
4.931194984128203
 40
5.049996040257845
 40
5.16864375541539
 40
5.283970811762602
 40
5.392260784910513
 40
5.486512254876559
 40
5.559178233949901
 40
5.591425852853579
 40
5.626215969637956
 40
5.667155838674507
 40
5.717449290214328
 40
5.738402360944938
 40
5.784499116553897
 40
5.830595872164863
 40
5.851548942897716
 40
5.873019280661828
 40
5.92421777840837
 40
5.985325662817746
 40
6.036524160567759
 40
6.057994498334286
 40
6.236847789607551
 40
6.381409928945731
 40
6.493190424178759
 40
6.574067534230582
 40
6.691018086205506
 40
6.814881554220395
 40
6.944307823240404
 40
7.071266716066084
 40
7.193488604461929
 40
7.309042773128156
 40
7.414007203170754
 40
7.505140441886424
 40
7.531150360599562
 40
7.559221645322129
 40
7.587202218920792
 40
7.612569159499024
 40
7.662550809480893
 40
7.702878875764021
 40
7.857328205230721
 40
8.010799568088451
 40
8.165256399657288
 40
8.32223269871374
 40
8.479564855016399
 40
8.635216230290546
 40
8.79088255092552
 40
8.948305154947029
 40
9.16827183903273
 40
9.38735898098699
 40
9.608047961033238
 40
9.832914234792456
 40
9.858338694962791
 40
9.925366817229797
 40
10.02013071422738
 40
10.12876249858976
 40
10.23739428295227
 40
10.33215817995168
 40
10.39918630222371
 40
10.4246107623976
 40
10.6499201933692
 40
10.87188524531164
 40
10.87188524531164
 40
10.87188524531164
 40
10.87188524531164
 10
179.9057788376618
 20
15.73923260398189
 10
179.9092864933542
 20
15.80616462073803
 10
179.9163033987663
 20
15.94005891915858
 10
179.8198027599072
 20
16.22548554971468
 10
180.0510134726108
 20
16.16284386190284
 10
180.1919290057156
 20
16.17001554055988
 10
180.3490417757588
 20
16.16235883078244
 10
180.5025913427287
 20
16.16252752283038
 10
180.6545104935081
 20
16.16182040535433
 10
180.8142214813231
 20
16.17210158351637
 10
180.9408972601117
 20
16.15496511080752
 10
181.1370821122081
 20
16.22727260107147
 10
181.1034395279078
 20
16.12640699080116
 10
181.1052011317184
 20
16.07619253947671
 10
181.1027342073458
 20
16.02712335586466
 10
181.1347076966011
 20
15.94063490846999
 10
181.0010399903256
 20
15.98997438608338
 10
180.9172208688056
 20
15.98430634314167
 10
180.8173861139324
 20
15.99465516706299
 10
180.7186576720145
 20
16.00086450411087
 10
180.612153277111
 20
16.00697763816776
 10
180.491051169806
 20
16.01588883484585
 10
180.3703381502453
 20
16.00521605912383
 10
180.1812553843436
 20
16.06468503080371
 10
180.2129028505311
 20
15.90558320077541
 10
180.1995563316834
 20
15.80839128339904
 10
180.197495842645
 20
15.69634065110104
 10
180.195818804467
 20
15.57699685629352
 10
180.1973336794232
 20
15.4503259215511
 10
180.195658247867
 20
15.32301588016117
 10
180.2058844271657
 20
15.22451566404464
 10
180.1779006596582
 20
15.08388702625633
 10
180.3508029999305
 20
15.13989551134096
 10
180.464502020277
 20
15.12719951478496
 10
180.584015167224
 20
15.13448377051256
 10
180.6888491425071
 20
15.13878017056754
 10
180.7843084898612
 20
15.14330568258977
 10
180.8763823507032
 20
15.15149201146198
 10
180.9476551782439
 20
15.14643850638111
 10
181.0544931705685
 20
15.18536425031675
 10
181.0226603598036
 20
15.1051712200588
 10
181.0266164503929
 20
15.05562936846034
 10
181.0234502392013
 20
15.00557478039819
 10
181.0550791490585
 20
14.92128847612021
 10
180.9210133677691
 20
14.97425365495158
 10
180.82923227932
 20
14.96540080890442
 10
180.7079729189603
 20
14.97570049965155
 10
180.5914113119771
 20
14.977489117675
 10
180.4783375745878
 20
14.97787017109694
 10
180.367924630847
 20
14.98415449472179
 10
180.289812406784
 20
14.97189133255364
 10
180.1913625833644
 20
15.00453887616125
 10
180.2012355173561
 20
14.94769748054206
 10
180.1973923244402
 20
14.91392130557984
 10
180.1966789884268
 20
14.8711960470941
 10
180.1963369642975
 20
14.83401607262152
 10
180.1963834255346
 20
14.7948723737077
 10
180.1963649429926
 20
14.75716849497686
 10
180.1963703431806
 20
14.71944955232403
 10
180.19636972142
 20
14.6899432474515
 10
180.1963698151545
 20
14.65873577699302
 10
180.196370428792
 20
14.61414424908086
 10
180.1963671499337
 20
14.55963956508853
 10
180.196375962348
 20
14.51505540201449
 10
180.1963359653417
 20
14.43117808585742
 10
180.1976024270255
 20
14.31737520677679
 10
180.1950274117842
 20
14.16830395933709
 10
180.206500938172
 20
14.06597203813906
 10
180.1823506222264
 20
13.93338903885838
 10
180.3332993946476
 20
13.9789573227202
 10
180.4428436671555
 20
13.96427012162348
 10
180.5733970473919
 20
13.96920435125064
 10
180.6990312209513
 20
13.97257705323359
 10
180.8188730625601
 20
13.97711497498772
 10
180.9391362611426
 20
13.99048536182004
 10
181.0222761663514
 20
13.98068712782594
 10
181.1456080421074
 20
14.04126214623317
 10
181.1244269203955
 20
13.9853246013402
 10
181.1235950270117
 20
13.95939249372346
 10
181.1218963707557
 20
13.93197256190939
 10
181.1217974888828
 20
13.89738195206385
 10
181.1203659301329
 20
13.86050408220768
 10
181.1532804192188
 20
13.76846841021807
 10
180.9551306988107
 20
13.84132015974834
 10
180.830054829489
 20
13.81825726508604
 10
180.6673071295156
 20
13.82454021985785
 10
180.5129366450001
 20
13.82260943909924
 10
180.3566670436944
 20
13.82393762599267
 10
180.1970544465281
 20
13.82059872487861
 10
180.0540326342237
 20
13.83265795728241
 10
179.8197144881628
 20
13.76952001976918
 10
179.9173810751197
 20
14.05620527466317
 10
179.9006868780059
 20
14.2498830814266
 10
179.9146296709685
 20
14.47848242880295
 10
179.9142987846632
 20
14.63384593955048
 10
179.9143078119264
 20
14.73966336444127
 10
179.9143055876317
 20
14.80205784124215
 10
179.914306555189
 20
14.89220425248327
 10
179.9143065473262
 20
14.99621167157438
 10
179.9143053861104
 20
15.10022131375296
 10
179.9143090971503
 20
15.19036243688768
 10
179.9143011051052
 20
15.25276803097215
 10
179.9143334275019
 20
15.35868835961119
 10
179.9131440788319
 20
15.5162671654474
 10
179.9082216489256
 20
15.66528219822065
 10
179.9057788376618
 20
15.73923260398189
 97
        1
330
B9
 75
     1
 76
     2
 52
45.0
 41
0.1
 77
     0
 78
     1
 53
45.0
 43
0.0
 44
0.0
 45
-0.282842712474619
 46
0.0
 79
     0
 98
        1
 10
0.0
 20
0.0
  0
HATCH
  5
D7
330
49
100
AcDbEntity
  8
1
  6
Continuous
 62
     2
100
AcDbHatch
 10
0.0
 20
0.0
 30
0.0
210
0.0
220
0.0
230
1.0
  2
CUSTOM12
 70
     0
 71
     1
 91
        1
 92
        1
 93
        1
 72
     4
 94
        3
 73
     0
 74
     0
 95
       95
 96
       91
 40
0.0
 40
0.0
 40
0.0
 40
0.0
 40
0.655040665691112
 40
1.308087289031874
 40
1.420803739835745
 40
1.566130759770736
 40
1.757067341888415
 40
2.006513545026396
 40
2.087328263121496
 40
2.185328872295576
 40
2.294612454748327
 40
2.408936380534761
 40
2.526802767798511
 40
2.646360524615556
 40
2.762535723971525
 40
2.870057342870099
 40
2.966883448431602
 40
3.050803243518245
 40
3.115818222436554
 40
3.156030057150201
 40
3.213914225080132
 40
3.276689026450504
 40
3.34296032098131
 40
3.404230667150446
 40
3.453822809493259
 40
3.532499827188299
 40
3.634775188507053
 40
3.754909333008054
 40
3.889736761660544
 40
4.035769602175109
 40
4.187256681197488
 40
4.338733685675841
 40
4.488478734676003
 40
4.63470831783148
 40
4.771493189921156
 40
4.892686571561105
 40
5.199775528944333
 40
5.46035356692953
 40
5.667603142345397
 40
5.814722905404377
 40
5.828990806219675
 40
5.855488336304372
 40
5.869756237118704
 40
6.189796507762722
 40
6.531890469872946
 40
6.883053637016887
 40
7.230512024911302
 40
7.566966656764473
 40
7.885203559707231
 40
8.172887439719078
 40
8.418011594062651
 40
8.443926721190572
 40
8.510760470613057
 40
8.602145393795567
 40
8.701714041647005
 40
8.793098965075234
 40
8.859932715057806
 40
8.885847842603454
 40
9.242301256612674
 40
9.589275455016645
 40
9.921808543164046
 40
10.23479624298453
 40
10.29968150889164
 40
10.35323493887752
 40
10.40154625355136
 40
10.46482922477812
 40
10.55973900668391
 40
10.69239545985603
 40
10.84920353475657
 40
11.01626328594767
 40
11.1867202436743
 40
11.35372582577197
 40
11.50257442292413
 40
11.61866495023278
 40
11.71329869152861
 40
11.82511050573894
 40
11.94464880845702
 40
12.06929242642492
 40
12.19707290435162
 40
12.32562632860515
 40
12.45034565331265
 40
12.56646595170314
 40
12.67099007414621
 40
12.76077625936768
 40
12.8270323350668
 40
12.87429132785979
 40
12.89831990323318
 40
12.92234847860006
 40
13.53984767410305
 40
14.18294284359357
 40
14.18294284359357
 40
14.18294284359357
 40
14.18294284359357
 10
177.306793564802
 20
14.70898038201725
 10
177.1752019758549
 20
14.82265058603232
 10
176.9124193802728
 20
15.0496449631616
 10
176.3997393441019
 20
15.89214462956286
 10
176.4106654595363
 20
15.5342337757702
 10
176.4041226527989
 20
15.39267392272133
 10
176.4028026631773
 20
15.19421305299282
 10
176.4018117602538
 20
15.02150296045983
 10
176.4024101751974
 20
14.8786537325758
 10
176.4038994301883
 20
14.78265005413357
 10
176.4055683588472
 20
14.6754550326314
 10
176.4071934954618
 20
14.56164211517581
 10
176.4092429501686
 20
14.44441572604589
 10
176.4123165501926
 20
14.3265641123297
 10
176.4156339697043
 20
14.21228087320621
 10
176.4193605340281
 20
14.10521401867277
 10
176.4217338161423
 20
14.01007408766921
 10
176.4278718888357
 20
13.92558557205695
 10
176.4239784495946
 20
13.86923087298141
 10
176.4455230443078
 20
13.79825022472354
 10
176.3680940058617
 20
13.82902677604483
 10
176.3116353240191
 20
13.82011242517612
 10
176.2540495896807
 20
13.82896218398276
 10
176.1690163478473
 20
13.79738225225946
 10
176.2009714146382
 20
13.8809515599219
 10
176.1990705282539
 20
13.94882608968309
 10
176.2107960047299
 20
14.05233256764418
 10
176.2164241053
 20
14.17002125616695
 10
176.223790217894
 20
14.30388609164424
 10
176.2320759701611
 20
14.44764152872632
 10
176.2398851897425
 20
14.59714022843444
 10
176.2457571222658
 20
14.74792549402078
 10
176.2503667817967
 20
14.89699943878438
 10
176.2542632117543
 20
15.04122913163023
 10
176.2570715126564
 20
15.17583905213017
 10
176.2576698755022
 20
15.36469614347355
 10
176.261602386715
 20
15.58975494313155
 10
176.2442175378499
 20
15.86367091125708
 10
176.2850417342582
 20
16.02787112098597
 10
176.1995153256003
 20
16.22749661465096
 10
176.2660558907688
 20
16.22385458403978
 10
176.283872427323
 20
16.22413447160854
 10
176.4056801797506
 20
16.22632927398613
 10
176.5080770335461
 20
15.94675118721514
 10
176.7580021509357
 20
15.74563008536007
 10
176.987003533111
 20
15.47792614987917
 10
177.2245151213108
 20
15.2264641386237
 10
177.4486090740772
 20
14.98969974061364
 10
177.6750716283008
 20
14.73218692583075
 10
177.8325687886514
 20
14.61649335056924
 10
178.0472129612673
 20
14.27997152538791
 10
178.0422645974619
 20
14.40464754091604
 10
178.0433931602546
 20
14.46327691935736
 10
178.0428877841517
 20
14.55043662371977
 10
178.0430475158114
 20
14.64416143182872
 10
178.0430054891317
 20
14.73018971297034
 10
178.0430202040373
 20
14.79153891945494
 10
178.0429706255983
 20
14.94135231520992
 10
178.0458811522811
 20
15.17989612510104
 10
178.025952104116
 20
15.54486509868701
 10
178.0750433936246
 20
15.80799631993413
 10
177.917795150918
 20
16.21928904947749
 10
178.0762112872421
 20
16.16398282551748
 10
178.1311680478629
 20
16.16199686500174
 10
178.182788776674
 20
16.16264778248251
 10
178.2713198965366
 20
16.20369527738244
 10
178.2204898303168
 20
16.05696326622986
 10
178.2313389930283
 20
15.95019971954433
 10
178.2166036994847
 20
15.79085705414112
 10
178.2099976446205
 20
15.62853061652874
 10
178.2014961399913
 20
15.45992521892394
 10
178.1943227202199
 20
15.29814814703541
 10
178.1889063215389
 20
15.15422331457932
 10
178.1871713967648
 20
15.03437493466924
 10
178.1875440672319
 20
14.92686101590514
 10
178.1873656126263
 20
14.81820024645585
 10
178.1877010863139
 20
14.6995357016553
 10
178.1890040622184
 20
14.57555163512741
 10
178.1908887351575
 20
14.44858294171105
 10
178.1925004454849
 20
14.32153861551032
 10
178.194140313743
 20
14.19854884492178
 10
178.1962570745751
 20
14.08300931383759
 10
178.1963848422364
 20
13.98090903955837
 10
178.2006514396554
 20
13.89009848838157
 10
178.1908440085289
 20
13.83213621208787
 10
178.2118474771689
 20
13.7651713013203
 10
178.1725639739897
 20
13.77291153966689
 10
177.9595307117744
 20
13.75755254145193
 10
177.7636297943188
 20
14.31403058094474
 10
177.4611197631543
 20
14.57556035348512
 10
177.306793564802
 20
14.70898038201725
 97
        1
330
BA
 75
     1
 76
     2
 52
45.0
 41
0.1
 77
     0
 78
     1
 53
45.0
 43
0.0
 44
0.0
 45
-0.282842712474619
 46
0.0
 79
     0
 98
        1
 10
0.0
 20
0.0
  0
HATCH
  5
D8
330
49
100
AcDbEntity
  8
1
  6
Continuous
 62
     2
100
AcDbHatch
 10
0.0
 20
0.0
 30
0.0
210
0.0
220
0.0
230
1.0
  2
CUSTOM13
 70
     0
 71
     1
 91
        2
 92
        1
 93
        1
 72
     4
 94
        3
 73
     0
 74
     0
 95
       57
 96
       53
 40
0.0
 40
0.0
 40
0.0
 40
0.0
 40
0.047163208280924
 40
0.0914861054632156
 40
0.1357762519702108
 40
0.1826527001609834
 40
0.2295203288572311
 40
0.2737751972220765
 40
0.3181310461543356
 40
0.3652607198398523
 40
0.4571007286314579
 40
0.5671851029165677
 40
0.6894623283868495
 40
0.8181758272546042
 40
0.9510087229274
 40
1.085852229674064
 40
1.218126164475321
 40
1.343545131142383
 40
1.4545372029568
 40
1.567187607530724
 40
1.680710966642456
 40
1.794226869736792
 40
1.900009184247591
 40
2.004085860447871
 40
2.108162674451759
 40
2.214000150155303
 40
2.49603857735213
 40
2.76235074547926
 40
2.997275353279401
 40
3.185110082137734
 40
3.246407890063933
 40
3.312607550212777
 40
3.378877742711651
 40
3.440140399651449
 40
4.100501696006479
 40
4.754913085563524
 40
5.411331693423938
 40
6.07789043256872
 40
6.110575292670999
 40
6.143260152775779
 40
6.367989363395169
 40
6.610525374951577
 40
6.863389136467314
 40
7.119380025547563
 40
7.376036605091098
 40
7.631164770966267
 40
7.876722425456439
 40
8.104953735855988
 40
8.312916685924316
 40
8.497730294941311
 40
8.651018984313877
 40
8.764738853624612
 40
8.764738853624612
 40
8.764738853624612
 40
8.764738853624612
 10
174.7922649500513
 20
13.81626739612926
 10
174.7766616726931
 20
13.81826231079077
 10
174.7463947960302
 20
13.82213201360299
 10
174.7010994202252
 20
13.82341984967266
 10
174.6559553129349
 20
13.82308683554049
 10
174.60990171234
 20
13.82314658674223
 10
174.5640496172096
 20
13.8232581365
 10
174.5183711648165
 20
13.82277833456589
 10
174.4750811541608
 20
13.82461109618722
 10
174.4039947951514
 20
13.80049556814656
 10
174.4057477261441
 20
13.92184693977254
 10
174.3586196370569
 20
14.0072623975123
 10
174.3191478251761
 20
14.12486929345136
 10
174.2706635532646
 20
14.24232752540438
 10
174.2201017402522
 20
14.3640593576151
 10
174.1718634610477
 20
14.49075967862465
 10
174.1135232947594
 20
14.59933687784952
 10
174.0980892667261
 20
14.75620657134409
 10
173.9566586330636
 20
14.72373446548323
 10
173.8508397414903
 20
14.73512888682181
 10
173.7358569725222
 20
14.73392591514614
 10
173.6253142252141
 20
14.73506945347409
 10
173.5176583522783
 20
14.73418350037526
 10
173.4121322529243
 20
14.7341660239052
 10
173.3109192682012
 20
14.72714032472415
 10
173.1266804827754
 20
14.75135859859866
 10
173.1157393685411
 20
14.44741691121885
 10
173.008769163475
 20
14.22353177253397
 10
172.9098148604347
 20
14.03895314292498
 10
172.9225090524007
 20
13.79530204804204
 10
172.8050091716397
 20
13.82508046753198
 10
172.742205586831
 20
13.82258089509601
 10
172.6785872093399
 20
13.82344075102805
 10
172.3946014194075
 20
13.7809803994194
 10
173.0251638499381
 20
14.50081952444789
 10
173.1087645289071
 20
15.01276539435727
 10
173.4929252789339
 20
15.53353743550045
 10
173.4777208288565
 20
16.2351962625321
 10
173.7239265722697
 20
16.22345633081257
 10
173.8256346157561
 20
16.23225004452773
 10
173.8249752035818
 20
15.98059650730346
 10
173.9428317155828
 20
15.79818020733957
 10
174.0315515260484
 20
15.55563740662868
 10
174.1322292485257
 20
15.32340030530123
 10
174.2311142712243
 20
15.08674644566917
 10
174.3299676990667
 20
14.8546173917009
 10
174.4256166390926
 20
14.6312222278879
 10
174.5159904573271
 20
14.42272549049315
 10
174.5989944568189
 20
14.2330844852932
 10
174.6726088582799
 20
14.06663106068099
 10
174.7342815895545
 20
13.92917699626098
 10
174.7749458885604
 20
13.84999239430033
 10
174.7922649500513
 20
13.81626739612926
 97
        1
330
BC
 92
       16
 93
        1
 72
     4
 94
        3
 73
     0
 74
     0
 95
       25
 96
       21
 40
0.0
 40
0.0
 40
0.0
 40
0.0
 40
0.0911479969064821
 40
0.1858117896204662
 40
0.2804128399734491
 40
0.3715889190714511
 40
0.4679080494218709
 40
0.5642683809229232
 40
0.6605683222644707
 40
0.7569653015810254
 40
0.8561348172522754
 40
1.092615965104299
 40
1.374867658141889
 40
1.611348812011619
 40
1.710518328425268
 40
1.809403163726587
 40
2.045205463294096
 40
2.326646917622162
 40
2.562449217190631
 40
2.66133404383395
 40
2.66133404383395
 40
2.66133404383395
 40
2.66133404383395
 10
173.2683700567199
 20
14.88614538197291
 10
173.2987525917922
 20
14.88598079714553
 10
173.3606895889112
 20
14.88564528689922
 10
173.4541356960329
 20
14.88269055452001
 10
173.5475095236357
 20
14.8797775287715
 10
173.6417760753476
 20
14.87894201643416
 10
173.7354964790967
 20
14.87996644658046
 10
173.8352040303205
 20
14.87916977470972
 10
173.9188949546312
 20
14.88921410235218
 10
174.0637996315045
 20
14.86234617674163
 10
173.9396132444801
 20
15.03665530280048
 10
173.8965867286282
 20
15.19651711006092
 10
173.7808922142209
 20
15.45518458550216
 10
173.7017565431256
 20
15.59231052861859
 10
173.6431576621816
 20
15.80937033134078
 10
173.5864803939438
 20
15.59266134213429
 10
173.5052809900477
 20
15.45327012438236
 10
173.4063701281488
 20
15.20406969370194
 10
173.3253625094258
 20
15.01925830226072
 10
173.2813683325838
 20
14.91650446856116
 10
173.2683700567199
 20
14.88614538197291
 97
        1
330
BB
 75
     1
 76
     2
 52
45.0
 41
0.1
 77
     0
 78
     1
 53
45.0
 43
0.0
 44
0.0
 45
-0.282842712474619
 46
0.0
 79
     0
 98
        1
 10
0.0
 20
0.0
  0
HATCH
  5
D9
330
49
100
AcDbEntity
  8
1
  6
Continuous
 62
     2
100
AcDbHatch
 10
0.0
 20
0.0
 30
0.0
210
0.0
220
0.0
230
1.0
  2
CUSTOM14
 70
     0
 71
     1
 91
        1
 92
        1
 93
        1
 72
     4
 94
        3
 73
     0
 74
     0
 95
       99
 96
       95
 40
0.0
 40
0.0
 40
0.0
 40
0.0
 40
0.0796417172272938
 40
0.1621768542355654
 40
0.2486489160958263
 40
0.3404969668526
 40
0.4381912511166036
 40
0.5434463660246343
 40
0.6518115192847254
 40
0.7530190937887411
 40
0.8492196919725673
 40
0.9419290312998737
 40
1.034249663570092
 40
1.12907860062025
 40
1.226697027573283
 40
1.327220425421739
 40
1.47057213493806
 40
1.595489863371254
 40
1.719934125348462
 40
1.850576620127521
 40
1.98905962998734
 40
2.134139054226957
 40
2.280698007207245
 40
2.424529739039514
 40
2.565929576985876
 40
2.708239260773649
 40
2.861717887443737
 40
3.045168540347433
 40
3.183798301138674
 40
3.31481396145553
 40
3.442083470447385
 40
3.569912708373038
 40
3.702177512509393
 40
3.842307559659609
 40
3.992872223246013
 40
4.156750662218402
 40
4.310981861107566
 40
4.445859909322665
 40
4.572393936131635
 40
4.701656719782064
 40
4.768279086008545
 40
4.835960697898477
 40
4.912788918729427
 40
5.00628520848163
 40
5.026909478751707
 40
5.047533749021271
 40
5.101808031471366
 40
5.162325165538676
 40
5.226919745995969
 40
5.29423180659682
 40
5.364544852554948
 40
5.438319055468022
 40
5.517877651324355
 40
5.607647714861667
 40
5.700449642544513
 40
5.788251142364244
 40
5.872714706039882
 40
5.955167292575462
 40
6.037192395190501
 40
6.120669181469236
 40
6.206848616686458
 40
6.296680855416875
 40
6.442558392872687
 40
6.568190371608362
 40
6.692904567360422
 40
6.824220446557224
 40
6.963121850329411
 40
7.107843738851168
 40
7.253431663907336
 40
7.395187468036787
 40
7.53314075323777
 40
7.670550457175305
 40
7.816236511769334
 40
7.987691657359306
 40
8.142277421969322
 40
8.293662615415087
 40
8.442962460879352
 40
8.591598316185395
 40
8.743678992361874
 40
8.903725323699254
 40
9.076307008890629
 40
9.265578604680655
 40
9.45920379536083
 40
9.617619810273698
 40
9.753609671362003
 40
9.874873300004158
 40
9.95452018497785
 40
10.02416413719252
 40
10.09769764405452
 40
10.18909955924979
 40
10.20974586420147
 40
10.23039218263395
 40
10.30057101881276
 40
10.37632012987553
 40
10.37632012987553
 40
10.37632012987553
 40
10.37632012987553
 10
170.146595483585
 20
14.13795663215993
 10
170.1632217851219
 20
14.11720608845314
 10
170.1970784206576
 20
14.07495111711908
 10
170.2599822541035
 20
14.02029811392064
 10
170.3332500940393
 20
13.97299025121052
 10
170.4175969238636
 20
13.93527231437936
 10
170.5132240615461
 20
13.9104061973195
 10
170.6171853775346
 20
13.90309559345935
 10
170.7224020220405
 20
13.91142322794055
 10
170.8206626371333
 20
13.94149179651529
 10
170.9058986427548
 20
13.98848822971876
 10
170.9779220206102
 20
14.04952991250859
 10
171.0350917709096
 20
14.12412969578584
 10
171.0767868747439
 20
14.21002464660175
 10
171.1026952846292
 20
14.30485850432211
 10
171.1118037332653
 20
14.41854979038366
 10
171.0986864796487
 20
14.54332587770778
 10
171.0325330334413
 20
14.66014719171892
 10
170.9369370919568
 20
14.74512539577375
 10
170.8249681022368
 20
14.81416684459155
 10
170.6993659583269
 20
14.87204142045894
 10
170.5656691620857
 20
14.9237372328434
 10
170.431312281883
 20
14.97899092397181
 10
170.3051983986877
 20
15.04939770641649
 10
170.1926579987534
 20
15.13785540731252
 10
170.0969963064456
 20
15.24981067868466
 10
170.0334157151826
 20
15.39949910101386
 10
170.0200706505015
 20
15.55932794385141
 10
170.0320510987449
 20
15.71048405306844
 10
170.071229892884
 20
15.83809244591538
 10
170.1354987750911
 20
15.95080874030845
 10
170.223820499974
 20
16.04648609268684
 10
170.3338091207627
 20
16.12354214985757
 10
170.4632284401264
 20
16.18151396936275
 10
170.6111838967793
 20
16.21739177588823
 10
170.7682069455486
 20
16.22746719050564
 10
170.917494046643
 20
16.21863637762589
 10
171.0596253614169
 20
16.19074899340355
 10
171.1595922609625
 20
16.13413314701137
 10
171.3125074736186
 20
16.08674602105507
 10
171.2455131717168
 20
16.00197553001184
 10
171.2296479120269
 20
15.93438901873484
 10
171.1978750531295
 20
15.86926092793191
 10
171.2150202209572
 20
15.76723453256952
 10
171.1666427208231
 20
15.774932116819
 10
171.1315789440766
 20
15.76806771724806
 10
171.1296697985718
 20
15.83263831158196
 10
171.0985692931988
 20
15.87825639621393
 10
171.0664551628456
 20
15.93561036628456
 10
171.0208038475168
 20
15.98540462692559
 10
170.9658508218387
 20
16.02994813718997
 10
170.9010841173007
 20
16.0676398883655
 10
170.8232377310596
 20
16.09283375791352
 10
170.7355160553352
 20
16.0993123099811
 10
170.6452903277806
 20
16.09235709285607
 10
170.5594594694064
 20
16.06909190460923
 10
170.4828343638597
 20
16.03131644107541
 10
170.4165265636199
 20
15.98051641089579
 10
170.3622560536964
 20
15.91731143407206
 10
170.3224925345459
 20
15.84276455710367
 10
170.2976775510588
 20
15.75917313997762
 10
170.2892124262872
 20
15.65192948382286
 10
170.3019697987103
 20
15.52965457267559
 10
170.3681548409273
 20
15.41149724291212
 10
170.4640977399832
 20
15.32606325709526
 10
170.5757914963182
 20
15.25583362306724
 10
170.7010863668702
 20
15.19659162305302
 10
170.8349823941446
 20
15.14616708086131
 10
170.9689930333149
 20
15.09322516984382
 10
171.0950885316914
 20
15.02750170625178
 10
171.2076216638416
 20
14.94480352537315
 10
171.3031370284233
 20
14.83996006310078
 10
171.3672706486962
 20
14.69937117251569
 10
171.3811103725279
 20
14.54065409451592
 10
171.367395471223
 20
14.38153155217875
 10
171.3244739153985
 20
14.23483828819211
 10
171.2545906329066
 20
14.10119796587142
 10
171.1574592213829
 20
13.98532387699292
 10
171.0347806023657
 20
13.89089981770087
 10
170.8874408413168
 20
13.82179270651982
 10
170.7177132497124
 20
13.77953210858854
 10
170.5317404979597
 20
13.76781736230408
 10
170.3528955926182
 20
13.77809486683439
 10
170.1881733753743
 20
13.81966573769152
 10
170.0834410841056
 20
13.88797642883941
 10
169.9350960790365
 20
13.93675219032108
 10
169.9980378194729
 20
14.02976591290842
 10
170.0072274430059
 20
14.1029653624828
 10
170.0303711301232
 20
14.16936294501346
 10
170.0034588335317
 20
14.26974809527582
 10
170.052133895634
 20
14.26234033517378
 10
170.0916530580697
 20
14.26894063620896
 10
170.0996204944702
 20
14.19078703218932
 10
170.1305436967922
 20
14.15600927375856
 10
170.146595483585
 20
14.13795663215993
 97
        1
330
BD
 75
     1
 76
     2
 52
45.0
 41
0.1
 77
     0
 78
     1
 53
45.0
 43
0.0
 44
0.0
 45
-0.282842712474619
 46
0.0
 79
     0
 98
        1
 10
0.0
 20
0.0
  0
ENDBLK
  5
4B
330
49
100
AcDbEntity
  8
0
100
AcDbBlockEnd
  0
BLOCK
  5
4E
330
4C
100
AcDbEntity
  8
0
100
AcDbBlockBegin
  2
開示A4枠
 70
     0
 10
0.0
 20
0.0
 30
0.0
  3
開示A4枠
  1

  0
INSERT
  5
4D
330
4C
100
AcDbEntity
  8
1
100
AcDbBlockReference
  2
開示A4
 10
0.0
 20
0.0
 30
0.0
  0
ENDBLK
  5
4F
330
4C
100
AcDbEntity
  8
0
100
AcDbBlockEnd
  0
BLOCK
  5
51
330
50
100
AcDbEntity
  8
0
100
AcDbBlockBegin
  2
TOP
 70
     0
 10
-28.8666498486385
 20
271.3834510595355
 30
0.0
  3
TOP
  1

  0
LINE
  5
DA
330
50
100
AcDbEntity
  8
LAY-1
  6
Continuous
 62
     7
100
AcDbLine
 10
131.1865086214525
 20
208.0235925566034
 30
0.0
 11
134.1865086214525
 21
208.0235925566034
 31
0.0
  0
LINE
  5
DB
330
50
100
AcDbEntity
  8
LAY-1
  6
Continuous
 62
     7
100
AcDbLine
 10
131.1865086214525
 20
171.0235925566035
 30
0.0
 11
131.1865086214525
 21
162.0235925566035
 31
0.0
  0
LINE
  5
DC
330
50
100
AcDbEntity
  8
LAY-1
  6
Continuous
 62
     7
100
AcDbLine
 10
131.1865086214525
 20
162.0235925566035
 30
0.0
 11
134.1865086214525
 21
162.0235925566035
 31
0.0
  0
LINE
  5
DD
330
50
100
AcDbEntity
  8
LAY-1
  6
Continuous
 62
     7
100
AcDbLine
 10
136.1865086214525
 20
206.0235925566034
 30
0.0
 11
136.1865086214525
 21
201.0235925566034
 31
0.0
  0
LINE
  5
DE
330
50
100
AcDbEntity
  8
LAY-1
  6
Continuous
 62
     7
100
AcDbLine
 10
137.1865086214525
 20
200.0235925566034
 30
0.0
 11
145.6865086214525
 21
200.0235925566034
 31
0.0
  0
LINE
  5
DF
330
50
100
AcDbEntity
  8
LAY-1
  6
Continuous
 62
     7
100
AcDbLine
 10
145.6865086214525
 20
200.0235925566034
 30
0.0
 11
145.6865086214525
 21
199.6847957151035
 31
0.0
  0
LINE
  5
E0
330
50
100
AcDbEntity
  8
LAY-1
  6
Continuous
 62
     7
100
AcDbLine
 10
175.1865086214525
 20
168.6235925566035
 30
0.0
 11
174.8907345759525
 21
168.6235925566035
 31
0.0
  0
LINE
  5
E1
330
50
100
AcDbEntity
  8
LAY-1
  6
Continuous
 62
     7
100
AcDbLine
 10
136.1865086214525
 20
164.0235925566035
 30
0.0
 11
136.1865086214525
 21
169.1235925566035
 31
0.0
  0
LINE
  5
E2
330
50
100
AcDbEntity
  8
LAY-1
  6
Continuous
 62
     7
100
AcDbLine
 10
137.1865086214525
 20
170.1235925566035
 30
0.0
 11
145.6865086214525
 21
170.1235925566035
 31
0.0
  0
LINE
  5
E3
330
50
100
AcDbEntity
  8
LAY-1
  6
Continuous
 62
     7
100
AcDbLine
 10
174.8907345759525
 20
168.6235925566035
 30
0.0
 11
162.1865086214525
 21
168.6235925566035
 31
0.0
  0
LINE
  5
E4
330
50
100
AcDbEntity
  8
LAY-1
  6
Continuous
 62
     7
100
AcDbLine
 10
149.1865086214525
 20
168.6235925566035
 30
0.0
 11
149.4822826669525
 21
168.6235925566035
 31
0.0
  0
LINE
  5
E5
330
50
100
AcDbEntity
  8
LAY-1
  6
Continuous
 62
     7
100
AcDbLine
 10
145.6865086214525
 20
199.6847957151035
 30
0.0
 11
145.6865086214525
 21
185.0235925566035
 31
0.0
  0
LINE
  5
E6
330
50
100
AcDbEntity
  8
LAY-1
  6
Continuous
 62
     7
100
AcDbLine
 10
136.1865086214525
 20
201.0235925566034
 30
0.0
 11
136.1865086214525
 21
185.0235925566035
 31
0.0
  0
LINE
  5
E7
330
50
100
AcDbEntity
  8
LAY-1
  6
Continuous
 62
     7
100
AcDbLine
 10
175.1865086214525
 20
152.0166309750035
 30
0.0
 11
175.1865086214525
 21
168.6235925566035
 31
0.0
  0
LINE
  5
E8
330
50
100
AcDbEntity
  8
LAY-1
  6
Continuous
 62
     7
100
AcDbLine
 10
149.1865086214525
 20
152.0166309750035
 30
0.0
 11
149.1865086214525
 21
168.6235925566035
 31
0.0
  0
LINE
  5
E9
330
50
100
AcDbEntity
  8
LAY-1
  6
Continuous
 62
     7
100
AcDbLine
 10
150.1865086214525
 20
151.0166309750035
 30
0.0
 11
174.1865086214525
 21
151.0166309750035
 31
0.0
  0
LINE
  5
EA
330
50
100
AcDbEntity
  8
LAY-1
  6
Continuous
 62
     7
100
AcDbLine
 10
175.1865086214525
 20
152.0166309750035
 30
0.0
 11
174.1865086214525
 21
151.0166309750035
 31
0.0
  0
LINE
  5
EB
330
50
100
AcDbEntity
  8
LAY-1
  6
Continuous
 62
     7
100
AcDbLine
 10
149.1865086214525
 20
152.0166309750035
 30
0.0
 11
150.1865086214525
 21
151.0166309750035
 31
0.0
  0
LINE
  5
EC
330
50
100
AcDbEntity
  8
LAY-1
  6
Continuous
 62
     7
100
AcDbLine
 10
175.1865086214525
 20
152.0166309750035
 30
0.0
 11
162.1865086214525
 21
152.0166309750035
 31
0.0
  0
LINE
  5
ED
330
50
100
AcDbEntity
  8
LAY-1
  6
Continuous
 62
     7
100
AcDbLine
 10
131.1865086214525
 20
185.0235925566035
 30
0.0
 11
131.1865086214525
 21
208.0235925566034
 31
0.0
  0
LINE
  5
EE
330
50
100
AcDbEntity
  8
1
  6
Continuous
 62
     7
100
AcDbLine
 10
136.1865086214525
 20
185.0235925566035
 30
0.0
 11
136.1865086214525
 21
169.1235925566035
 31
0.0
  0
LINE
  5
EF
330
50
100
AcDbEntity
  8
1
  6
Continuous
 62
     7
100
AcDbLine
 10
145.6865086214525
 20
185.0235925566035
 30
0.0
 11
145.6865086214525
 21
170.1235925566035
 31
0.0
  0
LINE
  5
F0
330
50
100
AcDbEntity
  8
LAY-1
  6
Continuous
 62
     7
100
AcDbLine
 10
145.6865086214525
 20
170.1235925566035
 30
0.0
 11
145.8148844742525
 21
170.1235925566035
 31
0.0
  0
LINE
  5
F1
330
50
100
AcDbEntity
  8
LAY-1
  6
DOT_CENTER
 62
     2
100
AcDbLine
 10
145.6865086214525
 20
185.0235925566035
 30
0.0
 11
146.1865086214525
 21
185.0235925566035
 31
0.0
  0
LINE
  5
F2
330
50
100
AcDbEntity
  8
1
  6
Continuous
 62
     7
100
AcDbLine
 10
162.1865086214525
 20
168.6235925566035
 30
0.0
 11
149.4822826669525
 21
168.6235925566035
 31
0.0
  0
LINE
  5
F3
330
50
100
AcDbEntity
  8
1
  6
Continuous
 62
     7
100
AcDbLine
 10
162.1865086214525
 20
152.0166309750035
 30
0.0
 11
149.1865086214525
 21
152.0166309750035
 31
0.0
  0
LINE
  5
F4
330
50
100
AcDbEntity
  8
1
  6
Continuous
 62
     7
100
AcDbLine
 10
131.1865086214525
 20
185.0235925566035
 30
0.0
 11
131.1865086214525
 21
171.0235925566035
 31
0.0
  0
LINE
  5
F5
330
50
100
AcDbEntity
  8
LAY-1
  6
Continuous
 62
     7
100
AcDbLine
 10
131.1865086214525
 20
135.0235925566034
 30
0.0
 11
134.1865086214525
 21
135.0235925566034
 31
0.0
  0
LINE
  5
F6
330
50
100
AcDbEntity
  8
LAY-1
  6
Continuous
 62
     7
100
AcDbLine
 10
131.1865086214525
 20
98.0235925566035
 30
0.0
 11
131.1865086214525
 21
89.0235925566035
 31
0.0
  0
LINE
  5
F7
330
50
100
AcDbEntity
  8
LAY-1
  6
Continuous
 62
     7
100
AcDbLine
 10
131.1865086214525
 20
89.0235925566035
 30
0.0
 11
134.1865086214525
 21
89.0235925566035
 31
0.0
  0
LINE
  5
F8
330
50
100
AcDbEntity
  8
LAY-1
  6
Continuous
 62
     7
100
AcDbLine
 10
136.1865086214525
 20
133.0235925566034
 30
0.0
 11
136.1865086214525
 21
128.0235925566034
 31
0.0
  0
LINE
  5
F9
330
50
100
AcDbEntity
  8
LAY-1
  6
Continuous
 62
     7
100
AcDbLine
 10
137.1865086214525
 20
127.0235925566034
 30
0.0
 11
145.6865086214525
 21
127.0235925566034
 31
0.0
  0
LINE
  5
FA
330
50
100
AcDbEntity
  8
LAY-1
  6
Continuous
 62
     7
100
AcDbLine
 10
145.6865086214525
 20
127.0235925566034
 30
0.0
 11
145.6865086214525
 21
126.5495882854713
 31
0.0
  0
LINE
  5
FB
330
50
100
AcDbEntity
  8
LAY-1
  6
Continuous
 62
     7
100
AcDbLine
 10
136.1865086214525
 20
91.0235925566035
 30
0.0
 11
136.1865086214525
 21
96.1235925566035
 31
0.0
  0
LINE
  5
FC
330
50
100
AcDbEntity
  8
LAY-1
  6
Continuous
 62
     7
100
AcDbLine
 10
137.1865086214525
 20
97.1235925566035
 30
0.0
 11
145.6865086214525
 21
97.1235925566035
 31
0.0
  0
LINE
  5
FD
330
50
100
AcDbEntity
  8
LAY-1
  6
Continuous
 62
     7
100
AcDbLine
 10
145.6865086214525
 20
126.5495882854713
 30
0.0
 11
145.6865086214525
 21
112.0235925566035
 31
0.0
  0
LINE
  5
FE
330
50
100
AcDbEntity
  8
LAY-1
  6
Continuous
 62
     7
100
AcDbLine
 10
136.1865086214525
 20
128.0235925566034
 30
0.0
 11
136.1865086214525
 21
112.0235925566035
 31
0.0
  0
LINE
  5
FF
330
50
100
AcDbEntity
  8
LAY-1
  6
Continuous
 62
     7
100
AcDbLine
 10
131.1865086214525
 20
112.0235925566035
 30
0.0
 11
131.1865086214525
 21
135.0235925566034
 31
0.0
  0
LINE
  5
100
330
50
100
AcDbEntity
  8
1
  6
Continuous
 62
     7
100
AcDbLine
 10
136.1865086214525
 20
112.0235925566035
 30
0.0
 11
136.1865086214525
 21
96.1235925566035
 31
0.0
  0
LINE
  5
101
330
50
100
AcDbEntity
  8
1
  6
Continuous
 62
     7
100
AcDbLine
 10
145.6865086214525
 20
112.0235925566035
 30
0.0
 11
145.6865086214525
 21
97.1235925566035
 31
0.0
  0
LINE
  5
102
330
50
100
AcDbEntity
  8
LAY-1
  6
DOT_CENTER
 62
     2
100
AcDbLine
 10
145.6865086214525
 20
112.0235925566035
 30
0.0
 11
146.1865086214525
 21
112.0235925566035
 31
0.0
  0
LINE
  5
103
330
50
100
AcDbEntity
  8
1
  6
Continuous
 62
     7
100
AcDbLine
 10
131.1865086214525
 20
112.0235925566035
 30
0.0
 11
131.1865086214525
 21
98.0235925566035
 31
0.0
  0
LINE
  5
104
330
50
100
AcDbEntity
  8
1
  6
Continuous
 62
     7
100
AcDbLine
 10
146.1425461933138
 20
126.051524730378
 30
0.0
 11
162.1865086214525
 21
125.0235925566035
 31
0.0
  0
LINE
  5
105
330
50
100
AcDbEntity
  8
1
  6
Continuous
 62
     7
100
AcDbLine
 10
146.1425461933138
 20
98.1235925566035
 30
0.0
 11
162.1865086214525
 21
99.0235925566035
 31
0.0
  0
LINE
  5
106
330
50
100
AcDbEntity
  8
LAY-1
  6
Continuous
 62
     7
100
AcDbLine
 10
82.48650862145249
 20
152.0166309750035
 30
0.0
 11
82.48650862145249
 21
163.0861815881232
 31
0.0
  0
LINE
  5
107
330
50
100
AcDbEntity
  8
LAY-1
  6
Continuous
 62
     7
100
AcDbLine
 10
56.48650862145249
 20
152.0166309750035
 30
0.0
 11
56.48650862145249
 21
163.0861815881232
 31
0.0
  0
LINE
  5
108
330
50
100
AcDbEntity
  8
LAY-1
  6
Continuous
 62
     7
100
AcDbLine
 10
57.48650862145249
 20
151.0166309750035
 30
0.0
 11
81.48650862145249
 21
151.0166309750035
 31
0.0
  0
LINE
  5
109
330
50
100
AcDbEntity
  8
LAY-1
  6
Continuous
 62
     7
100
AcDbLine
 10
82.48650862145249
 20
152.0166309750035
 30
0.0
 11
81.48650862145249
 21
151.0166309750035
 31
0.0
  0
LINE
  5
10A
330
50
100
AcDbEntity
  8
LAY-1
  6
Continuous
 62
     7
100
AcDbLine
 10
56.48650862145249
 20
152.0166309750035
 30
0.0
 11
57.48650862145249
 21
151.0166309750035
 31
0.0
  0
LINE
  5
10B
330
50
100
AcDbEntity
  8
LAY-1
  6
Continuous
 62
     7
100
AcDbLine
 10
82.48650862145249
 20
152.0166309750035
 30
0.0
 11
69.48650862145249
 21
152.0166309750035
 31
0.0
  0
LINE
  5
10C
330
50
100
AcDbEntity
  8
1
  6
Continuous
 62
     7
100
AcDbLine
 10
69.48650862145249
 20
152.0166309750035
 30
0.0
 11
56.48650862145249
 21
152.0166309750035
 31
0.0
  0
ARC
  5
10D
330
50
100
AcDbEntity
  8
LAY-1
  6
Continuous
 62
     7
100
AcDbCircle
 10
174.8907345759525
 20
169.1235925566035
 30
0.0
 40
0.5000000000000391
100
AcDbArc
 50
179.9786139686012
 51
270.0
  0
ARC
  5
10E
330
50
100
AcDbEntity
  8
LAY-1
  6
Continuous
 62
     7
100
AcDbCircle
 10
145.8148844742525
 20
171.1235925566035
 30
0.0
 40
1.0
100
AcDbArc
 50
270.0
 51
298.0041708948987
  0
ARC
  5
10F
330
50
100
AcDbEntity
  8
LAY-1
  6
Continuous
 62
     7
100
AcDbCircle
 10
134.1865086214525
 20
206.0235925566034
 30
0.0
 40
2.0
100
AcDbArc
 50
0.0
 51
90.0
  0
ARC
  5
110
330
50
100
AcDbEntity
  8
LAY-1
  6
Continuous
 62
     7
100
AcDbCircle
 10
134.1865086214525
 20
164.0235925566035
 30
0.0
 40
2.0
100
AcDbArc
 50
270.0
 51
0.0
  0
ARC
  5
111
330
50
100
AcDbEntity
  8
LAY-1
  6
Continuous
 62
     7
100
AcDbCircle
 10
143.4193954600525
 20
168.3353394441035
 30
0.0
 40
30.97134130819003
100
AcDbArc
 50
1.45826806310981
 51
84.95576321365995
  0
ARC
  5
112
330
50
100
AcDbEntity
  8
LAY-1
  6
Continuous
 62
     7
100
AcDbCircle
 10
149.4822826669525
 20
169.1235925566035
 30
0.0
 40
0.5
100
AcDbArc
 50
270.0
 51
0.02138602838616
  0
ARC
  5
113
330
50
100
AcDbEntity
  8
LAY-1
  6
Continuous
 62
     7
100
AcDbCircle
 10
147.7446666007525
 20
168.3953608725035
 30
0.0
 40
2.353193307359979
100
AcDbArc
 50
18.03178892609994
 51
128.3554458208011
  0
ARC
  5
114
330
50
100
AcDbEntity
  8
LAY-1
  6
Continuous
 62
     7
100
AcDbCircle
 10
137.1865086214525
 20
201.0235925566034
 30
0.0
 40
1.0
100
AcDbArc
 50
180.0
 51
270.0
  0
ARC
  5
115
330
50
100
AcDbEntity
  8
LAY-1
  6
Continuous
 62
     7
100
AcDbCircle
 10
137.1865086214525
 20
169.1235925566035
 30
0.0
 40
1.0
100
AcDbArc
 50
90.0
 51
180.0
  0
ARC
  5
116
330
50
100
AcDbEntity
  8
LAY-1
  6
Continuous
 62
     7
100
AcDbCircle
 10
146.1865086214525
 20
199.6847957151035
 30
0.0
 40
0.5
100
AcDbArc
 50
180.0
 51
264.955763213704
  0
ARC
  5
117
330
50
100
AcDbEntity
  8
LAY-1
  6
Continuous
 62
     7
100
AcDbCircle
 10
134.1865086214525
 20
133.0235925566034
 30
0.0
 40
2.0
100
AcDbArc
 50
0.0
 51
90.0
  0
ARC
  5
118
330
50
100
AcDbEntity
  8
LAY-1
  6
Continuous
 62
     7
100
AcDbCircle
 10
134.1865086214525
 20
91.0235925566035
 30
0.0
 40
2.0
100
AcDbArc
 50
270.0
 51
0.0
  0
ARC
  5
119
330
50
100
AcDbEntity
  8
LAY-1
  6
Continuous
 62
     7
100
AcDbCircle
 10
137.1865086214525
 20
128.0235925566034
 30
0.0
 40
1.0
100
AcDbArc
 50
180.0
 51
270.0
  0
ARC
  5
11A
330
50
100
AcDbEntity
  8
LAY-1
  6
Continuous
 62
     7
100
AcDbCircle
 10
137.1865086214525
 20
96.1235925566035
 30
0.0
 40
1.0
100
AcDbArc
 50
90.0
 51
180.0
  0
ARC
  5
11B
330
50
100
AcDbEntity
  8
LAY-1
  6
Continuous
 62
     7
100
AcDbCircle
 10
146.1865086214525
 20
126.5495882854713
 30
0.0
 40
0.5
100
AcDbArc
 50
180.0
 51
264.955763213704
  0
ARC
  5
11C
330
50
100
AcDbEntity
  8
LAY-1
  6
Continuous
 62
     7
100
AcDbCircle
 10
146.1865086214525
 20
97.6255290015102
 30
0.0
 40
0.5000000000000241
100
AcDbArc
 50
95.04423678629594
 51
180.0
  0
CIRCLE
  5
11D
330
50
100
AcDbEntity
  8
1
  6
Continuous
 62
     7
100
AcDbCircle
 10
162.1865086214525
 20
112.0235925566035
 30
0.0
 40
13.0
  0
CIRCLE
  5
11E
330
50
100
AcDbEntity
  8
1
  6
Continuous
 62
     7
100
AcDbCircle
 10
162.1865086214525
 20
112.0235925566035
 30
0.0
 40
12.0
  0
CIRCLE
  5
11F
330
50
100
AcDbEntity
  8
1
  6
Continuous
 62
     2
100
AcDbCircle
 10
162.1865086214525
 20
112.0235925566035
 30
0.0
 40
10.73249999999999
  0
CIRCLE
  5
120
330
50
100
AcDbEntity
  8
1
  6
Continuous
 62
     7
100
AcDbCircle
 10
162.1865086214525
 20
112.0235925566035
 30
0.0
 40
9.532499999999999
  0
ENDBLK
  5
52
330
50
100
AcDbEntity
  8
0
100
AcDbBlockEnd
  0
BLOCK
  5
54
330
53
100
AcDbEntity
  8
0
100
AcDbBlockBegin
  2
_1
 70
     0
 10
43.98650862145249
 20
86.5235925566035
 30
0.0
  3
_1
  1

  0
LINE
  5
121
330
53
100
AcDbEntity
  8
LAY-1
  6
Continuous
 62
     7
100
AcDbLine
 10
131.1865086214525
 20
210.5235925566035
 30
0.0
 11
131.1865086214525
 21
159.5235925566035
 31
0.0
  0
LINE
  5
122
330
53
100
AcDbEntity
  8
LAY-1
  6
Continuous
 62
     7
100
AcDbLine
 10
130.1865086214525
 20
210.5235925566035
 30
0.0
 11
130.1865086214525
 21
159.5235925566035
 31
0.0
  0
LINE
  5
123
330
53
100
AcDbEntity
  8
LAY-1
  6
Continuous
 62
     7
100
AcDbLine
 10
131.1865086214525
 20
210.5235925566035
 30
0.0
 11
130.1865086214525
 21
210.5235925566035
 31
0.0
  0
LINE
  5
124
330
53
100
AcDbEntity
  8
LAY-1
  6
Continuous
 62
     7
100
AcDbLine
 10
131.1865086214525
 20
159.5235925566035
 30
0.0
 11
130.1865086214525
 21
159.5235925566035
 31
0.0
  0
LINE
  5
125
330
53
100
AcDbEntity
  8
LAY-1
  6
Continuous
 62
     7
100
AcDbLine
 10
131.1865086214525
 20
137.5235925566035
 30
0.0
 11
131.1865086214525
 21
86.5235925566035
 31
0.0
  0
LINE
  5
126
330
53
100
AcDbEntity
  8
LAY-1
  6
Continuous
 62
     7
100
AcDbLine
 10
130.1865086214525
 20
137.5235925566035
 30
0.0
 11
130.1865086214525
 21
86.5235925566035
 31
0.0
  0
LINE
  5
127
330
53
100
AcDbEntity
  8
LAY-1
  6
Continuous
 62
     7
100
AcDbLine
 10
131.1865086214525
 20
137.5235925566035
 30
0.0
 11
130.1865086214525
 21
137.5235925566035
 31
0.0
  0
LINE
  5
128
330
53
100
AcDbEntity
  8
LAY-1
  6
Continuous
 62
     7
100
AcDbLine
 10
131.1865086214525
 20
86.5235925566035
 30
0.0
 11
130.1865086214525
 21
86.5235925566035
 31
0.0
  0
CIRCLE
  5
129
330
53
100
AcDbEntity
  8
LAY-1
  6
Continuous
 62
     7
100
AcDbCircle
 10
69.48650862145249
 20
185.0235925566035
 30
0.0
 40
25.5
  0
ENDBLK
  5
55
330
53
100
AcDbEntity
  8
0
100
AcDbBlockEnd
  0
BLOCK
  5
57
330
56
100
AcDbEntity
  8
0
100
AcDbBlockBegin
  2
nut
 70
     0
 10
46.48650862145249
 20
89.0235925566035
 30
0.0
  3
nut
  1

  0
LINE
  5
12A
330
56
100
AcDbEntity
  8
LAY-1
  6
Continuous
 62
     7
100
AcDbLine
 10
130.1865086214525
 20
185.0235925566035
 30
0.0
 11
130.1865086214525
 21
162.0235925566035
 31
0.0
  0
LINE
  5
12B
330
56
100
AcDbEntity
  8
LAY-1
  6
Continuous
 62
     7
100
AcDbLine
 10
130.1865086214525
 20
185.0235925566035
 30
0.0
 11
130.1865086214525
 21
208.0235925566035
 31
0.0
  0
LINE
  5
12C
330
56
100
AcDbEntity
  8
LAY-1
  6
Continuous
 62
     7
100
AcDbLine
 10
126.1865086214525
 20
208.0235925566035
 30
0.0
 11
126.1865086214525
 21
162.0235925566035
 31
0.0
  0
LINE
  5
12D
330
56
100
AcDbEntity
  8
LAY-1
  6
Continuous
 62
     7
100
AcDbLine
 10
130.1865086214525
 20
208.0235925566035
 30
0.0
 11
126.1865086214525
 21
208.0235925566035
 31
0.0
  0
LINE
  5
12E
330
56
100
AcDbEntity
  8
LAY-1
  6
Continuous
 62
     7
100
AcDbLine
 10
130.1865086214525
 20
162.0235925566035
 30
0.0
 11
126.1865086214525
 21
162.0235925566035
 31
0.0
  0
LINE
  5
12F
330
56
100
AcDbEntity
  8
LAY-1
  6
DOT_CENTER
 62
     2
100
AcDbLine
 10
72.08650862145251
 20
165.9235925566035
 30
0.0
 11
65.58650862145251
 21
165.9235925566035
 31
0.0
  0
LINE
  5
130
330
56
100
AcDbEntity
  8
LAY-1
  6
DOT_CENTER
 62
     2
100
AcDbLine
 10
72.08650862145251
 20
165.9235925566035
 30
0.0
 11
73.38650862145246
 21
165.9235925566035
 31
0.0
  0
LINE
  5
131
330
56
100
AcDbEntity
  8
LAY-1
  6
DOT_CENTER
 62
     2
100
AcDbLine
 10
66.2865086214525
 20
165.9235925566035
 30
0.0
 11
72.7865086214525
 21
165.9235925566035
 31
0.0
  0
LINE
  5
132
330
56
100
AcDbEntity
  8
LAY-1
  6
DOT_CENTER
 62
     2
100
AcDbLine
 10
66.2865086214525
 20
165.9235925566035
 30
0.0
 11
64.98650862145249
 21
165.9235925566035
 31
0.0
  0
LINE
  5
133
330
56
100
AcDbEntity
  8
LAY-1
  6
DOT_CENTER
 62
     2
100
AcDbLine
 10
72.08650862145251
 20
204.1235925566035
 30
0.0
 11
65.58650862145251
 21
204.1235925566035
 31
0.0
  0
LINE
  5
134
330
56
100
AcDbEntity
  8
LAY-1
  6
DOT_CENTER
 62
     2
100
AcDbLine
 10
72.08650862145251
 20
204.1235925566035
 30
0.0
 11
73.38650862145246
 21
204.1235925566035
 31
0.0
  0
LINE
  5
135
330
56
100
AcDbEntity
  8
LAY-1
  6
DOT_CENTER
 62
     2
100
AcDbLine
 10
66.2865086214525
 20
204.1235925566035
 30
0.0
 11
72.7865086214525
 21
204.1235925566035
 31
0.0
  0
LINE
  5
136
330
56
100
AcDbEntity
  8
LAY-1
  6
DOT_CENTER
 62
     2
100
AcDbLine
 10
66.2865086214525
 20
204.1235925566035
 30
0.0
 11
64.98650862145249
 21
204.1235925566035
 31
0.0
  0
LINE
  5
137
330
56
100
AcDbEntity
  8
LAY-1
  6
Continuous
 62
     7
100
AcDbLine
 10
130.1865086214525
 20
112.0235925566035
 30
0.0
 11
130.1865086214525
 21
89.0235925566035
 31
0.0
  0
LINE
  5
138
330
56
100
AcDbEntity
  8
LAY-1
  6
Continuous
 62
     7
100
AcDbLine
 10
130.1865086214525
 20
112.0235925566035
 30
0.0
 11
130.1865086214525
 21
135.0235925566035
 31
0.0
  0
LINE
  5
139
330
56
100
AcDbEntity
  8
LAY-1
  6
Continuous
 62
     7
100
AcDbLine
 10
126.1865086214525
 20
135.0235925566035
 30
0.0
 11
126.1865086214525
 21
89.0235925566035
 31
0.0
  0
LINE
  5
13A
330
56
100
AcDbEntity
  8
LAY-1
  6
Continuous
 62
     7
100
AcDbLine
 10
130.1865086214525
 20
135.0235925566035
 30
0.0
 11
126.1865086214525
 21
135.0235925566035
 31
0.0
  0
LINE
  5
13B
330
56
100
AcDbEntity
  8
LAY-1
  6
Continuous
 62
     7
100
AcDbLine
 10
130.1865086214525
 20
89.0235925566035
 30
0.0
 11
126.1865086214525
 21
89.0235925566035
 31
0.0
  0
CIRCLE
  5
13C
330
56
100
AcDbEntity
  8
LAY-1
  6
Continuous
 62
     7
100
AcDbCircle
 10
69.48650862145249
 20
165.9235925566035
 30
0.0
 40
2.5
  0
CIRCLE
  5
13D
330
56
100
AcDbEntity
  8
LAY-1
  6
Continuous
 62
     7
100
AcDbCircle
 10
69.48650862145249
 20
204.1235925566035
 30
0.0
 40
2.5
  0
CIRCLE
  5
13E
330
56
100
AcDbEntity
  8
LAY-1
  6
Continuous
 62
     7
100
AcDbCircle
 10
69.48650862145249
 20
185.0235925566035
 30
0.0
 40
23.0
  0
CIRCLE
  5
13F
330
56
100
AcDbEntity
  8
LAY-1
  6
Continuous
 62
     2
100
AcDbCircle
 10
69.48650862145249
 20
185.0235925566035
 30
0.0
 40
14.0
  0
CIRCLE
  5
140
330
56
100
AcDbEntity
  8
LAY-1
  6
Continuous
 62
     7
100
AcDbCircle
 10
69.48650862145249
 20
185.0235925566035
 30
0.0
 40
13.0
  0
ENDBLK
  5
58
330
56
100
AcDbEntity
  8
0
100
AcDbBlockEnd
  0
BLOCK
  5
174
330
16D
100
AcDbEntity
  8
0
100
AcDbBlockBegin
  2
*D6
 70
     1
 10
0.0
 20
0.0
 30
0.0
  3
*D6
  1

  0
LINE
  5
16E
330
16D
100
AcDbEntity
  8
1
  6
Continuous
 62
     2
100
AcDbLine
 10
126.1865086214525
 20
221.5235925566035
 30
0.0
 11
162.1865086214525
 21
221.5235925566035
 31
0.0
  0
LINE
  5
16F
330
16D
100
AcDbEntity
  8
1
  6
Continuous
 62
     2
100
AcDbLine
 10
162.1865086214525
 20
169.0235925566035
 30
0.0
 11
162.1865086214525
 21
222.5235925566035
 31
0.0
  0
LINE
  5
170
330
16D
100
AcDbEntity
  8
1
  6
Continuous
 62
     2
100
AcDbLine
 10
126.1865086214525
 20
208.0235925566035
 30
0.0
 11
126.1865086214525
 21
222.5235925566035
 31
0.0
  0
SOLID
  5
171
330
16D
100
AcDbEntity
  8
1
 62
     2
100
AcDbTrace
 10
129.6865086214525
 20
221.9843762981594
 30
0.0
 11
129.6865086214525
 21
221.0628088150476
 31
0.0
 12
126.1865086214525
 22
221.5235925566035
 32
0.0
 13
126.1865086214525
 23
221.5235925566035
 33
0.0
  0
SOLID
  5
172
330
16D
100
AcDbEntity
  8
1
 62
     2
100
AcDbTrace
 10
158.6865086214525
 20
221.0628088150476
 30
0.0
 11
158.6865086214525
 21
221.9843762981594
 31
0.0
 12
162.1865086214525
 22
221.5235925566035
 32
0.0
 13
162.1865086214525
 23
221.5235925566035
 33
0.0
  0
MTEXT
  5
173
330
16D
100
AcDbEntity
  8
1
 62
     7
100
AcDbMText
 10
142.1307540060335
 20
222.5235925566035
 30
0.0
 40
3.5
 41
0.0
 71
     7
 72
     1
  1
36
  7
CONVERTER_12
 11
0.9999999999970619
 21
2.424068405545306E-6
 31
0.0
 73
     1
 44
0.60024009603842
  0
ENDBLK
  5
175
330
16D
100
AcDbEntity
  8
0
100
AcDbBlockEnd
  0
BLOCK
  5
17F
330
178
100
AcDbEntity
  8
0
100
AcDbBlockBegin
  2
*D7
 70
     1
 10
0.0
 20
0.0
 30
0.0
  3
*D7
  1

  0
LINE
  5
179
330
178
100
AcDbEntity
  8
1
  6
Continuous
 62
     2
100
AcDbLine
 10
184.1865086214525
 20
151.0166309750035
 30
0.0
 11
184.1865086214525
 21
185.0235925566035
 31
0.0
  0
LINE
  5
17A
330
178
100
AcDbEntity
  8
1
  6
Continuous
 62
     2
100
AcDbLine
 10
172.0954109216595
 20
185.0235925566035
 30
0.0
 11
185.1865086214525
 21
185.0235925566035
 31
0.0
  0
LINE
  5
17B
330
178
100
AcDbEntity
  8
1
  6
Continuous
 62
     2
100
AcDbLine
 10
174.1865086214525
 20
151.0166309750035
 30
0.0
 11
185.1865086214525
 21
151.0166309750035
 31
0.0
  0
SOLID
  5
17C
330
178
100
AcDbEntity
  8
1
 62
     2
100
AcDbTrace
 10
183.7257248798966
 20
154.5166309750035
 30
0.0
 11
184.6472923630084
 21
154.5166309750035
 31
0.0
 12
184.1865086214525
 22
151.0166309750035
 32
0.0
 13
184.1865086214525
 23
151.0166309750035
 33
0.0
  0
SOLID
  5
17D
330
178
100
AcDbEntity
  8
1
 62
     2
100
AcDbTrace
 10
184.6472923630084
 20
181.5235925566035
 30
0.0
 11
183.7257248798966
 21
181.5235925566035
 31
0.0
 12
184.1865086214525
 22
185.0235925566035
 32
0.0
 13
184.1865086214525
 23
185.0235925566035
 33
0.0
  0
MTEXT
  5
17E
330
178
100
AcDbEntity
  8
1
 62
     7
100
AcDbMText
 10
183.1865086214525
 20
165.5239442825995
 30
0.0
 40
3.5
 41
0.0
 71
     7
 72
     1
  1
34
  7
CONVERTER_12
 11
0.0
 21
1.0
 31
0.0
 73
     1
 44
0.60024009603842
  0
ENDBLK
  5
180
330
178
100
AcDbEntity
  8
0
100
AcDbBlockEnd
  0
BLOCK
  5
188
330
183
100
AcDbEntity
  8
0
100
AcDbBlockBegin
  2
*D8
 70
     1
 10
0.0
 20
0.0
 30
0.0
  3
*D8
  1

  0
LINE
  5
184
330
183
100
AcDbEntity
  8
1
  6
Continuous
 62
     2
100
AcDbLine
 10
91.65620981795254
 20
206.3324369377027
 30
0.0
 11
39.12357597390513
 21
155.8396626061842
 31
0.0
  0
SOLID
  5
185
330
183
100
AcDbEntity
  8
1
 62
     2
100
AcDbTrace
 10
48.8978072992949
 20
164.595237274705
 30
0.0
 11
48.25918817460188
 21
165.2596559977294
 31
0.0
 12
51.10187836094024
 22
167.3528435576432
 32
0.0
 13
51.10187836094024
 23
167.3528435576432
 33
0.0
  0
SOLID
  5
186
330
183
100
AcDbEntity
  8
1
 62
     2
100
AcDbTrace
 10
90.07520994361008
 20
205.451947838502
 30
0.0
 11
90.7138290683031
 21
204.7875291154776
 31
0.0
 12
87.87113888196473
 22
202.6943415555638
 32
0.0
 13
87.87113888196473
 23
202.6943415555638
 33
0.0
  0
MTEXT
  5
187
330
183
100
AcDbEntity
  8
1
 62
     7
100
AcDbMText
 10
39.38949006204322
 20
157.4822793288952
 30
0.0
 40
3.5
 41
0.0
 71
     7
 72
     1
  1
\C7;{\Fgdt;n}\C7;51
  7
CONVERTER_12
 11
0.7209658925691076
 21
0.6929705489788365
 31
0.0
 73
     1
 44
0.60024009603842
  0
ENDBLK
  5
189
330
183
100
AcDbEntity
  8
0
100
AcDbBlockEnd
  0
BLOCK
  5
190
330
18B
100
AcDbEntity
  8
0
100
AcDbBlockBegin
  2
*D9
 70
     1
 10
0.0
 20
0.0
 30
0.0
  3
*D9
  1

  0
LINE
  5
18C
330
18B
100
AcDbEntity
  8
1
  6
Continuous
 62
     2
100
AcDbLine
 10
95.73054329071988
 20
195.4788852009197
 30
0.0
 11
32.41012311427267
 21
170.2528278645041
 31
0.0
  0
SOLID
  5
18D
330
18B
100
AcDbEntity
  8
1
 62
     2
100
AcDbTrace
 10
45.03874614811173
 20
174.7879083242918
 30
0.0
 11
44.69767507811459
 21
175.6440374916141
 31
0.0
 12
48.1196839349693
 22
176.5113188992842
 32
0.0
 13
48.1196839349693
 23
176.5113188992842
 33
0.0
  0
SOLID
  5
18E
330
18B
100
AcDbEntity
  8
1
 62
     2
100
AcDbTrace
 10
93.93427109479325
 20
195.2592767889152
 30
0.0
 11
94.27534216479039
 21
194.4031476215929
 31
0.0
 12
90.85333330793567
 22
193.5358662139229
 32
0.0
 13
90.85333330793567
 23
193.5358662139229
 33
0.0
  0
MTEXT
  5
18F
330
18B
100
AcDbEntity
  8
1
 62
     7
100
AcDbMText
 10
33.27558412191195
 20
171.6740517188831
 30
0.0
 40
3.5
 41
0.0
 71
     7
 72
     1
  1
\C7;{\Fgdt;n}\C7;46
  7
CONVERTER_12
 11
0.9289923776731818
 21
0.3700988546660586
 31
0.0
 73
     1
 44
0.60024009603842
  0
ENDBLK
  5
191
330
18B
100
AcDbEntity
  8
0
100
AcDbBlockEnd
  0
BLOCK
  5
198
330
193
100
AcDbEntity
  8
0
100
AcDbBlockBegin
  2
*D10
 70
     1
 10
0.0
 20
0.0
 30
0.0
  3
*D10
  1

  0
LINE
  5
194
330
193
100
AcDbEntity
  8
1
  6
Continuous
 62
     2
100
AcDbLine
 10
64.28761926128264
 20
198.3760670524659
 30
0.0
 11
81.69664803369032
 21
217.6222617567152
 31
0.0
  0
SOLID
  5
195
330
193
100
AcDbEntity
  8
1
 62
     2
100
AcDbTrace
 10
73.16973053816666
 20
208.8823947135248
 30
0.0
 11
73.85317990758199
 21
208.2641847286695
 31
0.0
 12
71.16356970537825
 22
205.9776330418092
 32
0.0
 13
71.16356970537825
 23
205.9776330418092
 33
0.0
  0
SOLID
  5
196
330
193
100
AcDbEntity
  8
1
 62
     2
100
AcDbTrace
 10
65.80328670473831
 20
199.3647903996822
 30
0.0
 11
65.11983733532298
 21
199.9830003845375
 31
0.0
 12
67.80944753752672
 22
202.2695520713978
 32
0.0
 13
67.80944753752672
 23
202.2695520713978
 33
0.0
  0
MTEXT
  5
197
330
193
100
AcDbEntity
  8
1
 62
     7
100
AcDbMText
 10
77.62103440476365
 20
214.6072537056966
 30
0.0
 40
3.5
 41
0.0
 71
     7
 72
     1
  1
\C7;{\Fgdt;n}\C7;5
  7
CONVERTER_12
 11
0.6708244335703027
 21
0.7416161940822776
 31
0.0
 73
     1
 44
0.60024009603842
  0
ENDBLK
  5
199
330
193
100
AcDbEntity
  8
0
100
AcDbBlockEnd
  0
BLOCK
  5
1A0
330
19B
100
AcDbEntity
  8
0
100
AcDbBlockBegin
  2
*D11
 70
     1
 10
0.0
 20
0.0
 30
0.0
  3
*D11
  1

  0
LINE
  5
19C
330
19B
100
AcDbEntity
  8
1
  6
Continuous
 62
     2
100
AcDbLine
 10
149.7892594148575
 20
98.63065739997782
 30
0.0
 11
178.6384954294532
 21
129.7969218529122
 31
0.0
  0
SOLID
  5
19D
330
19B
100
AcDbEntity
  8
1
 62
     2
100
AcDbTrace
 10
173.0568299988186
 20
124.4452846639317
 30
0.0
 11
173.7331310149156
 21
123.8192626502971
 31
0.0
 12
171.0174258645065
 22
121.5637655448848
 32
0.0
 13
171.0174258645065
 23
121.5637655448848
 33
0.0
  0
SOLID
  5
19E
330
19B
100
AcDbEntity
  8
1
 62
     2
100
AcDbTrace
 10
151.3161872440864
 20
99.60190044927532
 30
0.0
 11
150.6398862279894
 21
100.2279224629099
 31
0.0
 12
153.3555913783985
 22
102.4834195683222
 32
0.0
 13
153.3555913783985
 23
102.4834195683222
 33
0.0
  0
MTEXT
  5
19F
330
19B
100
AcDbEntity
  8
1
 62
     7
100
AcDbMText
 10
172.3887091985394
 20
124.5172843589284
 30
0.0
 40
3.5
 41
0.0
 71
     7
 72
     1
  1
\C7;{\Fgdt;n}\C7;26
  7
CONVERTER_12
 11
0.6793013263887661
 21
0.7338594606370238
 31
0.0
 73
     1
 44
0.60024009603842
  0
ENDBLK
  5
1A1
330
19B
100
AcDbEntity
  8
0
100
AcDbBlockEnd
  0
ENDSEC
  0
SECTION
  2
ENTITIES
  0
INSERT
  5
59
330
1F
100
AcDbEntity
  8
0
100
AcDbBlockReference
  2
開示A4枠
 10
0.0
 20
0.0
 30
0.0
  0
INSERT
  5
5A
330
1F
100
AcDbEntity
  8
0
100
AcDbBlockReference
  2
TOP
 10
-28.8666498486385
 20
271.3834510595355
 30
0.0
  0
INSERT
  5
5B
330
1F
100
AcDbEntity
  8
1
100
AcDbBlockReference
  2
_1
 10
43.98650862145249
 20
86.5235925566035
 30
0.0
  0
INSERT
  5
5C
330
1F
100
AcDbEntity
  8
1
100
AcDbBlockReference
  2
nut
 10
46.48650862145249
 20
89.0235925566035
 30
0.0
  0
POINT
  5
141
330
1F
100
AcDbEntity
  8
0
 62
     7
100
AcDbPoint
 10
77.68650862145248
 20
208.1235925566035
 30
0.0
  0
POINT
  5
142
330
1F
100
AcDbEntity
  8
0
 62
     7
100
AcDbPoint
 10
126.1865086214525
 20
170.0235925566035
 30
0.0
  0
POINT
  5
143
330
1F
100
AcDbEntity
  8
0
 62
     7
100
AcDbPoint
 10
162.1865086214525
 20
151.0166309750035
 30
0.0
  0
LINE
  5
144
330
1F
100
AcDbEntity
  8
LAY-1
  6
DASH_CENTER
 62
     2
100
AcDbLine
 10
40.68650862145248
 20
185.0235925566035
 30
0.0
 11
97.98650862145249
 21
185.0235925566035
 31
0.0
  0
LINE
  5
145
330
1F
100
AcDbEntity
  8
LAY-1
  6
DASH_CENTER
 62
     2
100
AcDbLine
 10
69.48650862145249
 20
213.6235925566035
 30
0.0
 11
69.48650862145249
 21
195.8235925566035
 31
0.0
  0
LINE
  5
146
330
1F
100
AcDbEntity
  8
LAY-1
  6
DASH_CENTER
 62
     2
100
AcDbLine
 10
69.48650862145249
 20
195.8235925566035
 30
0.0
 11
69.48650862145249
 21
194.8241027474035
 31
0.0
  0
LINE
  5
147
330
1F
100
AcDbEntity
  8
LAY-1
  6
DASH_CENTER
 62
     2
100
AcDbLine
 10
69.48650862145249
 20
174.2235925566035
 30
0.0
 11
69.48650862145249
 21
147.7235925566035
 31
0.0
  0
LINE
  5
148
330
1F
100
AcDbEntity
  8
LAY-1
  6
DASH_CENTER
 62
     2
100
AcDbLine
 10
69.48650862145249
 20
194.8241027474035
 30
0.0
 11
69.48650862145249
 21
193.7235925566035
 31
0.0
  0
LINE
  5
149
330
1F
100
AcDbEntity
  8
LAY-1
  6
DASH_CENTER
 62
     2
100
AcDbLine
 10
69.48650862145249
 20
175.2230823658035
 30
0.0
 11
69.48650862145249
 21
174.2235925566035
 31
0.0
  0
LINE
  5
14A
330
1F
100
AcDbEntity
  8
LAY-1
  6
DASH_CENTER
 62
     2
100
AcDbLine
 10
69.48650862145249
 20
193.7235925566035
 30
0.0
 11
69.48650862145249
 21
176.3235925566035
 31
0.0
  0
LINE
  5
14B
330
1F
100
AcDbEntity
  8
LAY-1
  6
DASH_CENTER
 62
     2
100
AcDbLine
 10
69.48650862145249
 20
176.3235925566035
 30
0.0
 11
69.48650862145249
 21
175.2230823658035
 31
0.0
  0
LINE
  5
14C
330
1F
100
AcDbEntity
  8
LAY-1
  6
DASH_CENTER
 62
     2
100
AcDbLine
 10
120.0865086214525
 20
185.0235925566035
 30
0.0
 11
172.0954109216595
 21
185.0235925566035
 31
0.0
  0
LINE
  5
14D
330
1F
100
AcDbEntity
  8
LAY-1
  6
DASH_CENTER
 62
     2
100
AcDbLine
 10
122.5865086214525
 20
112.0235925566035
 30
0.0
 11
135.1865086214525
 21
112.0235925566035
 31
0.0
  0
LINE
  5
14E
330
1F
100
AcDbEntity
  8
1
  6
DASH_CENTER
 62
     2
100
AcDbLine
 10
162.1865086214525
 20
128.0235925566035
 30
0.0
 11
162.1865086214525
 21
96.0235925566035
 31
0.0
  0
LINE
  5
14F
330
1F
100
AcDbEntity
  8
LAY-1
  6
DASH_CENTER
 62
     2
100
AcDbLine
 10
162.1865086214525
 20
152.0166309750035
 30
0.0
 11
162.1865086214525
 21
168.6235925566035
 31
0.0
  0
LINE
  5
150
330
1F
100
AcDbEntity
  8
LAY-1
  6
DASH_CENTER
 62
     2
100
AcDbLine
 10
162.1865086214525
 20
147.0235925566035
 30
0.0
 11
162.1865086214525
 21
152.0166309750035
 31
0.0
  0
LINE
  5
151
330
1F
100
AcDbEntity
  8
LAY-1
  6
DASH_CENTER
 62
     2
100
AcDbLine
 10
162.1865086214525
 20
168.6235925566035
 30
0.0
 11
162.1865086214525
 21
169.0235925566035
 31
0.0
  0
LINE
  5
152
330
1F
100
AcDbEntity
  8
LAY-1
  6
DASH_CENTER
 62
     2
100
AcDbLine
 10
136.1865086214525
 20
112.0235925566035
 30
0.0
 11
178.0954109216595
 21
112.0235925566035
 31
0.0
  0
ARC
  5
153
330
1F
100
AcDbEntity
  8
LAY-1
  6
Continuous
 62
     7
100
AcDbCircle
 10
69.48650862145249
 20
185.0235925566035
 30
0.0
 40
9.800510190799997
100
AcDbArc
 50
90.0
 51
270.0
  0
ARC
  5
154
330
1F
100
AcDbEntity
  8
LAY-1
  6
Continuous
 62
     7
100
AcDbCircle
 10
69.48650862145249
 20
185.0235925566035
 30
0.0
 40
8.700000000000017
100
AcDbArc
 50
90.0
 51
270.0
  0
ARC
  5
155
330
1F
100
AcDbEntity
  8
LAY-1
  6
Continuous
 62
     2
100
AcDbCircle
 10
69.48650862145249
 20
185.0235925566035
 30
0.0
 40
10.80000000000001
100
AcDbArc
 50
90.0
 51
270.0
  0
ARC
  5
156
330
1F
100
AcDbEntity
  8
LAY-1
  6
Continuous
 62
     7
100
AcDbCircle
 10
69.48650862145249
 20
185.0235925566035
 30
0.0
 40
9.800510190799997
100
AcDbArc
 50
270.0
 51
90.0
  0
ARC
  5
157
330
1F
100
AcDbEntity
  8
LAY-1
  6
Continuous
 62
     7
100
AcDbCircle
 10
69.48650862145249
 20
185.0235925566035
 30
0.0
 40
8.699999999999989
100
AcDbArc
 50
270.0
 51
90.0
  0
ARC
  5
158
330
1F
100
AcDbEntity
  8
LAY-1
  6
Continuous
 62
     2
100
AcDbCircle
 10
69.48650862145249
 20
185.0235925566035
 30
0.0
 40
10.79999999999998
100
AcDbArc
 50
270.0
 51
90.0
  0
ARC
  5
159
330
1F
100
AcDbEntity
  8
LAY-1
  6
DASH_CENTER
 62
     2
100
AcDbCircle
 10
146.1865086214525
 20
169.0235925566035
 30
0.0
 40
16.0
100
AcDbArc
 50
0.0
 51
90.0
  0
SOLID
  5
15A
330
1F
100
AcDbEntity
  8
1
 62
     2
100
AcDbTrace
 10
175.0680590472907
 20
148.2159339325359
 30
0.0
 11
174.2699581956142
 21
147.75515019098
 31
0.0
 12
172.9190086214525
 22
151.0166309750035
 32
0.0
 13
172.9190086214525
 23
151.0166309750035
 33
0.0
  0
LEADER
  5
15B
330
1F
100
AcDbEntity
  8
1
  6
Continuous
 62
     2
100
AcDbLeader
  3
Standard
 71
     0
 76
     3
 10
172.9190086214525
 20
151.0166309750035
 30
0.0
 10
180.4245621209176
 20
138.0166309750035
 30
0.0
 10
196.3858935311965
 20
138.0166309750035
 30
0.0
  0
SOLID
  5
15C
330
1F
100
AcDbEntity
  8
1
 62
     2
100
AcDbTrace
 10
124.8355590472908
 20
170.96211177258
 30
0.0
 11
124.0374581956143
 21
171.4228955141359
 31
0.0
 12
126.1865086214525
 22
174.2235925566035
 32
0.0
 13
126.1865086214525
 23
174.2235925566035
 33
0.0
  0
LEADER
  5
15D
330
1F
100
AcDbEntity
  8
1
  6
Continuous
 62
     2
100
AcDbLeader
  3
Standard
 71
     0
 76
     3
 10
126.1865086214525
 20
174.2235925566035
 30
0.0
 10
114.8127083184169
 20
154.5235925566035
 30
0.0
 10
99.41432328003751
 20
154.5235925566035
 30
0.0
  0
MTEXT
  5
15F
330
1F
100
AcDbEntity
  8
1
 62
     7
100
AcDbMText
 10
157.4999999999999
 20
12.5
 30
0.0
 40
2.5
 41
0.0
 71
     5
 72
     1
  1
11
  7
CONVERTER_12
 73
     1
 44
0.7202881152461
  0
MTEXT
  5
160
330
1F
100
AcDbEntity
  8
1
 62
     7
100
AcDbMText
 10
151.7499999999999
 20
12.5
 30
0.0
 40
2.5
 41
0.0
 71
     5
 72
     1
  1
03
  7
CONVERTER_12
 73
     1
 44
0.7202881152461
  0
MTEXT
  5
161
330
1F
100
AcDbEntity
  8
1
 62
     7
100
AcDbMText
 10
140.4999999999999
 20
12.5
 30
0.0
 40
2.5
 41
0.0
 71
     5
 72
     1
  1
11
  7
CONVERTER_12
 73
     1
 44
0.7202881152461
  0
MTEXT
  5
162
330
1F
100
AcDbEntity
  8
1
 62
     7
100
AcDbMText
 10
134.7499999999999
 20
12.5
 30
0.0
 40
2.5
 41
0.0
 71
     5
 72
     1
  1
03
  7
CONVERTER_12
 73
     1
 44
0.7202881152461
  0
MTEXT
  5
163
330
1F
100
AcDbEntity
  8
1
 62
     7
100
AcDbMText
 10
123.4999999999999
 20
12.5
 30
0.0
 40
2.5
 41
0.0
 71
     5
 72
     1
  1
11
  7
CONVERTER_12
 73
     1
 44
0.7202881152461
  0
MTEXT
  5
164
330
1F
100
AcDbEntity
  8
1
 62
     7
100
AcDbMText
 10
117.7499999999999
 20
12.5
 30
0.0
 40
2.5
 41
0.0
 71
     5
 72
     1
  1
03
  7
CONVERTER_12
 73
     1
 44
0.7202881152461
  0
MTEXT
  5
165
330
1F
100
AcDbEntity
  8
1
 62
     7
100
AcDbMText
 10
100.7499999999999
 20
12.5
 30
0.0
 40
2.5
 41
0.0
 71
     5
 72
     1
  1
03
  7
CONVERTER_12
 73
     1
 44
0.7202881152461
  0
MTEXT
  5
166
330
1F
100
AcDbEntity
  8
1
 62
     7
100
AcDbMText
 10
106.4999999999999
 20
12.5
 30
0.0
 40
2.5
 41
0.0
 71
     5
 72
     1
  1
11
  7
CONVERTER_12
 73
     1
 44
0.7202881152461
  0
MTEXT
  5
167
330
1F
100
AcDbEntity
  8
1
 62
     7
100
AcDbMText
 10
188.5930343852635
 20
140.8542231237185
 30
0.0
 40
3.0
 41
0.0
 71
     5
 72
     1
  1
Rc1/2
  7
CONVERTER_12
 73
     1
 44
0.7202881152461
  0
MTEXT
  5
168
330
1F
100
AcDbEntity
  8
1
 62
     7
100
AcDbMText
 10
106.5477955443834
 20
157.3611847053185
 30
0.0
 40
3.0
 41
0.0
 71
     5
 72
     1
  1
Rp1/2
  7
CONVERTER_12
 73
     1
 44
0.7202881152461
  0
MTEXT
  5
169
330
1F
100
AcDbEntity
  8
1
 62
     7
100
AcDbMText
 10
85.24999999999997
 20
17.0
 30
0.0
 40
3.5
 41
0.0
 71
     5
 72
     1
  1
1
  7
CONVERTER_12
 73
     1
 44
0.7202881152461
  0
MTEXT
  5
16A
330
1F
100
AcDbEntity
  8
1
 62
     7
100
AcDbMText
 10
57.00000000000009
 20
22.75
 30
0.0
 40
3.5
 41
0.0
 71
     5
 72
     1
  1
ユニット取出し金具
  7
CONVERTER_11
 73
     1
 44
0.54545454545455
  0
MTEXT
  5
16B
330
1F
100
AcDbEntity
  8
1
 62
     7
100
AcDbMText
 10
57.00000000000009
 20
14.25
 30
0.0
 40
3.5
 41
0.0
 71
     5
 72
     1
  1
T2230-13
  7
CONVERTER_12
 73
     1
 44
0.7202881152461
  0
MTEXT
  5
16C
330
1F
100
AcDbEntity
  8
1
 62
     7
100
AcDbMText
 10
93.74999999999997
 20
17.0
 30
0.0
 40
3.5
 41
0.0
 71
     5
 72
     1
  1
1
  7
CONVERTER_12
 73
     1
 44
0.7202881152461
  0
DIMENSION
  5
177
330
1F
100
AcDbEntity
  8
1
100
AcDbDimension
  2
*D6
 10
126.1865086214525
 20
221.5235925566035
 30
0.0
 11
144.7557540060335
 21
224.2735925566035
 31
0.0
 70
    32
  1
<>
 71
     5
 42
-1.0
 53
0.00013888888889
  3
ME10_DIM_10
100
AcDbAlignedDimension
 13
162.1865086214525
 23
169.0235925566035
 33
0.0
 14
126.1865086214525
 24
208.0235925566035
 34
0.0
100
AcDbRotatedDimension
  0
DIMENSION
  5
182
330
1F
100
AcDbEntity
  8
1
100
AcDbDimension
  2
*D7
 10
184.1865086214525
 20
151.0166309750035
 30
0.0
 11
181.4365086214525
 21
168.1489442825995
 31
0.0
 70
    32
  1
34
 71
     5
 42
-1.0
 53
90.0
  3
ME10_DIM_11
100
AcDbAlignedDimension
 13
172.0954109216595
 23
185.0235925566035
 33
0.0
 14
174.1865086214525
 24
151.0166309750035
 34
0.0
 50
90.0
100
AcDbRotatedDimension
  0
INSERT
  5
18A
330
1F
100
AcDbEntity
  8
1
100
AcDbBlockReference
  2
*D8
 10
0.0
 20
0.0
 30
0.0
  0
INSERT
  5
192
330
1F
100
AcDbEntity
  8
1
100
AcDbBlockReference
  2
*D9
 10
0.0
 20
0.0
 30
0.0
  0
INSERT
  5
19A
330
1F
100
AcDbEntity
  8
1
100
AcDbBlockReference
  2
*D10
 10
0.0
 20
0.0
 30
0.0
  0
INSERT
  5
1A2
330
1F
100
AcDbEntity
  8
1
100
AcDbBlockReference
  2
*D11
 10
0.0
 20
0.0
 30
0.0
  0
ENDSEC
  0
SECTION
  2
OBJECTS
  0
DICTIONARY
  5
C
330
0
100
AcDbDictionary
281
     1
  3
ACAD_GROUP
350
D
  3
ACAD_LAYOUT
350
1A
  3
ACAD_MATERIAL
350
3B
  3
ACAD_MLEADERSTYLE
350
1A5
  3
ACAD_MLINESTYLE
350
17
  3
ACAD_PLOTSETTINGS
350
19
  3
ACAD_PLOTSTYLENAME
350
E
  3
ACAD_VISUALSTYLE
350
2A
  3
AcDbVariableDictionary
350
1A3
  0
DICTIONARY
  5
D
102
{ACAD_REACTORS
330
C
102
}
330
C
100
AcDbDictionary
281
     1
  0
DICTIONARY
  5
1A
102
{ACAD_REACTORS
330
C
102
}
330
C
100
AcDbDictionary
281
     1
  3
Layout1
350
1E
  3
Layout2
350
26
  3
Model
350
22
  0
DICTIONARY
  5
3B
102
{ACAD_REACTORS
330
C
102
}
330
C
100
AcDbDictionary
281
     1
  3
ByBlock
350
3D
  3
ByLayer
350
3C
  3
Global
350
3E
  0
DICTIONARY
  5
1A5
102
{ACAD_REACTORS
330
C
102
}
330
C
100
AcDbDictionary
281
     1
  0
DICTIONARY
  5
17
102
{ACAD_REACTORS
330
C
102
}
330
C
100
AcDbDictionary
281
     1
  3
Standard
350
18
  0
DICTIONARY
  5
19
102
{ACAD_REACTORS
330
C
102
}
330
C
100
AcDbDictionary
281
     1
  0
ACDBDICTIONARYWDFLT
  5
E
102
{ACAD_REACTORS
330
C
102
}
330
C
100
AcDbDictionary
281
     1
  3
Normal
350
F
100
AcDbDictionaryWithDefault
340
F
  0
DICTIONARY
  5
2A
102
{ACAD_REACTORS
330
C
102
}
330
C
100
AcDbDictionary
281
     1
  3
2dWireframe
350
2F
  3
3D Hidden
350
31
  3
3dWireframe
350
30
  3
Basic
350
32
  3
Brighten
350
36
  3
ColorChange
350
3A
  3
Conceptual
350
34
  3
Dim
350
35
  3
Facepattern
350
39
  3
Flat
350
2B
  3
FlatWithEdges
350
2C
  3
Gouraud
350
2D
  3
GouraudWithEdges
350
2E
  3
Linepattern
350
38
  3
Realistic
350
33
  3
Thicken
350
37
  0
DICTIONARY
  5
1A3
102
{ACAD_REACTORS
330
C
102
}
330
C
100
AcDbDictionary
281
     1
  3
DIMASSOC
350
1A6
  3
HIDETEXT
350
1A7
  0
LAYOUT
  5
1E
102
{ACAD_REACTORS
330
1A
102
}
330
1A
100
AcDbPlotSettings
  1

  2
none_device
  4

  6

 40
0.0
 41
0.0
 42
0.0
 43
0.0
 44
0.0
 45
0.0
 46
0.0
 47
0.0
 48
0.0
 49
0.0
140
0.0
141
0.0
142
1.0
143
1.0
 70
   688
 72
     0
 73
     0
 74
     5
  7

 75
    16
147
1.0
148
0.0
149
0.0
100
AcDbLayout
  1
Layout1
 70
     1
 71
     1
 10
0.0
 20
0.0
 11
12.0
 21
9.0
 12
0.0
 22
0.0
 32
0.0
 14
1.00000000000000E+20
 24
1.00000000000000E+20
 34
1.00000000000000E+20
 15
-1.00000000000000E+20
 25
-1.00000000000000E+20
 35
-1.00000000000000E+20
146
0.0
 13
0.0
 23
0.0
 33
0.0
 16
1.0
 26
0.0
 36
0.0
 17
0.0
 27
1.0
 37
0.0
 76
     0
330
1B
  0
LAYOUT
  5
26
102
{ACAD_REACTORS
330
1A
102
}
330
1A
100
AcDbPlotSettings
  1

  2
none_device
  4

  6

 40
0.0
 41
0.0
 42
0.0
 43
0.0
 44
0.0
 45
0.0
 46
0.0
 47
0.0
 48
0.0
 49
0.0
140
0.0
141
0.0
142
1.0
143
1.0
 70
   688
 72
     0
 73
     0
 74
     5
  7

 75
    16
147
1.0
148
0.0
149
0.0
100
AcDbLayout
  1
Layout2
 70
     1
 71
     2
 10
0.0
 20
0.0
 11
0.0
 21
0.0
 12
0.0
 22
0.0
 32
0.0
 14
0.0
 24
0.0
 34
0.0
 15
0.0
 25
0.0
 35
0.0
146
0.0
 13
0.0
 23
0.0
 33
0.0
 16
1.0
 26
0.0
 36
0.0
 17
0.0
 27
1.0
 37
0.0
 76
     0
330
23
  0
LAYOUT
  5
22
102
{ACAD_REACTORS
330
1A
102
}
330
1A
100
AcDbPlotSettings
  1

  2
none_device
  4

  6

 40
0.0
 41
0.0
 42
0.0
 43
0.0
 44
0.0
 45
0.0
 46
0.0
 47
0.0
 48
0.0
 49
0.0
140
0.0
141
0.0
142
1.0
143
1.0
 70
  1712
 72
     0
 73
     0
 74
     0
  7

 75
     0
147
1.0
148
0.0
149
0.0
100
AcDbLayout
  1
Model
 70
     1
 71
     0
 10
0.0
 20
0.0
 11
12.0
 21
9.0
 12
0.0
 22
0.0
 32
0.0
 14
0.0
 24
0.0
 34
0.0
 15
209.9999999999999
 25
297.0
 35
0.0
146
0.0
 13
0.0
 23
0.0
 33
0.0
 16
1.0
 26
0.0
 36
0.0
 17
0.0
 27
1.0
 37
0.0
 76
     0
330
1F
331
29
  0
MATERIAL
  5
3D
102
{ACAD_REACTORS
330
3B
102
}
102
{ACAD_XDICTIONARY
360
1CA
102
}
330
3B
100
AcDbMaterial
  1
ByBlock
  0
MATERIAL
  5
3C
102
{ACAD_REACTORS
330
3B
102
}
102
{ACAD_XDICTIONARY
360
1C8
102
}
330
3B
100
AcDbMaterial
  1
ByLayer
  0
MATERIAL
  5
3E
102
{ACAD_REACTORS
330
3B
102
}
102
{ACAD_XDICTIONARY
360
1CC
102
}
330
3B
100
AcDbMaterial
  1
Global
  0
MLINESTYLE
  5
18
102
{ACAD_REACTORS
330
17
102
}
330
17
100
AcDbMlineStyle
  2
Standard
 70
     0
  3

 62
   256
 51
90.0
 52
90.0
 71
     2
 49
0.5
 62
   256
  6
BYLAYER
 49
-0.5
 62
   256
  6
BYLAYER
  0
ACDBPLACEHOLDER
  5
F
102
{ACAD_REACTORS
330
E
102
}
330
E
  0
VISUALSTYLE
  5
2F
102
{ACAD_REACTORS
330
2A
102
}
102
{ACAD_XDICTIONARY
360
1B0
102
}
330
2A
100
AcDbVisualStyle
  2
2dWireframe
 70
     4
 71
     0
 72
     2
 73
     0
 90
        0
 40
-0.6
 41
-30.0
 62
     5
 63
     7
 74
     1
 91
        4
 64
     7
 65
   257
 75
     1
175
     1
 42
1.0
 92
        0
 66
   257
 43
1.0
 76
     1
 77
     6
 78
     2
 67
     7
 79
     5
170
     0
171
     0
290
     0
174
     0
 93
        1
 44
0.0
173
     0
291
     0
 45
0.0
1001
ACAD
1000
AcDbSavedByObjectVersion
1070
     0
  0
VISUALSTYLE
  5
31
102
{ACAD_REACTORS
330
2A
102
}
102
{ACAD_XDICTIONARY
360
1B4
102
}
330
2A
100
AcDbVisualStyle
  2
3D Hidden
 70
     6
 71
     1
 72
     2
 73
     2
 90
        0
 40
-0.6
 41
-30.0
 62
     5
 63
     7
 74
     2
 91
        2
 64
     7
 65
   257
 75
     2
175
     1
 42
40.0
 92
        0
 66
   257
 43
1.0
 76
     1
 77
     6
 78
     2
 67
     7
 79
     3
170
     0
171
     0
290
     0
174
     0
 93
        1
 44
0.0
173
     0
291
     0
 45
0.0
1001
ACAD
1000
AcDbSavedByObjectVersion
1070
     0
  0
VISUALSTYLE
  5
30
102
{ACAD_REACTORS
330
2A
102
}
102
{ACAD_XDICTIONARY
360
1B2
102
}
330
2A
100
AcDbVisualStyle
  2
3dWireframe
 70
     5
 71
     0
 72
     2
 73
     0
 90
        0
 40
-0.6
 41
-30.0
 62
     5
 63
     7
 74
     1
 91
        4
 64
     7
 65
   257
 75
     1
175
     1
 42
1.0
 92
        0
 66
   257
 43
1.0
 76
     1
 77
     6
 78
     2
 67
     7
 79
     5
170
     0
171
     0
290
     0
174
     0
 93
        1
 44
0.0
173
     0
291
     0
 45
0.0
1001
ACAD
1000
AcDbSavedByObjectVersion
1070
     0
  0
VISUALSTYLE
  5
32
102
{ACAD_REACTORS
330
2A
102
}
102
{ACAD_XDICTIONARY
360
1B6
102
}
330
2A
100
AcDbVisualStyle
  2
Basic
 70
     7
 71
     1
 72
     0
 73
     1
 90
        0
 40
-0.6
 41
-30.0
 62
     5
 63
     7
 74
     0
 91
        4
 64
     7
 65
   257
 75
     1
175
     1
 42
1.0
 92
        8
 66
     7
 43
1.0
 76
     1
 77
     6
 78
     2
 67
     7
 79
     5
170
     0
171
     0
290
     0
174
     0
 93
        1
 44
0.0
173
     0
291
     1
 45
0.0
1001
ACAD
1000
AcDbSavedByObjectVersion
1070
     0
  0
VISUALSTYLE
  5
36
102
{ACAD_REACTORS
330
2A
102
}
102
{ACAD_XDICTIONARY
360
1BE
102
}
330
2A
100
AcDbVisualStyle
  2
Brighten
 70
    12
 71
     2
 72
     2
 73
     0
 90
        0
 40
-0.6
 41
-30.0
 62
     5
 63
     7
 74
     1
 91
        4
 64
     7
 65
   257
 75
     1
175
     1
 42
1.0
 92
        8
 66
     7
 43
1.0
 76
     1
 77
     6
 78
     2
 67
     7
 79
     5
170
     0
171
     0
290
     0
174
     0
 93
        1
 44
50.0
173
     0
291
     1
 45
0.0
1001
ACAD
1000
AcDbSavedByObjectVersion
1070
     0
  0
VISUALSTYLE
  5
3A
102
{ACAD_REACTORS
330
2A
102
}
102
{ACAD_XDICTIONARY
360
1C6
102
}
330
2A
100
AcDbVisualStyle
  2
ColorChange
 70
    16
 71
     2
 72
     2
 73
     3
 90
        0
 40
-0.6
 41
-30.0
 62
     5
 63
     8
 74
     1
 91
        4
 64
     7
 65
   257
 75
     1
175
     1
 42
1.0
 92
        8
 66
     8
 43
1.0
 76
     1
 77
     6
 78
     2
 67
     7
 79
     5
170
     0
171
     0
290
     0
174
     0
 93
        1
 44
0.0
173
     0
291
     1
 45
0.0
1001
ACAD
1000
AcDbSavedByObjectVersion
1070
     0
  0
VISUALSTYLE
  5
34
102
{ACAD_REACTORS
330
2A
102
}
102
{ACAD_XDICTIONARY
360
1BA
102
}
330
2A
100
AcDbVisualStyle
  2
Conceptual
 70
     9
 71
     3
 72
     2
 73
     0
 90
        0
 40
-0.6
 41
-30.0
 62
     5
 63
     7
 74
     2
 91
        2
 64
     7
 65
   257
 75
     1
175
     1
 42
40.0
 92
        8
 66
     7
 43
1.0
 76
     1
 77
     6
 78
     2
 67
     7
 79
     3
170
     0
171
     0
290
     0
174
     0
 93
        1
 44
0.0
173
     0
291
     0
 45
0.0
1001
ACAD
1000
AcDbSavedByObjectVersion
1070
     0
  0
VISUALSTYLE
  5
35
102
{ACAD_REACTORS
330
2A
102
}
102
{ACAD_XDICTIONARY
360
1BC
102
}
330
2A
100
AcDbVisualStyle
  2
Dim
 70
    11
 71
     2
 72
     2
 73
     0
 90
        0
 40
-0.6
 41
-30.0
 62
     5
 63
     7
 74
     1
 91
        4
 64
     7
 65
   257
 75
     1
175
     1
 42
1.0
 92
        8
 66
     7
 43
1.0
 76
     1
 77
     6
 78
     2
 67
     7
 79
     5
170
     0
171
     0
290
     0
174
     0
 93
        1
 44
-50.0
173
     0
291
     1
 45
0.0
1001
ACAD
1000
AcDbSavedByObjectVersion
1070
     0
  0
VISUALSTYLE
  5
39
102
{ACAD_REACTORS
330
2A
102
}
102
{ACAD_XDICTIONARY
360
1C4
102
}
330
2A
100
AcDbVisualStyle
  2
Facepattern
 70
    15
 71
     2
 72
     2
 73
     0
 90
        0
 40
-0.6
 41
-30.0
 62
     5
 63
     7
 74
     1
 91
        4
 64
     7
 65
   257
 75
     1
175
     1
 42
1.0
 92
        8
 66
     7
 43
1.0
 76
     1
 77
     6
 78
     2
 67
     7
 79
     5
170
     0
171
     0
290
     0
174
     0
 93
        1
 44
0.0
173
     0
291
     1
 45
0.0
1001
ACAD
1000
AcDbSavedByObjectVersion
1070
     0
  0
VISUALSTYLE
  5
2B
102
{ACAD_REACTORS
330
2A
102
}
102
{ACAD_XDICTIONARY
360
1A8
102
}
330
2A
100
AcDbVisualStyle
  2
Flat
 70
     0
 71
     2
 72
     1
 73
     1
 90
        2
 40
-0.6
 41
30.0
 62
     5
 63
     7
 74
     0
 91
        4
 64
     7
 65
   257
 75
     1
175
     1
 42
1.0
 92
        8
 66
     7
 43
1.0
 76
     1
 77
     6
 78
     2
 67
     7
 79
     5
170
     0
171
     0
290
     0
174
     0
 93
       13
 44
0.0
173
     0
291
     1
 45
0.0
1001
ACAD
1000
AcDbSavedByObjectVersion
1070
     0
  0
VISUALSTYLE
  5
2C
102
{ACAD_REACTORS
330
2A
102
}
102
{ACAD_XDICTIONARY
360
1AA
102
}
330
2A
100
AcDbVisualStyle
  2
FlatWithEdges
 70
     1
 71
     2
 72
     1
 73
     1
 90
        2
 40
-0.6
 41
30.0
 62
     5
 63
     7
 74
     1
 91
        4
 64
     7
 65
   257
 75
     1
175
     1
 42
1.0
 92
        0
 66
   257
 43
1.0
 76
     1
 77
     6
 78
     2
 67
     7
 79
     5
170
     0
171
     0
290
     0
174
     0
 93
       13
 44
0.0
173
     0
291
     1
 45
0.0
1001
ACAD
1000
AcDbSavedByObjectVersion
1070
     0
  0
VISUALSTYLE
  5
2D
102
{ACAD_REACTORS
330
2A
102
}
102
{ACAD_XDICTIONARY
360
1AC
102
}
330
2A
100
AcDbVisualStyle
  2
Gouraud
 70
     2
 71
     2
 72
     2
 73
     1
 90
        2
 40
-0.6
 41
30.0
 62
     5
 63
     7
 74
     0
 91
        4
 64
     7
 65
   257
 75
     1
175
     1
 42
1.0
 92
        0
 66
     7
 43
1.0
 76
     1
 77
     6
 78
     2
 67
     7
 79
     5
170
     0
171
     0
290
     0
174
     0
 93
       13
 44
0.0
173
     0
291
     1
 45
0.0
1001
ACAD
1000
AcDbSavedByObjectVersion
1070
     0
  0
VISUALSTYLE
  5
2E
102
{ACAD_REACTORS
330
2A
102
}
102
{ACAD_XDICTIONARY
360
1AE
102
}
330
2A
100
AcDbVisualStyle
  2
GouraudWithEdges
 70
     3
 71
     2
 72
     2
 73
     1
 90
        2
 40
-0.6
 41
30.0
 62
     5
 63
     7
 74
     1
 91
        4
 64
     7
 65
   257
 75
     1
175
     1
 42
1.0
 92
        0
 66
   257
 43
1.0
 76
     1
 77
     6
 78
     2
 67
     7
 79
     5
170
     0
171
     0
290
     0
174
     0
 93
       13
 44
0.0
173
     0
291
     1
 45
0.0
1001
ACAD
1000
AcDbSavedByObjectVersion
1070
     0
  0
VISUALSTYLE
  5
38
102
{ACAD_REACTORS
330
2A
102
}
102
{ACAD_XDICTIONARY
360
1C2
102
}
330
2A
100
AcDbVisualStyle
  2
Linepattern
 70
    14
 71
     2
 72
     2
 73
     0
 90
        0
 40
-0.6
 41
-30.0
 62
     5
 63
     7
 74
     1
 91
        4
 64
     7
 65
   257
 75
     7
175
     7
 42
1.0
 92
        8
 66
     7
 43
1.0
 76
     1
 77
     6
 78
     2
 67
     7
 79
     5
170
     0
171
     0
290
     0
174
     0
 93
        1
 44
0.0
173
     0
291
     1
 45
0.0
1001
ACAD
1000
AcDbSavedByObjectVersion
1070
     0
  0
VISUALSTYLE
  5
33
102
{ACAD_REACTORS
330
2A
102
}
102
{ACAD_XDICTIONARY
360
1B8
102
}
330
2A
100
AcDbVisualStyle
  2
Realistic
 70
     8
 71
     2
 72
     2
 73
     0
 90
        0
 40
-0.6
 41
-30.0
 62
     5
 63
     7
 74
     1
 91
        0
 64
     7
 65
   257
 75
     1
175
     1
 42
1.0
 92
        8
 66
     8
 43
1.0
 76
     1
 77
     6
 78
     2
 67
     7
 79
     5
170
     0
171
     0
290
     0
174
     0
 93
       13
 44
0.0
173
     0
291
     0
 45
0.0
1001
ACAD
1000
AcDbSavedByObjectVersion
1070
     0
  0
VISUALSTYLE
  5
37
102
{ACAD_REACTORS
330
2A
102
}
102
{ACAD_XDICTIONARY
360
1C0
102
}
330
2A
100
AcDbVisualStyle
  2
Thicken
 70
    13
 71
     2
 72
     2
 73
     0
 90
        0
 40
-0.6
 41
-30.0
 62
     5
 63
     7
 74
     1
 91
        4
 64
     7
 65
   257
 75
     1
175
     1
 42
1.0
 92
       12
 66
     7
 43
1.0
 76
     1
 77
     6
 78
     2
 67
     7
 79
     5
170
     0
171
     0
290
     0
174
     0
 93
        1
 44
0.0
173
     0
291
     1
 45
0.0
1001
ACAD
1000
AcDbSavedByObjectVersion
1070
     0
  0
DICTIONARYVAR
  5
1A6
102
{ACAD_REACTORS
330
1A3
102
}
330
1A3
100
DictionaryVariables
280
     0
  1
2
  0
DICTIONARYVAR
  5
1A7
102
{ACAD_REACTORS
330
1A3
102
}
330
1A3
100
DictionaryVariables
280
     0
  1
1
  0
DICTIONARY
  5
1CA
330
3D
100
AcDbDictionary
280
     1
281
     1
  3
ACAD_XREC_ROUNDTRIP
360
1CB
  0
DICTIONARY
  5
1C8
330
3C
100
AcDbDictionary
280
     1
281
     1
  3
ACAD_XREC_ROUNDTRIP
360
1C9
  0
DICTIONARY
  5
1CC
330
3E
100
AcDbDictionary
280
     1
281
     1
  3
ACAD_XREC_ROUNDTRIP
360
1CD
  0
DICTIONARY
  5
1B0
330
2F
100
AcDbDictionary
280
     1
281
     1
  3
ACAD_XREC_ROUNDTRIP
360
1B1
  0
DICTIONARY
  5
1B4
330
31
100
AcDbDictionary
280
     1
281
     1
  3
ACAD_XREC_ROUNDTRIP
360
1B5
  0
DICTIONARY
  5
1B2
330
30
100
AcDbDictionary
280
     1
281
     1
  3
ACAD_XREC_ROUNDTRIP
360
1B3
  0
DICTIONARY
  5
1B6
330
32
100
AcDbDictionary
280
     1
281
     1
  3
ACAD_XREC_ROUNDTRIP
360
1B7
  0
DICTIONARY
  5
1BE
330
36
100
AcDbDictionary
280
     1
281
     1
  3
ACAD_XREC_ROUNDTRIP
360
1BF
  0
DICTIONARY
  5
1C6
330
3A
100
AcDbDictionary
280
     1
281
     1
  3
ACAD_XREC_ROUNDTRIP
360
1C7
  0
DICTIONARY
  5
1BA
330
34
100
AcDbDictionary
280
     1
281
     1
  3
ACAD_XREC_ROUNDTRIP
360
1BB
  0
DICTIONARY
  5
1BC
330
35
100
AcDbDictionary
280
     1
281
     1
  3
ACAD_XREC_ROUNDTRIP
360
1BD
  0
DICTIONARY
  5
1C4
330
39
100
AcDbDictionary
280
     1
281
     1
  3
ACAD_XREC_ROUNDTRIP
360
1C5
  0
DICTIONARY
  5
1A8
330
2B
100
AcDbDictionary
280
     1
281
     1
  3
ACAD_XREC_ROUNDTRIP
360
1A9
  0
DICTIONARY
  5
1AA
330
2C
100
AcDbDictionary
280
     1
281
     1
  3
ACAD_XREC_ROUNDTRIP
360
1AB
  0
DICTIONARY
  5
1AC
330
2D
100
AcDbDictionary
280
     1
281
     1
  3
ACAD_XREC_ROUNDTRIP
360
1AD
  0
DICTIONARY
  5
1AE
330
2E
100
AcDbDictionary
280
     1
281
     1
  3
ACAD_XREC_ROUNDTRIP
360
1AF
  0
DICTIONARY
  5
1C2
330
38
100
AcDbDictionary
280
     1
281
     1
  3
ACAD_XREC_ROUNDTRIP
360
1C3
  0
DICTIONARY
  5
1B8
330
33
100
AcDbDictionary
280
     1
281
     1
  3
ACAD_XREC_ROUNDTRIP
360
1B9
  0
DICTIONARY
  5
1C0
330
37
100
AcDbDictionary
280
     1
281
     1
  3
ACAD_XREC_ROUNDTRIP
360
1C1
  0
XRECORD
  5
1CB
102
{ACAD_REACTORS
330
1CA
102
}
330
1CA
100
AcDbXrecord
280
     1
102
MATERIAL
148
0.0
149
0.0
149
0.0
 93
        0
 94
      127
282
     0
 72
     1
 77
     1
171
     1
175
     1
179
     1
273
     0
  0
XRECORD
  5
1C9
102
{ACAD_REACTORS
330
1C8
102
}
330
1C8
100
AcDbXrecord
280
     1
102
MATERIAL
148
0.0
149
0.0
149
0.0
 93
        0
 94
      127
282
     0
 72
     1
 77
     1
171
     1
175
     1
179
     1
273
     0
  0
XRECORD
  5
1CD
102
{ACAD_REACTORS
330
1CC
102
}
330
1CC
100
AcDbXrecord
280
     1
102
MATERIAL
148
0.0
149
0.0
149
0.0
 93
        0
 94
      127
282
     0
 72
     1
 77
     1
171
     1
175
     1
179
     1
273
     0
  0
XRECORD
  5
1B1
102
{ACAD_REACTORS
330
1B0
102
}
330
1B0
100
AcDbXrecord
280
     1
102
RTVSPropertyOp0
 70
     1
102
RTVSPropertyOp1
 70
     1
102
RTVSPropertyOp2
 70
     1
102
RTVSPropertyOp3
 70
     1
102
RTVSPropertyOp4
 70
     1
102
RTVSPropertyOp5
 70
     1
102
RTVSPropertyOp6
 70
     1
102
RTVSPropertyOp7
 70
     1
102
RTVSPropertyOp8
 70
     1
102
RTVSPropertyOp9
 70
     1
102
RTVSPropertyOp10
 70
     1
102
RTVSPropertyOp11
 70
     1
102
RTVSPropertyOp12
 70
     1
102
RTVSPropertyOp13
 70
     1
102
RTVSPropertyOp14
 70
     1
102
RTVSPropertyOp15
 70
     1
102
RTVSPropertyOp16
 70
     1
102
RTVSPropertyOp17
 70
     1
102
RTVSPropertyOp18
 70
     1
102
RTVSPropertyOp19
 70
     1
102
RTVSPropertyOp20
 70
     1
102
RTVSPropertyOp21
 70
     1
102
RTVSPropertyOp22
 70
     1
102
RTVSPropertyOp23
 70
     1
102
RTVSPropertyOp24
 70
     1
102
RTVSPropertyOp25
 70
     1
102
RTVSPropertyOp26
 70
     1
102
RTVSPropertyOp27
 70
     1
102
RTVSPropertyOp28
 70
     1
102
RTVSPropertyOp29
 70
     1
102
RTVSPropertyOp30
 70
     1
102
RTVSPropertyOp31
 70
     1
102
RTVSPropertyOp32
 70
     1
  0
XRECORD
  5
1B5
102
{ACAD_REACTORS
330
1B4
102
}
330
1B4
100
AcDbXrecord
280
     1
102
RTVSPropertyOp0
 70
     1
102
RTVSPropertyOp1
 70
     1
102
RTVSPropertyOp2
 70
     1
102
RTVSPropertyOp3
 70
     1
102
RTVSPropertyOp4
 70
     1
102
RTVSPropertyOp5
 70
     1
102
RTVSPropertyOp6
 70
     1
102
RTVSPropertyOp7
 70
     1
102
RTVSPropertyOp8
 70
     1
102
RTVSPropertyOp9
 70
     1
102
RTVSPropertyOp10
 70
     1
102
RTVSPropertyOp11
 70
     1
102
RTVSPropertyOp12
 70
     1
102
RTVSPropertyOp13
 70
     1
102
RTVSPropertyOp14
 70
     1
102
RTVSPropertyOp15
 70
     1
102
RTVSPropertyOp16
 70
     1
102
RTVSPropertyOp17
 70
     1
102
RTVSPropertyOp18
 70
     1
102
RTVSPropertyOp19
 70
     1
102
RTVSPropertyOp20
 70
     1
102
RTVSPropertyOp21
 70
     1
102
RTVSPropertyOp22
 70
     1
102
RTVSPropertyOp23
 70
     1
102
RTVSPropertyOp24
 70
     1
102
RTVSPropertyOp25
 70
     1
102
RTVSPropertyOp26
 70
     1
102
RTVSPropertyOp27
 70
     1
102
RTVSPropertyOp28
 70
     1
102
RTVSPropertyOp29
 70
     1
102
RTVSPropertyOp30
 70
     1
102
RTVSPropertyOp31
 70
     1
102
RTVSPropertyOp32
 70
     1
  0
XRECORD
  5
1B3
102
{ACAD_REACTORS
330
1B2
102
}
330
1B2
100
AcDbXrecord
280
     1
102
RTVSPropertyOp0
 70
     1
102
RTVSPropertyOp1
 70
     1
102
RTVSPropertyOp2
 70
     1
102
RTVSPropertyOp3
 70
     1
102
RTVSPropertyOp4
 70
     1
102
RTVSPropertyOp5
 70
     1
102
RTVSPropertyOp6
 70
     1
102
RTVSPropertyOp7
 70
     1
102
RTVSPropertyOp8
 70
     1
102
RTVSPropertyOp9
 70
     1
102
RTVSPropertyOp10
 70
     1
102
RTVSPropertyOp11
 70
     1
102
RTVSPropertyOp12
 70
     1
102
RTVSPropertyOp13
 70
     1
102
RTVSPropertyOp14
 70
     1
102
RTVSPropertyOp15
 70
     1
102
RTVSPropertyOp16
 70
     1
102
RTVSPropertyOp17
 70
     1
102
RTVSPropertyOp18
 70
     1
102
RTVSPropertyOp19
 70
     1
102
RTVSPropertyOp20
 70
     1
102
RTVSPropertyOp21
 70
     1
102
RTVSPropertyOp22
 70
     1
102
RTVSPropertyOp23
 70
     1
102
RTVSPropertyOp24
 70
     1
102
RTVSPropertyOp25
 70
     1
102
RTVSPropertyOp26
 70
     1
102
RTVSPropertyOp27
 70
     1
102
RTVSPropertyOp28
 70
     1
102
RTVSPropertyOp29
 70
     1
102
RTVSPropertyOp30
 70
     1
102
RTVSPropertyOp31
 70
     1
102
RTVSPropertyOp32
 70
     1
  0
XRECORD
  5
1B7
102
{ACAD_REACTORS
330
1B6
102
}
330
1B6
100
AcDbXrecord
280
     1
102
RTVSPropertyOp0
 70
     1
102
RTVSPropertyOp1
 70
     1
102
RTVSPropertyOp2
 70
     1
102
RTVSPropertyOp3
 70
     1
102
RTVSPropertyOp4
 70
     1
102
RTVSPropertyOp5
 70
     1
102
RTVSPropertyOp6
 70
     1
102
RTVSPropertyOp7
 70
     1
102
RTVSPropertyOp8
 70
     1
102
RTVSPropertyOp9
 70
     1
102
RTVSPropertyOp10
 70
     1
102
RTVSPropertyOp11
 70
     1
102
RTVSPropertyOp12
 70
     1
102
RTVSPropertyOp13
 70
     1
102
RTVSPropertyOp14
 70
     1
102
RTVSPropertyOp15
 70
     1
102
RTVSPropertyOp16
 70
     1
102
RTVSPropertyOp17
 70
     1
102
RTVSPropertyOp18
 70
     1
102
RTVSPropertyOp19
 70
     1
102
RTVSPropertyOp20
 70
     1
102
RTVSPropertyOp21
 70
     1
102
RTVSPropertyOp22
 70
     1
102
RTVSPropertyOp23
 70
     1
102
RTVSPropertyOp24
 70
     1
102
RTVSPropertyOp25
 70
     1
102
RTVSPropertyOp26
 70
     1
102
RTVSPropertyOp27
 70
     1
102
RTVSPropertyOp28
 70
     1
102
RTVSPropertyOp29
 70
     1
102
RTVSPropertyOp30
 70
     1
102
RTVSPropertyOp31
 70
     1
102
RTVSPropertyOp32
 70
     1
  0
XRECORD
  5
1BF
102
{ACAD_REACTORS
330
1BE
102
}
330
1BE
100
AcDbXrecord
280
     1
102
RTVSPropertyOp0
 70
     1
102
RTVSPropertyOp1
 70
     1
102
RTVSPropertyOp2
 70
     1
102
RTVSPropertyOp3
 70
     1
102
RTVSPropertyOp4
 70
     1
102
RTVSPropertyOp5
 70
     1
102
RTVSPropertyOp6
 70
     1
102
RTVSPropertyOp7
 70
     1
102
RTVSPropertyOp8
 70
     1
102
RTVSPropertyOp9
 70
     1
102
RTVSPropertyOp10
 70
     1
102
RTVSPropertyOp11
 70
     1
102
RTVSPropertyOp12
 70
     1
102
RTVSPropertyOp13
 70
     1
102
RTVSPropertyOp14
 70
     1
102
RTVSPropertyOp15
 70
     1
102
RTVSPropertyOp16
 70
     1
102
RTVSPropertyOp17
 70
     1
102
RTVSPropertyOp18
 70
     1
102
RTVSPropertyOp19
 70
     1
102
RTVSPropertyOp20
 70
     1
102
RTVSPropertyOp21
 70
     1
102
RTVSPropertyOp22
 70
     1
102
RTVSPropertyOp23
 70
     1
102
RTVSPropertyOp24
 70
     1
102
RTVSPropertyOp25
 70
     1
102
RTVSPropertyOp26
 70
     1
102
RTVSPropertyOp27
 70
     1
102
RTVSPropertyOp28
 70
     1
102
RTVSPropertyOp29
 70
     1
102
RTVSPropertyOp30
 70
     1
102
RTVSPropertyOp31
 70
     1
102
RTVSPropertyOp32
 70
     1
  0
XRECORD
  5
1C7
102
{ACAD_REACTORS
330
1C6
102
}
330
1C6
100
AcDbXrecord
280
     1
102
RTVSPropertyOp0
 70
     1
102
RTVSPropertyOp1
 70
     1
102
RTVSPropertyOp2
 70
     1
102
RTVSPropertyOp3
 70
     1
102
RTVSPropertyOp4
 70
     1
102
RTVSPropertyOp5
 70
     1
102
RTVSPropertyOp6
 70
     1
102
RTVSPropertyOp7
 70
     1
102
RTVSPropertyOp8
 70
     1
102
RTVSPropertyOp9
 70
     1
102
RTVSPropertyOp10
 70
     1
102
RTVSPropertyOp11
 70
     1
102
RTVSPropertyOp12
 70
     1
102
RTVSPropertyOp13
 70
     1
102
RTVSPropertyOp14
 70
     1
102
RTVSPropertyOp15
 70
     1
102
RTVSPropertyOp16
 70
     1
102
RTVSPropertyOp17
 70
     1
102
RTVSPropertyOp18
 70
     1
102
RTVSPropertyOp19
 70
     1
102
RTVSPropertyOp20
 70
     1
102
RTVSPropertyOp21
 70
     1
102
RTVSPropertyOp22
 70
     1
102
RTVSPropertyOp23
 70
     1
102
RTVSPropertyOp24
 70
     1
102
RTVSPropertyOp25
 70
     1
102
RTVSPropertyOp26
 70
     1
102
RTVSPropertyOp27
 70
     1
102
RTVSPropertyOp28
 70
     1
102
RTVSPropertyOp29
 70
     1
102
RTVSPropertyOp30
 70
     1
102
RTVSPropertyOp31
 70
     1
102
RTVSPropertyOp32
 70
     1
  0
XRECORD
  5
1BB
102
{ACAD_REACTORS
330
1BA
102
}
330
1BA
100
AcDbXrecord
280
     1
102
RTVSPropertyOp0
 70
     1
102
RTVSPropertyOp1
 70
     1
102
RTVSPropertyOp2
 70
     1
102
RTVSPropertyOp3
 70
     1
102
RTVSPropertyOp4
 70
     1
102
RTVSPropertyOp5
 70
     1
102
RTVSPropertyOp6
 70
     1
102
RTVSPropertyOp7
 70
     1
102
RTVSPropertyOp8
 70
     1
102
RTVSPropertyOp9
 70
     1
102
RTVSPropertyOp10
 70
     1
102
RTVSPropertyOp11
 70
     1
102
RTVSPropertyOp12
 70
     1
102
RTVSPropertyOp13
 70
     1
102
RTVSPropertyOp14
 70
     1
102
RTVSPropertyOp15
 70
     1
102
RTVSPropertyOp16
 70
     1
102
RTVSPropertyOp17
 70
     1
102
RTVSPropertyOp18
 70
     1
102
RTVSPropertyOp19
 70
     1
102
RTVSPropertyOp20
 70
     1
102
RTVSPropertyOp21
 70
     1
102
RTVSPropertyOp22
 70
     1
102
RTVSPropertyOp23
 70
     1
102
RTVSPropertyOp24
 70
     1
102
RTVSPropertyOp25
 70
     1
102
RTVSPropertyOp26
 70
     1
102
RTVSPropertyOp27
 70
     1
102
RTVSPropertyOp28
 70
     1
102
RTVSPropertyOp29
 70
     1
102
RTVSPropertyOp30
 70
     1
102
RTVSPropertyOp31
 70
     1
102
RTVSPropertyOp32
 70
     1
  0
XRECORD
  5
1BD
102
{ACAD_REACTORS
330
1BC
102
}
330
1BC
100
AcDbXrecord
280
     1
102
RTVSPropertyOp0
 70
     1
102
RTVSPropertyOp1
 70
     1
102
RTVSPropertyOp2
 70
     1
102
RTVSPropertyOp3
 70
     1
102
RTVSPropertyOp4
 70
     1
102
RTVSPropertyOp5
 70
     1
102
RTVSPropertyOp6
 70
     1
102
RTVSPropertyOp7
 70
     1
102
RTVSPropertyOp8
 70
     1
102
RTVSPropertyOp9
 70
     1
102
RTVSPropertyOp10
 70
     1
102
RTVSPropertyOp11
 70
     1
102
RTVSPropertyOp12
 70
     1
102
RTVSPropertyOp13
 70
     1
102
RTVSPropertyOp14
 70
     1
102
RTVSPropertyOp15
 70
     1
102
RTVSPropertyOp16
 70
     1
102
RTVSPropertyOp17
 70
     1
102
RTVSPropertyOp18
 70
     1
102
RTVSPropertyOp19
 70
     1
102
RTVSPropertyOp20
 70
     1
102
RTVSPropertyOp21
 70
     1
102
RTVSPropertyOp22
 70
     1
102
RTVSPropertyOp23
 70
     1
102
RTVSPropertyOp24
 70
     1
102
RTVSPropertyOp25
 70
     1
102
RTVSPropertyOp26
 70
     1
102
RTVSPropertyOp27
 70
     1
102
RTVSPropertyOp28
 70
     1
102
RTVSPropertyOp29
 70
     1
102
RTVSPropertyOp30
 70
     1
102
RTVSPropertyOp31
 70
     1
102
RTVSPropertyOp32
 70
     1
  0
XRECORD
  5
1C5
102
{ACAD_REACTORS
330
1C4
102
}
330
1C4
100
AcDbXrecord
280
     1
102
RTVSPropertyOp0
 70
     1
102
RTVSPropertyOp1
 70
     1
102
RTVSPropertyOp2
 70
     1
102
RTVSPropertyOp3
 70
     1
102
RTVSPropertyOp4
 70
     1
102
RTVSPropertyOp5
 70
     1
102
RTVSPropertyOp6
 70
     1
102
RTVSPropertyOp7
 70
     1
102
RTVSPropertyOp8
 70
     1
102
RTVSPropertyOp9
 70
     1
102
RTVSPropertyOp10
 70
     1
102
RTVSPropertyOp11
 70
     1
102
RTVSPropertyOp12
 70
     1
102
RTVSPropertyOp13
 70
     1
102
RTVSPropertyOp14
 70
     1
102
RTVSPropertyOp15
 70
     1
102
RTVSPropertyOp16
 70
     1
102
RTVSPropertyOp17
 70
     1
102
RTVSPropertyOp18
 70
     1
102
RTVSPropertyOp19
 70
     1
102
RTVSPropertyOp20
 70
     1
102
RTVSPropertyOp21
 70
     1
102
RTVSPropertyOp22
 70
     1
102
RTVSPropertyOp23
 70
     1
102
RTVSPropertyOp24
 70
     1
102
RTVSPropertyOp25
 70
     1
102
RTVSPropertyOp26
 70
     1
102
RTVSPropertyOp27
 70
     1
102
RTVSPropertyOp28
 70
     1
102
RTVSPropertyOp29
 70
     1
102
RTVSPropertyOp30
 70
     1
102
RTVSPropertyOp31
 70
     1
102
RTVSPropertyOp32
 70
     1
  0
XRECORD
  5
1A9
102
{ACAD_REACTORS
330
1A8
102
}
330
1A8
100
AcDbXrecord
280
     1
102
RTVSPropertyOp0
 70
     1
102
RTVSPropertyOp1
 70
     1
102
RTVSPropertyOp2
 70
     1
102
RTVSPropertyOp3
 70
     1
102
RTVSPropertyOp4
 70
     1
102
RTVSPropertyOp5
 70
     1
102
RTVSPropertyOp6
 70
     1
102
RTVSPropertyOp7
 70
     1
102
RTVSPropertyOp8
 70
     1
102
RTVSPropertyOp9
 70
     1
102
RTVSPropertyOp10
 70
     1
102
RTVSPropertyOp11
 70
     1
102
RTVSPropertyOp12
 70
     1
102
RTVSPropertyOp13
 70
     1
102
RTVSPropertyOp14
 70
     1
102
RTVSPropertyOp15
 70
     1
102
RTVSPropertyOp16
 70
     1
102
RTVSPropertyOp17
 70
     1
102
RTVSPropertyOp18
 70
     1
102
RTVSPropertyOp19
 70
     1
102
RTVSPropertyOp20
 70
     1
102
RTVSPropertyOp21
 70
     1
102
RTVSPropertyOp22
 70
     1
102
RTVSPropertyOp23
 70
     1
102
RTVSPropertyOp24
 70
     1
102
RTVSPropertyOp25
 70
     1
102
RTVSPropertyOp26
 70
     1
102
RTVSPropertyOp27
 70
     1
102
RTVSPropertyOp28
 70
     1
102
RTVSPropertyOp29
 70
     1
102
RTVSPropertyOp30
 70
     1
102
RTVSPropertyOp31
 70
     1
102
RTVSPropertyOp32
 70
     1
  0
XRECORD
  5
1AB
102
{ACAD_REACTORS
330
1AA
102
}
330
1AA
100
AcDbXrecord
280
     1
102
RTVSPropertyOp0
 70
     1
102
RTVSPropertyOp1
 70
     1
102
RTVSPropertyOp2
 70
     1
102
RTVSPropertyOp3
 70
     1
102
RTVSPropertyOp4
 70
     1
102
RTVSPropertyOp5
 70
     1
102
RTVSPropertyOp6
 70
     1
102
RTVSPropertyOp7
 70
     1
102
RTVSPropertyOp8
 70
     1
102
RTVSPropertyOp9
 70
     1
102
RTVSPropertyOp10
 70
     1
102
RTVSPropertyOp11
 70
     1
102
RTVSPropertyOp12
 70
     1
102
RTVSPropertyOp13
 70
     1
102
RTVSPropertyOp14
 70
     1
102
RTVSPropertyOp15
 70
     1
102
RTVSPropertyOp16
 70
     1
102
RTVSPropertyOp17
 70
     1
102
RTVSPropertyOp18
 70
     1
102
RTVSPropertyOp19
 70
     1
102
RTVSPropertyOp20
 70
     1
102
RTVSPropertyOp21
 70
     1
102
RTVSPropertyOp22
 70
     1
102
RTVSPropertyOp23
 70
     1
102
RTVSPropertyOp24
 70
     1
102
RTVSPropertyOp25
 70
     1
102
RTVSPropertyOp26
 70
     1
102
RTVSPropertyOp27
 70
     1
102
RTVSPropertyOp28
 70
     1
102
RTVSPropertyOp29
 70
     1
102
RTVSPropertyOp30
 70
     1
102
RTVSPropertyOp31
 70
     1
102
RTVSPropertyOp32
 70
     1
  0
XRECORD
  5
1AD
102
{ACAD_REACTORS
330
1AC
102
}
330
1AC
100
AcDbXrecord
280
     1
102
RTVSPropertyOp0
 70
     1
102
RTVSPropertyOp1
 70
     1
102
RTVSPropertyOp2
 70
     1
102
RTVSPropertyOp3
 70
     1
102
RTVSPropertyOp4
 70
     1
102
RTVSPropertyOp5
 70
     1
102
RTVSPropertyOp6
 70
     1
102
RTVSPropertyOp7
 70
     1
102
RTVSPropertyOp8
 70
     1
102
RTVSPropertyOp9
 70
     1
102
RTVSPropertyOp10
 70
     1
102
RTVSPropertyOp11
 70
     1
102
RTVSPropertyOp12
 70
     1
102
RTVSPropertyOp13
 70
     1
102
RTVSPropertyOp14
 70
     1
102
RTVSPropertyOp15
 70
     1
102
RTVSPropertyOp16
 70
     1
102
RTVSPropertyOp17
 70
     1
102
RTVSPropertyOp18
 70
     1
102
RTVSPropertyOp19
 70
     1
102
RTVSPropertyOp20
 70
     1
102
RTVSPropertyOp21
 70
     1
102
RTVSPropertyOp22
 70
     1
102
RTVSPropertyOp23
 70
     1
102
RTVSPropertyOp24
 70
     1
102
RTVSPropertyOp25
 70
     1
102
RTVSPropertyOp26
 70
     1
102
RTVSPropertyOp27
 70
     1
102
RTVSPropertyOp28
 70
     1
102
RTVSPropertyOp29
 70
     1
102
RTVSPropertyOp30
 70
     1
102
RTVSPropertyOp31
 70
     1
102
RTVSPropertyOp32
 70
     1
  0
XRECORD
  5
1AF
102
{ACAD_REACTORS
330
1AE
102
}
330
1AE
100
AcDbXrecord
280
     1
102
RTVSPropertyOp0
 70
     1
102
RTVSPropertyOp1
 70
     1
102
RTVSPropertyOp2
 70
     1
102
RTVSPropertyOp3
 70
     1
102
RTVSPropertyOp4
 70
     1
102
RTVSPropertyOp5
 70
     1
102
RTVSPropertyOp6
 70
     1
102
RTVSPropertyOp7
 70
     1
102
RTVSPropertyOp8
 70
     1
102
RTVSPropertyOp9
 70
     1
102
RTVSPropertyOp10
 70
     1
102
RTVSPropertyOp11
 70
     1
102
RTVSPropertyOp12
 70
     1
102
RTVSPropertyOp13
 70
     1
102
RTVSPropertyOp14
 70
     1
102
RTVSPropertyOp15
 70
     1
102
RTVSPropertyOp16
 70
     1
102
RTVSPropertyOp17
 70
     1
102
RTVSPropertyOp18
 70
     1
102
RTVSPropertyOp19
 70
     1
102
RTVSPropertyOp20
 70
     1
102
RTVSPropertyOp21
 70
     1
102
RTVSPropertyOp22
 70
     1
102
RTVSPropertyOp23
 70
     1
102
RTVSPropertyOp24
 70
     1
102
RTVSPropertyOp25
 70
     1
102
RTVSPropertyOp26
 70
     1
102
RTVSPropertyOp27
 70
     1
102
RTVSPropertyOp28
 70
     1
102
RTVSPropertyOp29
 70
     1
102
RTVSPropertyOp30
 70
     1
102
RTVSPropertyOp31
 70
     1
102
RTVSPropertyOp32
 70
     1
  0
XRECORD
  5
1C3
102
{ACAD_REACTORS
330
1C2
102
}
330
1C2
100
AcDbXrecord
280
     1
102
RTVSPropertyOp0
 70
     1
102
RTVSPropertyOp1
 70
     1
102
RTVSPropertyOp2
 70
     1
102
RTVSPropertyOp3
 70
     1
102
RTVSPropertyOp4
 70
     1
102
RTVSPropertyOp5
 70
     1
102
RTVSPropertyOp6
 70
     1
102
RTVSPropertyOp7
 70
     1
102
RTVSPropertyOp8
 70
     1
102
RTVSPropertyOp9
 70
     1
102
RTVSPropertyOp10
 70
     1
102
RTVSPropertyOp11
 70
     1
102
RTVSPropertyOp12
 70
     1
102
RTVSPropertyOp13
 70
     1
102
RTVSPropertyOp14
 70
     1
102
RTVSPropertyOp15
 70
     1
102
RTVSPropertyOp16
 70
     1
102
RTVSPropertyOp17
 70
     1
102
RTVSPropertyOp18
 70
     1
102
RTVSPropertyOp19
 70
     1
102
RTVSPropertyOp20
 70
     1
102
RTVSPropertyOp21
 70
     1
102
RTVSPropertyOp22
 70
     1
102
RTVSPropertyOp23
 70
     1
102
RTVSPropertyOp24
 70
     1
102
RTVSPropertyOp25
 70
     1
102
RTVSPropertyOp26
 70
     1
102
RTVSPropertyOp27
 70
     1
102
RTVSPropertyOp28
 70
     1
102
RTVSPropertyOp29
 70
     1
102
RTVSPropertyOp30
 70
     1
102
RTVSPropertyOp31
 70
     1
102
RTVSPropertyOp32
 70
     1
  0
XRECORD
  5
1B9
102
{ACAD_REACTORS
330
1B8
102
}
330
1B8
100
AcDbXrecord
280
     1
102
RTVSPropertyOp0
 70
     1
102
RTVSPropertyOp1
 70
     1
102
RTVSPropertyOp2
 70
     1
102
RTVSPropertyOp3
 70
     1
102
RTVSPropertyOp4
 70
     1
102
RTVSPropertyOp5
 70
     1
102
RTVSPropertyOp6
 70
     1
102
RTVSPropertyOp7
 70
     1
102
RTVSPropertyOp8
 70
     1
102
RTVSPropertyOp9
 70
     1
102
RTVSPropertyOp10
 70
     1
102
RTVSPropertyOp11
 70
     1
102
RTVSPropertyOp12
 70
     1
102
RTVSPropertyOp13
 70
     1
102
RTVSPropertyOp14
 70
     1
102
RTVSPropertyOp15
 70
     1
102
RTVSPropertyOp16
 70
     1
102
RTVSPropertyOp17
 70
     1
102
RTVSPropertyOp18
 70
     1
102
RTVSPropertyOp19
 70
     1
102
RTVSPropertyOp20
 70
     1
102
RTVSPropertyOp21
 70
     1
102
RTVSPropertyOp22
 70
     1
102
RTVSPropertyOp23
 70
     1
102
RTVSPropertyOp24
 70
     1
102
RTVSPropertyOp25
 70
     1
102
RTVSPropertyOp26
 70
     1
102
RTVSPropertyOp27
 70
     1
102
RTVSPropertyOp28
 70
     1
102
RTVSPropertyOp29
 70
     1
102
RTVSPropertyOp30
 70
     1
102
RTVSPropertyOp31
 70
     1
102
RTVSPropertyOp32
 70
     1
  0
XRECORD
  5
1C1
102
{ACAD_REACTORS
330
1C0
102
}
330
1C0
100
AcDbXrecord
280
     1
102
RTVSPropertyOp0
 70
     1
102
RTVSPropertyOp1
 70
     1
102
RTVSPropertyOp2
 70
     1
102
RTVSPropertyOp3
 70
     1
102
RTVSPropertyOp4
 70
     1
102
RTVSPropertyOp5
 70
     1
102
RTVSPropertyOp6
 70
     1
102
RTVSPropertyOp7
 70
     1
102
RTVSPropertyOp8
 70
     1
102
RTVSPropertyOp9
 70
     1
102
RTVSPropertyOp10
 70
     1
102
RTVSPropertyOp11
 70
     1
102
RTVSPropertyOp12
 70
     1
102
RTVSPropertyOp13
 70
     1
102
RTVSPropertyOp14
 70
     1
102
RTVSPropertyOp15
 70
     1
102
RTVSPropertyOp16
 70
     1
102
RTVSPropertyOp17
 70
     1
102
RTVSPropertyOp18
 70
     1
102
RTVSPropertyOp19
 70
     1
102
RTVSPropertyOp20
 70
     1
102
RTVSPropertyOp21
 70
     1
102
RTVSPropertyOp22
 70
     1
102
RTVSPropertyOp23
 70
     1
102
RTVSPropertyOp24
 70
     1
102
RTVSPropertyOp25
 70
     1
102
RTVSPropertyOp26
 70
     1
102
RTVSPropertyOp27
 70
     1
102
RTVSPropertyOp28
 70
     1
102
RTVSPropertyOp29
 70
     1
102
RTVSPropertyOp30
 70
     1
102
RTVSPropertyOp31
 70
     1
102
RTVSPropertyOp32
 70
     1
  0
ENDSEC
  0
EOF
