  0
SECTION
  2
HEADER
  9
$ACADVER
  1
AC1015
  9
$ACADMAINTVER
 70
     6
  9
$DWGCODEPAGE
  3
ANSI_932
  9
$INSBASE
 10
0.0
 20
0.0
 30
0.0
  9
$EXTMIN
 10
0.0
 20
0.0
 30
0.0
  9
$EXTMAX
 10
210.0
 20
297.0
 30
0.0
  9
$LIMMIN
 10
0.0
 20
0.0
  9
$LIMMAX
 10
12.0
 20
9.0
  9
$ORTHOMODE
 70
     0
  9
$REGENMODE
 70
     1
  9
$FILLMODE
 70
     1
  9
$QTEXTMODE
 70
     0
  9
$MIRRTEXT
 70
     1
  9
$LTSCALE
 40
1.0
  9
$ATTMODE
 70
     1
  9
$TEXTSIZE
 40
0.2
  9
$TRACEWID
 40
0.05
  9
$TEXTSTYLE
  7
Standard
  9
$CLAYER
  8
0
  9
$CELTYPE
  6
ByLayer
  9
$CECOLOR
 62
   256
  9
$CELTSCALE
 40
1.0
  9
$DISPSILH
 70
     0
  9
$DIMSCALE
 40
1.0
  9
$DIMASZ
 40
0.18
  9
$DIMEXO
 40
0.0625
  9
$DIMDLI
 40
0.38
  9
$DIMRND
 40
0.0
  9
$DIMDLE
 40
0.0
  9
$DIMEXE
 40
0.18
  9
$DIMTP
 40
0.0
  9
$DIMTM
 40
0.0
  9
$DIMTXT
 40
0.18
  9
$DIMCEN
 40
0.09
  9
$DIMTSZ
 40
0.0
  9
$DIMTOL
 70
     0
  9
$DIMLIM
 70
     0
  9
$DIMTIH
 70
     1
  9
$DIMTOH
 70
     1
  9
$DIMSE1
 70
     0
  9
$DIMSE2
 70
     0
  9
$DIMTAD
 70
     0
  9
$DIMZIN
 70
     0
  9
$DIMBLK
  1

  9
$DIMASO
 70
     1
  9
$DIMSHO
 70
     1
  9
$DIMPOST
  1

  9
$DIMAPOST
  1

  9
$DIMALT
 70
     0
  9
$DIMALTD
 70
     2
  9
$DIMALTF
 40
25.4
  9
$DIMLFAC
 40
1.0
  9
$DIMTOFL
 70
     0
  9
$DIMTVP
 40
0.0
  9
$DIMTIX
 70
     0
  9
$DIMSOXD
 70
     0
  9
$DIMSAH
 70
     0
  9
$DIMBLK1
  1

  9
$DIMBLK2
  1

  9
$DIMSTYLE
  2
Standard
  9
$DIMCLRD
 70
     0
  9
$DIMCLRE
 70
     0
  9
$DIMCLRT
 70
     0
  9
$DIMTFAC
 40
1.0
  9
$DIMGAP
 40
0.09
  9
$DIMJUST
 70
     0
  9
$DIMSD1
 70
     0
  9
$DIMSD2
 70
     0
  9
$DIMTOLJ
 70
     1
  9
$DIMTZIN
 70
     0
  9
$DIMALTZ
 70
     0
  9
$DIMALTTZ
 70
     0
  9
$DIMUPT
 70
     0
  9
$DIMDEC
 70
     4
  9
$DIMTDEC
 70
     4
  9
$DIMALTU
 70
     2
  9
$DIMALTTD
 70
     2
  9
$DIMTXSTY
  7
Standard
  9
$DIMAUNIT
 70
     0
  9
$DIMADEC
 70
     0
  9
$DIMALTRND
 40
0.0
  9
$DIMAZIN
 70
     0
  9
$DIMDSEP
 70
    46
  9
$DIMATFIT
 70
     3
  9
$DIMFRAC
 70
     0
  9
$DIMLDRBLK
  1

  9
$DIMLUNIT
 70
     2
  9
$DIMLWD
 70
    -2
  9
$DIMLWE
 70
    -2
  9
$DIMTMOVE
 70
     0
  9
$LUNITS
 70
     2
  9
$LUPREC
 70
     4
  9
$SKETCHINC
 40
0.1
  9
$FILLETRAD
 40
0.5
  9
$AUNITS
 70
     0
  9
$AUPREC
 70
     0
  9
$MENU
  1
.
  9
$ELEVATION
 40
0.0
  9
$PELEVATION
 40
0.0
  9
$THICKNESS
 40
0.0
  9
$LIMCHECK
 70
     0
  9
$CHAMFERA
 40
0.5
  9
$CHAMFERB
 40
0.5
  9
$CHAMFERC
 40
1.0
  9
$CHAMFERD
 40
0.0
  9
$SKPOLY
 70
     0
  9
$TDCREATE
 40
2460356.585670197
  9
$TDUCREATE
 40
2460356.210670197
  9
$TDUPDATE
 40
2460356.585671285
  9
$TDUUPDATE
 40
2460356.210671285
  9
$TDINDWG
 40
0.0000000116
  9
$TDUSRTIMER
 40
0.0000000116
  9
$USRTIMER
 70
     1
  9
$ANGBASE
 50
0.0
  9
$ANGDIR
 70
     0
  9
$PDMODE
 70
     0
  9
$PDSIZE
 40
0.0
  9
$PLINEWID
 40
0.0
  9
$SPLFRAME
 70
     0
  9
$SPLINETYPE
 70
     6
  9
$SPLINESEGS
 70
     8
  9
$HANDSEED
  5
17E
  9
$SURFTAB1
 70
     6
  9
$SURFTAB2
 70
     6
  9
$SURFTYPE
 70
     6
  9
$SURFU
 70
     6
  9
$SURFV
 70
     6
  9
$UCSBASE
  2

  9
$UCSNAME
  2

  9
$UCSORG
 10
0.0
 20
0.0
 30
0.0
  9
$UCSXDIR
 10
1.0
 20
0.0
 30
0.0
  9
$UCSYDIR
 10
0.0
 20
1.0
 30
0.0
  9
$UCSORTHOREF
  2

  9
$UCSORTHOVIEW
 70
     0
  9
$UCSORGTOP
 10
0.0
 20
0.0
 30
0.0
  9
$UCSORGBOTTOM
 10
0.0
 20
0.0
 30
0.0
  9
$UCSORGLEFT
 10
0.0
 20
0.0
 30
0.0
  9
$UCSORGRIGHT
 10
0.0
 20
0.0
 30
0.0
  9
$UCSORGFRONT
 10
0.0
 20
0.0
 30
0.0
  9
$UCSORGBACK
 10
0.0
 20
0.0
 30
0.0
  9
$PUCSBASE
  2

  9
$PUCSNAME
  2

  9
$PUCSORG
 10
0.0
 20
0.0
 30
0.0
  9
$PUCSXDIR
 10
1.0
 20
0.0
 30
0.0
  9
$PUCSYDIR
 10
0.0
 20
1.0
 30
0.0
  9
$PUCSORTHOREF
  2

  9
$PUCSORTHOVIEW
 70
     0
  9
$PUCSORGTOP
 10
0.0
 20
0.0
 30
0.0
  9
$PUCSORGBOTTOM
 10
0.0
 20
0.0
 30
0.0
  9
$PUCSORGLEFT
 10
0.0
 20
0.0
 30
0.0
  9
$PUCSORGRIGHT
 10
0.0
 20
0.0
 30
0.0
  9
$PUCSORGFRONT
 10
0.0
 20
0.0
 30
0.0
  9
$PUCSORGBACK
 10
0.0
 20
0.0
 30
0.0
  9
$USERI1
 70
     0
  9
$USERI2
 70
     0
  9
$USERI3
 70
     0
  9
$USERI4
 70
     0
  9
$USERI5
 70
     0
  9
$USERR1
 40
18.1
  9
$USERR2
 40
0.0
  9
$USERR3
 40
0.0
  9
$USERR4
 40
0.0
  9
$USERR5
 40
0.0
  9
$WORLDVIEW
 70
     1
  9
$SHADEDGE
 70
     3
  9
$SHADEDIF
 70
    70
  9
$TILEMODE
 70
     1
  9
$MAXACTVP
 70
    64
  9
$PINSBASE
 10
0.0
 20
0.0
 30
0.0
  9
$PLIMCHECK
 70
     0
  9
$PEXTMIN
 10
1.00000000000000E+20
 20
1.00000000000000E+20
 30
1.00000000000000E+20
  9
$PEXTMAX
 10
-1.00000000000000E+20
 20
-1.00000000000000E+20
 30
-1.00000000000000E+20
  9
$PLIMMIN
 10
0.0
 20
0.0
  9
$PLIMMAX
 10
12.0
 20
9.0
  9
$UNITMODE
 70
     0
  9
$VISRETAIN
 70
     1
  9
$PLINEGEN
 70
     0
  9
$PSLTSCALE
 70
     1
  9
$TREEDEPTH
 70
  3020
  9
$CMLSTYLE
  2
Standard
  9
$CMLJUST
 70
     0
  9
$CMLSCALE
 40
1.0
  9
$PROXYGRAPHICS
 70
     1
  9
$MEASUREMENT
 70
     1
  9
$CELWEIGHT
370
    -1
  9
$ENDCAPS
280
     0
  9
$JOINSTYLE
280
     0
  9
$LWDISPLAY
290
     0
  9
$INSUNITS
 70
     4
  9
$HYPERLINKBASE
  1

  9
$STYLESHEET
  1

  9
$XEDIT
290
     1
  9
$CEPSNTYPE
380
     0
  9
$PSTYLEMODE
290
     1
  9
$FINGERPRINTGUID
  2
{B8B25B6B-171E-4CAC-8F77-15F6BAE2AE3E}
  9
$VERSIONGUID
  2
{FAEB1C32-E019-11D5-929B-00C0DF256EC4}
  9
$EXTNAMES
290
     1
  9
$PSVPSCALE
 40
0.0
  9
$OLESTARTUP
290
     0
  0
ENDSEC
  0
SECTION
  2
CLASSES
  0
CLASS
  1
ACDBDICTIONARYWDFLT
  2
AcDbDictionaryWithDefault
  3
ObjectDBX Classes
 90
        0
280
     0
281
     0
  0
CLASS
  1
VISUALSTYLE
  2
AcDbVisualStyle
  3
ObjectDBX Classes
 90
     4095
280
     0
281
     0
  0
CLASS
  1
MATERIAL
  2
AcDbMaterial
  3
ObjectDBX Classes
 90
     1153
280
     0
281
     0
  0
CLASS
  1
DICTIONARYVAR
  2
AcDbDictionaryVar
  3
ObjectDBX Classes
 90
        0
280
     0
281
     0
  0
CLASS
  1
ACDBPLACEHOLDER
  2
AcDbPlaceHolder
  3
ObjectDBX Classes
 90
        0
280
     0
281
     0
  0
CLASS
  1
LAYOUT
  2
AcDbLayout
  3
ObjectDBX Classes
 90
        0
280
     0
281
     0
  0
ENDSEC
  0
SECTION
  2
TABLES
  0
TABLE
  2
VPORT
  5
8
330
0
100
AcDbSymbolTable
 70
     1
  0
VPORT
  5
29
330
8
100
AcDbSymbolTableRecord
100
AcDbViewportTableRecord
  2
*Active
 70
     0
 10
0.0
 20
0.0
 11
1.0
 21
1.0
 12
105.0
 22
148.5
 13
0.0
 23
0.0
 14
0.5
 24
0.5
 15
0.5
 25
0.5
 16
0.0
 26
0.0
 36
1.0
 17
0.0
 27
0.0
 37
0.0
 40
326.7
 41
1.60267857142857
 42
50.0
 43
0.0
 44
0.0
 50
0.0
 51
0.0
 71
     0
 72
   100
 73
     1
 74
     3
 75
     0
 76
     0
 77
     0
 78
     0
281
     0
 65
     1
110
0.0
120
0.0
130
0.0
111
1.0
121
0.0
131
0.0
112
0.0
122
1.0
132
0.0
 79
     0
146
0.0
  0
ENDTAB
  0
TABLE
  2
LTYPE
  5
5
330
0
100
AcDbSymbolTable
 70
     8
  0
LTYPE
  5
14
330
5
100
AcDbSymbolTableRecord
100
AcDbLinetypeTableRecord
  2
ByBlock
 70
     0
  3

 72
    65
 73
     0
 40
0.0
  0
LTYPE
  5
15
330
5
100
AcDbSymbolTableRecord
100
AcDbLinetypeTableRecord
  2
ByLayer
 70
     0
  3

 72
    65
 73
     0
 40
0.0
  0
LTYPE
  5
16
330
5
100
AcDbSymbolTableRecord
100
AcDbLinetypeTableRecord
  2
Continuous
 70
     0
  3
Solid line
 72
    65
 73
     0
 40
0.0
  0
LTYPE
  5
3F
330
5
100
AcDbSymbolTableRecord
100
AcDbLinetypeTableRecord
  2
DASHED
 70
     0
  3
Dashed
 72
    65
 73
     2
 40
15.0
 49
7.0
 74
     0
 49
-8.0
 74
     0
  0
LTYPE
  5
40
330
5
100
AcDbSymbolTableRecord
100
AcDbLinetypeTableRecord
  2
DOTTED
 70
     0
  3
Dotted
 72
    65
 73
     2
 40
1.0
 49
0.0
 74
     0
 49
-1.0
 74
     0
  0
LTYPE
  5
41
330
5
100
AcDbSymbolTableRecord
100
AcDbLinetypeTableRecord
  2
DOT_CENTER
 70
     0
  3
Dot_Center
 72
    65
 73
     4
 40
14.0
 49
12.0
 74
     0
 49
-1.0
 74
     0
 49
0.0
 74
     0
 49
-1.0
 74
     0
  0
LTYPE
  5
42
330
5
100
AcDbSymbolTableRecord
100
AcDbLinetypeTableRecord
  2
LONG_DASHED
 70
     0
  3
Long_Dashed
 72
    65
 73
     2
 40
15.0
 49
10.0
 74
     0
 49
-5.0
 74
     0
  0
LTYPE
  5
43
330
5
100
AcDbSymbolTableRecord
100
AcDbLinetypeTableRecord
  2
DASH_CENTER
 70
     0
  3
Dash_Center
 72
    65
 73
     4
 40
14.0
 49
11.0
 74
     0
 49
-1.0
 74
     0
 49
1.0
 74
     0
 49
-1.0
 74
     0
  0
LTYPE
  5
44
330
5
100
AcDbSymbolTableRecord
100
AcDbLinetypeTableRecord
  2
PHANTOM
 70
     0
  3
Phantom
 72
    65
 73
     6
 40
13.0
 49
10.0
 74
     0
 49
-1.0
 74
     0
 49
0.0
 74
     0
 49
-1.0
 74
     0
 49
0.0
 74
     0
 49
-1.0
 74
     0
  0
LTYPE
  5
45
330
5
100
AcDbSymbolTableRecord
100
AcDbLinetypeTableRecord
  2
CENTER_DASH_DASH
 70
     0
  3
Center_Dash_Dash
 72
    65
 73
     6
 40
14.0
 49
9.0
 74
     0
 49
-1.0
 74
     0
 49
1.0
 74
     0
 49
-1.0
 74
     0
 49
1.0
 74
     0
 49
-1.0
 74
     0
  0
ENDTAB
  0
TABLE
  2
LAYER
  5
2
330
0
100
AcDbSymbolTable
 70
     3
  0
LAYER
  5
10
330
2
100
AcDbSymbolTableRecord
100
AcDbLayerTableRecord
  2
0
 70
     0
 62
     7
  6
Continuous
370
    -3
390
F
  0
LAYER
  5
46
330
2
100
AcDbSymbolTableRecord
100
AcDbLayerTableRecord
  2
1
 70
     0
 62
     7
  6
Continuous
370
    -3
390
F
  0
LAYER
  5
47
330
2
100
AcDbSymbolTableRecord
100
AcDbLayerTableRecord
  2
_U_30EC_U_30A4_U_30E4_U_30FC_1
 70
     0
 62
     7
  6
Continuous
370
    -3
390
F
  0
ENDTAB
  0
TABLE
  2
STYLE
  5
3
330
0
100
AcDbSymbolTable
 70
     3
  0
STYLE
  5
11
330
3
100
AcDbSymbolTableRecord
100
AcDbTextStyleTableRecord
  2
Standard
 70
     0
 40
0.0
 41
1.0
 50
0.0
 71
     0
 42
0.2
  3
txt
  4

  0
STYLE
  5
B6
330
3
100
AcDbSymbolTableRecord
100
AcDbTextStyleTableRecord
  2
CONVERTER_11
 70
     0
 40
0.0
 41
0.89
 50
0.0
 71
     0
 42
0.2
  3
MS Mincho.ttf
  4

1001
ACAD
1000
MS Mincho
1071
    32785
  0
STYLE
  5
118
330
3
100
AcDbSymbolTableRecord
100
AcDbTextStyleTableRecord
  2
CONVERTER_12
 70
     0
 40
0.0
 41
0.9
 50
0.0
 71
     0
 42
0.2
  3
txt.shx
  4

  0
ENDTAB
  0
TABLE
  2
VIEW
  5
6
330
0
100
AcDbSymbolTable
 70
     0
  0
ENDTAB
  0
TABLE
  2
UCS
  5
7
330
0
100
AcDbSymbolTable
 70
     0
  0
ENDTAB
  0
TABLE
  2
APPID
  5
9
330
0
100
AcDbSymbolTable
 70
     1
  0
APPID
  5
12
330
9
100
AcDbSymbolTableRecord
100
AcDbRegAppTableRecord
  2
ACAD
 70
     0
  0
ENDTAB
  0
TABLE
  2
DIMSTYLE
  5
A
330
0
100
AcDbSymbolTable
 70
     5
100
AcDbDimStyleTable
  0
DIMSTYLE
105
27
330
A
100
AcDbSymbolTableRecord
100
AcDbDimStyleTableRecord
  2
Standard
 70
     0
178
     0
340
11
  0
DIMSTYLE
105
130
102
{ACAD_REACTORS
330
131
102
}
330
A
100
AcDbSymbolTableRecord
100
AcDbDimStyleTableRecord
  2
ME10_DIM_10
 70
     0
 41
3.5
 42
0.0
 44
1.0
 73
     0
 74
     0
 77
     1
 78
     8
140
3.5
147
1.0
172
     1
173
     1
174
     1
175
     1
176
     2
177
     2
271
     2
178
     7
271
     2
340
118
  0
DIMSTYLE
105
13B
102
{ACAD_REACTORS
330
13C
102
}
330
A
100
AcDbSymbolTableRecord
100
AcDbDimStyleTableRecord
  2
ME10_DIM_11
 70
     0
 41
3.5
 42
0.0
 44
1.0
 73
     0
 74
     0
 77
     1
 78
     8
140
3.5
147
1.0
172
     1
173
     1
174
     1
175
     1
176
     2
177
     2
271
     2
178
     7
271
     2
340
118
  0
DIMSTYLE
105
146
102
{ACAD_REACTORS
330
147
102
}
330
A
100
AcDbSymbolTableRecord
100
AcDbDimStyleTableRecord
  2
ME10_DIM_12
 70
     0
 41
3.5
 42
0.0
 44
1.0
 73
     0
 74
     0
 77
     1
 78
     8
140
3.5
147
1.0
172
     1
173
     1
174
     1
175
     1
176
     2
177
     2
271
     2
178
     7
271
     2
340
118
  0
DIMSTYLE
105
151
102
{ACAD_REACTORS
330
152
102
}
330
A
100
AcDbSymbolTableRecord
100
AcDbDimStyleTableRecord
  2
ME10_DIM_13
 70
     0
 41
3.5
 42
0.0
 44
1.0
 73
     0
 74
     0
 77
     1
 78
     8
140
3.5
147
1.0
172
     1
173
     1
174
     1
175
     1
176
     2
177
     2
271
     2
178
     7
271
     2
340
118
  0
ENDTAB
  0
TABLE
  2
BLOCK_RECORD
  5
1
330
0
100
AcDbSymbolTable
 70
     8
  0
BLOCK_RECORD
  5
1F
330
1
100
AcDbSymbolTableRecord
100
AcDbBlockTableRecord
  2
*Model_Space
340
22
  0
BLOCK_RECORD
  5
1B
330
1
100
AcDbSymbolTableRecord
100
AcDbBlockTableRecord
  2
*Paper_Space
340
1E
  0
BLOCK_RECORD
  5
23
330
1
100
AcDbSymbolTableRecord
100
AcDbBlockTableRecord
  2
*Paper_Space0
340
26
  0
BLOCK_RECORD
  5
48
330
1
100
AcDbSymbolTableRecord
100
AcDbBlockTableRecord
  2
開示A4
340
0
102
{BLKREFS
331
4C
102
}
  0
BLOCK_RECORD
  5
4B
330
1
100
AcDbSymbolTableRecord
100
AcDbBlockTableRecord
  2
開示A4枠
340
0
102
{BLKREFS
331
52
102
}
  0
BLOCK_RECORD
  5
4F
330
1
100
AcDbSymbolTableRecord
100
AcDbBlockTableRecord
  2
T24-20X13
340
0
102
{BLKREFS
331
53
102
}
  0
BLOCK_RECORD
  5
127
330
1
100
AcDbSymbolTableRecord
100
AcDbBlockTableRecord
  2
*D4
340
0
  0
BLOCK_RECORD
  5
132
330
1
100
AcDbSymbolTableRecord
100
AcDbBlockTableRecord
  2
*D5
340
0
  0
BLOCK_RECORD
  5
13D
330
1
100
AcDbSymbolTableRecord
100
AcDbBlockTableRecord
  2
*D6
340
0
  0
BLOCK_RECORD
  5
148
330
1
100
AcDbSymbolTableRecord
100
AcDbBlockTableRecord
  2
*D7
340
0
  0
ENDTAB
  0
ENDSEC
  0
SECTION
  2
BLOCKS
  0
BLOCK
  5
20
330
1F
100
AcDbEntity
  8
0
100
AcDbBlockBegin
  2
*Model_Space
 70
     0
 10
0.0
 20
0.0
 30
0.0
  3
*Model_Space
  1

  0
ENDBLK
  5
21
330
1F
100
AcDbEntity
  8
0
100
AcDbBlockEnd
  0
BLOCK
  5
1C
330
1B
100
AcDbEntity
 67
     1
  8
0
100
AcDbBlockBegin
  2
*Paper_Space
 70
     0
 10
0.0
 20
0.0
 30
0.0
  3
*Paper_Space
  1

  0
ENDBLK
  5
1D
330
1B
100
AcDbEntity
 67
     1
  8
0
100
AcDbBlockEnd
  0
BLOCK
  5
24
330
23
100
AcDbEntity
  8
0
100
AcDbBlockBegin
  2
*Paper_Space0
 70
     0
 10
0.0
 20
0.0
 30
0.0
  3
*Paper_Space0
  1

  0
ENDBLK
  5
25
330
23
100
AcDbEntity
  8
0
100
AcDbBlockEnd
  0
BLOCK
  5
49
330
48
100
AcDbEntity
  8
0
100
AcDbBlockBegin
  2
開示A4
 70
     0
 10
0.0
 20
0.0
 30
0.0
  3
開示A4
  1

  0
POINT
  5
54
330
48
100
AcDbEntity
  8
1
 62
     4
100
AcDbPoint
 10
34.0
 20
34.00000000000001
 30
0.0
  0
POINT
  5
55
330
48
100
AcDbEntity
  8
1
 62
     4
100
AcDbPoint
 10
57.0
 20
12.25000000000001
 30
0.0
  0
POINT
  5
56
330
48
100
AcDbEntity
  8
1
 62
     4
100
AcDbPoint
 10
57.0
 20
20.75000000000001
 30
0.0
  0
POINT
  5
57
330
48
100
AcDbEntity
  8
1
 62
     4
100
AcDbPoint
 10
57.0
 20
24.75000000000001
 30
0.0
  0
POINT
  5
58
330
48
100
AcDbEntity
  8
1
 62
     4
100
AcDbPoint
 10
57.0
 20
16.25000000000001
 30
0.0
  0
POINT
  5
59
330
48
100
AcDbEntity
  8
1
 62
     4
100
AcDbPoint
 10
157.5
 20
19.00000000000001
 30
0.0
  0
POINT
  5
5A
330
48
100
AcDbEntity
  8
1
 62
     4
100
AcDbPoint
 10
47.5
 20
282.0000000000003
 30
0.0
  0
POINT
  5
5B
330
48
100
AcDbEntity
  8
1
 62
     4
100
AcDbPoint
 10
57.0
 20
22.75000000000001
 30
0.0
  0
POINT
  5
5C
330
48
100
AcDbEntity
  8
1
 62
     4
100
AcDbPoint
 10
57.0
 20
14.25000000000001
 30
0.0
  0
POINT
  5
5D
330
48
100
AcDbEntity
  8
1
 62
     4
100
AcDbPoint
 10
157.5
 20
12.50000000000001
 30
0.0
  0
POINT
  5
5E
330
48
100
AcDbEntity
  8
1
 62
     4
100
AcDbPoint
 10
163.25
 20
12.50000000000001
 30
0.0
  0
POINT
  5
5F
330
48
100
AcDbEntity
  8
1
 62
     4
100
AcDbPoint
 10
151.75
 20
12.50000000000001
 30
0.0
  0
POINT
  5
60
330
48
100
AcDbEntity
  8
1
 62
     4
100
AcDbPoint
 10
134.75
 20
12.50000000000001
 30
0.0
  0
POINT
  5
61
330
48
100
AcDbEntity
  8
1
 62
     4
100
AcDbPoint
 10
146.25
 20
12.50000000000001
 30
0.0
  0
POINT
  5
62
330
48
100
AcDbEntity
  8
1
 62
     4
100
AcDbPoint
 10
140.5
 20
12.50000000000001
 30
0.0
  0
POINT
  5
63
330
48
100
AcDbEntity
  8
1
 62
     4
100
AcDbPoint
 10
140.5
 20
19.00000000000001
 30
0.0
  0
POINT
  5
64
330
48
100
AcDbEntity
  8
1
 62
     4
100
AcDbPoint
 10
117.75
 20
12.50000000000001
 30
0.0
  0
POINT
  5
65
330
48
100
AcDbEntity
  8
1
 62
     4
100
AcDbPoint
 10
129.25
 20
12.50000000000001
 30
0.0
  0
POINT
  5
66
330
48
100
AcDbEntity
  8
1
 62
     4
100
AcDbPoint
 10
123.5
 20
12.50000000000001
 30
0.0
  0
POINT
  5
67
330
48
100
AcDbEntity
  8
1
 62
     4
100
AcDbPoint
 10
123.5
 20
19.00000000000001
 30
0.0
  0
POINT
  5
68
330
48
100
AcDbEntity
  8
1
 62
     4
100
AcDbPoint
 10
100.75
 20
12.50000000000001
 30
0.0
  0
POINT
  5
69
330
48
100
AcDbEntity
  8
1
 62
     4
100
AcDbPoint
 10
112.25
 20
12.50000000000001
 30
0.0
  0
POINT
  5
6A
330
48
100
AcDbEntity
  8
1
 62
     4
100
AcDbPoint
 10
106.5
 20
12.50000000000001
 30
0.0
  0
POINT
  5
6B
330
48
100
AcDbEntity
  8
1
 62
     4
100
AcDbPoint
 10
106.5
 20
19.00000000000001
 30
0.0
  0
POINT
  5
6C
330
48
100
AcDbEntity
  8
1
 62
     4
100
AcDbPoint
 10
85.25
 20
17.00000000000001
 30
0.0
  0
POINT
  5
6D
330
48
100
AcDbEntity
  8
1
 62
     4
100
AcDbPoint
 10
93.74999999999997
 20
17.00000000000001
 30
0.0
  0
POINT
  5
6E
330
48
100
AcDbEntity
  8
1
 62
     4
100
AcDbPoint
 10
183.0
 20
15.00000000000001
 30
0.0
  0
LINE
  5
6F
330
48
100
AcDbEntity
  8
1
  6
Continuous
 62
     2
100
AcDbLine
 10
81.0
 20
27.00000000000001
 30
0.0
 11
81.0
 21
10.0
 31
0.0
  0
LINE
  5
70
330
48
100
AcDbEntity
  8
1
  6
DOT_CENTER
 62
     2
100
AcDbLine
 10
187.0
 20
26.50000000000001
 30
0.0
 11
187.0
 21
20.50000000000001
 31
0.0
  0
LINE
  5
71
330
48
100
AcDbEntity
  8
1
  6
DOT_CENTER
 62
     2
100
AcDbLine
 10
184.0
 20
23.50000000000001
 30
0.0
 11
197.0
 21
23.50000000000001
 31
0.0
  0
LINE
  5
72
330
48
100
AcDbEntity
  8
1
  6
Continuous
 62
     7
100
AcDbLine
 10
196.0
 20
21.50000000000001
 30
0.0
 11
191.0
 21
22.30000000000001
 31
0.0
  0
LINE
  5
73
330
48
100
AcDbEntity
  8
1
  6
Continuous
 62
     7
100
AcDbLine
 10
196.0
 20
25.50000000000001
 30
0.0
 11
196.0
 21
21.50000000000001
 31
0.0
  0
LINE
  5
74
330
48
100
AcDbEntity
  8
1
  6
Continuous
 62
     7
100
AcDbLine
 10
191.0
 20
24.70000000000002
 30
0.0
 11
196.0
 21
25.50000000000001
 31
0.0
  0
LINE
  5
75
330
48
100
AcDbEntity
  8
1
  6
Continuous
 62
     7
100
AcDbLine
 10
191.0
 20
24.70000000000002
 30
0.0
 11
191.0
 21
22.30000000000001
 31
0.0
  0
LINE
  5
76
330
48
100
AcDbEntity
  8
1
  6
Continuous
 62
     2
100
AcDbLine
 10
33.0
 20
27.00000000000001
 30
0.0
 11
33.0
 21
10.0
 31
0.0
  0
LINE
  5
77
330
48
100
AcDbEntity
  8
1
  6
Continuous
 62
     2
100
AcDbLine
 10
25.0
 20
18.50000000000001
 30
0.0
 11
81.0
 21
18.50000000000001
 31
0.0
  0
LINE
  5
78
330
48
100
AcDbEntity
  8
1
  6
Continuous
 62
     7
100
AcDbLine
 10
200.0
 20
287.0000000000003
 30
0.0
 11
105.0
 21
287.0000000000003
 31
0.0
  0
LINE
  5
79
330
48
100
AcDbEntity
  8
1
  6
Continuous
 62
     7
100
AcDbLine
 10
200.0
 20
10.0
 30
0.0
 11
200.0
 21
148.5
 31
0.0
  0
LINE
  5
7A
330
48
100
AcDbEntity
  8
1
  6
Continuous
 62
     7
100
AcDbLine
 10
25.0
 20
10.0
 30
0.0
 11
105.0
 21
10.0
 31
0.0
  0
LINE
  5
7B
330
48
100
AcDbEntity
  8
1
  6
PHANTOM
 62
     4
100
AcDbLine
 10
0.0
 20
297.0
 30
0.0
 11
0.0
 21
0.0
 31
0.0
  0
LINE
  5
7C
330
48
100
AcDbEntity
  8
1
  6
PHANTOM
 62
     4
100
AcDbLine
 10
210.0
 20
297.0
 30
0.0
 11
0.0
 21
297.0
 31
0.0
  0
LINE
  5
7D
330
48
100
AcDbEntity
  8
1
  6
PHANTOM
 62
     4
100
AcDbLine
 10
210.0
 20
0.0
 30
0.0
 11
210.0
 21
297.0
 31
0.0
  0
LINE
  5
7E
330
48
100
AcDbEntity
  8
1
  6
PHANTOM
 62
     4
100
AcDbLine
 10
0.0
 20
0.0
 30
0.0
 11
210.0
 21
0.0
 31
0.0
  0
LINE
  5
7F
330
48
100
AcDbEntity
  8
1
  6
Continuous
 62
     7
100
AcDbLine
 10
25.0
 20
41.00000000000001
 30
0.0
 11
200.0
 21
41.00000000000001
 31
0.0
  0
LINE
  5
80
330
48
100
AcDbEntity
  8
1
  6
Continuous
 62
     7
100
AcDbLine
 10
200.0
 20
27.00000000000001
 30
0.0
 11
25.0
 21
27.00000000000001
 31
0.0
  0
LINE
  5
81
330
48
100
AcDbEntity
  8
1
  6
Continuous
 62
     2
100
AcDbLine
 10
33.0
 20
41.00000000000001
 30
0.0
 11
33.0
 21
27.00000000000001
 31
0.0
  0
LINE
  5
82
330
48
100
AcDbEntity
  8
1
  6
Continuous
 62
     2
100
AcDbLine
 10
55.0
 20
287.0000000000003
 30
0.0
 11
55.0
 21
277.0000000000003
 31
0.0
  0
LINE
  5
83
330
48
100
AcDbEntity
  8
1
  6
Continuous
 62
     2
100
AcDbLine
 10
40.0
 20
287.0000000000003
 30
0.0
 11
40.0
 21
277.0000000000003
 31
0.0
  0
LINE
  5
84
330
48
100
AcDbEntity
  8
1
  6
Continuous
 62
     7
100
AcDbLine
 10
25.0
 20
10.0
 30
0.0
 11
25.0
 21
148.5
 31
0.0
  0
LINE
  5
85
330
48
100
AcDbEntity
  8
1
  6
Continuous
 62
     2
100
AcDbLine
 10
55.0
 20
277.0000000000003
 30
0.0
 11
25.0
 21
277.0000000000003
 31
0.0
  0
LINE
  5
86
330
48
100
AcDbEntity
  8
1
  6
Continuous
 62
     2
100
AcDbLine
 10
166.0
 20
27.00000000000001
 30
0.0
 11
166.0
 21
10.0
 31
0.0
  0
LINE
  5
87
330
48
100
AcDbEntity
  8
1
  6
Continuous
 62
     2
100
AcDbLine
 10
132.0
 20
27.00000000000001
 30
0.0
 11
132.0
 21
9.99999999999999
 31
0.0
  0
LINE
  5
88
330
48
100
AcDbEntity
  8
1
  6
Continuous
 62
     2
100
AcDbLine
 10
149.0
 20
27.00000000000001
 30
0.0
 11
149.0
 21
10.0
 31
0.0
  0
LINE
  5
89
330
48
100
AcDbEntity
  8
1
  6
Continuous
 62
     2
100
AcDbLine
 10
115.0
 20
27.00000000000001
 30
0.0
 11
115.0
 21
9.99999999999999
 31
0.0
  0
LINE
  5
8A
330
48
100
AcDbEntity
  8
1
  6
Continuous
 62
     2
100
AcDbLine
 10
97.99999999999997
 20
27.00000000000001
 30
0.0
 11
97.99999999999997
 21
9.99999999999999
 31
0.0
  0
LINE
  5
8B
330
48
100
AcDbEntity
  8
1
  6
Continuous
 62
     2
100
AcDbLine
 10
166.0
 20
20.00000000000001
 30
0.0
 11
200.0
 21
20.00000000000001
 31
0.0
  0
LINE
  5
8C
330
48
100
AcDbEntity
  8
1
  6
Continuous
 62
     2
100
AcDbLine
 10
105.0
 20
287.0000000000003
 30
0.0
 11
105.0
 21
292.0000000000003
 31
0.0
  0
LINE
  5
8D
330
48
100
AcDbEntity
  8
1
  6
Continuous
 62
     7
100
AcDbLine
 10
105.0
 20
287.0000000000003
 30
0.0
 11
25.0
 21
287.0000000000003
 31
0.0
  0
LINE
  5
8E
330
48
100
AcDbEntity
  8
1
  6
Continuous
 62
     2
100
AcDbLine
 10
25.0
 20
148.5
 30
0.0
 11
20.0
 21
148.5
 31
0.0
  0
LINE
  5
8F
330
48
100
AcDbEntity
  8
1
  6
Continuous
 62
     7
100
AcDbLine
 10
25.0
 20
148.5
 30
0.0
 11
25.0
 21
287.0000000000003
 31
0.0
  0
LINE
  5
90
330
48
100
AcDbEntity
  8
1
  6
Continuous
 62
     2
100
AcDbLine
 10
200.0
 20
148.5
 30
0.0
 11
205.0
 21
148.5
 31
0.0
  0
LINE
  5
91
330
48
100
AcDbEntity
  8
1
  6
Continuous
 62
     7
100
AcDbLine
 10
200.0
 20
148.5
 30
0.0
 11
200.0
 21
287.0000000000003
 31
0.0
  0
LINE
  5
92
330
48
100
AcDbEntity
  8
1
  6
Continuous
 62
     2
100
AcDbLine
 10
105.0
 20
10.0
 30
0.0
 11
105.0
 21
5.0
 31
0.0
  0
LINE
  5
93
330
48
100
AcDbEntity
  8
1
  6
Continuous
 62
     7
100
AcDbLine
 10
105.0
 20
10.0
 30
0.0
 11
200.0
 21
10.0
 31
0.0
  0
CIRCLE
  5
98
330
48
100
AcDbEntity
  8
1
  6
DOT_CENTER
 62
     7
100
AcDbCircle
 10
89.5
 20
18.00000000000001
 30
0.0
 40
0.0999999999999943
  0
CIRCLE
  5
99
330
48
100
AcDbEntity
  8
1
  6
DOT_CENTER
 62
     7
100
AcDbCircle
 10
89.5
 20
16.00000000000001
 30
0.0
 40
0.0999999999999943
  0
CIRCLE
  5
9A
330
48
100
AcDbEntity
  8
1
  6
Continuous
 62
     7
100
AcDbCircle
 10
187.0
 20
23.50000000000001
 30
0.0
 40
2.0
  0
CIRCLE
  5
9B
330
48
100
AcDbEntity
  8
1
  6
Continuous
 62
     7
100
AcDbCircle
 10
187.0
 20
23.50000000000001
 30
0.0
 40
1.200000000000188
  0
CIRCLE
  5
9C
330
48
100
AcDbEntity
  8
1
  6
Continuous
 62
     7
100
AcDbCircle
 10
154.5
 20
12.50000000000001
 30
0.0
 40
0.3000000000000966
  0
CIRCLE
  5
9D
330
48
100
AcDbEntity
  8
1
  6
Continuous
 62
     7
100
AcDbCircle
 10
160.5
 20
12.50000000000001
 30
0.0
 40
0.3000000000000966
  0
CIRCLE
  5
9E
330
48
100
AcDbEntity
  8
1
  6
Continuous
 62
     7
100
AcDbCircle
 10
143.5
 20
12.50000000000001
 30
0.0
 40
0.3000000000000114
  0
CIRCLE
  5
9F
330
48
100
AcDbEntity
  8
1
  6
Continuous
 62
     7
100
AcDbCircle
 10
137.5
 20
12.50000000000001
 30
0.0
 40
0.3000000000000114
  0
CIRCLE
  5
A0
330
48
100
AcDbEntity
  8
1
  6
Continuous
 62
     7
100
AcDbCircle
 10
126.5
 20
12.50000000000001
 30
0.0
 40
0.2999999999999972
  0
CIRCLE
  5
A1
330
48
100
AcDbEntity
  8
1
  6
Continuous
 62
     7
100
AcDbCircle
 10
120.5
 20
12.50000000000001
 30
0.0
 40
0.2999999999999972
  0
CIRCLE
  5
A2
330
48
100
AcDbEntity
  8
1
  6
Continuous
 62
     7
100
AcDbCircle
 10
109.5
 20
12.50000000000001
 30
0.0
 40
0.2999999999999972
  0
CIRCLE
  5
A3
330
48
100
AcDbEntity
  8
1
  6
Continuous
 62
     7
100
AcDbCircle
 10
103.5
 20
12.50000000000001
 30
0.0
 40
0.2999999999999972
  0
SPLINE
  5
A4
102
{ACAD_REACTORS
330
C2
102
}
330
48
100
AcDbEntity
  8
_U_30EC_U_30A4_U_30E4_U_30FC_1
  6
Continuous
 62
     2
100
AcDbSpline
210
0.0
220
0.0
230
1.0
 70
    11
 71
     3
 72
    99
 73
    95
 74
    93
 42
0.000000001
 43
0.0000000001
 44
0.00000001
 40
0.0
 40
0.0
 40
0.0
 40
0.0
 40
0.0796417172272494
 40
0.1621768542356028
 40
0.2486489160957682
 40
0.3404969668524639
 40
0.4381912511164648
 40
0.5434463660244946
 40
0.6518115192847259
 40
0.7530190937886795
 40
0.8492196919725091
 40
0.9419290312998168
 40
1.034249663570044
 40
1.12907860062022
 40
1.226697027573248
 40
1.327220425421715
 40
1.47057213493803
 40
1.59548986337123
 40
1.719934125348408
 40
1.850576620127421
 40
1.989059629987314
 40
2.134139054226934
 40
2.280698007207194
 40
2.424529739039415
 40
2.565929576985824
 40
2.708239260773539
 40
2.861717887443658
 40
3.04516854034737
 40
3.183798301138603
 40
3.314813961455457
 40
3.442083470447298
 40
3.569912708372963
 40
3.70217751250936
 40
3.842307559659601
 40
3.992872223245979
 40
4.156750662218311
 40
4.310981861107532
 40
4.445859909322577
 40
4.57239393613157
 40
4.701656719782039
 40
4.768279086008542
 40
4.835960697898482
 40
4.912788918729412
 40
5.006285208481635
 40
5.026909478751711
 40
5.047533749021276
 40
5.101808031471332
 40
5.162325165538641
 40
5.226919745995965
 40
5.294231806596841
 40
5.364544852554985
 40
5.438319055468033
 40
5.517877651324314
 40
5.607647714861683
 40
5.700449642544529
 40
5.788251142364261
 40
5.872714706039843
 40
5.955167292575407
 40
6.037192395190458
 40
6.120669181469169
 40
6.206848616686438
 40
6.296680855416854
 40
6.442558392872684
 40
6.568190371608382
 40
6.692904567360451
 40
6.824220446557233
 40
6.963121850329471
 40
7.107843738851258
 40
7.253431663907395
 40
7.395187468036864
 40
7.533140753237852
 40
7.67055045717534
 40
7.816236511769357
 40
7.987691657359321
 40
8.142277421969354
 40
8.293662615415121
 40
8.442962460879382
 40
8.591598316185383
 40
8.743678992361895
 40
8.903725323699303
 40
9.076307008890627
 40
9.26557860468071
 40
9.459203795360885
 40
9.617619810273673
 40
9.753609671362032
 40
9.874873300004134
 40
9.954520184977802
 40
10.02416413719247
 40
10.09769764405447
 40
10.18909955924975
 40
10.20974586420137
 40
10.23039218263382
 40
10.30057101881267
 40
10.37632012987548
 40
10.37632012987548
 40
10.37632012987548
 40
10.37632012987548
 10
170.1465954835851
 20
14.13795663215994
 30
0.0
 10
170.1632217851219
 20
14.11720608845313
 30
0.0
 10
170.1970784206577
 20
14.07495111711901
 30
0.0
 10
170.2599822541036
 20
14.02029811392072
 30
0.0
 10
170.3332500940392
 20
13.9729902512105
 30
0.0
 10
170.4175969238636
 20
13.93527231437935
 30
0.0
 10
170.513224061546
 20
13.91040619731952
 30
0.0
 10
170.6171853775346
 20
13.90309559345938
 30
0.0
 10
170.7224020220405
 20
13.91142322794053
 30
0.0
 10
170.8206626371334
 20
13.94149179651528
 30
0.0
 10
170.9058986427547
 20
13.98848822971875
 30
0.0
 10
170.9779220206103
 20
14.04952991250857
 30
0.0
 10
171.0350917709096
 20
14.12412969578586
 30
0.0
 10
171.076786874744
 20
14.21002464660169
 30
0.0
 10
171.1026952846292
 20
14.30485850432212
 30
0.0
 10
171.1118037332653
 20
14.41854979038366
 30
0.0
 10
171.0986864796487
 20
14.54332587770779
 30
0.0
 10
171.0325330334414
 20
14.66014719171893
 30
0.0
 10
170.9369370919569
 20
14.74512539577373
 30
0.0
 10
170.8249681022369
 20
14.8141668445916
 30
0.0
 10
170.6993659583269
 20
14.8720414204589
 30
0.0
 10
170.5656691620856
 20
14.9237372328434
 30
0.0
 10
170.4313122818831
 20
14.97899092397179
 30
0.0
 10
170.3051983986877
 20
15.04939770641653
 30
0.0
 10
170.1926579987536
 20
15.13785540731248
 30
0.0
 10
170.0969963064458
 20
15.24981067868471
 30
0.0
 10
170.0334157151826
 20
15.39949910101383
 30
0.0
 10
170.0200706505015
 20
15.55932794385141
 30
0.0
 10
170.0320510987448
 20
15.71048405306845
 30
0.0
 10
170.071229892884
 20
15.83809244591538
 30
0.0
 10
170.135498775091
 20
15.95080874030844
 30
0.0
 10
170.223820499974
 20
16.04648609268686
 30
0.0
 10
170.3338091207628
 20
16.12354214985756
 30
0.0
 10
170.4632284401266
 20
16.18151396936273
 30
0.0
 10
170.6111838967794
 20
16.21739177588823
 30
0.0
 10
170.7682069455486
 20
16.22746719050562
 30
0.0
 10
170.917494046643
 20
16.2186363776259
 30
0.0
 10
171.0596253614169
 20
16.19074899340352
 30
0.0
 10
171.1595922609625
 20
16.13413314701136
 30
0.0
 10
171.3125074736186
 20
16.08674602105507
 30
0.0
 10
171.2455131717168
 20
16.00197553001185
 30
0.0
 10
171.229647912027
 20
15.93438901873482
 30
0.0
 10
171.1978750531298
 20
15.86926092793189
 30
0.0
 10
171.2150202209571
 20
15.76723453256951
 30
0.0
 10
171.1666427208232
 20
15.774932116819
 30
0.0
 10
171.1315789440765
 20
15.76806771724806
 30
0.0
 10
171.1296697985719
 20
15.83263831158198
 30
0.0
 10
171.0985692931989
 20
15.87825639621393
 30
0.0
 10
171.0664551628456
 20
15.93561036628454
 30
0.0
 10
171.0208038475168
 20
15.98540462692559
 30
0.0
 10
170.9658508218387
 20
16.02994813718995
 30
0.0
 10
170.9010841173007
 20
16.06763988836549
 30
0.0
 10
170.8232377310597
 20
16.09283375791353
 30
0.0
 10
170.7355160553352
 20
16.09931230998111
 30
0.0
 10
170.6452903277807
 20
16.09235709285606
 30
0.0
 10
170.5594594694064
 20
16.06909190460923
 30
0.0
 10
170.4828343638597
 20
16.0313164410754
 30
0.0
 10
170.41652656362
 20
15.98051641089576
 30
0.0
 10
170.3622560536965
 20
15.91731143407208
 30
0.0
 10
170.3224925345459
 20
15.84276455710365
 30
0.0
 10
170.2976775510588
 20
15.75917313997765
 30
0.0
 10
170.289212426287
 20
15.65192948382284
 30
0.0
 10
170.3019697987104
 20
15.52965457267558
 30
0.0
 10
170.3681548409272
 20
15.41149724291209
 30
0.0
 10
170.4640977399833
 20
15.32606325709527
 30
0.0
 10
170.5757914963182
 20
15.25583362306721
 30
0.0
 10
170.7010863668703
 20
15.19659162305303
 30
0.0
 10
170.8349823941447
 20
15.1461670808613
 30
0.0
 10
170.968993033315
 20
15.0932251698438
 30
0.0
 10
171.0950885316916
 20
15.0275017062518
 30
0.0
 10
171.2076216638417
 20
14.94480352537318
 30
0.0
 10
171.3031370284232
 20
14.83996006310074
 30
0.0
 10
171.3672706486962
 20
14.6993711725157
 30
0.0
 10
171.3811103725278
 20
14.54065409451592
 30
0.0
 10
171.367395471223
 20
14.38153155217875
 30
0.0
 10
171.3244739153984
 20
14.2348382881921
 30
0.0
 10
171.2545906329065
 20
14.10119796587144
 30
0.0
 10
171.157459221383
 20
13.98532387699286
 30
0.0
 10
171.0347806023657
 20
13.89089981770089
 30
0.0
 10
170.8874408413167
 20
13.82179270651982
 30
0.0
 10
170.7177132497124
 20
13.77953210858851
 30
0.0
 10
170.5317404979597
 20
13.76781736230407
 30
0.0
 10
170.3528955926183
 20
13.77809486683435
 30
0.0
 10
170.1881733753743
 20
13.81966573769154
 30
0.0
 10
170.0834410841056
 20
13.88797642883939
 30
0.0
 10
169.9350960790367
 20
13.93675219032107
 30
0.0
 10
169.9980378194728
 20
14.02976591290842
 30
0.0
 10
170.007227443006
 20
14.10296536248279
 30
0.0
 10
170.0303711301231
 20
14.16936294501345
 30
0.0
 10
170.0034588335318
 20
14.26974809527581
 30
0.0
 10
170.0521338956339
 20
14.26234033517378
 30
0.0
 10
170.0916530580697
 20
14.26894063620895
 30
0.0
 10
170.0996204944702
 20
14.19078703218931
 30
0.0
 10
170.1305436967922
 20
14.15600927375856
 30
0.0
 10
170.1465954835851
 20
14.13795663215994
 30
0.0
 11
170.1465954835851
 21
14.13795663215994
 31
0.0
 11
170.1982038075864
 21
14.07729869814736
 31
0.0
 11
170.2601105501335
 21
14.0227129516332
 31
0.0
 11
170.3327764009802
 21
13.97583980928383
 31
0.0
 11
170.4166468655843
 21
13.93839906276537
 31
0.0
 11
170.511221073241
 21
13.91390636311878
 31
0.0
 11
170.6161603327165
 21
13.90575829888473
 31
0.0
 11
170.7240739497552
 21
13.91564048638223
 31
0.0
 11
170.8208419941616
 21
13.94528704887481
 31
0.0
 11
170.9050776083319
 21
13.99175118948818
 31
0.0
 11
170.9756144207686
 21
14.0519141321815
 31
0.0
 11
171.031944210998
 21
14.1250581946632
 31
0.0
 11
171.0736690016004
 21
14.21021434047521
 31
0.0
 11
171.0994680808032
 21
14.30436190989612
 31
0.0
 11
171.1080824729446
 21
14.4045155209822
 31
0.0
 11
171.0878517703357
 21
14.54643250879397
 31
0.0
 11
171.0272522666731
 21
14.65566684036387
 31
0.0
 11
170.9364971286285
 21
14.74081306430094
 31
0.0
 11
170.826010188474
 21
14.81052746532515
 31
0.0
 11
170.7008523531254
 21
14.86979854169922
 31
0.0
 11
170.5662951950998
 21
14.9240425347412
 31
0.0
 11
170.4316884277007
 21
14.98201274306003
 31
0.0
 11
170.3065802017259
 21
15.05297399304232
 31
0.0
 11
170.196027609828
 21
15.14113315968694
 31
0.0
 11
170.1053381235265
 21
15.25080295132617
 31
0.0
 11
170.0447055469484
 21
15.39179720476315
 31
0.0
 11
170.0245079172553
 21
15.57413260402314
 31
0.0
 11
170.0374030471347
 21
15.71216131926641
 31
0.0
 11
170.0761016659391
 21
15.83733128451289
 31
0.0
 11
170.1393141731506
 21
15.94779262129083
 31
0.0
 11
170.2257499954545
 21
16.04196885390621
 31
0.0
 11
170.3336492808962
 21
16.1184654077065
 31
0.0
 11
170.4613526283329
 21
16.17615670109486
 31
0.0
 11
170.6075393259923
 21
16.21220066809973
 31
0.0
 11
170.770976856545
 21
16.22421385386061
 31
0.0
 11
170.9248918431289
 21
16.21434269066864
 31
0.0
 11
171.0564887242607
 21
16.18477329831497
 31
0.0
 11
171.172563634494
 21
16.13439993895252
 31
0.0
 11
171.2800792741123
 21
16.06264163167877
 31
0.0
 11
171.2516994050445
 21
16.00236624106886
 31
0.0
 11
171.2284855254284
 21
15.93879017337646
 31
0.0
 11
171.2078381040801
 21
15.86478841992268
 31
0.0
 11
171.1871840681487
 21
15.77360197897326
 31
0.0
 11
171.1665597978415
 21
15.77360197897326
 31
0.0
 11
171.1459355275343
 21
15.77360197897326
 31
0.0
 11
171.1256706495791
 21
15.82395108486346
 31
0.0
 11
171.0994658759421
 21
15.87850045116928
 31
0.0
 11
171.0650468924451
 21
15.93316116296114
 31
0.0
 11
171.0203554612937
 21
15.98349593725411
 31
0.0
 11
170.9657333359511
 21
16.02777175321528
 31
0.0
 11
170.9016722004326
 21
16.06436142334501
 31
0.0
 11
170.8259682961141
 21
16.08882545979727
 31
0.0
 11
170.7365722046449
 21
16.09701100667022
 31
0.0
 11
170.6440937174207
 21
16.08926973931101
 31
0.0
 11
170.5594072091645
 21
16.06609003445566
 31
0.0
 11
170.483702448884
 21
16.02863495634008
 31
0.0
 11
170.4183754766516
 21
15.97832774281101
 31
0.0
 11
170.3650487887665
 21
15.91600293379879
 31
0.0
 11
170.3254809233902
 21
15.84249947895607
 31
0.0
 11
170.3009523754711
 21
15.75988443557391
 31
0.0
 11
170.2927954104108
 21
15.67042329844352
 31
0.0
 11
170.3130095765617
 21
15.52595308146573
 31
0.0
 11
170.373625616682
 21
15.41591177072935
 31
0.0
 11
170.4643479320758
 21
15.33033670130631
 31
0.0
 11
170.5748676948813
 21
15.25941954854624
 31
0.0
 11
170.7000089937719
 21
15.19914305550578
 31
0.0
 11
170.8345826882553
 21
15.1459044791302
 31
0.0
 11
170.9691729191968
 21
15.09039489581073
 31
0.0
 11
171.0942976816298
 21
15.0237728124941
 31
0.0
 11
171.204800907977
 21
14.94118863716749
 31
0.0
 11
171.2955397598288
 21
14.83800003476272
 31
0.0
 11
171.3561557999489
 21
14.70552315979584
 31
0.0
 11
171.3763699660998
 21
14.53526378483839
 31
0.0
 11
171.3621839747998
 21
14.38133030397412
 31
0.0
 11
171.3196087009193
 21
14.23605531269097
 31
0.0
 11
171.2499752884265
 21
14.10398854189068
 31
0.0
 11
171.1544992078714
 21
13.99007218775246
 31
0.0
 11
171.0341060772624
 21
13.89715272597017
 31
0.0
 11
170.8896160201846
 21
13.8283235766818
 31
0.0
 11
170.7223519532714
 21
13.78581275203966
 31
0.0
 11
170.5336103348226
 21
13.7716586461404
 31
0.0
 11
170.3405031726387
 21
13.78581275203966
 31
0.0
 11
170.1878975900911
 21
13.8283235766818
 31
0.0
 11
170.0661897942203
 21
13.88899033013889
 31
0.0
 11
169.9660261826364
 21
13.95734322942737
 31
0.0
 11
169.9922320587039
 21
14.03255545163076
 31
0.0
 11
170.0090121537618
 21
14.10014767383611
 31
0.0
 11
170.0206196447852
 21
14.17275926235961
 31
0.0
 11
170.0313606254139
 21
14.26352788212859
 31
0.0
 11
170.0520069443315
 21
14.26352788212859
 31
0.0
 11
170.0726532632492
 21
14.26352788212859
 31
0.0
 11
170.1048916391629
 21
14.20119204881084
 31
0.0
 11
170.1465954835851
 21
14.13795663215994
 31
0.0
  0
SPLINE
  5
A5
102
{ACAD_REACTORS
330
C3
102
}
330
48
100
AcDbEntity
  8
_U_30EC_U_30A4_U_30E4_U_30FC_1
  6
Continuous
 62
     2
100
AcDbSpline
210
0.0
220
0.0
230
1.0
 70
    11
 71
     3
 72
    57
 73
    53
 74
    51
 42
0.000000001
 43
0.0000000001
 44
0.00000001
 40
0.0
 40
0.0
 40
0.0
 40
0.0
 40
0.0471632082808648
 40
0.0914861054632134
 40
0.135776251970237
 40
0.1826527001610665
 40
0.2295203288572573
 40
0.2737751972220743
 40
0.3181310461543053
 40
0.3652607198398472
 40
0.4571007286314376
 40
0.567185102916497
 40
0.6894623283868055
 40
0.818175827254583
 40
0.9510087229273837
 40
1.085852229674033
 40
1.218126164475295
 40
1.34354513114237
 40
1.454537202956786
 40
1.567187607530796
 40
1.680710966642414
 40
1.794226869736778
 40
1.900009184247578
 40
2.004085860447857
 40
2.108162674451717
 40
2.21400015015529
 40
2.496038577352126
 40
2.762350745479234
 40
2.997275353279382
 40
3.185110082137707
 40
3.246407890063876
 40
3.312607550212663
 40
3.378877742711537
 40
3.440140399651418
 40
4.10050169600643
 40
4.754913085563484
 40
5.41133169342389
 40
6.077890432568664
 40
6.110575292670943
 40
6.143260152775723
 40
6.367989363395113
 40
6.610525374951506
 40
6.863389136467265
 40
7.119380025547552
 40
7.376036605091047
 40
7.631164770966246
 40
7.876722425456395
 40
8.104953735855924
 40
8.312916685924284
 40
8.497730294941256
 40
8.651018984313806
 40
8.764738853624532
 40
8.764738853624532
 40
8.764738853624532
 40
8.764738853624532
 10
174.7922649500513
 20
13.81626739612928
 30
0.0
 10
174.7766616726931
 20
13.81826231079078
 30
0.0
 10
174.7463947960303
 20
13.82213201360299
 30
0.0
 10
174.7010994202251
 20
13.82341984967266
 30
0.0
 10
174.6559553129349
 20
13.8230868355405
 30
0.0
 10
174.60990171234
 20
13.82314658674223
 30
0.0
 10
174.5640496172097
 20
13.8232581365
 30
0.0
 10
174.5183711648164
 20
13.82277833456589
 30
0.0
 10
174.4750811541608
 20
13.8246110961872
 30
0.0
 10
174.4039947951514
 20
13.80049556814659
 30
0.0
 10
174.4057477261441
 20
13.92184693977251
 30
0.0
 10
174.3586196370569
 20
14.00726239751232
 30
0.0
 10
174.3191478251762
 20
14.12486929345135
 30
0.0
 10
174.2706635532645
 20
14.24232752540438
 30
0.0
 10
174.2201017402522
 20
14.36405935761509
 30
0.0
 10
174.1718634610477
 20
14.49075967862465
 30
0.0
 10
174.1135232947594
 20
14.59933687784951
 30
0.0
 10
174.0980892667262
 20
14.7562065713441
 30
0.0
 10
173.9566586330635
 20
14.72373446548321
 30
0.0
 10
173.8508397414904
 20
14.7351288868218
 30
0.0
 10
173.7358569725222
 20
14.73392591514614
 30
0.0
 10
173.6253142252141
 20
14.73506945347406
 30
0.0
 10
173.5176583522783
 20
14.73418350037526
 30
0.0
 10
173.4121322529242
 20
14.73416602390519
 30
0.0
 10
173.3109192682013
 20
14.72714032472414
 30
0.0
 10
173.1266804827753
 20
14.75135859859869
 30
0.0
 10
173.1157393685411
 20
14.44741691121888
 30
0.0
 10
173.0087691634751
 20
14.22353177253394
 30
0.0
 10
172.9098148604346
 20
14.03895314292498
 30
0.0
 10
172.9225090524008
 20
13.79530204804211
 30
0.0
 10
172.8050091716397
 20
13.82508046753196
 30
0.0
 10
172.742205586831
 20
13.82258089509602
 30
0.0
 10
172.67858720934
 20
13.82344075102803
 30
0.0
 10
172.3946014194074
 20
13.78098039941955
 30
0.0
 10
173.0251638499381
 20
14.50081952444782
 30
0.0
 10
173.1087645289071
 20
15.0127653943573
 30
0.0
 10
173.4929252789338
 20
15.53353743550042
 30
0.0
 10
173.4777208288567
 20
16.23519626253214
 30
0.0
 10
173.7239265722696
 20
16.22345633081256
 30
0.0
 10
173.8256346157562
 20
16.23225004452773
 30
0.0
 10
173.8249752035817
 20
15.98059650730345
 30
0.0
 10
173.9428317155829
 20
15.79818020733958
 30
0.0
 10
174.0315515260485
 20
15.55563740662866
 30
0.0
 10
174.1322292485259
 20
15.32340030530127
 30
0.0
 10
174.2311142712243
 20
15.08674644566913
 30
0.0
 10
174.3299676990669
 20
14.85461739170092
 30
0.0
 10
174.4256166390926
 20
14.63122222788791
 30
0.0
 10
174.5159904573271
 20
14.42272549049312
 30
0.0
 10
174.5989944568189
 20
14.23308448529322
 30
0.0
 10
174.6726088582799
 20
14.06663106068097
 30
0.0
 10
174.7342815895545
 20
13.92917699626098
 30
0.0
 10
174.7749458885604
 20
13.84999239430034
 30
0.0
 10
174.7922649500513
 20
13.81626739612928
 30
0.0
 11
174.7922649500513
 21
13.81626739612928
 31
0.0
 11
174.7453878317448
 21
13.82145433189184
 31
0.0
 11
174.7010975896125
 21
13.82315538223861
 31
0.0
 11
174.6568074431729
 21
13.82315538223861
 31
0.0
 11
174.6099309947159
 21
13.82315538223861
 31
0.0
 11
174.5630633657033
 21
13.82315538223861
 31
0.0
 11
174.5188084970408
 21
13.82315538223861
 31
0.0
 11
174.4744852776854
 21
13.82145433189184
 31
0.0
 11
174.4276419021443
 21
13.81626739612928
 31
0.0
 11
174.3992532136325
 21
13.90360966173245
 31
0.0
 11
174.3622721815898
 21
14.00729656274818
 31
0.0
 11
174.3188386236701
 21
14.12159987001126
 31
0.0
 11
174.2711055866936
 21
14.24113531268969
 31
0.0
 11
174.2208160133237
 21
14.36408057307565
 31
0.0
 11
174.1696467003932
 21
14.48883822929445
 31
0.0
 11
174.1197531801326
 21
14.61134141502771
 31
0.0
 11
174.0733119111841
 21
14.72784517367917
 31
0.0
 11
173.9623611907589
 21
14.73087465284505
 31
0.0
 11
173.8497309225089
 21
14.7330045486779
 31
0.0
 11
173.7362152069449
 21
14.7343219531914
 31
0.0
 11
173.62270004768
 21
14.73473315978851
 31
0.0
 11
173.5169185312816
 21
14.7343219531914
 31
0.0
 11
173.4128501919225
 21
14.7330045486779
 31
0.0
 11
173.3087951724045
 21
14.73087465284505
 31
0.0
 11
173.2030010615596
 21
14.72784517367917
 31
0.0
 11
173.0980914750139
 21
14.4660443751335
 31
0.0
 11
173.0034868690332
 21
14.2171023265846
 31
0.0
 11
172.9252231210298
 21
13.99559756969557
 31
0.0
 11
172.8693431224555
 21
13.81626739612928
 31
0.0
 11
172.8082651639442
 21
13.82145433189184
 31
0.0
 11
172.742087361813
 21
13.82315538223861
 31
0.0
 11
172.6758390041282
 21
13.82145433189184
 31
0.0
 11
172.6147963233938
 21
13.81626739612928
 31
0.0
 11
172.889968495193
 21
14.41656508695142
 31
0.0
 11
173.158294573417
 21
15.01343642360775
 31
0.0
 11
173.4240277350405
 21
15.61366245644381
 31
0.0
 11
173.6914740737033
 21
16.22421385386061
 31
0.0
 11
173.7241589339806
 21
16.22421385386061
 31
0.0
 11
173.7568437942579
 21
16.22421385386061
 31
0.0
 11
173.8428300681057
 21
16.01658539037083
 31
0.0
 11
173.9357285813609
 21
15.79254614563517
 31
0.0
 11
174.0328714521463
 21
15.55908663180469
 31
0.0
 11
174.1317936458031
 21
15.32298128464145
 31
0.0
 11
174.2315341249927
 21
15.08649780379784
 31
0.0
 11
174.3313071129353
 21
14.8516878125371
 31
0.0
 11
174.4280608257449
 21
14.6259949219685
 31
0.0
 11
174.5188084970408
 21
14.41658052097918
 31
0.0
 11
174.6022150834546
 21
14.22607611130459
 31
0.0
 11
174.6770293263377
 21
14.05708232662467
 31
0.0
 11
174.7410729186603
 21
13.91781337700668
 31
0.0
 11
174.7922649500513
 21
13.81626739612928
 31
0.0
  0
SPLINE
  5
A6
102
{ACAD_REACTORS
330
C3
102
}
330
48
100
AcDbEntity
  8
_U_30EC_U_30A4_U_30E4_U_30FC_1
  6
Continuous
 62
     2
100
AcDbSpline
210
0.0
220
0.0
230
1.0
 70
    11
 71
     3
 72
    25
 73
    21
 74
    19
 42
0.000000001
 43
0.0000000001
 44
0.00000001
 40
0.0
 40
0.0
 40
0.0
 40
0.0
 40
0.0911479969063969
 40
0.1858117896203813
 40
0.2804128399734206
 40
0.3715889190713657
 40
0.4679080494217854
 40
0.5642683809229228
 40
0.6605683222644139
 40
0.7569653015809403
 40
0.8561348172521887
 40
1.092615965104199
 40
1.374867658141788
 40
1.611348812011478
 40
1.710518328425139
 40
1.809403163726447
 40
2.045205463293973
 40
2.326646917622027
 40
2.562449217190503
 40
2.661334043833811
 40
2.661334043833811
 40
2.661334043833811
 40
2.661334043833811
 10
173.26837005672
 20
14.88614538197292
 30
0.0
 10
173.2987525917923
 20
14.88598079714554
 30
0.0
 10
173.3606895889112
 20
14.88564528689921
 30
0.0
 10
173.454135696033
 20
14.88269055452
 30
0.0
 10
173.5475095236357
 20
14.87977752877151
 30
0.0
 10
173.6417760753476
 20
14.87894201643416
 30
0.0
 10
173.7354964790968
 20
14.87996644658047
 30
0.0
 10
173.8352040303205
 20
14.8791697747097
 30
0.0
 10
173.9188949546313
 20
14.88921410235219
 30
0.0
 10
174.0637996315045
 20
14.86234617674164
 30
0.0
 10
173.9396132444801
 20
15.03665530280049
 30
0.0
 10
173.8965867286282
 20
15.19651711006092
 30
0.0
 10
173.7808922142209
 20
15.45518458550214
 30
0.0
 10
173.7017565431258
 20
15.59231052861861
 30
0.0
 10
173.6431576621817
 20
15.80937033134078
 30
0.0
 10
173.5864803939439
 20
15.59266134213427
 30
0.0
 10
173.5052809900477
 20
15.45327012438239
 30
0.0
 10
173.4063701281489
 20
15.20406969370193
 30
0.0
 10
173.325362509426
 20
15.01925830226075
 30
0.0
 10
173.2813683325839
 20
14.91650446856116
 30
0.0
 10
173.26837005672
 20
14.88614538197292
 30
0.0
 11
173.26837005672
 21
14.88614538197292
 31
0.0
 11
173.359513773782
 21
14.88526123266759
 31
0.0
 11
173.4541428297581
 21
14.88269697919599
 31
0.0
 11
173.5487082179706
 21
14.88009965280777
 31
0.0
 11
173.6398803250196
 21
14.8792485764191
 31
0.0
 11
173.7361985777706
 21
14.87965978301621
 31
0.0
 11
173.8325499034377
 21
14.8809771875297
 31
0.0
 11
173.9288262638286
 21
14.88310818579312
 31
0.0
 11
174.0251753846343
 21
14.88614538197292
 31
0.0
 11
173.9854633323141
 21
14.9770164219502
 31
0.0
 11
173.8907653613968
 21
15.19370890189602
 31
0.0
 11
173.7777387509471
 21
15.45234186183136
 31
0.0
 11
173.6830407800298
 21
15.66903434177718
 31
0.0
 11
173.6433287277096
 21
15.75990538175446
 31
0.0
 11
173.6043330259267
 21
15.66903434177718
 31
0.0
 11
173.5113432755213
 21
15.45234186183136
 31
0.0
 11
173.4003555089083
 21
15.19370890189602
 31
0.0
 11
173.3073657585029
 21
14.9770164219502
 31
0.0
 11
173.26837005672
 21
14.88614538197292
 31
0.0
  0
SPLINE
  5
A7
102
{ACAD_REACTORS
330
C4
102
}
330
48
100
AcDbEntity
  8
_U_30EC_U_30A4_U_30E4_U_30FC_1
  6
Continuous
 62
     2
100
AcDbSpline
210
0.0
220
0.0
230
1.0
 70
    11
 71
     3
 72
    95
 73
    91
 74
    89
 42
0.000000001
 43
0.0000000001
 44
0.00000001
 40
0.0
 40
0.0
 40
0.0
 40
0.0
 40
0.6550406656911378
 40
1.308087289031946
 40
1.420803739835817
 40
1.566130759770806
 40
1.75706734188848
 40
2.006513545026478
 40
2.087328263121582
 40
2.185328872295658
 40
2.2946124547484
 40
2.408936380534832
 40
2.526802767798587
 40
2.646360524615627
 40
2.762535723971613
 40
2.870057342870187
 40
2.966883448431674
 40
3.050803243518305
 40
3.11581822243663
 40
3.15603005715026
 40
3.213914225080245
 40
3.276689026450646
 40
3.342960320981366
 40
3.40423066715067
 40
3.453822809493477
 40
3.532499827188535
 40
3.634775188507266
 40
3.754909333008251
 40
3.889736761660755
 40
4.035769602175336
 40
4.187256681197715
 40
4.338733685676057
 40
4.488478734676218
 40
4.634708317831676
 40
4.771493189921369
 40
4.892686571561312
 40
5.19977552894455
 40
5.460353566929728
 40
5.667603142345615
 40
5.814722905404587
 40
5.828990806219886
 40
5.855488336304583
 40
5.869756237118914
 40
6.189796507762915
 40
6.531890469873101
 40
6.883053637017095
 40
7.230512024911566
 40
7.566966656764715
 40
7.8852035597075
 40
8.1728874397193
 40
8.418011594062854
 40
8.443926721190776
 40
8.510760470613263
 40
8.602145393795773
 40
8.701714041647215
 40
8.793098965075444
 40
8.859932715058017
 40
8.885847842603667
 40
9.242301256612878
 40
9.589275455016837
 40
9.92180854316424
 40
10.23479624298475
 40
10.29968150889186
 40
10.35323493887774
 40
10.40154625355158
 40
10.46482922477843
 40
10.55973900668424
 40
10.69239545985637
 40
10.84920353475691
 40
11.016263285948
 40
11.18672024367463
 40
11.3537258257723
 40
11.50257442292446
 40
11.6186649502331
 40
11.71329869152894
 40
11.82511050573926
 40
11.94464880845735
 40
12.06929242642527
 40
12.19707290435195
 40
12.32562632860548
 40
12.45034565331298
 40
12.56646595170347
 40
12.67099007414654
 40
12.76077625936802
 40
12.82703233506714
 40
12.87429132786013
 40
12.89831990323352
 40
12.92234847860041
 40
13.53984767410346
 40
14.18294284359391
 40
14.18294284359391
 40
14.18294284359391
 40
14.18294284359391
 10
177.3067935648021
 20
14.70898038201723
 30
0.0
 10
177.175201975855
 20
14.82265058603231
 30
0.0
 10
176.9124193802729
 20
15.04964496316159
 30
0.0
 10
176.399739344102
 20
15.89214462956287
 30
0.0
 10
176.4106654595363
 20
15.5342337757702
 30
0.0
 10
176.4041226527991
 20
15.39267392272133
 30
0.0
 10
176.4028026631773
 20
15.19421305299281
 30
0.0
 10
176.4018117602538
 20
15.02150296045982
 30
0.0
 10
176.4024101751974
 20
14.87865373257579
 30
0.0
 10
176.4038994301882
 20
14.78265005413357
 30
0.0
 10
176.4055683588473
 20
14.6754550326314
 30
0.0
 10
176.4071934954618
 20
14.56164211517581
 30
0.0
 10
176.4092429501686
 20
14.44441572604588
 30
0.0
 10
176.4123165501927
 20
14.32656411232969
 30
0.0
 10
176.4156339697043
 20
14.21228087320619
 30
0.0
 10
176.419360534028
 20
14.10521401867276
 30
0.0
 10
176.4217338161424
 20
14.01007408766921
 30
0.0
 10
176.4278718888357
 20
13.92558557205695
 30
0.0
 10
176.4239784495946
 20
13.86923087298141
 30
0.0
 10
176.4455230443079
 20
13.79825022472355
 30
0.0
 10
176.3680940058618
 20
13.82902677604482
 30
0.0
 10
176.311635324019
 20
13.82011242517613
 30
0.0
 10
176.2540495896807
 20
13.82896218398272
 30
0.0
 10
176.1690163478473
 20
13.79738225225944
 30
0.0
 10
176.2009714146382
 20
13.8809515599219
 30
0.0
 10
176.1990705282539
 20
13.94882608968311
 30
0.0
 10
176.21079600473
 20
14.05233256764417
 30
0.0
 10
176.2164241053
 20
14.17002125616695
 30
0.0
 10
176.2237902178942
 20
14.30388609164423
 30
0.0
 10
176.232075970161
 20
14.44764152872633
 30
0.0
 10
176.2398851897428
 20
14.59714022843444
 30
0.0
 10
176.2457571222656
 20
14.74792549402078
 30
0.0
 10
176.2503667817969
 20
14.89699943878438
 30
0.0
 10
176.2542632117542
 20
15.04122913163022
 30
0.0
 10
176.2570715126564
 20
15.17583905213016
 30
0.0
 10
176.2576698755024
 20
15.36469614347355
 30
0.0
 10
176.261602386715
 20
15.58975494313153
 30
0.0
 10
176.2442175378499
 20
15.86367091125707
 30
0.0
 10
176.2850417342582
 20
16.02787112098595
 30
0.0
 10
176.1995153256004
 20
16.22749661465097
 30
0.0
 10
176.2660558907687
 20
16.22385458403977
 30
0.0
 10
176.283872427323
 20
16.22413447160853
 30
0.0
 10
176.4056801797506
 20
16.22632927398616
 30
0.0
 10
176.5080770335461
 20
15.94675118721513
 30
0.0
 10
176.7580021509356
 20
15.74563008536002
 30
0.0
 10
176.9870035331111
 20
15.47792614987917
 30
0.0
 10
177.2245151213109
 20
15.22646413862373
 30
0.0
 10
177.4486090740773
 20
14.98969974061362
 30
0.0
 10
177.6750716283009
 20
14.73218692583077
 30
0.0
 10
177.8325687886514
 20
14.61649335056921
 30
0.0
 10
178.0472129612675
 20
14.27997152538794
 30
0.0
 10
178.0422645974618
 20
14.40464754091603
 30
0.0
 10
178.0433931602546
 20
14.46327691935737
 30
0.0
 10
178.0428877841516
 20
14.55043662371977
 30
0.0
 10
178.0430475158113
 20
14.64416143182872
 30
0.0
 10
178.0430054891318
 20
14.73018971297035
 30
0.0
 10
178.0430202040373
 20
14.79153891945496
 30
0.0
 10
178.0429706255983
 20
14.94135231520991
 30
0.0
 10
178.0458811522811
 20
15.17989612510105
 30
0.0
 10
178.0259521041161
 20
15.544865098687
 30
0.0
 10
178.0750433936248
 20
15.80799631993412
 30
0.0
 10
177.9177951509181
 20
16.21928904947753
 30
0.0
 10
178.0762112872421
 20
16.16398282551747
 30
0.0
 10
178.1311680478629
 20
16.16199686500175
 30
0.0
 10
178.182788776674
 20
16.16264778248252
 30
0.0
 10
178.2713198965367
 20
16.20369527738247
 30
0.0
 10
178.2204898303168
 20
16.05696326622987
 30
0.0
 10
178.2313389930284
 20
15.95019971954432
 30
0.0
 10
178.2166036994847
 20
15.79085705414111
 30
0.0
 10
178.2099976446204
 20
15.62853061652873
 30
0.0
 10
178.2014961399914
 20
15.45992521892394
 30
0.0
 10
178.1943227202199
 20
15.2981481470354
 30
0.0
 10
178.1889063215388
 20
15.15422331457932
 30
0.0
 10
178.1871713967648
 20
15.03437493466924
 30
0.0
 10
178.1875440672318
 20
14.92686101590514
 30
0.0
 10
178.1873656126263
 20
14.81820024645585
 30
0.0
 10
178.187701086314
 20
14.6995357016553
 30
0.0
 10
178.1890040622183
 20
14.5755516351274
 30
0.0
 10
178.1908887351574
 20
14.44858294171104
 30
0.0
 10
178.192500445485
 20
14.32153861551031
 30
0.0
 10
178.194140313743
 20
14.19854884492177
 30
0.0
 10
178.1962570745751
 20
14.08300931383759
 30
0.0
 10
178.1963848422365
 20
13.98090903955837
 30
0.0
 10
178.2006514396555
 20
13.89009848838156
 30
0.0
 10
178.190844008529
 20
13.83213621208785
 30
0.0
 10
178.211847477169
 20
13.76517130132028
 30
0.0
 10
178.1725639739897
 20
13.77291153966687
 30
0.0
 10
177.9595307117748
 20
13.7575525414519
 30
0.0
 10
177.7636297943185
 20
14.31403058094467
 30
0.0
 10
177.4611197631544
 20
14.57556035348509
 30
0.0
 10
177.3067935648021
 20
14.70898038201723
 30
0.0
 11
177.3067935648021
 21
14.70898038201723
 31
0.0
 11
176.8595529338511
 21
15.18757635411976
 31
0.0
 11
176.4124049070643
 21
15.6635264928897
 31
0.0
 11
176.4089664262494
 21
15.55086249986232
 31
0.0
 11
176.40556101835
 21
15.40557538184311
 31
0.0
 11
176.4029636920274
 21
15.21465645827968
 31
0.0
 11
176.4021126156603
 21
14.96521170139757
 31
0.0
 11
176.4025239230289
 21
14.88439802954279
 31
0.0
 11
176.4038420329817
 21
14.7864062847756
 31
0.0
 11
176.4055192267718
 21
14.67713557299738
 31
0.0
 11
176.4072367127518
 21
14.56282454872039
 31
0.0
 11
176.4094007838772
 21
14.44497802965265
 31
0.0
 11
176.4124049070643
 21
14.32545802100199
 31
0.0
 11
176.4158359733138
 21
14.20933349846155
 31
0.0
 11
176.4192928929998
 21
14.10186746550228
 31
0.0
 11
176.4227085253088
 21
14.00510162351264
 31
0.0
 11
176.4261896983793
 21
13.92125406276973
 31
0.0
 11
176.4296006184313
 21
13.85632862007759
 31
0.0
 11
176.4330776843149
 21
13.81626739612928
 31
0.0
 11
176.3754263821571
 21
13.82145433189184
 31
0.0
 11
176.3126746318309
 21
13.82315538223861
 31
0.0
 11
176.2464251717157
 21
13.82145433189184
 31
0.0
 11
176.1853747739675
 21
13.81626739612928
 31
0.0
 11
176.1926772737812
 21
13.86531894125591
 31
0.0
 11
176.2008793569054
 21
13.94356725720856
 31
0.0
 11
176.2090098822349
 21
14.04551893253029
 31
0.0
 11
176.2163406441397
 21
14.16542920159751
 31
0.0
 11
176.2236358280421
 21
14.30005912343889
 31
0.0
 11
176.2318444255596
 21
14.44586107652746
 31
0.0
 11
176.2395504149466
 21
14.59715203135073
 31
0.0
 11
176.2455763002093
 21
14.74850913200734
 31
0.0
 11
176.2503046247416
 21
14.89817951391435
 31
0.0
 11
176.254192897212
 21
15.04435739582221
 31
0.0
 11
176.2567527408965
 21
15.18111831592696
 31
0.0
 11
176.2576324804575
 21
15.3023085068689
 31
0.0
 11
176.257192610677
 21
15.60939715262544
 31
0.0
 11
176.2559126888348
 21
15.86997204839364
 31
0.0
 11
176.2528658717893
 21
16.07719922716125
 31
0.0
 11
176.2473049112763
 21
16.22421385386061
 31
0.0
 11
176.2615728121469
 21
16.22421385386061
 31
0.0
 11
176.2880703423352
 21
16.22421385386061
 31
0.0
 11
176.3023382432058
 21
16.22421385386061
 31
0.0
 11
176.5194743650277
 21
15.98910179662773
 31
0.0
 11
176.7512744123079
 21
15.73751281231562
 31
0.0
 11
176.9894816018839
 21
15.4794955554357
 31
0.0
 11
177.2260074557521
 21
15.22497079855489
 31
0.0
 11
177.4555698717706
 21
14.97899759549137
 31
0.0
 11
177.6731797360103
 21
14.74678934034107
 31
0.0
 11
177.8713724913707
 21
14.538266805671
 31
0.0
 11
178.0430143099086
 21
14.36326697932589
 31
0.0
 11
178.0430143099086
 21
14.38918210687043
 31
0.0
 11
178.0430143099086
 21
14.45601585685371
 31
0.0
 11
178.0430143099086
 21
14.54740078030025
 31
0.0
 11
178.0430143099086
 21
14.64696942823453
 31
0.0
 11
178.0430143099086
 21
14.73835435168106
 31
0.0
 11
178.0430143099086
 21
14.80518810166435
 31
0.0
 11
178.0430143099086
 21
14.83110322920889
 31
0.0
 11
178.0417233637609
 21
15.18755430550867
 31
0.0
 11
178.0378461155958
 21
15.53450684014415
 31
0.0
 11
178.0296197790002
 21
15.86693815950551
 31
0.0
 11
178.0154535467228
 21
16.17960510387179
 31
0.0
 11
178.0790351249618
 21
16.16666367158334
 31
0.0
 11
178.1324170159611
 21
16.16238072887607
 31
0.0
 11
178.1805381084833
 21
16.16666367158334
 31
0.0
 11
178.2424836798198
 21
16.17960510387179
 31
0.0
 11
178.2351216487575
 21
16.084981284451
 31
0.0
 11
178.2269790968818
 21
15.95257496503963
 31
0.0
 11
178.2183705364004
 21
15.79600336785655
 31
0.0
 11
178.2097547223215
 21
15.62916593734269
 31
0.0
 11
178.2016187850288
 21
15.4589032550936
 31
0.0
 11
178.1942501393835
 21
15.29206031242699
 31
0.0
 11
178.1891406931522
 21
15.14329943572809
 31
0.0
 11
178.1874503478904
 21
15.02722121527101
 31
0.0
 11
178.1874503478904
 21
14.93258747397518
 31
0.0
 11
178.1874503478904
 21
14.82077565976707
 31
0.0
 11
178.1878461204497
 21
14.70123801222748
 31
0.0
 11
178.1890819450708
 21
14.57660052093918
 31
0.0
 11
178.1908392193317
 21
14.44883212687391
 31
0.0
 11
178.1925303477608
 21
14.32028982655879
 31
0.0
 11
178.1942876220214
 21
14.19558288214554
 31
0.0
 11
178.1959787504505
 21
14.07947489606348
 31
0.0
 11
178.1972884379173
 21
13.97495896727017
 31
0.0
 11
178.1976985420736
 21
13.88517371555651
 31
0.0
 11
178.1976985420736
 21
13.81891763918415
 31
0.0
 11
178.1976985420736
 21
13.7716586461404
 31
0.0
 11
178.1736699662977
 21
13.7716586461404
 31
0.0
 11
178.1496413905218
 21
13.7716586461404
 31
0.0
 11
177.7410729200423
 21
14.2346673526219
 31
0.0
 11
177.3067935648021
 21
14.70898038201723
 31
0.0
  0
SPLINE
  5
A8
102
{ACAD_REACTORS
330
C5
102
}
330
48
100
AcDbEntity
  8
_U_30EC_U_30A4_U_30E4_U_30FC_1
  6
Continuous
 62
     2
100
AcDbSpline
210
0.0
220
0.0
230
1.0
 70
    11
 71
     3
 72
   110
 73
   106
 74
   104
 42
0.000000001
 43
0.0000000001
 44
0.00000001
 40
0.0
 40
0.0
 40
0.0
 40
0.0
 40
0.2203406257277684
 40
0.4407808782838053
 40
0.5952494494614463
 40
0.7488431659393034
 40
0.9023581831308167
 40
1.056801968670401
 40
1.210736449099816
 40
1.363041386539694
 40
1.515315729683037
 40
1.669377239147988
 40
1.721611652756458
 40
1.773199502942843
 40
1.824933793209893
 40
1.877110426487871
 40
1.982682281206607
 40
2.078781667087444
 40
2.172809640822137
 40
2.271937807378734
 40
2.378349933379212
 40
2.4941315577364
 40
2.626681683943534
 40
2.783145050795962
 40
2.890701232940831
 40
2.993130312454729
 40
3.099869730691698
 40
3.220237816691191
 40
3.352695482737486
 40
3.481732806389731
 40
3.593499473690264
 40
3.674323013331787
 40
3.817951711952765
 40
3.946167120793734
 40
4.061405053453419
 40
4.16648079600306
 40
4.262478775059154
 40
4.350736673551054
 40
4.433071991253939
 40
4.511216293814541
 40
4.564262454117857
 40
4.618474415571483
 40
4.670128488754068
 40
4.722296879126265
 40
4.819540945314134
 40
4.93119498412799
 40
5.049996040257604
 40
5.168643755415178
 40
5.283970811762389
 40
5.392260784910214
 40
5.486512254876289
 40
5.559178233949688
 40
5.591425852853354
 40
5.626215969637741
 40
5.667155838674288
 40
5.717449290214105
 40
5.738402360944716
 40
5.784499116553678
 40
5.830595872164646
 40
5.851548942897501
 40
5.873019280661615
 40
5.924217778408157
 40
5.985325662817536
 40
6.036524160567553
 40
6.057994498334081
 40
6.236847789607334
 40
6.381409928945515
 40
6.493190424178537
 40
6.574067534230345
 40
6.691018086205467
 40
6.814881554220356
 40
6.944307823240309
 40
7.071266716065932
 40
7.193488604461778
 40
7.309042773128005
 40
7.41400720317063
 40
7.505140441886387
 40
7.53115036059955
 40
7.559221645322131
 40
7.587202218920784
 40
7.612569159498991
 40
7.662550809480871
 40
7.702878875763998
 40
7.857328205230812
 40
8.010799568088457
 40
8.165256399657407
 40
8.322232698713746
 40
8.479564855016433
 40
8.635216230290636
 40
8.790882550925526
 40
8.948305154947034
 40
9.168271839032709
 40
9.387358980986972
 40
9.608047961033224
 40
9.832914234792417
 40
9.858338694962754
 40
9.925366817229762
 40
10.02013071422734
 40
10.12876249858973
 40
10.23739428295223
 40
10.33215817995165
 40
10.39918630222368
 40
10.42461076239758
 40
10.64992019336918
 40
10.87188524531163
 40
10.87188524531163
 40
10.87188524531163
 40
10.87188524531163
 10
179.9057788376618
 20
15.7392326039819
 30
0.0
 10
179.9092864933541
 20
15.80616462073804
 30
0.0
 10
179.9163033987663
 20
15.94005891915858
 30
0.0
 10
179.8198027599073
 20
16.22548554971468
 30
0.0
 10
180.0510134726109
 20
16.16284386190283
 30
0.0
 10
180.1919290057156
 20
16.17001554055992
 30
0.0
 10
180.3490417757588
 20
16.16235883078244
 30
0.0
 10
180.5025913427287
 20
16.1625275228304
 30
0.0
 10
180.6545104935081
 20
16.16182040535432
 30
0.0
 10
180.8142214813231
 20
16.1721015835164
 30
0.0
 10
180.9408972601119
 20
16.1549651108075
 30
0.0
 10
181.1370821122079
 20
16.22727260107147
 30
0.0
 10
181.1034395279079
 20
16.12640699080116
 30
0.0
 10
181.1052011317184
 20
16.0761925394767
 30
0.0
 10
181.1027342073459
 20
16.02712335586466
 30
0.0
 10
181.134707696601
 20
15.94063490846997
 30
0.0
 10
181.0010399903256
 20
15.98997438608338
 30
0.0
 10
180.9172208688056
 20
15.98430634314167
 30
0.0
 10
180.8173861139325
 20
15.99465516706298
 30
0.0
 10
180.7186576720146
 20
16.00086450411087
 30
0.0
 10
180.6121532771111
 20
16.00697763816778
 30
0.0
 10
180.4910511698059
 20
16.01588883484585
 30
0.0
 10
180.3703381502454
 20
16.00521605912383
 30
0.0
 10
180.1812553843437
 20
16.06468503080367
 30
0.0
 10
180.2129028505311
 20
15.90558320077539
 30
0.0
 10
180.1995563316833
 20
15.80839128339903
 30
0.0
 10
180.197495842645
 20
15.69634065110102
 30
0.0
 10
180.195818804467
 20
15.57699685629351
 30
0.0
 10
180.1973336794234
 20
15.4503259215511
 30
0.0
 10
180.1956582478669
 20
15.32301588016116
 30
0.0
 10
180.2058844271659
 20
15.22451566404464
 30
0.0
 10
180.1779006596581
 20
15.08388702625628
 30
0.0
 10
180.3508029999306
 20
15.13989551134094
 30
0.0
 10
180.4645020202771
 20
15.12719951478498
 30
0.0
 10
180.5840151672239
 20
15.13448377051255
 30
0.0
 10
180.6888491425072
 20
15.13878017056755
 30
0.0
 10
180.7843084898611
 20
15.14330568258975
 30
0.0
 10
180.8763823507032
 20
15.151492011462
 30
0.0
 10
180.9476551782439
 20
15.14643850638111
 30
0.0
 10
181.0544931705684
 20
15.18536425031672
 30
0.0
 10
181.0226603598036
 20
15.10517122005878
 30
0.0
 10
181.0266164503929
 20
15.05562936846033
 30
0.0
 10
181.0234502392013
 20
15.00557478039818
 30
0.0
 10
181.0550791490585
 20
14.92128847612022
 30
0.0
 10
180.9210133677691
 20
14.97425365495157
 30
0.0
 10
180.82923227932
 20
14.96540080890441
 30
0.0
 10
180.7079729189603
 20
14.97570049965154
 30
0.0
 10
180.5914113119771
 20
14.97748911767502
 30
0.0
 10
180.4783375745879
 20
14.97787017109693
 30
0.0
 10
180.3679246308471
 20
14.98415449472181
 30
0.0
 10
180.289812406784
 20
14.97189133255362
 30
0.0
 10
180.1913625833644
 20
15.00453887616126
 30
0.0
 10
180.2012355173562
 20
14.94769748054206
 30
0.0
 10
180.1973923244402
 20
14.91392130557983
 30
0.0
 10
180.1966789884269
 20
14.8711960470941
 30
0.0
 10
180.1963369642975
 20
14.83401607262152
 30
0.0
 10
180.1963834255346
 20
14.79487237370769
 30
0.0
 10
180.1963649429927
 20
14.75716849497685
 30
0.0
 10
180.1963703431807
 20
14.71944955232402
 30
0.0
 10
180.19636972142
 20
14.6899432474515
 30
0.0
 10
180.1963698151545
 20
14.65873577699301
 30
0.0
 10
180.196370428792
 20
14.61414424908084
 30
0.0
 10
180.1963671499336
 20
14.55963956508851
 30
0.0
 10
180.1963759623481
 20
14.51505540201448
 30
0.0
 10
180.1963359653416
 20
14.4311780858574
 30
0.0
 10
180.1976024270257
 20
14.31737520677678
 30
0.0
 10
180.1950274117841
 20
14.16830395933708
 30
0.0
 10
180.206500938172
 20
14.06597203813905
 30
0.0
 10
180.1823506222263
 20
13.93338903885833
 30
0.0
 10
180.3332993946476
 20
13.97895732272021
 30
0.0
 10
180.4428436671556
 20
13.96427012162349
 30
0.0
 10
180.573397047392
 20
13.96920435125064
 30
0.0
 10
180.6990312209513
 20
13.97257705323359
 30
0.0
 10
180.8188730625601
 20
13.97711497498772
 30
0.0
 10
180.9391362611426
 20
13.99048536182005
 30
0.0
 10
181.0222761663515
 20
13.98068712782595
 30
0.0
 10
181.1456080421075
 20
14.04126214623319
 30
0.0
 10
181.1244269203956
 20
13.98532460134021
 30
0.0
 10
181.1235950270116
 20
13.95939249372346
 30
0.0
 10
181.1218963707559
 20
13.93197256190939
 30
0.0
 10
181.1217974888829
 20
13.89738195206386
 30
0.0
 10
181.120365930133
 20
13.86050408220768
 30
0.0
 10
181.153280419219
 20
13.76846841021808
 30
0.0
 10
180.9551306988107
 20
13.8413201597483
 30
0.0
 10
180.8300548294891
 20
13.81825726508604
 30
0.0
 10
180.6673071295156
 20
13.82454021985784
 30
0.0
 10
180.5129366450001
 20
13.82260943909925
 30
0.0
 10
180.3566670436944
 20
13.82393762599266
 30
0.0
 10
180.1970544465282
 20
13.82059872487861
 30
0.0
 10
180.0540326342237
 20
13.83265795728238
 30
0.0
 10
179.819714488163
 20
13.76952001976922
 30
0.0
 10
179.9173810751197
 20
14.05620527466318
 30
0.0
 10
179.9006868780058
 20
14.2498830814266
 30
0.0
 10
179.9146296709686
 20
14.47848242880294
 30
0.0
 10
179.9142987846631
 20
14.63384593955047
 30
0.0
 10
179.9143078119264
 20
14.73966336444125
 30
0.0
 10
179.9143055876316
 20
14.80205784124213
 30
0.0
 10
179.9143065551888
 20
14.89220425248325
 30
0.0
 10
179.9143065473262
 20
14.99621167157437
 30
0.0
 10
179.9143053861102
 20
15.10022131375295
 30
0.0
 10
179.9143090971502
 20
15.19036243688766
 30
0.0
 10
179.9143011051051
 20
15.25276803097214
 30
0.0
 10
179.9143334275018
 20
15.35868835961118
 30
0.0
 10
179.913144078832
 20
15.5162671654474
 30
0.0
 10
179.9082216489256
 20
15.66528219822064
 30
0.0
 10
179.9057788376618
 20
15.7392326039819
 30
0.0
 11
179.9057788376618
 21
15.7392326039819
 31
0.0
 11
179.896691822374
 21
15.95938578101017
 31
0.0
 11
179.8868249573134
 21
16.17960510387179
 31
0.0
 11
180.04115751414
 21
16.17312391463728
 31
0.0
 11
180.1946500189047
 21
16.16754892331925
 31
0.0
 11
180.3481160653366
 21
16.16367167505631
 31
0.0
 11
180.502554455494
 21
16.16238072887607
 31
0.0
 11
180.6564835227473
 21
16.16367167505631
 31
0.0
 11
180.80873910046
 21
16.16754892331925
 31
0.0
 11
180.9609113551074
 21
16.17312391463728
 31
0.0
 11
181.1148364762483
 21
16.17960510387179
 31
0.0
 11
181.1070811703125
 21
16.12794961777358
 31
0.0
 11
181.1044991623592
 21
16.07642642334204
 31
0.0
 11
181.1070811703124
 21
16.0247566056466
 31
0.0
 11
181.1148364762483
 21
15.97315954836783
 31
0.0
 11
181.0094874054411
 21
15.98001446156057
 31
0.0
 11
180.913637570006
 21
15.98693552058657
 31
0.0
 11
180.8198593171903
 21
15.99378381919599
 31
0.0
 11
180.7209679915882
 21
16.0006321178054
 31
0.0
 11
180.6147532199924
 21
16.00710999974824
 31
0.0
 11
180.4991060528038
 21
16.01268829835794
 31
0.0
 11
180.3666126447258
 21
16.01656554662087
 31
0.0
 11
180.2101546018423
 21
16.01785649280112
 31
0.0
 11
180.2062663293721
 21
15.91037061609185
 31
0.0
 11
180.20153800484
 21
15.80805072896463
 31
0.0
 11
180.1976607566749
 21
15.70138175329687
 31
0.0
 11
180.1963698105272
 21
15.5810205901325
 31
0.0
 11
180.1967799146836
 21
15.44856355891564
 31
0.0
 11
180.1980896021502
 21
15.31953288186455
 31
0.0
 11
180.199407457705
 21
15.20777398432308
 31
0.0
 11
180.199819115366
 21
15.12695149302383
 31
0.0
 11
180.3434452935875
 21
15.12780256941249
 31
0.0
 11
180.4716343930758
 21
15.13039989580077
 31
0.0
 11
180.5868078221795
 21
15.13425509545254
 31
0.0
 11
180.691775631222
 21
15.13901649302076
 31
0.0
 11
180.7876346289422
 21
15.14418027774174
 31
0.0
 11
180.8757413374193
 21
15.14934406246267
 31
0.0
 11
180.9578881438496
 21
15.15491243919739
 31
0.0
 11
181.0357692335571
 21
15.16132086801523
 31
0.0
 11
181.0280180445186
 21
15.10884407115336
 31
0.0
 11
181.0254328449317
 21
15.05469378470856
 31
0.0
 11
181.0280180445186
 21
15.00310444444366
 31
0.0
 11
181.0357692335571
 21
14.95151510417882
 31
0.0
 11
180.9389813454014
 21
14.96092324653756
 31
0.0
 11
180.8275950722015
 21
14.96865128473012
 31
0.0
 11
180.7089261429373
 21
14.97425273438145
 31
0.0
 11
180.5903167449213
 21
14.97726788195011
 31
0.0
 11
180.4750025117521
 21
14.97898767361638
 31
0.0
 11
180.36672619507
 21
14.98070746528257
 31
0.0
 11
180.2724839317708
 21
14.98202486979616
 31
0.0
 11
180.199819115366
 21
14.98243607639329
 31
0.0
 11
180.199407457705
 21
14.95019108508191
 31
0.0
 11
180.1980896021502
 21
14.91542593752117
 31
0.0
 11
180.1967799146836
 21
14.87450702260084
 31
0.0
 11
180.1963698105272
 21
14.8242152430995
 31
0.0
 11
180.1963698105272
 21
14.8032621723582
 31
0.0
 11
180.1963698105272
 21
14.75716541672736
 31
0.0
 11
180.1963698105272
 21
14.7110686610965
 31
0.0
 11
180.1963698105272
 21
14.69011559035521
 31
0.0
 11
180.1963698105272
 21
14.6686452525828
 31
0.0
 11
180.1963698105272
 21
14.61744675481784
 31
0.0
 11
180.1963698105272
 21
14.55633887038868
 31
0.0
 11
180.1963698105272
 21
14.50514037262371
 31
0.0
 11
180.1963698105272
 21
14.4836700348513
 31
0.0
 11
180.1967799146836
 21
14.30481721371547
 31
0.0
 11
180.1980896021502
 21
14.16026100715441
 31
0.0
 11
180.2002868589709
 21
14.04850210961289
 31
0.0
 11
180.2032586986985
 21
13.96767961831365
 31
0.0
 11
180.3202092517448
 21
13.96767961831365
 31
0.0
 11
180.4440727208746
 21
13.96767961831365
 31
0.0
 11
180.5734925526422
 21
13.9689705644939
 31
0.0
 11
180.7003922282244
 21
13.97284781275681
 31
0.0
 11
180.8224658067973
 21
13.97886708358865
 31
0.0
 11
180.9377587499463
 21
13.98663260442002
 31
0.0
 11
181.0421754573518
 21
13.99734161483402
 31
0.0
 11
181.1320599255448
 21
14.01237656274692
 31
0.0
 11
181.1264254031191
 21
13.98698427976715
 31
0.0
 11
181.1234433285423
 21
13.95907184053802
 31
0.0
 11
181.12213398812
 21
13.93112191867003
 31
0.0
 11
181.1217235369195
 21
13.90575829888473
 31
0.0
 11
181.1243087365064
 21
13.85584355063326
 31
0.0
 11
181.1320599255448
 21
13.81626739612928
 31
0.0
 11
180.9776977178344
 21
13.82145433189184
 31
0.0
 11
180.8242357818765
 21
13.82315538223861
 31
0.0
 11
180.6697789496483
 21
13.82315538223861
 31
0.0
 11
180.5128026496768
 21
13.82315538223861
 31
0.0
 11
180.3554704921536
 21
13.82315538223861
 31
0.0
 11
180.199819115366
 21
13.82315538223861
 31
0.0
 11
180.0441620874242
 21
13.82145433189184
 31
0.0
 11
179.8868249573134
 21
13.81626739612928
 31
0.0
 11
179.896691822374
 21
14.0360126738521
 31
0.0
 11
179.9057788376618
 21
14.2549112849085
 31
0.0
 11
179.9121721518401
 21
14.47550763902002
 31
0.0
 11
179.9143063455009
 21
14.70036378479714
 31
0.0
 11
179.9143063455009
 21
14.72578824496874
 31
0.0
 11
179.9143063455009
 21
14.79281636723931
 31
0.0
 11
179.9143063455009
 21
14.88758026424252
 31
0.0
 11
179.9143063455009
 21
14.99621204861207
 31
0.0
 11
179.9143063455009
 21
15.10484383298161
 31
0.0
 11
179.9143063455009
 21
15.19960772998483
 31
0.0
 11
179.9143063455009
 21
15.26663585225539
 31
0.0
 11
179.9143063455009
 21
15.29206031242699
 31
0.0
 11
179.9121721518401
 21
15.51735963528734
 31
0.0
 11
179.9057788376618
 21
15.7392326039819
 31
0.0
  0
SPLINE
  5
A9
102
{ACAD_REACTORS
330
C6
102
}
330
48
100
AcDbEntity
  8
_U_30EC_U_30A4_U_30E4_U_30FC_1
  6
Continuous
 62
     2
100
AcDbSpline
210
0.0
220
0.0
230
1.0
 70
    11
 71
     3
 72
    47
 73
    43
 74
    41
 42
0.000000001
 43
0.0000000001
 44
0.00000001
 40
0.0
 40
0.0
 40
0.0
 40
0.0
 40
0.2207912809957284
 40
0.4459404186303131
 40
0.4902387190459627
 40
0.5327473892722293
 40
0.5742260451225621
 40
0.6155432630560914
 40
0.6568164066315832
 40
0.698251161878076
 40
0.7407663929317264
 40
0.7851366743175324
 40
1.010288833836331
 40
1.23108050700219
 40
1.451765243652406
 40
1.676638205891694
 40
1.720461045359664
 40
1.830018144043529
 40
1.97244237235316
 40
2.114866600677529
 40
2.224423699395154
 40
2.268246538883395
 40
2.493628801207231
 40
2.715602830286625
 40
2.934211330706375
 40
3.149502369855361
 40
3.231387784850949
 40
3.318231873854041
 40
3.405143198198029
 40
3.486970301720464
 40
3.702258172493902
 40
3.920866283534127
 40
4.142839325931914
 40
4.368221903865381
 40
4.412044743359861
 40
4.521601842095876
 40
4.664026070452357
 40
4.806450298809064
 40
4.916007397546757
 40
4.95983023704308
 40
5.184703515847113
 40
5.405387250767481
 40
5.405387250767481
 40
5.405387250767481
 40
5.405387250767481
 10
182.6507427258645
 20
15.73406440953871
 30
0.0
 10
182.6568139420002
 20
15.79758482501209
 30
0.0
 10
182.6690762107242
 20
15.92587938689627
 30
0.0
 10
182.5604706879412
 20
16.20166220174076
 30
0.0
 10
182.6761985896603
 20
16.17188133432054
 30
0.0
 10
182.7171842509015
 20
16.16765556262821
 30
0.0
 10
182.7591205797518
 20
16.16310446389607
 30
0.0
 10
182.800419662571
 20
16.16201982929485
 30
0.0
 10
182.8417032115555
 20
16.16310338195226
 30
0.0
 10
182.8836148270647
 20
16.16766112711344
 30
0.0
 10
182.9245983549019
 20
16.17187430209728
 30
0.0
 10
183.0404922843489
 20
16.20177611317534
 30
0.0
 10
182.9295652727457
 20
15.92339806609889
 30
0.0
 10
182.9574856365266
 20
15.74283140824952
 30
0.0
 10
182.940426734697
 20
15.50961042346472
 30
0.0
 10
182.9414637282102
 20
15.34906622543145
 30
0.0
 10
182.9414099399405
 20
15.22284817558722
 30
0.0
 10
182.9414277372481
 20
15.12428963336241
 30
0.0
 10
182.941418858108
 20
14.99280702442963
 30
0.0
 10
182.9414263928033
 20
14.8613284496865
 30
0.0
 10
182.9414129405129
 20
14.7627622269409
 30
0.0
 10
182.9414531717492
 20
14.63639735624152
 30
0.0
 10
182.9406746403818
 20
14.4748206882287
 30
0.0
 10
182.9565958319266
 20
14.24361821892914
 30
0.0
 10
182.9333468885408
 20
14.05874351972002
 30
0.0
 10
183.0360183444365
 20
13.78935602770059
 30
0.0
 10
182.8820238362836
 20
13.82660112685816
 30
0.0
 10
182.8004129802832
 20
13.82137994680533
 30
0.0
 10
182.7188192292583
 20
13.82660620378349
 30
0.0
 10
182.5648513666842
 20
13.78937069885389
 30
0.0
 10
182.6674183421917
 20
14.0587512986288
 30
0.0
 10
182.6442045316088
 20
14.24361585325415
 30
0.0
 10
182.6600444655139
 20
14.47482218565638
 30
0.0
 10
182.6593296313428
 20
14.63639712308503
 30
0.0
 10
182.6593664569907
 20
14.7627623121052
 30
0.0
 10
182.6593549000271
 20
14.86132756635981
 30
0.0
 10
182.6593575019214
 20
14.9928112741722
 30
0.0
 10
182.659364853178
 20
15.124275480312
 30
0.0
 10
182.6593442541351
 20
15.22287786275326
 30
0.0
 10
182.659408219203
 20
15.34896149354427
 30
0.0
 10
182.658173394759
 20
15.51210091383771
 30
0.0
 10
182.6532040396745
 20
15.66054183777549
 30
0.0
 10
182.6507427258645
 20
15.73406440953871
 30
0.0
 11
182.6507427258645
 21
15.73406440953871
 31
0.0
 11
182.6417328200379
 21
15.95467178795577
 31
0.0
 11
182.6318769706146
 21
16.17960510387179
 31
0.0
 11
182.6756985840801
 21
16.17312391463728
 31
0.0
 11
182.7178400934215
 21
16.16754892331925
 31
0.0
 11
182.759137140979
 21
16.16367167505631
 31
0.0
 11
182.8004341885365
 21
16.16238072887607
 31
0.0
 11
182.841687138873
 21
16.16367167505631
 31
0.0
 11
182.8829400892097
 21
16.16754892331925
 31
0.0
 11
182.9250882131343
 21
16.17312391463728
 31
0.0
 11
182.9689825870145
 21
16.17960510387179
 31
0.0
 11
182.9590577693891
 21
15.95467178795577
 31
0.0
 11
182.950038420831
 21
15.73406440953871
 31
0.0
 11
182.9435638463435
 21
15.51347467001054
 31
0.0
 11
182.9414218238286
 21
15.28861190965007
 31
0.0
 11
182.9414218238286
 21
15.24478907015486
 31
0.0
 11
182.9414218238286
 21
15.13523197141682
 31
0.0
 11
182.9414218238286
 21
14.99280774305737
 31
0.0
 11
182.9414218238286
 21
14.85038351469792
 31
0.0
 11
182.9414218238286
 21
14.74082641595989
 31
0.0
 11
182.9414218238286
 21
14.69700357646467
 31
0.0
 11
182.9435638463435
 21
14.47163149318766
 31
0.0
 11
182.950038420831
 21
14.2497519099098
 31
0.0
 11
182.9590577693892
 21
14.0313295488533
 31
0.0
 11
182.9689825870145
 21
13.81626739612928
 31
0.0
 11
182.8872616168771
 21
13.82145433189184
 31
0.0
 11
182.8004341885365
 21
13.82315538223861
 31
0.0
 11
182.7135395119339
 21
13.82145433189184
 31
0.0
 11
182.6318769706146
 21
13.81626739612928
 31
0.0
 11
182.6417328200379
 21
14.0313295488533
 31
0.0
 11
182.6507427258645
 21
14.2497519099098
 31
0.0
 11
182.6571833838798
 21
14.47163149318766
 31
0.0
 11
182.6593583588024
 21
14.69700357646467
 31
0.0
 11
182.6593583588024
 21
14.74082641595988
 31
0.0
 11
182.6593583588024
 21
14.85038351469792
 31
0.0
 11
182.6593583588024
 21
14.99280774305737
 31
0.0
 11
182.6593583588024
 21
15.13523197141682
 31
0.0
 11
182.6593583588024
 21
15.24478907015486
 31
0.0
 11
182.6593583588024
 21
15.28861190965007
 31
0.0
 11
182.6571833838798
 21
15.51347467001054
 31
0.0
 11
182.6507427258645
 21
15.73406440953871
 31
0.0
  0
SPLINE
  5
AA
102
{ACAD_REACTORS
330
C7
102
}
330
48
100
AcDbEntity
  8
_U_30EC_U_30A4_U_30E4_U_30FC_1
  6
Continuous
 62
     2
100
AcDbSpline
210
0.0
220
0.0
230
1.0
 70
    11
 71
     3
 72
   118
 73
   114
 74
   112
 42
0.000000001
 43
0.0000000001
 44
0.00000001
 40
0.0
 40
0.0
 40
0.0
 40
0.0
 40
0.105470816297341
 40
0.2466098270052049
 40
0.3965912874591357
 40
0.528552506975407
 40
0.6156245055642122
 40
0.6431434105797434
 40
0.7036850037986139
 40
0.7642265984504536
 40
0.791745505235484
 40
0.9287404319989745
 40
1.106572819088016
 40
1.28754487968104
 40
1.317578308030559
 40
1.399928030857196
 40
1.522968204799972
 40
1.675072986590595
 40
1.844616533180672
 40
2.019973001638738
 40
2.189516548880053
 40
2.341621331585391
 40
2.464661506320531
 40
2.547011229647095
 40
2.577044658168059
 40
2.603797890893129
 40
2.662655002908816
 40
2.721512114949628
 40
2.748265347702808
 40
2.774215307344885
 40
2.845959313407215
 40
2.954338556588412
 40
3.090194227585589
 40
3.244367517100552
 40
3.407699615844311
 40
3.571031714539457
 40
3.725205003920133
 40
3.861060674729631
 40
3.969439917716325
 40
4.041183923628998
 40
4.06713388321299
 40
4.311886746012171
 40
4.547897258335516
 40
4.76474708304398
 40
4.952749679951783
 40
5.045772974195907
 40
5.137862019644944
 40
5.330543169792964
 40
5.553448265243945
 40
5.795083855888122
 40
6.043293412177186
 40
6.285761695541118
 40
6.313902908752602
 40
6.384255941793191
 40
6.47571488476678
 40
6.567173827758842
 40
6.63752686083962
 40
6.665668074073984
 40
6.692018920327956
 40
6.749990782071026
 40
6.807962643790394
 40
6.834313490017869
 40
6.856393084245147
 40
6.913335195649771
 40
6.991194817302435
 40
7.076026942283696
 40
7.153886563725186
 40
7.210828674844769
 40
7.232908268931104
 40
7.258199334923625
 40
7.324875781592275
 40
7.419142481924932
 40
7.527204308841871
 40
7.63526613523045
 40
7.729532834168436
 40
7.796209279292758
 40
7.821500344594704
 40
7.844652988850775
 40
7.899863140541553
 40
7.96575912805372
 40
8.020969279771004
 40
8.04412192404647
 40
8.06935661016056
 40
8.10913439544133
 40
8.132238100191042
 40
8.193147867786408
 40
8.27926167887658
 40
8.377977512673795
 40
8.476693347146577
 40
8.562807160411632
 40
8.623716930826419
 40
8.64682063685337
 40
8.671988793774183
 40
8.734909185828123
 40
8.816705695188837
 40
8.898502204815436
 40
8.961422597377926
 40
8.986590754551038
 40
9.012941600733193
 40
9.070913462380277
 40
9.128885324081773
 40
9.155236170325093
 40
9.180404327929136
 40
9.243324721948238
 40
9.32512123421203
 40
9.406917746637713
 40
9.469838141978197
 40
9.495006288270972
 40
9.517811184379115
 40
9.572192090487118
 40
9.63709833328135
 40
9.691479239515552
 40
9.714284125643593
 40
9.714284125643593
 40
9.714284125643593
 40
9.714284125643593
 10
185.2874469028653
 20
15.26889163187718
 30
0.0
 10
185.3090990569037
 20
15.2411186924281
 30
0.0
 10
185.3597257109474
 20
15.17618054561234
 30
0.0
 10
185.4349383202592
 20
15.06891060312898
 30
0.0
 10
185.5248482274347
 20
14.95377438266624
 30
0.0
 10
185.5709169676673
 20
14.85357045748321
 30
0.0
 10
185.6655825294654
 20
14.78434006814941
 30
0.0
 10
185.6204439320413
 20
14.73771639678274
 30
0.0
 10
185.594704778579
 20
14.69660308866039
 30
0.0
 10
185.5645196708012
 20
14.66065971727939
 30
0.0
 10
185.5193684730562
 20
14.58579782596093
 30
0.0
 10
185.4710504458562
 20
14.80782524253603
 30
0.0
 10
185.3968539713073
 20
14.84510677337711
 30
0.0
 10
185.2836047324607
 20
15.11610202130602
 30
0.0
 10
185.2885133578169
 20
15.0009532844623
 30
0.0
 10
185.2868486556306
 20
14.92836675781628
 30
0.0
 10
185.2876830076713
 20
14.80625588483987
 30
0.0
 10
185.2873609540265
 20
14.65913800810461
 30
0.0
 10
185.2875076912455
 20
14.49307063956557
 30
0.0
 10
185.2872950092722
 20
14.32187554608603
 30
0.0
 10
185.2879497252034
 20
14.15552828635498
 30
0.0
 10
185.2859192461139
 20
14.00935173055693
 30
0.0
 10
185.291346039993
 20
13.88471047474611
 30
0.0
 10
185.2804930868707
 20
13.81718656540626
 30
0.0
 10
185.2956739155555
 20
13.75549061417022
 30
0.0
 10
185.2457895108133
 20
13.76727503897002
 30
0.0
 10
185.2017150342522
 20
13.75943822779969
 30
0.0
 10
185.15823716302
 20
13.76760441372703
 30
0.0
 10
185.1092346786489
 20
13.75538056738468
 30
0.0
 10
185.1218731234824
 20
13.80960667249313
 30
0.0
 10
185.1130182968449
 20
13.86936918907557
 30
0.0
 10
185.1175058770314
 20
13.9792202904437
 30
0.0
 10
185.1157960135991
 20
14.11029975405678
 30
0.0
 10
185.1163550915987
 20
14.26198011444328
 30
0.0
 10
185.1161928768694
 20
14.42211074929953
 30
0.0
 10
185.1162269924674
 20
14.58236865674565
 30
0.0
 10
185.1162514960128
 20
14.73370247520439
 30
0.0
 10
185.1161453543224
 20
14.865821563386
 30
0.0
 10
185.1164299141931
 20
14.97294802533192
 30
0.0
 10
185.1158675547568
 20
15.03808619579473
 30
0.0
 10
185.1180765083689
 20
15.16618957858674
 30
0.0
 10
185.0319435998601
 20
14.79097610391577
 30
0.0
 10
184.9555140818501
 20
14.63918193123392
 30
0.0
 10
184.8660040767832
 20
14.47766206446308
 30
0.0
 10
184.7640413217327
 20
14.20471848820172
 30
0.0
 10
184.7187976491039
 20
14.36717346596507
 30
0.0
 10
184.6102355941671
 20
14.45605432058123
 30
0.0
 10
184.7995791751753
 20
14.60549794961409
 30
0.0
 10
184.85653405457
 20
14.79749136974927
 30
0.0
 10
184.9717520993352
 20
15.02899622906755
 30
0.0
 10
184.9940151630134
 20
15.21797259759063
 30
0.0
 10
185.1771905152137
 20
15.49454089325929
 30
0.0
 10
185.0538033597553
 20
15.48698978832094
 30
0.0
 10
184.9925684166834
 20
15.48856772366119
 30
0.0
 10
184.9081999617064
 20
15.48882592573672
 30
0.0
 10
184.8204235085966
 20
15.48544845751206
 30
0.0
 10
184.7656768696122
 20
15.4939481498202
 30
0.0
 10
184.7104703026024
 20
15.48048561049788
 30
0.0
 10
184.7222823035536
 20
15.52931442126763
 30
0.0
 10
184.7142496151793
 20
15.57269004896708
 30
0.0
 10
184.7228186104678
 20
15.61509438309573
 30
0.0
 10
184.7102943409157
 20
15.66267796552118
 30
0.0
 10
184.7555101538735
 20
15.65267212995109
 30
0.0
 10
184.8014815562723
 20
15.65894105174061
 30
0.0
 10
184.877722204771
 20
15.65593561405872
 30
0.0
 10
184.9561296131993
 20
15.65770448278541
 30
0.0
 10
185.0323992648932
 20
15.65464793981659
 30
0.0
 10
185.0783009459475
 20
15.66103971376177
 30
0.0
 10
185.12317339654
 20
15.65093822978896
 30
0.0
 10
185.1105552275634
 20
15.70157201581898
 30
0.0
 10
185.1191936582707
 20
15.7550126188207
 30
0.0
 10
185.1152361595443
 20
15.8486325513168
 30
0.0
 10
185.1162325068335
 20
15.95112606688924
 30
0.0
 10
185.1171927413073
 20
16.05353270248163
 30
0.0
 10
185.1133211458005
 20
16.14735929609321
 30
0.0
 10
185.1217789814364
 20
16.20036542840353
 30
0.0
 10
185.1093075932835
 20
16.25211435651188
 30
0.0
 10
185.1542106389849
 20
16.23850747226757
 30
0.0
 10
185.1955083836772
 20
16.24100480320585
 30
0.0
 10
185.259534428105
 20
16.23648060574487
 30
0.0
 10
185.2986111148786
 20
16.22781003043308
 30
0.0
 10
185.3476543498742
 20
16.23515102070687
 30
0.0
 10
185.322508003059
 20
16.19602896051758
 30
0.0
 10
185.2815901333723
 20
16.20563842455807
 30
0.0
 10
185.2910109616604
 20
16.15540148169779
 30
0.0
 10
185.2855647318746
 20
16.1038594563949
 30
0.0
 10
185.2881699601804
 20
16.0195970758452
 30
0.0
 10
185.2870102202153
 20
15.92559135583408
 30
0.0
 10
185.2883591064231
 20
15.83196865395526
 30
0.0
 10
185.2849970101508
 20
15.74679517552222
 30
0.0
 10
185.2920959917769
 20
15.69716856072044
 30
0.0
 10
185.2812569154545
 20
15.64993694969989
 30
0.0
 10
185.3304010225246
 20
15.66201674936852
 30
0.0
 10
185.3794877630147
 20
15.65447393363011
 30
0.0
 10
185.4573714280642
 20
15.65686070361433
 30
0.0
 10
185.5350365172896
 20
15.65899381905415
 30
0.0
 10
185.5845393931356
 20
15.65193391922455
 30
0.0
 10
185.6344594750639
 20
15.66360151936214
 30
0.0
 10
185.6223198516882
 20
15.61540235371393
 30
0.0
 10
185.6305838229144
 20
15.57249219801235
 30
0.0
 10
185.6223198650785
 20
15.52958201851384
 30
0.0
 10
185.6344594549855
 20
15.48138288754864
 30
0.0
 10
185.5845395158747
 20
15.49305034471511
 30
0.0
 10
185.5350350651204
 20
15.48599202435046
 30
0.0
 10
185.4573784382972
 20
15.48811665228603
 30
0.0
 10
185.3794643865761
 20
15.4905338936576
 30
0.0
 10
185.3304500352716
 20
15.48291848194486
 30
0.0
 10
185.2813246108943
 20
15.49507952557592
 30
0.0
 10
185.2915559988571
 20
15.45073013424158
 30
0.0
 10
185.2856677678054
 20
15.40925436202911
 30
0.0
 10
185.287878830557
 20
15.34915394315303
 30
0.0
 10
185.2874109346145
 20
15.30225782762887
 30
0.0
 10
185.2874386992913
 20
15.27650146418195
 30
0.0
 10
185.2874469028653
 20
15.26889163187718
 30
0.0
 11
185.2874469028653
 21
15.26889163187718
 31
0.0
 11
185.3516977534484
 21
15.18524999634255
 31
0.0
 11
185.4348258835499
 21
15.0711888974822
 31
0.0
 11
185.5216831568896
 21
14.94891767195723
 31
0.0
 11
185.5971214371872
 21
14.84064565642876
 31
0.0
 11
185.6459925881626
 21
14.7685821875579
 31
0.0
 11
185.6296821285093
 21
14.74641782124399
 31
0.0
 11
185.5937991172719
 21
14.69765621535339
 31
0.0
 11
185.5579161060346
 21
14.6488946094628
 31
0.0
 11
185.5416056463813
 21
14.62673024314889
 31
0.0
 11
185.4763067109446
 21
14.74716139023812
 31
0.0
 11
185.3848434243235
 21
14.89966983670207
 31
0.0
 11
185.2874469028653
 21
15.05219788193143
 31
0.0
 11
185.2874469028653
 21
15.02216445328254
 31
0.0
 11
185.2874469028653
 21
14.93981472956784
 31
0.0
 11
185.2874469028653
 21
14.81677455413529
 31
0.0
 11
185.2874469028653
 21
14.66466977033284
 31
0.0
 11
185.2874469028653
 21
14.49512622150846
 31
0.0
 11
185.2874469028653
 21
14.3197697510101
 31
0.0
 11
185.2874469028653
 21
14.15022620218571
 31
0.0
 11
185.2874469028653
 21
13.99812141838326
 31
0.0
 11
185.2874469028653
 21
13.87508124295071
 31
0.0
 11
185.2874469028653
 21
13.79273151923601
 31
0.0
 11
185.2874469028653
 21
13.76269809058712
 31
0.0
 11
185.2606936700409
 21
13.76269809058712
 31
0.0
 11
185.2018365578272
 21
13.76269809058712
 31
0.0
 11
185.1429794456134
 21
13.76269809058712
 31
0.0
 11
185.116226212789
 21
13.76269809058712
 31
0.0
 11
185.116226212789
 21
13.7886480503125
 31
0.0
 11
185.116226212789
 21
13.86039205661208
 31
0.0
 11
185.116226212789
 21
13.96877130017101
 31
0.0
 11
185.116226212789
 21
14.10462697167447
 31
0.0
 11
185.116226212789
 21
14.25880026180761
 31
0.0
 11
185.116226212789
 21
14.42213236125558
 31
0.0
 11
185.116226212789
 21
14.58546446070356
 31
0.0
 11
185.116226212789
 21
14.73963775083669
 31
0.0
 11
185.116226212789
 21
14.87549342234015
 31
0.0
 11
185.116226212789
 21
14.98387266589908
 31
0.0
 11
185.116226212789
 21
15.05561667219866
 31
0.0
 11
185.116226212789
 21
15.08156663192404
 31
0.0
 11
185.0379865861721
 21
14.84965603302372
 31
0.0
 11
184.9497110789304
 21
14.63077616328678
 31
0.0
 11
184.8544106930045
 21
14.43598991333547
 31
0.0
 11
184.7550964303356
 21
14.27636017379202
 31
0.0
 11
184.7109198342406
 21
14.35822446196599
 31
0.0
 11
184.6588057383481
 21
14.43414885430811
 31
0.0
 11
184.7627302590299
 21
14.59640087926757
 31
0.0
 11
184.8629319864735
 21
14.79551465421781
 31
0.0
 11
184.9550446607902
 21
15.01890447916196
 31
0.0
 11
185.0347020220912
 21
15.25398465410319
 31
0.0
 11
185.097537810488
 21
15.48816947904465
 31
0.0
 11
185.0693965972142
 21
15.48816947904465
 31
0.0
 11
184.9990435640297
 21
15.48816947904465
 31
0.0
 11
184.9075846208898
 21
15.48816947904465
 31
0.0
 11
184.8161256777499
 21
15.48816947904465
 31
0.0
 11
184.7457726445654
 21
15.48816947904465
 31
0.0
 11
184.7176314312916
 21
15.48816947904465
 31
0.0
 11
184.7176314312916
 21
15.51452032539222
 31
0.0
 11
184.7176314312916
 21
15.57249218735688
 31
0.0
 11
184.7176314312916
 21
15.63046404932155
 31
0.0
 11
184.7176314312916
 21
15.65681489566912
 31
0.0
 11
184.739711025602
 21
15.65681489566912
 31
0.0
 11
184.7966531372444
 21
15.65681489566912
 31
0.0
 11
184.8745127592862
 21
15.65681489566912
 31
0.0
 11
184.9593448847944
 21
15.65681489566912
 31
0.0
 11
185.0372045068361
 21
15.65681489566912
 31
0.0
 11
185.0941466184786
 21
15.65681489566912
 31
0.0
 11
185.116226212789
 21
15.65681489566912
 31
0.0
 11
185.116226212789
 21
15.68210596174353
 31
0.0
 11
185.116226212789
 21
15.74878240866697
 31
0.0
 11
185.116226212789
 21
15.84304910948977
 31
0.0
 11
185.116226212789
 21
15.95111093726224
 31
0.0
 11
185.116226212789
 21
16.05917276503471
 31
0.0
 11
185.116226212789
 21
16.15343946585751
 31
0.0
 11
185.116226212789
 21
16.22011591278095
 31
0.0
 11
185.116226212789
 21
16.24540697885536
 31
0.0
 11
185.1393181988665
 21
16.243732131078
 31
0.0
 11
185.1943837041284
 21
16.23973826330122
 31
0.0
 11
185.2601070491184
 21
16.23497138885796
 31
0.0
 11
185.3151725543802
 21
16.23097752108117
 31
0.0
 11
185.3382645404578
 21
16.22930267330381
 31
0.0
 11
185.3249012644362
 21
16.20789677921191
 31
0.0
 11
185.2874469028653
 21
16.19450114553469
 31
0.0
 11
185.2874469028653
 21
16.17139743948578
 31
0.0
 11
185.2874469028653
 21
16.11048766899319
 31
0.0
 11
185.2874469028653
 21
16.02437385553816
 31
0.0
 11
185.2874469028653
 21
15.9256580206019
 31
0.0
 11
185.2874469028653
 21
15.82694218566565
 31
0.0
 11
185.2874469028653
 21
15.74082837221061
 31
0.0
 11
185.2874469028653
 21
15.67991860171803
 31
0.0
 11
185.2874469028653
 21
15.65681489566912
 31
0.0
 11
185.3126150604809
 21
15.65681489566912
 31
0.0
 11
185.3755354545199
 21
15.65681489566912
 31
0.0
 11
185.4573319667706
 21
15.65681489566912
 31
0.0
 11
185.5391284790213
 21
15.65681489566912
 31
0.0
 11
185.6020488730603
 21
15.65681489566912
 31
0.0
 11
185.6272170306759
 21
15.65681489566912
 31
0.0
 11
185.6272170306759
 21
15.63046404932155
 31
0.0
 11
185.6272170306759
 21
15.57249218735689
 31
0.0
 11
185.6272170306759
 21
15.51452032539222
 31
0.0
 11
185.6272170306759
 21
15.48816947904465
 31
0.0
 11
185.6020488730603
 21
15.48816947904465
 31
0.0
 11
185.5391284790213
 21
15.48816947904465
 31
0.0
 11
185.4573319667706
 21
15.48816947904465
 31
0.0
 11
185.3755354545199
 21
15.48816947904465
 31
0.0
 11
185.3126150604809
 21
15.48816947904465
 31
0.0
 11
185.2874469028653
 21
15.48816947904465
 31
0.0
 11
185.2874469028653
 21
15.46536458293923
 31
0.0
 11
185.2874469028653
 21
15.4109836768417
 31
0.0
 11
185.2874469028653
 21
15.34607743408013
 31
0.0
 11
185.2874469028653
 21
15.2916965279826
 31
0.0
 11
185.2874469028653
 21
15.26889163187718
 31
0.0
  0
SPLINE
  5
AB
102
{ACAD_REACTORS
330
C8
102
}
330
48
100
AcDbEntity
  8
_U_30EC_U_30A4_U_30E4_U_30FC_1
  6
Continuous
 62
     2
100
AcDbSpline
210
0.0
220
0.0
230
1.0
 70
    11
 71
     3
 72
    91
 73
    87
 74
    85
 42
0.000000001
 43
0.0000000001
 44
0.00000001
 40
0.0
 40
0.0
 40
0.0
 40
0.0
 40
0.0345987051695718
 40
0.1258134969461085
 40
0.2547723404888703
 40
0.4026032099153556
 40
0.550434079341642
 40
0.6793929228835227
 40
0.7706077146570467
 40
0.8052064287780072
 40
1.124852390615195
 40
1.427402236308785
 40
1.706356627453425
 40
1.955541417875102
 40
2.169485938566244
 40
2.344350786664698
 40
2.480568411561847
 40
2.590440557428869
 40
2.649189927151021
 40
2.74932064330622
 40
2.912632739879927
 40
3.14774565600013
 40
3.244827496385026
 40
3.338490056946618
 40
3.583815413207033
 40
3.761423943238392
 40
3.886956104362541
 40
3.985855451886749
 40
4.091766255337633
 40
4.250186473811826
 40
4.422734315084472
 40
4.62828568483855
 40
4.872093227758369
 40
5.152549652145488
 40
5.464967135837468
 40
5.803201477852389
 40
6.160362988813864
 40
6.193449448275919
 40
6.284170385501573
 40
6.419718138764443
 40
6.587285046385693
 40
6.774063446723607
 40
6.96724567811359
 40
7.154024078817576
 40
7.321590987025962
 40
7.45713874089032
 40
7.547859678556057
 40
7.580946138182616
 40
7.608533084714667
 40
7.669224367077637
 40
7.72991564942985
 40
7.757502595949902
 40
7.790278062553355
 40
7.880146277430853
 40
8.014419963180316
 40
8.180411842397817
 40
8.365434637679286
 40
8.556801071622587
 40
8.7418238668307
 40
8.90781574591621
 40
9.042089431507364
 40
9.13195764624949
 40
9.164733112797066
 40
9.415425063140002
 40
9.66798618095847
 40
9.694169807462638
 40
9.756607686047596
 40
9.831130315322403
 40
9.893568193899867
 40
9.919751820398684
 40
9.950967964690522
 40
9.99642163121063
 40
10.22087981037452
 40
10.44341866197541
 40
10.47847970788854
 40
10.57091337438754
 40
10.70159545461229
 40
10.8514017417036
 40
11.00120802880477
 40
11.13189010907382
 40
11.2243237758301
 40
11.25938480938956
 40
11.28697175596144
 40
11.34766303835918
 40
11.40835432042068
 40
11.43594125892102
 40
11.43594125892102
 40
11.43594125892102
 40
11.43594125892102
 10
190.0818114333289
 20
15.55242795125077
 30
0.0
 10
190.070278584494
 20
15.55242790287915
 30
0.0
 10
190.0283409444999
 20
15.55242773704164
 30
0.0
 10
189.9434129719025
 20
15.55243125800908
 30
0.0
 10
189.8207688553129
 20
15.55240926435879
 30
0.0
 10
189.6791206916993
 20
15.55250801177054
 30
0.0
 10
189.537975369849
 20
15.55214686232421
 30
0.0
 10
189.4141351317905
 20
15.55321883609088
 30
0.0
 10
189.3317217825382
 20
15.55092249091268
 30
0.0
 10
189.1727791229693
 20
15.56048569373419
 30
0.0
 10
189.3503402353376
 20
15.1978539431137
 30
0.0
 10
189.3379739205453
 20
14.95243127723113
 30
0.0
 10
189.4064519473864
 20
14.66862501324835
 30
0.0
 10
189.469302432097
 20
14.43250999939035
 30
0.0
 10
189.5452253431728
 20
14.23326740396129
 30
0.0
 10
189.6303189577017
 20
14.07745347451374
 30
0.0
 10
189.7244607592935
 20
13.97657857781392
 30
0.0
 10
189.8282648207728
 20
13.92465852638965
 30
0.0
 10
189.9125872030773
 20
13.97606484379616
 30
0.0
 10
189.9351322179452
 20
14.09144544037517
 30
0.0
 10
189.9745730975371
 20
14.2188514970238
 30
0.0
 10
189.9202919734942
 20
14.53622328086757
 30
0.0
 10
190.0451218072473
 20
14.38982180140905
 30
0.0
 10
190.2019291513603
 20
14.3579530033117
 30
0.0
 10
190.0947720007057
 20
14.12421357767627
 30
0.0
 10
190.0808711209866
 20
13.95972776583658
 30
0.0
 10
190.0234709467226
 20
13.83130869122481
 30
0.0
 10
189.9335020145008
 20
13.76018802352828
 30
0.0
 10
189.8095274657877
 20
13.74432324142254
 30
0.0
 10
189.663427319686
 20
13.77993797554172
 30
0.0
 10
189.5243894320284
 20
13.90000570500277
 30
0.0
 10
189.4102003962144
 20
14.0743568255032
 30
0.0
 10
189.3146141301487
 20
14.29946603111242
 30
0.0
 10
189.2318652572626
 20
14.56388246006442
 30
0.0
 10
189.1807179256412
 20
14.88187933098544
 30
0.0
 10
189.0770189207338
 20
15.15543728488912
 30
0.0
 10
189.2042841208519
 20
15.56005818612866
 30
0.0
 10
189.0357890623019
 20
15.55112367849678
 30
0.0
 10
188.9511995787077
 20
15.55315961418363
 30
0.0
 10
188.8189876387627
 20
15.55213937388406
 30
0.0
 10
188.6560505094104
 20
15.55253230318429
 30
0.0
 10
188.4733759170532
 20
15.55235696313368
 30
0.0
 10
188.2847057373383
 20
15.55260105307468
 30
0.0
 10
188.1014469020189
 20
15.55185657906236
 30
0.0
 10
187.9404746832718
 20
15.55416360522425
 30
0.0
 10
187.8029808335276
 20
15.54799804883662
 30
0.0
 10
187.728959037231
 20
15.56032838458211
 30
0.0
 10
187.6613215186856
 20
15.54329323723556
 30
0.0
 10
187.673237371927
 20
15.59524438447528
 30
0.0
 10
187.6655677285694
 20
15.64071424966528
 30
0.0
 10
187.6732592225115
 20
15.68614453703704
 30
0.0
 10
187.6613141797762
 20
15.73802395984569
 30
0.0
 10
187.7283588305866
 20
15.72119143490261
 30
0.0
 10
187.8017375665677
 20
15.7333540909267
 30
0.0
 10
187.9379128305271
 20
15.72727231074956
 30
0.0
 10
188.0973811801513
 20
15.72954834315056
 30
0.0
 10
188.2789173085836
 20
15.7288123399896
 30
0.0
 10
188.4658034862179
 20
15.72905954196131
 30
0.0
 10
188.6468012316836
 20
15.72886400799251
 30
0.0
 10
188.8080802578878
 20
15.72932234714837
 30
0.0
 10
188.9393882124887
 20
15.72812673751203
 30
0.0
 10
189.0225051322597
 20
15.73051347319741
 30
0.0
 10
189.1556236547813
 20
15.72230605725461
 30
0.0
 10
189.0645893502659
 20
15.97752868952654
 30
0.0
 10
188.9789633074418
 20
16.24164358328247
 30
0.0
 10
189.0990589003455
 20
16.22904442969165
 30
0.0
 10
189.1514264948544
 20
16.22694235763075
 30
0.0
 10
189.2214497569715
 20
16.22535399889657
 30
0.0
 10
189.2671922337817
 20
16.21602567538113
 30
0.0
 10
189.3220812646933
 20
16.22545966915427
 30
0.0
 10
189.2963574785681
 20
16.17733028655172
 30
0.0
 10
189.1825397571453
 20
16.18266829744168
 30
0.0
 10
189.3159346621135
 20
15.95449174576775
 30
0.0
 10
189.1943658735472
 20
15.72156856595921
 30
0.0
 10
189.3223188769413
 20
15.73087258884437
 30
0.0
 10
189.4049048406461
 20
15.72801001754678
 30
0.0
 10
189.5307214850824
 20
15.729234374123
 30
0.0
 10
189.6741469838057
 20
15.72932431888962
 30
0.0
 10
189.8157420951728
 20
15.72746163183851
 30
0.0
 10
189.9459127249967
 20
15.73333075937161
 30
0.0
 10
190.0193452286191
 20
15.72070340823202
 30
0.0
 10
190.0891112922096
 20
15.7387756311041
 30
0.0
 10
190.0775772605396
 20
15.68612850546325
 30
0.0
 10
190.0833184346682
 20
15.64221317686546
 30
0.0
 10
190.081661577091
 20
15.59089982676548
 30
0.0
 10
190.081775756167
 20
15.56158792021634
 30
0.0
 10
190.0818114333289
 20
15.55242795125077
 30
0.0
 11
190.0818114333289
 21
15.55242795125077
 31
0.0
 11
190.0472127192051
 21
15.55242795125077
 31
0.0
 11
189.9559979274241
 21
15.55242795125077
 31
0.0
 11
189.8270390838717
 21
15.55242795125077
 31
0.0
 11
189.6792082144336
 21
15.55242795125077
 31
0.0
 11
189.5313773449955
 21
15.55242795125077
 31
0.0
 11
189.4024185014431
 21
15.55242795125077
 31
0.0
 11
189.3112037096621
 21
15.55242795125077
 31
0.0
 11
189.2766049955383
 21
15.55242795125077
 31
0.0
 11
189.3083140497694
 21
15.2343586493012
 31
0.0
 11
189.3527866656866
 21
14.9350952278808
 31
0.0
 11
189.409238911832
 21
14.66191269512575
 31
0.0
 11
189.4768868567478
 21
14.42208605917227
 31
0.0
 11
189.5549465689761
 21
14.22289032815654
 31
0.0
 11
189.6426341170591
 21
14.07160051021477
 31
0.0
 11
189.7391655695388
 21
13.97549161348317
 31
0.0
 11
189.8437569949575
 21
13.94183864609792
 31
0.0
 11
189.8943077302786
 21
13.97177376978835
 31
0.0
 11
189.9310588991551
 21
14.06491619815047
 31
0.0
 11
189.9562640977528
 21
14.22627151712054
 31
0.0
 11
189.9721769222368
 21
14.46084531263482
 31
0.0
 11
190.0494082682583
 21
14.40202182306617
 31
0.0
 11
190.1327184184385
 21
14.35921885432689
 31
0.0
 11
190.1066365811217
 21
14.1152838866101
 31
0.0
 11
190.0673317805105
 21
13.94207902887562
 31
0.0
 11
190.0105702596765
 21
13.83011272445918
 31
0.0
 11
189.932118261691
 21
13.76989341669645
 31
0.0
 11
189.8277420296256
 21
13.75192954892317
 31
0.0
 11
189.6738595065097
 21
13.78957440012361
 31
0.0
 11
189.5388902376747
 21
13.89707348877403
 31
0.0
 11
189.4221739916163
 21
14.06627361744809
 31
0.0
 11
189.32305053683
 21
14.28902158871943
 31
0.0
 11
189.2408596418113
 21
14.55716420516172
 31
0.0
 11
189.1749410750559
 21
14.8625482693486
 31
0.0
 11
189.1246346050593
 21
15.19702058385374
 31
0.0
 11
189.0892800003171
 21
15.55242795125077
 31
0.0
 11
189.0561935405844
 21
15.55242795125077
 31
0.0
 11
188.9654726026075
 21
15.55242795125077
 31
0.0
 11
188.8299248482185
 21
15.55242795125077
 31
0.0
 11
188.6623579392495
 21
15.55242795125077
 31
0.0
 11
188.4755795375324
 21
15.55242795125077
 31
0.0
 11
188.2823973048992
 21
15.55242795125077
 31
0.0
 11
188.0956189031822
 21
15.55242795125077
 31
0.0
 11
187.9280519942131
 21
15.55242795125077
 31
0.0
 11
187.7925042398241
 21
15.55242795125077
 31
0.0
 11
187.7017833018473
 21
15.55242795125077
 31
0.0
 11
187.6686968421145
 21
15.55242795125077
 31
0.0
 11
187.6686968421145
 21
15.58001489785846
 31
0.0
 11
187.6686968421145
 21
15.64070618039536
 31
0.0
 11
187.6686968421145
 21
15.70139746293227
 31
0.0
 11
187.6686968421145
 21
15.72898440953996
 31
0.0
 11
187.7014723087631
 21
15.72898440953996
 31
0.0
 11
187.7913405237673
 21
15.72898440953996
 31
0.0
 11
187.9256142097148
 21
15.72898440953996
 31
0.0
 11
188.0916060891932
 21
15.72898440953996
 31
0.0
 11
188.2766288847901
 21
15.72898440953996
 31
0.0
 11
188.4679953190932
 21
15.72898440953996
 31
0.0
 11
188.6530181146902
 21
15.72898440953996
 31
0.0
 11
188.8190099941685
 21
15.72898440953996
 31
0.0
 11
188.953283680116
 21
15.72898440953996
 31
0.0
 11
189.0431518951202
 21
15.72898440953996
 31
0.0
 11
189.0759273617688
 21
15.72898440953996
 31
0.0
 11
189.0659183950103
 21
15.97947647544958
 31
0.0
 11
189.0599112510663
 21
16.23196614552531
 31
0.0
 11
189.0860575870659
 21
16.23056921608122
 31
0.0
 11
189.1484065421419
 21
16.22723807663761
 31
0.0
 11
189.2228230369099
 21
16.22326220052749
 31
0.0
 11
189.2851719919859
 21
16.21993106108388
 31
0.0
 11
189.3113183279855
 21
16.21853413163979
 31
0.0
 11
189.298293111304
 21
16.19016528616079
 31
0.0
 11
189.2551649266405
 21
16.17581274276164
 31
0.0
 11
189.2574991961821
 21
15.95136670115108
 31
0.0
 11
189.2658452735903
 21
15.72898440953996
 31
0.0
 11
189.3009063195165
 21
15.72898440953996
 31
0.0
 11
189.3933399860495
 21
15.72898440953996
 31
0.0
 11
189.5240220663201
 21
15.72898440953996
 31
0.0
 11
189.6738283534596
 21
15.72898440953996
 31
0.0
 11
189.8236346405991
 21
15.72898440953996
 31
0.0
 11
189.9543167208697
 21
15.72898440953996
 31
0.0
 11
190.0467503874027
 21
15.72898440953996
 31
0.0
 11
190.0818114333289
 21
15.72898440953996
 31
0.0
 11
190.0818114333289
 21
15.70139746293227
 31
0.0
 11
190.0818114333289
 21
15.64070618039537
 31
0.0
 11
190.0818114333289
 21
15.58001489785845
 31
0.0
 11
190.0818114333289
 21
15.55242795125077
 31
0.0
  0
SPLINE
  5
AC
102
{ACAD_REACTORS
330
C9
102
}
330
48
100
AcDbEntity
  8
_U_30EC_U_30A4_U_30E4_U_30FC_1
  6
Continuous
 62
     2
100
AcDbSpline
210
0.0
220
0.0
230
1.0
 70
    11
 71
     3
 72
    75
 73
    71
 74
    69
 42
0.000000001
 43
0.0000000001
 44
0.00000001
 40
0.0
 40
0.0
 40
0.0
 40
0.0
 40
0.0342546099129691
 40
0.1245622414432329
 40
0.2522385480897465
 40
0.3985991922940573
 40
0.5449598364980697
 40
0.6726361431438657
 40
0.7629437746736765
 40
0.7971983935297777
 40
1.101723623449639
 40
1.408591244036644
 40
1.433332471690351
 40
1.487763172450151
 40
1.542193873081984
 40
1.566935100592536
 40
1.923523931821846
 40
2.271755704953619
 40
2.590579755100861
 40
2.858943305581147
 40
2.889120339309156
 40
2.918305855191104
 40
2.941366645531227
 40
2.996357760973121
 40
3.061992318140669
 40
3.11698343362687
 40
3.140044223997549
 40
3.411273122936524
 40
3.732441619741133
 40
3.761068217532831
 40
3.837787499630393
 40
3.948858699126029
 40
4.080541049104404
 40
4.219093782625787
 40
4.350776132722336
 40
4.46184733240567
 40
4.5385666146784
 40
4.567193212544646
 40
4.594907573998904
 40
4.666381453557443
 40
4.764111044011054
 40
4.870592538125857
 40
4.968322128642308
 40
5.039796008286993
 40
5.067510369784452
 40
5.094263603185667
 40
5.153120716668308
 40
5.211977830150758
 40
5.238731063551764
 40
5.272290535139003
 40
5.363380529444864
 40
5.497618415781542
 40
5.660621563453784
 40
5.838007341749485
 40
6.015393119910836
 40
6.178396267038462
 40
6.312634151842413
 40
6.403724143059403
 40
6.437283612672498
 40
6.464036846261116
 40
6.522893960004737
 40
6.581751071484005
 40
6.608504301590953
 40
6.6372539412811
 40
6.711397748902952
 40
6.812778057283564
 40
6.923237199249341
 40
7.024617507623985
 40
7.098761315207637
 40
7.127510946007588
 40
7.127510946007588
 40
7.127510946007588
 40
7.127510946007588
 10
188.4418622390564
 20
14.95849128473263
 30
0.0
 10
188.4418622819707
 20
14.94707313408719
 30
0.0
 10
188.4418624481128
 20
14.90555257842628
 30
0.0
 10
188.4418593081787
 20
14.82146922003771
 30
0.0
 10
188.4418788279801
 20
14.70004497322328
 30
0.0
 10
188.4417912187737
 20
14.55980494047448
 30
0.0
 10
188.442111623523
 20
14.42006556794577
 30
0.0
 10
188.4411605909741
 20
14.29745038894929
 30
0.0
 10
188.4431978595967
 20
14.21587074438044
 30
0.0
 10
188.4349433178746
 20
14.06271267077698
 30
0.0
 10
188.74307979409
 20
14.22560236054721
 30
0.0
 10
189.0350645173738
 20
14.39482938688003
 30
0.0
 10
189.0408354448707
 20
14.2597323578191
 30
0.0
 10
189.0455471719891
 20
14.21617221160444
 30
0.0
 10
189.0482535411918
 20
14.17211249350544
 30
0.0
 10
189.0672545672958
 20
14.02272590363132
 30
0.0
 10
188.6583942247302
 20
14.08681172241262
 30
0.0
 10
188.3793710348832
 20
13.97296341411015
 30
0.0
 10
188.1018081587165
 20
13.87364095811141
 30
0.0
 10
187.8099837184403
 20
13.91630687596356
 30
0.0
 10
187.7869144678657
 20
13.8132167974454
 30
0.0
 10
187.7537474383333
 20
13.78691091244469
 30
0.0
 10
187.7480653962739
 20
13.83455309036304
 30
0.0
 10
187.7284214559044
 20
13.8718033611507
 30
0.0
 10
187.7095089485623
 20
13.93007387847564
 30
0.0
 10
187.6942849867707
 20
13.97385201007806
 30
0.0
 10
187.6477246372935
 20
14.08759421046313
 30
0.0
 10
187.9890897312451
 20
14.05576301120046
 30
0.0
 10
188.2679649367385
 20
14.02161435106481
 30
0.0
 10
188.2617753034907
 20
14.16913976479652
 30
0.0
 10
188.2630935452773
 20
14.24013150908832
 30
0.0
 10
188.2624831689948
 20
14.34719767958661
 30
0.0
 10
188.2625871570725
 20
14.47398529785997
 30
0.0
 10
188.2629987964055
 20
14.6084924349605
 30
0.0
 10
188.2613907841969
 20
14.73395549951183
 30
0.0
 10
188.2659902567925
 20
14.84505246719117
 30
0.0
 10
188.256418650221
 20
14.90761886800687
 30
0.0
 10
188.2704001783691
 20
14.96595388295
 30
0.0
 10
188.2147384386704
 20
14.95289710582236
 30
0.0
 10
188.1575655197821
 20
14.96136307749497
 30
0.0
 10
188.0616048925648
 20
14.95729976080635
 30
0.0
 10
187.963376752282
 20
14.95970889852473
 30
0.0
 10
187.8672582457561
 20
14.95551600613387
 30
0.0
 10
187.810464852581
 20
14.96429346441162
 30
0.0
 10
187.7550356873384
 20
14.9509493685012
 30
0.0
 10
187.7670679427916
 20
15.00036910959256
 30
0.0
 10
187.7592003173938
 20
15.04393988030395
 30
0.0
 10
187.7666295563829
 20
15.08830469118525
 30
0.0
 10
187.7551930564143
 20
15.13902297763991
 30
0.0
 10
187.8232102370133
 20
15.12162460757743
 30
0.0
 10
187.8968496879747
 20
15.13417450237189
 30
0.0
 10
188.0325064058211
 20
15.12799677011097
 30
0.0
 10
188.1884909024525
 20
15.13029203093084
 30
0.0
 10
188.3615926358143
 20
15.1294096826253
 30
0.0
 10
188.5346942964181
 20
15.13029207142408
 30
0.0
 10
188.6906789811216
 20
15.1279966295555
 30
0.0
 10
188.8263351889797
 20
15.13417486262432
 30
0.0
 10
188.8999756705652
 20
15.12162394218334
 30
0.0
 10
188.9679914174724
 20
15.13902373012143
 30
0.0
 10
188.9565590885922
 20
15.08830130414555
 30
0.0
 10
188.9639539458297
 20
15.04397060811107
 30
0.0
 10
188.956203991227
 20
15.00028307550195
 30
0.0
 10
188.9681203741877
 20
14.95063590098476
 30
0.0
 10
188.9108170223616
 20
14.96461411338424
 30
0.0
 10
188.8520145789772
 20
14.95539755673252
 30
0.0
 10
188.7525293633199
 20
14.95952268164928
 30
0.0
 10
188.649428009835
 20
14.95822760025887
 30
0.0
 10
188.5537846354573
 20
14.95854077077639
 30
0.0
 10
188.4857467971617
 20
14.95848776697144
 30
0.0
 10
188.4514462213443
 20
14.95849051871655
 30
0.0
 10
188.4418622390564
 20
14.95849128473263
 30
0.0
 11
188.4418622390564
 21
14.95849128473263
 31
0.0
 11
188.4418622390564
 21
14.92423666587184
 31
0.0
 11
188.4418622390564
 21
14.83392903432974
 31
0.0
 11
188.4418622390564
 21
14.70625272766679
 31
0.0
 11
188.4418622390564
 21
14.5598920834434
 31
0.0
 11
188.4418622390564
 21
14.41353143922001
 31
0.0
 11
188.4418622390564
 21
14.28585513255705
 31
0.0
 11
188.4418622390564
 21
14.19554750101495
 31
0.0
 11
188.4418622390564
 21
14.16129288215416
 31
0.0
 11
188.7391932644567
 21
14.22709475713768
 31
0.0
 11
189.0384623627245
 21
14.29496038212072
 31
0.0
 11
189.0405487124976
 21
14.27030727882827
 31
0.0
 11
189.0451386819987
 21
14.21607045158489
 31
0.0
 11
189.0497286514996
 21
14.16183362434151
 31
0.0
 11
189.0518150012728
 21
14.13718052104906
 31
0.0
 11
188.705639688924
 21
14.05163370140897
 31
0.0
 11
188.3669653138838
 21
13.970608776299
 31
0.0
 11
188.0563731516688
 21
13.89862764024928
 31
0.0
 11
187.7944444777955
 21
13.8402121877899
 31
0.0
 11
187.7817515029292
 21
13.81283442738013
 31
0.0
 11
187.7569794787513
 21
13.79740260446735
 31
0.0
 11
187.7491867589501
 21
13.81910683390636
 31
0.0
 11
187.7306041194242
 21
13.87086307333786
 31
0.0
 11
187.70842483999
 21
13.93263664943352
 31
0.0
 11
187.689842200464
 21
13.98439288886502
 31
0.0
 11
187.6820494806628
 21
14.00609711830403
 31
0.0
 11
187.9482776335932
 21
14.05794001759666
 31
0.0
 11
188.2626334936289
 21
14.1237396877191
 31
0.0
 11
188.2626334936289
 21
14.15236628569624
 31
0.0
 11
188.2626334936289
 21
14.22908556827499
 31
0.0
 11
188.2626334936289
 21
14.34015676842631
 31
0.0
 11
188.2626334936289
 21
14.47183911912117
 31
0.0
 11
188.2626334936289
 21
14.61039185333055
 31
0.0
 11
188.2626334936289
 21
14.74207420402542
 31
0.0
 11
188.2626334936289
 21
14.85314540417674
 31
0.0
 11
188.2626334936289
 21
14.92986468675549
 31
0.0
 11
188.2626334936289
 21
14.95849128473263
 31
0.0
 11
188.2349191321108
 21
14.95849128473263
 31
0.0
 11
188.1634452524063
 21
14.95849128473263
 31
0.0
 11
188.06571566179
 21
14.95849128473263
 31
0.0
 11
187.9592341675364
 21
14.95849128473263
 31
0.0
 11
187.8615045769201
 21
14.95849128473263
 31
0.0
 11
187.7900306972156
 21
14.95849128473263
 31
0.0
 11
187.7623163356975
 21
14.95849128473263
 31
0.0
 11
187.7623163356975
 21
14.98524451823288
 31
0.0
 11
187.7623163356975
 21
15.04410163193344
 31
0.0
 11
187.7623163356975
 21
15.10295874563399
 31
0.0
 11
187.7623163356975
 21
15.12971197913424
 31
0.0
 11
187.7958758072874
 21
15.12971197913424
 31
0.0
 11
187.8869658016031
 21
15.12971197913424
 31
0.0
 11
188.0212036879629
 21
15.12971197913424
 31
0.0
 11
188.1842068356856
 21
15.12971197913424
 31
0.0
 11
188.3615926140897
 21
15.12971197913424
 31
0.0
 11
188.5389783924938
 21
15.12971197913424
 31
0.0
 11
188.7019815402164
 21
15.12971197913424
 31
0.0
 11
188.8362194265763
 21
15.12971197913424
 31
0.0
 11
188.9273094208918
 21
15.12971197913424
 31
0.0
 11
188.9608688924818
 21
15.12971197913424
 31
0.0
 11
188.9608688924818
 21
15.10295874563399
 31
0.0
 11
188.9608688924818
 21
15.04410163193343
 31
0.0
 11
188.9608688924818
 21
14.98524451823288
 31
0.0
 11
188.9608688924818
 21
14.95849128473263
 31
0.0
 11
188.9321192527877
 21
14.95849128473263
 31
0.0
 11
188.8579754451555
 21
14.95849128473263
 31
0.0
 11
188.7565951367604
 21
14.95849128473263
 31
0.0
 11
188.6461359947778
 21
14.95849128473263
 31
0.0
 11
188.5447556863827
 21
14.95849128473263
 31
0.0
 11
188.4706118787505
 21
14.95849128473263
 31
0.0
 11
188.4418622390564
 21
14.95849128473263
 31
0.0
  0
SPLINE
  5
AD
102
{ACAD_REACTORS
330
CA
102
}
330
48
100
AcDbEntity
  8
_U_30EC_U_30A4_U_30E4_U_30FC_1
  6
Continuous
 62
     2
100
AcDbSpline
210
0.0
220
0.0
230
1.0
 70
    11
 71
     3
 72
    15
 73
    11
 74
     9
 42
0.000000001
 43
0.0000000001
 44
0.00000001
 40
0.0
 40
0.0
 40
0.0
 40
0.0
 40
0.2785535985097487
 40
0.5215624748198956
 40
0.6076917376040591
 40
0.6938210001741325
 40
0.9405019146455162
 40
1.221691403489149
 40
1.300471877081065
 40
1.379252341684831
 40
1.379252341684831
 40
1.379252341684831
 40
1.379252341684831
 10
189.5681493630999
 20
16.22930267330381
 30
0.0
 10
189.6296017794179
 20
16.17691646592717
 30
0.0
 10
189.7446649974114
 20
16.0788287679823
 30
0.0
 10
190.0397348497243
 20
15.92889785897219
 30
0.0
 10
189.9025147631857
 20
15.84343227515014
 30
0.0
 10
189.8041227843777
 20
15.71085785201554
 30
0.0
 10
189.7130033590651
 20
16.01616985781421
 30
0.0
 10
189.3636839480654
 20
16.07967869465374
 30
0.0
 10
189.5119258376571
 20
16.17896509880878
 30
0.0
 10
189.5494081874236
 20
16.21252348402382
 30
0.0
 10
189.5681493630999
 20
16.22930267330381
 30
0.0
 11
189.5681493630999
 21
16.22930267330381
 31
0.0
 11
189.7919222440597
 21
16.06341774278972
 31
0.0
 11
189.9695046306383
 21
15.89753281227564
 31
0.0
 11
189.9066308127979
 21
15.83866743034592
 31
0.0
 11
189.8437569949575
 21
15.7798020484162
 31
0.0
 11
189.6688535117725
 21
15.95375677059491
 31
0.0
 11
189.447825685614
 21
16.12757920110703
 31
0.0
 11
189.507987524357
 21
16.17844093720542
 31
0.0
 11
189.5681493630999
 21
16.22930267330381
 31
0.0
  0
SPLINE
  5
AE
102
{ACAD_REACTORS
330
CB
102
}
330
48
100
AcDbEntity
  8
_U_30EC_U_30A4_U_30E4_U_30FC_1
  6
Continuous
 62
     2
100
AcDbSpline
210
0.0
220
0.0
230
1.0
 70
    11
 71
     3
 72
    35
 73
    31
 74
    29
 42
0.000000001
 43
0.0000000001
 44
0.00000001
 40
0.0
 40
0.0
 40
0.0
 40
0.0
 40
0.033523103661993
 40
0.0713218571712392
 40
0.4278866681487437
 40
0.8116865841964662
 40
1.198190238000121
 40
1.561379546812797
 40
1.659983174622224
 40
1.759315573807363
 40
2.132719617231223
 40
2.525233363588952
 40
2.910815397779819
 40
3.265244364303445
 40
3.592606723582185
 40
3.964386154604132
 40
4.359942131737957
 40
4.75815411863947
 40
4.843846538700056
 40
4.936650065543407
 40
5.256616602537564
 40
5.581707404416279
 40
5.899719158308375
 40
6.19836349428096
 40
6.466301046615976
 40
6.493895311537298
 40
6.559697020197091
 40
6.638234543442666
 40
6.704036252154419
 40
6.731630508423224
 40
6.731630508423224
 40
6.731630508423224
 40
6.731630508423224
 10
191.9736010568669
 20
16.23463843719134
 30
0.0
 10
191.9676006097789
 20
16.22480690542322
 30
0.0
 10
191.9548344099158
 20
16.20388988579792
 30
0.0
 10
191.7949362006553
 20
16.17127126532714
 30
0.0
 10
192.2322025842337
 20
15.8820668033669
 30
0.0
 10
192.4345394828262
 20
15.68041138358441
 30
0.0
 10
192.6819564267974
 20
15.43749387603276
 30
0.0
 10
193.1831513624607
 20
15.36047662757772
 30
0.0
 10
193.012556219897
 20
15.2187693917466
 30
0.0
 10
192.93832994632
 20
15.01710366209107
 30
0.0
 10
192.6131432248188
 20
15.36956287174726
 30
0.0
 10
192.3277741670664
 20
15.53175212559562
 30
0.0
 10
192.0337604077658
 20
15.7368713005305
 30
0.0
 10
191.8084452691134
 20
16.21827488595455
 30
0.0
 10
191.5993085055521
 20
15.75343046609223
 30
0.0
 10
191.3207873674833
 20
15.54350952252911
 30
0.0
 10
191.037138317721
 20
15.37424456359987
 30
0.0
 10
190.7078639527829
 20
15.00142360907929
 30
0.0
 10
190.6277012318225
 20
15.19708014459004
 30
0.0
 10
190.4759724909742
 20
15.3249110419059
 30
0.0
 10
190.9083395826796
 20
15.40454031765934
 30
0.0
 10
191.0962565329766
 20
15.60026634915473
 30
0.0
 10
191.3468477420503
 20
15.81632996916755
 30
0.0
 10
191.5714350470162
 20
15.98190992300058
 30
0.0
 10
191.625977540971
 20
16.26133964636827
 30
0.0
 10
191.7494661029012
 20
16.24737950408078
 30
0.0
 10
191.806027334452
 20
16.24521268867647
 30
0.0
 10
191.8761870984944
 20
16.2404685988136
 30
0.0
 10
191.9333414022105
 20
16.23709429350541
 30
0.0
 10
191.9644190320839
 20
16.23519854711119
 30
0.0
 10
191.9736010568669
 20
16.23463843719134
 30
0.0
 11
191.9736010568669
 21
16.23463843719134
 31
0.0
 11
191.9525319069885
 21
16.20856374969785
 31
0.0
 11
191.9174464559425
 21
16.19450114553469
 31
0.0
 11
192.1512374769094
 21
15.92527961131381
 31
0.0
 11
192.4414585957567
 21
15.67413407969259
 31
0.0
 11
192.7612797483684
 21
15.45710987618784
 31
0.0
 11
193.083870870629
 21
15.29025232631638
 31
0.0
 11
193.0213299868076
 21
15.21402035584928
 31
0.0
 11
192.9688035818975
 21
15.12971197913424
 31
0.0
 11
192.6436279095814
 21
15.3132640483158
 31
0.0
 11
192.3237227768436
 21
15.54070139743428
 31
0.0
 11
192.0354200158608
 21
15.7967385512331
 31
0.0
 11
191.8050514588095
 21
16.06609003445566
 31
0.0
 11
191.5995531719516
 21
15.81126348721036
 31
0.0
 11
191.3288301341535
 21
15.55645182277756
 31
0.0
 11
191.0119538423246
 21
15.31969466354855
 31
0.0
 11
190.6679957933741
 21
15.11903163191465
 31
0.0
 11
190.6218855341338
 21
15.19126067703553
 31
0.0
 11
190.5636970460348
 21
15.26355586798965
 31
0.0
 11
190.8433040489016
 21
15.41911456961744
 31
0.0
 11
191.1093004621155
 21
15.60601009790405
 31
0.0
 11
191.3499997459747
 21
15.81384496285208
 31
0.0
 11
191.5537153607774
 21
16.03222167446416
 31
0.0
 11
191.7087607668218
 21
16.25074274274287
 31
0.0
 11
191.7363041569865
 21
16.24906789496551
 31
0.0
 11
191.8019845489177
 21
16.24507402718873
 31
0.0
 11
191.880377274771
 21
16.24030715274548
 31
0.0
 11
191.9460576667022
 21
16.2363132849687
 31
0.0
 11
191.9736010568669
 21
16.23463843719134
 31
0.0
  0
SPLINE
  5
AF
102
{ACAD_REACTORS
330
CC
102
}
330
48
100
AcDbEntity
  8
_U_30EC_U_30A4_U_30E4_U_30FC_1
  6
Continuous
 62
     2
100
AcDbSpline
210
0.0
220
0.0
230
1.0
 70
    11
 71
     3
 72
    91
 73
    87
 74
    85
 42
0.000000001
 43
0.0000000001
 44
0.00000001
 40
0.0
 40
0.0
 40
0.0
 40
0.0
 40
0.0267532254356684
 40
0.0856103386464066
 40
0.144467452199655
 40
0.1712206856618426
 40
0.2039416005642447
 40
0.2955601971652395
 40
0.4362601844616829
 40
0.6162252844507161
 40
0.8256392189704609
 40
1.054685709844402
 40
1.293548478893522
 40
1.532411247938294
 40
1.761457738799559
 40
1.970871673298528
 40
2.150836773256724
 40
2.291536760495585
 40
2.383155356836691
 40
2.415876284101311
 40
2.442629517487954
 40
2.50148663094908
 40
2.560343744424226
 40
2.587096977826497
 40
2.617068194440924
 40
2.699247336756065
 40
2.822032643466378
 40
2.973822353257908
 40
3.14301470482335
 40
3.318007936879929
 40
3.487200288186762
 40
3.638989997548243
 40
3.761775303794741
 40
3.843954445753076
 40
3.873925662229772
 40
3.89081277350048
 40
3.907699884771658
 40
3.937960767857264
 40
3.980983618142296
 40
4.199085915228442
 40
4.43944433923722
 40
4.677588241260836
 40
5.050698317837722
 40
5.448212454763051
 40
5.855291218044548
 40
6.138575438885215
 40
6.41743450758399
 40
6.444551104393648
 40
6.504207617362922
 40
6.563864130314246
 40
6.590980727103814
 40
6.848609460381197
 40
7.109611990668155
 40
7.35291090444582
 40
7.557830220705191
 40
7.58751892591311
 40
7.652834077375531
 40
7.718149228845468
 40
7.747837934061774
 40
7.854880190300745
 40
7.976511257403292
 40
8.369487896592037
 40
8.757514959223359
 40
9.12607241933085
 40
9.460639380391912
 40
9.746695593035653
 40
9.777569943118424
 40
9.807050320931525
 40
9.83037733612866
 40
9.886003295435737
 40
9.952395569429653
 40
10.00802152870601
 40
10.03134854388194
 40
10.21356951009564
 40
10.42203479292847
 40
10.66154556731039
 40
10.9169378956428
 40
11.15832906556541
 40
11.18982674596598
 40
11.27286608520383
 40
11.39026653033325
 40
11.52484752840861
 40
11.65942852648423
 40
11.77682897161459
 40
11.85986831085658
 40
11.89136598230403
 40
11.89136598230403
 40
11.89136598230403
 40
11.89136598230403
 10
190.7027885008196
 20
14.70699600701772
 30
0.0
 10
190.7028237765288
 20
14.71587847311985
 30
0.0
 10
190.7029366710796
 20
14.74430237047346
 30
0.0
 10
190.7012984568488
 20
14.79409639169802
 30
0.0
 10
190.7069750292911
 20
14.83657564478154
 30
0.0
 10
190.6956928731706
 20
14.88730154856846
 30
0.0
 10
190.7632296979032
 20
14.87012900740108
 30
0.0
 10
190.83880292107
 20
14.88290227165995
 30
0.0
 10
190.9828357056
 20
14.87629729457381
 30
0.0
 10
191.1569419185427
 20
14.87888462206465
 30
0.0
 10
191.3639599611003
 20
14.87800591955552
 30
0.0
 10
191.5894688172378
 20
14.87828207920027
 30
0.0
 10
191.8251162293406
 20
14.87818339658661
 30
0.0
 10
192.0607640531348
 20
14.87828184412766
 30
0.0
 10
192.2862717580626
 20
14.87800678190788
 30
0.0
 10
192.4932934632805
 20
14.87888186270734
 30
0.0
 10
192.6673888915288
 20
14.87630522678445
 30
0.0
 10
192.8114492071986
 20
14.88288290449213
 30
0.0
 10
192.8869691915292
 20
14.87016243405603
 30
0.0
 10
192.954577603703
 20
14.88726400191686
 30
0.0
 10
192.9430840140675
 20
14.83674785802939
 30
0.0
 10
192.9505104581733
 20
14.79253252226501
 30
0.0
 10
192.9428838927986
 20
14.74867966503609
 30
0.0
 10
192.9546489459425
 20
14.69878374479327
 30
0.0
 10
192.8930788491983
 20
14.71393227712512
 30
0.0
 10
192.8256791738672
 20
14.70310665350673
 30
0.0
 10
192.7013004056221
 20
14.70852031626236
 30
0.0
 10
192.555442823657
 20
14.70649205390785
 30
0.0
 10
192.3893576440085
 20
14.70715777578387
 30
0.0
 10
192.2188412621724
 20
14.70689643521242
 30
0.0
 10
192.0519790855388
 20
14.70721553391094
 30
0.0
 10
191.9087346827105
 20
14.70635302590762
 30
0.0
 10
191.7773313869834
 20
14.70863300482988
 30
0.0
 10
191.7239859134656
 20
14.70407704374202
 30
0.0
 10
191.6485188456912
 20
14.70999914992877
 30
0.0
 10
191.6769075779232
 20
14.70094169343353
 30
0.0
 10
191.7033652409542
 20
14.6972591226893
 30
0.0
 10
191.6633522907701
 20
14.66654271968275
 30
0.0
 10
191.5713663691867
 20
14.67667591174634
 30
0.0
 10
191.543939620707
 20
14.43032502247786
 30
0.0
 10
191.4478793967234
 20
14.27499558764376
 30
0.0
 10
191.1917277964474
 20
13.94525417931567
 30
0.0
 10
191.7627537732763
 20
14.08430022210451
 30
0.0
 10
192.0173656320517
 20
14.08291779973362
 30
0.0
 10
192.6279647048617
 20
13.99790569242088
 30
0.0
 10
192.3340698578083
 20
14.29685417558202
 30
0.0
 10
192.0133304286519
 20
14.44330856901777
 30
0.0
 10
192.1313543360434
 20
14.50025540818288
 30
0.0
 10
192.1724716466262
 20
14.52420099873349
 30
0.0
 10
192.2156812394412
 20
14.5459975881123
 30
0.0
 10
192.317457409445
 20
14.60928721253905
 30
0.0
 10
192.4328867625248
 20
14.35147151408779
 30
0.0
 10
192.6329591642277
 20
14.21616041113683
 30
0.0
 10
192.7269077387228
 20
14.03792795138882
 30
0.0
 10
192.9558829746392
 20
13.87997821027049
 30
0.0
 10
192.8596031846708
 20
13.82915972576299
 30
0.0
 10
192.8167959763779
 20
13.79881292523053
 30
0.0
 10
192.7718243528779
 20
13.77466130281458
 30
0.0
 10
192.7121720925213
 20
13.72552146747566
 30
0.0
 10
192.6789731061325
 20
13.8599747567361
 30
0.0
 10
192.5582013350796
 20
14.0159426528658
 30
0.0
 10
192.1970976005979
 20
13.88569928059556
 30
0.0
 10
191.8385061955541
 20
13.90224694409483
 30
0.0
 10
191.457092045008
 20
13.89331229351864
 30
0.0
 10
191.170345528289
 20
13.82882671672407
 30
0.0
 10
190.8592055599715
 20
13.94230668192824
 30
0.0
 10
190.8268737818788
 20
13.83122259927767
 30
0.0
 10
190.7896178253318
 20
13.81196313850011
 30
0.0
 10
190.7865737632753
 20
13.85874784087296
 30
0.0
 10
190.7679892860607
 20
13.89806853919134
 30
0.0
 10
190.7512436616778
 20
13.95765983478232
 30
0.0
 10
190.7383730915754
 20
14.00201969871284
 30
0.0
 10
190.7042327806427
 20
14.091063311202
 30
0.0
 10
190.9482714457753
 20
14.02181042943769
 30
0.0
 10
191.1441394486671
 20
14.00030369057744
 30
0.0
 10
191.2395426381276
 20
14.28226484478463
 30
0.0
 10
191.2945135769597
 20
14.44363045421123
 30
0.0
 10
191.5159619357156
 20
14.71391177589738
 30
0.0
 10
191.3849239381216
 20
14.70548446853735
 30
0.0
 10
191.3110026555854
 20
14.7077900849697
 30
0.0
 10
191.1977459876244
 20
14.70671378321657
 30
0.0
 10
191.0694251807484
 20
14.7070763907651
 30
0.0
 10
190.9404252030415
 20
14.70697724466086
 30
0.0
 10
190.828784094629
 20
14.70699932712572
 30
0.0
 10
190.7514663970026
 20
14.7069957918967
 30
0.0
 10
190.713287653201
 20
14.70699595845081
 30
0.0
 10
190.7027885008196
 20
14.70699600701772
 30
0.0
 11
190.7027885008196
 21
14.70699600701772
 31
0.0
 11
190.7027885008196
 21
14.73374924051797
 31
0.0
 11
190.7027885008196
 21
14.79260635421853
 31
0.0
 11
190.7027885008196
 21
14.85146346791909
 31
0.0
 11
190.7027885008196
 21
14.87821670141934
 31
0.0
 11
190.7355094280989
 21
14.87821670141934
 31
0.0
 11
190.8271280244809
 21
14.87821670141934
 31
0.0
 11
190.9678280117818
 21
14.87821670141934
 31
0.0
 11
191.1477931118179
 21
14.87821670141934
 31
0.0
 11
191.3572070464054
 21
14.87821670141934
 31
0.0
 11
191.5862535373604
 21
14.87821670141934
 31
0.0
 11
191.8251163064992
 21
14.87821670141934
 31
0.0
 11
192.0639790756381
 21
14.87821670141934
 31
0.0
 11
192.2930255665931
 21
14.87821670141934
 31
0.0
 11
192.5024395011806
 21
14.87821670141934
 31
0.0
 11
192.6824046012167
 21
14.87821670141934
 31
0.0
 11
192.8231045885176
 21
14.87821670141934
 31
0.0
 11
192.9147231848996
 21
14.87821670141934
 31
0.0
 11
192.9474441121789
 21
14.87821670141934
 31
0.0
 11
192.9474441121789
 21
14.85146346791909
 31
0.0
 11
192.9474441121789
 21
14.79260635421853
 31
0.0
 11
192.9474441121789
 21
14.73374924051797
 31
0.0
 11
192.9474441121789
 21
14.70699600701772
 31
0.0
 11
192.9174728954758
 21
14.70699600701772
 31
0.0
 11
192.8352937529027
 21
14.70699600701772
 31
0.0
 11
192.7125084457639
 21
14.70699600701772
 31
0.0
 11
192.5607187353642
 21
14.70699600701772
 31
0.0
 11
192.3915263830077
 21
14.70699600701772
 31
0.0
 11
192.2165331499991
 21
14.70699600701772
 31
0.0
 11
192.0473407976426
 21
14.70699600701772
 31
0.0
 11
191.8955510872428
 21
14.70699600701772
 31
0.0
 11
191.7727657801042
 21
14.70699600701772
 31
0.0
 11
191.690586637531
 21
14.70699600701772
 31
0.0
 11
191.6606154208279
 21
14.70699600701772
 31
0.0
 11
191.6766359412525
 21
14.70165583340794
 31
0.0
 11
191.6926564616771
 21
14.69631565979815
 31
0.0
 11
191.670615568142
 21
14.67558114591443
 31
0.0
 11
191.6284861855363
 21
14.6668587153611
 31
0.0
 11
191.5365235541377
 21
14.46909247312657
 31
0.0
 11
191.4279078521764
 21
14.25467511978509
 31
0.0
 11
191.3127500824808
 21
14.0462255905162
 31
0.0
 11
191.6857366675021
 21
14.05582441253029
 31
0.0
 11
192.083070003615
 21
14.06781232404994
 31
0.0
 11
192.4899342191145
 21
14.08102711828533
 31
0.0
 11
192.2983119496978
 21
14.28966761302481
 31
0.0
 11
192.0966752013699
 21
14.48229420151832
 31
0.0
 11
192.120494779475
 21
14.49525327269565
 31
0.0
 11
192.1728978513062
 21
14.52376322928576
 31
0.0
 11
192.2253009231374
 21
14.55227318587588
 31
0.0
 11
192.2491205012425
 21
14.5652322570532
 31
0.0
 11
192.4387101558627
 21
14.39079508370268
 31
0.0
 11
192.6200310940435
 21
14.20305846374091
 31
0.0
 11
192.7777729231147
 21
14.01782380992436
 31
0.0
 11
192.8966252504058
 21
13.85089253500949
 31
0.0
 11
192.8715408217923
 21
13.83501202286068
 31
0.0
 11
192.8163550788425
 21
13.80007489613331
 31
0.0
 11
192.7611693358928
 21
13.76513776940595
 31
0.0
 11
192.7360849072793
 21
13.74925725725714
 31
0.0
 11
192.6775518151612
 21
13.8388782468181
 31
0.0
 11
192.6050015078457
 21
13.93650288221033
 31
0.0
 11
192.2125412924095
 21
13.91636286943759
 31
0.0
 11
191.8249474069561
 21
13.89803302999773
 31
0.0
 11
191.4567378976213
 21
13.88202178722395
 31
0.0
 11
191.1224308105412
 21
13.86883756444946
 31
0.0
 11
190.8365441918518
 21
13.85898878500749
 31
0.0
 11
190.821186232174
 21
13.83220523466695
 31
0.0
 11
190.7937434290546
 21
13.82143559057244
 31
0.0
 11
190.7867927192319
 21
13.84370299445576
 31
0.0
 11
190.7702179496548
 21
13.89680218833138
 31
0.0
 11
190.7504351601596
 21
13.96017864553776
 31
0.0
 11
190.7338603905825
 21
14.01327783941338
 31
0.0
 11
190.7269096807598
 21
14.0355452432967
 31
0.0
 11
190.9091199859153
 21
14.03751638912952
 31
0.0
 11
191.1174975848588
 21
14.04356211829472
 31
0.0
 11
191.2303203127216
 21
14.25483550301554
 31
0.0
 11
191.3407936722035
 21
14.48509813155879
 31
0.0
 11
191.4358254265627
 21
14.70699600701772
 31
0.0
 11
191.4043277461597
 21
14.70699600701772
 31
0.0
 11
191.3212884069153
 21
14.70699600701772
 31
0.0
 11
191.2038879617768
 21
14.70699600701772
 31
0.0
 11
191.0693069636912
 21
14.70699600701772
 31
0.0
 11
190.9347259656055
 21
14.70699600701772
 31
0.0
 11
190.817325520467
 21
14.70699600701772
 31
0.0
 11
190.7342861812226
 21
14.70699600701772
 31
0.0
 11
190.7027885008196
 21
14.70699600701772
 31
0.0
  0
SPLINE
  5
B0
102
{ACAD_REACTORS
330
CD
102
}
330
48
100
AcDbEntity
  8
_U_30EC_U_30A4_U_30E4_U_30FC_1
  6
Continuous
 62
     2
100
AcDbSpline
210
0.0
220
0.0
230
1.0
 70
    11
 71
     3
 72
   131
 73
   127
 74
   125
 42
0.000000001
 43
0.0000000001
 44
0.00000001
 40
0.0
 40
0.0
 40
0.0
 40
0.0
 40
0.0195577029826086
 40
0.0426490537461338
 40
0.2863607575856525
 40
0.5344948436189235
 40
0.7842238845573133
 40
0.8737315789467572
 40
0.9803832810313099
 40
1.092842274517056
 40
1.199761146656815
 40
1.289788768186519
 40
1.351573580786192
 40
1.370727117561418
 40
1.416400936017827
 40
1.470914848355969
 40
1.516588666791757
 40
1.535742203552836
 40
1.634216592293141
 40
1.760283341174933
 40
1.897966686682063
 40
2.031216387368911
 40
2.049689751137905
 40
2.101115601646841
 40
2.179502577739958
 40
2.278859318314076
 40
2.393194462258734
 40
2.516516648383847
 40
2.642834515405976
 40
2.766156701983482
 40
2.880491846754596
 40
2.979848588358639
 40
3.058235565443816
 40
3.109661416668972
 40
3.128134780704148
 40
3.146783742386464
 40
3.191254343315325
 40
3.244332157315984
 40
3.288802758225888
 40
3.307451719895131
 40
3.327717853844742
 40
3.383747753580103
 40
3.468388665924495
 40
3.574487837698802
 40
3.694892515728904
 40
3.822449946852043
 40
3.950007377920432
 40
4.070412055800524
 40
4.17651122736808
 40
4.261152139501526
 40
4.317182039076718
 40
4.337448172964638
 40
4.620011002696241
 40
4.885096638397511
 40
4.945373043518325
 40
5.014107710488633
 40
5.070481727652026
 40
5.31924695563655
 40
5.584812164506043
 40
5.859000912056896
 40
6.133746937542076
 40
6.401732212968909
 40
6.420736683995528
 40
6.472845717451122
 40
6.550702743894107
 40
6.646951193874315
 40
6.754234497930639
 40
6.865196086587446
 40
6.972479390357904
 40
7.068727839772095
 40
7.146584865451103
 40
7.198693898189333
 40
7.217698368905474
 40
7.234950401630952
 40
7.276089864269998
 40
7.325191803516113
 40
7.366331266090501
 40
7.383583298769853
 40
7.40277916349223
 40
7.453386443254661
 40
7.524934666445663
 40
7.606953361406003
 40
7.688972056429154
 40
7.760520279784405
 40
7.811127559734647
 40
7.830323424546268
 40
7.847844055299898
 40
7.894799345666939
 40
7.962779392744627
 40
8.043374293560674
 40
8.12817414514958
 40
8.208769044817386
 40
8.276749090377086
 40
8.323704379669644
 40
8.341225010056379
 40
8.358497614800527
 40
8.401679126686732
 40
8.45781509218579
 40
8.513951057728194
 40
8.55713256970815
 40
8.574405174505193
 40
8.60234066861653
 40
8.643455660540122
 40
8.66322527196679
 40
8.715345156564437
 40
8.789031889628772
 40
8.873502045520501
 40
8.957972194324125
 40
9.031658925568015
 40
9.083778811234707
 40
9.103548423003168
 40
9.119550083123706
 40
9.160817522380007
 40
9.217244429110373
 40
9.278724491644859
 40
9.335151398295643
 40
9.376418837357939
 40
9.392420497300726
 40
9.401196302734945
 40
9.41749422938442
 40
9.426270027749693
 40
9.440875075477726
 40
9.475702496998908
 40
9.517270709866072
 40
9.552098131994242
 40
9.566703169884452
 40
9.566703169884452
 40
9.566703169884452
 40
9.566703169884452
 10
194.6170254148479
 20
15.67015871511026
 30
0.0
 10
194.613434509337
 20
15.66453690702158
 30
0.0
 10
194.6056039123625
 20
15.65227754419112
 30
0.0
 10
194.5129968974543
 20
15.61601916040976
 30
0.0
 10
194.4887622233248
 20
15.40148444212713
 30
0.0
 10
194.3858709845938
 20
15.22197284509708
 30
0.0
 10
194.1220492364305
 20
15.03615573798143
 30
0.0
 10
194.2845471569181
 20
14.95959336566082
 30
0.0
 10
194.3607225760838
 20
14.89856693195441
 30
0.0
 10
194.4492171072759
 20
14.83515804544759
 30
0.0
 10
194.538993023311
 20
14.77525634219559
 30
0.0
 10
194.5883817636047
 20
14.72102154849208
 30
0.0
 10
194.6745708157382
 20
14.69286240541832
 30
0.0
 10
194.6411260674229
 20
14.65713309652811
 30
0.0
 10
194.6214671166311
 20
14.62550387991905
 30
0.0
 10
194.5919888217882
 20
14.58475872796069
 30
0.0
 10
194.5688989446031
 20
14.55504663489644
 30
0.0
 10
194.5380205968356
 20
14.50211422668495
 30
0.0
 10
194.4729193365741
 20
14.62740334938901
 30
0.0
 10
194.3796000122416
 20
14.68213900233937
 30
0.0
 10
194.2950636285139
 20
14.73916423939339
 30
0.0
 10
194.1722498125741
 20
14.89675287427523
 30
0.0
 10
194.1764450847301
 20
14.82035806766837
 30
0.0
 10
194.1751478652677
 20
14.77361280161296
 30
0.0
 10
194.1758126448077
 20
14.69584785812601
 30
0.0
 10
194.1755549986956
 20
14.59902068324423
 30
0.0
 10
194.1756431239922
 20
14.48650279078809
 30
0.0
 10
194.1756077302282
 20
14.36524085945699
 30
0.0
 10
194.1756511758278
 20
14.24086897858961
 30
0.0
 10
194.1755199942405
 20
14.11967683631335
 30
0.0
 10
194.1759477562047
 20
14.00691148919743
 30
0.0
 10
194.1746678202311
 20
13.91082913768744
 30
0.0
 10
194.1779759851044
 20
13.83113826468699
 30
0.0
 10
194.1715197740085
 20
13.78815175788783
 30
0.0
 10
194.1806208705556
 20
13.74955432372042
 30
0.0
 10
194.1447910339934
 20
13.75810887724069
 30
0.0
 10
194.1115223815252
 20
13.75342519985446
 30
0.0
 10
194.0604562576041
 20
13.75351298759783
 30
0.0
 10
194.0269723972812
 20
13.7579443028382
 30
0.0
 10
193.9907585408754
 20
13.74960793842509
 30
0.0
 10
194.0009782568666
 20
13.79145277179284
 30
0.0
 10
193.9936487887774
 20
13.83778560820173
 30
0.0
 10
193.9973633136103
 20
13.92374831106014
 30
0.0
 10
193.9959480554895
 20
14.02605142704848
 30
0.0
 10
193.9964105554639
 20
14.14453223931511
 30
0.0
 10
193.996277368623
 20
14.26957683153355
 30
0.0
 10
193.9963015910045
 20
14.39475828107048
 30
0.0
 10
193.9963354925551
 20
14.51286645379057
 30
0.0
 10
193.9962060293132
 20
14.61628748709514
 30
0.0
 10
193.9965507549081
 20
14.69932036153666
 30
0.0
 10
193.995869827869
 20
14.75143368521242
 30
0.0
 10
193.9994586600623
 20
14.8791290782136
 30
0.0
 10
193.7826171386436
 20
14.5804871681962
 30
0.0
 10
193.6021354921951
 20
14.35263981511515
 30
0.0
 10
193.5490322295611
 20
14.49373443289814
 30
0.0
 10
193.5200429133149
 20
14.54325767560942
 30
0.0
 10
193.419664806282
 20
14.64641779790105
 30
0.0
 10
193.7405127723261
 20
14.72695035023779
 30
0.0
 10
193.8689897005429
 20
14.91066283036432
 30
0.0
 10
194.0906454325359
 20
15.11931995771761
 30
0.0
 10
194.1770224894069
 20
15.29339211228344
 30
0.0
 10
194.4549394229076
 20
15.56967051342513
 30
0.0
 10
194.3346247839285
 20
15.56534559551113
 30
0.0
 10
194.286319735135
 20
15.56614856202552
 30
0.0
 10
194.2102377454905
 20
15.56574582146582
 30
0.0
 10
194.1167010009751
 20
15.56590275611608
 30
0.0
 10
194.0117594788557
 20
15.56582502576223
 30
0.0
 10
193.9033887738718
 20
15.56595464378553
 30
0.0
 10
193.7981454235897
 20
15.56554393490691
 30
0.0
 10
193.7056237819413
 20
15.5668207367159
 30
0.0
 10
193.6268130800707
 20
15.56340766534849
 30
0.0
 10
193.5839674565379
 20
15.57023350036319
 30
0.0
 10
193.5449499586515
 20
15.56065064201123
 30
0.0
 10
193.5526365271864
 20
15.59420779565542
 30
0.0
 10
193.5485464404312
 20
15.62523550322232
 30
0.0
 10
193.5485531368814
 20
15.672365292709
 30
0.0
 10
193.5526239724912
 20
15.70340941646779
 30
0.0
 10
193.5449495574582
 20
15.73701861635901
 30
0.0
 10
193.5834819405494
 20
15.72748410420872
 30
0.0
 10
193.624122801448
 20
15.73397435498071
 30
0.0
 10
193.6951471850463
 20
15.73100150650254
 30
0.0
 10
193.7729318149633
 20
15.73174761399158
 30
0.0
 10
193.8507292246474
 20
15.73247814044525
 30
0.0
 10
193.9217232089907
 20
15.7295423551416
 30
0.0
 10
193.962427979182
 20
15.73595468772952
 30
0.0
 10
194.000985348991
 20
15.72650524176004
 30
0.0
 10
193.9927342754927
 20
15.76264692158784
 30
0.0
 10
193.9982346669359
 20
15.80129837613227
 30
0.0
 10
193.9955754206163
 20
15.86913528561839
 30
0.0
 10
193.9965815471533
 20
15.9459164153874
 30
0.0
 10
193.9960178018319
 20
16.02849393582757
 30
0.0
 10
193.9970714526592
 20
16.10517329229878
 30
0.0
 10
193.994267586313
 20
16.173319907767
 30
0.0
 10
194.0000702721304
 20
16.21132399809346
 30
0.0
 10
193.9915654551158
 20
16.24758448077646
 30
0.0
 10
194.0255610233125
 20
16.23755723771853
 30
0.0
 10
194.05945756831
 20
16.24073266813706
 30
0.0
 10
194.1126669060346
 20
16.2350896564061
 30
0.0
 10
194.1660768574483
 20
16.23434774436425
 30
0.0
 10
194.199591464949
 20
16.2281922348298
 30
0.0
 10
194.2388086183039
 20
16.23346029773593
 30
0.0
 10
194.2120263698493
 20
16.19253380793485
 30
0.0
 10
194.1708111001724
 20
16.20371204538113
 30
0.0
 10
194.1782641540873
 20
16.15867056192124
 30
0.0
 10
194.1742227952184
 20
16.11412278028144
 30
0.0
 10
194.176171404964
 20
16.04223572621703
 30
0.0
 10
194.1752364849758
 20
15.96168630588771
 30
0.0
 10
194.176510719003
 20
15.88173995404994
 30
0.0
 10
194.1732043793863
 20
15.80841837083183
 30
0.0
 10
194.1802106179961
 20
15.76688643002568
 30
0.0
 10
194.1701440380126
 20
15.72752418568113
 30
0.0
 10
194.2029814803921
 20
15.73468063430981
 30
0.0
 10
194.236457729648
 20
15.73027243137945
 30
0.0
 10
194.2915053476019
 20
15.73217943347897
 30
0.0
 10
194.3489502595314
 20
15.73185366407288
 30
0.0
 10
194.4023026248309
 20
15.73106308733081
 30
0.0
 10
194.4398540896639
 20
15.73313959118074
 30
0.0
 10
194.4623172523237
 20
15.73022338167109
 30
0.0
 10
194.4751678073731
 20
15.73572552644056
 30
0.0
 10
194.4858255685888
 20
15.7380111819779
 30
0.0
 10
194.4986635650144
 20
15.74494972588053
 30
0.0
 10
194.514599103307
 20
15.72853046313672
 30
0.0
 10
194.5410623920891
 20
15.71709122319447
 30
0.0
 10
194.5726805253758
 20
15.6964468783519
 30
0.0
 10
194.5987255892151
 20
15.68116869628293
 30
0.0
 10
194.6128517723973
 20
15.67266976323183
 30
0.0
 10
194.6170254148479
 20
15.67015871511026
 30
0.0
 11
194.6170254148479
 21
15.67015871511026
 31
0.0
 11
194.6049990002243
 21
15.65473571164187
 31
0.0
 11
194.5848961795565
 21
15.64337406233918
 31
0.0
 11
194.4778986355813
 21
15.42440620231159
 31
0.0
 11
194.3477039934324
 21
15.21317201512161
 31
0.0
 11
194.1996540366071
 21
15.01206059027479
 31
0.0
 11
194.2734958253735
 21
14.96147384935379
 31
0.0
 11
194.36056643118
 21
14.89988411653738
 31
0.0
 11
194.4518003750405
 21
14.83413160594425
 31
0.0
 11
194.5381321779688
 21
14.77105653169304
 31
0.0
 11
194.6104963609787
 21
14.71749910790241
 31
0.0
 11
194.6598274450843
 21
14.68029954869103
 31
0.0
 11
194.6486940702213
 21
14.66471410869493
 31
0.0
 11
194.6221452532403
 21
14.62754882870423
 31
0.0
 11
194.5904579555533
 21
14.58319026871532
 31
0.0
 11
194.5639091385723
 21
14.54602498872462
 31
0.0
 11
194.5527757637093
 21
14.53043954872852
 31
0.0
 11
194.4807013362948
 21
14.59754008690617
 31
0.0
 11
194.3852856985382
 21
14.67993354174668
 31
0.0
 11
194.279326415217
 21
14.76785017366916
 31
0.0
 11
194.175621051109
 21
14.85152024309267
 31
0.0
 11
194.175621051109
 21
14.83304687900863
 31
0.0
 11
194.175621051109
 21
14.78162102763955
 31
0.0
 11
194.175621051109
 21
14.70323405030999
 31
0.0
 11
194.175621051109
 21
14.60387730834448
 31
0.0
 11
194.175621051109
 21
14.4895421630676
 31
0.0
 11
194.175621051109
 21
14.36621997580389
 31
0.0
 11
194.175621051109
 21
14.2399021078779
 31
0.0
 11
194.175621051109
 21
14.11657992061418
 31
0.0
 11
194.175621051109
 21
14.0022447753373
 31
0.0
 11
194.175621051109
 21
13.9028880333718
 31
0.0
 11
194.175621051109
 21
13.82450105604223
 31
0.0
 11
194.175621051109
 21
13.77307520467315
 31
0.0
 11
194.175621051109
 21
13.75460184058911
 31
0.0
 11
194.1569720893626
 21
13.75460184058911
 31
0.0
 11
194.1125014882749
 21
13.75460184058911
 31
0.0
 11
194.0594236740736
 21
13.75460184058911
 31
0.0
 11
194.0149530729859
 21
13.75460184058911
 31
0.0
 11
193.9963041112395
 21
13.75460184058911
 31
0.0
 11
193.9963041112395
 21
13.77486797460218
 31
0.0
 11
193.9963041112395
 21
13.83089787452066
 31
0.0
 11
193.9963041112395
 21
13.91553878716346
 31
0.0
 11
193.9963041112395
 21
14.02163795934952
 31
0.0
 11
193.9963041112395
 21
14.14204263789774
 31
0.0
 11
193.9963041112395
 21
14.26960006962704
 31
0.0
 11
193.9963041112395
 21
14.39715750135635
 31
0.0
 11
193.9963041112395
 21
14.51756217990457
 31
0.0
 11
193.9963041112395
 21
14.62366135209063
 31
0.0
 11
193.9963041112395
 21
14.70830226473343
 31
0.0
 11
193.9963041112395
 21
14.76433216465191
 31
0.0
 11
193.9963041112395
 21
14.78459829866498
 31
0.0
 11
193.7883272849481
 21
14.59331998274057
 31
0.0
 11
193.5763486358425
 21
14.43414885430811
 31
0.0
 11
193.5495629014482
 21
14.48814671952095
 31
0.0
 11
193.5138765415024
 21
14.54689140572025
 31
0.0
 11
193.4799697494124
 21
14.59192871537975
 31
0.0
 11
193.6830287742319
 21
14.73563387201052
 31
0.0
 11
193.881853195826
 21
14.91168423529987
 31
0.0
 11
194.0677041444178
 21
15.11327514524949
 31
0.0
 11
194.2318427502303
 21
15.33360194186108
 31
0.0
 11
194.3655301434865
 21
15.56585996513634
 31
0.0
 11
194.3465256724482
 21
15.56585996513634
 31
0.0
 11
194.2944166389563
 21
15.56585996513634
 31
0.0
 11
194.2165596124448
 21
15.56585996513634
 31
0.0
 11
194.1203111623479
 21
15.56585996513634
 31
0.0
 11
194.0130278580997
 21
15.56585996513634
 31
0.0
 11
193.9020662691345
 21
15.56585996513634
 31
0.0
 11
193.7947829648864
 21
15.56585996513634
 31
0.0
 11
193.6985345147895
 21
15.56585996513634
 31
0.0
 11
193.620677488278
 21
15.56585996513634
 31
0.0
 11
193.568568454786
 21
15.56585996513634
 31
0.0
 11
193.5495639837478
 21
15.56585996513634
 31
0.0
 11
193.5495639837478
 21
15.58311199790981
 31
0.0
 11
193.5495639837478
 21
15.62425146067731
 31
0.0
 11
193.5495639837478
 21
15.67335340010949
 31
0.0
 11
193.5495639837478
 21
15.71449286287698
 31
0.0
 11
193.5495639837478
 21
15.73174489565045
 31
0.0
 11
193.5687598486009
 21
15.73174489565045
 31
0.0
 11
193.6193671286684
 21
15.73174489565045
 31
0.0
 11
193.690915352212
 21
15.73174489565045
 31
0.0
 11
193.7729340474937
 21
15.73174489565045
 31
0.0
 11
193.8549527427753
 21
15.73174489565045
 31
0.0
 11
193.9265009663189
 21
15.73174489565045
 31
0.0
 11
193.9771082463864
 21
15.73174489565045
 31
0.0
 11
193.9963041112395
 21
15.73174489565045
 31
0.0
 11
193.9963041112395
 21
15.74926552655218
 31
0.0
 11
193.9963041112395
 21
15.79622081736882
 31
0.0
 11
193.9963041112395
 21
15.86420086526753
 31
0.0
 11
193.9963041112395
 21
15.94479576741549
 31
0.0
 11
193.9963041112395
 21
16.02959562097986
 31
0.0
 11
193.9963041112395
 21
16.11019052312782
 31
0.0
 11
193.9963041112395
 21
16.17817057102653
 31
0.0
 11
193.9963041112395
 21
16.22512586184317
 31
0.0
 11
193.9963041112395
 21
16.2426464927449
 31
0.0
 11
194.0135484112111
 21
16.24165806167519
 31
0.0
 11
194.0566591611401
 21
16.23918698400091
 31
0.0
 11
194.1127031360477
 21
16.23597458302435
 31
0.0
 11
194.1687471109553
 21
16.2327621820478
 31
0.0
 11
194.2118578608843
 21
16.23029110437352
 31
0.0
 11
194.2291021608559
 21
16.22930267330381
 31
0.0
 11
194.2143774674852
 21
16.20556293372639
 31
0.0
 11
194.175621051109
 21
16.19183767331312
 31
0.0
 11
194.175621051109
 21
16.17206806177293
 31
0.0
 11
194.175621051109
 21
16.11994817680333
 31
0.0
 11
194.175621051109
 21
16.04626144288079
 31
0.0
 11
194.175621051109
 21
15.96179128448179
 31
0.0
 11
194.175621051109
 21
15.87732112608278
 31
0.0
 11
194.175621051109
 21
15.80363439216024
 31
0.0
 11
194.175621051109
 21
15.75151450719064
 31
0.0
 11
194.175621051109
 21
15.73174489565045
 31
0.0
 11
194.1916227112935
 21
15.73174489565045
 31
0.0
 11
194.232890150717
 21
15.73174489565045
 31
0.0
 11
194.2893170576837
 21
15.73174489565045
 31
0.0
 11
194.3507971204981
 21
15.73174489565045
 31
0.0
 11
194.4072240274648
 21
15.73174489565045
 31
0.0
 11
194.4484914668882
 21
15.73174489565045
 31
0.0
 11
194.4644931270728
 21
15.73174489565045
 31
0.0
 11
194.4728206422924
 21
15.73451387455921
 31
0.0
 11
194.4882860277004
 21
15.73965626396118
 31
0.0
 11
194.49661354292
 21
15.74242524286994
 31
0.0
 11
194.5091363776005
 21
15.73490952398293
 31
0.0
 11
194.5389985218386
 21
15.71698742509853
 31
0.0
 11
194.5746404359293
 21
15.69559653288167
 31
0.0
 11
194.6045025801674
 21
15.67767443399727
 31
0.0
 11
194.6170254148479
 21
15.67015871511026
 31
0.0
  0
SPLINE
  5
B1
102
{ACAD_REACTORS
330
CE
102
}
330
48
100
AcDbEntity
  8
_U_30EC_U_30A4_U_30E4_U_30FC_1
  6
Continuous
 62
     2
100
AcDbSpline
210
0.0
220
0.0
230
1.0
 70
    11
 71
     3
 72
   124
 73
   120
 74
   118
 42
0.000000001
 43
0.0000000001
 44
0.00000001
 40
0.0
 40
0.0
 40
0.0
 40
0.0
 40
0.027818722962451
 40
0.1011590162384269
 40
0.2048470170590239
 40
0.3237088716559245
 40
0.4425707262522
 40
0.5462587270699547
 40
0.6195990203311798
 40
0.647417752257866
 40
0.6750060736115224
 40
0.7357003855242759
 40
0.7963946998054492
 40
0.8239830245571784
 40
0.8540933811102878
 40
0.9373396629409558
 40
1.063094687343237
 40
1.220731268638075
 40
1.399622220914749
 40
1.589140358637734
 40
1.7786584964239
 40
1.957549448940511
 40
2.11518603087316
 40
2.240941056914465
 40
2.324187341760534
 40
2.354297700109384
 40
2.38188602467189
 40
2.442580338710479
 40
2.503274652750503
 40
2.53086297731461
 40
2.560983949278563
 40
2.640393784452908
 40
2.752662861759132
 40
2.881361560118148
 40
3.010060258455195
 40
3.122329335705342
 40
3.201739170817956
 40
3.231860142753317
 40
3.264298024030372
 40
3.352343701778243
 40
3.482095226868764
 40
3.639650650173022
 40
3.811108022565477
 40
3.982565394927982
 40
4.140120818152561
 40
4.269872343141269
 40
4.357918020802329
 40
4.390355902043958
 40
4.423256253992528
 40
4.508104530073049
 40
4.624121560636817
 40
4.750528176031573
 40
4.86654520660202
 40
4.951393482691977
 40
4.984293834645379
 40
5.011450833242296
 40
5.071196230152085
 40
5.130941627057164
 40
5.158098625648832
 40
5.190998977601523
 40
5.275847253689348
 40
5.391864284256783
 40
5.518270899648328
 40
5.634287930209367
 40
5.719136206288041
 40
5.752036558235928
 40
5.782130946282954
 40
5.862783906229128
 40
5.979550131774995
 40
6.117984316640402
 40
6.263641154587947
 40
6.402075339414153
 40
6.518841564907947
 40
6.599494524815529
 40
6.629588912848766
 40
6.654403028226342
 40
6.71357514948811
 40
6.784199939329427
 40
6.843372060493529
 40
6.868186175802775
 40
6.896246243201855
 40
6.939586233758251
 40
6.967846564564879
 40
7.043584251089817
 40
7.153234334451676
 40
7.283231855734425
 40
7.420011856035459
 40
7.550009376579811
 40
7.65965945883521
 40
7.735397144417203
 40
7.763657474851375
 40
7.796409728011032
 40
7.880876065096307
 40
7.996370852465692
 40
8.122208446418588
 40
8.237703224799182
 40
8.322169562010876
 40
8.35492181520589
 40
8.382078813307672
 40
8.441824209206981
 40
8.501569605240135
 40
8.528726603485715
 40
8.561478856695764
 40
8.645945193877814
 40
8.761439980865326
 40
8.887277580764469
 40
9.00277236200099
 40
9.08723869666121
 40
9.119990949235664
 40
9.152428830613362
 40
9.240474508638577
 40
9.370226034149525
 40
9.527781457984407
 40
9.699238830981395
 40
9.870696203978584
 40
10.028251627814
 40
10.15800315332562
 40
10.24604883135117
 40
10.27848670378519
 40
10.27848670378519
 40
10.27848670378519
 40
10.27848670378519
 10
195.3821827564383
 20
14.01410517385757
 30
0.0
 10
195.3914554737523
 20
14.01410498511274
 30
0.0
 10
195.4251744536861
 20
14.01410430876714
 30
0.0
 10
195.4934706812465
 20
14.01411807243305
 30
0.0
 10
195.592014171158
 20
14.01403224219544
 30
0.0
 10
195.7062066464812
 20
14.01441755612251
 30
0.0
 10
195.818589441707
 20
14.01300835897545
 30
0.0
 10
195.9214376600118
 20
14.01719117422243
 30
0.0
 10
195.9806839874849
 20
14.00823089251983
 30
0.0
 10
196.0371265937032
 20
14.02164434526061
 30
0.0
 10
196.0246255586955
 20
13.97087198613361
 30
0.0
 10
196.0329549635704
 20
13.92589320939067
 30
0.0
 10
196.0248170841119
 20
13.88056752990488
 30
0.0
 10
196.0370529214457
 20
13.82931932408466
 30
0.0
 10
195.9747773490333
 20
13.84447955365276
 30
0.0
 10
195.9060513026868
 20
13.83359750710742
 30
0.0
 10
195.7782756749592
 20
13.83911304747972
 30
0.0
 10
195.6262984511643
 20
13.83700851253698
 30
0.0
 10
195.4502695972523
 20
13.83771002588473
 30
0.0
 10
195.2644431934287
 20
13.83745237531291
 30
0.0
 10
195.0786167437175
 20
13.83771005144602
 30
0.0
 10
194.9025880142168
 20
13.83700841847731
 30
0.0
 10
194.7506104154195
 20
13.83911332229989
 30
0.0
 10
194.6228357664554
 20
13.8335968076764
 30
0.0
 10
194.554107783658
 20
13.84448077125942
 30
0.0
 10
194.4918349042883
 20
13.82931786684209
 30
0.0
 10
194.5040616290017
 20
13.88057510805171
 30
0.0
 10
194.4960004462597
 20
13.92582473272425
 30
0.0
 10
194.5040675809892
 20
13.97106357955323
 30
0.0
 10
194.4918238487083
 20
14.02234176909958
 30
0.0
 10
194.5525017120697
 20
14.00749577363134
 30
0.0
 10
194.6162810745736
 20
14.01756448170735
 30
0.0
 10
194.7277314353502
 20
14.01294644211999
 30
0.0
 10
194.8497533443824
 20
14.01413328905469
 30
0.0
 10
194.9719538137823
 20
14.01515863900634
 30
0.0
 10
195.0829794287392
 20
14.01092475623401
 30
0.0
 10
195.1476517413958
 20
14.02018584521739
 30
0.0
 10
195.2091162810501
 20
14.00604423049682
 30
0.0
 10
195.1930065601337
 20
14.07235527884517
 30
0.0
 10
195.2042980327358
 20
14.14447790121975
 30
0.0
 10
195.198740082256
 20
14.27513760888285
 30
0.0
 10
195.200803506169
 20
14.42607323708241
 30
0.0
 10
195.2000167127295
 20
14.59335873107885
 30
0.0
 10
195.2007845215628
 20
14.76061110332302
 30
0.0
 10
195.1988038785628
 20
14.91163289269912
 30
0.0
 10
195.2041306156621
 20
15.04206069552994
 30
0.0
 10
195.1933101388425
 20
15.11465442605898
 30
0.0
 10
195.2090326429875
 20
15.18150469436797
 30
0.0
 10
195.143270813249
 20
15.16580512490823
 30
0.0
 10
195.0756367830764
 20
15.17609243083994
 30
0.0
 10
194.9615885293809
 20
15.17113786847121
 30
0.0
 10
194.8451242674902
 20
15.17414128030474
 30
0.0
 10
194.7306554121477
 20
15.16880303143387
 30
0.0
 10
194.6640324657812
 20
15.18001268074824
 30
0.0
 10
194.5990769715185
 20
15.1634913266501
 30
0.0
 10
194.6107989758708
 20
15.21473720477058
 30
0.0
 10
194.6032830189121
 20
15.25950333784091
 30
0.0
 10
194.6107989878835
 20
15.30426944897961
 30
0.0
 10
194.5990769505346
 20
15.35551536129741
 30
0.0
 10
194.66403263392
 20
15.33899381766816
 30
0.0
 10
194.7306533339822
 20
15.35020571373943
 30
0.0
 10
194.8451352858063
 20
15.34485436710665
 30
0.0
 10
194.9615454436962
 20
15.34791188771117
 30
0.0
 10
195.0757660174641
 20
15.34278499010708
 30
0.0
 10
195.1430150439227
 20
15.35345733355598
 30
0.0
 10
195.2083325941438
 20
15.33742082669077
 30
0.0
 10
195.1941391448553
 20
15.39949685750054
 30
0.0
 10
195.2036059462994
 20
15.46586761628762
 30
0.0
 10
195.1990269004085
 20
15.58239972741966
 30
0.0
 10
195.2007696555948
 20
15.71426685022376
 30
0.0
 10
195.1997551495391
 20
15.85615960150273
 30
0.0
 10
195.2017191344373
 20
15.9876905070258
 30
0.0
 10
195.1964668553851
 20
16.10524577283002
 30
0.0
 10
195.2073408763474
 20
16.16947789001584
 30
0.0
 10
195.1919536641853
 20
16.23108802545047
 30
0.0
 10
195.24075915378
 20
16.21702407382111
 30
0.0
 10
195.2853995564726
 20
16.21954742075314
 30
0.0
 10
195.3538643946742
 20
16.2151279740171
 30
0.0
 10
195.3959106169102
 20
16.20613025544035
 30
0.0
 10
195.4487544758775
 20
16.2141171486651
 30
0.0
 10
195.4207035002014
 20
16.17113917611674
 30
0.0
 10
195.3749142248594
 20
16.18259552043837
 30
0.0
 10
195.3869539073264
 20
16.12173520005137
 30
0.0
 10
195.3796086070641
 20
16.05769299468773
 30
0.0
 10
195.3831195826162
 20
15.94909368863911
 30
0.0
 10
195.3819806760173
 20
15.82494319144753
 30
0.0
 10
195.3819174780263
 20
15.69189719829878
 30
0.0
 10
195.3832872966867
 20
15.56797381249555
 30
0.0
 10
195.3791638801314
 20
15.45868337849339
 30
0.0
 10
195.3877763103564
 20
15.3960858009417
 30
0.0
 10
195.3746757454401
 20
15.33740133296365
 30
0.0
 10
195.4393884328198
 20
15.35362113810902
 30
0.0
 10
195.5060405953155
 20
15.34270260383311
 30
0.0
 10
195.6198779541103
 20
15.34793740173756
 30
0.0
 10
195.7357259122097
 20
15.34485547516913
 30
0.0
 10
195.849692426328
 20
15.35018259812512
 30
0.0
 10
195.9160341018099
 20
15.33904208166543
 30
0.0
 10
195.980718852548
 20
15.35546979593178
 30
0.0
 10
195.9689820772722
 20
15.3042592521005
 30
0.0
 10
195.976516806304
 20
15.25950334121
 30
0.0
 10
195.9689820992258
 20
15.21474739010026
 30
0.0
 10
195.9807188140736
 20
15.16353690871039
 30
0.0
 10
195.9160344075252
 20
15.17996427794219
 30
0.0
 10
195.8496886430824
 20
15.16882784447268
 30
0.0
 10
195.7357459487012
 20
15.17413115893119
 30
0.0
 10
195.6197995623054
 20
15.17114764593543
 30
0.0
 10
195.5062756882122
 20
15.17606892268392
 30
0.0
 10
195.4389231318804
 20
15.16585087513518
 30
0.0
 10
195.3734285122495
 20
15.18145996138814
 30
0.0
 10
195.3891713619218
 20
15.1146385182741
 30
0.0
 10
195.3783275998213
 20
15.04207057815878
 30
0.0
 10
195.3836581629793
 20
14.91162247614415
 30
0.0
 10
195.3817136151855
 20
14.76064558185225
 30
0.0
 10
195.3823133683215
 20
14.59322243934158
 30
0.0
 10
195.3821506559604
 20
14.42656176118371
 30
0.0
 10
195.3821895488136
 20
14.27360142921636
 30
0.0
 10
195.3821816413099
 20
14.14849178985705
 30
0.0
 10
195.3821828382744
 20
14.06507890991419
 30
0.0
 10
195.3821827716208
 20
14.02491778281976
 30
0.0
 10
195.3821827564383
 20
14.01410517385757
 30
0.0
 11
195.3821827564383
 21
14.01410517385757
 31
0.0
 11
195.4100014883675
 21
14.01410517385757
 31
0.0
 11
195.4833417816353
 21
14.01410517385757
 31
0.0
 11
195.5870297824622
 21
14.01410517385757
 31
0.0
 11
195.7058916370687
 21
14.01410517385757
 31
0.0
 11
195.8247534916751
 21
14.01410517385757
 31
0.0
 11
195.928441492502
 21
14.01410517385757
 31
0.0
 11
196.0017817857698
 21
14.01410517385757
 31
0.0
 11
196.029600517699
 21
14.01410517385757
 31
0.0
 11
196.029600517699
 21
13.9865168492117
 31
0.0
 11
196.029600517699
 21
13.92582253499077
 31
0.0
 11
196.029600517699
 21
13.86512822076984
 31
0.0
 11
196.029600517699
 21
13.83753989612397
 31
0.0
 11
195.9994901593494
 21
13.83753989612397
 31
0.0
 11
195.9162438745004
 21
13.83753989612397
 31
0.0
 11
195.7904888484521
 21
13.83753989612397
 31
0.0
 11
195.6328522665041
 21
13.83753989612397
 31
0.0
 11
195.4539613139564
 21
13.83753989612397
 31
0.0
 11
195.2644431761089
 21
13.83753989612397
 31
0.0
 11
195.0749250382613
 21
13.83753989612397
 31
0.0
 11
194.8960340857136
 21
13.83753989612397
 31
0.0
 11
194.7383975037656
 21
13.83753989612397
 31
0.0
 11
194.6126424777172
 21
13.83753989612397
 31
0.0
 11
194.5293961928683
 21
13.83753989612397
 31
0.0
 11
194.4992858345187
 21
13.83753989612397
 31
0.0
 11
194.4992858345187
 21
13.86512822076984
 31
0.0
 11
194.4992858345187
 21
13.92582253499077
 31
0.0
 11
194.4992858345187
 21
13.9865168492117
 31
0.0
 11
194.4992858345187
 21
14.01410517385757
 31
0.0
 11
194.5294068064947
 21
14.01410517385757
 31
0.0
 11
194.608816641704
 21
14.01410517385757
 31
0.0
 11
194.721085719069
 21
14.01410517385757
 31
0.0
 11
194.8497844175118
 21
14.01410517385757
 31
0.0
 11
194.9784831159545
 21
14.01410517385757
 31
0.0
 11
195.0907521933195
 21
14.01410517385757
 31
0.0
 11
195.1701620285289
 21
14.01410517385757
 31
0.0
 11
195.2002830005048
 21
14.01410517385757
 31
0.0
 11
195.2002830005048
 21
14.04654305523835
 31
0.0
 11
195.2002830005048
 21
14.1345887332719
 31
0.0
 11
195.2002830005048
 21
14.26434025879502
 31
0.0
 11
195.2002830005048
 21
14.42189568264453
 31
0.0
 11
195.2002830005048
 21
14.59335305565723
 31
0.0
 11
195.2002830005048
 21
14.76481042866993
 31
0.0
 11
195.2002830005048
 21
14.92236585251944
 31
0.0
 11
195.2002830005048
 21
15.05211737804256
 31
0.0
 11
195.2002830005048
 21
15.14016305607611
 31
0.0
 11
195.2002830005048
 21
15.17260093745689
 31
0.0
 11
195.1673826485529
 21
15.17260093745689
 31
0.0
 11
195.0825343724662
 21
15.17260093745689
 31
0.0
 11
194.9665173418988
 21
15.17260093745689
 31
0.0
 11
194.8401107265044
 21
15.17260093745689
 31
0.0
 11
194.724093695937
 21
15.17260093745689
 31
0.0
 11
194.6392454198503
 21
15.17260093745689
 31
0.0
 11
194.6063450678984
 21
15.17260093745689
 31
0.0
 11
194.6063450678984
 21
15.19975793614802
 31
0.0
 11
194.6063450678984
 21
15.2595033332685
 31
0.0
 11
194.6063450678984
 21
15.31924873038897
 31
0.0
 11
194.6063450678984
 21
15.3464057290801
 31
0.0
 11
194.6392454198504
 21
15.3464057290801
 31
0.0
 11
194.724093695937
 21
15.3464057290801
 31
0.0
 11
194.8401107265044
 21
15.3464057290801
 31
0.0
 11
194.9665173418988
 21
15.3464057290801
 31
0.0
 11
195.0825343724662
 21
15.3464057290801
 31
0.0
 11
195.1673826485529
 21
15.3464057290801
 31
0.0
 11
195.2002830005048
 21
15.3464057290801
 31
0.0
 11
195.2002830005048
 21
15.3765001173137
 31
0.0
 11
195.2002830005048
 21
15.45715307777974
 31
0.0
 11
195.2002830005048
 21
15.57391930412609
 31
0.0
 11
195.2002830005048
 21
15.71235349000063
 31
0.0
 11
195.2002830005048
 21
15.85801032905124
 31
0.0
 11
195.2002830005048
 21
15.99644451492578
 31
0.0
 11
195.2002830005048
 21
16.11321074127214
 31
0.0
 11
195.2002830005048
 21
16.19386370173817
 31
0.0
 11
195.2002830005048
 21
16.22395808997177
 31
0.0
 11
195.2250405288618
 21
16.22228324219442
 31
0.0
 11
195.2840777118669
 21
16.21828937441765
 31
0.0
 11
195.3545414464214
 21
16.21352249997441
 31
0.0
 11
195.4135786294265
 21
16.20952863219765
 31
0.0
 11
195.4383361577835
 21
16.20785378442029
 31
0.0
 11
195.423306722403
 21
16.1841581420651
 31
0.0
 11
195.3821827564383
 21
16.17047697887404
 31
0.0
 11
195.3821827564383
 21
16.14221664794832
 31
0.0
 11
195.3821827564383
 21
16.0664789610674
 31
0.0
 11
195.3821827564383
 21
15.95682887707561
 31
0.0
 11
195.3821827564383
 21
15.82683135481731
 31
0.0
 11
195.3821827564383
 21
15.69005135313683
 31
0.0
 11
195.3821827564383
 21
15.56005383087853
 31
0.0
 11
195.3821827564383
 21
15.45040374688674
 31
0.0
 11
195.3821827564383
 21
15.37466606000582
 31
0.0
 11
195.3821827564383
 21
15.3464057290801
 31
0.0
 11
195.4149350096115
 21
15.3464057290801
 31
0.0
 11
195.4994013467422
 21
15.3464057290801
 31
0.0
 11
195.6148961342476
 21
15.3464057290801
 31
0.0
 11
195.7407337385445
 21
15.3464057290801
 31
0.0
 11
195.8562285260498
 21
15.3464057290801
 31
0.0
 11
195.9406948631806
 21
15.3464057290801
 31
0.0
 11
195.9734471163538
 21
15.3464057290801
 31
0.0
 11
195.9734471163538
 21
15.31924873038897
 31
0.0
 11
195.9734471163538
 21
15.2595033332685
 31
0.0
 11
195.9734471163538
 21
15.19975793614802
 31
0.0
 11
195.9734471163538
 21
15.17260093745689
 31
0.0
 11
195.9406948631806
 21
15.17260093745689
 31
0.0
 11
195.8562285260498
 21
15.17260093745689
 31
0.0
 11
195.7407337385445
 21
15.17260093745689
 31
0.0
 11
195.6148961342476
 21
15.17260093745689
 31
0.0
 11
195.4994013467422
 21
15.17260093745689
 31
0.0
 11
195.4149350096114
 21
15.17260093745689
 31
0.0
 11
195.3821827564383
 21
15.17260093745689
 31
0.0
 11
195.3821827564383
 21
15.14016305607611
 31
0.0
 11
195.3821827564383
 21
15.05211737804256
 31
0.0
 11
195.3821827564383
 21
14.92236585251944
 31
0.0
 11
195.3821827564383
 21
14.76481042866993
 31
0.0
 11
195.3821827564383
 21
14.59335305565723
 31
0.0
 11
195.3821827564383
 21
14.42189568264453
 31
0.0
 11
195.3821827564383
 21
14.26434025879503
 31
0.0
 11
195.3821827564383
 21
14.1345887332719
 31
0.0
 11
195.3821827564383
 21
14.04654305523835
 31
0.0
 11
195.3821827564383
 21
14.01410517385757
 31
0.0
  0
SPLINE
  5
B2
102
{ACAD_REACTORS
330
CF
102
}
330
48
100
AcDbEntity
  8
_U_30EC_U_30A4_U_30E4_U_30FC_1
  6
Continuous
 62
     2
100
AcDbSpline
210
0.0
220
0.0
230
1.0
 70
     8
 71
     3
 72
    62
 73
    58
 74
    56
 42
0.000000001
 43
0.0000000001
 44
0.00000001
 40
0.0
 40
0.0
 40
0.0
 40
0.0
 40
0.0598250028308485
 40
0.2024846486897331
 40
0.3727558389221031
 40
0.515415484793607
 40
0.5752404975785339
 40
0.9332326775487276
 40
1.290451762839478
 40
1.602077253145877
 40
1.69993163411211
 40
1.799359756425045
 40
2.270120149657086
 40
2.804661928461491
 40
2.8823422873832
 40
3.076543185719051
 40
3.329004354835511
 40
3.581465524568336
 40
3.775666424543616
 40
3.853346784558236
 40
3.89912067959501
 40
3.984129341792037
 40
4.029903236817414
 40
4.105797496059568
 40
4.295533144152528
 40
4.542189486611764
 40
4.788845828875712
 40
4.978581476410093
 40
5.054475735244336
 40
5.621734664339343
 40
6.130867242037361
 40
6.225249780948574
 40
6.318913039727304
 40
6.663579954558928
 40
7.047498900224801
 40
7.435230791575721
 40
7.498943906668133
 40
7.650875181210127
 40
7.832212509001637
 40
7.984143783697023
 40
8.04785689890315
 40
8.091554632732654
 40
8.172707566964306
 40
8.216405300768027
 40
8.289021782160912
 40
8.462184160757285
 40
8.668861838005366
 40
8.842024215263958
 40
8.914640695475153
 40
8.989881580861358
 40
9.155411528827265
 40
9.320941477744052
 40
9.396182352487301
 40
9.454709011143848
 40
9.583467660170783
 40
9.712226309013062
 40
9.770752957989515
 40
9.770752957989515
 40
9.770752957989515
 40
9.770752957989515
 10
187.1521871691833
 20
14.9398028819595
 30
0.0
 10
187.1322348171623
 20
14.93980875568671
 30
0.0
 10
187.0647037716466
 20
14.93982863806157
 30
0.0
 10
186.9410612161788
 20
14.93949362520326
 30
0.0
 10
186.7863180150056
 20
14.94107673750511
 30
0.0
 10
186.669734948248
 20
14.93686078860495
 30
0.0
 10
186.4550942634239
 20
14.95215205331625
 30
0.0
 10
186.8518948407229
 20
14.59198721286193
 30
0.0
 10
186.8945656069267
 20
14.37510503397165
 30
0.0
 10
187.3189162146611
 20
14.19325062511449
 30
0.0
 10
187.1439821496074
 20
14.0898519656807
 30
0.0
 10
187.0194523925083
 20
13.87831523212726
 30
0.0
 10
186.7666277235944
 20
14.34806081001557
 30
0.0
 10
186.4797602893626
 20
14.99511516984519
 30
0.0
 10
186.4906335926662
 20
14.68782672154693
 30
0.0
 10
186.488289277796
 20
14.52288616971777
 30
0.0
 10
186.4861096126412
 20
14.28879670711693
 30
0.0
 10
186.4980774396348
 20
14.04498072421783
 30
0.0
 10
186.4687984740632
 20
13.89855796860984
 30
0.0
 10
186.511452262547
 20
13.75113490174537
 30
0.0
 10
186.423981400564
 20
13.76685797306221
 30
0.0
 10
186.3768527606744
 20
13.76694303543455
 30
0.0
 10
186.2898973207713
 20
13.75109425482909
 30
0.0
 10
186.3313474021722
 20
13.89527771422762
 30
0.0
 10
186.3029875004285
 20
14.03855052698455
 30
0.0
 10
186.3145973775299
 20
14.27674947365264
 30
0.0
 10
186.3124175648272
 20
14.50517235240346
 30
0.0
 10
186.3103111127993
 20
14.66705729375994
 30
0.0
 10
186.3208035438323
 20
14.9815370933375
 30
0.0
 10
186.0128963252893
 20
14.29229470872439
 30
0.0
 10
185.7055258267456
 20
13.81476750243046
 30
0.0
 10
185.5851367066275
 20
14.03741112637429
 30
0.0
 10
185.4074607910721
 20
14.15011034955559
 30
0.0
 10
185.8853326362894
 20
14.32548143465463
 30
0.0
 10
185.9353959057208
 20
14.56091929252028
 30
0.0
 10
186.3583799621717
 20
14.95322989344606
 30
0.0
 10
186.127675427354
 20
14.93655307029066
 30
0.0
 10
186.004968585934
 20
14.9426951894877
 30
0.0
 10
185.8325483095662
 20
14.93312822699574
 30
0.0
 10
185.7213224694449
 20
14.95448818489666
 30
0.0
 10
185.6025779627447
 20
14.92136265357419
 30
0.0
 10
185.6183169706686
 20
15.00203900606883
 30
0.0
 10
185.6178550933762
 20
15.04645414290853
 30
0.0
 10
185.6027881889931
 20
15.12967081778532
 30
0.0
 10
185.7372380935443
 20
15.09062651983882
 30
0.0
 10
185.8619755545747
 20
15.11739729328421
 30
0.0
 10
186.062875523728
 20
15.10063949044051
 30
0.0
 10
186.1921540949352
 20
15.12204225913003
 30
0.0
 10
186.3328419928295
 20
15.08868778853419
 30
0.0
 10
186.2980927452614
 20
15.22651875785067
 30
0.0
 10
186.3222185666714
 20
15.3496325734948
 30
0.0
 10
186.2967086182391
 20
15.47024055670334
 30
0.0
 10
186.3333251146685
 20
15.60539865141494
 30
0.0
 10
186.2211417027769
 20
15.58094545781889
 30
0.0
 10
186.1280356457136
 20
15.59307749842021
 30
0.0
 10
186.0191547579819
 20
15.58957630069992
 30
0.0
 10
185.9569697640964
 20
15.58981755951602
 30
0.0
 10
185.9375369557246
 20
15.58989295124143
 30
0.0
 11
187.1521871691833
 21
14.9398028819595
 31
0.0
 11
187.0923621563982
 21
14.9398028819595
 31
0.0
 11
186.949702510526
 21
14.9398028819595
 31
0.0
 11
186.7794313202913
 21
14.9398028819595
 31
0.0
 11
186.6367716744191
 21
14.9398028819595
 31
0.0
 11
186.576946661634
 21
14.9398028819595
 31
0.0
 11
186.7679960754842
 21
14.6370512796689
 31
0.0
 11
186.994127278563
 21
14.36051890576684
 31
0.0
 11
187.2244526173371
 21
14.15061253493457
 31
0.0
 11
187.1521596330704
 21
14.08466403668716
 31
0.0
 11
187.0879364402643
 21
14.0087605905256
 31
0.0
 11
186.7732818215558
 21
14.35891458349363
 31
0.0
 11
186.4886640249977
 21
14.811382951436
 31
0.0
 11
186.4886640249977
 21
14.73370259137312
 31
0.0
 11
186.4886640249977
 21
14.53950169121592
 31
0.0
 11
186.4886640249977
 21
14.28704052101156
 31
0.0
 11
186.4886640249977
 21
14.0345793508072
 31
0.0
 11
186.4886640249977
 21
13.84037845065
 31
0.0
 11
186.4886640249977
 21
13.76269809058712
 31
0.0
 11
186.4428901295606
 21
13.76269809058712
 31
0.0
 11
186.3578814666058
 21
13.76269809058712
 31
0.0
 11
186.3121075711687
 21
13.76269809058712
 31
0.0
 11
186.3121075711687
 21
13.8385923498274
 31
0.0
 11
186.3121075711687
 21
14.02832799792811
 31
0.0
 11
186.3121075711687
 21
14.27498434045903
 31
0.0
 11
186.3121075711687
 21
14.52164068298995
 31
0.0
 11
186.3121075711687
 21
14.71137633109065
 31
0.0
 11
186.3121075711687
 21
14.78727059033094
 31
0.0
 11
185.9987626399266
 21
14.31440946197693
 31
0.0
 11
185.6352328662148
 21
13.95795177109381
 31
0.0
 11
185.5773927461628
 21
14.03253450545022
 31
0.0
 11
185.5094852305341
 21
14.09704322939241
 31
0.0
 11
185.7750721898319
 21
14.31672219795889
 31
0.0
 11
186.0233764972061
 21
14.60953395971697
 31
0.0
 11
186.226498280526
 21
14.9398028819595
 31
0.0
 11
186.1627851652721
 21
14.9398028819595
 31
0.0
 11
186.0108538904359
 21
14.9398028819595
 31
0.0
 11
185.8295165624055
 21
14.9398028819595
 31
0.0
 11
185.6775852875693
 21
14.9398028819595
 31
0.0
 11
185.6138721723154
 21
14.9398028819595
 31
0.0
 11
185.6138721723154
 21
14.98350061600208
 31
0.0
 11
185.6138721723154
 21
15.06465355065258
 31
0.0
 11
185.6138721723154
 21
15.10835128469516
 31
0.0
 11
185.6864886537961
 21
15.10835128469516
 31
0.0
 11
185.8596510327118
 21
15.10835128469516
 31
0.0
 11
186.0663287107723
 21
15.10835128469516
 31
0.0
 11
186.239491089688
 21
15.10835128469516
 31
0.0
 11
186.3121075711687
 21
15.10835128469516
 31
0.0
 11
186.3121075711687
 21
15.18359217009301
 31
0.0
 11
186.3121075711687
 21
15.34912211796829
 31
0.0
 11
186.3121075711687
 21
15.51465206584358
 31
0.0
 11
186.3121075711687
 21
15.58989295124143
 31
0.0
 11
186.2535809125055
 21
15.58989295124143
 31
0.0
 11
186.1248222634467
 21
15.58989295124143
 31
0.0
 11
185.9960636143877
 21
15.58989295124143
 31
0.0
 11
185.9375369557246
 21
15.58989295124143
 31
0.0
  0
SPLINE
  5
B3
102
{ACAD_REACTORS
330
CF
102
}
330
48
100
AcDbEntity
  8
_U_30EC_U_30A4_U_30E4_U_30FC_1
  6
Continuous
 62
     2
100
AcDbSpline
210
0.0
220
0.0
230
1.0
 70
     8
 71
     3
 72
    70
 73
    66
 74
    64
 42
0.000000001
 43
0.0000000001
 44
0.00000001
 40
0.0
 40
0.0
 40
0.0
 40
0.0
 40
0.0241731073021472
 40
0.0846058988986729
 40
0.1631685280352999
 40
0.2417311571788903
 40
0.3021639488291898
 40
0.3263370654894688
 40
0.3533118254248028
 40
0.4228783438921294
 40
0.5179999095312621
 40
0.6216398239465285
 40
0.716761389149896
 40
0.7863279069649117
 40
0.813302679176109
 40
0.8372943998770928
 40
0.8945054261372123
 40
0.9627895541962177
 40
1.020000580349084
 40
1.043992300975182
 40
1.071934345522964
 40
1.113121768772894
 40
1.145225199332218
 40
1.225483775412757
 40
1.329819923771469
 40
1.434156071994362
 40
1.514414647795783
 40
1.546518078208391
 40
1.578974764260193
 40
1.662678849314131
 40
1.777131373668352
 40
1.901833377474743
 40
2.016285900500504
 40
2.099989982527843
 40
2.132446666570202
 40
2.158782354485925
 40
2.216720867907714
 40
2.274659381334136
 40
2.300995069256071
 40
2.333451754066044
 40
2.417155836543696
 40
2.531608358985135
 40
2.65631036228363
 40
2.770762886388734
 40
2.854466971339871
 40
2.886923657363678
 40
2.91359797683311
 40
2.982389642874915
 40
3.07645171694678
 40
3.178937260458392
 40
3.272999334739797
 40
3.341791001059018
 40
3.368465320663331
 40
3.396976080738552
 40
3.47214081184576
 40
3.578408190308449
 40
3.700226892455857
 40
3.822045594634075
 40
3.928312973256153
 40
4.00347770531455
 40
4.031988456866616
 40
4.058324144797414
 40
4.116262658236572
 40
4.174201171400366
 40
4.200536849608298
 40
4.200536849608298
 40
4.200536849608298
 40
4.200536849608298
 10
185.985770496161
 20
15.75844135397704
 30
0.0
 10
185.993825954468
 20
15.75844359811686
 30
0.0
 10
186.0220200663241
 20
15.75845146032796
 30
0.0
 10
186.0765534803674
 20
15.7583075482837
 30
0.0
 10
186.1482891808604
 20
15.75909120499897
 30
0.0
 10
186.2236240137062
 20
15.7562757046381
 30
0.0
 10
186.2713052366439
 20
15.76298403400956
 30
0.0
 10
186.3195071245616
 20
15.75197563692432
 30
0.0
 10
186.3062571799873
 20
15.80546402997032
 30
0.0
 10
186.3151093964538
 20
15.86049583543091
 30
0.0
 10
186.3108698036285
 20
15.95419908726108
 30
0.0
 10
186.313348348128
 20
16.04959482218531
 30
0.0
 10
186.309093870606
 20
16.14356821983387
 30
0.0
 10
186.3179818665846
 20
16.19795062438012
 30
0.0
 10
186.3046977409945
 20
16.2523399769146
 30
0.0
 10
186.3514119277109
 20
16.23842216335358
 30
0.0
 10
186.3943254545736
 20
16.24103877374043
 30
0.0
 10
186.4605443456685
 20
16.23648422450754
 30
0.0
 10
186.5013342271799
 20
16.22778162134163
 30
0.0
 10
186.5525145690819
 20
16.23531799890193
 30
0.0
 10
186.5253720487201
 20
16.19349970223291
 30
0.0
 10
186.4803096055707
 20
16.20284992072592
 30
0.0
 10
186.4942065045051
 20
16.13841207371837
 30
0.0
 10
186.4858414431655
 20
16.07378219627398
 30
0.0
 10
186.4903632178399
 20
15.97529141193887
 30
0.0
 10
186.4854741311169
 20
15.8759593284257
 30
0.0
 10
186.4950258992081
 20
15.81293115552966
 30
0.0
 10
186.4799761455202
 20
15.74964011499787
 30
0.0
 10
186.5449159457208
 20
15.76515072944267
 30
0.0
 10
186.6116246399498
 20
15.75499387697812
 30
0.0
 10
186.7241435470828
 20
15.75988800099366
 30
0.0
 10
186.8390235448954
 20
15.75691204732783
 30
0.0
 10
186.9519871999746
 20
15.7622166418499
 30
0.0
 10
187.0176267597679
 20
15.75107306472088
 30
0.0
 10
187.0816276691053
 20
15.76744532319856
 30
0.0
 10
187.070314288919
 20
15.71761689905274
 30
0.0
 10
187.0775339871509
 20
15.67416715212121
 30
0.0
 10
187.0703142611269
 20
15.63071745587443
 30
0.0
 10
187.0816277175994
 20
15.58088895196875
 30
0.0
 10
187.0176263598971
 20
15.59726166091361
 30
0.0
 10
186.951992124046
 20
15.58611271661587
 30
0.0
 10
186.838997431733
 20
15.59144857206853
 30
0.0
 10
186.7242456548643
 20
15.5883434566382
 30
0.0
 10
186.6113183686861
 20
15.59364894682588
 30
0.0
 10
186.5455220903585
 20
15.58257300019592
 30
0.0
 10
186.4816097975359
 20
15.59887597847617
 30
0.0
 10
186.4936015165127
 20
15.5442352439574
 30
0.0
 10
186.4862104613006
 20
15.48854295047841
 30
0.0
 10
186.4892684841984
 20
15.39649689140569
 30
0.0
 10
186.4893422785684
 20
15.301791098731
 30
0.0
 10
186.4860313578361
 20
15.20952782902264
 30
0.0
 10
186.4939505989904
 20
15.15435768736139
 30
0.0
 10
186.4815076611618
 20
15.10058169100135
 30
0.0
 10
186.5389116551633
 20
15.1145376886278
 30
0.0
 10
186.5994708140383
 20
15.10511457884226
 30
0.0
 10
186.7048680855081
 20
15.10942885928703
 30
0.0
 10
186.8204294070623
 20
15.1083550461203
 30
0.0
 10
186.9359688877797
 20
15.10725965900993
 30
0.0
 10
187.0414181130841
 20
15.11162525770632
 30
0.0
 10
187.1018680471803
 20
15.10209426030669
 30
0.0
 10
187.1592837739111
 20
15.11617289606379
 30
0.0
 10
187.1477773876708
 20
15.06707153265681
 30
0.0
 10
187.1537566781749
 20
15.02564658018649
 30
0.0
 10
187.1520311050801
 20
14.97651677966695
 30
0.0
 10
187.1521500122971
 20
14.94854428447608
 30
0.0
 10
187.1521871691833
 20
14.9398028819595
 30
0.0
 11
185.985770496161
 21
15.75844135397704
 31
0.0
 11
186.0099436128282
 21
15.75844135397704
 31
0.0
 11
186.0703764044963
 21
15.75844135397704
 31
0.0
 11
186.1489390336649
 21
15.75844135397704
 31
0.0
 11
186.2275016628334
 21
15.75844135397704
 31
0.0
 11
186.2879344545015
 21
15.75844135397704
 31
0.0
 11
186.3121075711687
 21
15.75844135397704
 31
0.0
 11
186.3121075711687
 21
15.78541612620062
 31
0.0
 11
186.3121075711687
 21
15.85498264404038
 31
0.0
 11
186.3121075711687
 21
15.95010420924985
 31
0.0
 11
186.3121075711687
 21
16.05374412358255
 31
0.0
 11
186.3121075711687
 21
16.14886568879202
 31
0.0
 11
186.3121075711687
 21
16.21843220663178
 31
0.0
 11
186.3121075711687
 21
16.24540697885536
 31
0.0
 11
186.3360407604892
 21
16.243732131078
 31
0.0
 11
186.3931122119458
 21
16.23973826330121
 31
0.0
 11
186.4612297507811
 21
16.23497138885795
 31
0.0
 11
186.5183012022377
 21
16.23097752108117
 31
0.0
 11
186.5422343915582
 21
16.22930267330381
 31
0.0
 11
186.5274972731229
 21
16.20556293372639
 31
0.0
 11
186.4886640249977
 21
16.19183767331312
 31
0.0
 11
186.4886640249977
 21
16.15973424225119
 31
0.0
 11
186.4886640249977
 21
16.07947566459636
 31
0.0
 11
186.4886640249977
 21
15.97513951364508
 31
0.0
 11
186.4886640249977
 21
15.8708033626938
 31
0.0
 11
186.4886640249977
 21
15.79054478503897
 31
0.0
 11
186.4886640249977
 21
15.75844135397704
 31
0.0
 11
186.5211207110825
 21
15.75844135397704
 31
0.0
 11
186.6048247962486
 21
15.75844135397704
 31
0.0
 11
186.7192773208635
 21
15.75844135397704
 31
0.0
 11
186.8439793252946
 21
15.75844135397704
 31
0.0
 11
186.9584318499095
 21
15.75844135397704
 31
0.0
 11
187.0421359350756
 21
15.75844135397704
 31
0.0
 11
187.0745926211604
 21
15.75844135397704
 31
0.0
 11
187.0745926211604
 21
15.7321056660496
 31
0.0
 11
187.0745926211604
 21
15.67416715260923
 31
0.0
 11
187.0745926211604
 21
15.61622863916887
 31
0.0
 11
187.0745926211604
 21
15.58989295124143
 31
0.0
 11
187.0421359350756
 21
15.58989295124143
 31
0.0
 11
186.9584318499095
 21
15.58989295124143
 31
0.0
 11
186.8439793252946
 21
15.58989295124143
 31
0.0
 11
186.7192773208635
 21
15.58989295124143
 31
0.0
 11
186.6048247962486
 21
15.58989295124143
 31
0.0
 11
186.5211207110825
 21
15.58989295124143
 31
0.0
 11
186.4886640249977
 21
15.58989295124143
 31
0.0
 11
186.4886640249977
 21
15.56321863152021
 31
0.0
 11
186.4886640249977
 21
15.49442696487074
 31
0.0
 11
186.4886640249977
 21
15.40036489006433
 31
0.0
 11
186.4886640249977
 21
15.29787934587226
 31
0.0
 11
186.4886640249977
 21
15.20381727106585
 31
0.0
 11
186.4886640249977
 21
15.13502560441638
 31
0.0
 11
186.4886640249977
 21
15.10835128469516
 31
0.0
 11
186.5171747850994
 21
15.10835128469516
 31
0.0
 11
186.5923395162767
 21
15.10835128469516
 31
0.0
 11
186.6986068948377
 21
15.10835128469516
 31
0.0
 11
186.8204255970905
 21
15.10835128469516
 31
0.0
 11
186.9422442993433
 21
15.10835128469516
 31
0.0
 11
187.0485116779043
 21
15.10835128469516
 31
0.0
 11
187.1236764090816
 21
15.10835128469516
 31
0.0
 11
187.1521871691833
 21
15.10835128469516
 31
0.0
 11
187.1521871691833
 21
15.08201559676771
 31
0.0
 11
187.1521871691833
 21
15.02407708332733
 31
0.0
 11
187.1521871691833
 21
14.96613856988695
 31
0.0
 11
187.1521871691833
 21
14.9398028819595
 31
0.0
  0
SPLINE
  5
B4
102
{ACAD_REACTORS
330
CF
102
}
330
48
100
AcDbEntity
  8
_U_30EC_U_30A4_U_30E4_U_30FC_1
  6
Continuous
 62
     2
100
AcDbSpline
210
0.0
220
0.0
230
1.0
 70
     8
 71
     3
 72
    24
 73
    20
 74
    18
 42
0.000000001
 43
0.0000000001
 44
0.00000001
 40
0.0
 40
0.0
 40
0.0
 40
0.0
 40
0.221107500875392
 40
0.4273218586245447
 40
0.5080174679239492
 40
0.5914835907870344
 40
0.8143265690192891
 40
1.054651302686605
 40
1.295452694023193
 40
1.518109231328849
 40
1.540864321905464
 40
1.595126460622725
 40
1.659890947896039
 40
1.714153085187397
 40
1.736908174961697
 40
1.764951100735384
 40
1.801562291220974
 40
1.953914424543656
 40
2.12610416737972
 40
2.12610416737972
 40
2.12610416737972
 40
2.12610416737972
 10
185.9375369556889
 20
15.58989295113016
 30
0.0
 10
185.9112579081811
 20
15.53097628234374
 30
0.0
 10
185.8604698894425
 20
15.41711139679257
 30
0.0
 10
185.8131784839111
 20
15.14441958233113
 30
0.0
 10
185.7043482802618
 20
15.24445482575455
 30
0.0
 10
185.5514800279636
 20
15.27118593367328
 30
0.0
 10
185.7686155181199
 20
15.48518135017632
 30
0.0
 10
185.7838483674381
 20
15.70332117782486
 30
0.0
 10
185.8906889492
 20
15.88451579066425
 30
0.0
 10
185.8305380947078
 20
16.16913226311403
 30
0.0
 10
185.9334317395402
 20
16.14114089222451
 30
0.0
 10
185.977993346815
 20
16.13243251602299
 30
0.0
 10
186.0380842395397
 20
16.12139654183355
 30
0.0
 10
186.0756619587438
 20
16.10767523055559
 30
0.0
 10
186.1252466928606
 20
16.10756076160223
 30
0.0
 10
186.0930158919325
 20
16.07306592398623
 30
0.0
 10
186.0171802221881
 20
16.08404104537964
 30
0.0
 10
186.0429447159694
 20
15.89858969582451
 30
0.0
 10
186.0055896763851
 20
15.80702313549588
 30
0.0
 10
185.985770496161
 20
15.75844135397704
 30
0.0
 11
185.9375369556889
 21
15.58989295113016
 31
0.0
 11
185.8616471328552
 21
15.38221708318559
 31
0.0
 11
185.7717402238433
 21
15.19663392356191
 31
0.0
 11
185.701149392311
 21
15.2357327256355
 31
0.0
 11
185.6245525192651
 21
15.26889163187718
 31
0.0
 11
185.7214026947455
 21
15.46958801203537
 31
0.0
 11
185.7994641467471
 21
15.69688163177024
 31
0.0
 11
185.858971692972
 21
15.93021436608691
 31
0.0
 11
185.9001601511226
 21
16.14902808999054
 31
0.0
 11
185.9224183822214
 21
16.14429889221395
 31
0.0
 11
185.975495702534
 21
16.13302157443899
 31
0.0
 11
186.0388460525844
 21
16.11956154999792
 31
0.0
 11
186.091923372897
 21
16.10828423222296
 31
0.0
 11
186.1141816039958
 21
16.10355503444637
 31
0.0
 11
186.096409715746
 21
16.0818625084101
 31
0.0
 11
186.0606122998071
 21
16.07418628445367
 31
0.0
 11
186.028195330148
 21
15.92532288171313
 31
0.0
 11
185.985770496161
 21
15.75844135397704
 31
0.0
  0
LWPOLYLINE
  5
B5
102
{ACAD_REACTORS
330
D0
102
}
330
48
100
AcDbEntity
  8
_U_30EC_U_30A4_U_30E4_U_30FC_1
  6
Continuous
 62
     2
100
AcDbPolyline
 90
        5
 70
     1
 43
0.0
 10
191.1602971697031
 20
15.39722336795625
 10
192.4578138032672
 20
15.39722336795625
 10
192.4578138032672
 20
15.22875434022056
 10
191.1602971697031
 20
15.22875434022056
 10
191.1602971697031
 20
15.39722336795625
  0
MTEXT
  5
B7
330
48
100
AcDbEntity
  8
1
 62
   250
100
AcDbMText
 10
25.0
 20
5.0
 30
0.0
 40
3.5
 41
0.0
 71
     4
 72
     1
  1
備考欄の文字列 原点位置=4
  7
CONVERTER_11
 73
     1
 44
0.54545454545455
  0
MTEXT
  5
B8
330
48
100
AcDbEntity
  8
1
 62
     2
100
AcDbMText
 10
89.5
 20
24.00000000000001
 30
0.0
 40
3.5
 41
0.0
 71
     5
 72
     1
  1
尺度
  7
CONVERTER_11
 73
     1
 44
0.54545454545455
  0
MTEXT
  5
B9
330
48
100
AcDbEntity
  8
1
 62
     2
100
AcDbMText
 10
135.5
 20
25.00000000000001
 30
0.0
 40
3.0
 41
0.0
 71
     5
 72
     1
  1
製図
  7
CONVERTER_11
 73
     1
 44
0.59090909090909
  0
MTEXT
  5
BA
330
48
100
AcDbEntity
  8
1
 62
     2
100
AcDbMText
 10
152.5
 20
25.00000000000001
 30
0.0
 40
3.0
 41
0.0
 71
     5
 72
     1
  1
設計
  7
CONVERTER_11
 73
     1
 44
0.59090909090909
  0
MTEXT
  5
BB
330
48
100
AcDbEntity
  8
1
 62
     2
100
AcDbMText
 10
118.5
 20
25.00000000000001
 30
0.0
 40
3.0
 41
0.0
 71
     5
 72
     1
  1
検図
  7
CONVERTER_11
 73
     1
 44
0.59090909090909
  0
MTEXT
  5
BC
330
48
100
AcDbEntity
  8
1
 62
     2
100
AcDbMText
 10
175.0
 20
23.50000000000001
 30
0.0
 40
3.5
 41
0.0
 71
     5
 72
     1
  1
第三角法
  7
CONVERTER_11
 73
     1
 44
0.54545454545455
  0
MTEXT
  5
BD
330
48
100
AcDbEntity
  8
1
 62
     2
100
AcDbMText
 10
101.5
 20
25.00000000000001
 30
0.0
 40
3.0
 41
0.0
 71
     5
 72
     1
  1
承認
  7
CONVERTER_11
 73
     1
 44
0.59090909090909
  0
MTEXT
  5
BE
330
48
100
AcDbEntity
  8
1
 62
     2
100
AcDbMText
 10
29.0
 20
14.25000000000001
 30
0.0
 40
3.5
 41
0.0
 71
     5
 72
     1
  1
品番
  7
CONVERTER_11
 73
     1
 44
0.72727272727273
  0
MTEXT
  5
BF
330
48
100
AcDbEntity
  8
1
 62
     2
100
AcDbMText
 10
29.0
 20
22.75000000000001
 30
0.0
 40
3.5
 41
0.0
 71
     5
 72
     1
  1
品名
  7
CONVERTER_11
 73
     1
 44
0.72727272727273
  0
MTEXT
  5
C0
330
48
100
AcDbEntity
  8
1
 62
     2
100
AcDbMText
 10
29.0
 20
34.00000000000001
 30
0.0
 40
3.5
 41
0.0
 71
     5
 72
     1
  1
備考
  7
CONVERTER_11
 73
     1
 44
0.45454545454545
  0
MTEXT
  5
C1
330
48
100
AcDbEntity
  8
1
 62
     2
100
AcDbMText
 10
32.5
 20
282.0000000000003
 30
0.0
 40
5.0
 41
0.0
 71
     5
 72
     1
  1
図番
  7
CONVERTER_11
 73
     1
 44
0.45454545454545
  0
HATCH
  5
C2
330
48
100
AcDbEntity
  8
1
  6
Continuous
 62
     2
100
AcDbHatch
 10
0.0
 20
0.0
 30
0.0
210
0.0
220
0.0
230
1.0
  2
CUSTOM0
 70
     0
 71
     1
 91
        1
 92
        1
 93
        1
 72
     4
 94
        3
 73
     0
 74
     0
 95
       99
 96
       95
 40
0.0
 40
0.0
 40
0.0
 40
0.0
 40
0.0796417172272494
 40
0.1621768542356028
 40
0.2486489160957682
 40
0.3404969668524639
 40
0.4381912511164648
 40
0.5434463660244946
 40
0.6518115192847259
 40
0.7530190937886795
 40
0.8492196919725091
 40
0.9419290312998168
 40
1.034249663570044
 40
1.12907860062022
 40
1.226697027573248
 40
1.327220425421715
 40
1.47057213493803
 40
1.59548986337123
 40
1.719934125348408
 40
1.850576620127421
 40
1.989059629987314
 40
2.134139054226934
 40
2.280698007207194
 40
2.424529739039415
 40
2.565929576985824
 40
2.708239260773539
 40
2.861717887443658
 40
3.04516854034737
 40
3.183798301138603
 40
3.314813961455457
 40
3.442083470447298
 40
3.569912708372963
 40
3.70217751250936
 40
3.842307559659601
 40
3.992872223245979
 40
4.156750662218311
 40
4.310981861107532
 40
4.445859909322577
 40
4.57239393613157
 40
4.701656719782039
 40
4.768279086008542
 40
4.835960697898482
 40
4.912788918729412
 40
5.006285208481635
 40
5.026909478751711
 40
5.047533749021276
 40
5.101808031471332
 40
5.162325165538641
 40
5.226919745995965
 40
5.294231806596841
 40
5.364544852554985
 40
5.438319055468033
 40
5.517877651324314
 40
5.607647714861683
 40
5.700449642544529
 40
5.788251142364261
 40
5.872714706039843
 40
5.955167292575407
 40
6.037192395190458
 40
6.120669181469169
 40
6.206848616686438
 40
6.296680855416854
 40
6.442558392872684
 40
6.568190371608382
 40
6.692904567360451
 40
6.824220446557233
 40
6.963121850329471
 40
7.107843738851258
 40
7.253431663907395
 40
7.395187468036864
 40
7.533140753237852
 40
7.67055045717534
 40
7.816236511769357
 40
7.987691657359321
 40
8.142277421969354
 40
8.293662615415121
 40
8.442962460879382
 40
8.591598316185383
 40
8.743678992361895
 40
8.903725323699303
 40
9.076307008890627
 40
9.26557860468071
 40
9.459203795360885
 40
9.617619810273673
 40
9.753609671362032
 40
9.874873300004134
 40
9.954520184977802
 40
10.02416413719247
 40
10.09769764405447
 40
10.18909955924975
 40
10.20974586420137
 40
10.23039218263382
 40
10.30057101881267
 40
10.37632012987548
 40
10.37632012987548
 40
10.37632012987548
 40
10.37632012987548
 10
170.1465954835851
 20
14.13795663215994
 10
170.1632217851219
 20
14.11720608845313
 10
170.1970784206577
 20
14.07495111711901
 10
170.2599822541036
 20
14.02029811392072
 10
170.3332500940392
 20
13.9729902512105
 10
170.4175969238636
 20
13.93527231437935
 10
170.513224061546
 20
13.91040619731952
 10
170.6171853775346
 20
13.90309559345938
 10
170.7224020220405
 20
13.91142322794053
 10
170.8206626371334
 20
13.94149179651528
 10
170.9058986427547
 20
13.98848822971875
 10
170.9779220206103
 20
14.04952991250857
 10
171.0350917709096
 20
14.12412969578586
 10
171.076786874744
 20
14.21002464660169
 10
171.1026952846292
 20
14.30485850432212
 10
171.1118037332653
 20
14.41854979038366
 10
171.0986864796487
 20
14.54332587770779
 10
171.0325330334414
 20
14.66014719171893
 10
170.9369370919569
 20
14.74512539577373
 10
170.8249681022369
 20
14.8141668445916
 10
170.6993659583269
 20
14.8720414204589
 10
170.5656691620856
 20
14.9237372328434
 10
170.4313122818831
 20
14.97899092397179
 10
170.3051983986877
 20
15.04939770641653
 10
170.1926579987536
 20
15.13785540731248
 10
170.0969963064458
 20
15.24981067868471
 10
170.0334157151826
 20
15.39949910101383
 10
170.0200706505015
 20
15.55932794385141
 10
170.0320510987448
 20
15.71048405306845
 10
170.071229892884
 20
15.83809244591538
 10
170.135498775091
 20
15.95080874030844
 10
170.223820499974
 20
16.04648609268686
 10
170.3338091207628
 20
16.12354214985756
 10
170.4632284401266
 20
16.18151396936273
 10
170.6111838967794
 20
16.21739177588823
 10
170.7682069455486
 20
16.22746719050562
 10
170.917494046643
 20
16.2186363776259
 10
171.0596253614169
 20
16.19074899340352
 10
171.1595922609625
 20
16.13413314701136
 10
171.3125074736186
 20
16.08674602105507
 10
171.2455131717168
 20
16.00197553001185
 10
171.229647912027
 20
15.93438901873482
 10
171.1978750531298
 20
15.86926092793189
 10
171.2150202209571
 20
15.76723453256951
 10
171.1666427208232
 20
15.774932116819
 10
171.1315789440765
 20
15.76806771724806
 10
171.1296697985719
 20
15.83263831158198
 10
171.0985692931989
 20
15.87825639621393
 10
171.0664551628456
 20
15.93561036628454
 10
171.0208038475168
 20
15.98540462692559
 10
170.9658508218387
 20
16.02994813718995
 10
170.9010841173007
 20
16.06763988836549
 10
170.8232377310597
 20
16.09283375791353
 10
170.7355160553352
 20
16.09931230998111
 10
170.6452903277807
 20
16.09235709285606
 10
170.5594594694064
 20
16.06909190460923
 10
170.4828343638597
 20
16.0313164410754
 10
170.41652656362
 20
15.98051641089576
 10
170.3622560536965
 20
15.91731143407208
 10
170.3224925345459
 20
15.84276455710365
 10
170.2976775510588
 20
15.75917313997765
 10
170.289212426287
 20
15.65192948382284
 10
170.3019697987104
 20
15.52965457267558
 10
170.3681548409272
 20
15.41149724291209
 10
170.4640977399833
 20
15.32606325709527
 10
170.5757914963182
 20
15.25583362306721
 10
170.7010863668703
 20
15.19659162305303
 10
170.8349823941447
 20
15.1461670808613
 10
170.968993033315
 20
15.0932251698438
 10
171.0950885316916
 20
15.0275017062518
 10
171.2076216638417
 20
14.94480352537318
 10
171.3031370284232
 20
14.83996006310074
 10
171.3672706486962
 20
14.6993711725157
 10
171.3811103725278
 20
14.54065409451592
 10
171.367395471223
 20
14.38153155217875
 10
171.3244739153984
 20
14.2348382881921
 10
171.2545906329065
 20
14.10119796587144
 10
171.157459221383
 20
13.98532387699286
 10
171.0347806023657
 20
13.89089981770089
 10
170.8874408413167
 20
13.82179270651982
 10
170.7177132497124
 20
13.77953210858851
 10
170.5317404979597
 20
13.76781736230407
 10
170.3528955926183
 20
13.77809486683435
 10
170.1881733753743
 20
13.81966573769154
 10
170.0834410841056
 20
13.88797642883939
 10
169.9350960790367
 20
13.93675219032107
 10
169.9980378194728
 20
14.02976591290842
 10
170.007227443006
 20
14.10296536248279
 10
170.0303711301231
 20
14.16936294501345
 10
170.0034588335318
 20
14.26974809527581
 10
170.0521338956339
 20
14.26234033517378
 10
170.0916530580697
 20
14.26894063620895
 10
170.0996204944702
 20
14.19078703218931
 10
170.1305436967922
 20
14.15600927375856
 10
170.1465954835851
 20
14.13795663215994
 97
        1
330
A4
 75
     1
 76
     2
 52
45.0
 41
0.1
 77
     0
 78
     1
 53
45.0
 43
0.0
 44
0.0
 45
-0.282842712474619
 46
0.0
 79
     0
 98
        1
 10
0.0
 20
0.0
  0
HATCH
  5
C3
330
48
100
AcDbEntity
  8
1
  6
Continuous
 62
     2
100
AcDbHatch
 10
0.0
 20
0.0
 30
0.0
210
0.0
220
0.0
230
1.0
  2
CUSTOM1
 70
     0
 71
     1
 91
        2
 92
        1
 93
        1
 72
     4
 94
        3
 73
     0
 74
     0
 95
       57
 96
       53
 40
0.0
 40
0.0
 40
0.0
 40
0.0
 40
0.0471632082808648
 40
0.0914861054632134
 40
0.135776251970237
 40
0.1826527001610665
 40
0.2295203288572573
 40
0.2737751972220743
 40
0.3181310461543053
 40
0.3652607198398472
 40
0.4571007286314376
 40
0.567185102916497
 40
0.6894623283868055
 40
0.818175827254583
 40
0.9510087229273837
 40
1.085852229674033
 40
1.218126164475295
 40
1.34354513114237
 40
1.454537202956786
 40
1.567187607530796
 40
1.680710966642414
 40
1.794226869736778
 40
1.900009184247578
 40
2.004085860447857
 40
2.108162674451717
 40
2.21400015015529
 40
2.496038577352126
 40
2.762350745479234
 40
2.997275353279382
 40
3.185110082137707
 40
3.246407890063876
 40
3.312607550212663
 40
3.378877742711537
 40
3.440140399651418
 40
4.10050169600643
 40
4.754913085563484
 40
5.41133169342389
 40
6.077890432568664
 40
6.110575292670943
 40
6.143260152775723
 40
6.367989363395113
 40
6.610525374951506
 40
6.863389136467265
 40
7.119380025547552
 40
7.376036605091047
 40
7.631164770966246
 40
7.876722425456395
 40
8.104953735855924
 40
8.312916685924284
 40
8.497730294941256
 40
8.651018984313806
 40
8.764738853624532
 40
8.764738853624532
 40
8.764738853624532
 40
8.764738853624532
 10
174.7922649500513
 20
13.81626739612928
 10
174.7766616726931
 20
13.81826231079078
 10
174.7463947960303
 20
13.82213201360299
 10
174.7010994202251
 20
13.82341984967266
 10
174.6559553129349
 20
13.8230868355405
 10
174.60990171234
 20
13.82314658674223
 10
174.5640496172097
 20
13.8232581365
 10
174.5183711648164
 20
13.82277833456589
 10
174.4750811541608
 20
13.8246110961872
 10
174.4039947951514
 20
13.80049556814659
 10
174.4057477261441
 20
13.92184693977251
 10
174.3586196370569
 20
14.00726239751232
 10
174.3191478251762
 20
14.12486929345135
 10
174.2706635532645
 20
14.24232752540438
 10
174.2201017402522
 20
14.36405935761509
 10
174.1718634610477
 20
14.49075967862465
 10
174.1135232947594
 20
14.59933687784951
 10
174.0980892667262
 20
14.7562065713441
 10
173.9566586330635
 20
14.72373446548321
 10
173.8508397414904
 20
14.7351288868218
 10
173.7358569725222
 20
14.73392591514614
 10
173.6253142252141
 20
14.73506945347406
 10
173.5176583522783
 20
14.73418350037526
 10
173.4121322529242
 20
14.73416602390519
 10
173.3109192682013
 20
14.72714032472414
 10
173.1266804827753
 20
14.75135859859869
 10
173.1157393685411
 20
14.44741691121888
 10
173.0087691634751
 20
14.22353177253394
 10
172.9098148604346
 20
14.03895314292498
 10
172.9225090524008
 20
13.79530204804211
 10
172.8050091716397
 20
13.82508046753196
 10
172.742205586831
 20
13.82258089509602
 10
172.67858720934
 20
13.82344075102803
 10
172.3946014194074
 20
13.78098039941955
 10
173.0251638499381
 20
14.50081952444782
 10
173.1087645289071
 20
15.0127653943573
 10
173.4929252789338
 20
15.53353743550042
 10
173.4777208288567
 20
16.23519626253214
 10
173.7239265722696
 20
16.22345633081256
 10
173.8256346157562
 20
16.23225004452773
 10
173.8249752035817
 20
15.98059650730345
 10
173.9428317155829
 20
15.79818020733958
 10
174.0315515260485
 20
15.55563740662866
 10
174.1322292485259
 20
15.32340030530127
 10
174.2311142712243
 20
15.08674644566913
 10
174.3299676990669
 20
14.85461739170092
 10
174.4256166390926
 20
14.63122222788791
 10
174.5159904573271
 20
14.42272549049312
 10
174.5989944568189
 20
14.23308448529322
 10
174.6726088582799
 20
14.06663106068097
 10
174.7342815895545
 20
13.92917699626098
 10
174.7749458885604
 20
13.84999239430034
 10
174.7922649500513
 20
13.81626739612928
 97
        1
330
A5
 92
       16
 93
        1
 72
     4
 94
        3
 73
     0
 74
     0
 95
       25
 96
       21
 40
0.0
 40
0.0
 40
0.0
 40
0.0
 40
0.0911479969063969
 40
0.1858117896203813
 40
0.2804128399734206
 40
0.3715889190713657
 40
0.4679080494217854
 40
0.5642683809229228
 40
0.6605683222644139
 40
0.7569653015809403
 40
0.8561348172521887
 40
1.092615965104199
 40
1.374867658141788
 40
1.611348812011478
 40
1.710518328425139
 40
1.809403163726447
 40
2.045205463293973
 40
2.326646917622027
 40
2.562449217190503
 40
2.661334043833811
 40
2.661334043833811
 40
2.661334043833811
 40
2.661334043833811
 10
173.26837005672
 20
14.88614538197292
 10
173.2987525917923
 20
14.88598079714554
 10
173.3606895889112
 20
14.88564528689921
 10
173.454135696033
 20
14.88269055452
 10
173.5475095236357
 20
14.87977752877151
 10
173.6417760753476
 20
14.87894201643416
 10
173.7354964790968
 20
14.87996644658047
 10
173.8352040303205
 20
14.8791697747097
 10
173.9188949546313
 20
14.88921410235219
 10
174.0637996315045
 20
14.86234617674164
 10
173.9396132444801
 20
15.03665530280049
 10
173.8965867286282
 20
15.19651711006092
 10
173.7808922142209
 20
15.45518458550214
 10
173.7017565431258
 20
15.59231052861861
 10
173.6431576621817
 20
15.80937033134078
 10
173.5864803939439
 20
15.59266134213427
 10
173.5052809900477
 20
15.45327012438239
 10
173.4063701281489
 20
15.20406969370193
 10
173.325362509426
 20
15.01925830226075
 10
173.2813683325839
 20
14.91650446856116
 10
173.26837005672
 20
14.88614538197292
 97
        1
330
A6
 75
     1
 76
     2
 52
45.0
 41
0.1
 77
     0
 78
     1
 53
45.0
 43
0.0
 44
0.0
 45
-0.282842712474619
 46
0.0
 79
     0
 98
        1
 10
0.0
 20
0.0
  0
HATCH
  5
C4
330
48
100
AcDbEntity
  8
1
  6
Continuous
 62
     2
100
AcDbHatch
 10
0.0
 20
0.0
 30
0.0
210
0.0
220
0.0
230
1.0
  2
CUSTOM2
 70
     0
 71
     1
 91
        1
 92
        1
 93
        1
 72
     4
 94
        3
 73
     0
 74
     0
 95
       95
 96
       91
 40
0.0
 40
0.0
 40
0.0
 40
0.0
 40
0.6550406656911378
 40
1.308087289031946
 40
1.420803739835817
 40
1.566130759770806
 40
1.75706734188848
 40
2.006513545026478
 40
2.087328263121582
 40
2.185328872295658
 40
2.2946124547484
 40
2.408936380534832
 40
2.526802767798587
 40
2.646360524615627
 40
2.762535723971613
 40
2.870057342870187
 40
2.966883448431674
 40
3.050803243518305
 40
3.11581822243663
 40
3.15603005715026
 40
3.213914225080245
 40
3.276689026450646
 40
3.342960320981366
 40
3.40423066715067
 40
3.453822809493477
 40
3.532499827188535
 40
3.634775188507266
 40
3.754909333008251
 40
3.889736761660755
 40
4.035769602175336
 40
4.187256681197715
 40
4.338733685676057
 40
4.488478734676218
 40
4.634708317831676
 40
4.771493189921369
 40
4.892686571561312
 40
5.19977552894455
 40
5.460353566929728
 40
5.667603142345615
 40
5.814722905404587
 40
5.828990806219886
 40
5.855488336304583
 40
5.869756237118914
 40
6.189796507762915
 40
6.531890469873101
 40
6.883053637017095
 40
7.230512024911566
 40
7.566966656764715
 40
7.8852035597075
 40
8.1728874397193
 40
8.418011594062854
 40
8.443926721190776
 40
8.510760470613263
 40
8.602145393795773
 40
8.701714041647215
 40
8.793098965075444
 40
8.859932715058017
 40
8.885847842603667
 40
9.242301256612878
 40
9.589275455016837
 40
9.92180854316424
 40
10.23479624298475
 40
10.29968150889186
 40
10.35323493887774
 40
10.40154625355158
 40
10.46482922477843
 40
10.55973900668424
 40
10.69239545985637
 40
10.84920353475691
 40
11.016263285948
 40
11.18672024367463
 40
11.3537258257723
 40
11.50257442292446
 40
11.6186649502331
 40
11.71329869152894
 40
11.82511050573926
 40
11.94464880845735
 40
12.06929242642527
 40
12.19707290435195
 40
12.32562632860548
 40
12.45034565331298
 40
12.56646595170347
 40
12.67099007414654
 40
12.76077625936802
 40
12.82703233506714
 40
12.87429132786013
 40
12.89831990323352
 40
12.92234847860041
 40
13.53984767410346
 40
14.18294284359391
 40
14.18294284359391
 40
14.18294284359391
 40
14.18294284359391
 10
177.3067935648021
 20
14.70898038201723
 10
177.175201975855
 20
14.82265058603231
 10
176.9124193802729
 20
15.04964496316159
 10
176.399739344102
 20
15.89214462956287
 10
176.4106654595363
 20
15.5342337757702
 10
176.4041226527991
 20
15.39267392272133
 10
176.4028026631773
 20
15.19421305299281
 10
176.4018117602538
 20
15.02150296045982
 10
176.4024101751974
 20
14.87865373257579
 10
176.4038994301882
 20
14.78265005413357
 10
176.4055683588473
 20
14.6754550326314
 10
176.4071934954618
 20
14.56164211517581
 10
176.4092429501686
 20
14.44441572604588
 10
176.4123165501927
 20
14.32656411232969
 10
176.4156339697043
 20
14.21228087320619
 10
176.419360534028
 20
14.10521401867276
 10
176.4217338161424
 20
14.01007408766921
 10
176.4278718888357
 20
13.92558557205695
 10
176.4239784495946
 20
13.86923087298141
 10
176.4455230443079
 20
13.79825022472355
 10
176.3680940058618
 20
13.82902677604482
 10
176.311635324019
 20
13.82011242517613
 10
176.2540495896807
 20
13.82896218398272
 10
176.1690163478473
 20
13.79738225225944
 10
176.2009714146382
 20
13.8809515599219
 10
176.1990705282539
 20
13.94882608968311
 10
176.21079600473
 20
14.05233256764417
 10
176.2164241053
 20
14.17002125616695
 10
176.2237902178942
 20
14.30388609164423
 10
176.232075970161
 20
14.44764152872633
 10
176.2398851897428
 20
14.59714022843444
 10
176.2457571222656
 20
14.74792549402078
 10
176.2503667817969
 20
14.89699943878438
 10
176.2542632117542
 20
15.04122913163022
 10
176.2570715126564
 20
15.17583905213016
 10
176.2576698755024
 20
15.36469614347355
 10
176.261602386715
 20
15.58975494313153
 10
176.2442175378499
 20
15.86367091125707
 10
176.2850417342582
 20
16.02787112098595
 10
176.1995153256004
 20
16.22749661465097
 10
176.2660558907687
 20
16.22385458403977
 10
176.283872427323
 20
16.22413447160853
 10
176.4056801797506
 20
16.22632927398616
 10
176.5080770335461
 20
15.94675118721513
 10
176.7580021509356
 20
15.74563008536002
 10
176.9870035331111
 20
15.47792614987917
 10
177.2245151213109
 20
15.22646413862373
 10
177.4486090740773
 20
14.98969974061362
 10
177.6750716283009
 20
14.73218692583077
 10
177.8325687886514
 20
14.61649335056921
 10
178.0472129612675
 20
14.27997152538794
 10
178.0422645974618
 20
14.40464754091603
 10
178.0433931602546
 20
14.46327691935737
 10
178.0428877841516
 20
14.55043662371977
 10
178.0430475158113
 20
14.64416143182872
 10
178.0430054891318
 20
14.73018971297035
 10
178.0430202040373
 20
14.79153891945496
 10
178.0429706255983
 20
14.94135231520991
 10
178.0458811522811
 20
15.17989612510105
 10
178.0259521041161
 20
15.544865098687
 10
178.0750433936248
 20
15.80799631993412
 10
177.9177951509181
 20
16.21928904947753
 10
178.0762112872421
 20
16.16398282551747
 10
178.1311680478629
 20
16.16199686500175
 10
178.182788776674
 20
16.16264778248252
 10
178.2713198965367
 20
16.20369527738247
 10
178.2204898303168
 20
16.05696326622987
 10
178.2313389930284
 20
15.95019971954432
 10
178.2166036994847
 20
15.79085705414111
 10
178.2099976446204
 20
15.62853061652873
 10
178.2014961399914
 20
15.45992521892394
 10
178.1943227202199
 20
15.2981481470354
 10
178.1889063215388
 20
15.15422331457932
 10
178.1871713967648
 20
15.03437493466924
 10
178.1875440672318
 20
14.92686101590514
 10
178.1873656126263
 20
14.81820024645585
 10
178.187701086314
 20
14.6995357016553
 10
178.1890040622183
 20
14.5755516351274
 10
178.1908887351574
 20
14.44858294171104
 10
178.192500445485
 20
14.32153861551031
 10
178.194140313743
 20
14.19854884492177
 10
178.1962570745751
 20
14.08300931383759
 10
178.1963848422365
 20
13.98090903955837
 10
178.2006514396555
 20
13.89009848838156
 10
178.190844008529
 20
13.83213621208785
 10
178.211847477169
 20
13.76517130132028
 10
178.1725639739897
 20
13.77291153966687
 10
177.9595307117748
 20
13.7575525414519
 10
177.7636297943185
 20
14.31403058094467
 10
177.4611197631544
 20
14.57556035348509
 10
177.3067935648021
 20
14.70898038201723
 97
        1
330
A7
 75
     1
 76
     2
 52
45.0
 41
0.1
 77
     0
 78
     1
 53
45.0
 43
0.0
 44
0.0
 45
-0.282842712474619
 46
0.0
 79
     0
 98
        1
 10
0.0
 20
0.0
  0
HATCH
  5
C5
330
48
100
AcDbEntity
  8
1
  6
Continuous
 62
     2
100
AcDbHatch
 10
0.0
 20
0.0
 30
0.0
210
0.0
220
0.0
230
1.0
  2
CUSTOM3
 70
     0
 71
     1
 91
        1
 92
        1
 93
        1
 72
     4
 94
        3
 73
     0
 74
     0
 95
      110
 96
      106
 40
0.0
 40
0.0
 40
0.0
 40
0.0
 40
0.2203406257277684
 40
0.4407808782838053
 40
0.5952494494614463
 40
0.7488431659393034
 40
0.9023581831308167
 40
1.056801968670401
 40
1.210736449099816
 40
1.363041386539694
 40
1.515315729683037
 40
1.669377239147988
 40
1.721611652756458
 40
1.773199502942843
 40
1.824933793209893
 40
1.877110426487871
 40
1.982682281206607
 40
2.078781667087444
 40
2.172809640822137
 40
2.271937807378734
 40
2.378349933379212
 40
2.4941315577364
 40
2.626681683943534
 40
2.783145050795962
 40
2.890701232940831
 40
2.993130312454729
 40
3.099869730691698
 40
3.220237816691191
 40
3.352695482737486
 40
3.481732806389731
 40
3.593499473690264
 40
3.674323013331787
 40
3.817951711952765
 40
3.946167120793734
 40
4.061405053453419
 40
4.16648079600306
 40
4.262478775059154
 40
4.350736673551054
 40
4.433071991253939
 40
4.511216293814541
 40
4.564262454117857
 40
4.618474415571483
 40
4.670128488754068
 40
4.722296879126265
 40
4.819540945314134
 40
4.93119498412799
 40
5.049996040257604
 40
5.168643755415178
 40
5.283970811762389
 40
5.392260784910214
 40
5.486512254876289
 40
5.559178233949688
 40
5.591425852853354
 40
5.626215969637741
 40
5.667155838674288
 40
5.717449290214105
 40
5.738402360944716
 40
5.784499116553678
 40
5.830595872164646
 40
5.851548942897501
 40
5.873019280661615
 40
5.924217778408157
 40
5.985325662817536
 40
6.036524160567553
 40
6.057994498334081
 40
6.236847789607334
 40
6.381409928945515
 40
6.493190424178537
 40
6.574067534230345
 40
6.691018086205467
 40
6.814881554220356
 40
6.944307823240309
 40
7.071266716065932
 40
7.193488604461778
 40
7.309042773128005
 40
7.41400720317063
 40
7.505140441886387
 40
7.53115036059955
 40
7.559221645322131
 40
7.587202218920784
 40
7.612569159498991
 40
7.662550809480871
 40
7.702878875763998
 40
7.857328205230812
 40
8.010799568088457
 40
8.165256399657407
 40
8.322232698713746
 40
8.479564855016433
 40
8.635216230290636
 40
8.790882550925526
 40
8.948305154947034
 40
9.168271839032709
 40
9.387358980986972
 40
9.608047961033224
 40
9.832914234792417
 40
9.858338694962754
 40
9.925366817229762
 40
10.02013071422734
 40
10.12876249858973
 40
10.23739428295223
 40
10.33215817995165
 40
10.39918630222368
 40
10.42461076239758
 40
10.64992019336918
 40
10.87188524531163
 40
10.87188524531163
 40
10.87188524531163
 40
10.87188524531163
 10
179.9057788376618
 20
15.7392326039819
 10
179.9092864933541
 20
15.80616462073804
 10
179.9163033987663
 20
15.94005891915858
 10
179.8198027599073
 20
16.22548554971468
 10
180.0510134726109
 20
16.16284386190283
 10
180.1919290057156
 20
16.17001554055992
 10
180.3490417757588
 20
16.16235883078244
 10
180.5025913427287
 20
16.1625275228304
 10
180.6545104935081
 20
16.16182040535432
 10
180.8142214813231
 20
16.1721015835164
 10
180.9408972601119
 20
16.1549651108075
 10
181.1370821122079
 20
16.22727260107147
 10
181.1034395279079
 20
16.12640699080116
 10
181.1052011317184
 20
16.0761925394767
 10
181.1027342073459
 20
16.02712335586466
 10
181.134707696601
 20
15.94063490846997
 10
181.0010399903256
 20
15.98997438608338
 10
180.9172208688056
 20
15.98430634314167
 10
180.8173861139325
 20
15.99465516706298
 10
180.7186576720146
 20
16.00086450411087
 10
180.6121532771111
 20
16.00697763816778
 10
180.4910511698059
 20
16.01588883484585
 10
180.3703381502454
 20
16.00521605912383
 10
180.1812553843437
 20
16.06468503080367
 10
180.2129028505311
 20
15.90558320077539
 10
180.1995563316833
 20
15.80839128339903
 10
180.197495842645
 20
15.69634065110102
 10
180.195818804467
 20
15.57699685629351
 10
180.1973336794234
 20
15.4503259215511
 10
180.1956582478669
 20
15.32301588016116
 10
180.2058844271659
 20
15.22451566404464
 10
180.1779006596581
 20
15.08388702625628
 10
180.3508029999306
 20
15.13989551134094
 10
180.4645020202771
 20
15.12719951478498
 10
180.5840151672239
 20
15.13448377051255
 10
180.6888491425072
 20
15.13878017056755
 10
180.7843084898611
 20
15.14330568258975
 10
180.8763823507032
 20
15.151492011462
 10
180.9476551782439
 20
15.14643850638111
 10
181.0544931705684
 20
15.18536425031672
 10
181.0226603598036
 20
15.10517122005878
 10
181.0266164503929
 20
15.05562936846033
 10
181.0234502392013
 20
15.00557478039818
 10
181.0550791490585
 20
14.92128847612022
 10
180.9210133677691
 20
14.97425365495157
 10
180.82923227932
 20
14.96540080890441
 10
180.7079729189603
 20
14.97570049965154
 10
180.5914113119771
 20
14.97748911767502
 10
180.4783375745879
 20
14.97787017109693
 10
180.3679246308471
 20
14.98415449472181
 10
180.289812406784
 20
14.97189133255362
 10
180.1913625833644
 20
15.00453887616126
 10
180.2012355173562
 20
14.94769748054206
 10
180.1973923244402
 20
14.91392130557983
 10
180.1966789884269
 20
14.8711960470941
 10
180.1963369642975
 20
14.83401607262152
 10
180.1963834255346
 20
14.79487237370769
 10
180.1963649429927
 20
14.75716849497685
 10
180.1963703431807
 20
14.71944955232402
 10
180.19636972142
 20
14.6899432474515
 10
180.1963698151545
 20
14.65873577699301
 10
180.196370428792
 20
14.61414424908084
 10
180.1963671499336
 20
14.55963956508851
 10
180.1963759623481
 20
14.51505540201448
 10
180.1963359653416
 20
14.4311780858574
 10
180.1976024270257
 20
14.31737520677678
 10
180.1950274117841
 20
14.16830395933708
 10
180.206500938172
 20
14.06597203813905
 10
180.1823506222263
 20
13.93338903885833
 10
180.3332993946476
 20
13.97895732272021
 10
180.4428436671556
 20
13.96427012162349
 10
180.573397047392
 20
13.96920435125064
 10
180.6990312209513
 20
13.97257705323359
 10
180.8188730625601
 20
13.97711497498772
 10
180.9391362611426
 20
13.99048536182005
 10
181.0222761663515
 20
13.98068712782595
 10
181.1456080421075
 20
14.04126214623319
 10
181.1244269203956
 20
13.98532460134021
 10
181.1235950270116
 20
13.95939249372346
 10
181.1218963707559
 20
13.93197256190939
 10
181.1217974888829
 20
13.89738195206386
 10
181.120365930133
 20
13.86050408220768
 10
181.153280419219
 20
13.76846841021808
 10
180.9551306988107
 20
13.8413201597483
 10
180.8300548294891
 20
13.81825726508604
 10
180.6673071295156
 20
13.82454021985784
 10
180.5129366450001
 20
13.82260943909925
 10
180.3566670436944
 20
13.82393762599266
 10
180.1970544465282
 20
13.82059872487861
 10
180.0540326342237
 20
13.83265795728238
 10
179.819714488163
 20
13.76952001976922
 10
179.9173810751197
 20
14.05620527466318
 10
179.9006868780058
 20
14.2498830814266
 10
179.9146296709686
 20
14.47848242880294
 10
179.9142987846631
 20
14.63384593955047
 10
179.9143078119264
 20
14.73966336444125
 10
179.9143055876316
 20
14.80205784124213
 10
179.9143065551888
 20
14.89220425248325
 10
179.9143065473262
 20
14.99621167157437
 10
179.9143053861102
 20
15.10022131375295
 10
179.9143090971502
 20
15.19036243688766
 10
179.9143011051051
 20
15.25276803097214
 10
179.9143334275018
 20
15.35868835961118
 10
179.913144078832
 20
15.5162671654474
 10
179.9082216489256
 20
15.66528219822064
 10
179.9057788376618
 20
15.7392326039819
 97
        1
330
A8
 75
     1
 76
     2
 52
45.0
 41
0.1
 77
     0
 78
     1
 53
45.0
 43
0.0
 44
0.0
 45
-0.282842712474619
 46
0.0
 79
     0
 98
        1
 10
0.0
 20
0.0
  0
HATCH
  5
C6
330
48
100
AcDbEntity
  8
1
  6
Continuous
 62
     2
100
AcDbHatch
 10
0.0
 20
0.0
 30
0.0
210
0.0
220
0.0
230
1.0
  2
CUSTOM4
 70
     0
 71
     1
 91
        1
 92
        1
 93
        1
 72
     4
 94
        3
 73
     0
 74
     0
 95
       47
 96
       43
 40
0.0
 40
0.0
 40
0.0
 40
0.0
 40
0.2207912809957284
 40
0.4459404186303131
 40
0.4902387190459627
 40
0.5327473892722293
 40
0.5742260451225621
 40
0.6155432630560914
 40
0.6568164066315832
 40
0.698251161878076
 40
0.7407663929317264
 40
0.7851366743175324
 40
1.010288833836331
 40
1.23108050700219
 40
1.451765243652406
 40
1.676638205891694
 40
1.720461045359664
 40
1.830018144043529
 40
1.97244237235316
 40
2.114866600677529
 40
2.224423699395154
 40
2.268246538883395
 40
2.493628801207231
 40
2.715602830286625
 40
2.934211330706375
 40
3.149502369855361
 40
3.231387784850949
 40
3.318231873854041
 40
3.405143198198029
 40
3.486970301720464
 40
3.702258172493902
 40
3.920866283534127
 40
4.142839325931914
 40
4.368221903865381
 40
4.412044743359861
 40
4.521601842095876
 40
4.664026070452357
 40
4.806450298809064
 40
4.916007397546757
 40
4.95983023704308
 40
5.184703515847113
 40
5.405387250767481
 40
5.405387250767481
 40
5.405387250767481
 40
5.405387250767481
 10
182.6507427258645
 20
15.73406440953871
 10
182.6568139420002
 20
15.79758482501209
 10
182.6690762107242
 20
15.92587938689627
 10
182.5604706879412
 20
16.20166220174076
 10
182.6761985896603
 20
16.17188133432054
 10
182.7171842509015
 20
16.16765556262821
 10
182.7591205797518
 20
16.16310446389607
 10
182.800419662571
 20
16.16201982929485
 10
182.8417032115555
 20
16.16310338195226
 10
182.8836148270647
 20
16.16766112711344
 10
182.9245983549019
 20
16.17187430209728
 10
183.0404922843489
 20
16.20177611317534
 10
182.9295652727457
 20
15.92339806609889
 10
182.9574856365266
 20
15.74283140824952
 10
182.940426734697
 20
15.50961042346472
 10
182.9414637282102
 20
15.34906622543145
 10
182.9414099399405
 20
15.22284817558722
 10
182.9414277372481
 20
15.12428963336241
 10
182.941418858108
 20
14.99280702442963
 10
182.9414263928033
 20
14.8613284496865
 10
182.9414129405129
 20
14.7627622269409
 10
182.9414531717492
 20
14.63639735624152
 10
182.9406746403818
 20
14.4748206882287
 10
182.9565958319266
 20
14.24361821892914
 10
182.9333468885408
 20
14.05874351972002
 10
183.0360183444365
 20
13.78935602770059
 10
182.8820238362836
 20
13.82660112685816
 10
182.8004129802832
 20
13.82137994680533
 10
182.7188192292583
 20
13.82660620378349
 10
182.5648513666842
 20
13.78937069885389
 10
182.6674183421917
 20
14.0587512986288
 10
182.6442045316088
 20
14.24361585325415
 10
182.6600444655139
 20
14.47482218565638
 10
182.6593296313428
 20
14.63639712308503
 10
182.6593664569907
 20
14.7627623121052
 10
182.6593549000271
 20
14.86132756635981
 10
182.6593575019214
 20
14.9928112741722
 10
182.659364853178
 20
15.124275480312
 10
182.6593442541351
 20
15.22287786275326
 10
182.659408219203
 20
15.34896149354427
 10
182.658173394759
 20
15.51210091383771
 10
182.6532040396745
 20
15.66054183777549
 10
182.6507427258645
 20
15.73406440953871
 97
        1
330
A9
 75
     1
 76
     2
 52
45.0
 41
0.1
 77
     0
 78
     1
 53
45.0
 43
0.0
 44
0.0
 45
-0.282842712474619
 46
0.0
 79
     0
 98
        1
 10
0.0
 20
0.0
  0
HATCH
  5
C7
330
48
100
AcDbEntity
  8
1
  6
Continuous
 62
     2
100
AcDbHatch
 10
0.0
 20
0.0
 30
0.0
210
0.0
220
0.0
230
1.0
  2
CUSTOM5
 70
     0
 71
     1
 91
        1
 92
        1
 93
        1
 72
     4
 94
        3
 73
     0
 74
     0
 95
      118
 96
      114
 40
0.0
 40
0.0
 40
0.0
 40
0.0
 40
0.105470816297341
 40
0.2466098270052049
 40
0.3965912874591357
 40
0.528552506975407
 40
0.6156245055642122
 40
0.6431434105797434
 40
0.7036850037986139
 40
0.7642265984504536
 40
0.791745505235484
 40
0.9287404319989745
 40
1.106572819088016
 40
1.28754487968104
 40
1.317578308030559
 40
1.399928030857196
 40
1.522968204799972
 40
1.675072986590595
 40
1.844616533180672
 40
2.019973001638738
 40
2.189516548880053
 40
2.341621331585391
 40
2.464661506320531
 40
2.547011229647095
 40
2.577044658168059
 40
2.603797890893129
 40
2.662655002908816
 40
2.721512114949628
 40
2.748265347702808
 40
2.774215307344885
 40
2.845959313407215
 40
2.954338556588412
 40
3.090194227585589
 40
3.244367517100552
 40
3.407699615844311
 40
3.571031714539457
 40
3.725205003920133
 40
3.861060674729631
 40
3.969439917716325
 40
4.041183923628998
 40
4.06713388321299
 40
4.311886746012171
 40
4.547897258335516
 40
4.76474708304398
 40
4.952749679951783
 40
5.045772974195907
 40
5.137862019644944
 40
5.330543169792964
 40
5.553448265243945
 40
5.795083855888122
 40
6.043293412177186
 40
6.285761695541118
 40
6.313902908752602
 40
6.384255941793191
 40
6.47571488476678
 40
6.567173827758842
 40
6.63752686083962
 40
6.665668074073984
 40
6.692018920327956
 40
6.749990782071026
 40
6.807962643790394
 40
6.834313490017869
 40
6.856393084245147
 40
6.913335195649771
 40
6.991194817302435
 40
7.076026942283696
 40
7.153886563725186
 40
7.210828674844769
 40
7.232908268931104
 40
7.258199334923625
 40
7.324875781592275
 40
7.419142481924932
 40
7.527204308841871
 40
7.63526613523045
 40
7.729532834168436
 40
7.796209279292758
 40
7.821500344594704
 40
7.844652988850775
 40
7.899863140541553
 40
7.96575912805372
 40
8.020969279771004
 40
8.04412192404647
 40
8.06935661016056
 40
8.10913439544133
 40
8.132238100191042
 40
8.193147867786408
 40
8.27926167887658
 40
8.377977512673795
 40
8.476693347146577
 40
8.562807160411632
 40
8.623716930826419
 40
8.64682063685337
 40
8.671988793774183
 40
8.734909185828123
 40
8.816705695188837
 40
8.898502204815436
 40
8.961422597377926
 40
8.986590754551038
 40
9.012941600733193
 40
9.070913462380277
 40
9.128885324081773
 40
9.155236170325093
 40
9.180404327929136
 40
9.243324721948238
 40
9.32512123421203
 40
9.406917746637713
 40
9.469838141978197
 40
9.495006288270972
 40
9.517811184379115
 40
9.572192090487118
 40
9.63709833328135
 40
9.691479239515552
 40
9.714284125643593
 40
9.714284125643593
 40
9.714284125643593
 40
9.714284125643593
 10
185.2874469028653
 20
15.26889163187718
 10
185.3090990569037
 20
15.2411186924281
 10
185.3597257109474
 20
15.17618054561234
 10
185.4349383202592
 20
15.06891060312898
 10
185.5248482274347
 20
14.95377438266624
 10
185.5709169676673
 20
14.85357045748321
 10
185.6655825294654
 20
14.78434006814941
 10
185.6204439320413
 20
14.73771639678274
 10
185.594704778579
 20
14.69660308866039
 10
185.5645196708012
 20
14.66065971727939
 10
185.5193684730562
 20
14.58579782596093
 10
185.4710504458562
 20
14.80782524253603
 10
185.3968539713073
 20
14.84510677337711
 10
185.2836047324607
 20
15.11610202130602
 10
185.2885133578169
 20
15.0009532844623
 10
185.2868486556306
 20
14.92836675781628
 10
185.2876830076713
 20
14.80625588483987
 10
185.2873609540265
 20
14.65913800810461
 10
185.2875076912455
 20
14.49307063956557
 10
185.2872950092722
 20
14.32187554608603
 10
185.2879497252034
 20
14.15552828635498
 10
185.2859192461139
 20
14.00935173055693
 10
185.291346039993
 20
13.88471047474611
 10
185.2804930868707
 20
13.81718656540626
 10
185.2956739155555
 20
13.75549061417022
 10
185.2457895108133
 20
13.76727503897002
 10
185.2017150342522
 20
13.75943822779969
 10
185.15823716302
 20
13.76760441372703
 10
185.1092346786489
 20
13.75538056738468
 10
185.1218731234824
 20
13.80960667249313
 10
185.1130182968449
 20
13.86936918907557
 10
185.1175058770314
 20
13.9792202904437
 10
185.1157960135991
 20
14.11029975405678
 10
185.1163550915987
 20
14.26198011444328
 10
185.1161928768694
 20
14.42211074929953
 10
185.1162269924674
 20
14.58236865674565
 10
185.1162514960128
 20
14.73370247520439
 10
185.1161453543224
 20
14.865821563386
 10
185.1164299141931
 20
14.97294802533192
 10
185.1158675547568
 20
15.03808619579473
 10
185.1180765083689
 20
15.16618957858674
 10
185.0319435998601
 20
14.79097610391577
 10
184.9555140818501
 20
14.63918193123392
 10
184.8660040767832
 20
14.47766206446308
 10
184.7640413217327
 20
14.20471848820172
 10
184.7187976491039
 20
14.36717346596507
 10
184.6102355941671
 20
14.45605432058123
 10
184.7995791751753
 20
14.60549794961409
 10
184.85653405457
 20
14.79749136974927
 10
184.9717520993352
 20
15.02899622906755
 10
184.9940151630134
 20
15.21797259759063
 10
185.1771905152137
 20
15.49454089325929
 10
185.0538033597553
 20
15.48698978832094
 10
184.9925684166834
 20
15.48856772366119
 10
184.9081999617064
 20
15.48882592573672
 10
184.8204235085966
 20
15.48544845751206
 10
184.7656768696122
 20
15.4939481498202
 10
184.7104703026024
 20
15.48048561049788
 10
184.7222823035536
 20
15.52931442126763
 10
184.7142496151793
 20
15.57269004896708
 10
184.7228186104678
 20
15.61509438309573
 10
184.7102943409157
 20
15.66267796552118
 10
184.7555101538735
 20
15.65267212995109
 10
184.8014815562723
 20
15.65894105174061
 10
184.877722204771
 20
15.65593561405872
 10
184.9561296131993
 20
15.65770448278541
 10
185.0323992648932
 20
15.65464793981659
 10
185.0783009459475
 20
15.66103971376177
 10
185.12317339654
 20
15.65093822978896
 10
185.1105552275634
 20
15.70157201581898
 10
185.1191936582707
 20
15.7550126188207
 10
185.1152361595443
 20
15.8486325513168
 10
185.1162325068335
 20
15.95112606688924
 10
185.1171927413073
 20
16.05353270248163
 10
185.1133211458005
 20
16.14735929609321
 10
185.1217789814364
 20
16.20036542840353
 10
185.1093075932835
 20
16.25211435651188
 10
185.1542106389849
 20
16.23850747226757
 10
185.1955083836772
 20
16.24100480320585
 10
185.259534428105
 20
16.23648060574487
 10
185.2986111148786
 20
16.22781003043308
 10
185.3476543498742
 20
16.23515102070687
 10
185.322508003059
 20
16.19602896051758
 10
185.2815901333723
 20
16.20563842455807
 10
185.2910109616604
 20
16.15540148169779
 10
185.2855647318746
 20
16.1038594563949
 10
185.2881699601804
 20
16.0195970758452
 10
185.2870102202153
 20
15.92559135583408
 10
185.2883591064231
 20
15.83196865395526
 10
185.2849970101508
 20
15.74679517552222
 10
185.2920959917769
 20
15.69716856072044
 10
185.2812569154545
 20
15.64993694969989
 10
185.3304010225246
 20
15.66201674936852
 10
185.3794877630147
 20
15.65447393363011
 10
185.4573714280642
 20
15.65686070361433
 10
185.5350365172896
 20
15.65899381905415
 10
185.5845393931356
 20
15.65193391922455
 10
185.6344594750639
 20
15.66360151936214
 10
185.6223198516882
 20
15.61540235371393
 10
185.6305838229144
 20
15.57249219801235
 10
185.6223198650785
 20
15.52958201851384
 10
185.6344594549855
 20
15.48138288754864
 10
185.5845395158747
 20
15.49305034471511
 10
185.5350350651204
 20
15.48599202435046
 10
185.4573784382972
 20
15.48811665228603
 10
185.3794643865761
 20
15.4905338936576
 10
185.3304500352716
 20
15.48291848194486
 10
185.2813246108943
 20
15.49507952557592
 10
185.2915559988571
 20
15.45073013424158
 10
185.2856677678054
 20
15.40925436202911
 10
185.287878830557
 20
15.34915394315303
 10
185.2874109346145
 20
15.30225782762887
 10
185.2874386992913
 20
15.27650146418195
 10
185.2874469028653
 20
15.26889163187718
 97
        1
330
AA
 75
     1
 76
     2
 52
45.0
 41
0.1
 77
     0
 78
     1
 53
45.0
 43
0.0
 44
0.0
 45
-0.282842712474619
 46
0.0
 79
     0
 98
        1
 10
0.0
 20
0.0
  0
HATCH
  5
C8
330
48
100
AcDbEntity
  8
1
  6
Continuous
 62
     2
100
AcDbHatch
 10
0.0
 20
0.0
 30
0.0
210
0.0
220
0.0
230
1.0
  2
CUSTOM6
 70
     0
 71
     1
 91
        1
 92
        1
 93
        1
 72
     4
 94
        3
 73
     0
 74
     0
 95
       91
 96
       87
 40
0.0
 40
0.0
 40
0.0
 40
0.0
 40
0.0345987051695718
 40
0.1258134969461085
 40
0.2547723404888703
 40
0.4026032099153556
 40
0.550434079341642
 40
0.6793929228835227
 40
0.7706077146570467
 40
0.8052064287780072
 40
1.124852390615195
 40
1.427402236308785
 40
1.706356627453425
 40
1.955541417875102
 40
2.169485938566244
 40
2.344350786664698
 40
2.480568411561847
 40
2.590440557428869
 40
2.649189927151021
 40
2.74932064330622
 40
2.912632739879927
 40
3.14774565600013
 40
3.244827496385026
 40
3.338490056946618
 40
3.583815413207033
 40
3.761423943238392
 40
3.886956104362541
 40
3.985855451886749
 40
4.091766255337633
 40
4.250186473811826
 40
4.422734315084472
 40
4.62828568483855
 40
4.872093227758369
 40
5.152549652145488
 40
5.464967135837468
 40
5.803201477852389
 40
6.160362988813864
 40
6.193449448275919
 40
6.284170385501573
 40
6.419718138764443
 40
6.587285046385693
 40
6.774063446723607
 40
6.96724567811359
 40
7.154024078817576
 40
7.321590987025962
 40
7.45713874089032
 40
7.547859678556057
 40
7.580946138182616
 40
7.608533084714667
 40
7.669224367077637
 40
7.72991564942985
 40
7.757502595949902
 40
7.790278062553355
 40
7.880146277430853
 40
8.014419963180316
 40
8.180411842397817
 40
8.365434637679286
 40
8.556801071622587
 40
8.7418238668307
 40
8.90781574591621
 40
9.042089431507364
 40
9.13195764624949
 40
9.164733112797066
 40
9.415425063140002
 40
9.66798618095847
 40
9.694169807462638
 40
9.756607686047596
 40
9.831130315322403
 40
9.893568193899867
 40
9.919751820398684
 40
9.950967964690522
 40
9.99642163121063
 40
10.22087981037452
 40
10.44341866197541
 40
10.47847970788854
 40
10.57091337438754
 40
10.70159545461229
 40
10.8514017417036
 40
11.00120802880477
 40
11.13189010907382
 40
11.2243237758301
 40
11.25938480938956
 40
11.28697175596144
 40
11.34766303835918
 40
11.40835432042068
 40
11.43594125892102
 40
11.43594125892102
 40
11.43594125892102
 40
11.43594125892102
 10
190.0818114333289
 20
15.55242795125077
 10
190.070278584494
 20
15.55242790287915
 10
190.0283409444999
 20
15.55242773704164
 10
189.9434129719025
 20
15.55243125800908
 10
189.8207688553129
 20
15.55240926435879
 10
189.6791206916993
 20
15.55250801177054
 10
189.537975369849
 20
15.55214686232421
 10
189.4141351317905
 20
15.55321883609088
 10
189.3317217825382
 20
15.55092249091268
 10
189.1727791229693
 20
15.56048569373419
 10
189.3503402353376
 20
15.1978539431137
 10
189.3379739205453
 20
14.95243127723113
 10
189.4064519473864
 20
14.66862501324835
 10
189.469302432097
 20
14.43250999939035
 10
189.5452253431728
 20
14.23326740396129
 10
189.6303189577017
 20
14.07745347451374
 10
189.7244607592935
 20
13.97657857781392
 10
189.8282648207728
 20
13.92465852638965
 10
189.9125872030773
 20
13.97606484379616
 10
189.9351322179452
 20
14.09144544037517
 10
189.9745730975371
 20
14.2188514970238
 10
189.9202919734942
 20
14.53622328086757
 10
190.0451218072473
 20
14.38982180140905
 10
190.2019291513603
 20
14.3579530033117
 10
190.0947720007057
 20
14.12421357767627
 10
190.0808711209866
 20
13.95972776583658
 10
190.0234709467226
 20
13.83130869122481
 10
189.9335020145008
 20
13.76018802352828
 10
189.8095274657877
 20
13.74432324142254
 10
189.663427319686
 20
13.77993797554172
 10
189.5243894320284
 20
13.90000570500277
 10
189.4102003962144
 20
14.0743568255032
 10
189.3146141301487
 20
14.29946603111242
 10
189.2318652572626
 20
14.56388246006442
 10
189.1807179256412
 20
14.88187933098544
 10
189.0770189207338
 20
15.15543728488912
 10
189.2042841208519
 20
15.56005818612866
 10
189.0357890623019
 20
15.55112367849678
 10
188.9511995787077
 20
15.55315961418363
 10
188.8189876387627
 20
15.55213937388406
 10
188.6560505094104
 20
15.55253230318429
 10
188.4733759170532
 20
15.55235696313368
 10
188.2847057373383
 20
15.55260105307468
 10
188.1014469020189
 20
15.55185657906236
 10
187.9404746832718
 20
15.55416360522425
 10
187.8029808335276
 20
15.54799804883662
 10
187.728959037231
 20
15.56032838458211
 10
187.6613215186856
 20
15.54329323723556
 10
187.673237371927
 20
15.59524438447528
 10
187.6655677285694
 20
15.64071424966528
 10
187.6732592225115
 20
15.68614453703704
 10
187.6613141797762
 20
15.73802395984569
 10
187.7283588305866
 20
15.72119143490261
 10
187.8017375665677
 20
15.7333540909267
 10
187.9379128305271
 20
15.72727231074956
 10
188.0973811801513
 20
15.72954834315056
 10
188.2789173085836
 20
15.7288123399896
 10
188.4658034862179
 20
15.72905954196131
 10
188.6468012316836
 20
15.72886400799251
 10
188.8080802578878
 20
15.72932234714837
 10
188.9393882124887
 20
15.72812673751203
 10
189.0225051322597
 20
15.73051347319741
 10
189.1556236547813
 20
15.72230605725461
 10
189.0645893502659
 20
15.97752868952654
 10
188.9789633074418
 20
16.24164358328247
 10
189.0990589003455
 20
16.22904442969165
 10
189.1514264948544
 20
16.22694235763075
 10
189.2214497569715
 20
16.22535399889657
 10
189.2671922337817
 20
16.21602567538113
 10
189.3220812646933
 20
16.22545966915427
 10
189.2963574785681
 20
16.17733028655172
 10
189.1825397571453
 20
16.18266829744168
 10
189.3159346621135
 20
15.95449174576775
 10
189.1943658735472
 20
15.72156856595921
 10
189.3223188769413
 20
15.73087258884437
 10
189.4049048406461
 20
15.72801001754678
 10
189.5307214850824
 20
15.729234374123
 10
189.6741469838057
 20
15.72932431888962
 10
189.8157420951728
 20
15.72746163183851
 10
189.9459127249967
 20
15.73333075937161
 10
190.0193452286191
 20
15.72070340823202
 10
190.0891112922096
 20
15.7387756311041
 10
190.0775772605396
 20
15.68612850546325
 10
190.0833184346682
 20
15.64221317686546
 10
190.081661577091
 20
15.59089982676548
 10
190.081775756167
 20
15.56158792021634
 10
190.0818114333289
 20
15.55242795125077
 97
        1
330
AB
 75
     1
 76
     2
 52
45.0
 41
0.1
 77
     0
 78
     1
 53
45.0
 43
0.0
 44
0.0
 45
-0.282842712474619
 46
0.0
 79
     0
 98
        1
 10
0.0
 20
0.0
  0
HATCH
  5
C9
330
48
100
AcDbEntity
  8
1
  6
Continuous
 62
     2
100
AcDbHatch
 10
0.0
 20
0.0
 30
0.0
210
0.0
220
0.0
230
1.0
  2
CUSTOM7
 70
     0
 71
     1
 91
        1
 92
        1
 93
        1
 72
     4
 94
        3
 73
     0
 74
     0
 95
       75
 96
       71
 40
0.0
 40
0.0
 40
0.0
 40
0.0
 40
0.0342546099129691
 40
0.1245622414432329
 40
0.2522385480897465
 40
0.3985991922940573
 40
0.5449598364980697
 40
0.6726361431438657
 40
0.7629437746736765
 40
0.7971983935297777
 40
1.101723623449639
 40
1.408591244036644
 40
1.433332471690351
 40
1.487763172450151
 40
1.542193873081984
 40
1.566935100592536
 40
1.923523931821846
 40
2.271755704953619
 40
2.590579755100861
 40
2.858943305581147
 40
2.889120339309156
 40
2.918305855191104
 40
2.941366645531227
 40
2.996357760973121
 40
3.061992318140669
 40
3.11698343362687
 40
3.140044223997549
 40
3.411273122936524
 40
3.732441619741133
 40
3.761068217532831
 40
3.837787499630393
 40
3.948858699126029
 40
4.080541049104404
 40
4.219093782625787
 40
4.350776132722336
 40
4.46184733240567
 40
4.5385666146784
 40
4.567193212544646
 40
4.594907573998904
 40
4.666381453557443
 40
4.764111044011054
 40
4.870592538125857
 40
4.968322128642308
 40
5.039796008286993
 40
5.067510369784452
 40
5.094263603185667
 40
5.153120716668308
 40
5.211977830150758
 40
5.238731063551764
 40
5.272290535139003
 40
5.363380529444864
 40
5.497618415781542
 40
5.660621563453784
 40
5.838007341749485
 40
6.015393119910836
 40
6.178396267038462
 40
6.312634151842413
 40
6.403724143059403
 40
6.437283612672498
 40
6.464036846261116
 40
6.522893960004737
 40
6.581751071484005
 40
6.608504301590953
 40
6.6372539412811
 40
6.711397748902952
 40
6.812778057283564
 40
6.923237199249341
 40
7.024617507623985
 40
7.098761315207637
 40
7.127510946007588
 40
7.127510946007588
 40
7.127510946007588
 40
7.127510946007588
 10
188.4418622390564
 20
14.95849128473263
 10
188.4418622819707
 20
14.94707313408719
 10
188.4418624481128
 20
14.90555257842628
 10
188.4418593081787
 20
14.82146922003771
 10
188.4418788279801
 20
14.70004497322328
 10
188.4417912187737
 20
14.55980494047448
 10
188.442111623523
 20
14.42006556794577
 10
188.4411605909741
 20
14.29745038894929
 10
188.4431978595967
 20
14.21587074438044
 10
188.4349433178746
 20
14.06271267077698
 10
188.74307979409
 20
14.22560236054721
 10
189.0350645173738
 20
14.39482938688003
 10
189.0408354448707
 20
14.2597323578191
 10
189.0455471719891
 20
14.21617221160444
 10
189.0482535411918
 20
14.17211249350544
 10
189.0672545672958
 20
14.02272590363132
 10
188.6583942247302
 20
14.08681172241262
 10
188.3793710348832
 20
13.97296341411015
 10
188.1018081587165
 20
13.87364095811141
 10
187.8099837184403
 20
13.91630687596356
 10
187.7869144678657
 20
13.8132167974454
 10
187.7537474383333
 20
13.78691091244469
 10
187.7480653962739
 20
13.83455309036304
 10
187.7284214559044
 20
13.8718033611507
 10
187.7095089485623
 20
13.93007387847564
 10
187.6942849867707
 20
13.97385201007806
 10
187.6477246372935
 20
14.08759421046313
 10
187.9890897312451
 20
14.05576301120046
 10
188.2679649367385
 20
14.02161435106481
 10
188.2617753034907
 20
14.16913976479652
 10
188.2630935452773
 20
14.24013150908832
 10
188.2624831689948
 20
14.34719767958661
 10
188.2625871570725
 20
14.47398529785997
 10
188.2629987964055
 20
14.6084924349605
 10
188.2613907841969
 20
14.73395549951183
 10
188.2659902567925
 20
14.84505246719117
 10
188.256418650221
 20
14.90761886800687
 10
188.2704001783691
 20
14.96595388295
 10
188.2147384386704
 20
14.95289710582236
 10
188.1575655197821
 20
14.96136307749497
 10
188.0616048925648
 20
14.95729976080635
 10
187.963376752282
 20
14.95970889852473
 10
187.8672582457561
 20
14.95551600613387
 10
187.810464852581
 20
14.96429346441162
 10
187.7550356873384
 20
14.9509493685012
 10
187.7670679427916
 20
15.00036910959256
 10
187.7592003173938
 20
15.04393988030395
 10
187.7666295563829
 20
15.08830469118525
 10
187.7551930564143
 20
15.13902297763991
 10
187.8232102370133
 20
15.12162460757743
 10
187.8968496879747
 20
15.13417450237189
 10
188.0325064058211
 20
15.12799677011097
 10
188.1884909024525
 20
15.13029203093084
 10
188.3615926358143
 20
15.1294096826253
 10
188.5346942964181
 20
15.13029207142408
 10
188.6906789811216
 20
15.1279966295555
 10
188.8263351889797
 20
15.13417486262432
 10
188.8999756705652
 20
15.12162394218334
 10
188.9679914174724
 20
15.13902373012143
 10
188.9565590885922
 20
15.08830130414555
 10
188.9639539458297
 20
15.04397060811107
 10
188.956203991227
 20
15.00028307550195
 10
188.9681203741877
 20
14.95063590098476
 10
188.9108170223616
 20
14.96461411338424
 10
188.8520145789772
 20
14.95539755673252
 10
188.7525293633199
 20
14.95952268164928
 10
188.649428009835
 20
14.95822760025887
 10
188.5537846354573
 20
14.95854077077639
 10
188.4857467971617
 20
14.95848776697144
 10
188.4514462213443
 20
14.95849051871655
 10
188.4418622390564
 20
14.95849128473263
 97
        1
330
AC
 75
     1
 76
     2
 52
45.0
 41
0.1
 77
     0
 78
     1
 53
45.0
 43
0.0
 44
0.0
 45
-0.282842712474619
 46
0.0
 79
     0
 98
        1
 10
0.0
 20
0.0
  0
HATCH
  5
CA
330
48
100
AcDbEntity
  8
1
  6
Continuous
 62
     2
100
AcDbHatch
 10
0.0
 20
0.0
 30
0.0
210
0.0
220
0.0
230
1.0
  2
CUSTOM8
 70
     0
 71
     1
 91
        1
 92
        1
 93
        1
 72
     4
 94
        3
 73
     0
 74
     0
 95
       15
 96
       11
 40
0.0
 40
0.0
 40
0.0
 40
0.0
 40
0.2785535985097487
 40
0.5215624748198956
 40
0.6076917376040591
 40
0.6938210001741325
 40
0.9405019146455162
 40
1.221691403489149
 40
1.300471877081065
 40
1.379252341684831
 40
1.379252341684831
 40
1.379252341684831
 40
1.379252341684831
 10
189.5681493630999
 20
16.22930267330381
 10
189.6296017794179
 20
16.17691646592717
 10
189.7446649974114
 20
16.0788287679823
 10
190.0397348497243
 20
15.92889785897219
 10
189.9025147631857
 20
15.84343227515014
 10
189.8041227843777
 20
15.71085785201554
 10
189.7130033590651
 20
16.01616985781421
 10
189.3636839480654
 20
16.07967869465374
 10
189.5119258376571
 20
16.17896509880878
 10
189.5494081874236
 20
16.21252348402382
 10
189.5681493630999
 20
16.22930267330381
 97
        1
330
AD
 75
     1
 76
     2
 52
45.0
 41
0.1
 77
     0
 78
     1
 53
45.0
 43
0.0
 44
0.0
 45
-0.282842712474619
 46
0.0
 79
     0
 98
        1
 10
0.0
 20
0.0
  0
HATCH
  5
CB
330
48
100
AcDbEntity
  8
1
  6
Continuous
 62
     2
100
AcDbHatch
 10
0.0
 20
0.0
 30
0.0
210
0.0
220
0.0
230
1.0
  2
CUSTOM9
 70
     0
 71
     1
 91
        1
 92
        1
 93
        1
 72
     4
 94
        3
 73
     0
 74
     0
 95
       35
 96
       31
 40
0.0
 40
0.0
 40
0.0
 40
0.0
 40
0.033523103661993
 40
0.0713218571712392
 40
0.4278866681487437
 40
0.8116865841964662
 40
1.198190238000121
 40
1.561379546812797
 40
1.659983174622224
 40
1.759315573807363
 40
2.132719617231223
 40
2.525233363588952
 40
2.910815397779819
 40
3.265244364303445
 40
3.592606723582185
 40
3.964386154604132
 40
4.359942131737957
 40
4.75815411863947
 40
4.843846538700056
 40
4.936650065543407
 40
5.256616602537564
 40
5.581707404416279
 40
5.899719158308375
 40
6.19836349428096
 40
6.466301046615976
 40
6.493895311537298
 40
6.559697020197091
 40
6.638234543442666
 40
6.704036252154419
 40
6.731630508423224
 40
6.731630508423224
 40
6.731630508423224
 40
6.731630508423224
 10
191.9736010568669
 20
16.23463843719134
 10
191.9676006097789
 20
16.22480690542322
 10
191.9548344099158
 20
16.20388988579792
 10
191.7949362006553
 20
16.17127126532714
 10
192.2322025842337
 20
15.8820668033669
 10
192.4345394828262
 20
15.68041138358441
 10
192.6819564267974
 20
15.43749387603276
 10
193.1831513624607
 20
15.36047662757772
 10
193.012556219897
 20
15.2187693917466
 10
192.93832994632
 20
15.01710366209107
 10
192.6131432248188
 20
15.36956287174726
 10
192.3277741670664
 20
15.53175212559562
 10
192.0337604077658
 20
15.7368713005305
 10
191.8084452691134
 20
16.21827488595455
 10
191.5993085055521
 20
15.75343046609223
 10
191.3207873674833
 20
15.54350952252911
 10
191.037138317721
 20
15.37424456359987
 10
190.7078639527829
 20
15.00142360907929
 10
190.6277012318225
 20
15.19708014459004
 10
190.4759724909742
 20
15.3249110419059
 10
190.9083395826796
 20
15.40454031765934
 10
191.0962565329766
 20
15.60026634915473
 10
191.3468477420503
 20
15.81632996916755
 10
191.5714350470162
 20
15.98190992300058
 10
191.625977540971
 20
16.26133964636827
 10
191.7494661029012
 20
16.24737950408078
 10
191.806027334452
 20
16.24521268867647
 10
191.8761870984944
 20
16.2404685988136
 10
191.9333414022105
 20
16.23709429350541
 10
191.9644190320839
 20
16.23519854711119
 10
191.9736010568669
 20
16.23463843719134
 97
        1
330
AE
 75
     1
 76
     2
 52
45.0
 41
0.1
 77
     0
 78
     1
 53
45.0
 43
0.0
 44
0.0
 45
-0.282842712474619
 46
0.0
 79
     0
 98
        1
 10
0.0
 20
0.0
  0
HATCH
  5
CC
330
48
100
AcDbEntity
  8
1
  6
Continuous
 62
     2
100
AcDbHatch
 10
0.0
 20
0.0
 30
0.0
210
0.0
220
0.0
230
1.0
  2
CUSTOM10
 70
     0
 71
     1
 91
        1
 92
        1
 93
        1
 72
     4
 94
        3
 73
     0
 74
     0
 95
       91
 96
       87
 40
0.0
 40
0.0
 40
0.0
 40
0.0
 40
0.0267532254356684
 40
0.0856103386464066
 40
0.144467452199655
 40
0.1712206856618426
 40
0.2039416005642447
 40
0.2955601971652395
 40
0.4362601844616829
 40
0.6162252844507161
 40
0.8256392189704609
 40
1.054685709844402
 40
1.293548478893522
 40
1.532411247938294
 40
1.761457738799559
 40
1.970871673298528
 40
2.150836773256724
 40
2.291536760495585
 40
2.383155356836691
 40
2.415876284101311
 40
2.442629517487954
 40
2.50148663094908
 40
2.560343744424226
 40
2.587096977826497
 40
2.617068194440924
 40
2.699247336756065
 40
2.822032643466378
 40
2.973822353257908
 40
3.14301470482335
 40
3.318007936879929
 40
3.487200288186762
 40
3.638989997548243
 40
3.761775303794741
 40
3.843954445753076
 40
3.873925662229772
 40
3.89081277350048
 40
3.907699884771658
 40
3.937960767857264
 40
3.980983618142296
 40
4.199085915228442
 40
4.43944433923722
 40
4.677588241260836
 40
5.050698317837722
 40
5.448212454763051
 40
5.855291218044548
 40
6.138575438885215
 40
6.41743450758399
 40
6.444551104393648
 40
6.504207617362922
 40
6.563864130314246
 40
6.590980727103814
 40
6.848609460381197
 40
7.109611990668155
 40
7.35291090444582
 40
7.557830220705191
 40
7.58751892591311
 40
7.652834077375531
 40
7.718149228845468
 40
7.747837934061774
 40
7.854880190300745
 40
7.976511257403292
 40
8.369487896592037
 40
8.757514959223359
 40
9.12607241933085
 40
9.460639380391912
 40
9.746695593035653
 40
9.777569943118424
 40
9.807050320931525
 40
9.83037733612866
 40
9.886003295435737
 40
9.952395569429653
 40
10.00802152870601
 40
10.03134854388194
 40
10.21356951009564
 40
10.42203479292847
 40
10.66154556731039
 40
10.9169378956428
 40
11.15832906556541
 40
11.18982674596598
 40
11.27286608520383
 40
11.39026653033325
 40
11.52484752840861
 40
11.65942852648423
 40
11.77682897161459
 40
11.85986831085658
 40
11.89136598230403
 40
11.89136598230403
 40
11.89136598230403
 40
11.89136598230403
 10
190.7027885008196
 20
14.70699600701772
 10
190.7028237765288
 20
14.71587847311985
 10
190.7029366710796
 20
14.74430237047346
 10
190.7012984568488
 20
14.79409639169802
 10
190.7069750292911
 20
14.83657564478154
 10
190.6956928731706
 20
14.88730154856846
 10
190.7632296979032
 20
14.87012900740108
 10
190.83880292107
 20
14.88290227165995
 10
190.9828357056
 20
14.87629729457381
 10
191.1569419185427
 20
14.87888462206465
 10
191.3639599611003
 20
14.87800591955552
 10
191.5894688172378
 20
14.87828207920027
 10
191.8251162293406
 20
14.87818339658661
 10
192.0607640531348
 20
14.87828184412766
 10
192.2862717580626
 20
14.87800678190788
 10
192.4932934632805
 20
14.87888186270734
 10
192.6673888915288
 20
14.87630522678445
 10
192.8114492071986
 20
14.88288290449213
 10
192.8869691915292
 20
14.87016243405603
 10
192.954577603703
 20
14.88726400191686
 10
192.9430840140675
 20
14.83674785802939
 10
192.9505104581733
 20
14.79253252226501
 10
192.9428838927986
 20
14.74867966503609
 10
192.9546489459425
 20
14.69878374479327
 10
192.8930788491983
 20
14.71393227712512
 10
192.8256791738672
 20
14.70310665350673
 10
192.7013004056221
 20
14.70852031626236
 10
192.555442823657
 20
14.70649205390785
 10
192.3893576440085
 20
14.70715777578387
 10
192.2188412621724
 20
14.70689643521242
 10
192.0519790855388
 20
14.70721553391094
 10
191.9087346827105
 20
14.70635302590762
 10
191.7773313869834
 20
14.70863300482988
 10
191.7239859134656
 20
14.70407704374202
 10
191.6485188456912
 20
14.70999914992877
 10
191.6769075779232
 20
14.70094169343353
 10
191.7033652409542
 20
14.6972591226893
 10
191.6633522907701
 20
14.66654271968275
 10
191.5713663691867
 20
14.67667591174634
 10
191.543939620707
 20
14.43032502247786
 10
191.4478793967234
 20
14.27499558764376
 10
191.1917277964474
 20
13.94525417931567
 10
191.7627537732763
 20
14.08430022210451
 10
192.0173656320517
 20
14.08291779973362
 10
192.6279647048617
 20
13.99790569242088
 10
192.3340698578083
 20
14.29685417558202
 10
192.0133304286519
 20
14.44330856901777
 10
192.1313543360434
 20
14.50025540818288
 10
192.1724716466262
 20
14.52420099873349
 10
192.2156812394412
 20
14.5459975881123
 10
192.317457409445
 20
14.60928721253905
 10
192.4328867625248
 20
14.35147151408779
 10
192.6329591642277
 20
14.21616041113683
 10
192.7269077387228
 20
14.03792795138882
 10
192.9558829746392
 20
13.87997821027049
 10
192.8596031846708
 20
13.82915972576299
 10
192.8167959763779
 20
13.79881292523053
 10
192.7718243528779
 20
13.77466130281458
 10
192.7121720925213
 20
13.72552146747566
 10
192.6789731061325
 20
13.8599747567361
 10
192.5582013350796
 20
14.0159426528658
 10
192.1970976005979
 20
13.88569928059556
 10
191.8385061955541
 20
13.90224694409483
 10
191.457092045008
 20
13.89331229351864
 10
191.170345528289
 20
13.82882671672407
 10
190.8592055599715
 20
13.94230668192824
 10
190.8268737818788
 20
13.83122259927767
 10
190.7896178253318
 20
13.81196313850011
 10
190.7865737632753
 20
13.85874784087296
 10
190.7679892860607
 20
13.89806853919134
 10
190.7512436616778
 20
13.95765983478232
 10
190.7383730915754
 20
14.00201969871284
 10
190.7042327806427
 20
14.091063311202
 10
190.9482714457753
 20
14.02181042943769
 10
191.1441394486671
 20
14.00030369057744
 10
191.2395426381276
 20
14.28226484478463
 10
191.2945135769597
 20
14.44363045421123
 10
191.5159619357156
 20
14.71391177589738
 10
191.3849239381216
 20
14.70548446853735
 10
191.3110026555854
 20
14.7077900849697
 10
191.1977459876244
 20
14.70671378321657
 10
191.0694251807484
 20
14.7070763907651
 10
190.9404252030415
 20
14.70697724466086
 10
190.828784094629
 20
14.70699932712572
 10
190.7514663970026
 20
14.7069957918967
 10
190.713287653201
 20
14.70699595845081
 10
190.7027885008196
 20
14.70699600701772
 97
        1
330
AF
 75
     1
 76
     2
 52
45.0
 41
0.1
 77
     0
 78
     1
 53
45.0
 43
0.0
 44
0.0
 45
-0.282842712474619
 46
0.0
 79
     0
 98
        1
 10
0.0
 20
0.0
  0
HATCH
  5
CD
330
48
100
AcDbEntity
  8
1
  6
Continuous
 62
     2
100
AcDbHatch
 10
0.0
 20
0.0
 30
0.0
210
0.0
220
0.0
230
1.0
  2
CUSTOM11
 70
     0
 71
     1
 91
        1
 92
        1
 93
        1
 72
     4
 94
        3
 73
     0
 74
     0
 95
      131
 96
      127
 40
0.0
 40
0.0
 40
0.0
 40
0.0
 40
0.0195577029826086
 40
0.0426490537461338
 40
0.2863607575856525
 40
0.5344948436189235
 40
0.7842238845573133
 40
0.8737315789467572
 40
0.9803832810313099
 40
1.092842274517056
 40
1.199761146656815
 40
1.289788768186519
 40
1.351573580786192
 40
1.370727117561418
 40
1.416400936017827
 40
1.470914848355969
 40
1.516588666791757
 40
1.535742203552836
 40
1.634216592293141
 40
1.760283341174933
 40
1.897966686682063
 40
2.031216387368911
 40
2.049689751137905
 40
2.101115601646841
 40
2.179502577739958
 40
2.278859318314076
 40
2.393194462258734
 40
2.516516648383847
 40
2.642834515405976
 40
2.766156701983482
 40
2.880491846754596
 40
2.979848588358639
 40
3.058235565443816
 40
3.109661416668972
 40
3.128134780704148
 40
3.146783742386464
 40
3.191254343315325
 40
3.244332157315984
 40
3.288802758225888
 40
3.307451719895131
 40
3.327717853844742
 40
3.383747753580103
 40
3.468388665924495
 40
3.574487837698802
 40
3.694892515728904
 40
3.822449946852043
 40
3.950007377920432
 40
4.070412055800524
 40
4.17651122736808
 40
4.261152139501526
 40
4.317182039076718
 40
4.337448172964638
 40
4.620011002696241
 40
4.885096638397511
 40
4.945373043518325
 40
5.014107710488633
 40
5.070481727652026
 40
5.31924695563655
 40
5.584812164506043
 40
5.859000912056896
 40
6.133746937542076
 40
6.401732212968909
 40
6.420736683995528
 40
6.472845717451122
 40
6.550702743894107
 40
6.646951193874315
 40
6.754234497930639
 40
6.865196086587446
 40
6.972479390357904
 40
7.068727839772095
 40
7.146584865451103
 40
7.198693898189333
 40
7.217698368905474
 40
7.234950401630952
 40
7.276089864269998
 40
7.325191803516113
 40
7.366331266090501
 40
7.383583298769853
 40
7.40277916349223
 40
7.453386443254661
 40
7.524934666445663
 40
7.606953361406003
 40
7.688972056429154
 40
7.760520279784405
 40
7.811127559734647
 40
7.830323424546268
 40
7.847844055299898
 40
7.894799345666939
 40
7.962779392744627
 40
8.043374293560674
 40
8.12817414514958
 40
8.208769044817386
 40
8.276749090377086
 40
8.323704379669644
 40
8.341225010056379
 40
8.358497614800527
 40
8.401679126686732
 40
8.45781509218579
 40
8.513951057728194
 40
8.55713256970815
 40
8.574405174505193
 40
8.60234066861653
 40
8.643455660540122
 40
8.66322527196679
 40
8.715345156564437
 40
8.789031889628772
 40
8.873502045520501
 40
8.957972194324125
 40
9.031658925568015
 40
9.083778811234707
 40
9.103548423003168
 40
9.119550083123706
 40
9.160817522380007
 40
9.217244429110373
 40
9.278724491644859
 40
9.335151398295643
 40
9.376418837357939
 40
9.392420497300726
 40
9.401196302734945
 40
9.41749422938442
 40
9.426270027749693
 40
9.440875075477726
 40
9.475702496998908
 40
9.517270709866072
 40
9.552098131994242
 40
9.566703169884452
 40
9.566703169884452
 40
9.566703169884452
 40
9.566703169884452
 10
194.6170254148479
 20
15.67015871511026
 10
194.613434509337
 20
15.66453690702158
 10
194.6056039123625
 20
15.65227754419112
 10
194.5129968974543
 20
15.61601916040976
 10
194.4887622233248
 20
15.40148444212713
 10
194.3858709845938
 20
15.22197284509708
 10
194.1220492364305
 20
15.03615573798143
 10
194.2845471569181
 20
14.95959336566082
 10
194.3607225760838
 20
14.89856693195441
 10
194.4492171072759
 20
14.83515804544759
 10
194.538993023311
 20
14.77525634219559
 10
194.5883817636047
 20
14.72102154849208
 10
194.6745708157382
 20
14.69286240541832
 10
194.6411260674229
 20
14.65713309652811
 10
194.6214671166311
 20
14.62550387991905
 10
194.5919888217882
 20
14.58475872796069
 10
194.5688989446031
 20
14.55504663489644
 10
194.5380205968356
 20
14.50211422668495
 10
194.4729193365741
 20
14.62740334938901
 10
194.3796000122416
 20
14.68213900233937
 10
194.2950636285139
 20
14.73916423939339
 10
194.1722498125741
 20
14.89675287427523
 10
194.1764450847301
 20
14.82035806766837
 10
194.1751478652677
 20
14.77361280161296
 10
194.1758126448077
 20
14.69584785812601
 10
194.1755549986956
 20
14.59902068324423
 10
194.1756431239922
 20
14.48650279078809
 10
194.1756077302282
 20
14.36524085945699
 10
194.1756511758278
 20
14.24086897858961
 10
194.1755199942405
 20
14.11967683631335
 10
194.1759477562047
 20
14.00691148919743
 10
194.1746678202311
 20
13.91082913768744
 10
194.1779759851044
 20
13.83113826468699
 10
194.1715197740085
 20
13.78815175788783
 10
194.1806208705556
 20
13.74955432372042
 10
194.1447910339934
 20
13.75810887724069
 10
194.1115223815252
 20
13.75342519985446
 10
194.0604562576041
 20
13.75351298759783
 10
194.0269723972812
 20
13.7579443028382
 10
193.9907585408754
 20
13.74960793842509
 10
194.0009782568666
 20
13.79145277179284
 10
193.9936487887774
 20
13.83778560820173
 10
193.9973633136103
 20
13.92374831106014
 10
193.9959480554895
 20
14.02605142704848
 10
193.9964105554639
 20
14.14453223931511
 10
193.996277368623
 20
14.26957683153355
 10
193.9963015910045
 20
14.39475828107048
 10
193.9963354925551
 20
14.51286645379057
 10
193.9962060293132
 20
14.61628748709514
 10
193.9965507549081
 20
14.69932036153666
 10
193.995869827869
 20
14.75143368521242
 10
193.9994586600623
 20
14.8791290782136
 10
193.7826171386436
 20
14.5804871681962
 10
193.6021354921951
 20
14.35263981511515
 10
193.5490322295611
 20
14.49373443289814
 10
193.5200429133149
 20
14.54325767560942
 10
193.419664806282
 20
14.64641779790105
 10
193.7405127723261
 20
14.72695035023779
 10
193.8689897005429
 20
14.91066283036432
 10
194.0906454325359
 20
15.11931995771761
 10
194.1770224894069
 20
15.29339211228344
 10
194.4549394229076
 20
15.56967051342513
 10
194.3346247839285
 20
15.56534559551113
 10
194.286319735135
 20
15.56614856202552
 10
194.2102377454905
 20
15.56574582146582
 10
194.1167010009751
 20
15.56590275611608
 10
194.0117594788557
 20
15.56582502576223
 10
193.9033887738718
 20
15.56595464378553
 10
193.7981454235897
 20
15.56554393490691
 10
193.7056237819413
 20
15.5668207367159
 10
193.6268130800707
 20
15.56340766534849
 10
193.5839674565379
 20
15.57023350036319
 10
193.5449499586515
 20
15.56065064201123
 10
193.5526365271864
 20
15.59420779565542
 10
193.5485464404312
 20
15.62523550322232
 10
193.5485531368814
 20
15.672365292709
 10
193.5526239724912
 20
15.70340941646779
 10
193.5449495574582
 20
15.73701861635901
 10
193.5834819405494
 20
15.72748410420872
 10
193.624122801448
 20
15.73397435498071
 10
193.6951471850463
 20
15.73100150650254
 10
193.7729318149633
 20
15.73174761399158
 10
193.8507292246474
 20
15.73247814044525
 10
193.9217232089907
 20
15.7295423551416
 10
193.962427979182
 20
15.73595468772952
 10
194.000985348991
 20
15.72650524176004
 10
193.9927342754927
 20
15.76264692158784
 10
193.9982346669359
 20
15.80129837613227
 10
193.9955754206163
 20
15.86913528561839
 10
193.9965815471533
 20
15.9459164153874
 10
193.9960178018319
 20
16.02849393582757
 10
193.9970714526592
 20
16.10517329229878
 10
193.994267586313
 20
16.173319907767
 10
194.0000702721304
 20
16.21132399809346
 10
193.9915654551158
 20
16.24758448077646
 10
194.0255610233125
 20
16.23755723771853
 10
194.05945756831
 20
16.24073266813706
 10
194.1126669060346
 20
16.2350896564061
 10
194.1660768574483
 20
16.23434774436425
 10
194.199591464949
 20
16.2281922348298
 10
194.2388086183039
 20
16.23346029773593
 10
194.2120263698493
 20
16.19253380793485
 10
194.1708111001724
 20
16.20371204538113
 10
194.1782641540873
 20
16.15867056192124
 10
194.1742227952184
 20
16.11412278028144
 10
194.176171404964
 20
16.04223572621703
 10
194.1752364849758
 20
15.96168630588771
 10
194.176510719003
 20
15.88173995404994
 10
194.1732043793863
 20
15.80841837083183
 10
194.1802106179961
 20
15.76688643002568
 10
194.1701440380126
 20
15.72752418568113
 10
194.2029814803921
 20
15.73468063430981
 10
194.236457729648
 20
15.73027243137945
 10
194.2915053476019
 20
15.73217943347897
 10
194.3489502595314
 20
15.73185366407288
 10
194.4023026248309
 20
15.73106308733081
 10
194.4398540896639
 20
15.73313959118074
 10
194.4623172523237
 20
15.73022338167109
 10
194.4751678073731
 20
15.73572552644056
 10
194.4858255685888
 20
15.7380111819779
 10
194.4986635650144
 20
15.74494972588053
 10
194.514599103307
 20
15.72853046313672
 10
194.5410623920891
 20
15.71709122319447
 10
194.5726805253758
 20
15.6964468783519
 10
194.5987255892151
 20
15.68116869628293
 10
194.6128517723973
 20
15.67266976323183
 10
194.6170254148479
 20
15.67015871511026
 97
        1
330
B0
 75
     1
 76
     2
 52
45.0
 41
0.1
 77
     0
 78
     1
 53
45.0
 43
0.0
 44
0.0
 45
-0.282842712474619
 46
0.0
 79
     0
 98
        1
 10
0.0
 20
0.0
  0
HATCH
  5
CE
330
48
100
AcDbEntity
  8
1
  6
Continuous
 62
     2
100
AcDbHatch
 10
0.0
 20
0.0
 30
0.0
210
0.0
220
0.0
230
1.0
  2
CUSTOM12
 70
     0
 71
     1
 91
        1
 92
        1
 93
        1
 72
     4
 94
        3
 73
     0
 74
     0
 95
      124
 96
      120
 40
0.0
 40
0.0
 40
0.0
 40
0.0
 40
0.027818722962451
 40
0.1011590162384269
 40
0.2048470170590239
 40
0.3237088716559245
 40
0.4425707262522
 40
0.5462587270699547
 40
0.6195990203311798
 40
0.647417752257866
 40
0.6750060736115224
 40
0.7357003855242759
 40
0.7963946998054492
 40
0.8239830245571784
 40
0.8540933811102878
 40
0.9373396629409558
 40
1.063094687343237
 40
1.220731268638075
 40
1.399622220914749
 40
1.589140358637734
 40
1.7786584964239
 40
1.957549448940511
 40
2.11518603087316
 40
2.240941056914465
 40
2.324187341760534
 40
2.354297700109384
 40
2.38188602467189
 40
2.442580338710479
 40
2.503274652750503
 40
2.53086297731461
 40
2.560983949278563
 40
2.640393784452908
 40
2.752662861759132
 40
2.881361560118148
 40
3.010060258455195
 40
3.122329335705342
 40
3.201739170817956
 40
3.231860142753317
 40
3.264298024030372
 40
3.352343701778243
 40
3.482095226868764
 40
3.639650650173022
 40
3.811108022565477
 40
3.982565394927982
 40
4.140120818152561
 40
4.269872343141269
 40
4.357918020802329
 40
4.390355902043958
 40
4.423256253992528
 40
4.508104530073049
 40
4.624121560636817
 40
4.750528176031573
 40
4.86654520660202
 40
4.951393482691977
 40
4.984293834645379
 40
5.011450833242296
 40
5.071196230152085
 40
5.130941627057164
 40
5.158098625648832
 40
5.190998977601523
 40
5.275847253689348
 40
5.391864284256783
 40
5.518270899648328
 40
5.634287930209367
 40
5.719136206288041
 40
5.752036558235928
 40
5.782130946282954
 40
5.862783906229128
 40
5.979550131774995
 40
6.117984316640402
 40
6.263641154587947
 40
6.402075339414153
 40
6.518841564907947
 40
6.599494524815529
 40
6.629588912848766
 40
6.654403028226342
 40
6.71357514948811
 40
6.784199939329427
 40
6.843372060493529
 40
6.868186175802775
 40
6.896246243201855
 40
6.939586233758251
 40
6.967846564564879
 40
7.043584251089817
 40
7.153234334451676
 40
7.283231855734425
 40
7.420011856035459
 40
7.550009376579811
 40
7.65965945883521
 40
7.735397144417203
 40
7.763657474851375
 40
7.796409728011032
 40
7.880876065096307
 40
7.996370852465692
 40
8.122208446418588
 40
8.237703224799182
 40
8.322169562010876
 40
8.35492181520589
 40
8.382078813307672
 40
8.441824209206981
 40
8.501569605240135
 40
8.528726603485715
 40
8.561478856695764
 40
8.645945193877814
 40
8.761439980865326
 40
8.887277580764469
 40
9.00277236200099
 40
9.08723869666121
 40
9.119990949235664
 40
9.152428830613362
 40
9.240474508638577
 40
9.370226034149525
 40
9.527781457984407
 40
9.699238830981395
 40
9.870696203978584
 40
10.028251627814
 40
10.15800315332562
 40
10.24604883135117
 40
10.27848670378519
 40
10.27848670378519
 40
10.27848670378519
 40
10.27848670378519
 10
195.3821827564383
 20
14.01410517385757
 10
195.3914554737523
 20
14.01410498511274
 10
195.4251744536861
 20
14.01410430876714
 10
195.4934706812465
 20
14.01411807243305
 10
195.592014171158
 20
14.01403224219544
 10
195.7062066464812
 20
14.01441755612251
 10
195.818589441707
 20
14.01300835897545
 10
195.9214376600118
 20
14.01719117422243
 10
195.9806839874849
 20
14.00823089251983
 10
196.0371265937032
 20
14.02164434526061
 10
196.0246255586955
 20
13.97087198613361
 10
196.0329549635704
 20
13.92589320939067
 10
196.0248170841119
 20
13.88056752990488
 10
196.0370529214457
 20
13.82931932408466
 10
195.9747773490333
 20
13.84447955365276
 10
195.9060513026868
 20
13.83359750710742
 10
195.7782756749592
 20
13.83911304747972
 10
195.6262984511643
 20
13.83700851253698
 10
195.4502695972523
 20
13.83771002588473
 10
195.2644431934287
 20
13.83745237531291
 10
195.0786167437175
 20
13.83771005144602
 10
194.9025880142168
 20
13.83700841847731
 10
194.7506104154195
 20
13.83911332229989
 10
194.6228357664554
 20
13.8335968076764
 10
194.554107783658
 20
13.84448077125942
 10
194.4918349042883
 20
13.82931786684209
 10
194.5040616290017
 20
13.88057510805171
 10
194.4960004462597
 20
13.92582473272425
 10
194.5040675809892
 20
13.97106357955323
 10
194.4918238487083
 20
14.02234176909958
 10
194.5525017120697
 20
14.00749577363134
 10
194.6162810745736
 20
14.01756448170735
 10
194.7277314353502
 20
14.01294644211999
 10
194.8497533443824
 20
14.01413328905469
 10
194.9719538137823
 20
14.01515863900634
 10
195.0829794287392
 20
14.01092475623401
 10
195.1476517413958
 20
14.02018584521739
 10
195.2091162810501
 20
14.00604423049682
 10
195.1930065601337
 20
14.07235527884517
 10
195.2042980327358
 20
14.14447790121975
 10
195.198740082256
 20
14.27513760888285
 10
195.200803506169
 20
14.42607323708241
 10
195.2000167127295
 20
14.59335873107885
 10
195.2007845215628
 20
14.76061110332302
 10
195.1988038785628
 20
14.91163289269912
 10
195.2041306156621
 20
15.04206069552994
 10
195.1933101388425
 20
15.11465442605898
 10
195.2090326429875
 20
15.18150469436797
 10
195.143270813249
 20
15.16580512490823
 10
195.0756367830764
 20
15.17609243083994
 10
194.9615885293809
 20
15.17113786847121
 10
194.8451242674902
 20
15.17414128030474
 10
194.7306554121477
 20
15.16880303143387
 10
194.6640324657812
 20
15.18001268074824
 10
194.5990769715185
 20
15.1634913266501
 10
194.6107989758708
 20
15.21473720477058
 10
194.6032830189121
 20
15.25950333784091
 10
194.6107989878835
 20
15.30426944897961
 10
194.5990769505346
 20
15.35551536129741
 10
194.66403263392
 20
15.33899381766816
 10
194.7306533339822
 20
15.35020571373943
 10
194.8451352858063
 20
15.34485436710665
 10
194.9615454436962
 20
15.34791188771117
 10
195.0757660174641
 20
15.34278499010708
 10
195.1430150439227
 20
15.35345733355598
 10
195.2083325941438
 20
15.33742082669077
 10
195.1941391448553
 20
15.39949685750054
 10
195.2036059462994
 20
15.46586761628762
 10
195.1990269004085
 20
15.58239972741966
 10
195.2007696555948
 20
15.71426685022376
 10
195.1997551495391
 20
15.85615960150273
 10
195.2017191344373
 20
15.9876905070258
 10
195.1964668553851
 20
16.10524577283002
 10
195.2073408763474
 20
16.16947789001584
 10
195.1919536641853
 20
16.23108802545047
 10
195.24075915378
 20
16.21702407382111
 10
195.2853995564726
 20
16.21954742075314
 10
195.3538643946742
 20
16.2151279740171
 10
195.3959106169102
 20
16.20613025544035
 10
195.4487544758775
 20
16.2141171486651
 10
195.4207035002014
 20
16.17113917611674
 10
195.3749142248594
 20
16.18259552043837
 10
195.3869539073264
 20
16.12173520005137
 10
195.3796086070641
 20
16.05769299468773
 10
195.3831195826162
 20
15.94909368863911
 10
195.3819806760173
 20
15.82494319144753
 10
195.3819174780263
 20
15.69189719829878
 10
195.3832872966867
 20
15.56797381249555
 10
195.3791638801314
 20
15.45868337849339
 10
195.3877763103564
 20
15.3960858009417
 10
195.3746757454401
 20
15.33740133296365
 10
195.4393884328198
 20
15.35362113810902
 10
195.5060405953155
 20
15.34270260383311
 10
195.6198779541103
 20
15.34793740173756
 10
195.7357259122097
 20
15.34485547516913
 10
195.849692426328
 20
15.35018259812512
 10
195.9160341018099
 20
15.33904208166543
 10
195.980718852548
 20
15.35546979593178
 10
195.9689820772722
 20
15.3042592521005
 10
195.976516806304
 20
15.25950334121
 10
195.9689820992258
 20
15.21474739010026
 10
195.9807188140736
 20
15.16353690871039
 10
195.9160344075252
 20
15.17996427794219
 10
195.8496886430824
 20
15.16882784447268
 10
195.7357459487012
 20
15.17413115893119
 10
195.6197995623054
 20
15.17114764593543
 10
195.5062756882122
 20
15.17606892268392
 10
195.4389231318804
 20
15.16585087513518
 10
195.3734285122495
 20
15.18145996138814
 10
195.3891713619218
 20
15.1146385182741
 10
195.3783275998213
 20
15.04207057815878
 10
195.3836581629793
 20
14.91162247614415
 10
195.3817136151855
 20
14.76064558185225
 10
195.3823133683215
 20
14.59322243934158
 10
195.3821506559604
 20
14.42656176118371
 10
195.3821895488136
 20
14.27360142921636
 10
195.3821816413099
 20
14.14849178985705
 10
195.3821828382744
 20
14.06507890991419
 10
195.3821827716208
 20
14.02491778281976
 10
195.3821827564383
 20
14.01410517385757
 97
        1
330
B1
 75
     1
 76
     2
 52
45.0
 41
0.1
 77
     0
 78
     1
 53
45.0
 43
0.0
 44
0.0
 45
-0.282842712474619
 46
0.0
 79
     0
 98
        1
 10
0.0
 20
0.0
  0
HATCH
  5
CF
330
48
100
AcDbEntity
  8
1
  6
Continuous
 62
     2
100
AcDbHatch
 10
0.0
 20
0.0
 30
0.0
210
0.0
220
0.0
230
1.0
  2
CUSTOM13
 70
     0
 71
     1
 91
        1
 92
        1
 93
        3
 72
     4
 94
        3
 73
     0
 74
     0
 95
       24
 96
       20
 40
0.0
 40
0.0
 40
0.0
 40
0.0
 40
0.221107500875392
 40
0.4273218586245447
 40
0.5080174679239492
 40
0.5914835907870344
 40
0.8143265690192891
 40
1.054651302686605
 40
1.295452694023193
 40
1.518109231328849
 40
1.540864321905464
 40
1.595126460622725
 40
1.659890947896039
 40
1.714153085187397
 40
1.736908174961697
 40
1.764951100735384
 40
1.801562291220974
 40
1.953914424543656
 40
2.12610416737972
 40
2.12610416737972
 40
2.12610416737972
 40
2.12610416737972
 10
185.9375369556889
 20
15.58989295113016
 10
185.9112579081811
 20
15.53097628234374
 10
185.8604698894425
 20
15.41711139679257
 10
185.8131784839111
 20
15.14441958233113
 10
185.7043482802618
 20
15.24445482575455
 10
185.5514800279636
 20
15.27118593367328
 10
185.7686155181199
 20
15.48518135017632
 10
185.7838483674381
 20
15.70332117782486
 10
185.8906889492
 20
15.88451579066425
 10
185.8305380947078
 20
16.16913226311403
 10
185.9334317395402
 20
16.14114089222451
 10
185.977993346815
 20
16.13243251602299
 10
186.0380842395397
 20
16.12139654183355
 10
186.0756619587438
 20
16.10767523055559
 10
186.1252466928606
 20
16.10756076160223
 10
186.0930158919325
 20
16.07306592398623
 10
186.0171802221881
 20
16.08404104537964
 10
186.0429447159694
 20
15.89858969582451
 10
186.0055896763851
 20
15.80702313549588
 10
185.985770496161
 20
15.75844135397704
 72
     4
 94
        3
 73
     0
 74
     0
 95
       70
 96
       66
 40
0.0
 40
0.0
 40
0.0
 40
0.0
 40
0.0241731073021472
 40
0.0846058988986729
 40
0.1631685280352999
 40
0.2417311571788903
 40
0.3021639488291898
 40
0.3263370654894688
 40
0.3533118254248028
 40
0.4228783438921294
 40
0.5179999095312621
 40
0.6216398239465285
 40
0.716761389149896
 40
0.7863279069649117
 40
0.813302679176109
 40
0.8372943998770928
 40
0.8945054261372123
 40
0.9627895541962177
 40
1.020000580349084
 40
1.043992300975182
 40
1.071934345522964
 40
1.113121768772894
 40
1.145225199332218
 40
1.225483775412757
 40
1.329819923771469
 40
1.434156071994362
 40
1.514414647795783
 40
1.546518078208391
 40
1.578974764260193
 40
1.662678849314131
 40
1.777131373668352
 40
1.901833377474743
 40
2.016285900500504
 40
2.099989982527843
 40
2.132446666570202
 40
2.158782354485925
 40
2.216720867907714
 40
2.274659381334136
 40
2.300995069256071
 40
2.333451754066044
 40
2.417155836543696
 40
2.531608358985135
 40
2.65631036228363
 40
2.770762886388734
 40
2.854466971339871
 40
2.886923657363678
 40
2.91359797683311
 40
2.982389642874915
 40
3.07645171694678
 40
3.178937260458392
 40
3.272999334739797
 40
3.341791001059018
 40
3.368465320663331
 40
3.396976080738552
 40
3.47214081184576
 40
3.578408190308449
 40
3.700226892455857
 40
3.822045594634075
 40
3.928312973256153
 40
4.00347770531455
 40
4.031988456866616
 40
4.058324144797414
 40
4.116262658236572
 40
4.174201171400366
 40
4.200536849608298
 40
4.200536849608298
 40
4.200536849608298
 40
4.200536849608298
 10
185.985770496161
 20
15.75844135397704
 10
185.993825954468
 20
15.75844359811686
 10
186.0220200663241
 20
15.75845146032796
 10
186.0765534803674
 20
15.7583075482837
 10
186.1482891808604
 20
15.75909120499897
 10
186.2236240137062
 20
15.7562757046381
 10
186.2713052366439
 20
15.76298403400956
 10
186.3195071245616
 20
15.75197563692432
 10
186.3062571799873
 20
15.80546402997032
 10
186.3151093964538
 20
15.86049583543091
 10
186.3108698036285
 20
15.95419908726108
 10
186.313348348128
 20
16.04959482218531
 10
186.309093870606
 20
16.14356821983387
 10
186.3179818665846
 20
16.19795062438012
 10
186.3046977409945
 20
16.2523399769146
 10
186.3514119277109
 20
16.23842216335358
 10
186.3943254545736
 20
16.24103877374043
 10
186.4605443456685
 20
16.23648422450754
 10
186.5013342271799
 20
16.22778162134163
 10
186.5525145690819
 20
16.23531799890193
 10
186.5253720487201
 20
16.19349970223291
 10
186.4803096055707
 20
16.20284992072592
 10
186.4942065045051
 20
16.13841207371837
 10
186.4858414431655
 20
16.07378219627398
 10
186.4903632178399
 20
15.97529141193887
 10
186.4854741311169
 20
15.8759593284257
 10
186.4950258992081
 20
15.81293115552966
 10
186.4799761455202
 20
15.74964011499787
 10
186.5449159457208
 20
15.76515072944267
 10
186.6116246399498
 20
15.75499387697812
 10
186.7241435470828
 20
15.75988800099366
 10
186.8390235448954
 20
15.75691204732783
 10
186.9519871999746
 20
15.7622166418499
 10
187.0176267597679
 20
15.75107306472088
 10
187.0816276691053
 20
15.76744532319856
 10
187.070314288919
 20
15.71761689905274
 10
187.0775339871509
 20
15.67416715212121
 10
187.0703142611269
 20
15.63071745587443
 10
187.0816277175994
 20
15.58088895196875
 10
187.0176263598971
 20
15.59726166091361
 10
186.951992124046
 20
15.58611271661587
 10
186.838997431733
 20
15.59144857206853
 10
186.7242456548643
 20
15.5883434566382
 10
186.6113183686861
 20
15.59364894682588
 10
186.5455220903585
 20
15.58257300019592
 10
186.4816097975359
 20
15.59887597847617
 10
186.4936015165127
 20
15.5442352439574
 10
186.4862104613006
 20
15.48854295047841
 10
186.4892684841984
 20
15.39649689140569
 10
186.4893422785684
 20
15.301791098731
 10
186.4860313578361
 20
15.20952782902264
 10
186.4939505989904
 20
15.15435768736139
 10
186.4815076611618
 20
15.10058169100135
 10
186.5389116551633
 20
15.1145376886278
 10
186.5994708140383
 20
15.10511457884226
 10
186.7048680855081
 20
15.10942885928703
 10
186.8204294070623
 20
15.1083550461203
 10
186.9359688877797
 20
15.10725965900993
 10
187.0414181130841
 20
15.11162525770632
 10
187.1018680471803
 20
15.10209426030669
 10
187.1592837739111
 20
15.11617289606379
 10
187.1477773876708
 20
15.06707153265681
 10
187.1537566781749
 20
15.02564658018649
 10
187.1520311050801
 20
14.97651677966695
 10
187.1521500122971
 20
14.94854428447608
 10
187.1521871691833
 20
14.9398028819595
 72
     4
 94
        3
 73
     0
 74
     0
 95
       62
 96
       58
 40
0.0
 40
0.0
 40
0.0
 40
0.0
 40
0.0598250028308485
 40
0.2024846486897331
 40
0.3727558389221031
 40
0.515415484793607
 40
0.5752404975785339
 40
0.9332326775487276
 40
1.290451762839478
 40
1.602077253145877
 40
1.69993163411211
 40
1.799359756425045
 40
2.270120149657086
 40
2.804661928461491
 40
2.8823422873832
 40
3.076543185719051
 40
3.329004354835511
 40
3.581465524568336
 40
3.775666424543616
 40
3.853346784558236
 40
3.89912067959501
 40
3.984129341792037
 40
4.029903236817414
 40
4.105797496059568
 40
4.295533144152528
 40
4.542189486611764
 40
4.788845828875712
 40
4.978581476410093
 40
5.054475735244336
 40
5.621734664339343
 40
6.130867242037361
 40
6.225249780948574
 40
6.318913039727304
 40
6.663579954558928
 40
7.047498900224801
 40
7.435230791575721
 40
7.498943906668133
 40
7.650875181210127
 40
7.832212509001637
 40
7.984143783697023
 40
8.04785689890315
 40
8.091554632732654
 40
8.172707566964306
 40
8.216405300768027
 40
8.289021782160912
 40
8.462184160757285
 40
8.668861838005366
 40
8.842024215263958
 40
8.914640695475153
 40
8.989881580861358
 40
9.155411528827265
 40
9.320941477744052
 40
9.396182352487301
 40
9.454709011143848
 40
9.583467660170783
 40
9.712226309013062
 40
9.770752957989515
 40
9.770752957989515
 40
9.770752957989515
 40
9.770752957989515
 10
187.1521871691833
 20
14.9398028819595
 10
187.1322348171623
 20
14.93980875568671
 10
187.0647037716466
 20
14.93982863806157
 10
186.9410612161788
 20
14.93949362520326
 10
186.7863180150056
 20
14.94107673750511
 10
186.669734948248
 20
14.93686078860495
 10
186.4550942634239
 20
14.95215205331625
 10
186.8518948407229
 20
14.59198721286193
 10
186.8945656069267
 20
14.37510503397165
 10
187.3189162146611
 20
14.19325062511449
 10
187.1439821496074
 20
14.0898519656807
 10
187.0194523925083
 20
13.87831523212726
 10
186.7666277235944
 20
14.34806081001557
 10
186.4797602893626
 20
14.99511516984519
 10
186.4906335926662
 20
14.68782672154693
 10
186.488289277796
 20
14.52288616971777
 10
186.4861096126412
 20
14.28879670711693
 10
186.4980774396348
 20
14.04498072421783
 10
186.4687984740632
 20
13.89855796860984
 10
186.511452262547
 20
13.75113490174537
 10
186.423981400564
 20
13.76685797306221
 10
186.3768527606744
 20
13.76694303543455
 10
186.2898973207713
 20
13.75109425482909
 10
186.3313474021722
 20
13.89527771422762
 10
186.3029875004285
 20
14.03855052698455
 10
186.3145973775299
 20
14.27674947365264
 10
186.3124175648272
 20
14.50517235240346
 10
186.3103111127993
 20
14.66705729375994
 10
186.3208035438323
 20
14.9815370933375
 10
186.0128963252893
 20
14.29229470872439
 10
185.7055258267456
 20
13.81476750243046
 10
185.5851367066275
 20
14.03741112637429
 10
185.4074607910721
 20
14.15011034955559
 10
185.8853326362894
 20
14.32548143465463
 10
185.9353959057208
 20
14.56091929252028
 10
186.3583799621717
 20
14.95322989344606
 10
186.127675427354
 20
14.93655307029066
 10
186.004968585934
 20
14.9426951894877
 10
185.8325483095662
 20
14.93312822699574
 10
185.7213224694449
 20
14.95448818489666
 10
185.6025779627447
 20
14.92136265357419
 10
185.6183169706686
 20
15.00203900606883
 10
185.6178550933762
 20
15.04645414290853
 10
185.6027881889931
 20
15.12967081778532
 10
185.7372380935443
 20
15.09062651983882
 10
185.8619755545747
 20
15.11739729328421
 10
186.062875523728
 20
15.10063949044051
 10
186.1921540949352
 20
15.12204225913003
 10
186.3328419928295
 20
15.08868778853419
 10
186.2980927452614
 20
15.22651875785067
 10
186.3222185666714
 20
15.3496325734948
 10
186.2967086182391
 20
15.47024055670334
 10
186.3333251146685
 20
15.60539865141494
 10
186.2211417027769
 20
15.58094545781889
 10
186.1280356457136
 20
15.59307749842021
 10
186.0191547579819
 20
15.58957630069992
 10
185.9569697640964
 20
15.58981755951602
 10
185.9375369557246
 20
15.58989295124143
 97
        3
330
B3
330
B4
330
B2
 75
     1
 76
     2
 52
45.0
 41
0.1
 77
     0
 78
     1
 53
45.0
 43
0.0
 44
0.0
 45
-0.282842712474619
 46
0.0
 79
     0
 98
        1
 10
0.0
 20
0.0
  0
HATCH
  5
D0
330
48
100
AcDbEntity
  8
1
  6
Continuous
 62
     2
100
AcDbHatch
 10
0.0
 20
0.0
 30
0.0
210
0.0
220
0.0
230
1.0
  2
CUSTOM14
 70
     0
 71
     1
 91
        1
 92
        1
 93
        4
 72
     1
 10
192.4578138032672
 20
15.22875434022056
 11
191.1602971697031
 21
15.22875434022056
 72
     1
 10
191.1602971697031
 20
15.22875434022056
 11
191.1602971697031
 21
15.39722336795625
 72
     1
 10
191.1602971697031
 20
15.39722336795625
 11
192.4578138032672
 21
15.39722336795625
 72
     1
 10
192.4578138032672
 20
15.39722336795625
 11
192.4578138032672
 21
15.22875434022056
 97
        1
330
B5
 75
     1
 76
     2
 52
45.0
 41
0.1
 77
     0
 78
     1
 53
45.0
 43
0.0
 44
0.0
 45
-0.282842712474619
 46
0.0
 79
     0
 98
        1
 10
0.0
 20
0.0
  0
ENDBLK
  5
4A
330
48
100
AcDbEntity
  8
0
100
AcDbBlockEnd
  0
BLOCK
  5
4D
330
4B
100
AcDbEntity
  8
0
100
AcDbBlockBegin
  2
開示A4枠
 70
     0
 10
0.0
 20
0.0
 30
0.0
  3
開示A4枠
  1

  0
INSERT
  5
4C
330
4B
100
AcDbEntity
  8
1
100
AcDbBlockReference
  2
開示A4
 10
0.0
 20
0.0
 30
0.0
  0
ENDBLK
  5
4E
330
4B
100
AcDbEntity
  8
0
100
AcDbBlockEnd
  0
BLOCK
  5
50
330
4F
100
AcDbEntity
  8
0
100
AcDbBlockBegin
  2
T24-20X13
 70
     0
 10
95.07890662870668
 20
111.8984382156958
 30
0.0
  3
T24-20X13
  1

  0
LINE
  5
D1
330
4F
100
AcDbEntity
  8
1
  6
Continuous
 62
     7
100
AcDbLine
 10
111.2447141660162
 20
113.0979220866635
 30
0.0
 11
123.7941980369839
 21
113.0979220866635
 31
0.0
  0
LINE
  5
D2
330
4F
100
AcDbEntity
  8
1
  6
Continuous
 62
     2
100
AcDbLine
 10
123.2367199669675
 20
126.7706238461399
 30
0.0
 11
124.4652141660161
 21
128.8984382156958
 31
0.0
  0
LINE
  5
D3
330
4F
100
AcDbEntity
  8
1
  6
Continuous
 62
     2
100
AcDbLine
 10
122.7776819079518
 20
112.0814059576312
 30
0.0
 11
123.2367199669675
 21
126.7706238461399
 31
0.0
  0
LINE
  5
D4
330
4F
100
AcDbEntity
  8
1
  6
Continuous
 62
     7
100
AcDbLine
 10
111.2447141660162
 20
126.7706238461399
 30
0.0
 11
123.2367199669675
 21
126.7706238461399
 31
0.0
  0
LINE
  5
D5
330
4F
100
AcDbEntity
  8
1
  6
Continuous
 62
     7
100
AcDbLine
 10
124.4652141660161
 20
128.8984382156958
 30
0.0
 11
111.2447141660162
 21
128.8984382156958
 31
0.0
  0
LINE
  5
D6
330
4F
100
AcDbEntity
  8
1
  6
Continuous
 62
     7
100
AcDbLine
 10
119.3276179346709
 20
132.8266414459713
 30
0.0
 11
119.3276179346709
 21
129.9702349854203
 31
0.0
  0
LINE
  5
D7
330
4F
100
AcDbEntity
  8
1
  6
Continuous
 62
     7
100
AcDbLine
 10
127.4105217033257
 20
193.2780244404922
 30
0.0
 11
119.327617934671
 21
207.2780244404922
 31
0.0
  0
LINE
  5
D8
330
4F
100
AcDbEntity
  8
1
  6
Continuous
 62
     7
100
AcDbLine
 10
119.327617934671
 20
179.2780244404922
 30
0.0
 11
127.4105217033257
 21
193.2780244404922
 31
0.0
  0
LINE
  5
D9
330
4F
100
AcDbEntity
  8
1
  6
Continuous
 62
     7
100
AcDbLine
 10
119.327617934671
 20
179.2780244404922
 30
0.0
 11
103.1618103973615
 21
179.2780244404922
 31
0.0
  0
LINE
  5
DA
330
4F
100
AcDbEntity
  8
1
  6
Continuous
 62
     7
100
AcDbLine
 10
95.07890662870668
 20
193.2780244404922
 30
0.0
 11
103.1618103973615
 21
179.2780244404922
 31
0.0
  0
LINE
  5
DB
330
4F
100
AcDbEntity
  8
1
  6
Continuous
 62
     7
100
AcDbLine
 10
103.1618103973615
 20
207.2780244404922
 30
0.0
 11
95.07890662870668
 21
193.2780244404922
 31
0.0
  0
LINE
  5
DC
330
4F
100
AcDbEntity
  8
1
  6
Continuous
 62
     7
100
AcDbLine
 10
103.1618103973615
 20
207.2780244404922
 30
0.0
 11
119.327617934671
 21
207.2780244404922
 31
0.0
  0
LINE
  5
DD
330
4F
100
AcDbEntity
  8
1
  6
Continuous
 62
     7
100
AcDbLine
 10
127.4105217033257
 20
132.8266414459713
 30
0.0
 11
127.4105217033257
 21
129.9702349854203
 31
0.0
  0
LINE
  5
DE
330
4F
100
AcDbEntity
  8
1
  6
Continuous
 62
     7
100
AcDbLine
 10
103.1618103973615
 20
129.9702349854203
 30
0.0
 11
103.1618103973615
 21
132.8266414459713
 31
0.0
  0
LINE
  5
DF
330
4F
100
AcDbEntity
  8
1
  6
Continuous
 62
     7
100
AcDbLine
 10
99.12035851303409
 20
133.8984382156958
 30
0.0
 11
121.9947141660162
 21
133.8984382156958
 31
0.0
  0
LINE
  5
E0
330
4F
100
AcDbEntity
  8
1
  6
Continuous
 62
     7
100
AcDbLine
 10
124.9947141660162
 20
133.8984382156958
 30
0.0
 11
127.4105217033257
 21
132.8266414459713
 31
0.0
  0
LINE
  5
E1
330
4F
100
AcDbEntity
  8
1
  6
Continuous
 62
     7
100
AcDbLine
 10
127.4105217033257
 20
129.9702349854203
 30
0.0
 11
124.9947141660162
 21
128.8984382156958
 31
0.0
  0
LINE
  5
E2
330
4F
100
AcDbEntity
  8
1
  6
Continuous
 62
     7
100
AcDbLine
 10
97.49471416601617
 20
133.8984382156958
 30
0.0
 11
121.9947141660162
 21
133.8984382156958
 31
0.0
  0
LINE
  5
E3
330
4F
100
AcDbEntity
  8
1
  6
Continuous
 62
     7
100
AcDbLine
 10
95.07890662870668
 20
129.9702349854203
 30
0.0
 11
95.07890662870668
 21
132.8266414459713
 31
0.0
  0
LINE
  5
E4
330
4F
100
AcDbEntity
  8
1
  6
Continuous
 62
     7
100
AcDbLine
 10
96.58069603911737
 20
129.3039513456741
 30
0.0
 11
95.07890662870668
 21
129.9702349854203
 31
0.0
  0
LINE
  5
E5
330
4F
100
AcDbEntity
  8
1
  6
Continuous
 62
     7
100
AcDbLine
 10
97.49471416601617
 20
133.8984382156958
 30
0.0
 11
121.9947141660162
 21
133.8984382156958
 31
0.0
  0
LINE
  5
E6
330
4F
100
AcDbEntity
  8
1
  6
Continuous
 62
     7
100
AcDbLine
 10
96.58069603911737
 20
129.3039513456741
 30
0.0
 11
95.07890662870668
 21
129.9702349854203
 31
0.0
  0
LINE
  5
E7
330
4F
100
AcDbEntity
  8
1
  6
Continuous
 62
     7
100
AcDbLine
 10
97.49471416601617
 20
128.8984382156958
 30
0.0
 11
96.58069603911737
 21
129.3039513456741
 31
0.0
  0
LINE
  5
E8
330
4F
100
AcDbEntity
  8
1
  6
Continuous
 62
     7
100
AcDbLine
 10
111.2447141660162
 20
128.8984382156958
 30
0.0
 11
98.02421416601607
 21
128.8984382156958
 31
0.0
  0
LINE
  5
E9
330
4F
100
AcDbEntity
  8
1
  6
Continuous
 62
     7
100
AcDbLine
 10
95.07890662870668
 20
129.9702349854203
 30
0.0
 11
95.07890662870668
 21
132.8266414459713
 31
0.0
  0
LINE
  5
EA
330
4F
100
AcDbEntity
  8
1
  6
Continuous
 62
     7
100
AcDbLine
 10
95.07890662870668
 20
132.8266414459713
 30
0.0
 11
96.58069603911737
 21
133.4929250857174
 31
0.0
  0
LINE
  5
EB
330
4F
100
AcDbEntity
  8
1
  6
Continuous
 62
     7
100
AcDbLine
 10
96.58069603911737
 20
133.4929250857174
 30
0.0
 11
97.49471416601617
 21
133.8984382156958
 31
0.0
  0
LINE
  5
EC
330
4F
100
AcDbEntity
  8
1
  6
Continuous
 62
     7
100
AcDbLine
 10
98.02421416601607
 20
128.8984382156958
 30
0.0
 11
98.09070836506477
 21
126.7706238461399
 31
0.0
  0
LINE
  5
ED
330
4F
100
AcDbEntity
  8
1
  6
Continuous
 62
     7
100
AcDbLine
 10
98.51226255311289
 20
113.280889828599
 30
0.0
 11
98.69523029504836
 21
113.0979220866635
 31
0.0
  0
LINE
  5
EE
330
4F
100
AcDbEntity
  8
1
  6
Continuous
 62
     2
100
AcDbLine
 10
98.02421416601607
 20
128.8984382156958
 30
0.0
 11
99.25270836506488
 21
126.7706238461399
 31
0.0
  0
LINE
  5
EF
330
4F
100
AcDbEntity
  8
1
  6
Continuous
 62
     7
100
AcDbLine
 10
98.02421416601607
 20
128.8984382156958
 30
0.0
 11
97.49471416601617
 21
128.8984382156958
 31
0.0
  0
LINE
  5
F0
330
4F
100
AcDbEntity
  8
1
  6
Continuous
 62
     2
100
AcDbLine
 10
99.25270836506488
 20
126.7706238461399
 30
0.0
 11
99.71174642408057
 21
112.0814059576312
 31
0.0
  0
LINE
  5
F1
330
4F
100
AcDbEntity
  8
1
  6
Continuous
 62
     7
100
AcDbLine
 10
98.09070836506477
 20
126.7706238461399
 30
0.0
 11
99.25270836506488
 21
126.7706238461399
 31
0.0
  0
LINE
  5
F2
330
4F
100
AcDbEntity
  8
1
  6
Continuous
 62
     7
100
AcDbLine
 10
99.89471416601607
 20
111.8984382156958
 30
0.0
 11
120.1675422910163
 21
111.8984382156958
 31
0.0
  0
LINE
  5
F3
330
4F
100
AcDbEntity
  8
1
  6
Continuous
 62
     7
100
AcDbLine
 10
123.9771657789194
 20
113.280889828599
 30
0.0
 11
124.4652141660161
 21
128.8984382156958
 31
0.0
  0
LINE
  5
F4
330
4F
100
AcDbEntity
  8
1
  6
Continuous
 62
     7
100
AcDbLine
 10
98.09070836506477
 20
126.7706238461399
 30
0.0
 11
98.51226255311289
 21
113.280889828599
 31
0.0
  0
LINE
  5
F5
330
4F
100
AcDbEntity
  8
1
  6
Continuous
 62
     7
100
AcDbLine
 10
98.69523029504836
 20
113.0979220866635
 30
0.0
 11
111.2447141660162
 21
113.0979220866635
 31
0.0
  0
LINE
  5
F6
330
4F
100
AcDbEntity
  8
1
  6
Continuous
 62
     7
100
AcDbLine
 10
98.69523029504836
 20
113.0979220866635
 30
0.0
 11
99.71174642408057
 21
112.0814059576312
 31
0.0
  0
LINE
  5
F7
330
4F
100
AcDbEntity
  8
1
  6
Continuous
 62
     7
100
AcDbLine
 10
99.71174642408057
 20
112.0814059576312
 30
0.0
 11
99.89471416601607
 21
111.8984382156958
 31
0.0
  0
LINE
  5
F8
330
4F
100
AcDbEntity
  8
1
  6
Continuous
 62
     7
100
AcDbLine
 10
122.5947141660161
 20
111.8984382156958
 30
0.0
 11
123.7941980369839
 21
113.0979220866635
 31
0.0
  0
LINE
  5
F9
330
4F
100
AcDbEntity
  8
1
  6
Continuous
 62
     7
100
AcDbLine
 10
123.7941980369839
 20
113.0979220866635
 30
0.0
 11
123.9771657789194
 21
113.280889828599
 31
0.0
  0
LINE
  5
FA
330
4F
100
AcDbEntity
  8
1
  6
Continuous
 62
     7
100
AcDbLine
 10
124.9947141660162
 20
128.8984382156958
 30
0.0
 11
124.4652141660161
 21
128.8984382156958
 31
0.0
  0
LINE
  5
FB
330
4F
100
AcDbEntity
  8
1
  6
Continuous
 62
     7
100
AcDbLine
 10
121.9947141660162
 20
133.8984382156958
 30
0.0
 11
124.9947141660162
 21
133.8984382156958
 31
0.0
  0
LINE
  5
FC
330
4F
100
AcDbEntity
  8
1
  6
Continuous
 62
     7
100
AcDbLine
 10
121.9947141660162
 20
133.8984382156958
 30
0.0
 11
123.3690698189983
 21
133.8984382156958
 31
0.0
  0
LINE
  5
FD
330
4F
100
AcDbEntity
  8
1
  6
Continuous
 62
     7
100
AcDbLine
 10
121.9947141660162
 20
133.8984382156958
 30
0.0
 11
123.3690698189983
 21
133.8984382156958
 31
0.0
  0
LINE
  5
FE
330
4F
100
AcDbEntity
  8
1
  6
Continuous
 62
     7
100
AcDbLine
 10
120.2447141660162
 20
111.8984382156958
 30
0.0
 11
122.5947141660161
 21
111.8984382156958
 31
0.0
  0
LINE
  5
FF
330
4F
100
AcDbEntity
  8
1
  6
Continuous
 62
     7
100
AcDbLine
 10
99.25270836506488
 20
126.7706238461399
 30
0.0
 11
111.2447141660162
 21
126.7706238461399
 31
0.0
  0
LINE
  5
100
330
4F
100
AcDbEntity
  8
1
  6
Continuous
 62
     7
100
AcDbLine
 10
120.1675422910163
 20
111.8984382156958
 30
0.0
 11
120.2447141660162
 21
111.8984382156958
 31
0.0
  0
ARC
  5
101
330
4F
100
AcDbEntity
  8
1
  6
Continuous
 62
     7
100
AcDbCircle
 10
123.3690698189982
 20
137.0539403326778
 30
0.0
 40
8.155502116981964
100
AcDbArc
 50
240.2940336537741
 51
288.1439104323953
  0
ARC
  5
102
330
4F
100
AcDbEntity
  8
1
  6
Continuous
 62
     7
100
AcDbCircle
 10
123.3690698189982
 20
125.7429360987137
 30
0.0
 40
8.155502116982092
100
AcDbArc
 50
89.9999999999993
 51
119.7059663462256
  0
ARC
  5
103
330
4F
100
AcDbEntity
  8
1
  6
Continuous
 62
     7
100
AcDbCircle
 10
111.2447141660162
 20
159.9127515290373
 30
0.0
 40
31.01431331334152
100
AcDbArc
 50
270.0
 51
285.1067648147435
  0
ARC
  5
104
330
4F
100
AcDbEntity
  8
1
  6
Continuous
 62
     7
100
AcDbCircle
 10
111.2447141660162
 20
102.8841249023542
 30
0.0
 40
31.01431331334156
100
AcDbArc
 50
74.89323518525654
 51
90.0
  0
ARC
  5
105
330
4F
100
AcDbEntity
  8
1
  6
Continuous
 62
     7
100
AcDbCircle
 10
111.2447141660162
 20
102.8841249023542
 30
0.0
 40
31.01431331334159
100
AcDbArc
 50
90.0
 51
105.1067648147435
  0
ARC
  5
106
330
4F
100
AcDbEntity
  8
1
  6
Continuous
 62
     7
100
AcDbCircle
 10
99.12035851303409
 20
125.7429360987137
 30
0.0
 40
8.155502116982094
100
AcDbArc
 50
60.2940336537737
 51
90.0
  0
ARC
  5
107
330
4F
100
AcDbEntity
  8
1
  6
Continuous
 62
     7
100
AcDbCircle
 10
99.12035851303409
 20
125.7429360987137
 30
0.0
 40
8.155502116982092
100
AcDbArc
 50
90.0
 51
108.1439104323947
  0
ARC
  5
108
330
4F
100
AcDbEntity
  8
1
  6
Continuous
 62
     7
100
AcDbCircle
 10
111.2447141660162
 20
159.9127515290373
 30
0.0
 40
31.01431331334149
100
AcDbArc
 50
254.8932351852565
 51
270.0
  0
ARC
  5
109
330
4F
100
AcDbEntity
  8
1
  6
Continuous
 62
     7
100
AcDbCircle
 10
99.12035851303409
 20
137.0539403326778
 30
0.0
 40
8.155502116982085
100
AcDbArc
 50
251.8560895676053
 51
299.7059663462266
  0
CIRCLE
  5
10A
330
4F
100
AcDbEntity
  8
1
  6
Continuous
 62
     7
100
AcDbCircle
 10
111.2447141660162
 20
193.2780244404922
 30
0.0
 40
10.75
  0
CIRCLE
  5
10B
330
4F
100
AcDbEntity
  8
1
  6
Continuous
 62
     7
100
AcDbCircle
 10
111.2447141660162
 20
193.2780244404922
 30
0.0
 40
13.75
  0
CIRCLE
  5
10C
330
4F
100
AcDbEntity
  8
0
  6
Continuous
 62
     7
100
AcDbCircle
 10
111.2447141660162
 20
193.2780244404922
 30
0.0
 40
9.3155
  0
CIRCLE
  5
10D
330
4F
100
AcDbEntity
  8
0
  6
Continuous
 62
     2
100
AcDbCircle
 10
111.2447141660162
 20
193.2780244404922
 30
0.0
 40
10.47750000000001
  0
CIRCLE
  5
10E
330
4F
100
AcDbEntity
  8
0
  6
Continuous
 62
     7
100
AcDbCircle
 10
111.2447141660162
 20
193.2780244404922
 30
0.0
 40
8.922828125000109
  0
ENDBLK
  5
51
330
4F
100
AcDbEntity
  8
0
100
AcDbBlockEnd
  0
BLOCK
  5
12E
330
127
100
AcDbEntity
  8
0
100
AcDbBlockBegin
  2
*D4
 70
     1
 10
0.0
 20
0.0
 30
0.0
  3
*D4
  1

  0
LINE
  5
128
330
127
100
AcDbEntity
  8
1
  6
Continuous
 62
     2
100
AcDbLine
 10
76.07890662870668
 20
133.8984382156958
 30
0.0
 11
76.07890662870668
 21
111.8984382156958
 31
0.0
  0
LINE
  5
129
330
127
100
AcDbEntity
  8
1
  6
Continuous
 62
     2
100
AcDbLine
 10
99.89471416601607
 20
111.8984382156958
 30
0.0
 11
75.07890662870668
 21
111.8984382156958
 31
0.0
  0
LINE
  5
12A
330
127
100
AcDbEntity
  8
1
  6
Continuous
 62
     2
100
AcDbLine
 10
97.49471416601617
 20
133.8984382156958
 30
0.0
 11
75.07890662870668
 21
133.8984382156958
 31
0.0
  0
SOLID
  5
12B
330
127
100
AcDbEntity
  8
1
 62
     2
100
AcDbTrace
 10
76.53969037026256
 20
130.3984382156958
 30
0.0
 11
75.61812288715079
 21
130.3984382156958
 31
0.0
 12
76.07890662870668
 22
133.8984382156958
 32
0.0
 13
76.07890662870668
 23
133.8984382156958
 33
0.0
  0
SOLID
  5
12C
330
127
100
AcDbEntity
  8
1
 62
     2
100
AcDbTrace
 10
75.61812288715079
 20
115.3984382156958
 30
0.0
 11
76.53969037026256
 21
115.3984382156958
 31
0.0
 12
76.07890662870668
 22
111.8984382156958
 32
0.0
 13
76.07890662870668
 23
111.8984382156958
 33
0.0
  0
MTEXT
  5
12D
330
127
100
AcDbEntity
  8
1
 62
     7
100
AcDbMText
 10
75.07890662870668
 20
120.5142956449767
 30
0.0
 40
3.5
 41
0.0
 71
     7
 72
     1
  1
22
  7
CONVERTER_12
 11
0.0
 21
1.0
 31
0.0
 73
     1
 44
0.60024009603842
  0
ENDBLK
  5
12F
330
127
100
AcDbEntity
  8
0
100
AcDbBlockEnd
  0
BLOCK
  5
139
330
132
100
AcDbEntity
  8
0
100
AcDbBlockBegin
  2
*D5
 70
     1
 10
0.0
 20
0.0
 30
0.0
  3
*D5
  1

  0
LINE
  5
133
330
132
100
AcDbEntity
  8
1
  6
Continuous
 62
     2
100
AcDbLine
 10
95.07890662870672
 20
218.2780244404922
 30
0.0
 11
127.4105217033257
 21
218.2780244404922
 31
0.0
  0
LINE
  5
134
330
132
100
AcDbEntity
  8
1
  6
Continuous
 62
     2
100
AcDbLine
 10
127.4105217033257
 20
193.2780244404922
 30
0.0
 11
127.4105217033257
 21
219.2780244404922
 31
0.0
  0
LINE
  5
135
330
132
100
AcDbEntity
  8
1
  6
Continuous
 62
     2
100
AcDbLine
 10
95.07890662870672
 20
193.2780244404922
 30
0.0
 11
95.07890662870672
 21
219.2780244404922
 31
0.0
  0
SOLID
  5
136
330
132
100
AcDbEntity
  8
1
 62
     2
100
AcDbTrace
 10
98.57890662870672
 20
218.7388081820481
 30
0.0
 11
98.57890662870672
 21
217.8172406989363
 31
0.0
 12
95.07890662870672
 22
218.2780244404922
 32
0.0
 13
95.07890662870672
 23
218.2780244404922
 33
0.0
  0
SOLID
  5
137
330
132
100
AcDbEntity
  8
1
 62
     2
100
AcDbTrace
 10
123.9105217033257
 20
217.8172406989363
 30
0.0
 11
123.9105217033257
 21
218.7388081820481
 31
0.0
 12
127.4105217033257
 22
218.2780244404922
 32
0.0
 13
127.4105217033257
 23
218.2780244404922
 33
0.0
  0
MTEXT
  5
138
330
132
100
AcDbEntity
  8
1
 62
     7
100
AcDbMText
 10
108.2702811885925
 20
219.2780244404922
 30
0.0
 40
3.5
 41
0.0
 71
     7
 72
     1
  1
32
  7
CONVERTER_12
 11
0.9999999999970619
 21
2.424068405545306E-6
 31
0.0
 73
     1
 44
0.60024009603842
  0
ENDBLK
  5
13A
330
132
100
AcDbEntity
  8
0
100
AcDbBlockEnd
  0
BLOCK
  5
144
330
13D
100
AcDbEntity
  8
0
100
AcDbBlockBegin
  2
*D6
 70
     1
 10
0.0
 20
0.0
 30
0.0
  3
*D6
  1

  0
LINE
  5
13E
330
13D
100
AcDbEntity
  8
1
  6
Continuous
 62
     2
100
AcDbLine
 10
136.4105217033257
 20
207.2780244404922
 30
0.0
 11
136.4105217033257
 21
179.2780244404922
 31
0.0
  0
LINE
  5
13F
330
13D
100
AcDbEntity
  8
1
  6
Continuous
 62
     2
100
AcDbLine
 10
119.327617934671
 20
179.2780244404922
 30
0.0
 11
137.4105217033257
 21
179.2780244404922
 31
0.0
  0
LINE
  5
140
330
13D
100
AcDbEntity
  8
1
  6
Continuous
 62
     2
100
AcDbLine
 10
119.327617934671
 20
207.2780244404922
 30
0.0
 11
137.4105217033257
 21
207.2780244404922
 31
0.0
  0
SOLID
  5
141
330
13D
100
AcDbEntity
  8
1
 62
     2
100
AcDbTrace
 10
136.8713054448816
 20
203.7780244404922
 30
0.0
 11
135.9497379617698
 21
203.7780244404922
 31
0.0
 12
136.4105217033257
 22
207.2780244404922
 32
0.0
 13
136.4105217033257
 23
207.2780244404922
 33
0.0
  0
SOLID
  5
142
330
13D
100
AcDbEntity
  8
1
 62
     2
100
AcDbTrace
 10
135.9497379617698
 20
182.7780244404922
 30
0.0
 11
136.8713054448816
 21
182.7780244404922
 31
0.0
 12
136.4105217033257
 22
179.2780244404922
 32
0.0
 13
136.4105217033257
 23
179.2780244404922
 33
0.0
  0
MTEXT
  5
143
330
13D
100
AcDbEntity
  8
1
 62
     7
100
AcDbMText
 10
135.4105217033257
 20
190.6530244404922
 30
0.0
 40
3.5
 41
0.0
 71
     7
 72
     1
  1
28
  7
CONVERTER_12
 11
0.0
 21
1.0
 31
0.0
 73
     1
 44
0.60024009603842
  0
ENDBLK
  5
145
330
13D
100
AcDbEntity
  8
0
100
AcDbBlockEnd
  0
BLOCK
  5
14F
330
148
100
AcDbEntity
  8
0
100
AcDbBlockBegin
  2
*D7
 70
     1
 10
0.0
 20
0.0
 30
0.0
  3
*D7
  1

  0
LINE
  5
149
330
148
100
AcDbEntity
  8
0
  6
Continuous
 62
     2
100
AcDbLine
 10
85.53389097757046
 20
111.8984382156958
 30
0.0
 11
85.53389097757046
 21
128.8984382156958
 31
0.0
  0
LINE
  5
14A
330
148
100
AcDbEntity
  8
0
  6
Continuous
 62
     2
100
AcDbLine
 10
97.49471416601617
 20
128.8984382156958
 30
0.0
 11
84.53389097757046
 21
128.8984382156958
 31
0.0
  0
LINE
  5
14B
330
148
100
AcDbEntity
  8
0
  6
Continuous
 62
     2
100
AcDbLine
 10
99.89471416601607
 20
111.8984382156958
 30
0.0
 11
84.53389097757046
 21
111.8984382156958
 31
0.0
  0
SOLID
  5
14C
330
148
100
AcDbEntity
  8
0
 62
     2
100
AcDbTrace
 10
85.07310723601458
 20
115.3984382156958
 30
0.0
 11
85.99467471912635
 21
115.3984382156958
 31
0.0
 12
85.53389097757046
 22
111.8984382156958
 32
0.0
 13
85.53389097757046
 23
111.8984382156958
 33
0.0
  0
SOLID
  5
14D
330
148
100
AcDbEntity
  8
0
 62
     2
100
AcDbTrace
 10
85.99467471912635
 20
125.3984382156958
 30
0.0
 11
85.07310723601458
 21
125.3984382156958
 31
0.0
 12
85.53389097757046
 22
128.8984382156958
 32
0.0
 13
85.53389097757046
 23
128.8984382156958
 33
0.0
  0
MTEXT
  5
14E
330
148
100
AcDbEntity
  8
0
 62
     7
100
AcDbMText
 10
84.53389097757046
 20
118.5605423618921
 30
0.0
 40
3.5
 41
0.0
 71
     7
 72
     1
  1
17
  7
CONVERTER_12
 11
0.0
 21
1.0
 31
0.0
 73
     1
 44
0.60024009603842
  0
ENDBLK
  5
150
330
148
100
AcDbEntity
  8
0
100
AcDbBlockEnd
  0
ENDSEC
  0
SECTION
  2
ENTITIES
  0
INSERT
  5
52
330
1F
100
AcDbEntity
  8
0
100
AcDbBlockReference
  2
開示A4枠
 10
0.0
 20
0.0
 30
0.0
  0
INSERT
  5
53
330
1F
100
AcDbEntity
  8
1
100
AcDbBlockReference
  2
T24-20X13
 10
95.07890662870668
 20
111.8984382156958
 30
0.0
  0
LINE
  5
10F
330
1F
100
AcDbEntity
  8
1
  6
DASH_CENTER
 62
     2
100
AcDbLine
 10
111.2447141660162
 20
136.8984382156958
 30
0.0
 11
111.2447141660162
 21
108.8984382156958
 31
0.0
  0
LINE
  5
110
330
1F
100
AcDbEntity
  8
1
  6
DASH_CENTER
 62
     2
100
AcDbLine
 10
92.07890662870668
 20
193.2780244404922
 30
0.0
 11
121.9947141660162
 21
193.2780244404922
 31
0.0
  0
LINE
  5
111
330
1F
100
AcDbEntity
  8
1
  6
DASH_CENTER
 62
     2
100
AcDbLine
 10
111.2447141660162
 20
210.2780244404922
 30
0.0
 11
111.2447141660162
 21
176.2780244404922
 31
0.0
  0
LINE
  5
112
330
1F
100
AcDbEntity
  8
1
  6
DASH_CENTER
 62
     2
100
AcDbLine
 10
124.9947141660162
 20
193.2780244404922
 30
0.0
 11
130.4105217033257
 21
193.2780244404922
 31
0.0
  0
LINE
  5
113
330
1F
100
AcDbEntity
  8
1
  6
DASH_CENTER
 62
     2
100
AcDbLine
 10
121.9947141660162
 20
193.2780244404922
 30
0.0
 11
124.9947141660162
 21
193.2780244404922
 31
0.0
  0
SOLID
  5
114
330
1F
100
AcDbEntity
  8
0
 62
     2
100
AcDbTrace
 10
125.5264436364409
 20
122.888875680136
 30
0.0
 11
126.3245444881173
 21
122.4280919385801
 31
0.0
 12
124.1754940622791
 22
119.6273948961125
 32
0.0
 13
124.1754940622791
 23
119.6273948961125
 33
0.0
  0
LEADER
  5
115
330
1F
100
AcDbEntity
  8
0
  6
Continuous
 62
     2
100
AcDbLeader
  3
Standard
 71
     0
 76
     3
 10
124.1754940622791
 20
119.6273948961125
 30
0.0
 10
130.1579779235281
 20
129.9893608992565
 30
0.0
 10
148.5426754904919
 20
129.9893608992565
 30
0.0
  0
SOLID
  5
116
330
1F
100
AcDbEntity
  8
0
 62
     2
100
AcDbTrace
 10
124.72001939316
 20
137.1599189997193
 30
0.0
 11
125.5181202448365
 21
136.6991352581634
 31
0.0
 12
123.3690698189983
 22
133.8984382156958
 32
0.0
 13
123.3690698189983
 23
133.8984382156958
 33
0.0
  0
LEADER
  5
117
330
1F
100
AcDbEntity
  8
0
  6
Continuous
 62
     2
100
AcDbLeader
  3
Standard
 71
     0
 76
     3
 10
123.3690698189983
 20
133.8984382156958
 30
0.0
 10
130.3072220029242
 20
145.9156703089005
 30
0.0
 10
152.8365139039105
 20
145.9156703089005
 30
0.0
  0
MTEXT
  5
119
330
1F
100
AcDbEntity
  8
1
 62
     7
100
AcDbMText
 10
157.5
 20
12.50000000000001
 30
0.0
 40
2.5
 41
0.0
 71
     5
 72
     1
  1
10
  7
CONVERTER_12
 73
     1
 44
0.7202881152461
  0
MTEXT
  5
11A
330
1F
100
AcDbEntity
  8
1
 62
     7
100
AcDbMText
 10
151.75
 20
12.50000000000001
 30
0.0
 40
2.5
 41
0.0
 71
     5
 72
     1
  1
03
  7
CONVERTER_12
 73
     1
 44
0.7202881152461
  0
MTEXT
  5
11B
330
1F
100
AcDbEntity
  8
1
 62
     7
100
AcDbMText
 10
140.5
 20
12.50000000000001
 30
0.0
 40
2.5
 41
0.0
 71
     5
 72
     1
  1
10
  7
CONVERTER_12
 73
     1
 44
0.7202881152461
  0
MTEXT
  5
11C
330
1F
100
AcDbEntity
  8
1
 62
     7
100
AcDbMText
 10
134.75
 20
12.50000000000001
 30
0.0
 40
2.5
 41
0.0
 71
     5
 72
     1
  1
03
  7
CONVERTER_12
 73
     1
 44
0.7202881152461
  0
MTEXT
  5
11D
330
1F
100
AcDbEntity
  8
1
 62
     7
100
AcDbMText
 10
123.5
 20
12.50000000000001
 30
0.0
 40
2.5
 41
0.0
 71
     5
 72
     1
  1
10
  7
CONVERTER_12
 73
     1
 44
0.7202881152461
  0
MTEXT
  5
11E
330
1F
100
AcDbEntity
  8
1
 62
     7
100
AcDbMText
 10
117.75
 20
12.50000000000001
 30
0.0
 40
2.5
 41
0.0
 71
     5
 72
     1
  1
03
  7
CONVERTER_12
 73
     1
 44
0.7202881152461
  0
MTEXT
  5
11F
330
1F
100
AcDbEntity
  8
1
 62
     7
100
AcDbMText
 10
100.75
 20
12.50000000000001
 30
0.0
 40
2.5
 41
0.0
 71
     5
 72
     1
  1
03
  7
CONVERTER_12
 73
     1
 44
0.7202881152461
  0
MTEXT
  5
120
330
1F
100
AcDbEntity
  8
1
 62
     7
100
AcDbMText
 10
106.5
 20
12.50000000000001
 30
0.0
 40
2.5
 41
0.0
 71
     5
 72
     1
  1
10
  7
CONVERTER_12
 73
     1
 44
0.7202881152461
  0
MTEXT
  5
121
330
1F
100
AcDbEntity
  8
1
 62
     7
100
AcDbMText
 10
140.5010349070175
 20
132.3984068329554
 30
0.0
 40
3.5
 41
0.0
 71
     5
 72
     1
  1
R3/4
  7
CONVERTER_12
 73
     1
 44
1.32052821128451
  0
MTEXT
  5
122
330
1F
100
AcDbEntity
  8
1
 62
     7
100
AcDbMText
 10
142.3504786366873
 20
149.5641259718408
 30
0.0
 40
3.5
 41
0.0
 71
     5
 72
     1
  1
Rp1/2
  7
CONVERTER_12
 73
     1
 44
1.32052821128451
  0
MTEXT
  5
123
330
1F
100
AcDbEntity
  8
1
 62
     7
100
AcDbMText
 10
93.75
 20
17.00000000000001
 30
0.0
 40
3.5
 41
0.0
 71
     5
 72
     1
  1
1
  7
CONVERTER_12
 73
     1
 44
0.7202881152461
  0
MTEXT
  5
124
330
1F
100
AcDbEntity
  8
1
 62
     7
100
AcDbMText
 10
57.00000000000003
 20
14.25000000000001
 30
0.0
 40
3.5
 41
0.0
 71
     5
 72
     1
  1
T24-20X13
  7
CONVERTER_12
 73
     1
 44
0.7202881152461
  0
MTEXT
  5
125
330
1F
100
AcDbEntity
  8
1
 62
     7
100
AcDbMText
 10
57.00000000000003
 20
22.75000000000001
 30
0.0
 40
3.5
 41
0.0
 71
     5
 72
     1
  1
ブッシング
  7
CONVERTER_11
 73
     1
 44
0.54545454545455
  0
MTEXT
  5
126
330
1F
100
AcDbEntity
  8
1
 62
     7
100
AcDbMText
 10
85.25
 20
17.00000000000001
 30
0.0
 40
3.5
 41
0.0
 71
     5
 72
     1
  1
1
  7
CONVERTER_12
 73
     1
 44
0.7202881152461
  0
DIMENSION
  5
131
330
1F
100
AcDbEntity
  8
1
100
AcDbDimension
  2
*D4
 10
76.07890662870668
 20
133.8984382156958
 30
0.0
 11
73.32890662870668
 21
123.1392956449767
 31
0.0
 70
    32
  1
<>
 71
     5
 42
-1.0
 53
90.0
  3
ME10_DIM_10
100
AcDbAlignedDimension
 13
99.89471416601607
 23
111.8984382156958
 33
0.0
 14
97.49471416601617
 24
133.8984382156958
 34
0.0
 50
90.0
100
AcDbRotatedDimension
  0
DIMENSION
  5
13C
330
1F
100
AcDbEntity
  8
1
100
AcDbDimension
  2
*D5
 10
95.07890662870672
 20
218.2780244404922
 30
0.0
 11
110.8952811885925
 21
221.0280244404922
 31
0.0
 70
    33
  1
32
 71
     5
 42
-1.0
 53
0.00013888888889
  3
ME10_DIM_11
100
AcDbAlignedDimension
 13
127.4105217033257
 23
193.2780244404922
 33
0.0
 14
95.07890662870668
 24
193.2780244404922
 34
0.0
  0
DIMENSION
  5
147
330
1F
100
AcDbEntity
  8
1
100
AcDbDimension
  2
*D6
 10
136.4105217033257
 20
207.2780244404922
 30
0.0
 11
133.6605217033257
 21
193.2780244404922
 31
0.0
 70
    33
  1
<>
 71
     5
 42
-1.0
 53
90.0
  3
ME10_DIM_12
100
AcDbAlignedDimension
 13
119.327617934671
 23
179.2780244404922
 33
0.0
 14
119.327617934671
 24
207.2780244404922
 34
0.0
  0
DIMENSION
  5
152
330
1F
100
AcDbEntity
  8
0
100
AcDbDimension
  2
*D7
 10
85.53389097757046
 20
111.8984382156958
 30
0.0
 11
82.78389097757046
 21
120.6605423618921
 31
0.0
 70
    32
  1
<>
 71
     5
 42
-1.0
 53
90.0
  3
ME10_DIM_13
100
AcDbAlignedDimension
 13
97.49471416601617
 23
128.8984382156958
 33
0.0
 14
99.89471416601607
 24
111.8984382156958
 34
0.0
 50
90.0
100
AcDbRotatedDimension
  0
ENDSEC
  0
SECTION
  2
OBJECTS
  0
DICTIONARY
  5
C
330
0
100
AcDbDictionary
281
     1
  3
ACAD_GROUP
350
D
  3
ACAD_LAYOUT
350
1A
  3
ACAD_MATERIAL
350
3B
  3
ACAD_MLEADERSTYLE
350
155
  3
ACAD_MLINESTYLE
350
17
  3
ACAD_PLOTSETTINGS
350
19
  3
ACAD_PLOTSTYLENAME
350
E
  3
ACAD_VISUALSTYLE
350
2A
  3
AcDbVariableDictionary
350
153
  0
DICTIONARY
  5
D
102
{ACAD_REACTORS
330
C
102
}
330
C
100
AcDbDictionary
281
     1
  0
DICTIONARY
  5
1A
102
{ACAD_REACTORS
330
C
102
}
330
C
100
AcDbDictionary
281
     1
  3
Layout1
350
1E
  3
Layout2
350
26
  3
Model
350
22
  0
DICTIONARY
  5
3B
102
{ACAD_REACTORS
330
C
102
}
330
C
100
AcDbDictionary
281
     1
  3
ByBlock
350
3D
  3
ByLayer
350
3C
  3
Global
350
3E
  0
DICTIONARY
  5
155
102
{ACAD_REACTORS
330
C
102
}
330
C
100
AcDbDictionary
281
     1
  0
DICTIONARY
  5
17
102
{ACAD_REACTORS
330
C
102
}
330
C
100
AcDbDictionary
281
     1
  3
Standard
350
18
  0
DICTIONARY
  5
19
102
{ACAD_REACTORS
330
C
102
}
330
C
100
AcDbDictionary
281
     1
  0
ACDBDICTIONARYWDFLT
  5
E
102
{ACAD_REACTORS
330
C
102
}
330
C
100
AcDbDictionary
281
     1
  3
Normal
350
F
100
AcDbDictionaryWithDefault
340
F
  0
DICTIONARY
  5
2A
102
{ACAD_REACTORS
330
C
102
}
330
C
100
AcDbDictionary
281
     1
  3
2dWireframe
350
2F
  3
3D Hidden
350
31
  3
3dWireframe
350
30
  3
Basic
350
32
  3
Brighten
350
36
  3
ColorChange
350
3A
  3
Conceptual
350
34
  3
Dim
350
35
  3
Facepattern
350
39
  3
Flat
350
2B
  3
FlatWithEdges
350
2C
  3
Gouraud
350
2D
  3
GouraudWithEdges
350
2E
  3
Linepattern
350
38
  3
Realistic
350
33
  3
Thicken
350
37
  0
DICTIONARY
  5
153
102
{ACAD_REACTORS
330
C
102
}
330
C
100
AcDbDictionary
281
     1
  3
DIMASSOC
350
156
  3
HIDETEXT
350
157
  0
LAYOUT
  5
1E
102
{ACAD_REACTORS
330
1A
102
}
330
1A
100
AcDbPlotSettings
  1

  2
none_device
  4

  6

 40
0.0
 41
0.0
 42
0.0
 43
0.0
 44
0.0
 45
0.0
 46
0.0
 47
0.0
 48
0.0
 49
0.0
140
0.0
141
0.0
142
1.0
143
1.0
 70
   688
 72
     0
 73
     0
 74
     5
  7

 75
    16
147
1.0
148
0.0
149
0.0
100
AcDbLayout
  1
Layout1
 70
     1
 71
     1
 10
0.0
 20
0.0
 11
12.0
 21
9.0
 12
0.0
 22
0.0
 32
0.0
 14
1.00000000000000E+20
 24
1.00000000000000E+20
 34
1.00000000000000E+20
 15
-1.00000000000000E+20
 25
-1.00000000000000E+20
 35
-1.00000000000000E+20
146
0.0
 13
0.0
 23
0.0
 33
0.0
 16
1.0
 26
0.0
 36
0.0
 17
0.0
 27
1.0
 37
0.0
 76
     0
330
1B
  0
LAYOUT
  5
26
102
{ACAD_REACTORS
330
1A
102
}
330
1A
100
AcDbPlotSettings
  1

  2
none_device
  4

  6

 40
0.0
 41
0.0
 42
0.0
 43
0.0
 44
0.0
 45
0.0
 46
0.0
 47
0.0
 48
0.0
 49
0.0
140
0.0
141
0.0
142
1.0
143
1.0
 70
   688
 72
     0
 73
     0
 74
     5
  7

 75
    16
147
1.0
148
0.0
149
0.0
100
AcDbLayout
  1
Layout2
 70
     1
 71
     2
 10
0.0
 20
0.0
 11
0.0
 21
0.0
 12
0.0
 22
0.0
 32
0.0
 14
0.0
 24
0.0
 34
0.0
 15
0.0
 25
0.0
 35
0.0
146
0.0
 13
0.0
 23
0.0
 33
0.0
 16
1.0
 26
0.0
 36
0.0
 17
0.0
 27
1.0
 37
0.0
 76
     0
330
23
  0
LAYOUT
  5
22
102
{ACAD_REACTORS
330
1A
102
}
330
1A
100
AcDbPlotSettings
  1

  2
none_device
  4

  6

 40
0.0
 41
0.0
 42
0.0
 43
0.0
 44
0.0
 45
0.0
 46
0.0
 47
0.0
 48
0.0
 49
0.0
140
0.0
141
0.0
142
1.0
143
1.0
 70
  1712
 72
     0
 73
     0
 74
     0
  7

 75
     0
147
1.0
148
0.0
149
0.0
100
AcDbLayout
  1
Model
 70
     1
 71
     0
 10
0.0
 20
0.0
 11
12.0
 21
9.0
 12
0.0
 22
0.0
 32
0.0
 14
0.0
 24
0.0
 34
0.0
 15
210.0
 25
297.0
 35
0.0
146
0.0
 13
0.0
 23
0.0
 33
0.0
 16
1.0
 26
0.0
 36
0.0
 17
0.0
 27
1.0
 37
0.0
 76
     0
330
1F
331
29
  0
MATERIAL
  5
3D
102
{ACAD_REACTORS
330
3B
102
}
102
{ACAD_XDICTIONARY
360
17A
102
}
330
3B
100
AcDbMaterial
  1
ByBlock
  0
MATERIAL
  5
3C
102
{ACAD_REACTORS
330
3B
102
}
102
{ACAD_XDICTIONARY
360
178
102
}
330
3B
100
AcDbMaterial
  1
ByLayer
  0
MATERIAL
  5
3E
102
{ACAD_REACTORS
330
3B
102
}
102
{ACAD_XDICTIONARY
360
17C
102
}
330
3B
100
AcDbMaterial
  1
Global
  0
MLINESTYLE
  5
18
102
{ACAD_REACTORS
330
17
102
}
330
17
100
AcDbMlineStyle
  2
Standard
 70
     0
  3

 62
   256
 51
90.0
 52
90.0
 71
     2
 49
0.5
 62
   256
  6
BYLAYER
 49
-0.5
 62
   256
  6
BYLAYER
  0
ACDBPLACEHOLDER
  5
F
102
{ACAD_REACTORS
330
E
102
}
330
E
  0
VISUALSTYLE
  5
2F
102
{ACAD_REACTORS
330
2A
102
}
102
{ACAD_XDICTIONARY
360
160
102
}
330
2A
100
AcDbVisualStyle
  2
2dWireframe
 70
     4
 71
     0
 72
     2
 73
     0
 90
        0
 40
-0.6
 41
-30.0
 62
     5
 63
     7
 74
     1
 91
        4
 64
     7
 65
   257
 75
     1
175
     1
 42
1.0
 92
        0
 66
   257
 43
1.0
 76
     1
 77
     6
 78
     2
 67
     7
 79
     5
170
     0
171
     0
290
     0
174
     0
 93
        1
 44
0.0
173
     0
291
     0
 45
0.0
1001
ACAD
1000
AcDbSavedByObjectVersion
1070
     0
  0
VISUALSTYLE
  5
31
102
{ACAD_REACTORS
330
2A
102
}
102
{ACAD_XDICTIONARY
360
164
102
}
330
2A
100
AcDbVisualStyle
  2
3D Hidden
 70
     6
 71
     1
 72
     2
 73
     2
 90
        0
 40
-0.6
 41
-30.0
 62
     5
 63
     7
 74
     2
 91
        2
 64
     7
 65
   257
 75
     2
175
     1
 42
40.0
 92
        0
 66
   257
 43
1.0
 76
     1
 77
     6
 78
     2
 67
     7
 79
     3
170
     0
171
     0
290
     0
174
     0
 93
        1
 44
0.0
173
     0
291
     0
 45
0.0
1001
ACAD
1000
AcDbSavedByObjectVersion
1070
     0
  0
VISUALSTYLE
  5
30
102
{ACAD_REACTORS
330
2A
102
}
102
{ACAD_XDICTIONARY
360
162
102
}
330
2A
100
AcDbVisualStyle
  2
3dWireframe
 70
     5
 71
     0
 72
     2
 73
     0
 90
        0
 40
-0.6
 41
-30.0
 62
     5
 63
     7
 74
     1
 91
        4
 64
     7
 65
   257
 75
     1
175
     1
 42
1.0
 92
        0
 66
   257
 43
1.0
 76
     1
 77
     6
 78
     2
 67
     7
 79
     5
170
     0
171
     0
290
     0
174
     0
 93
        1
 44
0.0
173
     0
291
     0
 45
0.0
1001
ACAD
1000
AcDbSavedByObjectVersion
1070
     0
  0
VISUALSTYLE
  5
32
102
{ACAD_REACTORS
330
2A
102
}
102
{ACAD_XDICTIONARY
360
166
102
}
330
2A
100
AcDbVisualStyle
  2
Basic
 70
     7
 71
     1
 72
     0
 73
     1
 90
        0
 40
-0.6
 41
-30.0
 62
     5
 63
     7
 74
     0
 91
        4
 64
     7
 65
   257
 75
     1
175
     1
 42
1.0
 92
        8
 66
     7
 43
1.0
 76
     1
 77
     6
 78
     2
 67
     7
 79
     5
170
     0
171
     0
290
     0
174
     0
 93
        1
 44
0.0
173
     0
291
     1
 45
0.0
1001
ACAD
1000
AcDbSavedByObjectVersion
1070
     0
  0
VISUALSTYLE
  5
36
102
{ACAD_REACTORS
330
2A
102
}
102
{ACAD_XDICTIONARY
360
16E
102
}
330
2A
100
AcDbVisualStyle
  2
Brighten
 70
    12
 71
     2
 72
     2
 73
     0
 90
        0
 40
-0.6
 41
-30.0
 62
     5
 63
     7
 74
     1
 91
        4
 64
     7
 65
   257
 75
     1
175
     1
 42
1.0
 92
        8
 66
     7
 43
1.0
 76
     1
 77
     6
 78
     2
 67
     7
 79
     5
170
     0
171
     0
290
     0
174
     0
 93
        1
 44
50.0
173
     0
291
     1
 45
0.0
1001
ACAD
1000
AcDbSavedByObjectVersion
1070
     0
  0
VISUALSTYLE
  5
3A
102
{ACAD_REACTORS
330
2A
102
}
102
{ACAD_XDICTIONARY
360
176
102
}
330
2A
100
AcDbVisualStyle
  2
ColorChange
 70
    16
 71
     2
 72
     2
 73
     3
 90
        0
 40
-0.6
 41
-30.0
 62
     5
 63
     8
 74
     1
 91
        4
 64
     7
 65
   257
 75
     1
175
     1
 42
1.0
 92
        8
 66
     8
 43
1.0
 76
     1
 77
     6
 78
     2
 67
     7
 79
     5
170
     0
171
     0
290
     0
174
     0
 93
        1
 44
0.0
173
     0
291
     1
 45
0.0
1001
ACAD
1000
AcDbSavedByObjectVersion
1070
     0
  0
VISUALSTYLE
  5
34
102
{ACAD_REACTORS
330
2A
102
}
102
{ACAD_XDICTIONARY
360
16A
102
}
330
2A
100
AcDbVisualStyle
  2
Conceptual
 70
     9
 71
     3
 72
     2
 73
     0
 90
        0
 40
-0.6
 41
-30.0
 62
     5
 63
     7
 74
     2
 91
        2
 64
     7
 65
   257
 75
     1
175
     1
 42
40.0
 92
        8
 66
     7
 43
1.0
 76
     1
 77
     6
 78
     2
 67
     7
 79
     3
170
     0
171
     0
290
     0
174
     0
 93
        1
 44
0.0
173
     0
291
     0
 45
0.0
1001
ACAD
1000
AcDbSavedByObjectVersion
1070
     0
  0
VISUALSTYLE
  5
35
102
{ACAD_REACTORS
330
2A
102
}
102
{ACAD_XDICTIONARY
360
16C
102
}
330
2A
100
AcDbVisualStyle
  2
Dim
 70
    11
 71
     2
 72
     2
 73
     0
 90
        0
 40
-0.6
 41
-30.0
 62
     5
 63
     7
 74
     1
 91
        4
 64
     7
 65
   257
 75
     1
175
     1
 42
1.0
 92
        8
 66
     7
 43
1.0
 76
     1
 77
     6
 78
     2
 67
     7
 79
     5
170
     0
171
     0
290
     0
174
     0
 93
        1
 44
-50.0
173
     0
291
     1
 45
0.0
1001
ACAD
1000
AcDbSavedByObjectVersion
1070
     0
  0
VISUALSTYLE
  5
39
102
{ACAD_REACTORS
330
2A
102
}
102
{ACAD_XDICTIONARY
360
174
102
}
330
2A
100
AcDbVisualStyle
  2
Facepattern
 70
    15
 71
     2
 72
     2
 73
     0
 90
        0
 40
-0.6
 41
-30.0
 62
     5
 63
     7
 74
     1
 91
        4
 64
     7
 65
   257
 75
     1
175
     1
 42
1.0
 92
        8
 66
     7
 43
1.0
 76
     1
 77
     6
 78
     2
 67
     7
 79
     5
170
     0
171
     0
290
     0
174
     0
 93
        1
 44
0.0
173
     0
291
     1
 45
0.0
1001
ACAD
1000
AcDbSavedByObjectVersion
1070
     0
  0
VISUALSTYLE
  5
2B
102
{ACAD_REACTORS
330
2A
102
}
102
{ACAD_XDICTIONARY
360
158
102
}
330
2A
100
AcDbVisualStyle
  2
Flat
 70
     0
 71
     2
 72
     1
 73
     1
 90
        2
 40
-0.6
 41
30.0
 62
     5
 63
     7
 74
     0
 91
        4
 64
     7
 65
   257
 75
     1
175
     1
 42
1.0
 92
        8
 66
     7
 43
1.0
 76
     1
 77
     6
 78
     2
 67
     7
 79
     5
170
     0
171
     0
290
     0
174
     0
 93
       13
 44
0.0
173
     0
291
     1
 45
0.0
1001
ACAD
1000
AcDbSavedByObjectVersion
1070
     0
  0
VISUALSTYLE
  5
2C
102
{ACAD_REACTORS
330
2A
102
}
102
{ACAD_XDICTIONARY
360
15A
102
}
330
2A
100
AcDbVisualStyle
  2
FlatWithEdges
 70
     1
 71
     2
 72
     1
 73
     1
 90
        2
 40
-0.6
 41
30.0
 62
     5
 63
     7
 74
     1
 91
        4
 64
     7
 65
   257
 75
     1
175
     1
 42
1.0
 92
        0
 66
   257
 43
1.0
 76
     1
 77
     6
 78
     2
 67
     7
 79
     5
170
     0
171
     0
290
     0
174
     0
 93
       13
 44
0.0
173
     0
291
     1
 45
0.0
1001
ACAD
1000
AcDbSavedByObjectVersion
1070
     0
  0
VISUALSTYLE
  5
2D
102
{ACAD_REACTORS
330
2A
102
}
102
{ACAD_XDICTIONARY
360
15C
102
}
330
2A
100
AcDbVisualStyle
  2
Gouraud
 70
     2
 71
     2
 72
     2
 73
     1
 90
        2
 40
-0.6
 41
30.0
 62
     5
 63
     7
 74
     0
 91
        4
 64
     7
 65
   257
 75
     1
175
     1
 42
1.0
 92
        0
 66
     7
 43
1.0
 76
     1
 77
     6
 78
     2
 67
     7
 79
     5
170
     0
171
     0
290
     0
174
     0
 93
       13
 44
0.0
173
     0
291
     1
 45
0.0
1001
ACAD
1000
AcDbSavedByObjectVersion
1070
     0
  0
VISUALSTYLE
  5
2E
102
{ACAD_REACTORS
330
2A
102
}
102
{ACAD_XDICTIONARY
360
15E
102
}
330
2A
100
AcDbVisualStyle
  2
GouraudWithEdges
 70
     3
 71
     2
 72
     2
 73
     1
 90
        2
 40
-0.6
 41
30.0
 62
     5
 63
     7
 74
     1
 91
        4
 64
     7
 65
   257
 75
     1
175
     1
 42
1.0
 92
        0
 66
   257
 43
1.0
 76
     1
 77
     6
 78
     2
 67
     7
 79
     5
170
     0
171
     0
290
     0
174
     0
 93
       13
 44
0.0
173
     0
291
     1
 45
0.0
1001
ACAD
1000
AcDbSavedByObjectVersion
1070
     0
  0
VISUALSTYLE
  5
38
102
{ACAD_REACTORS
330
2A
102
}
102
{ACAD_XDICTIONARY
360
172
102
}
330
2A
100
AcDbVisualStyle
  2
Linepattern
 70
    14
 71
     2
 72
     2
 73
     0
 90
        0
 40
-0.6
 41
-30.0
 62
     5
 63
     7
 74
     1
 91
        4
 64
     7
 65
   257
 75
     7
175
     7
 42
1.0
 92
        8
 66
     7
 43
1.0
 76
     1
 77
     6
 78
     2
 67
     7
 79
     5
170
     0
171
     0
290
     0
174
     0
 93
        1
 44
0.0
173
     0
291
     1
 45
0.0
1001
ACAD
1000
AcDbSavedByObjectVersion
1070
     0
  0
VISUALSTYLE
  5
33
102
{ACAD_REACTORS
330
2A
102
}
102
{ACAD_XDICTIONARY
360
168
102
}
330
2A
100
AcDbVisualStyle
  2
Realistic
 70
     8
 71
     2
 72
     2
 73
     0
 90
        0
 40
-0.6
 41
-30.0
 62
     5
 63
     7
 74
     1
 91
        0
 64
     7
 65
   257
 75
     1
175
     1
 42
1.0
 92
        8
 66
     8
 43
1.0
 76
     1
 77
     6
 78
     2
 67
     7
 79
     5
170
     0
171
     0
290
     0
174
     0
 93
       13
 44
0.0
173
     0
291
     0
 45
0.0
1001
ACAD
1000
AcDbSavedByObjectVersion
1070
     0
  0
VISUALSTYLE
  5
37
102
{ACAD_REACTORS
330
2A
102
}
102
{ACAD_XDICTIONARY
360
170
102
}
330
2A
100
AcDbVisualStyle
  2
Thicken
 70
    13
 71
     2
 72
     2
 73
     0
 90
        0
 40
-0.6
 41
-30.0
 62
     5
 63
     7
 74
     1
 91
        4
 64
     7
 65
   257
 75
     1
175
     1
 42
1.0
 92
       12
 66
     7
 43
1.0
 76
     1
 77
     6
 78
     2
 67
     7
 79
     5
170
     0
171
     0
290
     0
174
     0
 93
        1
 44
0.0
173
     0
291
     1
 45
0.0
1001
ACAD
1000
AcDbSavedByObjectVersion
1070
     0
  0
DICTIONARYVAR
  5
156
102
{ACAD_REACTORS
330
153
102
}
330
153
100
DictionaryVariables
280
     0
  1
2
  0
DICTIONARYVAR
  5
157
102
{ACAD_REACTORS
330
153
102
}
330
153
100
DictionaryVariables
280
     0
  1
1
  0
DICTIONARY
  5
17A
330
3D
100
AcDbDictionary
280
     1
281
     1
  3
ACAD_XREC_ROUNDTRIP
360
17B
  0
DICTIONARY
  5
178
330
3C
100
AcDbDictionary
280
     1
281
     1
  3
ACAD_XREC_ROUNDTRIP
360
179
  0
DICTIONARY
  5
17C
330
3E
100
AcDbDictionary
280
     1
281
     1
  3
ACAD_XREC_ROUNDTRIP
360
17D
  0
DICTIONARY
  5
160
330
2F
100
AcDbDictionary
280
     1
281
     1
  3
ACAD_XREC_ROUNDTRIP
360
161
  0
DICTIONARY
  5
164
330
31
100
AcDbDictionary
280
     1
281
     1
  3
ACAD_XREC_ROUNDTRIP
360
165
  0
DICTIONARY
  5
162
330
30
100
AcDbDictionary
280
     1
281
     1
  3
ACAD_XREC_ROUNDTRIP
360
163
  0
DICTIONARY
  5
166
330
32
100
AcDbDictionary
280
     1
281
     1
  3
ACAD_XREC_ROUNDTRIP
360
167
  0
DICTIONARY
  5
16E
330
36
100
AcDbDictionary
280
     1
281
     1
  3
ACAD_XREC_ROUNDTRIP
360
16F
  0
DICTIONARY
  5
176
330
3A
100
AcDbDictionary
280
     1
281
     1
  3
ACAD_XREC_ROUNDTRIP
360
177
  0
DICTIONARY
  5
16A
330
34
100
AcDbDictionary
280
     1
281
     1
  3
ACAD_XREC_ROUNDTRIP
360
16B
  0
DICTIONARY
  5
16C
330
35
100
AcDbDictionary
280
     1
281
     1
  3
ACAD_XREC_ROUNDTRIP
360
16D
  0
DICTIONARY
  5
174
330
39
100
AcDbDictionary
280
     1
281
     1
  3
ACAD_XREC_ROUNDTRIP
360
175
  0
DICTIONARY
  5
158
330
2B
100
AcDbDictionary
280
     1
281
     1
  3
ACAD_XREC_ROUNDTRIP
360
159
  0
DICTIONARY
  5
15A
330
2C
100
AcDbDictionary
280
     1
281
     1
  3
ACAD_XREC_ROUNDTRIP
360
15B
  0
DICTIONARY
  5
15C
330
2D
100
AcDbDictionary
280
     1
281
     1
  3
ACAD_XREC_ROUNDTRIP
360
15D
  0
DICTIONARY
  5
15E
330
2E
100
AcDbDictionary
280
     1
281
     1
  3
ACAD_XREC_ROUNDTRIP
360
15F
  0
DICTIONARY
  5
172
330
38
100
AcDbDictionary
280
     1
281
     1
  3
ACAD_XREC_ROUNDTRIP
360
173
  0
DICTIONARY
  5
168
330
33
100
AcDbDictionary
280
     1
281
     1
  3
ACAD_XREC_ROUNDTRIP
360
169
  0
DICTIONARY
  5
170
330
37
100
AcDbDictionary
280
     1
281
     1
  3
ACAD_XREC_ROUNDTRIP
360
171
  0
XRECORD
  5
17B
102
{ACAD_REACTORS
330
17A
102
}
330
17A
100
AcDbXrecord
280
     1
102
MATERIAL
148
0.0
149
0.0
149
0.0
 93
        0
 94
      127
282
     0
 72
     1
 77
     1
171
     1
175
     1
179
     1
273
     0
  0
XRECORD
  5
179
102
{ACAD_REACTORS
330
178
102
}
330
178
100
AcDbXrecord
280
     1
102
MATERIAL
148
0.0
149
0.0
149
0.0
 93
        0
 94
      127
282
     0
 72
     1
 77
     1
171
     1
175
     1
179
     1
273
     0
  0
XRECORD
  5
17D
102
{ACAD_REACTORS
330
17C
102
}
330
17C
100
AcDbXrecord
280
     1
102
MATERIAL
148
0.0
149
0.0
149
0.0
 93
        0
 94
      127
282
     0
 72
     1
 77
     1
171
     1
175
     1
179
     1
273
     0
  0
XRECORD
  5
161
102
{ACAD_REACTORS
330
160
102
}
330
160
100
AcDbXrecord
280
     1
102
RTVSPropertyOp0
 70
     1
102
RTVSPropertyOp1
 70
     1
102
RTVSPropertyOp2
 70
     1
102
RTVSPropertyOp3
 70
     1
102
RTVSPropertyOp4
 70
     1
102
RTVSPropertyOp5
 70
     1
102
RTVSPropertyOp6
 70
     1
102
RTVSPropertyOp7
 70
     1
102
RTVSPropertyOp8
 70
     1
102
RTVSPropertyOp9
 70
     1
102
RTVSPropertyOp10
 70
     1
102
RTVSPropertyOp11
 70
     1
102
RTVSPropertyOp12
 70
     1
102
RTVSPropertyOp13
 70
     1
102
RTVSPropertyOp14
 70
     1
102
RTVSPropertyOp15
 70
     1
102
RTVSPropertyOp16
 70
     1
102
RTVSPropertyOp17
 70
     1
102
RTVSPropertyOp18
 70
     1
102
RTVSPropertyOp19
 70
     1
102
RTVSPropertyOp20
 70
     1
102
RTVSPropertyOp21
 70
     1
102
RTVSPropertyOp22
 70
     1
102
RTVSPropertyOp23
 70
     1
102
RTVSPropertyOp24
 70
     1
102
RTVSPropertyOp25
 70
     1
102
RTVSPropertyOp26
 70
     1
102
RTVSPropertyOp27
 70
     1
102
RTVSPropertyOp28
 70
     1
102
RTVSPropertyOp29
 70
     1
102
RTVSPropertyOp30
 70
     1
102
RTVSPropertyOp31
 70
     1
102
RTVSPropertyOp32
 70
     1
  0
XRECORD
  5
165
102
{ACAD_REACTORS
330
164
102
}
330
164
100
AcDbXrecord
280
     1
102
RTVSPropertyOp0
 70
     1
102
RTVSPropertyOp1
 70
     1
102
RTVSPropertyOp2
 70
     1
102
RTVSPropertyOp3
 70
     1
102
RTVSPropertyOp4
 70
     1
102
RTVSPropertyOp5
 70
     1
102
RTVSPropertyOp6
 70
     1
102
RTVSPropertyOp7
 70
     1
102
RTVSPropertyOp8
 70
     1
102
RTVSPropertyOp9
 70
     1
102
RTVSPropertyOp10
 70
     1
102
RTVSPropertyOp11
 70
     1
102
RTVSPropertyOp12
 70
     1
102
RTVSPropertyOp13
 70
     1
102
RTVSPropertyOp14
 70
     1
102
RTVSPropertyOp15
 70
     1
102
RTVSPropertyOp16
 70
     1
102
RTVSPropertyOp17
 70
     1
102
RTVSPropertyOp18
 70
     1
102
RTVSPropertyOp19
 70
     1
102
RTVSPropertyOp20
 70
     1
102
RTVSPropertyOp21
 70
     1
102
RTVSPropertyOp22
 70
     1
102
RTVSPropertyOp23
 70
     1
102
RTVSPropertyOp24
 70
     1
102
RTVSPropertyOp25
 70
     1
102
RTVSPropertyOp26
 70
     1
102
RTVSPropertyOp27
 70
     1
102
RTVSPropertyOp28
 70
     1
102
RTVSPropertyOp29
 70
     1
102
RTVSPropertyOp30
 70
     1
102
RTVSPropertyOp31
 70
     1
102
RTVSPropertyOp32
 70
     1
  0
XRECORD
  5
163
102
{ACAD_REACTORS
330
162
102
}
330
162
100
AcDbXrecord
280
     1
102
RTVSPropertyOp0
 70
     1
102
RTVSPropertyOp1
 70
     1
102
RTVSPropertyOp2
 70
     1
102
RTVSPropertyOp3
 70
     1
102
RTVSPropertyOp4
 70
     1
102
RTVSPropertyOp5
 70
     1
102
RTVSPropertyOp6
 70
     1
102
RTVSPropertyOp7
 70
     1
102
RTVSPropertyOp8
 70
     1
102
RTVSPropertyOp9
 70
     1
102
RTVSPropertyOp10
 70
     1
102
RTVSPropertyOp11
 70
     1
102
RTVSPropertyOp12
 70
     1
102
RTVSPropertyOp13
 70
     1
102
RTVSPropertyOp14
 70
     1
102
RTVSPropertyOp15
 70
     1
102
RTVSPropertyOp16
 70
     1
102
RTVSPropertyOp17
 70
     1
102
RTVSPropertyOp18
 70
     1
102
RTVSPropertyOp19
 70
     1
102
RTVSPropertyOp20
 70
     1
102
RTVSPropertyOp21
 70
     1
102
RTVSPropertyOp22
 70
     1
102
RTVSPropertyOp23
 70
     1
102
RTVSPropertyOp24
 70
     1
102
RTVSPropertyOp25
 70
     1
102
RTVSPropertyOp26
 70
     1
102
RTVSPropertyOp27
 70
     1
102
RTVSPropertyOp28
 70
     1
102
RTVSPropertyOp29
 70
     1
102
RTVSPropertyOp30
 70
     1
102
RTVSPropertyOp31
 70
     1
102
RTVSPropertyOp32
 70
     1
  0
XRECORD
  5
167
102
{ACAD_REACTORS
330
166
102
}
330
166
100
AcDbXrecord
280
     1
102
RTVSPropertyOp0
 70
     1
102
RTVSPropertyOp1
 70
     1
102
RTVSPropertyOp2
 70
     1
102
RTVSPropertyOp3
 70
     1
102
RTVSPropertyOp4
 70
     1
102
RTVSPropertyOp5
 70
     1
102
RTVSPropertyOp6
 70
     1
102
RTVSPropertyOp7
 70
     1
102
RTVSPropertyOp8
 70
     1
102
RTVSPropertyOp9
 70
     1
102
RTVSPropertyOp10
 70
     1
102
RTVSPropertyOp11
 70
     1
102
RTVSPropertyOp12
 70
     1
102
RTVSPropertyOp13
 70
     1
102
RTVSPropertyOp14
 70
     1
102
RTVSPropertyOp15
 70
     1
102
RTVSPropertyOp16
 70
     1
102
RTVSPropertyOp17
 70
     1
102
RTVSPropertyOp18
 70
     1
102
RTVSPropertyOp19
 70
     1
102
RTVSPropertyOp20
 70
     1
102
RTVSPropertyOp21
 70
     1
102
RTVSPropertyOp22
 70
     1
102
RTVSPropertyOp23
 70
     1
102
RTVSPropertyOp24
 70
     1
102
RTVSPropertyOp25
 70
     1
102
RTVSPropertyOp26
 70
     1
102
RTVSPropertyOp27
 70
     1
102
RTVSPropertyOp28
 70
     1
102
RTVSPropertyOp29
 70
     1
102
RTVSPropertyOp30
 70
     1
102
RTVSPropertyOp31
 70
     1
102
RTVSPropertyOp32
 70
     1
  0
XRECORD
  5
16F
102
{ACAD_REACTORS
330
16E
102
}
330
16E
100
AcDbXrecord
280
     1
102
RTVSPropertyOp0
 70
     1
102
RTVSPropertyOp1
 70
     1
102
RTVSPropertyOp2
 70
     1
102
RTVSPropertyOp3
 70
     1
102
RTVSPropertyOp4
 70
     1
102
RTVSPropertyOp5
 70
     1
102
RTVSPropertyOp6
 70
     1
102
RTVSPropertyOp7
 70
     1
102
RTVSPropertyOp8
 70
     1
102
RTVSPropertyOp9
 70
     1
102
RTVSPropertyOp10
 70
     1
102
RTVSPropertyOp11
 70
     1
102
RTVSPropertyOp12
 70
     1
102
RTVSPropertyOp13
 70
     1
102
RTVSPropertyOp14
 70
     1
102
RTVSPropertyOp15
 70
     1
102
RTVSPropertyOp16
 70
     1
102
RTVSPropertyOp17
 70
     1
102
RTVSPropertyOp18
 70
     1
102
RTVSPropertyOp19
 70
     1
102
RTVSPropertyOp20
 70
     1
102
RTVSPropertyOp21
 70
     1
102
RTVSPropertyOp22
 70
     1
102
RTVSPropertyOp23
 70
     1
102
RTVSPropertyOp24
 70
     1
102
RTVSPropertyOp25
 70
     1
102
RTVSPropertyOp26
 70
     1
102
RTVSPropertyOp27
 70
     1
102
RTVSPropertyOp28
 70
     1
102
RTVSPropertyOp29
 70
     1
102
RTVSPropertyOp30
 70
     1
102
RTVSPropertyOp31
 70
     1
102
RTVSPropertyOp32
 70
     1
  0
XRECORD
  5
177
102
{ACAD_REACTORS
330
176
102
}
330
176
100
AcDbXrecord
280
     1
102
RTVSPropertyOp0
 70
     1
102
RTVSPropertyOp1
 70
     1
102
RTVSPropertyOp2
 70
     1
102
RTVSPropertyOp3
 70
     1
102
RTVSPropertyOp4
 70
     1
102
RTVSPropertyOp5
 70
     1
102
RTVSPropertyOp6
 70
     1
102
RTVSPropertyOp7
 70
     1
102
RTVSPropertyOp8
 70
     1
102
RTVSPropertyOp9
 70
     1
102
RTVSPropertyOp10
 70
     1
102
RTVSPropertyOp11
 70
     1
102
RTVSPropertyOp12
 70
     1
102
RTVSPropertyOp13
 70
     1
102
RTVSPropertyOp14
 70
     1
102
RTVSPropertyOp15
 70
     1
102
RTVSPropertyOp16
 70
     1
102
RTVSPropertyOp17
 70
     1
102
RTVSPropertyOp18
 70
     1
102
RTVSPropertyOp19
 70
     1
102
RTVSPropertyOp20
 70
     1
102
RTVSPropertyOp21
 70
     1
102
RTVSPropertyOp22
 70
     1
102
RTVSPropertyOp23
 70
     1
102
RTVSPropertyOp24
 70
     1
102
RTVSPropertyOp25
 70
     1
102
RTVSPropertyOp26
 70
     1
102
RTVSPropertyOp27
 70
     1
102
RTVSPropertyOp28
 70
     1
102
RTVSPropertyOp29
 70
     1
102
RTVSPropertyOp30
 70
     1
102
RTVSPropertyOp31
 70
     1
102
RTVSPropertyOp32
 70
     1
  0
XRECORD
  5
16B
102
{ACAD_REACTORS
330
16A
102
}
330
16A
100
AcDbXrecord
280
     1
102
RTVSPropertyOp0
 70
     1
102
RTVSPropertyOp1
 70
     1
102
RTVSPropertyOp2
 70
     1
102
RTVSPropertyOp3
 70
     1
102
RTVSPropertyOp4
 70
     1
102
RTVSPropertyOp5
 70
     1
102
RTVSPropertyOp6
 70
     1
102
RTVSPropertyOp7
 70
     1
102
RTVSPropertyOp8
 70
     1
102
RTVSPropertyOp9
 70
     1
102
RTVSPropertyOp10
 70
     1
102
RTVSPropertyOp11
 70
     1
102
RTVSPropertyOp12
 70
     1
102
RTVSPropertyOp13
 70
     1
102
RTVSPropertyOp14
 70
     1
102
RTVSPropertyOp15
 70
     1
102
RTVSPropertyOp16
 70
     1
102
RTVSPropertyOp17
 70
     1
102
RTVSPropertyOp18
 70
     1
102
RTVSPropertyOp19
 70
     1
102
RTVSPropertyOp20
 70
     1
102
RTVSPropertyOp21
 70
     1
102
RTVSPropertyOp22
 70
     1
102
RTVSPropertyOp23
 70
     1
102
RTVSPropertyOp24
 70
     1
102
RTVSPropertyOp25
 70
     1
102
RTVSPropertyOp26
 70
     1
102
RTVSPropertyOp27
 70
     1
102
RTVSPropertyOp28
 70
     1
102
RTVSPropertyOp29
 70
     1
102
RTVSPropertyOp30
 70
     1
102
RTVSPropertyOp31
 70
     1
102
RTVSPropertyOp32
 70
     1
  0
XRECORD
  5
16D
102
{ACAD_REACTORS
330
16C
102
}
330
16C
100
AcDbXrecord
280
     1
102
RTVSPropertyOp0
 70
     1
102
RTVSPropertyOp1
 70
     1
102
RTVSPropertyOp2
 70
     1
102
RTVSPropertyOp3
 70
     1
102
RTVSPropertyOp4
 70
     1
102
RTVSPropertyOp5
 70
     1
102
RTVSPropertyOp6
 70
     1
102
RTVSPropertyOp7
 70
     1
102
RTVSPropertyOp8
 70
     1
102
RTVSPropertyOp9
 70
     1
102
RTVSPropertyOp10
 70
     1
102
RTVSPropertyOp11
 70
     1
102
RTVSPropertyOp12
 70
     1
102
RTVSPropertyOp13
 70
     1
102
RTVSPropertyOp14
 70
     1
102
RTVSPropertyOp15
 70
     1
102
RTVSPropertyOp16
 70
     1
102
RTVSPropertyOp17
 70
     1
102
RTVSPropertyOp18
 70
     1
102
RTVSPropertyOp19
 70
     1
102
RTVSPropertyOp20
 70
     1
102
RTVSPropertyOp21
 70
     1
102
RTVSPropertyOp22
 70
     1
102
RTVSPropertyOp23
 70
     1
102
RTVSPropertyOp24
 70
     1
102
RTVSPropertyOp25
 70
     1
102
RTVSPropertyOp26
 70
     1
102
RTVSPropertyOp27
 70
     1
102
RTVSPropertyOp28
 70
     1
102
RTVSPropertyOp29
 70
     1
102
RTVSPropertyOp30
 70
     1
102
RTVSPropertyOp31
 70
     1
102
RTVSPropertyOp32
 70
     1
  0
XRECORD
  5
175
102
{ACAD_REACTORS
330
174
102
}
330
174
100
AcDbXrecord
280
     1
102
RTVSPropertyOp0
 70
     1
102
RTVSPropertyOp1
 70
     1
102
RTVSPropertyOp2
 70
     1
102
RTVSPropertyOp3
 70
     1
102
RTVSPropertyOp4
 70
     1
102
RTVSPropertyOp5
 70
     1
102
RTVSPropertyOp6
 70
     1
102
RTVSPropertyOp7
 70
     1
102
RTVSPropertyOp8
 70
     1
102
RTVSPropertyOp9
 70
     1
102
RTVSPropertyOp10
 70
     1
102
RTVSPropertyOp11
 70
     1
102
RTVSPropertyOp12
 70
     1
102
RTVSPropertyOp13
 70
     1
102
RTVSPropertyOp14
 70
     1
102
RTVSPropertyOp15
 70
     1
102
RTVSPropertyOp16
 70
     1
102
RTVSPropertyOp17
 70
     1
102
RTVSPropertyOp18
 70
     1
102
RTVSPropertyOp19
 70
     1
102
RTVSPropertyOp20
 70
     1
102
RTVSPropertyOp21
 70
     1
102
RTVSPropertyOp22
 70
     1
102
RTVSPropertyOp23
 70
     1
102
RTVSPropertyOp24
 70
     1
102
RTVSPropertyOp25
 70
     1
102
RTVSPropertyOp26
 70
     1
102
RTVSPropertyOp27
 70
     1
102
RTVSPropertyOp28
 70
     1
102
RTVSPropertyOp29
 70
     1
102
RTVSPropertyOp30
 70
     1
102
RTVSPropertyOp31
 70
     1
102
RTVSPropertyOp32
 70
     1
  0
XRECORD
  5
159
102
{ACAD_REACTORS
330
158
102
}
330
158
100
AcDbXrecord
280
     1
102
RTVSPropertyOp0
 70
     1
102
RTVSPropertyOp1
 70
     1
102
RTVSPropertyOp2
 70
     1
102
RTVSPropertyOp3
 70
     1
102
RTVSPropertyOp4
 70
     1
102
RTVSPropertyOp5
 70
     1
102
RTVSPropertyOp6
 70
     1
102
RTVSPropertyOp7
 70
     1
102
RTVSPropertyOp8
 70
     1
102
RTVSPropertyOp9
 70
     1
102
RTVSPropertyOp10
 70
     1
102
RTVSPropertyOp11
 70
     1
102
RTVSPropertyOp12
 70
     1
102
RTVSPropertyOp13
 70
     1
102
RTVSPropertyOp14
 70
     1
102
RTVSPropertyOp15
 70
     1
102
RTVSPropertyOp16
 70
     1
102
RTVSPropertyOp17
 70
     1
102
RTVSPropertyOp18
 70
     1
102
RTVSPropertyOp19
 70
     1
102
RTVSPropertyOp20
 70
     1
102
RTVSPropertyOp21
 70
     1
102
RTVSPropertyOp22
 70
     1
102
RTVSPropertyOp23
 70
     1
102
RTVSPropertyOp24
 70
     1
102
RTVSPropertyOp25
 70
     1
102
RTVSPropertyOp26
 70
     1
102
RTVSPropertyOp27
 70
     1
102
RTVSPropertyOp28
 70
     1
102
RTVSPropertyOp29
 70
     1
102
RTVSPropertyOp30
 70
     1
102
RTVSPropertyOp31
 70
     1
102
RTVSPropertyOp32
 70
     1
  0
XRECORD
  5
15B
102
{ACAD_REACTORS
330
15A
102
}
330
15A
100
AcDbXrecord
280
     1
102
RTVSPropertyOp0
 70
     1
102
RTVSPropertyOp1
 70
     1
102
RTVSPropertyOp2
 70
     1
102
RTVSPropertyOp3
 70
     1
102
RTVSPropertyOp4
 70
     1
102
RTVSPropertyOp5
 70
     1
102
RTVSPropertyOp6
 70
     1
102
RTVSPropertyOp7
 70
     1
102
RTVSPropertyOp8
 70
     1
102
RTVSPropertyOp9
 70
     1
102
RTVSPropertyOp10
 70
     1
102
RTVSPropertyOp11
 70
     1
102
RTVSPropertyOp12
 70
     1
102
RTVSPropertyOp13
 70
     1
102
RTVSPropertyOp14
 70
     1
102
RTVSPropertyOp15
 70
     1
102
RTVSPropertyOp16
 70
     1
102
RTVSPropertyOp17
 70
     1
102
RTVSPropertyOp18
 70
     1
102
RTVSPropertyOp19
 70
     1
102
RTVSPropertyOp20
 70
     1
102
RTVSPropertyOp21
 70
     1
102
RTVSPropertyOp22
 70
     1
102
RTVSPropertyOp23
 70
     1
102
RTVSPropertyOp24
 70
     1
102
RTVSPropertyOp25
 70
     1
102
RTVSPropertyOp26
 70
     1
102
RTVSPropertyOp27
 70
     1
102
RTVSPropertyOp28
 70
     1
102
RTVSPropertyOp29
 70
     1
102
RTVSPropertyOp30
 70
     1
102
RTVSPropertyOp31
 70
     1
102
RTVSPropertyOp32
 70
     1
  0
XRECORD
  5
15D
102
{ACAD_REACTORS
330
15C
102
}
330
15C
100
AcDbXrecord
280
     1
102
RTVSPropertyOp0
 70
     1
102
RTVSPropertyOp1
 70
     1
102
RTVSPropertyOp2
 70
     1
102
RTVSPropertyOp3
 70
     1
102
RTVSPropertyOp4
 70
     1
102
RTVSPropertyOp5
 70
     1
102
RTVSPropertyOp6
 70
     1
102
RTVSPropertyOp7
 70
     1
102
RTVSPropertyOp8
 70
     1
102
RTVSPropertyOp9
 70
     1
102
RTVSPropertyOp10
 70
     1
102
RTVSPropertyOp11
 70
     1
102
RTVSPropertyOp12
 70
     1
102
RTVSPropertyOp13
 70
     1
102
RTVSPropertyOp14
 70
     1
102
RTVSPropertyOp15
 70
     1
102
RTVSPropertyOp16
 70
     1
102
RTVSPropertyOp17
 70
     1
102
RTVSPropertyOp18
 70
     1
102
RTVSPropertyOp19
 70
     1
102
RTVSPropertyOp20
 70
     1
102
RTVSPropertyOp21
 70
     1
102
RTVSPropertyOp22
 70
     1
102
RTVSPropertyOp23
 70
     1
102
RTVSPropertyOp24
 70
     1
102
RTVSPropertyOp25
 70
     1
102
RTVSPropertyOp26
 70
     1
102
RTVSPropertyOp27
 70
     1
102
RTVSPropertyOp28
 70
     1
102
RTVSPropertyOp29
 70
     1
102
RTVSPropertyOp30
 70
     1
102
RTVSPropertyOp31
 70
     1
102
RTVSPropertyOp32
 70
     1
  0
XRECORD
  5
15F
102
{ACAD_REACTORS
330
15E
102
}
330
15E
100
AcDbXrecord
280
     1
102
RTVSPropertyOp0
 70
     1
102
RTVSPropertyOp1
 70
     1
102
RTVSPropertyOp2
 70
     1
102
RTVSPropertyOp3
 70
     1
102
RTVSPropertyOp4
 70
     1
102
RTVSPropertyOp5
 70
     1
102
RTVSPropertyOp6
 70
     1
102
RTVSPropertyOp7
 70
     1
102
RTVSPropertyOp8
 70
     1
102
RTVSPropertyOp9
 70
     1
102
RTVSPropertyOp10
 70
     1
102
RTVSPropertyOp11
 70
     1
102
RTVSPropertyOp12
 70
     1
102
RTVSPropertyOp13
 70
     1
102
RTVSPropertyOp14
 70
     1
102
RTVSPropertyOp15
 70
     1
102
RTVSPropertyOp16
 70
     1
102
RTVSPropertyOp17
 70
     1
102
RTVSPropertyOp18
 70
     1
102
RTVSPropertyOp19
 70
     1
102
RTVSPropertyOp20
 70
     1
102
RTVSPropertyOp21
 70
     1
102
RTVSPropertyOp22
 70
     1
102
RTVSPropertyOp23
 70
     1
102
RTVSPropertyOp24
 70
     1
102
RTVSPropertyOp25
 70
     1
102
RTVSPropertyOp26
 70
     1
102
RTVSPropertyOp27
 70
     1
102
RTVSPropertyOp28
 70
     1
102
RTVSPropertyOp29
 70
     1
102
RTVSPropertyOp30
 70
     1
102
RTVSPropertyOp31
 70
     1
102
RTVSPropertyOp32
 70
     1
  0
XRECORD
  5
173
102
{ACAD_REACTORS
330
172
102
}
330
172
100
AcDbXrecord
280
     1
102
RTVSPropertyOp0
 70
     1
102
RTVSPropertyOp1
 70
     1
102
RTVSPropertyOp2
 70
     1
102
RTVSPropertyOp3
 70
     1
102
RTVSPropertyOp4
 70
     1
102
RTVSPropertyOp5
 70
     1
102
RTVSPropertyOp6
 70
     1
102
RTVSPropertyOp7
 70
     1
102
RTVSPropertyOp8
 70
     1
102
RTVSPropertyOp9
 70
     1
102
RTVSPropertyOp10
 70
     1
102
RTVSPropertyOp11
 70
     1
102
RTVSPropertyOp12
 70
     1
102
RTVSPropertyOp13
 70
     1
102
RTVSPropertyOp14
 70
     1
102
RTVSPropertyOp15
 70
     1
102
RTVSPropertyOp16
 70
     1
102
RTVSPropertyOp17
 70
     1
102
RTVSPropertyOp18
 70
     1
102
RTVSPropertyOp19
 70
     1
102
RTVSPropertyOp20
 70
     1
102
RTVSPropertyOp21
 70
     1
102
RTVSPropertyOp22
 70
     1
102
RTVSPropertyOp23
 70
     1
102
RTVSPropertyOp24
 70
     1
102
RTVSPropertyOp25
 70
     1
102
RTVSPropertyOp26
 70
     1
102
RTVSPropertyOp27
 70
     1
102
RTVSPropertyOp28
 70
     1
102
RTVSPropertyOp29
 70
     1
102
RTVSPropertyOp30
 70
     1
102
RTVSPropertyOp31
 70
     1
102
RTVSPropertyOp32
 70
     1
  0
XRECORD
  5
169
102
{ACAD_REACTORS
330
168
102
}
330
168
100
AcDbXrecord
280
     1
102
RTVSPropertyOp0
 70
     1
102
RTVSPropertyOp1
 70
     1
102
RTVSPropertyOp2
 70
     1
102
RTVSPropertyOp3
 70
     1
102
RTVSPropertyOp4
 70
     1
102
RTVSPropertyOp5
 70
     1
102
RTVSPropertyOp6
 70
     1
102
RTVSPropertyOp7
 70
     1
102
RTVSPropertyOp8
 70
     1
102
RTVSPropertyOp9
 70
     1
102
RTVSPropertyOp10
 70
     1
102
RTVSPropertyOp11
 70
     1
102
RTVSPropertyOp12
 70
     1
102
RTVSPropertyOp13
 70
     1
102
RTVSPropertyOp14
 70
     1
102
RTVSPropertyOp15
 70
     1
102
RTVSPropertyOp16
 70
     1
102
RTVSPropertyOp17
 70
     1
102
RTVSPropertyOp18
 70
     1
102
RTVSPropertyOp19
 70
     1
102
RTVSPropertyOp20
 70
     1
102
RTVSPropertyOp21
 70
     1
102
RTVSPropertyOp22
 70
     1
102
RTVSPropertyOp23
 70
     1
102
RTVSPropertyOp24
 70
     1
102
RTVSPropertyOp25
 70
     1
102
RTVSPropertyOp26
 70
     1
102
RTVSPropertyOp27
 70
     1
102
RTVSPropertyOp28
 70
     1
102
RTVSPropertyOp29
 70
     1
102
RTVSPropertyOp30
 70
     1
102
RTVSPropertyOp31
 70
     1
102
RTVSPropertyOp32
 70
     1
  0
XRECORD
  5
171
102
{ACAD_REACTORS
330
170
102
}
330
170
100
AcDbXrecord
280
     1
102
RTVSPropertyOp0
 70
     1
102
RTVSPropertyOp1
 70
     1
102
RTVSPropertyOp2
 70
     1
102
RTVSPropertyOp3
 70
     1
102
RTVSPropertyOp4
 70
     1
102
RTVSPropertyOp5
 70
     1
102
RTVSPropertyOp6
 70
     1
102
RTVSPropertyOp7
 70
     1
102
RTVSPropertyOp8
 70
     1
102
RTVSPropertyOp9
 70
     1
102
RTVSPropertyOp10
 70
     1
102
RTVSPropertyOp11
 70
     1
102
RTVSPropertyOp12
 70
     1
102
RTVSPropertyOp13
 70
     1
102
RTVSPropertyOp14
 70
     1
102
RTVSPropertyOp15
 70
     1
102
RTVSPropertyOp16
 70
     1
102
RTVSPropertyOp17
 70
     1
102
RTVSPropertyOp18
 70
     1
102
RTVSPropertyOp19
 70
     1
102
RTVSPropertyOp20
 70
     1
102
RTVSPropertyOp21
 70
     1
102
RTVSPropertyOp22
 70
     1
102
RTVSPropertyOp23
 70
     1
102
RTVSPropertyOp24
 70
     1
102
RTVSPropertyOp25
 70
     1
102
RTVSPropertyOp26
 70
     1
102
RTVSPropertyOp27
 70
     1
102
RTVSPropertyOp28
 70
     1
102
RTVSPropertyOp29
 70
     1
102
RTVSPropertyOp30
 70
     1
102
RTVSPropertyOp31
 70
     1
102
RTVSPropertyOp32
 70
     1
  0
ENDSEC
  0
EOF
