  0
SECTION
  2
HEADER
  9
$ACADVER
  1
AC1015
  9
$ACADMAINTVER
 70
     6
  9
$DWGCODEPAGE
  3
ANSI_932
  9
$INSBASE
 10
0.0
 20
0.0
 30
0.0
  9
$EXTMIN
 10
0.0
 20
0.0
 30
0.0
  9
$EXTMAX
 10
210.0000000000001
 20
297.0
 30
0.0
  9
$LIMMIN
 10
0.0
 20
0.0
  9
$LIMMAX
 10
12.0
 20
9.0
  9
$ORTHOMODE
 70
     0
  9
$REGENMODE
 70
     1
  9
$FILLMODE
 70
     1
  9
$QTEXTMODE
 70
     0
  9
$MIRRTEXT
 70
     1
  9
$LTSCALE
 40
1.0
  9
$ATTMODE
 70
     1
  9
$TEXTSIZE
 40
0.2
  9
$TRACEWID
 40
0.05
  9
$TEXTSTYLE
  7
Standard
  9
$CLAYER
  8
0
  9
$CELTYPE
  6
ByLayer
  9
$CECOLOR
 62
   256
  9
$CELTSCALE
 40
1.0
  9
$DISPSILH
 70
     0
  9
$DIMSCALE
 40
1.0
  9
$DIMASZ
 40
0.18
  9
$DIMEXO
 40
0.0625
  9
$DIMDLI
 40
0.38
  9
$DIMRND
 40
0.0
  9
$DIMDLE
 40
0.0
  9
$DIMEXE
 40
0.18
  9
$DIMTP
 40
0.0
  9
$DIMTM
 40
0.0
  9
$DIMTXT
 40
0.18
  9
$DIMCEN
 40
0.09
  9
$DIMTSZ
 40
0.0
  9
$DIMTOL
 70
     0
  9
$DIMLIM
 70
     0
  9
$DIMTIH
 70
     1
  9
$DIMTOH
 70
     1
  9
$DIMSE1
 70
     0
  9
$DIMSE2
 70
     0
  9
$DIMTAD
 70
     0
  9
$DIMZIN
 70
     0
  9
$DIMBLK
  1

  9
$DIMASO
 70
     1
  9
$DIMSHO
 70
     1
  9
$DIMPOST
  1

  9
$DIMAPOST
  1

  9
$DIMALT
 70
     0
  9
$DIMALTD
 70
     2
  9
$DIMALTF
 40
25.4
  9
$DIMLFAC
 40
1.0
  9
$DIMTOFL
 70
     0
  9
$DIMTVP
 40
0.0
  9
$DIMTIX
 70
     0
  9
$DIMSOXD
 70
     0
  9
$DIMSAH
 70
     0
  9
$DIMBLK1
  1

  9
$DIMBLK2
  1

  9
$DIMSTYLE
  2
Standard
  9
$DIMCLRD
 70
     0
  9
$DIMCLRE
 70
     0
  9
$DIMCLRT
 70
     0
  9
$DIMTFAC
 40
1.0
  9
$DIMGAP
 40
0.09
  9
$DIMJUST
 70
     0
  9
$DIMSD1
 70
     0
  9
$DIMSD2
 70
     0
  9
$DIMTOLJ
 70
     1
  9
$DIMTZIN
 70
     0
  9
$DIMALTZ
 70
     0
  9
$DIMALTTZ
 70
     0
  9
$DIMUPT
 70
     0
  9
$DIMDEC
 70
     4
  9
$DIMTDEC
 70
     4
  9
$DIMALTU
 70
     2
  9
$DIMALTTD
 70
     2
  9
$DIMTXSTY
  7
Standard
  9
$DIMAUNIT
 70
     0
  9
$DIMADEC
 70
     0
  9
$DIMALTRND
 40
0.0
  9
$DIMAZIN
 70
     0
  9
$DIMDSEP
 70
    46
  9
$DIMATFIT
 70
     3
  9
$DIMFRAC
 70
     0
  9
$DIMLDRBLK
  1

  9
$DIMLUNIT
 70
     2
  9
$DIMLWD
 70
    -2
  9
$DIMLWE
 70
    -2
  9
$DIMTMOVE
 70
     0
  9
$LUNITS
 70
     2
  9
$LUPREC
 70
     4
  9
$SKETCHINC
 40
0.1
  9
$FILLETRAD
 40
0.5
  9
$AUNITS
 70
     0
  9
$AUPREC
 70
     0
  9
$MENU
  1
.
  9
$ELEVATION
 40
0.0
  9
$PELEVATION
 40
0.0
  9
$THICKNESS
 40
0.0
  9
$LIMCHECK
 70
     0
  9
$CHAMFERA
 40
0.5
  9
$CHAMFERB
 40
0.5
  9
$CHAMFERC
 40
1.0
  9
$CHAMFERD
 40
0.0
  9
$SKPOLY
 70
     0
  9
$TDCREATE
 40
2460411.602912836
  9
$TDUCREATE
 40
2460411.227912836
  9
$TDUPDATE
 40
2460411.602914109
  9
$TDUUPDATE
 40
2460411.227914109
  9
$TDINDWG
 40
0.0000000116
  9
$TDUSRTIMER
 40
0.0000000116
  9
$USRTIMER
 70
     1
  9
$ANGBASE
 50
0.0
  9
$ANGDIR
 70
     0
  9
$PDMODE
 70
     0
  9
$PDSIZE
 40
0.0
  9
$PLINEWID
 40
0.0
  9
$SPLFRAME
 70
     0
  9
$SPLINETYPE
 70
     6
  9
$SPLINESEGS
 70
     8
  9
$HANDSEED
  5
1BE
  9
$SURFTAB1
 70
     6
  9
$SURFTAB2
 70
     6
  9
$SURFTYPE
 70
     6
  9
$SURFU
 70
     6
  9
$SURFV
 70
     6
  9
$UCSBASE
  2

  9
$UCSNAME
  2

  9
$UCSORG
 10
0.0
 20
0.0
 30
0.0
  9
$UCSXDIR
 10
1.0
 20
0.0
 30
0.0
  9
$UCSYDIR
 10
0.0
 20
1.0
 30
0.0
  9
$UCSORTHOREF
  2

  9
$UCSORTHOVIEW
 70
     0
  9
$UCSORGTOP
 10
0.0
 20
0.0
 30
0.0
  9
$UCSORGBOTTOM
 10
0.0
 20
0.0
 30
0.0
  9
$UCSORGLEFT
 10
0.0
 20
0.0
 30
0.0
  9
$UCSORGRIGHT
 10
0.0
 20
0.0
 30
0.0
  9
$UCSORGFRONT
 10
0.0
 20
0.0
 30
0.0
  9
$UCSORGBACK
 10
0.0
 20
0.0
 30
0.0
  9
$PUCSBASE
  2

  9
$PUCSNAME
  2

  9
$PUCSORG
 10
0.0
 20
0.0
 30
0.0
  9
$PUCSXDIR
 10
1.0
 20
0.0
 30
0.0
  9
$PUCSYDIR
 10
0.0
 20
1.0
 30
0.0
  9
$PUCSORTHOREF
  2

  9
$PUCSORTHOVIEW
 70
     0
  9
$PUCSORGTOP
 10
0.0
 20
0.0
 30
0.0
  9
$PUCSORGBOTTOM
 10
0.0
 20
0.0
 30
0.0
  9
$PUCSORGLEFT
 10
0.0
 20
0.0
 30
0.0
  9
$PUCSORGRIGHT
 10
0.0
 20
0.0
 30
0.0
  9
$PUCSORGFRONT
 10
0.0
 20
0.0
 30
0.0
  9
$PUCSORGBACK
 10
0.0
 20
0.0
 30
0.0
  9
$USERI1
 70
     0
  9
$USERI2
 70
     0
  9
$USERI3
 70
     0
  9
$USERI4
 70
     0
  9
$USERI5
 70
     0
  9
$USERR1
 40
18.1
  9
$USERR2
 40
0.0
  9
$USERR3
 40
0.0
  9
$USERR4
 40
0.0
  9
$USERR5
 40
0.0
  9
$WORLDVIEW
 70
     1
  9
$SHADEDGE
 70
     3
  9
$SHADEDIF
 70
    70
  9
$TILEMODE
 70
     1
  9
$MAXACTVP
 70
    64
  9
$PINSBASE
 10
0.0
 20
0.0
 30
0.0
  9
$PLIMCHECK
 70
     0
  9
$PEXTMIN
 10
1.00000000000000E+20
 20
1.00000000000000E+20
 30
1.00000000000000E+20
  9
$PEXTMAX
 10
-1.00000000000000E+20
 20
-1.00000000000000E+20
 30
-1.00000000000000E+20
  9
$PLIMMIN
 10
0.0
 20
0.0
  9
$PLIMMAX
 10
12.0
 20
9.0
  9
$UNITMODE
 70
     0
  9
$VISRETAIN
 70
     1
  9
$PLINEGEN
 70
     0
  9
$PSLTSCALE
 70
     1
  9
$TREEDEPTH
 70
  3020
  9
$CMLSTYLE
  2
Standard
  9
$CMLJUST
 70
     0
  9
$CMLSCALE
 40
1.0
  9
$PROXYGRAPHICS
 70
     1
  9
$MEASUREMENT
 70
     1
  9
$CELWEIGHT
370
    -1
  9
$ENDCAPS
280
     0
  9
$JOINSTYLE
280
     0
  9
$LWDISPLAY
290
     0
  9
$INSUNITS
 70
     4
  9
$HYPERLINKBASE
  1

  9
$STYLESHEET
  1

  9
$XEDIT
290
     1
  9
$CEPSNTYPE
380
     0
  9
$PSTYLEMODE
290
     1
  9
$FINGERPRINTGUID
  2
{5639C51C-008F-4DEC-95B4-E00F70C6BC9C}
  9
$VERSIONGUID
  2
{FAEB1C32-E019-11D5-929B-00C0DF256EC4}
  9
$EXTNAMES
290
     1
  9
$PSVPSCALE
 40
0.0
  9
$OLESTARTUP
290
     0
  0
ENDSEC
  0
SECTION
  2
CLASSES
  0
CLASS
  1
ACDBDICTIONARYWDFLT
  2
AcDbDictionaryWithDefault
  3
ObjectDBX Classes
 90
        0
280
     0
281
     0
  0
CLASS
  1
VISUALSTYLE
  2
AcDbVisualStyle
  3
ObjectDBX Classes
 90
     4095
280
     0
281
     0
  0
CLASS
  1
MATERIAL
  2
AcDbMaterial
  3
ObjectDBX Classes
 90
     1153
280
     0
281
     0
  0
CLASS
  1
DICTIONARYVAR
  2
AcDbDictionaryVar
  3
ObjectDBX Classes
 90
        0
280
     0
281
     0
  0
CLASS
  1
ACDBPLACEHOLDER
  2
AcDbPlaceHolder
  3
ObjectDBX Classes
 90
        0
280
     0
281
     0
  0
CLASS
  1
LAYOUT
  2
AcDbLayout
  3
ObjectDBX Classes
 90
        0
280
     0
281
     0
  0
ENDSEC
  0
SECTION
  2
TABLES
  0
TABLE
  2
VPORT
  5
8
330
0
100
AcDbSymbolTable
 70
     1
  0
VPORT
  5
29
330
8
100
AcDbSymbolTableRecord
100
AcDbViewportTableRecord
  2
*Active
 70
     0
 10
0.0
 20
0.0
 11
1.0
 21
1.0
 12
105.0000000000001
 22
148.5
 13
0.0
 23
0.0
 14
0.5
 24
0.5
 15
0.5
 25
0.5
 16
0.0
 26
0.0
 36
1.0
 17
0.0
 27
0.0
 37
0.0
 40
326.7
 41
1.60267857142857
 42
50.0
 43
0.0
 44
0.0
 50
0.0
 51
0.0
 71
     0
 72
   100
 73
     1
 74
     3
 75
     0
 76
     0
 77
     0
 78
     0
281
     0
 65
     1
110
0.0
120
0.0
130
0.0
111
1.0
121
0.0
131
0.0
112
0.0
122
1.0
132
0.0
 79
     0
146
0.0
  0
ENDTAB
  0
TABLE
  2
LTYPE
  5
5
330
0
100
AcDbSymbolTable
 70
     8
  0
LTYPE
  5
14
330
5
100
AcDbSymbolTableRecord
100
AcDbLinetypeTableRecord
  2
ByBlock
 70
     0
  3

 72
    65
 73
     0
 40
0.0
  0
LTYPE
  5
15
330
5
100
AcDbSymbolTableRecord
100
AcDbLinetypeTableRecord
  2
ByLayer
 70
     0
  3

 72
    65
 73
     0
 40
0.0
  0
LTYPE
  5
16
330
5
100
AcDbSymbolTableRecord
100
AcDbLinetypeTableRecord
  2
Continuous
 70
     0
  3
Solid line
 72
    65
 73
     0
 40
0.0
  0
LTYPE
  5
3F
330
5
100
AcDbSymbolTableRecord
100
AcDbLinetypeTableRecord
  2
DASHED
 70
     0
  3
Dashed
 72
    65
 73
     2
 40
15.0
 49
7.0
 74
     0
 49
-8.0
 74
     0
  0
LTYPE
  5
40
330
5
100
AcDbSymbolTableRecord
100
AcDbLinetypeTableRecord
  2
DOTTED
 70
     0
  3
Dotted
 72
    65
 73
     2
 40
1.0
 49
0.0
 74
     0
 49
-1.0
 74
     0
  0
LTYPE
  5
41
330
5
100
AcDbSymbolTableRecord
100
AcDbLinetypeTableRecord
  2
DOT_CENTER
 70
     0
  3
Dot_Center
 72
    65
 73
     4
 40
14.0
 49
12.0
 74
     0
 49
-1.0
 74
     0
 49
0.0
 74
     0
 49
-1.0
 74
     0
  0
LTYPE
  5
42
330
5
100
AcDbSymbolTableRecord
100
AcDbLinetypeTableRecord
  2
LONG_DASHED
 70
     0
  3
Long_Dashed
 72
    65
 73
     2
 40
15.0
 49
10.0
 74
     0
 49
-5.0
 74
     0
  0
LTYPE
  5
43
330
5
100
AcDbSymbolTableRecord
100
AcDbLinetypeTableRecord
  2
DASH_CENTER
 70
     0
  3
Dash_Center
 72
    65
 73
     4
 40
14.0
 49
11.0
 74
     0
 49
-1.0
 74
     0
 49
1.0
 74
     0
 49
-1.0
 74
     0
  0
LTYPE
  5
44
330
5
100
AcDbSymbolTableRecord
100
AcDbLinetypeTableRecord
  2
PHANTOM
 70
     0
  3
Phantom
 72
    65
 73
     6
 40
13.0
 49
10.0
 74
     0
 49
-1.0
 74
     0
 49
0.0
 74
     0
 49
-1.0
 74
     0
 49
0.0
 74
     0
 49
-1.0
 74
     0
  0
LTYPE
  5
45
330
5
100
AcDbSymbolTableRecord
100
AcDbLinetypeTableRecord
  2
CENTER_DASH_DASH
 70
     0
  3
Center_Dash_Dash
 72
    65
 73
     6
 40
14.0
 49
9.0
 74
     0
 49
-1.0
 74
     0
 49
1.0
 74
     0
 49
-1.0
 74
     0
 49
1.0
 74
     0
 49
-1.0
 74
     0
  0
ENDTAB
  0
TABLE
  2
LAYER
  5
2
330
0
100
AcDbSymbolTable
 70
     3
  0
LAYER
  5
10
330
2
100
AcDbSymbolTableRecord
100
AcDbLayerTableRecord
  2
0
 70
     0
 62
     7
  6
Continuous
370
    -3
390
F
  0
LAYER
  5
46
330
2
100
AcDbSymbolTableRecord
100
AcDbLayerTableRecord
  2
1
 70
     0
 62
     7
  6
Continuous
370
    -3
390
F
  0
LAYER
  5
47
330
2
100
AcDbSymbolTableRecord
100
AcDbLayerTableRecord
  2
_U_30EC_U_30A4_U_30E4_U_30FC_1
 70
     0
 62
     7
  6
Continuous
370
    -3
390
F
  0
ENDTAB
  0
TABLE
  2
STYLE
  5
3
330
0
100
AcDbSymbolTable
 70
     3
  0
STYLE
  5
11
330
3
100
AcDbSymbolTableRecord
100
AcDbTextStyleTableRecord
  2
Standard
 70
     0
 40
0.0
 41
1.0
 50
0.0
 71
     0
 42
0.2
  3
txt
  4

  0
STYLE
  5
B6
330
3
100
AcDbSymbolTableRecord
100
AcDbTextStyleTableRecord
  2
CONVERTER_11
 70
     0
 40
0.0
 41
0.89
 50
0.0
 71
     0
 42
0.2
  3
MS Mincho.ttf
  4

1001
ACAD
1000
MS Mincho
1071
    32785
  0
STYLE
  5
158
330
3
100
AcDbSymbolTableRecord
100
AcDbTextStyleTableRecord
  2
CONVERTER_12
 70
     0
 40
0.0
 41
0.9
 50
0.0
 71
     0
 42
0.2
  3
txt.shx
  4

  0
ENDTAB
  0
TABLE
  2
VIEW
  5
6
330
0
100
AcDbSymbolTable
 70
     0
  0
ENDTAB
  0
TABLE
  2
UCS
  5
7
330
0
100
AcDbSymbolTable
 70
     0
  0
ENDTAB
  0
TABLE
  2
APPID
  5
9
330
0
100
AcDbSymbolTable
 70
     1
  0
APPID
  5
12
330
9
100
AcDbSymbolTableRecord
100
AcDbRegAppTableRecord
  2
ACAD
 70
     0
  0
ENDTAB
  0
TABLE
  2
DIMSTYLE
  5
A
330
0
100
AcDbSymbolTable
 70
     5
100
AcDbDimStyleTable
  0
DIMSTYLE
105
27
330
A
100
AcDbSymbolTableRecord
100
AcDbDimStyleTableRecord
  2
Standard
 70
     0
178
     0
340
11
  0
DIMSTYLE
105
170
102
{ACAD_REACTORS
330
171
102
}
330
A
100
AcDbSymbolTableRecord
100
AcDbDimStyleTableRecord
  2
ME10_DIM_10
 70
     0
  3
{\Fgdt;n}<>
 41
3.5
 42
0.0
 44
1.0
 73
     0
 74
     0
 77
     1
 78
     8
140
3.5
147
1.0
172
     1
173
     1
174
     1
175
     1
176
     2
177
     2
271
     2
178
     7
271
     2
340
158
  0
DIMSTYLE
105
17B
102
{ACAD_REACTORS
330
17C
102
}
330
A
100
AcDbSymbolTableRecord
100
AcDbDimStyleTableRecord
  2
ME10_DIM_11
 70
     0
 41
3.5
 42
0.0
 44
1.0
 73
     0
 74
     0
 77
     1
 78
     8
140
3.5
147
1.0
172
     1
173
     1
174
     1
175
     1
176
     2
177
     2
271
     2
178
     7
271
     2
340
158
  0
DIMSTYLE
105
186
102
{ACAD_REACTORS
330
187
102
}
330
A
100
AcDbSymbolTableRecord
100
AcDbDimStyleTableRecord
  2
ME10_DIM_12
 70
     0
 41
3.5
 42
0.0
 44
1.0
 73
     0
 74
     0
 77
     1
 78
     8
140
3.5
147
1.0
172
     1
173
     1
174
     1
175
     1
176
     2
177
     2
271
     2
178
     7
271
     2
340
158
  0
DIMSTYLE
105
191
102
{ACAD_REACTORS
330
192
102
}
330
A
100
AcDbSymbolTableRecord
100
AcDbDimStyleTableRecord
  2
ME10_DIM_13
 70
     0
 41
3.5
 42
0.0
 44
1.0
 73
     0
 74
     0
 77
     1
 78
     8
140
3.5
147
1.0
172
     1
173
     1
174
     1
175
     1
176
     2
177
     2
271
     2
178
     7
271
     2
340
158
  0
ENDTAB
  0
TABLE
  2
BLOCK_RECORD
  5
1
330
0
100
AcDbSymbolTable
 70
     8
  0
BLOCK_RECORD
  5
1F
330
1
100
AcDbSymbolTableRecord
100
AcDbBlockTableRecord
  2
*Model_Space
340
22
  0
BLOCK_RECORD
  5
1B
330
1
100
AcDbSymbolTableRecord
100
AcDbBlockTableRecord
  2
*Paper_Space
340
1E
  0
BLOCK_RECORD
  5
23
330
1
100
AcDbSymbolTableRecord
100
AcDbBlockTableRecord
  2
*Paper_Space0
340
26
  0
BLOCK_RECORD
  5
48
330
1
100
AcDbSymbolTableRecord
100
AcDbBlockTableRecord
  2
開示A4
340
0
102
{BLKREFS
331
4C
102
}
  0
BLOCK_RECORD
  5
4B
330
1
100
AcDbSymbolTableRecord
100
AcDbBlockTableRecord
  2
開示A4枠
340
0
102
{BLKREFS
331
52
102
}
  0
BLOCK_RECORD
  5
4F
330
1
100
AcDbSymbolTableRecord
100
AcDbBlockTableRecord
  2
T252
340
0
102
{BLKREFS
331
53
102
}
  0
BLOCK_RECORD
  5
167
330
1
100
AcDbSymbolTableRecord
100
AcDbBlockTableRecord
  2
*D4
340
0
  0
BLOCK_RECORD
  5
172
330
1
100
AcDbSymbolTableRecord
100
AcDbBlockTableRecord
  2
*D5
340
0
  0
BLOCK_RECORD
  5
17D
330
1
100
AcDbSymbolTableRecord
100
AcDbBlockTableRecord
  2
*D6
340
0
  0
BLOCK_RECORD
  5
188
330
1
100
AcDbSymbolTableRecord
100
AcDbBlockTableRecord
  2
*D7
340
0
  0
ENDTAB
  0
ENDSEC
  0
SECTION
  2
BLOCKS
  0
BLOCK
  5
20
330
1F
100
AcDbEntity
  8
0
100
AcDbBlockBegin
  2
*Model_Space
 70
     0
 10
0.0
 20
0.0
 30
0.0
  3
*Model_Space
  1

  0
ENDBLK
  5
21
330
1F
100
AcDbEntity
  8
0
100
AcDbBlockEnd
  0
BLOCK
  5
1C
330
1B
100
AcDbEntity
 67
     1
  8
0
100
AcDbBlockBegin
  2
*Paper_Space
 70
     0
 10
0.0
 20
0.0
 30
0.0
  3
*Paper_Space
  1

  0
ENDBLK
  5
1D
330
1B
100
AcDbEntity
 67
     1
  8
0
100
AcDbBlockEnd
  0
BLOCK
  5
24
330
23
100
AcDbEntity
  8
0
100
AcDbBlockBegin
  2
*Paper_Space0
 70
     0
 10
0.0
 20
0.0
 30
0.0
  3
*Paper_Space0
  1

  0
ENDBLK
  5
25
330
23
100
AcDbEntity
  8
0
100
AcDbBlockEnd
  0
BLOCK
  5
49
330
48
100
AcDbEntity
  8
0
100
AcDbBlockBegin
  2
開示A4
 70
     0
 10
0.0
 20
0.0
 30
0.0
  3
開示A4
  1

  0
POINT
  5
54
330
48
100
AcDbEntity
  8
1
 62
     4
100
AcDbPoint
 10
183.0000000000001
 20
15.00000000000001
 30
0.0
  0
POINT
  5
55
330
48
100
AcDbEntity
  8
1
 62
     4
100
AcDbPoint
 10
93.75
 20
17.00000000000001
 30
0.0
  0
POINT
  5
56
330
48
100
AcDbEntity
  8
1
 62
     4
100
AcDbPoint
 10
85.25
 20
17.00000000000001
 30
0.0
  0
POINT
  5
57
330
48
100
AcDbEntity
  8
1
 62
     4
100
AcDbPoint
 10
106.5
 20
19.00000000000001
 30
0.0
  0
POINT
  5
58
330
48
100
AcDbEntity
  8
1
 62
     4
100
AcDbPoint
 10
106.5
 20
12.50000000000001
 30
0.0
  0
POINT
  5
59
330
48
100
AcDbEntity
  8
1
 62
     4
100
AcDbPoint
 10
112.25
 20
12.50000000000001
 30
0.0
  0
POINT
  5
5A
330
48
100
AcDbEntity
  8
1
 62
     4
100
AcDbPoint
 10
100.75
 20
12.50000000000001
 30
0.0
  0
POINT
  5
5B
330
48
100
AcDbEntity
  8
1
 62
     4
100
AcDbPoint
 10
123.5
 20
19.00000000000001
 30
0.0
  0
POINT
  5
5C
330
48
100
AcDbEntity
  8
1
 62
     4
100
AcDbPoint
 10
123.5
 20
12.50000000000001
 30
0.0
  0
POINT
  5
5D
330
48
100
AcDbEntity
  8
1
 62
     4
100
AcDbPoint
 10
129.25
 20
12.50000000000001
 30
0.0
  0
POINT
  5
5E
330
48
100
AcDbEntity
  8
1
 62
     4
100
AcDbPoint
 10
117.75
 20
12.50000000000001
 30
0.0
  0
POINT
  5
5F
330
48
100
AcDbEntity
  8
1
 62
     4
100
AcDbPoint
 10
140.5000000000001
 20
19.00000000000001
 30
0.0
  0
POINT
  5
60
330
48
100
AcDbEntity
  8
1
 62
     4
100
AcDbPoint
 10
140.5000000000001
 20
12.50000000000001
 30
0.0
  0
POINT
  5
61
330
48
100
AcDbEntity
  8
1
 62
     4
100
AcDbPoint
 10
146.2500000000001
 20
12.50000000000001
 30
0.0
  0
POINT
  5
62
330
48
100
AcDbEntity
  8
1
 62
     4
100
AcDbPoint
 10
134.7500000000001
 20
12.50000000000001
 30
0.0
  0
POINT
  5
63
330
48
100
AcDbEntity
  8
1
 62
     4
100
AcDbPoint
 10
151.7500000000001
 20
12.50000000000001
 30
0.0
  0
POINT
  5
64
330
48
100
AcDbEntity
  8
1
 62
     4
100
AcDbPoint
 10
163.2500000000001
 20
12.50000000000001
 30
0.0
  0
POINT
  5
65
330
48
100
AcDbEntity
  8
1
 62
     4
100
AcDbPoint
 10
157.5000000000001
 20
12.50000000000001
 30
0.0
  0
POINT
  5
66
330
48
100
AcDbEntity
  8
1
 62
     4
100
AcDbPoint
 10
57.0
 20
14.25000000000001
 30
0.0
  0
POINT
  5
67
330
48
100
AcDbEntity
  8
1
 62
     4
100
AcDbPoint
 10
57.0
 20
22.75000000000001
 30
0.0
  0
POINT
  5
68
330
48
100
AcDbEntity
  8
1
 62
     4
100
AcDbPoint
 10
47.5
 20
282.0000000000003
 30
0.0
  0
POINT
  5
69
330
48
100
AcDbEntity
  8
1
 62
     4
100
AcDbPoint
 10
157.5000000000001
 20
19.00000000000001
 30
0.0
  0
POINT
  5
6A
330
48
100
AcDbEntity
  8
1
 62
     4
100
AcDbPoint
 10
57.0
 20
16.25000000000001
 30
0.0
  0
POINT
  5
6B
330
48
100
AcDbEntity
  8
1
 62
     4
100
AcDbPoint
 10
57.0
 20
24.75000000000001
 30
0.0
  0
POINT
  5
6C
330
48
100
AcDbEntity
  8
1
 62
     4
100
AcDbPoint
 10
57.0
 20
20.75000000000001
 30
0.0
  0
POINT
  5
6D
330
48
100
AcDbEntity
  8
1
 62
     4
100
AcDbPoint
 10
57.0
 20
12.25000000000001
 30
0.0
  0
POINT
  5
6E
330
48
100
AcDbEntity
  8
1
 62
     4
100
AcDbPoint
 10
34.0
 20
34.00000000000001
 30
0.0
  0
LINE
  5
73
330
48
100
AcDbEntity
  8
1
  6
Continuous
 62
     7
100
AcDbLine
 10
105.0
 20
10.00000000000001
 30
0.0
 11
200.0000000000001
 21
10.00000000000001
 31
0.0
  0
LINE
  5
74
330
48
100
AcDbEntity
  8
1
  6
Continuous
 62
     2
100
AcDbLine
 10
105.0
 20
10.00000000000001
 30
0.0
 11
105.0
 21
5.00000000000001
 31
0.0
  0
LINE
  5
75
330
48
100
AcDbEntity
  8
1
  6
Continuous
 62
     7
100
AcDbLine
 10
200.0000000000001
 20
148.5
 30
0.0
 11
200.0000000000001
 21
287.0000000000003
 31
0.0
  0
LINE
  5
76
330
48
100
AcDbEntity
  8
1
  6
Continuous
 62
     2
100
AcDbLine
 10
200.0000000000001
 20
148.5
 30
0.0
 11
205.0000000000001
 21
148.5
 31
0.0
  0
LINE
  5
77
330
48
100
AcDbEntity
  8
1
  6
Continuous
 62
     7
100
AcDbLine
 10
25.0
 20
148.5
 30
0.0
 11
25.0
 21
287.0000000000003
 31
0.0
  0
LINE
  5
78
330
48
100
AcDbEntity
  8
1
  6
Continuous
 62
     2
100
AcDbLine
 10
25.0
 20
148.5
 30
0.0
 11
20.0
 21
148.5
 31
0.0
  0
LINE
  5
79
330
48
100
AcDbEntity
  8
1
  6
Continuous
 62
     7
100
AcDbLine
 10
105.0
 20
287.0000000000003
 30
0.0
 11
25.0
 21
287.0000000000003
 31
0.0
  0
LINE
  5
7A
330
48
100
AcDbEntity
  8
1
  6
Continuous
 62
     2
100
AcDbLine
 10
105.0
 20
287.0000000000003
 30
0.0
 11
105.0
 21
292.0000000000003
 31
0.0
  0
LINE
  5
7B
330
48
100
AcDbEntity
  8
1
  6
Continuous
 62
     2
100
AcDbLine
 10
166.0000000000001
 20
20.00000000000001
 30
0.0
 11
200.0000000000001
 21
20.00000000000001
 31
0.0
  0
LINE
  5
7C
330
48
100
AcDbEntity
  8
1
  6
Continuous
 62
     2
100
AcDbLine
 10
98.0
 20
27.00000000000001
 30
0.0
 11
98.0
 21
10.00000000000001
 31
0.0
  0
LINE
  5
7D
330
48
100
AcDbEntity
  8
1
  6
Continuous
 62
     2
100
AcDbLine
 10
115.0
 20
27.00000000000001
 30
0.0
 11
115.0
 21
9.99999999999999
 31
0.0
  0
LINE
  5
7E
330
48
100
AcDbEntity
  8
1
  6
Continuous
 62
     2
100
AcDbLine
 10
149.0000000000001
 20
27.00000000000001
 30
0.0
 11
149.0000000000001
 21
10.00000000000001
 31
0.0
  0
LINE
  5
7F
330
48
100
AcDbEntity
  8
1
  6
Continuous
 62
     2
100
AcDbLine
 10
132.0000000000001
 20
27.00000000000001
 30
0.0
 11
132.0000000000001
 21
9.99999999999999
 31
0.0
  0
LINE
  5
80
330
48
100
AcDbEntity
  8
1
  6
Continuous
 62
     2
100
AcDbLine
 10
166.0000000000001
 20
27.00000000000001
 30
0.0
 11
166.0000000000001
 21
10.00000000000001
 31
0.0
  0
LINE
  5
81
330
48
100
AcDbEntity
  8
1
  6
Continuous
 62
     2
100
AcDbLine
 10
55.0
 20
277.0000000000003
 30
0.0
 11
25.0
 21
277.0000000000003
 31
0.0
  0
LINE
  5
82
330
48
100
AcDbEntity
  8
1
  6
Continuous
 62
     7
100
AcDbLine
 10
25.0
 20
10.00000000000001
 30
0.0
 11
25.0
 21
148.5
 31
0.0
  0
LINE
  5
83
330
48
100
AcDbEntity
  8
1
  6
Continuous
 62
     2
100
AcDbLine
 10
40.0
 20
287.0000000000003
 30
0.0
 11
40.0
 21
277.0000000000003
 31
0.0
  0
LINE
  5
84
330
48
100
AcDbEntity
  8
1
  6
Continuous
 62
     2
100
AcDbLine
 10
55.0
 20
287.0000000000003
 30
0.0
 11
55.0
 21
277.0000000000003
 31
0.0
  0
LINE
  5
85
330
48
100
AcDbEntity
  8
1
  6
Continuous
 62
     2
100
AcDbLine
 10
33.0
 20
41.00000000000001
 30
0.0
 11
33.0
 21
27.00000000000001
 31
0.0
  0
LINE
  5
86
330
48
100
AcDbEntity
  8
1
  6
Continuous
 62
     7
100
AcDbLine
 10
200.0000000000001
 20
27.00000000000001
 30
0.0
 11
25.0
 21
27.00000000000001
 31
0.0
  0
LINE
  5
87
330
48
100
AcDbEntity
  8
1
  6
Continuous
 62
     7
100
AcDbLine
 10
25.0
 20
41.0
 30
0.0
 11
200.0000000000001
 21
41.0
 31
0.0
  0
LINE
  5
88
330
48
100
AcDbEntity
  8
1
  6
PHANTOM
 62
     4
100
AcDbLine
 10
0.0
 20
0.0
 30
0.0
 11
210.0000000000001
 21
0.0
 31
0.0
  0
LINE
  5
89
330
48
100
AcDbEntity
  8
1
  6
PHANTOM
 62
     4
100
AcDbLine
 10
210.0000000000001
 20
0.0
 30
0.0
 11
210.0000000000001
 21
297.0
 31
0.0
  0
LINE
  5
8A
330
48
100
AcDbEntity
  8
1
  6
PHANTOM
 62
     4
100
AcDbLine
 10
210.0000000000001
 20
297.0
 30
0.0
 11
0.0
 21
297.0
 31
0.0
  0
LINE
  5
8B
330
48
100
AcDbEntity
  8
1
  6
PHANTOM
 62
     4
100
AcDbLine
 10
0.0
 20
297.0
 30
0.0
 11
0.0
 21
0.0
 31
0.0
  0
LINE
  5
8C
330
48
100
AcDbEntity
  8
1
  6
Continuous
 62
     7
100
AcDbLine
 10
25.0
 20
10.00000000000001
 30
0.0
 11
105.0
 21
10.00000000000001
 31
0.0
  0
LINE
  5
8D
330
48
100
AcDbEntity
  8
1
  6
Continuous
 62
     7
100
AcDbLine
 10
200.0000000000001
 20
10.00000000000001
 30
0.0
 11
200.0000000000001
 21
148.5
 31
0.0
  0
LINE
  5
8E
330
48
100
AcDbEntity
  8
1
  6
Continuous
 62
     7
100
AcDbLine
 10
200.0000000000001
 20
287.0000000000003
 30
0.0
 11
105.0
 21
287.0000000000003
 31
0.0
  0
LINE
  5
8F
330
48
100
AcDbEntity
  8
1
  6
Continuous
 62
     2
100
AcDbLine
 10
25.0
 20
18.50000000000001
 30
0.0
 11
81.0
 21
18.50000000000001
 31
0.0
  0
LINE
  5
90
330
48
100
AcDbEntity
  8
1
  6
Continuous
 62
     2
100
AcDbLine
 10
33.0
 20
27.00000000000001
 30
0.0
 11
33.0
 21
10.00000000000001
 31
0.0
  0
LINE
  5
91
330
48
100
AcDbEntity
  8
1
  6
Continuous
 62
     7
100
AcDbLine
 10
191.0000000000001
 20
24.70000000000002
 30
0.0
 11
191.0000000000001
 21
22.30000000000001
 31
0.0
  0
LINE
  5
92
330
48
100
AcDbEntity
  8
1
  6
Continuous
 62
     7
100
AcDbLine
 10
191.0000000000001
 20
24.70000000000002
 30
0.0
 11
196.0000000000001
 21
25.50000000000001
 31
0.0
  0
LINE
  5
93
330
48
100
AcDbEntity
  8
1
  6
Continuous
 62
     7
100
AcDbLine
 10
196.0000000000001
 20
25.50000000000001
 30
0.0
 11
196.0000000000001
 21
21.50000000000001
 31
0.0
  0
LINE
  5
94
330
48
100
AcDbEntity
  8
1
  6
Continuous
 62
     7
100
AcDbLine
 10
196.0000000000001
 20
21.50000000000001
 30
0.0
 11
191.0000000000001
 21
22.30000000000001
 31
0.0
  0
LINE
  5
95
330
48
100
AcDbEntity
  8
1
  6
DOT_CENTER
 62
     2
100
AcDbLine
 10
184.0000000000001
 20
23.50000000000001
 30
0.0
 11
197.0000000000001
 21
23.50000000000001
 31
0.0
  0
LINE
  5
96
330
48
100
AcDbEntity
  8
1
  6
DOT_CENTER
 62
     2
100
AcDbLine
 10
187.0000000000001
 20
26.50000000000001
 30
0.0
 11
187.0000000000001
 21
20.50000000000001
 31
0.0
  0
LINE
  5
97
330
48
100
AcDbEntity
  8
1
  6
Continuous
 62
     2
100
AcDbLine
 10
81.0
 20
27.00000000000001
 30
0.0
 11
81.0
 21
10.00000000000001
 31
0.0
  0
CIRCLE
  5
98
330
48
100
AcDbEntity
  8
1
  6
Continuous
 62
     7
100
AcDbCircle
 10
103.5
 20
12.50000000000001
 30
0.0
 40
0.2999999999999972
  0
CIRCLE
  5
99
330
48
100
AcDbEntity
  8
1
  6
Continuous
 62
     7
100
AcDbCircle
 10
109.5
 20
12.50000000000001
 30
0.0
 40
0.2999999999999972
  0
CIRCLE
  5
9A
330
48
100
AcDbEntity
  8
1
  6
Continuous
 62
     7
100
AcDbCircle
 10
120.5
 20
12.50000000000001
 30
0.0
 40
0.2999999999999972
  0
CIRCLE
  5
9B
330
48
100
AcDbEntity
  8
1
  6
Continuous
 62
     7
100
AcDbCircle
 10
126.5
 20
12.50000000000001
 30
0.0
 40
0.2999999999999972
  0
CIRCLE
  5
9C
330
48
100
AcDbEntity
  8
1
  6
Continuous
 62
     7
100
AcDbCircle
 10
137.5000000000001
 20
12.50000000000001
 30
0.0
 40
0.2999999999999829
  0
CIRCLE
  5
9D
330
48
100
AcDbEntity
  8
1
  6
Continuous
 62
     7
100
AcDbCircle
 10
143.5000000000001
 20
12.50000000000001
 30
0.0
 40
0.2999999999999829
  0
CIRCLE
  5
9E
330
48
100
AcDbEntity
  8
1
  6
Continuous
 62
     7
100
AcDbCircle
 10
160.5000000000001
 20
12.50000000000001
 30
0.0
 40
0.2999999999998977
  0
CIRCLE
  5
9F
330
48
100
AcDbEntity
  8
1
  6
Continuous
 62
     7
100
AcDbCircle
 10
154.5000000000001
 20
12.50000000000001
 30
0.0
 40
0.2999999999999829
  0
CIRCLE
  5
A0
330
48
100
AcDbEntity
  8
1
  6
Continuous
 62
     7
100
AcDbCircle
 10
187.0000000000001
 20
23.50000000000001
 30
0.0
 40
1.200000000000074
  0
CIRCLE
  5
A1
330
48
100
AcDbEntity
  8
1
  6
Continuous
 62
     7
100
AcDbCircle
 10
187.0000000000001
 20
23.50000000000001
 30
0.0
 40
2.0
  0
CIRCLE
  5
A2
330
48
100
AcDbEntity
  8
1
  6
DOT_CENTER
 62
     7
100
AcDbCircle
 10
89.5
 20
16.00000000000001
 30
0.0
 40
0.1000000000000227
  0
CIRCLE
  5
A3
330
48
100
AcDbEntity
  8
1
  6
DOT_CENTER
 62
     7
100
AcDbCircle
 10
89.5
 20
18.00000000000001
 30
0.0
 40
0.1000000000000227
  0
SPLINE
  5
A4
102
{ACAD_REACTORS
330
C3
102
}
330
48
100
AcDbEntity
  8
_U_30EC_U_30A4_U_30E4_U_30FC_1
  6
Continuous
 62
     2
100
AcDbSpline
210
0.0
220
0.0
230
1.0
 70
     8
 71
     3
 72
    24
 73
    20
 74
    18
 42
0.000000001
 43
0.0000000001
 44
0.00000001
 40
0.0
 40
0.0
 40
0.0
 40
0.0
 40
0.2211075008753823
 40
0.4273218586245379
 40
0.5080174679238849
 40
0.5914835907869503
 40
0.8143265690191939
 40
1.054651302686503
 40
1.295452694023093
 40
1.518109231328747
 40
1.54086432190539
 40
1.595126460622651
 40
1.659890947895992
 40
1.714153085187378
 40
1.736908174961679
 40
1.764951100735401
 40
1.801562291221019
 40
1.953914424543689
 40
2.126104167379765
 40
2.126104167379765
 40
2.126104167379765
 40
2.126104167379765
 10
185.9375369556888
 20
15.58989295113017
 30
0.0
 10
185.9112579081811
 20
15.53097628234375
 30
0.0
 10
185.8604698894425
 20
15.41711139679256
 30
0.0
 10
185.8131784839111
 20
15.14441958233118
 30
0.0
 10
185.7043482802617
 20
15.24445482575454
 30
0.0
 10
185.5514800279637
 20
15.27118593367334
 30
0.0
 10
185.7686155181198
 20
15.48518135017632
 30
0.0
 10
185.7838483674381
 20
15.70332117782486
 30
0.0
 10
185.8906889492
 20
15.88451579066427
 30
0.0
 10
185.8305380947078
 20
16.16913226311401
 30
0.0
 10
185.9334317395402
 20
16.14114089222451
 30
0.0
 10
185.977993346815
 20
16.13243251602299
 30
0.0
 10
186.0380842395397
 20
16.12139654183355
 30
0.0
 10
186.0756619587439
 20
16.1076752305556
 30
0.0
 10
186.1252466928607
 20
16.10756076160222
 30
0.0
 10
186.0930158919325
 20
16.07306592398624
 30
0.0
 10
186.0171802221881
 20
16.08404104537963
 30
0.0
 10
186.0429447159694
 20
15.89858969582451
 30
0.0
 10
186.0055896763849
 20
15.8070231354959
 30
0.0
 10
185.9857704961609
 20
15.75844135397706
 30
0.0
 11
185.9375369556888
 21
15.58989295113017
 31
0.0
 11
185.8616471328551
 21
15.3822170831856
 31
0.0
 11
185.7717402238432
 21
15.19663392356193
 31
0.0
 11
185.7011493923109
 21
15.23573272563551
 31
0.0
 11
185.6245525192651
 21
15.2688916318772
 31
0.0
 11
185.7214026947455
 21
15.46958801203538
 31
0.0
 11
185.7994641467471
 21
15.69688163177024
 31
0.0
 11
185.858971692972
 21
15.93021436608691
 31
0.0
 11
185.9001601511226
 21
16.14902808999054
 31
0.0
 11
185.9224183822215
 21
16.14429889221395
 31
0.0
 11
185.975495702534
 21
16.13302157443899
 31
0.0
 11
186.0388460525845
 21
16.11956154999792
 31
0.0
 11
186.0919233728971
 21
16.10828423222296
 31
0.0
 11
186.1141816039959
 21
16.10355503444637
 31
0.0
 11
186.0964097157461
 21
16.0818625084101
 31
0.0
 11
186.0606122998071
 21
16.07418628445367
 31
0.0
 11
186.028195330148
 21
15.92532288171314
 31
0.0
 11
185.9857704961609
 21
15.75844135397706
 31
0.0
  0
SPLINE
  5
A5
102
{ACAD_REACTORS
330
C3
102
}
330
48
100
AcDbEntity
  8
_U_30EC_U_30A4_U_30E4_U_30FC_1
  6
Continuous
 62
     2
100
AcDbSpline
210
0.0
220
0.0
230
1.0
 70
     8
 71
     3
 72
    70
 73
    66
 74
    64
 42
0.000000001
 43
0.0000000001
 44
0.00000001
 40
0.0
 40
0.0
 40
0.0
 40
0.0
 40
0.0241731073021188
 40
0.0846058988987013
 40
0.1631685280352715
 40
0.2417311571788903
 40
0.3021639488291614
 40
0.3263370654894688
 40
0.3533118254248028
 40
0.4228783438921241
 40
0.5179999095312514
 40
0.6216398239465178
 40
0.7167613891498746
 40
0.7863279069648904
 40
0.8133026791760877
 40
0.8372943998770997
 40
0.8945054261372193
 40
0.9627895541962246
 40
1.020000580349034
 40
1.043992300975161
 40
1.071934345522888
 40
1.113121768772822
 40
1.145225199332146
 40
1.225483775412678
 40
1.329819923771384
 40
1.434156071994274
 40
1.51441464779569
 40
1.546518078208298
 40
1.5789747642601
 40
1.662678849314038
 40
1.777131373668259
 40
1.90183337747465
 40
2.016285900500411
 40
2.09998998252775
 40
2.132446666570108
 40
2.158782354485832
 40
2.216720867907621
 40
2.274659381334046
 40
2.300995069255978
 40
2.33345175406595
 40
2.417155836543603
 40
2.531608358985042
 40
2.656310362283537
 40
2.770762886388641
 40
2.854466971339778
 40
2.886923657363584
 40
2.913597976833018
 40
2.98238964287482
 40
3.076451716946687
 40
3.178937260458299
 40
3.272999334739704
 40
3.341791001058927
 40
3.36846532066324
 40
3.396976080738489
 40
3.472140811845697
 40
3.578408190308386
 40
3.700226892455851
 40
3.822045594634068
 40
3.928312973256175
 40
4.003477705314572
 40
4.031988456866638
 40
4.058324144797438
 40
4.116262658236603
 40
4.174201171400406
 40
4.20053684960834
 40
4.20053684960834
 40
4.20053684960834
 40
4.20053684960834
 10
185.9857704961609
 20
15.75844135397706
 30
0.0
 10
185.9938259544679
 20
15.75844359811688
 30
0.0
 10
186.0220200663241
 20
15.75845146032799
 30
0.0
 10
186.0765534803672
 20
15.75830754828372
 30
0.0
 10
186.1482891808603
 20
15.75909120499899
 30
0.0
 10
186.2236240137062
 20
15.75627570463812
 30
0.0
 10
186.2713052366438
 20
15.76298403400958
 30
0.0
 10
186.3195071245615
 20
15.75197563692433
 30
0.0
 10
186.3062571799873
 20
15.80546402997034
 30
0.0
 10
186.3151093964537
 20
15.86049583543092
 30
0.0
 10
186.3108698036285
 20
15.9541990872611
 30
0.0
 10
186.3133483481278
 20
16.04959482218533
 30
0.0
 10
186.3090938706059
 20
16.14356821983387
 30
0.0
 10
186.3179818665846
 20
16.19795062438012
 30
0.0
 10
186.3046977409944
 20
16.25233997691461
 30
0.0
 10
186.3514119277108
 20
16.23842216335357
 30
0.0
 10
186.3943254545736
 20
16.24103877374043
 30
0.0
 10
186.4605443456684
 20
16.23648422450755
 30
0.0
 10
186.5013342271798
 20
16.22778162134161
 30
0.0
 10
186.5525145690819
 20
16.23531799890196
 30
0.0
 10
186.52537204872
 20
16.19349970223289
 30
0.0
 10
186.4803096055708
 20
16.20284992072593
 30
0.0
 10
186.4942065045051
 20
16.13841207371837
 30
0.0
 10
186.4858414431656
 20
16.07378219627399
 30
0.0
 10
186.4903632178399
 20
15.97529141193888
 30
0.0
 10
186.4854741311169
 20
15.87595932842571
 30
0.0
 10
186.4950258992082
 20
15.81293115552969
 30
0.0
 10
186.4799761455201
 20
15.74964011499788
 30
0.0
 10
186.5449159457209
 20
15.76515072944271
 30
0.0
 10
186.6116246399498
 20
15.75499387697813
 30
0.0
 10
186.7241435470828
 20
15.75988800099369
 30
0.0
 10
186.8390235448954
 20
15.75691204732784
 30
0.0
 10
186.9519871999747
 20
15.76221664184992
 30
0.0
 10
187.0176267597677
 20
15.7510730647209
 30
0.0
 10
187.0816276691053
 20
15.76744532319858
 30
0.0
 10
187.070314288919
 20
15.71761689905276
 30
0.0
 10
187.0775339871509
 20
15.67416715212124
 30
0.0
 10
187.070314261127
 20
15.63071745587446
 30
0.0
 10
187.0816277175993
 20
15.58088895196878
 30
0.0
 10
187.0176263598972
 20
15.59726166091362
 30
0.0
 10
186.9519921240459
 20
15.5861127166159
 30
0.0
 10
186.8389974317331
 20
15.59144857206855
 30
0.0
 10
186.7242456548643
 20
15.58834345663823
 30
0.0
 10
186.6113183686861
 20
15.59364894682589
 30
0.0
 10
186.5455220903585
 20
15.58257300019594
 30
0.0
 10
186.4816097975359
 20
15.59887597847619
 30
0.0
 10
186.4936015165127
 20
15.54423524395742
 30
0.0
 10
186.4862104613006
 20
15.48854295047843
 30
0.0
 10
186.4892684841984
 20
15.39649689140571
 30
0.0
 10
186.4893422785684
 20
15.30179109873102
 30
0.0
 10
186.4860313578361
 20
15.20952782902266
 30
0.0
 10
186.4939505989904
 20
15.15435768736141
 30
0.0
 10
186.4815076611618
 20
15.10058169100136
 30
0.0
 10
186.5389116551633
 20
15.11453768862782
 30
0.0
 10
186.5994708140384
 20
15.10511457884228
 30
0.0
 10
186.7048680855082
 20
15.10942885928705
 30
0.0
 10
186.8204294070624
 20
15.10835504612033
 30
0.0
 10
186.9359688877798
 20
15.10725965900995
 30
0.0
 10
187.0414181130843
 20
15.11162525770633
 30
0.0
 10
187.1018680471805
 20
15.10209426030672
 30
0.0
 10
187.1592837739111
 20
15.11617289606381
 30
0.0
 10
187.147777387671
 20
15.06707153265683
 30
0.0
 10
187.153756678175
 20
15.02564658018649
 30
0.0
 10
187.1520311050804
 20
14.97651677966696
 30
0.0
 10
187.1521500122972
 20
14.94854428447608
 30
0.0
 10
187.1521871691834
 20
14.9398028819595
 30
0.0
 11
185.9857704961609
 21
15.75844135397706
 31
0.0
 11
186.0099436128281
 21
15.75844135397706
 31
0.0
 11
186.0703764044962
 21
15.75844135397706
 31
0.0
 11
186.1489390336648
 21
15.75844135397706
 31
0.0
 11
186.2275016628333
 21
15.75844135397706
 31
0.0
 11
186.2879344545013
 21
15.75844135397706
 31
0.0
 11
186.3121075711686
 21
15.75844135397706
 31
0.0
 11
186.3121075711686
 21
15.78541612620064
 31
0.0
 11
186.3121075711686
 21
15.8549826440404
 31
0.0
 11
186.3121075711686
 21
15.95010420924986
 31
0.0
 11
186.3121075711686
 21
16.05374412358256
 31
0.0
 11
186.3121075711686
 21
16.14886568879202
 31
0.0
 11
186.3121075711686
 21
16.21843220663178
 31
0.0
 11
186.3121075711686
 21
16.24540697885536
 31
0.0
 11
186.3360407604891
 21
16.243732131078
 31
0.0
 11
186.3931122119457
 21
16.23973826330121
 31
0.0
 11
186.461229750781
 21
16.23497138885795
 31
0.0
 11
186.5183012022376
 21
16.23097752108117
 31
0.0
 11
186.5422343915581
 21
16.22930267330381
 31
0.0
 11
186.5274972731229
 21
16.20556293372641
 31
0.0
 11
186.4886640249977
 21
16.19183767331312
 31
0.0
 11
186.4886640249977
 21
16.15973424225119
 31
0.0
 11
186.4886640249977
 21
16.07947566459637
 31
0.0
 11
186.4886640249977
 21
15.97513951364509
 31
0.0
 11
186.4886640249977
 21
15.87080336269381
 31
0.0
 11
186.4886640249977
 21
15.79054478503899
 31
0.0
 11
186.4886640249977
 21
15.75844135397706
 31
0.0
 11
186.5211207110825
 21
15.75844135397706
 31
0.0
 11
186.6048247962486
 21
15.75844135397706
 31
0.0
 11
186.7192773208635
 21
15.75844135397706
 31
0.0
 11
186.8439793252946
 21
15.75844135397706
 31
0.0
 11
186.9584318499095
 21
15.75844135397706
 31
0.0
 11
187.0421359350756
 21
15.75844135397706
 31
0.0
 11
187.0745926211604
 21
15.75844135397706
 31
0.0
 11
187.0745926211604
 21
15.73210566604962
 31
0.0
 11
187.0745926211604
 21
15.67416715260926
 31
0.0
 11
187.0745926211604
 21
15.61622863916889
 31
0.0
 11
187.0745926211604
 21
15.58989295124145
 31
0.0
 11
187.0421359350756
 21
15.58989295124145
 31
0.0
 11
186.9584318499095
 21
15.58989295124145
 31
0.0
 11
186.8439793252946
 21
15.58989295124145
 31
0.0
 11
186.7192773208635
 21
15.58989295124145
 31
0.0
 11
186.6048247962486
 21
15.58989295124145
 31
0.0
 11
186.5211207110825
 21
15.58989295124145
 31
0.0
 11
186.4886640249977
 21
15.58989295124145
 31
0.0
 11
186.4886640249977
 21
15.56321863152023
 31
0.0
 11
186.4886640249977
 21
15.49442696487076
 31
0.0
 11
186.4886640249977
 21
15.40036489006435
 31
0.0
 11
186.4886640249977
 21
15.29787934587229
 31
0.0
 11
186.4886640249977
 21
15.20381727106587
 31
0.0
 11
186.4886640249977
 21
15.1350256044164
 31
0.0
 11
186.4886640249977
 21
15.10835128469518
 31
0.0
 11
186.5171747850994
 21
15.10835128469518
 31
0.0
 11
186.5923395162767
 21
15.10835128469518
 31
0.0
 11
186.6986068948377
 21
15.10835128469518
 31
0.0
 11
186.8204255970905
 21
15.10835128469518
 31
0.0
 11
186.9422442993434
 21
15.10835128469518
 31
0.0
 11
187.0485116779044
 21
15.10835128469518
 31
0.0
 11
187.1236764090817
 21
15.10835128469518
 31
0.0
 11
187.1521871691834
 21
15.10835128469518
 31
0.0
 11
187.1521871691834
 21
15.08201559676773
 31
0.0
 11
187.1521871691834
 21
15.02407708332734
 31
0.0
 11
187.1521871691834
 21
14.96613856988695
 31
0.0
 11
187.1521871691834
 21
14.9398028819595
 31
0.0
  0
SPLINE
  5
A6
102
{ACAD_REACTORS
330
C3
102
}
330
48
100
AcDbEntity
  8
_U_30EC_U_30A4_U_30E4_U_30FC_1
  6
Continuous
 62
     2
100
AcDbSpline
210
0.0
220
0.0
230
1.0
 70
     8
 71
     3
 72
    62
 73
    58
 74
    56
 42
0.000000001
 43
0.0000000001
 44
0.00000001
 40
0.0
 40
0.0
 40
0.0
 40
0.0
 40
0.0598250028308769
 40
0.2024846486897616
 40
0.3727558389220746
 40
0.515415484793607
 40
0.5752404975785339
 40
0.9332326775486626
 40
1.290451762839393
 40
1.602077253145818
 40
1.699931634112051
 40
1.799359756424987
 40
2.270120149657024
 40
2.804661928461449
 40
2.882342287383162
 40
3.076543185719013
 40
3.32900435483548
 40
3.581465524568307
 40
3.775666424543594
 40
3.853346784558214
 40
3.899120679595017
 40
3.9841293417921
 40
4.029903236817477
 40
4.105797496059633
 40
4.295533144152595
 40
4.542189486611839
 40
4.788845828875791
 40
4.978581476410175
 40
5.05447573524442
 40
5.621734664339407
 40
6.130867242037397
 40
6.225249780948568
 40
6.318913039727263
 40
6.663579954558799
 40
7.047498900224644
 40
7.435230791575574
 40
7.498943906667986
 40
7.65087518120998
 40
7.83221250900149
 40
7.984143783696876
 40
8.047856898903003
 40
8.091554632732512
 40
8.172707566964174
 40
8.2164053007679
 40
8.289021782160756
 40
8.462184160757072
 40
8.668861838005238
 40
8.842024215263745
 40
8.91464069547494
 40
8.989881580861148
 40
9.155411528827054
 40
9.320941477743837
 40
9.39618235248709
 40
9.454709011143608
 40
9.5834676601706
 40
9.712226309012822
 40
9.770752957989304
 40
9.770752957989304
 40
9.770752957989304
 40
9.770752957989304
 10
187.1521871691834
 20
14.9398028819595
 30
0.0
 10
187.1322348171624
 20
14.93980875568671
 30
0.0
 10
187.0647037716466
 20
14.93982863806157
 30
0.0
 10
186.9410612161789
 20
14.93949362520326
 30
0.0
 10
186.7863180150057
 20
14.94107673750512
 30
0.0
 10
186.669734948248
 20
14.93686078860494
 30
0.0
 10
186.4550942634242
 20
14.95215205331627
 30
0.0
 10
186.8518948407228
 20
14.59198721286189
 30
0.0
 10
186.8945656069267
 20
14.37510503397164
 30
0.0
 10
187.3189162146612
 20
14.1932506251145
 30
0.0
 10
187.1439821496074
 20
14.0898519656807
 30
0.0
 10
187.0194523925084
 20
13.87831523212727
 30
0.0
 10
186.7666277235943
 20
14.34806081001556
 30
0.0
 10
186.4797602893626
 20
14.99511516984522
 30
0.0
 10
186.4906335926661
 20
14.68782672154695
 30
0.0
 10
186.488289277796
 20
14.5228861697178
 30
0.0
 10
186.4861096126411
 20
14.28879670711694
 30
0.0
 10
186.4980774396348
 20
14.04498072421784
 30
0.0
 10
186.4687984740632
 20
13.89855796860984
 30
0.0
 10
186.511452262547
 20
13.75113490174536
 30
0.0
 10
186.4239814005639
 20
13.76685797306221
 30
0.0
 10
186.3768527606743
 20
13.76694303543455
 30
0.0
 10
186.2898973207712
 20
13.75109425482908
 30
0.0
 10
186.3313474021721
 20
13.89527771422762
 30
0.0
 10
186.3029875004284
 20
14.03855052698456
 30
0.0
 10
186.3145973775299
 20
14.27674947365265
 30
0.0
 10
186.3124175648271
 20
14.50517235240347
 30
0.0
 10
186.3103111127993
 20
14.66705729375996
 30
0.0
 10
186.3208035438322
 20
14.98153709333752
 30
0.0
 10
186.0128963252894
 20
14.29229470872442
 30
0.0
 10
185.7055258267454
 20
13.81476750243044
 30
0.0
 10
185.5851367066275
 20
14.0374111263743
 30
0.0
 10
185.4074607910723
 20
14.15011034955563
 30
0.0
 10
185.8853326362894
 20
14.32548143465466
 30
0.0
 10
185.9353959057208
 20
14.56091929252031
 30
0.0
 10
186.3583799621717
 20
14.95322989344605
 30
0.0
 10
186.127675427354
 20
14.93655307029066
 30
0.0
 10
186.004968585934
 20
14.9426951894877
 30
0.0
 10
185.8325483095662
 20
14.93312822699574
 30
0.0
 10
185.7213224694449
 20
14.95448818489666
 30
0.0
 10
185.6025779627448
 20
14.9213626535742
 30
0.0
 10
185.6183169706686
 20
15.00203900606883
 30
0.0
 10
185.6178550933763
 20
15.04645414290854
 30
0.0
 10
185.6027881889931
 20
15.12967081778533
 30
0.0
 10
185.7372380935443
 20
15.09062651983884
 30
0.0
 10
185.8619755545745
 20
15.11739729328423
 30
0.0
 10
186.0628755237279
 20
15.10063949044053
 30
0.0
 10
186.1921540949353
 20
15.12204225913004
 30
0.0
 10
186.3328419928294
 20
15.08868778853421
 30
0.0
 10
186.2980927452615
 20
15.22651875785069
 30
0.0
 10
186.3222185666711
 20
15.34963257349482
 30
0.0
 10
186.2967086182392
 20
15.47024055670336
 30
0.0
 10
186.3333251146684
 20
15.60539865141495
 30
0.0
 10
186.2211417027768
 20
15.58094545781892
 30
0.0
 10
186.1280356457135
 20
15.59307749842023
 30
0.0
 10
186.0191547579819
 20
15.58957630069994
 30
0.0
 10
185.9569697640963
 20
15.58981755951603
 30
0.0
 10
185.9375369557245
 20
15.58989295124145
 30
0.0
 11
187.1521871691834
 21
14.9398028819595
 31
0.0
 11
187.0923621563983
 21
14.9398028819595
 31
0.0
 11
186.949702510526
 21
14.9398028819595
 31
0.0
 11
186.7794313202915
 21
14.9398028819595
 31
0.0
 11
186.6367716744192
 21
14.9398028819595
 31
0.0
 11
186.5769466616341
 21
14.9398028819595
 31
0.0
 11
186.7679960754842
 21
14.63705127966891
 31
0.0
 11
186.9941272785629
 21
14.36051890576685
 31
0.0
 11
187.2244526173371
 21
14.15061253493457
 31
0.0
 11
187.1521596330704
 21
14.08466403668716
 31
0.0
 11
187.0879364402643
 21
14.0087605905256
 31
0.0
 11
186.7732818215558
 21
14.35891458349363
 31
0.0
 11
186.4886640249977
 21
14.81138295143602
 31
0.0
 11
186.4886640249977
 21
14.73370259137314
 31
0.0
 11
186.4886640249977
 21
14.53950169121594
 31
0.0
 11
186.4886640249977
 21
14.28704052101157
 31
0.0
 11
186.4886640249977
 21
14.03457935080721
 31
0.0
 11
186.4886640249977
 21
13.84037845065
 31
0.0
 11
186.4886640249977
 21
13.76269809058712
 31
0.0
 11
186.4428901295605
 21
13.76269809058712
 31
0.0
 11
186.3578814666058
 21
13.76269809058712
 31
0.0
 11
186.3121075711686
 21
13.76269809058712
 31
0.0
 11
186.3121075711686
 21
13.8385923498274
 31
0.0
 11
186.3121075711686
 21
14.02832799792812
 31
0.0
 11
186.3121075711686
 21
14.27498434045904
 31
0.0
 11
186.3121075711686
 21
14.52164068298997
 31
0.0
 11
186.3121075711686
 21
14.71137633109067
 31
0.0
 11
186.3121075711686
 21
14.78727059033096
 31
0.0
 11
185.9987626399266
 21
14.31440946197694
 31
0.0
 11
185.6352328662148
 21
13.95795177109383
 31
0.0
 11
185.5773927461628
 21
14.03253450545023
 31
0.0
 11
185.5094852305342
 21
14.09704322939243
 31
0.0
 11
185.7750721898319
 21
14.3167221979589
 31
0.0
 11
186.0233764972061
 21
14.60953395971698
 31
0.0
 11
186.226498280526
 21
14.9398028819595
 31
0.0
 11
186.1627851652721
 21
14.9398028819595
 31
0.0
 11
186.0108538904359
 21
14.9398028819595
 31
0.0
 11
185.8295165624055
 21
14.9398028819595
 31
0.0
 11
185.6775852875693
 21
14.9398028819595
 31
0.0
 11
185.6138721723154
 21
14.9398028819595
 31
0.0
 11
185.6138721723154
 21
14.98350061600208
 31
0.0
 11
185.6138721723154
 21
15.0646535506526
 31
0.0
 11
185.6138721723154
 21
15.10835128469518
 31
0.0
 11
185.6864886537961
 21
15.10835128469518
 31
0.0
 11
185.8596510327117
 21
15.10835128469518
 31
0.0
 11
186.0663287107723
 21
15.10835128469518
 31
0.0
 11
186.2394910896879
 21
15.10835128469518
 31
0.0
 11
186.3121075711686
 21
15.10835128469518
 31
0.0
 11
186.3121075711686
 21
15.18359217009304
 31
0.0
 11
186.3121075711686
 21
15.34912211796832
 31
0.0
 11
186.3121075711686
 21
15.5146520658436
 31
0.0
 11
186.3121075711686
 21
15.58989295124145
 31
0.0
 11
186.2535809125055
 21
15.58989295124145
 31
0.0
 11
186.1248222634466
 21
15.58989295124145
 31
0.0
 11
185.9960636143877
 21
15.58989295124145
 31
0.0
 11
185.9375369557245
 21
15.58989295124145
 31
0.0
  0
SPLINE
  5
A7
102
{ACAD_REACTORS
330
C4
102
}
330
48
100
AcDbEntity
  8
_U_30EC_U_30A4_U_30E4_U_30FC_1
  6
Continuous
 62
     2
100
AcDbSpline
210
0.0
220
0.0
230
1.0
 70
    11
 71
     3
 72
   124
 73
   120
 74
   118
 42
0.000000001
 43
0.0000000001
 44
0.00000001
 40
0.0
 40
0.0
 40
0.0
 40
0.0
 40
0.027818722962451
 40
0.1011590162384269
 40
0.2048470170590239
 40
0.3237088716559245
 40
0.4425707262522
 40
0.5462587270699547
 40
0.6195990203311798
 40
0.647417752257866
 40
0.6750060736115224
 40
0.7357003855242759
 40
0.7963946998054492
 40
0.8239830245571784
 40
0.8540933811102878
 40
0.9373396629409558
 40
1.063094687343237
 40
1.220731268638103
 40
1.399622220914778
 40
1.589140358637819
 40
1.778658496423957
 40
1.957549448940624
 40
2.115186030873246
 40
2.24094105691455
 40
2.324187341760648
 40
2.354297700109497
 40
2.381886024672004
 40
2.442580338710592
 40
2.503274652750616
 40
2.530862977314723
 40
2.560983949278676
 40
2.640393784453051
 40
2.752662861759274
 40
2.881361560118319
 40
3.010060258455366
 40
3.122329335705541
 40
3.201739170818183
 40
3.231860142753544
 40
3.264298024030601
 40
3.352343701778472
 40
3.482095226868997
 40
3.639650650173258
 40
3.811108022565713
 40
3.982565394928222
 40
4.140120818152803
 40
4.269872343141514
 40
4.357918020802576
 40
4.390355902044205
 40
4.423256253992775
 40
4.508104530073296
 40
4.624121560637064
 40
4.75052817603182
 40
4.866545206602267
 40
4.951393482692224
 40
4.984293834645626
 40
5.011450833242539
 40
5.071196230152322
 40
5.130941627057395
 40
5.15809862564906
 40
5.19099897760175
 40
5.275847253689576
 40
5.39186428425701
 40
5.518270899648555
 40
5.634287930209594
 40
5.719136206288268
 40
5.752036558236155
 40
5.782130946283181
 40
5.862783906229356
 40
5.979550131775222
 40
6.117984316640629
 40
6.263641154588174
 40
6.40207533941438
 40
6.518841564908175
 40
6.599494524815756
 40
6.629588912848994
 40
6.65440302822657
 40
6.713575149488337
 40
6.784199939329654
 40
6.843372060493756
 40
6.868186175803002
 40
6.896246243202082
 40
6.939586233758479
 40
6.967846564565106
 40
7.043584251090045
 40
7.153234334451903
 40
7.283231855734653
 40
7.420011856035686
 40
7.550009376580038
 40
7.659659458835438
 40
7.735397144417431
 40
7.763657474851603
 40
7.79640972801126
 40
7.880876065096534
 40
7.99637085246592
 40
8.122208446418815
 40
8.237703224799409
 40
8.322169562011103
 40
8.354921815206117
 40
8.382078813307897
 40
8.4418242092072
 40
8.501569605240347
 40
8.528726603485923
 40
8.561478856695972
 40
8.645945193878022
 40
8.761439980865534
 40
8.887277580764676
 40
9.002772362001197
 40
9.087238696661418
 40
9.119990949235872
 40
9.152428830613571
 40
9.240474508638787
 40
9.370226034149738
 40
9.527781457984624
 40
9.699238830981612
 40
9.870696203978804
 40
10.02825162781423
 40
10.15800315332585
 40
10.24604883135139
 40
10.27848670378542
 40
10.27848670378542
 40
10.27848670378542
 40
10.27848670378542
 10
195.3821827564383
 20
14.01410517385757
 30
0.0
 10
195.3914554737523
 20
14.01410498511274
 30
0.0
 10
195.4251744536861
 20
14.01410430876714
 30
0.0
 10
195.4934706812465
 20
14.01411807243305
 30
0.0
 10
195.592014171158
 20
14.01403224219544
 30
0.0
 10
195.7062066464812
 20
14.01441755612251
 30
0.0
 10
195.818589441707
 20
14.01300835897545
 30
0.0
 10
195.9214376600118
 20
14.01719117422243
 30
0.0
 10
195.9806839874849
 20
14.00823089251983
 30
0.0
 10
196.0371265937032
 20
14.02164434526061
 30
0.0
 10
196.0246255586955
 20
13.97087198613361
 30
0.0
 10
196.0329549635704
 20
13.92589320939067
 30
0.0
 10
196.0248170841119
 20
13.88056752990488
 30
0.0
 10
196.0370529214457
 20
13.82931932408466
 30
0.0
 10
195.9747773490333
 20
13.84447955365276
 30
0.0
 10
195.9060513026868
 20
13.83359750710743
 30
0.0
 10
195.7782756749591
 20
13.83911304747972
 30
0.0
 10
195.6262984511644
 20
13.83700851253698
 30
0.0
 10
195.4502695972521
 20
13.83771002588473
 30
0.0
 10
195.2644431934287
 20
13.83745237531291
 30
0.0
 10
195.0786167437174
 20
13.83771005144603
 30
0.0
 10
194.9025880142167
 20
13.83700841847731
 30
0.0
 10
194.7506104154193
 20
13.83911332229988
 30
0.0
 10
194.6228357664554
 20
13.8335968076764
 30
0.0
 10
194.5541077836579
 20
13.84448077125942
 30
0.0
 10
194.4918349042882
 20
13.82931786684209
 30
0.0
 10
194.5040616290017
 20
13.88057510805171
 30
0.0
 10
194.4960004462596
 20
13.92582473272425
 30
0.0
 10
194.5040675809891
 20
13.97106357955323
 30
0.0
 10
194.4918238487082
 20
14.02234176909958
 30
0.0
 10
194.5525017120697
 20
14.00749577363135
 30
0.0
 10
194.6162810745735
 20
14.01756448170735
 30
0.0
 10
194.7277314353502
 20
14.01294644211999
 30
0.0
 10
194.8497533443823
 20
14.01413328905469
 30
0.0
 10
194.9719538137823
 20
14.01515863900634
 30
0.0
 10
195.0829794287392
 20
14.01092475623402
 30
0.0
 10
195.1476517413958
 20
14.02018584521739
 30
0.0
 10
195.2091162810501
 20
14.00604423049683
 30
0.0
 10
195.1930065601337
 20
14.07235527884517
 30
0.0
 10
195.2042980327358
 20
14.14447790121976
 30
0.0
 10
195.1987400822561
 20
14.27513760888286
 30
0.0
 10
195.2008035061691
 20
14.42607323708242
 30
0.0
 10
195.2000167127295
 20
14.59335873107886
 30
0.0
 10
195.2007845215627
 20
14.76061110332304
 30
0.0
 10
195.1988038785628
 20
14.91163289269914
 30
0.0
 10
195.2041306156621
 20
15.04206069552996
 30
0.0
 10
195.1933101388425
 20
15.11465442605899
 30
0.0
 10
195.2090326429875
 20
15.18150469436799
 30
0.0
 10
195.143270813249
 20
15.16580512490825
 30
0.0
 10
195.0756367830764
 20
15.17609243083996
 30
0.0
 10
194.9615885293809
 20
15.17113786847123
 30
0.0
 10
194.8451242674902
 20
15.17414128030475
 30
0.0
 10
194.7306554121477
 20
15.16880303143389
 30
0.0
 10
194.6640324657812
 20
15.18001268074826
 30
0.0
 10
194.5990769715185
 20
15.16349132665012
 30
0.0
 10
194.6107989758708
 20
15.2147372047706
 30
0.0
 10
194.6032830189121
 20
15.25950333784091
 30
0.0
 10
194.6107989878835
 20
15.30426944897962
 30
0.0
 10
194.5990769505347
 20
15.35551536129741
 30
0.0
 10
194.66403263392
 20
15.33899381766815
 30
0.0
 10
194.7306533339821
 20
15.35020571373944
 30
0.0
 10
194.8451352858063
 20
15.34485436710664
 30
0.0
 10
194.9615454436962
 20
15.34791188771117
 30
0.0
 10
195.0757660174641
 20
15.34278499010708
 30
0.0
 10
195.1430150439227
 20
15.35345733355598
 30
0.0
 10
195.2083325941438
 20
15.33742082669077
 30
0.0
 10
195.1941391448553
 20
15.39949685750054
 30
0.0
 10
195.2036059462994
 20
15.46586761628762
 30
0.0
 10
195.1990269004085
 20
15.58239972741966
 30
0.0
 10
195.2007696555948
 20
15.71426685022376
 30
0.0
 10
195.1997551495391
 20
15.85615960150273
 30
0.0
 10
195.2017191344373
 20
15.9876905070258
 30
0.0
 10
195.1964668553851
 20
16.10524577283002
 30
0.0
 10
195.2073408763474
 20
16.16947789001584
 30
0.0
 10
195.1919536641853
 20
16.23108802545047
 30
0.0
 10
195.24075915378
 20
16.21702407382111
 30
0.0
 10
195.2853995564726
 20
16.21954742075314
 30
0.0
 10
195.3538643946742
 20
16.2151279740171
 30
0.0
 10
195.3959106169102
 20
16.20613025544035
 30
0.0
 10
195.4487544758775
 20
16.2141171486651
 30
0.0
 10
195.4207035002014
 20
16.17113917611674
 30
0.0
 10
195.3749142248594
 20
16.18259552043837
 30
0.0
 10
195.3869539073264
 20
16.12173520005137
 30
0.0
 10
195.3796086070641
 20
16.05769299468773
 30
0.0
 10
195.3831195826162
 20
15.94909368863911
 30
0.0
 10
195.3819806760173
 20
15.82494319144753
 30
0.0
 10
195.3819174780263
 20
15.69189719829878
 30
0.0
 10
195.3832872966867
 20
15.56797381249555
 30
0.0
 10
195.3791638801314
 20
15.45868337849339
 30
0.0
 10
195.3877763103564
 20
15.3960858009417
 30
0.0
 10
195.3746757454401
 20
15.33740133296365
 30
0.0
 10
195.4393884328198
 20
15.35362113810902
 30
0.0
 10
195.5060405953155
 20
15.34270260383311
 30
0.0
 10
195.6198779541103
 20
15.34793740173756
 30
0.0
 10
195.7357259122097
 20
15.34485547516913
 30
0.0
 10
195.849692426328
 20
15.35018259812512
 30
0.0
 10
195.91603410181
 20
15.33904208166543
 30
0.0
 10
195.9807188525479
 20
15.35546979593178
 30
0.0
 10
195.9689820772722
 20
15.30425925210051
 30
0.0
 10
195.9765168063041
 20
15.25950334121001
 30
0.0
 10
195.9689820992258
 20
15.21474739010028
 30
0.0
 10
195.9807188140737
 20
15.16353690871041
 30
0.0
 10
195.9160344075252
 20
15.17996427794221
 30
0.0
 10
195.8496886430824
 20
15.1688278444727
 30
0.0
 10
195.7357459487012
 20
15.17413115893121
 30
0.0
 10
195.6197995623054
 20
15.17114764593544
 30
0.0
 10
195.5062756882122
 20
15.17606892268395
 30
0.0
 10
195.4389231318804
 20
15.1658508751352
 30
0.0
 10
195.3734285122495
 20
15.18145996138816
 30
0.0
 10
195.3891713619218
 20
15.11463851827411
 30
0.0
 10
195.3783275998212
 20
15.04207057815879
 30
0.0
 10
195.3836581629793
 20
14.91162247614417
 30
0.0
 10
195.3817136151854
 20
14.76064558185226
 30
0.0
 10
195.3823133683214
 20
14.59322243934158
 30
0.0
 10
195.3821506559605
 20
14.42656176118372
 30
0.0
 10
195.3821895488135
 20
14.27360142921636
 30
0.0
 10
195.38218164131
 20
14.14849178985705
 30
0.0
 10
195.3821828382744
 20
14.0650789099142
 30
0.0
 10
195.3821827716208
 20
14.02491778281976
 30
0.0
 10
195.3821827564383
 20
14.01410517385757
 30
0.0
 11
195.3821827564383
 21
14.01410517385757
 31
0.0
 11
195.4100014883675
 21
14.01410517385757
 31
0.0
 11
195.4833417816353
 21
14.01410517385757
 31
0.0
 11
195.5870297824622
 21
14.01410517385757
 31
0.0
 11
195.7058916370687
 21
14.01410517385757
 31
0.0
 11
195.8247534916751
 21
14.01410517385757
 31
0.0
 11
195.928441492502
 21
14.01410517385757
 31
0.0
 11
196.0017817857698
 21
14.01410517385757
 31
0.0
 11
196.029600517699
 21
14.01410517385757
 31
0.0
 11
196.029600517699
 21
13.9865168492117
 31
0.0
 11
196.029600517699
 21
13.92582253499077
 31
0.0
 11
196.029600517699
 21
13.86512822076984
 31
0.0
 11
196.029600517699
 21
13.83753989612397
 31
0.0
 11
195.9994901593494
 21
13.83753989612397
 31
0.0
 11
195.9162438745004
 21
13.83753989612397
 31
0.0
 11
195.7904888484521
 21
13.83753989612397
 31
0.0
 11
195.6328522665041
 21
13.83753989612397
 31
0.0
 11
195.4539613139564
 21
13.83753989612397
 31
0.0
 11
195.2644431761088
 21
13.83753989612397
 31
0.0
 11
195.0749250382612
 21
13.83753989612397
 31
0.0
 11
194.8960340857135
 21
13.83753989612397
 31
0.0
 11
194.7383975037655
 21
13.83753989612397
 31
0.0
 11
194.6126424777171
 21
13.83753989612397
 31
0.0
 11
194.5293961928682
 21
13.83753989612397
 31
0.0
 11
194.4992858345186
 21
13.83753989612397
 31
0.0
 11
194.4992858345186
 21
13.86512822076984
 31
0.0
 11
194.4992858345186
 21
13.92582253499077
 31
0.0
 11
194.4992858345186
 21
13.9865168492117
 31
0.0
 11
194.4992858345186
 21
14.01410517385757
 31
0.0
 11
194.5294068064946
 21
14.01410517385757
 31
0.0
 11
194.6088166417039
 21
14.01410517385757
 31
0.0
 11
194.7210857190689
 21
14.01410517385757
 31
0.0
 11
194.8497844175117
 21
14.01410517385757
 31
0.0
 11
194.9784831159545
 21
14.01410517385757
 31
0.0
 11
195.0907521933194
 21
14.01410517385757
 31
0.0
 11
195.1701620285289
 21
14.01410517385757
 31
0.0
 11
195.2002830005048
 21
14.01410517385757
 31
0.0
 11
195.2002830005048
 21
14.04654305523835
 31
0.0
 11
195.2002830005048
 21
14.1345887332719
 31
0.0
 11
195.2002830005048
 21
14.26434025879503
 31
0.0
 11
195.2002830005048
 21
14.42189568264454
 31
0.0
 11
195.2002830005048
 21
14.59335305565724
 31
0.0
 11
195.2002830005048
 21
14.76481042866994
 31
0.0
 11
195.2002830005048
 21
14.92236585251945
 31
0.0
 11
195.2002830005048
 21
15.05211737804258
 31
0.0
 11
195.2002830005048
 21
15.14016305607613
 31
0.0
 11
195.2002830005048
 21
15.17260093745691
 31
0.0
 11
195.1673826485529
 21
15.17260093745691
 31
0.0
 11
195.0825343724662
 21
15.17260093745691
 31
0.0
 11
194.9665173418988
 21
15.17260093745691
 31
0.0
 11
194.8401107265044
 21
15.17260093745691
 31
0.0
 11
194.724093695937
 21
15.17260093745691
 31
0.0
 11
194.6392454198503
 21
15.17260093745691
 31
0.0
 11
194.6063450678984
 21
15.17260093745691
 31
0.0
 11
194.6063450678984
 21
15.19975793614803
 31
0.0
 11
194.6063450678984
 21
15.2595033332685
 31
0.0
 11
194.6063450678984
 21
15.31924873038898
 31
0.0
 11
194.6063450678984
 21
15.3464057290801
 31
0.0
 11
194.6392454198504
 21
15.3464057290801
 31
0.0
 11
194.724093695937
 21
15.3464057290801
 31
0.0
 11
194.8401107265044
 21
15.3464057290801
 31
0.0
 11
194.9665173418988
 21
15.3464057290801
 31
0.0
 11
195.0825343724662
 21
15.3464057290801
 31
0.0
 11
195.1673826485529
 21
15.3464057290801
 31
0.0
 11
195.2002830005048
 21
15.3464057290801
 31
0.0
 11
195.2002830005048
 21
15.3765001173137
 31
0.0
 11
195.2002830005048
 21
15.45715307777974
 31
0.0
 11
195.2002830005048
 21
15.57391930412609
 31
0.0
 11
195.2002830005048
 21
15.71235349000063
 31
0.0
 11
195.2002830005048
 21
15.85801032905124
 31
0.0
 11
195.2002830005048
 21
15.99644451492578
 31
0.0
 11
195.2002830005048
 21
16.11321074127214
 31
0.0
 11
195.2002830005048
 21
16.19386370173817
 31
0.0
 11
195.2002830005048
 21
16.22395808997177
 31
0.0
 11
195.2250405288618
 21
16.22228324219442
 31
0.0
 11
195.2840777118669
 21
16.21828937441765
 31
0.0
 11
195.3545414464214
 21
16.21352249997441
 31
0.0
 11
195.4135786294265
 21
16.20952863219765
 31
0.0
 11
195.4383361577835
 21
16.20785378442029
 31
0.0
 11
195.423306722403
 21
16.1841581420651
 31
0.0
 11
195.3821827564383
 21
16.17047697887404
 31
0.0
 11
195.3821827564383
 21
16.14221664794832
 31
0.0
 11
195.3821827564383
 21
16.0664789610674
 31
0.0
 11
195.3821827564383
 21
15.95682887707561
 31
0.0
 11
195.3821827564383
 21
15.82683135481731
 31
0.0
 11
195.3821827564383
 21
15.69005135313683
 31
0.0
 11
195.3821827564383
 21
15.56005383087853
 31
0.0
 11
195.3821827564383
 21
15.45040374688674
 31
0.0
 11
195.3821827564383
 21
15.37466606000582
 31
0.0
 11
195.3821827564383
 21
15.3464057290801
 31
0.0
 11
195.4149350096115
 21
15.3464057290801
 31
0.0
 11
195.4994013467422
 21
15.3464057290801
 31
0.0
 11
195.6148961342476
 21
15.3464057290801
 31
0.0
 11
195.7407337385445
 21
15.3464057290801
 31
0.0
 11
195.8562285260498
 21
15.3464057290801
 31
0.0
 11
195.9406948631806
 21
15.3464057290801
 31
0.0
 11
195.9734471163538
 21
15.3464057290801
 31
0.0
 11
195.9734471163538
 21
15.31924873038898
 31
0.0
 11
195.9734471163538
 21
15.2595033332685
 31
0.0
 11
195.9734471163538
 21
15.19975793614803
 31
0.0
 11
195.9734471163538
 21
15.17260093745691
 31
0.0
 11
195.9406948631806
 21
15.17260093745691
 31
0.0
 11
195.8562285260498
 21
15.17260093745691
 31
0.0
 11
195.7407337385445
 21
15.17260093745691
 31
0.0
 11
195.6148961342476
 21
15.17260093745691
 31
0.0
 11
195.4994013467422
 21
15.17260093745691
 31
0.0
 11
195.4149350096114
 21
15.17260093745691
 31
0.0
 11
195.3821827564383
 21
15.17260093745691
 31
0.0
 11
195.3821827564383
 21
15.14016305607613
 31
0.0
 11
195.3821827564383
 21
15.05211737804258
 31
0.0
 11
195.3821827564383
 21
14.92236585251945
 31
0.0
 11
195.3821827564383
 21
14.76481042866994
 31
0.0
 11
195.3821827564383
 21
14.59335305565724
 31
0.0
 11
195.3821827564383
 21
14.42189568264454
 31
0.0
 11
195.3821827564383
 21
14.26434025879503
 31
0.0
 11
195.3821827564383
 21
14.1345887332719
 31
0.0
 11
195.3821827564383
 21
14.04654305523835
 31
0.0
 11
195.3821827564383
 21
14.01410517385757
 31
0.0
  0
SPLINE
  5
A8
102
{ACAD_REACTORS
330
C5
102
}
330
48
100
AcDbEntity
  8
_U_30EC_U_30A4_U_30E4_U_30FC_1
  6
Continuous
 62
     2
100
AcDbSpline
210
0.0
220
0.0
230
1.0
 70
    11
 71
     3
 72
   131
 73
   127
 74
   125
 42
0.000000001
 43
0.0000000001
 44
0.00000001
 40
0.0
 40
0.0
 40
0.0
 40
0.0
 40
0.0195577029826344
 40
0.0426490537462135
 40
0.2863607575857073
 40
0.5344948436189634
 40
0.7842238845573531
 40
0.8737315789467931
 40
0.980383281031366
 40
1.092842274517133
 40
1.19976114665687
 40
1.289788768186575
 40
1.351573580786221
 40
1.370727117561448
 40
1.416400936017864
 40
1.470914848356008
 40
1.516588666791799
 40
1.535742203552881
 40
1.634216592293191
 40
1.760283341175008
 40
1.897966686682091
 40
2.03121638736889
 40
2.049689751137884
 40
2.101115601646818
 40
2.179502577739936
 40
2.27885931831405
 40
2.393194462258706
 40
2.516516648383818
 40
2.642834515405945
 40
2.766156701983448
 40
2.880491846754559
 40
2.9798485883586
 40
3.058235565443777
 40
3.109661416668932
 40
3.128134780704107
 40
3.146783742386424
 40
3.191254343315313
 40
3.244332157315972
 40
3.288802758225904
 40
3.307451719895175
 40
3.327717853844787
 40
3.383747753580148
 40
3.468388665924538
 40
3.574487837698845
 40
3.694892515728951
 40
3.822449946852088
 40
3.950007377920479
 40
4.070412055800569
 40
4.176511227368122
 40
4.26115213950157
 40
4.317182039076762
 40
4.337448172964683
 40
4.620011002696297
 40
4.885096638397569
 40
4.945373043518377
 40
5.014107710488677
 40
5.070481727652108
 40
5.319246955636633
 40
5.584812164506146
 40
5.859000912057037
 40
6.133746937542169
 40
6.401732212968957
 40
6.420736683995548
 40
6.472845717451198
 40
6.550702743894126
 40
6.646951193874335
 40
6.754234497930659
 40
6.865196086587437
 40
6.972479390357895
 40
7.068727839772057
 40
7.146584865451066
 40
7.198693898189296
 40
7.217698368905436
 40
7.234950401630913
 40
7.276089864269959
 40
7.325191803516068
 40
7.366331266090453
 40
7.383583298769805
 40
7.402779163492182
 40
7.453386443254614
 40
7.524934666445615
 40
7.606953361405955
 40
7.688972056429106
 40
7.760520279784357
 40
7.811127559734599
 40
7.83032342454622
 40
7.847844055299849
 40
7.894799345666891
 40
7.962779392744578
 40
8.043374293560621
 40
8.128174145149528
 40
8.208769044817329
 40
8.276749090377029
 40
8.323704379669588
 40
8.341225010056322
 40
8.35849761480047
 40
8.401679126686675
 40
8.457815092185733
 40
8.513951057728137
 40
8.557132569708093
 40
8.574405174505136
 40
8.60234066861645
 40
8.643455660539992
 40
8.66322527196666
 40
8.715345156564304
 40
8.789031889628639
 40
8.873502045520366
 40
8.95797219432399
 40
9.031658925567879
 40
9.083778811234566
 40
9.10354842300303
 40
9.119550083123567
 40
9.160817522379869
 40
9.217244429110206
 40
9.278724491644663
 40
9.335151398295448
 40
9.376418837357715
 40
9.392420497300503
 40
9.401196302734721
 40
9.417494229384195
 40
9.426270027749466
 40
9.440875075477498
 40
9.475702496998677
 40
9.517270709865839
 40
9.552098131994006
 40
9.566703169884214
 40
9.566703169884214
 40
9.566703169884214
 40
9.566703169884214
 10
194.6170254148479
 20
15.67015871511028
 30
0.0
 10
194.6134345093371
 20
15.6645369070216
 30
0.0
 10
194.6056039123624
 20
15.65227754419111
 30
0.0
 10
194.5129968974547
 20
15.61601916040987
 30
0.0
 10
194.4887622233246
 20
15.40148444212708
 30
0.0
 10
194.3858709845939
 20
15.22197284509709
 30
0.0
 10
194.1220492364305
 20
15.03615573798143
 30
0.0
 10
194.284547156918
 20
14.95959336566082
 30
0.0
 10
194.3607225760839
 20
14.89856693195442
 30
0.0
 10
194.4492171072759
 20
14.83515804544762
 30
0.0
 10
194.5389930233111
 20
14.7752563421956
 30
0.0
 10
194.5883817636046
 20
14.72102154849211
 30
0.0
 10
194.6745708157382
 20
14.69286240541833
 30
0.0
 10
194.6411260674229
 20
14.65713309652812
 30
0.0
 10
194.6214671166311
 20
14.62550387991907
 30
0.0
 10
194.5919888217882
 20
14.5847587279607
 30
0.0
 10
194.5688989446031
 20
14.55504663489644
 30
0.0
 10
194.5380205968357
 20
14.50211422668495
 30
0.0
 10
194.4729193365741
 20
14.62740334938903
 30
0.0
 10
194.3796000122416
 20
14.68213900233936
 30
0.0
 10
194.2950636285139
 20
14.73916423939341
 30
0.0
 10
194.1722498125742
 20
14.89675287427522
 30
0.0
 10
194.1764450847302
 20
14.82035806766836
 30
0.0
 10
194.1751478652679
 20
14.77361280161296
 30
0.0
 10
194.1758126448077
 20
14.69584785812601
 30
0.0
 10
194.1755549986958
 20
14.59902068324423
 30
0.0
 10
194.1756431239922
 20
14.48650279078809
 30
0.0
 10
194.1756077302281
 20
14.365240859457
 30
0.0
 10
194.1756511758281
 20
14.24086897858962
 30
0.0
 10
194.1755199942405
 20
14.11967683631336
 30
0.0
 10
194.1759477562047
 20
14.00691148919744
 30
0.0
 10
194.174667820231
 20
13.91082913768745
 30
0.0
 10
194.1779759851044
 20
13.83113826468701
 30
0.0
 10
194.1715197740088
 20
13.78815175788785
 30
0.0
 10
194.1806208705556
 20
13.74955432372043
 30
0.0
 10
194.1447910339936
 20
13.75810887724072
 30
0.0
 10
194.1115223815252
 20
13.75342519985447
 30
0.0
 10
194.0604562576041
 20
13.75351298759785
 30
0.0
 10
194.0269723972813
 20
13.75794430283822
 30
0.0
 10
193.9907585408754
 20
13.7496079384251
 30
0.0
 10
194.0009782568665
 20
13.79145277179285
 30
0.0
 10
193.9936487887774
 20
13.83778560820175
 30
0.0
 10
193.9973633136102
 20
13.92374831106015
 30
0.0
 10
193.9959480554896
 20
14.0260514270485
 30
0.0
 10
193.9964105554638
 20
14.14453223931513
 30
0.0
 10
193.9962773686231
 20
14.26957683153357
 30
0.0
 10
193.9963015910045
 20
14.39475828107051
 30
0.0
 10
193.9963354925551
 20
14.51286645379059
 30
0.0
 10
193.9962060293132
 20
14.61628748709517
 30
0.0
 10
193.9965507549081
 20
14.69932036153667
 30
0.0
 10
193.9958698278689
 20
14.75143368521244
 30
0.0
 10
193.9994586600625
 20
14.87912907821362
 30
0.0
 10
193.7826171386436
 20
14.58048716819621
 30
0.0
 10
193.602135492195
 20
14.35263981511514
 30
0.0
 10
193.5490322295612
 20
14.49373443289814
 30
0.0
 10
193.520042913315
 20
14.54325767560947
 30
0.0
 10
193.4196648062819
 20
14.64641779790101
 30
0.0
 10
193.7405127723262
 20
14.72695035023784
 30
0.0
 10
193.8689897005429
 20
14.91066283036434
 30
0.0
 10
194.0906454325361
 20
15.11931995771759
 30
0.0
 10
194.1770224894068
 20
15.29339211228347
 30
0.0
 10
194.4549394229074
 20
15.56967051342513
 30
0.0
 10
194.3346247839284
 20
15.56534559551115
 30
0.0
 10
194.2863197351348
 20
15.56614856202554
 30
0.0
 10
194.2102377454905
 20
15.56574582146585
 30
0.0
 10
194.116701000975
 20
15.56590275611611
 30
0.0
 10
194.0117594788557
 20
15.56582502576224
 30
0.0
 10
193.9033887738717
 20
15.56595464378556
 30
0.0
 10
193.7981454235897
 20
15.56554393490692
 30
0.0
 10
193.7056237819412
 20
15.56682073671592
 30
0.0
 10
193.6268130800707
 20
15.5634076653485
 30
0.0
 10
193.5839674565379
 20
15.57023350036322
 30
0.0
 10
193.5449499586516
 20
15.56065064201124
 30
0.0
 10
193.5526365271863
 20
15.59420779565544
 30
0.0
 10
193.5485464404312
 20
15.62523550322234
 30
0.0
 10
193.5485531368814
 20
15.67236529270901
 30
0.0
 10
193.5526239724911
 20
15.70340941646779
 30
0.0
 10
193.5449495574583
 20
15.73701861635902
 30
0.0
 10
193.5834819405494
 20
15.72748410420873
 30
0.0
 10
193.624122801448
 20
15.73397435498072
 30
0.0
 10
193.6951471850463
 20
15.73100150650255
 30
0.0
 10
193.7729318149633
 20
15.73174761399158
 30
0.0
 10
193.8507292246474
 20
15.73247814044526
 30
0.0
 10
193.9217232089908
 20
15.72954235514161
 30
0.0
 10
193.9624279791819
 20
15.73595468772953
 30
0.0
 10
194.0009853489909
 20
15.72650524176004
 30
0.0
 10
193.9927342754928
 20
15.76264692158786
 30
0.0
 10
193.9982346669358
 20
15.80129837613228
 30
0.0
 10
193.9955754206163
 20
15.86913528561839
 30
0.0
 10
193.9965815471532
 20
15.9459164153874
 30
0.0
 10
193.996017801832
 20
16.02849393582758
 30
0.0
 10
193.9970714526593
 20
16.10517329229878
 30
0.0
 10
193.994267586313
 20
16.173319907767
 30
0.0
 10
194.0000702721304
 20
16.21132399809346
 30
0.0
 10
193.9915654551158
 20
16.24758448077646
 30
0.0
 10
194.0255610233125
 20
16.23755723771853
 30
0.0
 10
194.05945756831
 20
16.24073266813706
 30
0.0
 10
194.1126669060346
 20
16.2350896564061
 30
0.0
 10
194.1660768574483
 20
16.23434774436425
 30
0.0
 10
194.199591464949
 20
16.22819223482979
 30
0.0
 10
194.2388086183038
 20
16.23346029773593
 30
0.0
 10
194.2120263698493
 20
16.19253380793488
 30
0.0
 10
194.1708111001725
 20
16.20371204538111
 30
0.0
 10
194.1782641540874
 20
16.15867056192123
 30
0.0
 10
194.1742227952185
 20
16.11412278028145
 30
0.0
 10
194.1761714049641
 20
16.04223572621703
 30
0.0
 10
194.1752364849759
 20
15.96168630588771
 30
0.0
 10
194.176510719003
 20
15.88173995404995
 30
0.0
 10
194.1732043793864
 20
15.80841837083183
 30
0.0
 10
194.1802106179962
 20
15.7668864300257
 30
0.0
 10
194.1701440380126
 20
15.72752418568113
 30
0.0
 10
194.2029814803922
 20
15.73468063430982
 30
0.0
 10
194.2364577296481
 20
15.73027243137945
 30
0.0
 10
194.2915053476019
 20
15.73217943347898
 30
0.0
 10
194.3489502595316
 20
15.7318536640729
 30
0.0
 10
194.402302624831
 20
15.73106308733083
 30
0.0
 10
194.4398540896639
 20
15.73313959118075
 30
0.0
 10
194.4623172523237
 20
15.7302233816711
 30
0.0
 10
194.4751678073731
 20
15.73572552644056
 30
0.0
 10
194.4858255685889
 20
15.73801118197791
 30
0.0
 10
194.4986635650143
 20
15.74494972588052
 30
0.0
 10
194.5145991033071
 20
15.72853046313672
 30
0.0
 10
194.5410623920891
 20
15.71709122319449
 30
0.0
 10
194.5726805253757
 20
15.6964468783519
 30
0.0
 10
194.5987255892151
 20
15.68116869628295
 30
0.0
 10
194.6128517723973
 20
15.67266976323184
 30
0.0
 10
194.6170254148479
 20
15.67015871511028
 30
0.0
 11
194.6170254148479
 21
15.67015871511028
 31
0.0
 11
194.6049990002243
 21
15.65473571164188
 31
0.0
 11
194.5848961795564
 21
15.64337406233918
 31
0.0
 11
194.4778986355813
 21
15.42440620231159
 31
0.0
 11
194.3477039934324
 21
15.21317201512161
 31
0.0
 11
194.1996540366071
 21
15.01206059027479
 31
0.0
 11
194.2734958253735
 21
14.96147384935379
 31
0.0
 11
194.36056643118
 21
14.89988411653739
 31
0.0
 11
194.4518003750405
 21
14.83413160594426
 31
0.0
 11
194.5381321779688
 21
14.77105653169305
 31
0.0
 11
194.6104963609788
 21
14.71749910790242
 31
0.0
 11
194.6598274450843
 21
14.68029954869105
 31
0.0
 11
194.6486940702213
 21
14.66471410869495
 31
0.0
 11
194.6221452532403
 21
14.62754882870424
 31
0.0
 11
194.5904579555533
 21
14.58319026871533
 31
0.0
 11
194.5639091385723
 21
14.54602498872462
 31
0.0
 11
194.5527757637093
 21
14.53043954872852
 31
0.0
 11
194.4807013362948
 21
14.59754008690618
 31
0.0
 11
194.3852856985381
 21
14.6799335417467
 31
0.0
 11
194.279326415217
 21
14.76785017366917
 31
0.0
 11
194.1756210511091
 21
14.85152024309267
 31
0.0
 11
194.1756210511091
 21
14.83304687900863
 31
0.0
 11
194.1756210511091
 21
14.78162102763955
 31
0.0
 11
194.1756210511091
 21
14.70323405030999
 31
0.0
 11
194.1756210511091
 21
14.60387730834449
 31
0.0
 11
194.1756210511091
 21
14.48954216306761
 31
0.0
 11
194.1756210511091
 21
14.3662199758039
 31
0.0
 11
194.1756210511091
 21
14.23990210787791
 31
0.0
 11
194.1756210511091
 21
14.11657992061419
 31
0.0
 11
194.1756210511091
 21
14.00224477533731
 31
0.0
 11
194.1756210511091
 21
13.90288803337181
 31
0.0
 11
194.1756210511091
 21
13.82450105604224
 31
0.0
 11
194.1756210511091
 21
13.77307520467317
 31
0.0
 11
194.1756210511091
 21
13.75460184058913
 31
0.0
 11
194.1569720893627
 21
13.75460184058913
 31
0.0
 11
194.112501488275
 21
13.75460184058913
 31
0.0
 11
194.0594236740736
 21
13.75460184058913
 31
0.0
 11
194.0149530729859
 21
13.75460184058913
 31
0.0
 11
193.9963041112395
 21
13.75460184058913
 31
0.0
 11
193.9963041112395
 21
13.7748679746022
 31
0.0
 11
193.9963041112395
 21
13.83089787452067
 31
0.0
 11
193.9963041112395
 21
13.91553878716348
 31
0.0
 11
193.9963041112395
 21
14.02163795934954
 31
0.0
 11
193.9963041112395
 21
14.14204263789776
 31
0.0
 11
193.9963041112395
 21
14.26960006962706
 31
0.0
 11
193.9963041112395
 21
14.39715750135637
 31
0.0
 11
193.9963041112395
 21
14.51756217990459
 31
0.0
 11
193.9963041112395
 21
14.62366135209064
 31
0.0
 11
193.9963041112395
 21
14.70830226473345
 31
0.0
 11
193.9963041112395
 21
14.76433216465193
 31
0.0
 11
193.9963041112395
 21
14.784598298665
 31
0.0
 11
193.7883272849481
 21
14.59331998274057
 31
0.0
 11
193.5763486358425
 21
14.43414885430811
 31
0.0
 11
193.5495629014483
 21
14.48814671952095
 31
0.0
 11
193.5138765415025
 21
14.54689140572027
 31
0.0
 11
193.4799697494124
 21
14.59192871537977
 31
0.0
 11
193.6830287742319
 21
14.73563387201055
 31
0.0
 11
193.881853195826
 21
14.91168423529989
 31
0.0
 11
194.0677041444179
 21
15.11327514524951
 31
0.0
 11
194.2318427502303
 21
15.3336019418611
 31
0.0
 11
194.3655301434864
 21
15.56585996513636
 31
0.0
 11
194.3465256724482
 21
15.56585996513636
 31
0.0
 11
194.2944166389562
 21
15.56585996513636
 31
0.0
 11
194.2165596124447
 21
15.56585996513636
 31
0.0
 11
194.1203111623478
 21
15.56585996513636
 31
0.0
 11
194.0130278580997
 21
15.56585996513636
 31
0.0
 11
193.9020662691345
 21
15.56585996513636
 31
0.0
 11
193.7947829648864
 21
15.56585996513636
 31
0.0
 11
193.6985345147895
 21
15.56585996513636
 31
0.0
 11
193.620677488278
 21
15.56585996513636
 31
0.0
 11
193.568568454786
 21
15.56585996513636
 31
0.0
 11
193.5495639837478
 21
15.56585996513636
 31
0.0
 11
193.5495639837478
 21
15.58311199790982
 31
0.0
 11
193.5495639837478
 21
15.62425146067732
 31
0.0
 11
193.5495639837478
 21
15.6733534001095
 31
0.0
 11
193.5495639837478
 21
15.71449286287699
 31
0.0
 11
193.5495639837478
 21
15.73174489565046
 31
0.0
 11
193.5687598486009
 21
15.73174489565046
 31
0.0
 11
193.6193671286684
 21
15.73174489565046
 31
0.0
 11
193.690915352212
 21
15.73174489565046
 31
0.0
 11
193.7729340474937
 21
15.73174489565046
 31
0.0
 11
193.8549527427753
 21
15.73174489565046
 31
0.0
 11
193.9265009663189
 21
15.73174489565046
 31
0.0
 11
193.9771082463864
 21
15.73174489565046
 31
0.0
 11
193.9963041112395
 21
15.73174489565046
 31
0.0
 11
193.9963041112395
 21
15.74926552655219
 31
0.0
 11
193.9963041112395
 21
15.79622081736883
 31
0.0
 11
193.9963041112395
 21
15.86420086526754
 31
0.0
 11
193.9963041112395
 21
15.94479576741549
 31
0.0
 11
193.9963041112395
 21
16.02959562097987
 31
0.0
 11
193.9963041112395
 21
16.11019052312782
 31
0.0
 11
193.9963041112395
 21
16.17817057102653
 31
0.0
 11
193.9963041112395
 21
16.22512586184317
 31
0.0
 11
193.9963041112395
 21
16.2426464927449
 31
0.0
 11
194.0135484112111
 21
16.24165806167519
 31
0.0
 11
194.0566591611401
 21
16.23918698400091
 31
0.0
 11
194.1127031360477
 21
16.23597458302435
 31
0.0
 11
194.1687471109553
 21
16.2327621820478
 31
0.0
 11
194.2118578608843
 21
16.23029110437352
 31
0.0
 11
194.2291021608559
 21
16.22930267330381
 31
0.0
 11
194.2143774674852
 21
16.20556293372641
 31
0.0
 11
194.1756210511091
 21
16.19183767331312
 31
0.0
 11
194.1756210511091
 21
16.17206806177293
 31
0.0
 11
194.1756210511091
 21
16.11994817680333
 31
0.0
 11
194.1756210511091
 21
16.04626144288079
 31
0.0
 11
194.1756210511091
 21
15.96179128448179
 31
0.0
 11
194.1756210511091
 21
15.87732112608279
 31
0.0
 11
194.1756210511091
 21
15.80363439216025
 31
0.0
 11
194.1756210511091
 21
15.75151450719065
 31
0.0
 11
194.1756210511091
 21
15.73174489565046
 31
0.0
 11
194.1916227112936
 21
15.73174489565046
 31
0.0
 11
194.2328901507171
 21
15.73174489565046
 31
0.0
 11
194.2893170576837
 21
15.73174489565046
 31
0.0
 11
194.3507971204982
 21
15.73174489565046
 31
0.0
 11
194.4072240274648
 21
15.73174489565046
 31
0.0
 11
194.4484914668882
 21
15.73174489565046
 31
0.0
 11
194.4644931270728
 21
15.73174489565046
 31
0.0
 11
194.4728206422924
 21
15.73451387455921
 31
0.0
 11
194.4882860277004
 21
15.73965626396119
 31
0.0
 11
194.49661354292
 21
15.74242524286994
 31
0.0
 11
194.5091363776005
 21
15.73490952398294
 31
0.0
 11
194.5389985218386
 21
15.71698742509854
 31
0.0
 11
194.5746404359293
 21
15.69559653288168
 31
0.0
 11
194.6045025801674
 21
15.67767443399729
 31
0.0
 11
194.6170254148479
 21
15.67015871511028
 31
0.0
  0
SPLINE
  5
A9
102
{ACAD_REACTORS
330
C6
102
}
330
48
100
AcDbEntity
  8
_U_30EC_U_30A4_U_30E4_U_30FC_1
  6
Continuous
 62
     2
100
AcDbSpline
210
0.0
220
0.0
230
1.0
 70
    11
 71
     3
 72
    91
 73
    87
 74
    85
 42
0.000000001
 43
0.0000000001
 44
0.00000001
 40
0.0
 40
0.0
 40
0.0
 40
0.0
 40
0.0267532254356701
 40
0.0856103386464155
 40
0.1444674521996709
 40
0.1712206856618621
 40
0.2039416005642643
 40
0.2955601971652591
 40
0.4362601844617024
 40
0.6162252844507357
 40
0.8256392189704804
 40
1.054685709844421
 40
1.293548478893542
 40
1.532411247938314
 40
1.761457738799579
 40
1.970871673298547
 40
2.150836773256743
 40
2.291536760495604
 40
2.383155356836711
 40
2.415876284101331
 40
2.442629517487977
 40
2.501486630949111
 40
2.560343744424261
 40
2.587096977826536
 40
2.617068194440964
 40
2.699247336756105
 40
2.822032643466446
 40
2.973822353257975
 40
3.143014704823417
 40
3.318007936879996
 40
3.487200288186858
 40
3.638989997548339
 40
3.761775303794894
 40
3.843954445753201
 40
3.873925662229897
 40
3.890812773500658
 40
3.907699884771864
 40
3.937960767857449
 40
3.980983618142425
 40
4.199085915228606
 40
4.439444339237397
 40
4.677588241261
 40
5.050698317837885
 40
5.448212454763243
 40
5.855291218044797
 40
6.138575438885504
 40
6.417434507584297
 40
6.444551104393955
 40
6.504207617363229
 40
6.563864130314554
 40
6.590980727104121
 40
6.848609460381525
 40
7.109611990668502
 40
7.352910904446186
 40
7.557830220705557
 40
7.587518925913474
 40
7.652834077375916
 40
7.718149228845899
 40
7.747837934062201
 40
7.854880190301157
 40
7.976511257403702
 40
8.369487896592446
 40
8.757514959223768
 40
9.12607241933123
 40
9.46063938039235
 40
9.746695593036176
 40
9.777569943118909
 40
9.807050320931978
 40
9.8303773361291
 40
9.886003295436183
 40
9.952395569430077
 40
10.00802152870643
 40
10.03134854388235
 40
10.21356951009605
 40
10.42203479292891
 40
10.6615455673108
 40
10.91693789564322
 40
11.15832906556583
 40
11.18982674596641
 40
11.27286608520425
 40
11.39026653033373
 40
11.52484752840909
 40
11.65942852648468
 40
11.7768289716151
 40
11.85986831085709
 40
11.89136598230454
 40
11.89136598230454
 40
11.89136598230454
 40
11.89136598230454
 10
190.7027885008196
 20
14.70699600701772
 30
0.0
 10
190.7028237765288
 20
14.71587847311985
 30
0.0
 10
190.7029366710796
 20
14.74430237047347
 30
0.0
 10
190.7012984568489
 20
14.79409639169803
 30
0.0
 10
190.7069750292911
 20
14.83657564478155
 30
0.0
 10
190.6956928731706
 20
14.88730154856848
 30
0.0
 10
190.7632296979031
 20
14.87012900740109
 30
0.0
 10
190.83880292107
 20
14.88290227165997
 30
0.0
 10
190.9828357056
 20
14.87629729457383
 30
0.0
 10
191.1569419185427
 20
14.87888462206467
 30
0.0
 10
191.3639599611003
 20
14.87800591955554
 30
0.0
 10
191.5894688172378
 20
14.87828207920028
 30
0.0
 10
191.8251162293406
 20
14.87818339658663
 30
0.0
 10
192.0607640531348
 20
14.87828184412768
 30
0.0
 10
192.2862717580626
 20
14.8780067819079
 30
0.0
 10
192.4932934632805
 20
14.87888186270736
 30
0.0
 10
192.6673888915288
 20
14.87630522678447
 30
0.0
 10
192.8114492071986
 20
14.88288290449214
 30
0.0
 10
192.8869691915293
 20
14.87016243405605
 30
0.0
 10
192.954577603703
 20
14.88726400191687
 30
0.0
 10
192.9430840140676
 20
14.83674785802941
 30
0.0
 10
192.9505104581733
 20
14.79253252226502
 30
0.0
 10
192.9428838927986
 20
14.7486796650361
 30
0.0
 10
192.9546489459425
 20
14.69878374479327
 30
0.0
 10
192.8930788491983
 20
14.71393227712512
 30
0.0
 10
192.8256791738671
 20
14.70310665350673
 30
0.0
 10
192.7013004056221
 20
14.70852031626236
 30
0.0
 10
192.555442823657
 20
14.70649205390784
 30
0.0
 10
192.3893576440086
 20
14.70715777578387
 30
0.0
 10
192.2188412621724
 20
14.70689643521241
 30
0.0
 10
192.0519790855388
 20
14.70721553391094
 30
0.0
 10
191.9087346827105
 20
14.70635302590763
 30
0.0
 10
191.7773313869832
 20
14.70863300482987
 30
0.0
 10
191.7239859134655
 20
14.70407704374203
 30
0.0
 10
191.6485188456911
 20
14.70999914992876
 30
0.0
 10
191.6769075779232
 20
14.70094169343353
 30
0.0
 10
191.7033652409542
 20
14.6972591226893
 30
0.0
 10
191.6633522907702
 20
14.66654271968275
 30
0.0
 10
191.5713663691869
 20
14.67667591174632
 30
0.0
 10
191.5439396207069
 20
14.43032502247786
 30
0.0
 10
191.4478793967234
 20
14.27499558764378
 30
0.0
 10
191.1917277964475
 20
13.94525417931566
 30
0.0
 10
191.7627537732763
 20
14.08430022210453
 30
0.0
 10
192.0173656320516
 20
14.08291779973363
 30
0.0
 10
192.6279647048619
 20
13.99790569242087
 30
0.0
 10
192.3340698578083
 20
14.29685417558202
 30
0.0
 10
192.013330428652
 20
14.44330856901777
 30
0.0
 10
192.1313543360433
 20
14.50025540818288
 30
0.0
 10
192.1724716466262
 20
14.52420099873348
 30
0.0
 10
192.2156812394412
 20
14.5459975881123
 30
0.0
 10
192.3174574094449
 20
14.60928721253905
 30
0.0
 10
192.4328867625248
 20
14.35147151408779
 30
0.0
 10
192.6329591642278
 20
14.21616041113683
 30
0.0
 10
192.7269077387228
 20
14.03792795138882
 30
0.0
 10
192.9558829746395
 20
13.87997821027049
 30
0.0
 10
192.8596031846708
 20
13.82915972576299
 30
0.0
 10
192.816795976378
 20
13.79881292523054
 30
0.0
 10
192.771824352878
 20
13.77466130281461
 30
0.0
 10
192.7121720925213
 20
13.72552146747569
 30
0.0
 10
192.6789731061325
 20
13.8599747567361
 30
0.0
 10
192.5582013350795
 20
14.0159426528658
 30
0.0
 10
192.1970976005979
 20
13.88569928059557
 30
0.0
 10
191.8385061955541
 20
13.90224694409483
 30
0.0
 10
191.457092045008
 20
13.89331229351868
 30
0.0
 10
191.1703455282893
 20
13.828826716724
 30
0.0
 10
190.859205559971
 20
13.94230668192842
 30
0.0
 10
190.8268737818788
 20
13.83122259927767
 30
0.0
 10
190.7896178253317
 20
13.81196313850014
 30
0.0
 10
190.7865737632754
 20
13.85874784087299
 30
0.0
 10
190.7679892860607
 20
13.89806853919133
 30
0.0
 10
190.7512436616779
 20
13.95765983478234
 30
0.0
 10
190.7383730915753
 20
14.00201969871283
 30
0.0
 10
190.704232780643
 20
14.09106331120203
 30
0.0
 10
190.9482714457754
 20
14.02181042943769
 30
0.0
 10
191.1441394486673
 20
14.00030369057743
 30
0.0
 10
191.2395426381277
 20
14.28226484478465
 30
0.0
 10
191.2945135769598
 20
14.44363045421122
 30
0.0
 10
191.5159619357156
 20
14.71391177589737
 30
0.0
 10
191.3849239381217
 20
14.70548446853735
 30
0.0
 10
191.3110026555854
 20
14.70779008496969
 30
0.0
 10
191.1977459876244
 20
14.70671378321659
 30
0.0
 10
191.0694251807485
 20
14.70707639076509
 30
0.0
 10
190.9404252030415
 20
14.70697724466086
 30
0.0
 10
190.8287840946292
 20
14.70699932712572
 30
0.0
 10
190.7514663970025
 20
14.7069957918967
 30
0.0
 10
190.713287653201
 20
14.70699595845081
 30
0.0
 10
190.7027885008196
 20
14.70699600701772
 30
0.0
 11
190.7027885008196
 21
14.70699600701772
 31
0.0
 11
190.7027885008196
 21
14.73374924051797
 31
0.0
 11
190.7027885008196
 21
14.79260635421854
 31
0.0
 11
190.7027885008196
 21
14.8514634679191
 31
0.0
 11
190.7027885008196
 21
14.87821670141936
 31
0.0
 11
190.7355094280989
 21
14.87821670141936
 31
0.0
 11
190.8271280244809
 21
14.87821670141936
 31
0.0
 11
190.9678280117818
 21
14.87821670141936
 31
0.0
 11
191.1477931118179
 21
14.87821670141936
 31
0.0
 11
191.3572070464054
 21
14.87821670141936
 31
0.0
 11
191.5862535373604
 21
14.87821670141936
 31
0.0
 11
191.8251163064992
 21
14.87821670141936
 31
0.0
 11
192.0639790756381
 21
14.87821670141936
 31
0.0
 11
192.2930255665931
 21
14.87821670141936
 31
0.0
 11
192.5024395011806
 21
14.87821670141936
 31
0.0
 11
192.6824046012167
 21
14.87821670141936
 31
0.0
 11
192.8231045885176
 21
14.87821670141936
 31
0.0
 11
192.9147231848996
 21
14.87821670141936
 31
0.0
 11
192.9474441121789
 21
14.87821670141936
 31
0.0
 11
192.9474441121789
 21
14.8514634679191
 31
0.0
 11
192.9474441121789
 21
14.79260635421854
 31
0.0
 11
192.9474441121789
 21
14.73374924051798
 31
0.0
 11
192.9474441121789
 21
14.70699600701772
 31
0.0
 11
192.9174728954758
 21
14.70699600701772
 31
0.0
 11
192.8352937529027
 21
14.70699600701772
 31
0.0
 11
192.7125084457639
 21
14.70699600701772
 31
0.0
 11
192.5607187353642
 21
14.70699600701772
 31
0.0
 11
192.3915263830077
 21
14.70699600701772
 31
0.0
 11
192.216533149999
 21
14.70699600701772
 31
0.0
 11
192.0473407976426
 21
14.70699600701772
 31
0.0
 11
191.8955510872428
 21
14.70699600701772
 31
0.0
 11
191.7727657801041
 21
14.70699600701772
 31
0.0
 11
191.6905866375309
 21
14.70699600701772
 31
0.0
 11
191.6606154208278
 21
14.70699600701772
 31
0.0
 11
191.6766359412525
 21
14.70165583340794
 31
0.0
 11
191.6926564616771
 21
14.69631565979815
 31
0.0
 11
191.6706155681421
 21
14.67558114591443
 31
0.0
 11
191.6284861855364
 21
14.6668587153611
 31
0.0
 11
191.5365235541377
 21
14.46909247312657
 31
0.0
 11
191.4279078521763
 21
14.25467511978509
 31
0.0
 11
191.3127500824808
 21
14.0462255905162
 31
0.0
 11
191.6857366675021
 21
14.05582441253029
 31
0.0
 11
192.0830700036151
 21
14.06781232404995
 31
0.0
 11
192.4899342191146
 21
14.08102711828533
 31
0.0
 11
192.2983119496979
 21
14.28966761302481
 31
0.0
 11
192.0966752013699
 21
14.48229420151832
 31
0.0
 11
192.120494779475
 21
14.49525327269565
 31
0.0
 11
192.1728978513062
 21
14.52376322928576
 31
0.0
 11
192.2253009231374
 21
14.55227318587588
 31
0.0
 11
192.2491205012425
 21
14.5652322570532
 31
0.0
 11
192.4387101558627
 21
14.39079508370268
 31
0.0
 11
192.6200310940436
 21
14.20305846374091
 31
0.0
 11
192.7777729231148
 21
14.01782380992436
 31
0.0
 11
192.8966252504059
 21
13.85089253500949
 31
0.0
 11
192.8715408217924
 21
13.83501202286069
 31
0.0
 11
192.8163550788426
 21
13.80007489613332
 31
0.0
 11
192.7611693358928
 21
13.76513776940596
 31
0.0
 11
192.7360849072793
 21
13.74925725725716
 31
0.0
 11
192.6775518151612
 21
13.8388782468181
 31
0.0
 11
192.6050015078457
 21
13.93650288221033
 31
0.0
 11
192.2125412924095
 21
13.9163628694376
 31
0.0
 11
191.8249474069561
 21
13.89803302999774
 31
0.0
 11
191.4567378976213
 21
13.88202178722396
 31
0.0
 11
191.1224308105412
 21
13.86883756444948
 31
0.0
 11
190.8365441918517
 21
13.8589887850075
 31
0.0
 11
190.821186232174
 21
13.83220523466695
 31
0.0
 11
190.7937434290546
 21
13.82143559057246
 31
0.0
 11
190.786792719232
 21
13.84370299445578
 31
0.0
 11
190.7702179496548
 21
13.89680218833139
 31
0.0
 11
190.7504351601596
 21
13.96017864553777
 31
0.0
 11
190.7338603905825
 21
14.01327783941338
 31
0.0
 11
190.7269096807599
 21
14.0355452432967
 31
0.0
 11
190.9091199859154
 21
14.03751638912953
 31
0.0
 11
191.1174975848589
 21
14.04356211829472
 31
0.0
 11
191.2303203127216
 21
14.25483550301554
 31
0.0
 11
191.3407936722036
 21
14.48509813155879
 31
0.0
 11
191.4358254265628
 21
14.70699600701772
 31
0.0
 11
191.4043277461597
 21
14.70699600701772
 31
0.0
 11
191.3212884069154
 21
14.70699600701772
 31
0.0
 11
191.2038879617768
 21
14.70699600701772
 31
0.0
 11
191.0693069636912
 21
14.70699600701772
 31
0.0
 11
190.9347259656055
 21
14.70699600701772
 31
0.0
 11
190.817325520467
 21
14.70699600701772
 31
0.0
 11
190.7342861812226
 21
14.70699600701772
 31
0.0
 11
190.7027885008196
 21
14.70699600701772
 31
0.0
  0
SPLINE
  5
AA
102
{ACAD_REACTORS
330
C7
102
}
330
48
100
AcDbEntity
  8
_U_30EC_U_30A4_U_30E4_U_30FC_1
  6
Continuous
 62
     2
100
AcDbSpline
210
0.0
220
0.0
230
1.0
 70
    11
 71
     3
 72
    35
 73
    31
 74
    29
 42
0.000000001
 43
0.0000000001
 44
0.00000001
 40
0.0
 40
0.0
 40
0.0
 40
0.0
 40
0.0335231036620288
 40
0.0713218571712221
 40
0.4278866681487385
 40
0.8116865841964622
 40
1.198190238000143
 40
1.56137954681277
 40
1.659983174622143
 40
1.759315573807237
 40
2.132719617231124
 40
2.5252333635889
 40
2.910815397779808
 40
3.265244364303394
 40
3.592606723582097
 40
3.964386154604044
 40
4.359942131737888
 40
4.75815411863942
 40
4.8438465387
 40
4.936650065543303
 40
5.256616602537382
 40
5.581707404416092
 40
5.89971915830823
 40
6.198363494280797
 40
6.46630104661586
 40
6.493895311537125
 40
6.559697020196918
 40
6.638234543442408
 40
6.704036252154133
 40
6.73163050842291
 40
6.73163050842291
 40
6.73163050842291
 40
6.73163050842291
 10
191.9736010568668
 20
16.23463843719134
 30
0.0
 10
191.9676006097788
 20
16.22480690542323
 30
0.0
 10
191.9548344099156
 20
16.20388988579795
 30
0.0
 10
191.7949362006553
 20
16.17127126532703
 30
0.0
 10
192.2322025842336
 20
15.88206680336696
 30
0.0
 10
192.4345394828262
 20
15.6804113835844
 30
0.0
 10
192.6819564267972
 20
15.43749387603277
 30
0.0
 10
193.1831513624607
 20
15.36047662757777
 30
0.0
 10
193.012556219897
 20
15.21876939174658
 30
0.0
 10
192.9383299463204
 20
15.01710366209103
 30
0.0
 10
192.6131432248187
 20
15.3695628717473
 30
0.0
 10
192.3277741670665
 20
15.53175212559563
 30
0.0
 10
192.0337604077658
 20
15.73687130053047
 30
0.0
 10
191.8084452691134
 20
16.21827488595455
 30
0.0
 10
191.5993085055522
 20
15.75343046609221
 30
0.0
 10
191.3207873674835
 20
15.54350952252911
 30
0.0
 10
191.0371383177208
 20
15.37424456359987
 30
0.0
 10
190.7078639527832
 20
15.00142360907934
 30
0.0
 10
190.6277012318224
 20
15.19708014459002
 30
0.0
 10
190.4759724909746
 20
15.32491104190598
 30
0.0
 10
190.9083395826794
 20
15.40454031765933
 30
0.0
 10
191.0962565329767
 20
15.60026634915477
 30
0.0
 10
191.3468477420504
 20
15.81632996916752
 30
0.0
 10
191.5714350470161
 20
15.98190992300061
 30
0.0
 10
191.6259775409714
 20
16.26133964636828
 30
0.0
 10
191.7494661029012
 20
16.24737950408078
 30
0.0
 10
191.8060273344521
 20
16.24521268867647
 30
0.0
 10
191.8761870984944
 20
16.2404685988136
 30
0.0
 10
191.9333414022105
 20
16.23709429350541
 30
0.0
 10
191.9644190320838
 20
16.23519854711119
 30
0.0
 10
191.9736010568668
 20
16.23463843719134
 30
0.0
 11
191.9736010568668
 21
16.23463843719134
 31
0.0
 11
191.9525319069884
 21
16.20856374969785
 31
0.0
 11
191.9174464559424
 21
16.19450114553469
 31
0.0
 11
192.1512374769094
 21
15.92527961131382
 31
0.0
 11
192.4414585957566
 21
15.6741340796926
 31
0.0
 11
192.7612797483684
 21
15.45710987618784
 31
0.0
 11
193.0838708706289
 21
15.29025232631638
 31
0.0
 11
193.0213299868076
 21
15.21402035584928
 31
0.0
 11
192.9688035818976
 21
15.12971197913424
 31
0.0
 11
192.6436279095815
 21
15.3132640483158
 31
0.0
 11
192.3237227768436
 21
15.54070139743429
 31
0.0
 11
192.0354200158608
 21
15.7967385512331
 31
0.0
 11
191.8050514588095
 21
16.06609003445566
 31
0.0
 11
191.5995531719516
 21
15.81126348721036
 31
0.0
 11
191.3288301341536
 21
15.55645182277756
 31
0.0
 11
191.0119538423247
 21
15.31969466354856
 31
0.0
 11
190.6679957933741
 21
15.11903163191467
 31
0.0
 11
190.6218855341338
 21
15.19126067703554
 31
0.0
 11
190.5636970460349
 21
15.26355586798967
 31
0.0
 11
190.8433040489016
 21
15.41911456961745
 31
0.0
 11
191.1093004621155
 21
15.60601009790405
 31
0.0
 11
191.3499997459747
 21
15.81384496285209
 31
0.0
 11
191.5537153607775
 21
16.03222167446416
 31
0.0
 11
191.7087607668219
 21
16.25074274274287
 31
0.0
 11
191.7363041569866
 21
16.24906789496551
 31
0.0
 11
191.8019845489177
 21
16.24507402718873
 31
0.0
 11
191.880377274771
 21
16.24030715274548
 31
0.0
 11
191.9460576667021
 21
16.2363132849687
 31
0.0
 11
191.9736010568668
 21
16.23463843719134
 31
0.0
  0
SPLINE
  5
AB
102
{ACAD_REACTORS
330
C8
102
}
330
48
100
AcDbEntity
  8
_U_30EC_U_30A4_U_30E4_U_30FC_1
  6
Continuous
 62
     2
100
AcDbSpline
210
0.0
220
0.0
230
1.0
 70
    11
 71
     3
 72
    15
 73
    11
 74
     9
 42
0.000000001
 43
0.0000000001
 44
0.00000001
 40
0.0
 40
0.0
 40
0.0
 40
0.0
 40
0.2785535985096117
 40
0.5215624748198209
 40
0.6076917376039844
 40
0.6938210001740579
 40
0.9405019146454618
 40
1.221691403488983
 40
1.300471877080878
 40
1.379252341684643
 40
1.379252341684643
 40
1.379252341684643
 40
1.379252341684643
 10
189.5681493631
 20
16.22930267330381
 30
0.0
 10
189.6296017794179
 20
16.17691646592716
 30
0.0
 10
189.7446649974113
 20
16.07882876798221
 30
0.0
 10
190.0397348497243
 20
15.92889785897222
 30
0.0
 10
189.9025147631857
 20
15.84343227515014
 30
0.0
 10
189.8041227843778
 20
15.71085785201555
 30
0.0
 10
189.7130033590649
 20
16.01616985781412
 30
0.0
 10
189.3636839480657
 20
16.07967869465377
 30
0.0
 10
189.511925837657
 20
16.17896509880878
 30
0.0
 10
189.5494081874237
 20
16.21252348402383
 30
0.0
 10
189.5681493631
 20
16.22930267330381
 30
0.0
 11
189.5681493631
 21
16.22930267330381
 31
0.0
 11
189.7919222440596
 21
16.06341774278972
 31
0.0
 11
189.9695046306383
 21
15.89753281227564
 31
0.0
 11
189.9066308127979
 21
15.83866743034592
 31
0.0
 11
189.8437569949575
 21
15.7798020484162
 31
0.0
 11
189.6688535117725
 21
15.95375677059491
 31
0.0
 11
189.4478256856141
 21
16.12757920110703
 31
0.0
 11
189.507987524357
 21
16.17844093720542
 31
0.0
 11
189.5681493631
 21
16.22930267330381
 31
0.0
  0
SPLINE
  5
AC
102
{ACAD_REACTORS
330
C9
102
}
330
48
100
AcDbEntity
  8
_U_30EC_U_30A4_U_30E4_U_30FC_1
  6
Continuous
 62
     2
100
AcDbSpline
210
0.0
220
0.0
230
1.0
 70
    11
 71
     3
 72
    75
 73
    71
 74
    69
 42
0.000000001
 43
0.0000000001
 44
0.00000001
 40
0.0
 40
0.0
 40
0.0
 40
0.0
 40
0.0342546099129691
 40
0.1245622414432346
 40
0.2522385480897518
 40
0.398599192294068
 40
0.5449598364980821
 40
0.6726361431438816
 40
0.762943774673696
 40
0.7971983935297973
 40
1.101723623449661
 40
1.408591244036665
 40
1.433332471690371
 40
1.487763172450169
 40
1.542193873081996
 40
1.566935100592546
 40
1.923523931821858
 40
2.27175570495363
 40
2.590579755100844
 40
2.858943305581075
 40
2.889120339309112
 40
2.918305855191036
 40
2.941366645531159
 40
2.996357760973063
 40
3.061992318140631
 40
3.116983433626831
 40
3.14004422399751
 40
3.411273122936457
 40
3.73244161974101
 40
3.761068217532708
 40
3.837787499630274
 40
3.94885869912591
 40
4.080541049104289
 40
4.219093782625675
 40
4.350776132722228
 40
4.461847332405561
 40
4.538566614678295
 40
4.567193212544543
 40
4.594907573998801
 40
4.66638145355734
 40
4.764111044010894
 40
4.87059253812564
 40
4.968322128642063
 40
5.039796008286748
 40
5.067510369784179
 40
5.094263603185391
 40
5.153120716668024
 40
5.211977830150467
 40
5.238731063551471
 40
5.272290535138739
 40
5.363380529444543
 40
5.49761841578122
 40
5.660621563453462
 40
5.838007341749163
 40
6.015393119910486
 40
6.178396267038083
 40
6.312634151842035
 40
6.403724143059025
 40
6.43728361267212
 40
6.464036846260736
 40
6.52289396000435
 40
6.581751071483609
 40
6.608504301590555
 40
6.637253941280703
 40
6.711397748902554
 40
6.812778057283166
 40
6.923237199248943
 40
7.024617507623587
 40
7.09876131520724
 40
7.12751094600719
 40
7.12751094600719
 40
7.12751094600719
 40
7.12751094600719
 10
188.4418622390564
 20
14.95849128473265
 30
0.0
 10
188.4418622819707
 20
14.9470731340872
 30
0.0
 10
188.4418624481129
 20
14.9055525784263
 30
0.0
 10
188.4418593081786
 20
14.82146922003772
 30
0.0
 10
188.44187882798
 20
14.70004497322329
 30
0.0
 10
188.4417912187737
 20
14.55980494047449
 30
0.0
 10
188.442111623523
 20
14.42006556794577
 30
0.0
 10
188.441160590974
 20
14.2974503889493
 30
0.0
 10
188.4431978595968
 20
14.21587074438044
 30
0.0
 10
188.4349433178745
 20
14.06271267077699
 30
0.0
 10
188.7430797940902
 20
14.22560236054721
 30
0.0
 10
189.0350645173735
 20
14.39482938688004
 30
0.0
 10
189.0408354448708
 20
14.25973235781912
 30
0.0
 10
189.0455471719891
 20
14.21617221160445
 30
0.0
 10
189.0482535411918
 20
14.17211249350546
 30
0.0
 10
189.0672545672957
 20
14.02272590363133
 30
0.0
 10
188.6583942247303
 20
14.08681172241263
 30
0.0
 10
188.3793710348832
 20
13.97296341411017
 30
0.0
 10
188.1018081587166
 20
13.87364095811146
 30
0.0
 10
187.8099837184402
 20
13.91630687596351
 30
0.0
 10
187.7869144678658
 20
13.81321679744543
 30
0.0
 10
187.7537474383333
 20
13.78691091244469
 30
0.0
 10
187.748065396274
 20
13.83455309036306
 30
0.0
 10
187.7284214559044
 20
13.87180336115069
 30
0.0
 10
187.7095089485624
 20
13.93007387847564
 30
0.0
 10
187.6942849867707
 20
13.97385201007806
 30
0.0
 10
187.6477246372936
 20
14.08759421046313
 30
0.0
 10
187.989089731245
 20
14.05576301120047
 30
0.0
 10
188.2679649367386
 20
14.02161435106481
 30
0.0
 10
188.2617753034906
 20
14.16913976479653
 30
0.0
 10
188.2630935452772
 20
14.24013150908832
 30
0.0
 10
188.2624831689947
 20
14.34719767958661
 30
0.0
 10
188.2625871570724
 20
14.47398529785998
 30
0.0
 10
188.2629987964055
 20
14.6084924349605
 30
0.0
 10
188.2613907841967
 20
14.73395549951185
 30
0.0
 10
188.2659902567924
 20
14.84505246719118
 30
0.0
 10
188.2564186502209
 20
14.90761886800689
 30
0.0
 10
188.270400178369
 20
14.96595388295002
 30
0.0
 10
188.2147384386703
 20
14.95289710582238
 30
0.0
 10
188.1575655197821
 20
14.961363077495
 30
0.0
 10
188.0616048925647
 20
14.95729976080637
 30
0.0
 10
187.9633767522821
 20
14.95970889852475
 30
0.0
 10
187.8672582457561
 20
14.95551600613389
 30
0.0
 10
187.8104648525812
 20
14.96429346441164
 30
0.0
 10
187.7550356873385
 20
14.95094936850123
 30
0.0
 10
187.7670679427918
 20
15.00036910959257
 30
0.0
 10
187.7592003173938
 20
15.04393988030396
 30
0.0
 10
187.766629556383
 20
15.08830469118526
 30
0.0
 10
187.7551930564144
 20
15.13902297763992
 30
0.0
 10
187.8232102370134
 20
15.12162460757743
 30
0.0
 10
187.8968496879747
 20
15.13417450237189
 30
0.0
 10
188.0325064058211
 20
15.12799677011097
 30
0.0
 10
188.1884909024526
 20
15.13029203093084
 30
0.0
 10
188.3615926358144
 20
15.1294096826253
 30
0.0
 10
188.5346942964181
 20
15.13029207142408
 30
0.0
 10
188.6906789811217
 20
15.1279966295555
 30
0.0
 10
188.8263351889797
 20
15.13417486262432
 30
0.0
 10
188.8999756705652
 20
15.12162394218334
 30
0.0
 10
188.9679914174724
 20
15.13902373012142
 30
0.0
 10
188.9565590885922
 20
15.08830130414555
 30
0.0
 10
188.9639539458297
 20
15.04397060811109
 30
0.0
 10
188.956203991227
 20
15.00028307550197
 30
0.0
 10
188.9681203741877
 20
14.95063590098477
 30
0.0
 10
188.9108170223616
 20
14.96461411338426
 30
0.0
 10
188.8520145789773
 20
14.95539755673255
 30
0.0
 10
188.7525293633199
 20
14.9595226816493
 30
0.0
 10
188.649428009835
 20
14.95822760025889
 30
0.0
 10
188.5537846354573
 20
14.95854077077641
 30
0.0
 10
188.4857467971617
 20
14.95848776697146
 30
0.0
 10
188.4514462213443
 20
14.95849051871657
 30
0.0
 10
188.4418622390564
 20
14.95849128473265
 30
0.0
 11
188.4418622390564
 21
14.95849128473265
 31
0.0
 11
188.4418622390564
 21
14.92423666587186
 31
0.0
 11
188.4418622390564
 21
14.83392903432976
 31
0.0
 11
188.4418622390564
 21
14.7062527276668
 31
0.0
 11
188.4418622390564
 21
14.5598920834434
 31
0.0
 11
188.4418622390564
 21
14.41353143922001
 31
0.0
 11
188.4418622390564
 21
14.28585513255705
 31
0.0
 11
188.4418622390564
 21
14.19554750101495
 31
0.0
 11
188.4418622390564
 21
14.16129288215416
 31
0.0
 11
188.7391932644567
 21
14.22709475713769
 31
0.0
 11
189.0384623627245
 21
14.29496038212073
 31
0.0
 11
189.0405487124976
 21
14.27030727882828
 31
0.0
 11
189.0451386819987
 21
14.2160704515849
 31
0.0
 11
189.0497286514996
 21
14.16183362434153
 31
0.0
 11
189.0518150012728
 21
14.13718052104908
 31
0.0
 11
188.705639688924
 21
14.05163370140898
 31
0.0
 11
188.3669653138838
 21
13.97060877629902
 31
0.0
 11
188.0563731516688
 21
13.8986276402493
 31
0.0
 11
187.7944444777956
 21
13.84021218778992
 31
0.0
 11
187.7817515029292
 21
13.81283442738013
 31
0.0
 11
187.7569794787514
 21
13.79740260446735
 31
0.0
 11
187.7491867589502
 21
13.81910683390636
 31
0.0
 11
187.7306041194242
 21
13.87086307333786
 31
0.0
 11
187.70842483999
 21
13.93263664943352
 31
0.0
 11
187.689842200464
 21
13.98439288886502
 31
0.0
 11
187.6820494806628
 21
14.00609711830403
 31
0.0
 11
187.9482776335932
 21
14.05794001759666
 31
0.0
 11
188.2626334936288
 21
14.1237396877191
 31
0.0
 11
188.2626334936288
 21
14.15236628569624
 31
0.0
 11
188.2626334936288
 21
14.22908556827499
 31
0.0
 11
188.2626334936288
 21
14.34015676842631
 31
0.0
 11
188.2626334936288
 21
14.47183911912118
 31
0.0
 11
188.2626334936288
 21
14.61039185333057
 31
0.0
 11
188.2626334936288
 21
14.74207420402543
 31
0.0
 11
188.2626334936288
 21
14.85314540417675
 31
0.0
 11
188.2626334936288
 21
14.9298646867555
 31
0.0
 11
188.2626334936288
 21
14.95849128473265
 31
0.0
 11
188.2349191321107
 21
14.95849128473265
 31
0.0
 11
188.1634452524063
 21
14.95849128473265
 31
0.0
 11
188.06571566179
 21
14.95849128473265
 31
0.0
 11
187.9592341675364
 21
14.95849128473265
 31
0.0
 11
187.8615045769201
 21
14.95849128473265
 31
0.0
 11
187.7900306972156
 21
14.95849128473265
 31
0.0
 11
187.7623163356976
 21
14.95849128473265
 31
0.0
 11
187.7623163356976
 21
14.9852445182329
 31
0.0
 11
187.7623163356976
 21
15.04410163193345
 31
0.0
 11
187.7623163356976
 21
15.10295874563399
 31
0.0
 11
187.7623163356976
 21
15.12971197913424
 31
0.0
 11
187.7958758072876
 21
15.12971197913424
 31
0.0
 11
187.8869658016031
 21
15.12971197913424
 31
0.0
 11
188.021203687963
 21
15.12971197913424
 31
0.0
 11
188.1842068356856
 21
15.12971197913424
 31
0.0
 11
188.3615926140897
 21
15.12971197913424
 31
0.0
 11
188.5389783924938
 21
15.12971197913424
 31
0.0
 11
188.7019815402164
 21
15.12971197913424
 31
0.0
 11
188.8362194265763
 21
15.12971197913424
 31
0.0
 11
188.9273094208918
 21
15.12971197913424
 31
0.0
 11
188.9608688924818
 21
15.12971197913424
 31
0.0
 11
188.9608688924818
 21
15.10295874563399
 31
0.0
 11
188.9608688924818
 21
15.04410163193344
 31
0.0
 11
188.9608688924818
 21
14.9852445182329
 31
0.0
 11
188.9608688924818
 21
14.95849128473265
 31
0.0
 11
188.9321192527877
 21
14.95849128473265
 31
0.0
 11
188.8579754451555
 21
14.95849128473265
 31
0.0
 11
188.7565951367604
 21
14.95849128473265
 31
0.0
 11
188.6461359947778
 21
14.95849128473265
 31
0.0
 11
188.5447556863827
 21
14.95849128473265
 31
0.0
 11
188.4706118787505
 21
14.95849128473265
 31
0.0
 11
188.4418622390564
 21
14.95849128473265
 31
0.0
  0
SPLINE
  5
AD
102
{ACAD_REACTORS
330
CA
102
}
330
48
100
AcDbEntity
  8
_U_30EC_U_30A4_U_30E4_U_30FC_1
  6
Continuous
 62
     2
100
AcDbSpline
210
0.0
220
0.0
230
1.0
 70
    11
 71
     3
 72
    91
 73
    87
 74
    85
 42
0.000000001
 43
0.0000000001
 44
0.00000001
 40
0.0
 40
0.0
 40
0.0
 40
0.0
 40
0.0345987051695718
 40
0.1258134969461085
 40
0.2547723404888703
 40
0.4026032099153556
 40
0.550434079341642
 40
0.6793929228835227
 40
0.7706077146570467
 40
0.8052064287780072
 40
1.124852390615189
 40
1.427402236308783
 40
1.706356627453425
 40
1.955541417875104
 40
2.16948593856625
 40
2.34435078666472
 40
2.48056841156187
 40
2.590440557428865
 40
2.649189927151019
 40
2.749320643306254
 40
2.912632739879955
 40
3.147745656000156
 40
3.244827496384952
 40
3.338490056946542
 40
3.583815413206976
 40
3.761423943238335
 40
3.886956104362498
 40
3.985855451886636
 40
4.091766255337464
 40
4.250186473811684
 40
4.422734315084352
 40
4.628285684838462
 40
4.872093227758306
 40
5.152549652145417
 40
5.464967135837394
 40
5.803201477852308
 40
6.160362988813782
 40
6.193449448275866
 40
6.28417038550152
 40
6.41971813876439
 40
6.587285046385668
 40
6.774063446723554
 40
6.967245678113537
 40
7.15402407881758
 40
7.321590987025937
 40
7.457138740890295
 40
7.54785967855606
 40
7.58094613818262
 40
7.608533084714672
 40
7.669224367077648
 40
7.729915649429865
 40
7.757502595949916
 40
7.790278062553369
 40
7.880146277430867
 40
8.01441996318033
 40
8.180411842397831
 40
8.3654346376793
 40
8.556801071622601
 40
8.741823866830714
 40
8.907815745916224
 40
9.042089431507378
 40
9.131957646249504
 40
9.16473311279708
 40
9.41542506314
 40
9.667986180958467
 40
9.694169807462606
 40
9.756607686047621
 40
9.831130315322513
 40
9.893568193900006
 40
9.91975182039885
 40
9.950967964690681
 40
9.996421631210794
 40
10.22087981037468
 40
10.44341866197556
 40
10.47847970788868
 40
10.57091337438769
 40
10.70159545461243
 40
10.85140174170374
 40
11.00120802880491
 40
11.13189010907396
 40
11.22432377583024
 40
11.2593848093897
 40
11.28697175596159
 40
11.34766303835933
 40
11.40835432042083
 40
11.43594125892118
 40
11.43594125892118
 40
11.43594125892118
 40
11.43594125892118
 10
190.0818114333289
 20
15.55242795125078
 30
0.0
 10
190.070278584494
 20
15.55242790287916
 30
0.0
 10
190.0283409444999
 20
15.55242773704165
 30
0.0
 10
189.9434129719025
 20
15.5524312580091
 30
0.0
 10
189.8207688553129
 20
15.55240926435879
 30
0.0
 10
189.6791206916993
 20
15.55250801177055
 30
0.0
 10
189.537975369849
 20
15.55214686232421
 30
0.0
 10
189.4141351317905
 20
15.5532188360909
 30
0.0
 10
189.3317217825382
 20
15.55092249091269
 30
0.0
 10
189.1727791229694
 20
15.5604856937342
 30
0.0
 10
189.3503402353375
 20
15.1978539431137
 30
0.0
 10
189.3379739205453
 20
14.95243127723115
 30
0.0
 10
189.4064519473865
 20
14.66862501324836
 30
0.0
 10
189.4693024320969
 20
14.43250999939035
 30
0.0
 10
189.5452253431729
 20
14.23326740396129
 30
0.0
 10
189.6303189577015
 20
14.07745347451374
 30
0.0
 10
189.7244607592936
 20
13.97657857781394
 30
0.0
 10
189.8282648207727
 20
13.92465852638965
 30
0.0
 10
189.9125872030774
 20
13.97606484379618
 30
0.0
 10
189.9351322179452
 20
14.09144544037515
 30
0.0
 10
189.9745730975371
 20
14.2188514970238
 30
0.0
 10
189.9202919734943
 20
14.53622328086757
 30
0.0
 10
190.0451218072474
 20
14.38982180140904
 30
0.0
 10
190.2019291513603
 20
14.35795300331173
 30
0.0
 10
190.0947720007057
 20
14.12421357767629
 30
0.0
 10
190.0808711209867
 20
13.95972776583656
 30
0.0
 10
190.0234709467226
 20
13.83130869122484
 30
0.0
 10
189.9335020145009
 20
13.76018802352827
 30
0.0
 10
189.8095274657878
 20
13.74432324142254
 30
0.0
 10
189.6634273196861
 20
13.77993797554171
 30
0.0
 10
189.5243894320284
 20
13.90000570500277
 30
0.0
 10
189.4102003962145
 20
14.0743568255032
 30
0.0
 10
189.3146141301486
 20
14.2994660311124
 30
0.0
 10
189.2318652572627
 20
14.56388246006442
 30
0.0
 10
189.1807179256412
 20
14.88187933098544
 30
0.0
 10
189.0770189207339
 20
15.15543728488913
 30
0.0
 10
189.2042841208522
 20
15.56005818612869
 30
0.0
 10
189.0357890623019
 20
15.55112367849679
 30
0.0
 10
188.9511995787078
 20
15.55315961418364
 30
0.0
 10
188.8189876387628
 20
15.55213937388407
 30
0.0
 10
188.6560505094103
 20
15.5525323031843
 30
0.0
 10
188.4733759170534
 20
15.5523569631337
 30
0.0
 10
188.2847057373382
 20
15.55260105307468
 30
0.0
 10
188.1014469020189
 20
15.55185657906238
 30
0.0
 10
187.9404746832718
 20
15.55416360522426
 30
0.0
 10
187.8029808335275
 20
15.54799804883663
 30
0.0
 10
187.7289590372311
 20
15.56032838458212
 30
0.0
 10
187.6613215186856
 20
15.54329323723557
 30
0.0
 10
187.6732373719269
 20
15.59524438447528
 30
0.0
 10
187.6655677285694
 20
15.64071424966529
 30
0.0
 10
187.6732592225115
 20
15.68614453703706
 30
0.0
 10
187.6613141797762
 20
15.7380239598457
 30
0.0
 10
187.7283588305867
 20
15.72119143490264
 30
0.0
 10
187.8017375665677
 20
15.73335409092671
 30
0.0
 10
187.9379128305271
 20
15.72727231074958
 30
0.0
 10
188.0973811801513
 20
15.72954834315058
 30
0.0
 10
188.2789173085836
 20
15.72881233998961
 30
0.0
 10
188.4658034862179
 20
15.72905954196134
 30
0.0
 10
188.6468012316836
 20
15.72886400799253
 30
0.0
 10
188.8080802578878
 20
15.72932234714839
 30
0.0
 10
188.9393882124887
 20
15.72812673751206
 30
0.0
 10
189.0225051322596
 20
15.73051347319742
 30
0.0
 10
189.1556236547814
 20
15.72230605725464
 30
0.0
 10
189.0645893502659
 20
15.97752868952654
 30
0.0
 10
188.9789633074418
 20
16.24164358328247
 30
0.0
 10
189.0990589003454
 20
16.22904442969164
 30
0.0
 10
189.1514264948543
 20
16.22694235763076
 30
0.0
 10
189.2214497569716
 20
16.22535399889657
 30
0.0
 10
189.2671922337817
 20
16.21602567538112
 30
0.0
 10
189.3220812646934
 20
16.22545966915427
 30
0.0
 10
189.2963574785682
 20
16.17733028655173
 30
0.0
 10
189.1825397571454
 20
16.18266829744166
 30
0.0
 10
189.3159346621136
 20
15.95449174576777
 30
0.0
 10
189.194365873547
 20
15.72156856595923
 30
0.0
 10
189.3223188769413
 20
15.73087258884438
 30
0.0
 10
189.4049048406461
 20
15.7280100175468
 30
0.0
 10
189.5307214850824
 20
15.72923437412302
 30
0.0
 10
189.6741469838057
 20
15.72932431888965
 30
0.0
 10
189.8157420951728
 20
15.72746163183853
 30
0.0
 10
189.9459127249967
 20
15.73333075937163
 30
0.0
 10
190.0193452286191
 20
15.72070340823204
 30
0.0
 10
190.0891112922096
 20
15.73877563110412
 30
0.0
 10
190.0775772605396
 20
15.68612850546326
 30
0.0
 10
190.0833184346682
 20
15.64221317686548
 30
0.0
 10
190.0816615770911
 20
15.5908998267655
 30
0.0
 10
190.081775756167
 20
15.56158792021635
 30
0.0
 10
190.0818114333289
 20
15.55242795125078
 30
0.0
 11
190.0818114333289
 21
15.55242795125078
 31
0.0
 11
190.0472127192051
 21
15.55242795125078
 31
0.0
 11
189.9559979274241
 21
15.55242795125078
 31
0.0
 11
189.8270390838717
 21
15.55242795125078
 31
0.0
 11
189.6792082144336
 21
15.55242795125078
 31
0.0
 11
189.5313773449955
 21
15.55242795125078
 31
0.0
 11
189.4024185014431
 21
15.55242795125078
 31
0.0
 11
189.3112037096621
 21
15.55242795125078
 31
0.0
 11
189.2766049955383
 21
15.55242795125078
 31
0.0
 11
189.3083140497693
 21
15.23435864930122
 31
0.0
 11
189.3527866656866
 21
14.93509522788081
 31
0.0
 11
189.409238911832
 21
14.66191269512576
 31
0.0
 11
189.4768868567478
 21
14.42208605917227
 31
0.0
 11
189.5549465689761
 21
14.22289032815655
 31
0.0
 11
189.6426341170591
 21
14.07160051021478
 31
0.0
 11
189.7391655695389
 21
13.97549161348317
 31
0.0
 11
189.8437569949575
 21
13.94183864609792
 31
0.0
 11
189.8943077302786
 21
13.97177376978835
 31
0.0
 11
189.9310588991552
 21
14.06491619815047
 31
0.0
 11
189.9562640977528
 21
14.22627151712055
 31
0.0
 11
189.9721769222369
 21
14.46084531263482
 31
0.0
 11
190.0494082682583
 21
14.40202182306619
 31
0.0
 11
190.1327184184385
 21
14.35921885432691
 31
0.0
 11
190.1066365811217
 21
14.1152838866101
 31
0.0
 11
190.0673317805105
 21
13.94207902887562
 31
0.0
 11
190.0105702596765
 21
13.83011272445917
 31
0.0
 11
189.9321182616911
 21
13.76989341669645
 31
0.0
 11
189.8277420296257
 21
13.75192954892317
 31
0.0
 11
189.6738595065098
 21
13.78957440012361
 31
0.0
 11
189.5388902376748
 21
13.89707348877403
 31
0.0
 11
189.4221739916163
 21
14.06627361744809
 31
0.0
 11
189.32305053683
 21
14.28902158871943
 31
0.0
 11
189.2408596418113
 21
14.55716420516172
 31
0.0
 11
189.1749410750559
 21
14.86254826934861
 31
0.0
 11
189.1246346050594
 21
15.19702058385374
 31
0.0
 11
189.0892800003172
 21
15.55242795125078
 31
0.0
 11
189.0561935405844
 21
15.55242795125078
 31
0.0
 11
188.9654726026075
 21
15.55242795125078
 31
0.0
 11
188.8299248482186
 21
15.55242795125078
 31
0.0
 11
188.6623579392495
 21
15.55242795125078
 31
0.0
 11
188.4755795375324
 21
15.55242795125078
 31
0.0
 11
188.2823973048993
 21
15.55242795125078
 31
0.0
 11
188.0956189031822
 21
15.55242795125078
 31
0.0
 11
187.9280519942131
 21
15.55242795125078
 31
0.0
 11
187.7925042398242
 21
15.55242795125078
 31
0.0
 11
187.7017833018473
 21
15.55242795125078
 31
0.0
 11
187.6686968421145
 21
15.55242795125078
 31
0.0
 11
187.6686968421145
 21
15.58001489785847
 31
0.0
 11
187.6686968421145
 21
15.64070618039538
 31
0.0
 11
187.6686968421145
 21
15.70139746293229
 31
0.0
 11
187.6686968421145
 21
15.72898440953998
 31
0.0
 11
187.7014723087631
 21
15.72898440953998
 31
0.0
 11
187.7913405237673
 21
15.72898440953998
 31
0.0
 11
187.9256142097148
 21
15.72898440953998
 31
0.0
 11
188.0916060891932
 21
15.72898440953998
 31
0.0
 11
188.2766288847901
 21
15.72898440953998
 31
0.0
 11
188.4679953190932
 21
15.72898440953998
 31
0.0
 11
188.6530181146902
 21
15.72898440953998
 31
0.0
 11
188.8190099941685
 21
15.72898440953998
 31
0.0
 11
188.953283680116
 21
15.72898440953998
 31
0.0
 11
189.0431518951202
 21
15.72898440953998
 31
0.0
 11
189.0759273617688
 21
15.72898440953998
 31
0.0
 11
189.0659183950103
 21
15.97947647544958
 31
0.0
 11
189.0599112510662
 21
16.23196614552531
 31
0.0
 11
189.0860575870658
 21
16.23056921608122
 31
0.0
 11
189.1484065421419
 21
16.22723807663761
 31
0.0
 11
189.22282303691
 21
16.22326220052749
 31
0.0
 11
189.285171991986
 21
16.21993106108388
 31
0.0
 11
189.3113183279856
 21
16.21853413163979
 31
0.0
 11
189.2982931113041
 21
16.1901652861608
 31
0.0
 11
189.2551649266406
 21
16.17581274276164
 31
0.0
 11
189.2574991961821
 21
15.95136670115108
 31
0.0
 11
189.2658452735903
 21
15.72898440953998
 31
0.0
 11
189.3009063195165
 21
15.72898440953998
 31
0.0
 11
189.3933399860495
 21
15.72898440953998
 31
0.0
 11
189.5240220663201
 21
15.72898440953998
 31
0.0
 11
189.6738283534596
 21
15.72898440953998
 31
0.0
 11
189.8236346405991
 21
15.72898440953998
 31
0.0
 11
189.9543167208697
 21
15.72898440953998
 31
0.0
 11
190.0467503874027
 21
15.72898440953998
 31
0.0
 11
190.0818114333289
 21
15.72898440953998
 31
0.0
 11
190.0818114333289
 21
15.70139746293229
 31
0.0
 11
190.0818114333289
 21
15.64070618039538
 31
0.0
 11
190.0818114333289
 21
15.58001489785847
 31
0.0
 11
190.0818114333289
 21
15.55242795125078
 31
0.0
  0
SPLINE
  5
AE
102
{ACAD_REACTORS
330
CB
102
}
330
48
100
AcDbEntity
  8
_U_30EC_U_30A4_U_30E4_U_30FC_1
  6
Continuous
 62
     2
100
AcDbSpline
210
0.0
220
0.0
230
1.0
 70
    11
 71
     3
 72
   118
 73
   114
 74
   112
 42
0.000000001
 43
0.0000000001
 44
0.00000001
 40
0.0
 40
0.0
 40
0.0
 40
0.0
 40
0.1054708162973078
 40
0.2466098270051592
 40
0.396591287459078
 40
0.5285525069753536
 40
0.6156245055641603
 40
0.6431434105796747
 40
0.7036850037985283
 40
0.7642265984503344
 40
0.7917455052353648
 40
0.9287404319989069
 40
1.106572819087945
 40
1.287544879680916
 40
1.317578308030435
 40
1.399928030857072
 40
1.522968204799848
 40
1.675072986590471
 40
1.844616533180548
 40
2.019973001638614
 40
2.189516548879928
 40
2.341621331585267
 40
2.464661506320406
 40
2.54701122964697
 40
2.577044658167934
 40
2.603797890893005
 40
2.66265500290872
 40
2.721512114949561
 40
2.748265347702712
 40
2.774215307344789
 40
2.845959313407119
 40
2.954338556588319
 40
3.090194227585498
 40
3.244367517100463
 40
3.407699615844224
 40
3.571031714539374
 40
3.72520500392005
 40
3.861060674729553
 40
3.969439917716245
 40
4.04118392362892
 40
4.067133883212914
 40
4.311886746012134
 40
4.547897258335502
 40
4.764747083043957
 40
4.952749679951745
 40
5.045772974195843
 40
5.137862019644912
 40
5.330543169792946
 40
5.553448265243939
 40
5.795083855888098
 40
6.043293412177164
 40
6.285761695541122
 40
6.313902908752634
 40
6.384255941793223
 40
6.475714884766812
 40
6.567173827758903
 40
6.637526860839709
 40
6.665668074074072
 40
6.692018920328045
 40
6.74999078207111
 40
6.807962643790478
 40
6.834313490017949
 40
6.856393084245227
 40
6.913335195649851
 40
6.991194817302543
 40
7.076026942283833
 40
7.153886563725352
 40
7.210828674844906
 40
7.232908268931269
 40
7.25819933492379
 40
7.32487578159244
 40
7.419142481925097
 40
7.527204308842037
 40
7.635266135230615
 40
7.729532834168601
 40
7.796209279292923
 40
7.821500344594869
 40
7.84465298885094
 40
7.899863140541662
 40
7.965759128053743
 40
8.020969279770998
 40
8.044121924046436
 40
8.069356610160451
 40
8.109134395441142
 40
8.132238100190854
 40
8.19314786778622
 40
8.279261678876392
 40
8.377977512673606
 40
8.476693347146389
 40
8.562807160411444
 40
8.62371693082623
 40
8.646820636853182
 40
8.671988793773995
 40
8.734909185827878
 40
8.816705695188592
 40
8.898502204815163
 40
8.961422597377624
 40
8.986590754550736
 40
9.012941600732889
 40
9.070913462379972
 40
9.12888532408146
 40
9.155236170324782
 40
9.180404327928825
 40
9.243324721947898
 40
9.325121234211663
 40
9.406917746637317
 40
9.469838141977773
 40
9.495006288270547
 40
9.517811184378688
 40
9.572192090486688
 40
9.63709833328092
 40
9.691479239515118
 40
9.714284125643157
 40
9.714284125643157
 40
9.714284125643157
 40
9.714284125643157
 10
185.2874469028654
 20
15.2688916318772
 30
0.0
 10
185.3090990569039
 20
15.24111869242812
 30
0.0
 10
185.3597257109474
 20
15.17618054561234
 30
0.0
 10
185.4349383202592
 20
15.06891060312899
 30
0.0
 10
185.5248482274346
 20
14.95377438266624
 30
0.0
 10
185.5709169676674
 20
14.8535704574832
 30
0.0
 10
185.6655825294654
 20
14.78434006814944
 30
0.0
 10
185.6204439320413
 20
14.73771639678273
 30
0.0
 10
185.5947047785791
 20
14.6966030886604
 30
0.0
 10
185.5645196708012
 20
14.66065971727937
 30
0.0
 10
185.5193684730563
 20
14.58579782596093
 30
0.0
 10
185.4710504458562
 20
14.80782524253602
 30
0.0
 10
185.3968539713073
 20
14.84510677337711
 30
0.0
 10
185.2836047324607
 20
15.116102021306
 30
0.0
 10
185.288513357817
 20
15.00095328446229
 30
0.0
 10
185.2868486556306
 20
14.92836675781628
 30
0.0
 10
185.2876830076715
 20
14.80625588483987
 30
0.0
 10
185.2873609540265
 20
14.65913800810461
 30
0.0
 10
185.2875076912457
 20
14.49307063956558
 30
0.0
 10
185.2872950092724
 20
14.32187554608602
 30
0.0
 10
185.2879497252034
 20
14.15552828635498
 30
0.0
 10
185.285919246114
 20
14.00935173055693
 30
0.0
 10
185.2913460399931
 20
13.88471047474611
 30
0.0
 10
185.2804930868709
 20
13.81718656540626
 30
0.0
 10
185.2956739155556
 20
13.75549061417022
 30
0.0
 10
185.2457895108134
 20
13.76727503897002
 30
0.0
 10
185.2017150342522
 20
13.75943822779969
 30
0.0
 10
185.1582371630201
 20
13.76760441372703
 30
0.0
 10
185.1092346786489
 20
13.75538056738469
 30
0.0
 10
185.1218731234825
 20
13.80960667249313
 30
0.0
 10
185.113018296845
 20
13.86936918907558
 30
0.0
 10
185.1175058770314
 20
13.9792202904437
 30
0.0
 10
185.1157960135992
 20
14.11029975405678
 30
0.0
 10
185.1163550915987
 20
14.26198011444329
 30
0.0
 10
185.1161928768695
 20
14.42211074929953
 30
0.0
 10
185.1162269924675
 20
14.58236865674567
 30
0.0
 10
185.1162514960127
 20
14.7337024752044
 30
0.0
 10
185.1161453543227
 20
14.86582156338602
 30
0.0
 10
185.1164299141931
 20
14.97294802533193
 30
0.0
 10
185.1158675547568
 20
15.03808619579474
 30
0.0
 10
185.1180765083689
 20
15.16618957858677
 30
0.0
 10
185.0319435998603
 20
14.79097610391578
 30
0.0
 10
184.9555140818499
 20
14.63918193123394
 30
0.0
 10
184.8660040767834
 20
14.47766206446309
 30
0.0
 10
184.7640413217326
 20
14.20471848820171
 30
0.0
 10
184.7187976491039
 20
14.36717346596511
 30
0.0
 10
184.6102355941671
 20
14.45605432058121
 30
0.0
 10
184.7995791751754
 20
14.6054979496141
 30
0.0
 10
184.85653405457
 20
14.79749136974925
 30
0.0
 10
184.9717520993353
 20
15.02899622906757
 30
0.0
 10
184.9940151630133
 20
15.21797259759065
 30
0.0
 10
185.1771905152141
 20
15.49454089325931
 30
0.0
 10
185.0538033597552
 20
15.48698978832095
 30
0.0
 10
184.9925684166834
 20
15.48856772366119
 30
0.0
 10
184.9081999617064
 20
15.48882592573674
 30
0.0
 10
184.8204235085966
 20
15.48544845751206
 30
0.0
 10
184.7656768696123
 20
15.49394814982022
 30
0.0
 10
184.7104703026024
 20
15.48048561049788
 30
0.0
 10
184.7222823035536
 20
15.52931442126764
 30
0.0
 10
184.7142496151793
 20
15.57269004896709
 30
0.0
 10
184.7228186104679
 20
15.61509438309573
 30
0.0
 10
184.7102943409157
 20
15.66267796552118
 30
0.0
 10
184.7555101538735
 20
15.65267212995109
 30
0.0
 10
184.8014815562723
 20
15.65894105174061
 30
0.0
 10
184.877722204771
 20
15.65593561405872
 30
0.0
 10
184.9561296131994
 20
15.65770448278541
 30
0.0
 10
185.0323992648933
 20
15.65464793981659
 30
0.0
 10
185.0783009459475
 20
15.66103971376177
 30
0.0
 10
185.1231733965401
 20
15.65093822978896
 30
0.0
 10
185.1105552275634
 20
15.70157201581898
 30
0.0
 10
185.1191936582707
 20
15.7550126188207
 30
0.0
 10
185.1152361595444
 20
15.8486325513168
 30
0.0
 10
185.1162325068335
 20
15.95112606688924
 30
0.0
 10
185.1171927413074
 20
16.05353270248163
 30
0.0
 10
185.1133211458006
 20
16.14735929609321
 30
0.0
 10
185.1217789814365
 20
16.20036542840353
 30
0.0
 10
185.1093075932836
 20
16.25211435651188
 30
0.0
 10
185.1542106389851
 20
16.23850747226758
 30
0.0
 10
185.1955083836772
 20
16.24100480320585
 30
0.0
 10
185.259534428105
 20
16.23648060574488
 30
0.0
 10
185.2986111148786
 20
16.22781003043308
 30
0.0
 10
185.347654349874
 20
16.23515102070687
 30
0.0
 10
185.3225080030591
 20
16.19602896051757
 30
0.0
 10
185.2815901333724
 20
16.20563842455805
 30
0.0
 10
185.2910109616604
 20
16.15540148169778
 30
0.0
 10
185.2855647318747
 20
16.1038594563949
 30
0.0
 10
185.2881699601805
 20
16.0195970758452
 30
0.0
 10
185.2870102202155
 20
15.92559135583408
 30
0.0
 10
185.2883591064232
 20
15.83196865395525
 30
0.0
 10
185.2849970101508
 20
15.74679517552223
 30
0.0
 10
185.292095991777
 20
15.69716856072044
 30
0.0
 10
185.2812569154547
 20
15.64993694969989
 30
0.0
 10
185.3304010225246
 20
15.66201674936851
 30
0.0
 10
185.3794877630148
 20
15.65447393363012
 30
0.0
 10
185.4573714280642
 20
15.65686070361432
 30
0.0
 10
185.5350365172897
 20
15.65899381905415
 30
0.0
 10
185.5845393931355
 20
15.65193391922455
 30
0.0
 10
185.634459475064
 20
15.66360151936214
 30
0.0
 10
185.6223198516881
 20
15.61540235371393
 30
0.0
 10
185.6305838229144
 20
15.57249219801236
 30
0.0
 10
185.6223198650783
 20
15.52958201851385
 30
0.0
 10
185.6344594549855
 20
15.48138288754866
 30
0.0
 10
185.5845395158746
 20
15.49305034471511
 30
0.0
 10
185.5350350651204
 20
15.48599202435047
 30
0.0
 10
185.4573784382974
 20
15.48811665228604
 30
0.0
 10
185.3794643865762
 20
15.49053389365761
 30
0.0
 10
185.3304500352717
 20
15.48291848194486
 30
0.0
 10
185.2813246108944
 20
15.49507952557594
 30
0.0
 10
185.2915559988571
 20
15.45073013424158
 30
0.0
 10
185.2856677678055
 20
15.40925436202913
 30
0.0
 10
185.287878830557
 20
15.34915394315304
 30
0.0
 10
185.2874109346147
 20
15.3022578276289
 30
0.0
 10
185.2874386992914
 20
15.27650146418197
 30
0.0
 10
185.2874469028654
 20
15.2688916318772
 30
0.0
 11
185.2874469028654
 21
15.2688916318772
 31
0.0
 11
185.3516977534485
 21
15.18524999634257
 31
0.0
 11
185.43482588355
 21
15.07118889748221
 31
0.0
 11
185.5216831568896
 21
14.94891767195723
 31
0.0
 11
185.5971214371872
 21
14.84064565642876
 31
0.0
 11
185.6459925881626
 21
14.7685821875579
 31
0.0
 11
185.6296821285093
 21
14.74641782124399
 31
0.0
 11
185.593799117272
 21
14.69765621535339
 31
0.0
 11
185.5579161060347
 21
14.6488946094628
 31
0.0
 11
185.5416056463814
 21
14.62673024314889
 31
0.0
 11
185.4763067109446
 21
14.74716139023814
 31
0.0
 11
185.3848434243235
 21
14.89966983670208
 31
0.0
 11
185.2874469028654
 21
15.05219788193143
 31
0.0
 11
185.2874469028654
 21
15.02216445328254
 31
0.0
 11
185.2874469028654
 21
14.93981472956784
 31
0.0
 11
185.2874469028654
 21
14.81677455413529
 31
0.0
 11
185.2874469028654
 21
14.66466977033284
 31
0.0
 11
185.2874469028654
 21
14.49512622150846
 31
0.0
 11
185.2874469028654
 21
14.3197697510101
 31
0.0
 11
185.2874469028654
 21
14.15022620218571
 31
0.0
 11
185.2874469028654
 21
13.99812141838326
 31
0.0
 11
185.2874469028654
 21
13.87508124295071
 31
0.0
 11
185.2874469028654
 21
13.79273151923601
 31
0.0
 11
185.2874469028654
 21
13.76269809058712
 31
0.0
 11
185.260693670041
 21
13.76269809058712
 31
0.0
 11
185.2018365578272
 21
13.76269809058712
 31
0.0
 11
185.1429794456135
 21
13.76269809058712
 31
0.0
 11
185.1162262127891
 21
13.76269809058712
 31
0.0
 11
185.1162262127891
 21
13.7886480503125
 31
0.0
 11
185.1162262127891
 21
13.86039205661208
 31
0.0
 11
185.1162262127891
 21
13.96877130017102
 31
0.0
 11
185.1162262127891
 21
14.10462697167448
 31
0.0
 11
185.1162262127891
 21
14.25880026180761
 31
0.0
 11
185.1162262127891
 21
14.42213236125559
 31
0.0
 11
185.1162262127891
 21
14.58546446070357
 31
0.0
 11
185.1162262127891
 21
14.7396377508367
 31
0.0
 11
185.1162262127891
 21
14.87549342234016
 31
0.0
 11
185.1162262127891
 21
14.9838726658991
 31
0.0
 11
185.1162262127891
 21
15.05561667219868
 31
0.0
 11
185.1162262127891
 21
15.08156663192406
 31
0.0
 11
185.0379865861721
 21
14.84965603302372
 31
0.0
 11
184.9497110789303
 21
14.63077616328678
 31
0.0
 11
184.8544106930045
 21
14.43598991333547
 31
0.0
 11
184.7550964303356
 21
14.27636017379202
 31
0.0
 11
184.7109198342406
 21
14.35822446196599
 31
0.0
 11
184.6588057383481
 21
14.43414885430811
 31
0.0
 11
184.76273025903
 21
14.59640087926757
 31
0.0
 11
184.8629319864735
 21
14.79551465421781
 31
0.0
 11
184.9550446607902
 21
15.01890447916196
 31
0.0
 11
185.0347020220912
 21
15.2539846541032
 31
0.0
 11
185.0975378104881
 21
15.48816947904466
 31
0.0
 11
185.0693965972143
 21
15.48816947904466
 31
0.0
 11
184.9990435640298
 21
15.48816947904466
 31
0.0
 11
184.9075846208899
 21
15.48816947904466
 31
0.0
 11
184.81612567775
 21
15.48816947904466
 31
0.0
 11
184.7457726445654
 21
15.48816947904466
 31
0.0
 11
184.7176314312916
 21
15.48816947904466
 31
0.0
 11
184.7176314312916
 21
15.51452032539223
 31
0.0
 11
184.7176314312916
 21
15.57249218735689
 31
0.0
 11
184.7176314312916
 21
15.63046404932155
 31
0.0
 11
184.7176314312916
 21
15.65681489566912
 31
0.0
 11
184.739711025602
 21
15.65681489566912
 31
0.0
 11
184.7966531372444
 21
15.65681489566912
 31
0.0
 11
184.8745127592862
 21
15.65681489566912
 31
0.0
 11
184.9593448847945
 21
15.65681489566912
 31
0.0
 11
185.0372045068362
 21
15.65681489566912
 31
0.0
 11
185.0941466184787
 21
15.65681489566912
 31
0.0
 11
185.1162262127891
 21
15.65681489566912
 31
0.0
 11
185.1162262127891
 21
15.68210596174353
 31
0.0
 11
185.1162262127891
 21
15.74878240866697
 31
0.0
 11
185.1162262127891
 21
15.84304910948977
 31
0.0
 11
185.1162262127891
 21
15.95111093726224
 31
0.0
 11
185.1162262127891
 21
16.05917276503471
 31
0.0
 11
185.1162262127891
 21
16.15343946585751
 31
0.0
 11
185.1162262127891
 21
16.22011591278095
 31
0.0
 11
185.1162262127891
 21
16.24540697885536
 31
0.0
 11
185.1393181988666
 21
16.243732131078
 31
0.0
 11
185.1943837041285
 21
16.23973826330122
 31
0.0
 11
185.2601070491183
 21
16.23497138885796
 31
0.0
 11
185.3151725543802
 21
16.23097752108117
 31
0.0
 11
185.3382645404577
 21
16.22930267330381
 31
0.0
 11
185.3249012644362
 21
16.20789677921191
 31
0.0
 11
185.2874469028654
 21
16.19450114553469
 31
0.0
 11
185.2874469028654
 21
16.17139743948578
 31
0.0
 11
185.2874469028654
 21
16.11048766899319
 31
0.0
 11
185.2874469028654
 21
16.02437385553816
 31
0.0
 11
185.2874469028654
 21
15.9256580206019
 31
0.0
 11
185.2874469028654
 21
15.82694218566565
 31
0.0
 11
185.2874469028654
 21
15.74082837221061
 31
0.0
 11
185.2874469028654
 21
15.67991860171803
 31
0.0
 11
185.2874469028654
 21
15.65681489566912
 31
0.0
 11
185.312615060481
 21
15.65681489566912
 31
0.0
 11
185.37553545452
 21
15.65681489566912
 31
0.0
 11
185.4573319667707
 21
15.65681489566912
 31
0.0
 11
185.5391284790213
 21
15.65681489566912
 31
0.0
 11
185.6020488730603
 21
15.65681489566912
 31
0.0
 11
185.6272170306759
 21
15.65681489566912
 31
0.0
 11
185.6272170306759
 21
15.63046404932155
 31
0.0
 11
185.6272170306759
 21
15.57249218735689
 31
0.0
 11
185.6272170306759
 21
15.51452032539223
 31
0.0
 11
185.6272170306759
 21
15.48816947904466
 31
0.0
 11
185.6020488730603
 21
15.48816947904466
 31
0.0
 11
185.5391284790213
 21
15.48816947904466
 31
0.0
 11
185.4573319667707
 21
15.48816947904466
 31
0.0
 11
185.37553545452
 21
15.48816947904466
 31
0.0
 11
185.312615060481
 21
15.48816947904466
 31
0.0
 11
185.2874469028654
 21
15.48816947904466
 31
0.0
 11
185.2874469028654
 21
15.46536458293924
 31
0.0
 11
185.2874469028654
 21
15.41098367684171
 31
0.0
 11
185.2874469028654
 21
15.34607743408014
 31
0.0
 11
185.2874469028654
 21
15.29169652798262
 31
0.0
 11
185.2874469028654
 21
15.2688916318772
 31
0.0
  0
SPLINE
  5
AF
102
{ACAD_REACTORS
330
CC
102
}
330
48
100
AcDbEntity
  8
_U_30EC_U_30A4_U_30E4_U_30FC_1
  6
Continuous
 62
     2
100
AcDbSpline
210
0.0
220
0.0
230
1.0
 70
    11
 71
     3
 72
    47
 73
    43
 74
    41
 42
0.000000001
 43
0.0000000001
 44
0.00000001
 40
0.0
 40
0.0
 40
0.0
 40
0.0
 40
0.2207912809957112
 40
0.4459404186302887
 40
0.4902387190458539
 40
0.5327473892721769
 40
0.5742260451224248
 40
0.6155432630559541
 40
0.6568164066315028
 40
0.6982511618779389
 40
0.7407663929315611
 40
0.7851366743173109
 40
1.010288833836104
 40
1.231080507001946
 40
1.451765243652178
 40
1.67663820589147
 40
1.72046104535944
 40
1.830018144043305
 40
1.972442372352936
 40
2.114866600677305
 40
2.22442369939493
 40
2.268246538883171
 40
2.493628801206999
 40
2.715602830286402
 40
2.93421133070615
 40
3.149502369855135
 40
3.231387784850695
 40
3.318231873853731
 40
3.405143198197633
 40
3.486970301720041
 40
3.702258172493474
 40
3.920866283533698
 40
4.142839325931493
 40
4.368221903864953
 40
4.412044743359433
 40
4.521601842095448
 40
4.664026070451929
 40
4.806450298808636
 40
4.916007397546329
 40
4.959830237042652
 40
5.184703515846692
 40
5.405387250767072
 40
5.405387250767072
 40
5.405387250767072
 40
5.405387250767072
 10
182.6507427258645
 20
15.73406440953873
 30
0.0
 10
182.6568139420003
 20
15.79758482501211
 30
0.0
 10
182.6690762107243
 20
15.92587938689626
 30
0.0
 10
182.5604706879412
 20
16.20166220174076
 30
0.0
 10
182.6761985896605
 20
16.17188133432052
 30
0.0
 10
182.7171842509016
 20
16.16765556262822
 30
0.0
 10
182.7591205797518
 20
16.16310446389606
 30
0.0
 10
182.8004196625711
 20
16.16201982929485
 30
0.0
 10
182.8417032115555
 20
16.16310338195226
 30
0.0
 10
182.8836148270648
 20
16.16766112711345
 30
0.0
 10
182.9245983549019
 20
16.17187430209727
 30
0.0
 10
183.0404922843488
 20
16.20177611317535
 30
0.0
 10
182.9295652727457
 20
15.92339806609888
 30
0.0
 10
182.9574856365267
 20
15.74283140824954
 30
0.0
 10
182.9404267346969
 20
15.50961042346472
 30
0.0
 10
182.9414637282102
 20
15.34906622543145
 30
0.0
 10
182.9414099399405
 20
15.22284817558722
 30
0.0
 10
182.9414277372481
 20
15.12428963336242
 30
0.0
 10
182.941418858108
 20
14.99280702442962
 30
0.0
 10
182.9414263928033
 20
14.86132844968649
 30
0.0
 10
182.9414129405129
 20
14.76276222694091
 30
0.0
 10
182.9414531717491
 20
14.63639735624152
 30
0.0
 10
182.9406746403818
 20
14.4748206882287
 30
0.0
 10
182.9565958319266
 20
14.24361821892914
 30
0.0
 10
182.9333468885408
 20
14.05874351972003
 30
0.0
 10
183.0360183444365
 20
13.78935602770058
 30
0.0
 10
182.8820238362836
 20
13.82660112685818
 30
0.0
 10
182.8004129802832
 20
13.82137994680535
 30
0.0
 10
182.7188192292583
 20
13.82660620378351
 30
0.0
 10
182.5648513666843
 20
13.78937069885388
 30
0.0
 10
182.6674183421916
 20
14.05875129862881
 30
0.0
 10
182.6442045316088
 20
14.24361585325415
 30
0.0
 10
182.6600444655139
 20
14.47482218565639
 30
0.0
 10
182.6593296313428
 20
14.63639712308503
 30
0.0
 10
182.6593664569907
 20
14.76276231210521
 30
0.0
 10
182.6593549000271
 20
14.86132756635981
 30
0.0
 10
182.6593575019214
 20
14.9928112741722
 30
0.0
 10
182.659364853178
 20
15.124275480312
 30
0.0
 10
182.6593442541352
 20
15.22287786275325
 30
0.0
 10
182.6594082192029
 20
15.34896149354428
 30
0.0
 10
182.6581733947591
 20
15.51210091383771
 30
0.0
 10
182.6532040396744
 20
15.6605418377755
 30
0.0
 10
182.6507427258645
 20
15.73406440953873
 30
0.0
 11
182.6507427258645
 21
15.73406440953873
 31
0.0
 11
182.6417328200379
 21
15.95467178795577
 31
0.0
 11
182.6318769706147
 21
16.17960510387179
 31
0.0
 11
182.6756985840802
 21
16.17312391463728
 31
0.0
 11
182.7178400934216
 21
16.16754892331925
 31
0.0
 11
182.759137140979
 21
16.16367167505631
 31
0.0
 11
182.8004341885365
 21
16.16238072887607
 31
0.0
 11
182.8416871388731
 21
16.16367167505631
 31
0.0
 11
182.8829400892097
 21
16.16754892331925
 31
0.0
 11
182.9250882131343
 21
16.17312391463728
 31
0.0
 11
182.9689825870144
 21
16.17960510387179
 31
0.0
 11
182.9590577693891
 21
15.95467178795577
 31
0.0
 11
182.950038420831
 21
15.73406440953873
 31
0.0
 11
182.9435638463435
 21
15.51347467001055
 31
0.0
 11
182.9414218238286
 21
15.28861190965007
 31
0.0
 11
182.9414218238286
 21
15.24478907015486
 31
0.0
 11
182.9414218238286
 21
15.13523197141682
 31
0.0
 11
182.9414218238286
 21
14.99280774305737
 31
0.0
 11
182.9414218238286
 21
14.85038351469792
 31
0.0
 11
182.9414218238286
 21
14.74082641595989
 31
0.0
 11
182.9414218238286
 21
14.69700357646467
 31
0.0
 11
182.9435638463435
 21
14.47163149318767
 31
0.0
 11
182.950038420831
 21
14.2497519099098
 31
0.0
 11
182.9590577693891
 21
14.0313295488533
 31
0.0
 11
182.9689825870144
 21
13.81626739612928
 31
0.0
 11
182.887261616877
 21
13.82145433189186
 31
0.0
 11
182.8004341885365
 21
13.82315538223863
 31
0.0
 11
182.713539511934
 21
13.82145433189186
 31
0.0
 11
182.6318769706147
 21
13.81626739612928
 31
0.0
 11
182.6417328200379
 21
14.0313295488533
 31
0.0
 11
182.6507427258645
 21
14.2497519099098
 31
0.0
 11
182.6571833838798
 21
14.47163149318766
 31
0.0
 11
182.6593583588024
 21
14.69700357646467
 31
0.0
 11
182.6593583588024
 21
14.74082641595988
 31
0.0
 11
182.6593583588024
 21
14.85038351469792
 31
0.0
 11
182.6593583588024
 21
14.99280774305737
 31
0.0
 11
182.6593583588024
 21
15.13523197141682
 31
0.0
 11
182.6593583588024
 21
15.24478907015486
 31
0.0
 11
182.6593583588024
 21
15.28861190965007
 31
0.0
 11
182.6571833838798
 21
15.51347467001055
 31
0.0
 11
182.6507427258645
 21
15.73406440953873
 31
0.0
  0
SPLINE
  5
B0
102
{ACAD_REACTORS
330
CD
102
}
330
48
100
AcDbEntity
  8
_U_30EC_U_30A4_U_30E4_U_30FC_1
  6
Continuous
 62
     2
100
AcDbSpline
210
0.0
220
0.0
230
1.0
 70
    11
 71
     3
 72
   110
 73
   106
 74
   104
 42
0.000000001
 43
0.0000000001
 44
0.00000001
 40
0.0
 40
0.0
 40
0.0
 40
0.0
 40
0.2203406257277755
 40
0.4407808782838053
 40
0.5952494494614463
 40
0.7488431659392182
 40
0.9023581831308451
 40
1.056801968670401
 40
1.210736449099873
 40
1.363041386539779
 40
1.515315729683065
 40
1.669377239147988
 40
1.721611652756467
 40
1.773199502942849
 40
1.824933793209893
 40
1.87711042648786
 40
1.982682281206538
 40
2.078781667087319
 40
2.172809640822154
 40
2.271937807378807
 40
2.378349933379172
 40
2.494131557736474
 40
2.626681683943494
 40
2.783145050795865
 40
2.890701232940719
 40
2.99313031245461
 40
3.0998697306916
 40
3.220237816691096
 40
3.352695482737382
 40
3.481732806389636
 40
3.593499473690165
 40
3.674323013331672
 40
3.817951711952622
 40
3.946167120793619
 40
4.061405053453333
 40
4.166480796002945
 40
4.262478775059097
 40
4.350736673551053
 40
4.433071991253882
 40
4.511216293814427
 40
4.564262454117746
 40
4.618474415571366
 40
4.670128488753972
 40
4.722296879126161
 40
4.819540945314031
 40
4.931194984127887
 40
5.049996040257501
 40
5.16864375541496
 40
5.283970811762257
 40
5.392260784910111
 40
5.486512254876158
 40
5.559178233949585
 40
5.591425852853251
 40
5.626215969637638
 40
5.667155838674174
 40
5.717449290213982
 40
5.738402360944597
 40
5.784499116553566
 40
5.830595872164539
 40
5.851548942897398
 40
5.873019280661512
 40
5.924217778408054
 40
5.985325662817428
 40
6.036524160567441
 40
6.05799449833397
 40
6.236847789607222
 40
6.381409928945392
 40
6.493190424178436
 40
6.574067534230245
 40
6.691018086205311
 40
6.814881554220257
 40
6.944307823240181
 40
7.071266716065749
 40
7.193488604461593
 40
7.30904277312782
 40
7.414007203170418
 40
7.505140441886201
 40
7.531150360599355
 40
7.559221645321946
 40
7.587202218920599
 40
7.612569159498806
 40
7.662550809480686
 40
7.702878875763814
 40
7.857328205230571
 40
8.010799568088359
 40
8.165256399657196
 40
8.322232698713563
 40
8.47956485501625
 40
8.635216230290453
 40
8.790882550925371
 40
8.948305154946851
 40
9.168271839032528
 40
9.387358980986809
 40
9.608047961033051
 40
9.832914234792254
 40
9.858338694962589
 40
9.925366817229595
 40
10.02013071422718
 40
10.12876249858956
 40
10.23739428295206
 40
10.33215817995148
 40
10.39918630222351
 40
10.4246107623974
 40
10.649920193369
 40
10.87188524531145
 40
10.87188524531145
 40
10.87188524531145
 40
10.87188524531145
 10
179.9057788376618
 20
15.7392326039819
 30
0.0
 10
179.9092864933541
 20
15.80616462073804
 30
0.0
 10
179.9163033987662
 20
15.94005891915858
 30
0.0
 10
179.8198027599074
 20
16.22548554971468
 30
0.0
 10
180.0510134726109
 20
16.16284386190284
 30
0.0
 10
180.1919290057156
 20
16.17001554055992
 30
0.0
 10
180.3490417757588
 20
16.16235883078244
 30
0.0
 10
180.5025913427288
 20
16.1625275228304
 30
0.0
 10
180.6545104935081
 20
16.16182040535432
 30
0.0
 10
180.8142214813232
 20
16.1721015835164
 30
0.0
 10
180.9408972601118
 20
16.15496511080751
 30
0.0
 10
181.137082112208
 20
16.22727260107146
 30
0.0
 10
181.1034395279079
 20
16.12640699080116
 30
0.0
 10
181.1052011317184
 20
16.0761925394767
 30
0.0
 10
181.1027342073459
 20
16.02712335586466
 30
0.0
 10
181.134707696601
 20
15.94063490847002
 30
0.0
 10
181.0010399903257
 20
15.98997438608336
 30
0.0
 10
180.9172208688057
 20
15.98430634314169
 30
0.0
 10
180.8173861139324
 20
15.99465516706298
 30
0.0
 10
180.7186576720145
 20
16.00086450411087
 30
0.0
 10
180.612153277111
 20
16.00697763816778
 30
0.0
 10
180.491051169806
 20
16.01588883484585
 30
0.0
 10
180.3703381502453
 20
16.00521605912384
 30
0.0
 10
180.181255384344
 20
16.06468503080366
 30
0.0
 10
180.2129028505309
 20
15.9055832007754
 30
0.0
 10
180.1995563316836
 20
15.80839128339904
 30
0.0
 10
180.1974958426449
 20
15.69634065110103
 30
0.0
 10
180.1958188044671
 20
15.57699685629351
 30
0.0
 10
180.1973336794233
 20
15.4503259215511
 30
0.0
 10
180.1956582478669
 20
15.32301588016117
 30
0.0
 10
180.2058844271659
 20
15.22451566404465
 30
0.0
 10
180.1779006596582
 20
15.08388702625631
 30
0.0
 10
180.3508029999306
 20
15.13989551134095
 30
0.0
 10
180.4645020202771
 20
15.12719951478497
 30
0.0
 10
180.584015167224
 20
15.13448377051255
 30
0.0
 10
180.6888491425072
 20
15.13878017056755
 30
0.0
 10
180.7843084898612
 20
15.14330568258977
 30
0.0
 10
180.8763823507033
 20
15.151492011462
 30
0.0
 10
180.947655178244
 20
15.14643850638112
 30
0.0
 10
181.0544931705684
 20
15.18536425031673
 30
0.0
 10
181.0226603598037
 20
15.10517122005879
 30
0.0
 10
181.0266164503929
 20
15.05562936846034
 30
0.0
 10
181.0234502392014
 20
15.0055747803982
 30
0.0
 10
181.0550791490584
 20
14.92128847612022
 30
0.0
 10
180.9210133677691
 20
14.97425365495158
 30
0.0
 10
180.82923227932
 20
14.96540080890441
 30
0.0
 10
180.7079729189603
 20
14.97570049965155
 30
0.0
 10
180.5914113119772
 20
14.97748911767502
 30
0.0
 10
180.4783375745879
 20
14.97787017109694
 30
0.0
 10
180.3679246308471
 20
14.98415449472181
 30
0.0
 10
180.289812406784
 20
14.97189133255364
 30
0.0
 10
180.1913625833644
 20
15.00453887616127
 30
0.0
 10
180.2012355173561
 20
14.94769748054206
 30
0.0
 10
180.1973923244403
 20
14.91392130557985
 30
0.0
 10
180.1966789884268
 20
14.87119604709411
 30
0.0
 10
180.1963369642975
 20
14.83401607262153
 30
0.0
 10
180.1963834255345
 20
14.79487237370771
 30
0.0
 10
180.1963649429927
 20
14.75716849497686
 30
0.0
 10
180.1963703431806
 20
14.71944955232402
 30
0.0
 10
180.1963697214201
 20
14.6899432474515
 30
0.0
 10
180.1963698151545
 20
14.65873577699301
 30
0.0
 10
180.196370428792
 20
14.61414424908085
 30
0.0
 10
180.1963671499337
 20
14.55963956508851
 30
0.0
 10
180.1963759623481
 20
14.51505540201448
 30
0.0
 10
180.1963359653417
 20
14.43117808585741
 30
0.0
 10
180.1976024270256
 20
14.31737520677679
 30
0.0
 10
180.1950274117842
 20
14.1683039593371
 30
0.0
 10
180.2065009381719
 20
14.06597203813905
 30
0.0
 10
180.1823506222264
 20
13.93338903885835
 30
0.0
 10
180.3332993946477
 20
13.97895732272021
 30
0.0
 10
180.4428436671556
 20
13.96427012162349
 30
0.0
 10
180.5733970473921
 20
13.96920435125063
 30
0.0
 10
180.6990312209513
 20
13.97257705323362
 30
0.0
 10
180.81887306256
 20
13.97711497498774
 30
0.0
 10
180.9391362611427
 20
13.99048536182004
 30
0.0
 10
181.0222761663515
 20
13.98068712782597
 30
0.0
 10
181.1456080421074
 20
14.0412621462332
 30
0.0
 10
181.1244269203956
 20
13.98532460134021
 30
0.0
 10
181.1235950270116
 20
13.95939249372346
 30
0.0
 10
181.1218963707558
 20
13.93197256190939
 30
0.0
 10
181.1217974888829
 20
13.89738195206386
 30
0.0
 10
181.1203659301329
 20
13.86050408220768
 30
0.0
 10
181.153280419219
 20
13.7684684102181
 30
0.0
 10
180.9551306988107
 20
13.84132015974834
 30
0.0
 10
180.830054829489
 20
13.81825726508607
 30
0.0
 10
180.6673071295156
 20
13.82454021985787
 30
0.0
 10
180.5129366450001
 20
13.82260943909926
 30
0.0
 10
180.3566670436944
 20
13.82393762599269
 30
0.0
 10
180.1970544465282
 20
13.82059872487863
 30
0.0
 10
180.0540326342237
 20
13.83265795728241
 30
0.0
 10
179.8197144881629
 20
13.76952001976921
 30
0.0
 10
179.9173810751197
 20
14.05620527466319
 30
0.0
 10
179.9006868780058
 20
14.2498830814266
 30
0.0
 10
179.9146296709686
 20
14.47848242880296
 30
0.0
 10
179.9142987846633
 20
14.63384593955049
 30
0.0
 10
179.9143078119264
 20
14.73966336444127
 30
0.0
 10
179.9143055876316
 20
14.80205784124215
 30
0.0
 10
179.914306555189
 20
14.89220425248327
 30
0.0
 10
179.9143065473262
 20
14.99621167157438
 30
0.0
 10
179.9143053861104
 20
15.10022131375296
 30
0.0
 10
179.9143090971502
 20
15.19036243688768
 30
0.0
 10
179.9143011051053
 20
15.25276803097215
 30
0.0
 10
179.9143334275018
 20
15.35868835961119
 30
0.0
 10
179.9131440788321
 20
15.51626716544741
 30
0.0
 10
179.9082216489256
 20
15.66528219822065
 30
0.0
 10
179.9057788376618
 20
15.7392326039819
 30
0.0
 11
179.9057788376618
 21
15.7392326039819
 31
0.0
 11
179.896691822374
 21
15.95938578101018
 31
0.0
 11
179.8868249573134
 21
16.17960510387179
 31
0.0
 11
180.04115751414
 21
16.17312391463728
 31
0.0
 11
180.1946500189046
 21
16.16754892331925
 31
0.0
 11
180.3481160653367
 21
16.16367167505631
 31
0.0
 11
180.502554455494
 21
16.16238072887607
 31
0.0
 11
180.6564835227474
 21
16.16367167505631
 31
0.0
 11
180.8087391004601
 21
16.16754892331925
 31
0.0
 11
180.9609113551074
 21
16.17312391463728
 31
0.0
 11
181.1148364762483
 21
16.17960510387179
 31
0.0
 11
181.1070811703124
 21
16.12794961777358
 31
0.0
 11
181.1044991623592
 21
16.07642642334204
 31
0.0
 11
181.1070811703124
 21
16.0247566056466
 31
0.0
 11
181.1148364762483
 21
15.97315954836785
 31
0.0
 11
181.0094874054411
 21
15.98001446156058
 31
0.0
 11
180.9136375700061
 21
15.98693552058658
 31
0.0
 11
180.8198593171903
 21
15.99378381919599
 31
0.0
 11
180.7209679915881
 21
16.0006321178054
 31
0.0
 11
180.6147532199924
 21
16.00710999974824
 31
0.0
 11
180.4991060528037
 21
16.01268829835794
 31
0.0
 11
180.3666126447258
 21
16.01656554662087
 31
0.0
 11
180.2101546018424
 21
16.01785649280112
 31
0.0
 11
180.2062663293721
 21
15.91037061609187
 31
0.0
 11
180.2015380048401
 21
15.80805072896465
 31
0.0
 11
180.1976607566749
 21
15.70138175329687
 31
0.0
 11
180.1963698105272
 21
15.5810205901325
 31
0.0
 11
180.1967799146836
 21
15.44856355891565
 31
0.0
 11
180.1980896021502
 21
15.31953288186455
 31
0.0
 11
180.199407457705
 21
15.20777398432309
 31
0.0
 11
180.199819115366
 21
15.12695149302385
 31
0.0
 11
180.3434452935874
 21
15.1278025694125
 31
0.0
 11
180.4716343930758
 21
15.13039989580077
 31
0.0
 11
180.5868078221796
 21
15.13425509545254
 31
0.0
 11
180.691775631222
 21
15.13901649302076
 31
0.0
 11
180.7876346289422
 21
15.14418027774175
 31
0.0
 11
180.8757413374194
 21
15.14934406246267
 31
0.0
 11
180.9578881438497
 21
15.1549124391974
 31
0.0
 11
181.0357692335571
 21
15.16132086801525
 31
0.0
 11
181.0280180445186
 21
15.10884407115337
 31
0.0
 11
181.0254328449317
 21
15.05469378470858
 31
0.0
 11
181.0280180445186
 21
15.00310444444367
 31
0.0
 11
181.0357692335571
 21
14.95151510417882
 31
0.0
 11
180.9389813454014
 21
14.96092324653757
 31
0.0
 11
180.8275950722015
 21
14.96865128473012
 31
0.0
 11
180.7089261429373
 21
14.97425273438146
 31
0.0
 11
180.5903167449214
 21
14.97726788195011
 31
0.0
 11
180.4750025117521
 21
14.97898767361639
 31
0.0
 11
180.36672619507
 21
14.98070746528258
 31
0.0
 11
180.2724839317708
 21
14.98202486979617
 31
0.0
 11
180.199819115366
 21
14.98243607639329
 31
0.0
 11
180.199407457705
 21
14.95019108508191
 31
0.0
 11
180.1980896021502
 21
14.91542593752117
 31
0.0
 11
180.1967799146836
 21
14.87450702260085
 31
0.0
 11
180.1963698105272
 21
14.82421524309952
 31
0.0
 11
180.1963698105272
 21
14.80326217235822
 31
0.0
 11
180.1963698105272
 21
14.75716541672736
 31
0.0
 11
180.1963698105272
 21
14.71106866109651
 31
0.0
 11
180.1963698105272
 21
14.69011559035521
 31
0.0
 11
180.1963698105272
 21
14.6686452525828
 31
0.0
 11
180.1963698105272
 21
14.61744675481784
 31
0.0
 11
180.1963698105272
 21
14.55633887038868
 31
0.0
 11
180.1963698105272
 21
14.50514037262372
 31
0.0
 11
180.1963698105272
 21
14.48367003485131
 31
0.0
 11
180.1967799146836
 21
14.30481721371548
 31
0.0
 11
180.1980896021502
 21
14.16026100715443
 31
0.0
 11
180.2002868589709
 21
14.04850210961289
 31
0.0
 11
180.2032586986986
 21
13.96767961831365
 31
0.0
 11
180.3202092517448
 21
13.96767961831365
 31
0.0
 11
180.4440727208747
 21
13.96767961831365
 31
0.0
 11
180.5734925526423
 21
13.9689705644939
 31
0.0
 11
180.7003922282244
 21
13.97284781275683
 31
0.0
 11
180.8224658067973
 21
13.97886708358866
 31
0.0
 11
180.9377587499463
 21
13.98663260442002
 31
0.0
 11
181.0421754573518
 21
13.99734161483402
 31
0.0
 11
181.1320599255448
 21
14.01237656274692
 31
0.0
 11
181.1264254031191
 21
13.98698427976716
 31
0.0
 11
181.1234433285423
 21
13.95907184053802
 31
0.0
 11
181.12213398812
 21
13.93112191867003
 31
0.0
 11
181.1217235369195
 21
13.90575829888473
 31
0.0
 11
181.1243087365064
 21
13.85584355063326
 31
0.0
 11
181.1320599255448
 21
13.81626739612928
 31
0.0
 11
180.9776977178344
 21
13.82145433189186
 31
0.0
 11
180.8242357818764
 21
13.82315538223863
 31
0.0
 11
180.6697789496483
 21
13.82315538223863
 31
0.0
 11
180.5128026496768
 21
13.82315538223863
 31
0.0
 11
180.3554704921536
 21
13.82315538223863
 31
0.0
 11
180.199819115366
 21
13.82315538223863
 31
0.0
 11
180.0441620874241
 21
13.82145433189186
 31
0.0
 11
179.8868249573134
 21
13.81626739612928
 31
0.0
 11
179.896691822374
 21
14.0360126738521
 31
0.0
 11
179.9057788376618
 21
14.25491128490852
 31
0.0
 11
179.9121721518401
 21
14.47550763902003
 31
0.0
 11
179.914306345501
 21
14.70036378479716
 31
0.0
 11
179.914306345501
 21
14.72578824496875
 31
0.0
 11
179.914306345501
 21
14.79281636723932
 31
0.0
 11
179.914306345501
 21
14.88758026424254
 31
0.0
 11
179.914306345501
 21
14.99621204861208
 31
0.0
 11
179.914306345501
 21
15.10484383298162
 31
0.0
 11
179.914306345501
 21
15.19960772998484
 31
0.0
 11
179.914306345501
 21
15.2666358522554
 31
0.0
 11
179.914306345501
 21
15.292060312427
 31
0.0
 11
179.9121721518401
 21
15.51735963528735
 31
0.0
 11
179.9057788376618
 21
15.7392326039819
 31
0.0
  0
SPLINE
  5
B1
102
{ACAD_REACTORS
330
CE
102
}
330
48
100
AcDbEntity
  8
_U_30EC_U_30A4_U_30E4_U_30FC_1
  6
Continuous
 62
     2
100
AcDbSpline
210
0.0
220
0.0
230
1.0
 70
    11
 71
     3
 72
    95
 73
    91
 74
    89
 42
0.000000001
 43
0.0000000001
 44
0.00000001
 40
0.0
 40
0.0
 40
0.0
 40
0.0
 40
0.6550406656911508
 40
1.308087289031932
 40
1.420803739835801
 40
1.56613075977079
 40
1.757067341888465
 40
2.006513545026463
 40
2.087328263121549
 40
2.185328872295623
 40
2.294612454748366
 40
2.408936380534819
 40
2.526802767798561
 40
2.646360524615611
 40
2.762535723971584
 40
2.870057342870154
 40
2.966883448431651
 40
3.050803243518309
 40
3.115818222436607
 40
3.156030057150237
 40
3.213914225080223
 40
3.276689026450653
 40
3.342960320981259
 40
3.404230667150565
 40
3.453822809493372
 40
3.532499827188429
 40
3.634775188507164
 40
3.754909333008165
 40
3.889736761660661
 40
4.035769602175231
 40
4.187256681197609
 40
4.338733685675956
 40
4.488478734676123
 40
4.634708317831594
 40
4.771493189921268
 40
4.89268657156121
 40
5.199775528944452
 40
5.460353566929645
 40
5.66760314234551
 40
5.814722905404484
 40
5.828990806219783
 40
5.85548833630448
 40
5.869756237118811
 40
6.189796507762792
 40
6.531890469873056
 40
6.883053637016987
 40
7.23051202491154
 40
7.566966656764567
 40
7.885203559707475
 40
8.172887439719236
 40
8.418011594062751
 40
8.443926721190673
 40
8.51076047061316
 40
8.60214539379567
 40
8.701714041647111
 40
8.793098965075341
 40
8.859932715057914
 40
8.885847842603564
 40
9.242301256612782
 40
9.589275455016733
 40
9.92180854316414
 40
10.23479624298464
 40
10.29968150889166
 40
10.35323493887743
 40
10.40154625355139
 40
10.46482922477812
 40
10.55973900668392
 40
10.69239545985604
 40
10.84920353475658
 40
11.01626328594766
 40
11.1867202436743
 40
11.35372582577198
 40
11.50257442292413
 40
11.61866495023278
 40
11.71329869152861
 40
11.82511050573894
 40
11.94464880845703
 40
12.06929242642493
 40
12.19707290435163
 40
12.32562632860516
 40
12.45034565331266
 40
12.56646595170314
 40
12.67099007414622
 40
12.76077625936769
 40
12.82703233506681
 40
12.87429132785981
 40
12.89831990323318
 40
12.9223484786
 40
13.5398476741031
 40
14.18294284359352
 40
14.18294284359352
 40
14.18294284359352
 40
14.18294284359352
 10
177.3067935648021
 20
14.70898038201725
 30
0.0
 10
177.1752019758551
 20
14.82265058603232
 30
0.0
 10
176.9124193802727
 20
15.04964496316158
 30
0.0
 10
176.3997393441022
 20
15.89214462956286
 30
0.0
 10
176.4106654595361
 20
15.53423377577021
 30
0.0
 10
176.4041226527993
 20
15.39267392272133
 30
0.0
 10
176.4028026631772
 20
15.19421305299281
 30
0.0
 10
176.4018117602537
 20
15.02150296045983
 30
0.0
 10
176.4024101751975
 20
14.8786537325758
 30
0.0
 10
176.4038994301882
 20
14.78265005413358
 30
0.0
 10
176.4055683588472
 20
14.67545503263141
 30
0.0
 10
176.407193495462
 20
14.56164211517583
 30
0.0
 10
176.4092429501685
 20
14.44441572604589
 30
0.0
 10
176.4123165501926
 20
14.32656411232969
 30
0.0
 10
176.4156339697045
 20
14.21228087320621
 30
0.0
 10
176.419360534028
 20
14.10521401867277
 30
0.0
 10
176.4217338161424
 20
14.01007408766921
 30
0.0
 10
176.4278718888357
 20
13.92558557205695
 30
0.0
 10
176.4239784495946
 20
13.86923087298141
 30
0.0
 10
176.4455230443077
 20
13.79825022472354
 30
0.0
 10
176.3680940058617
 20
13.82902677604484
 30
0.0
 10
176.3116353240191
 20
13.82011242517616
 30
0.0
 10
176.2540495896807
 20
13.82896218398273
 30
0.0
 10
176.1690163478472
 20
13.79738225225944
 30
0.0
 10
176.2009714146382
 20
13.8809515599219
 30
0.0
 10
176.1990705282538
 20
13.9488260896831
 30
0.0
 10
176.2107960047301
 20
14.05233256764418
 30
0.0
 10
176.2164241053
 20
14.17002125616696
 30
0.0
 10
176.2237902178941
 20
14.30388609164424
 30
0.0
 10
176.232075970161
 20
14.44764152872633
 30
0.0
 10
176.2398851897427
 20
14.59714022843445
 30
0.0
 10
176.2457571222658
 20
14.74792549402078
 30
0.0
 10
176.2503667817969
 20
14.89699943878438
 30
0.0
 10
176.2542632117542
 20
15.04122913163023
 30
0.0
 10
176.2570715126564
 20
15.17583905213017
 30
0.0
 10
176.2576698755024
 20
15.36469614347354
 30
0.0
 10
176.2616023867151
 20
15.58975494313154
 30
0.0
 10
176.2442175378497
 20
15.86367091125707
 30
0.0
 10
176.2850417342584
 20
16.02787112098597
 30
0.0
 10
176.1995153256002
 20
16.22749661465094
 30
0.0
 10
176.2660558907688
 20
16.22385458403978
 30
0.0
 10
176.283872427323
 20
16.22413447160853
 30
0.0
 10
176.4056801797504
 20
16.22632927398613
 30
0.0
 10
176.5080770335461
 20
15.94675118721507
 30
0.0
 10
176.7580021509357
 20
15.7456300853601
 30
0.0
 10
176.987003533111
 20
15.47792614987909
 30
0.0
 10
177.224515121311
 20
15.22646413862385
 30
0.0
 10
177.4486090740772
 20
14.9896997406135
 30
0.0
 10
177.675071628301
 20
14.73218692583084
 30
0.0
 10
177.8325687886515
 20
14.61649335056921
 30
0.0
 10
178.0472129612673
 20
14.27997152538793
 30
0.0
 10
178.0422645974619
 20
14.40464754091604
 30
0.0
 10
178.0433931602546
 20
14.46327691935736
 30
0.0
 10
178.0428877841516
 20
14.55043662371977
 30
0.0
 10
178.0430475158113
 20
14.64416143182872
 30
0.0
 10
178.0430054891318
 20
14.73018971297035
 30
0.0
 10
178.0430202040373
 20
14.79153891945496
 30
0.0
 10
178.0429706255983
 20
14.94135231520991
 30
0.0
 10
178.0458811522811
 20
15.17989612510105
 30
0.0
 10
178.0259521041161
 20
15.54486509868702
 30
0.0
 10
178.0750433936247
 20
15.80799631993409
 30
0.0
 10
177.9177951509182
 20
16.21928904947753
 30
0.0
 10
178.0762112872421
 20
16.16398282551748
 30
0.0
 10
178.1311680478628
 20
16.16199686500175
 30
0.0
 10
178.182788776674
 20
16.16264778248249
 30
0.0
 10
178.2713198965366
 20
16.20369527738245
 30
0.0
 10
178.2204898303168
 20
16.05696326622986
 30
0.0
 10
178.2313389930283
 20
15.95019971954434
 30
0.0
 10
178.2166036994847
 20
15.79085705414113
 30
0.0
 10
178.2099976446204
 20
15.62853061652874
 30
0.0
 10
178.2014961399915
 20
15.45992521892395
 30
0.0
 10
178.1943227202199
 20
15.29814814703541
 30
0.0
 10
178.1889063215389
 20
15.15422331457933
 30
0.0
 10
178.1871713967648
 20
15.03437493466925
 30
0.0
 10
178.1875440672318
 20
14.92686101590515
 30
0.0
 10
178.1873656126263
 20
14.81820024645586
 30
0.0
 10
178.1877010863139
 20
14.6995357016553
 30
0.0
 10
178.1890040622186
 20
14.57555163512742
 30
0.0
 10
178.1908887351573
 20
14.44858294171104
 30
0.0
 10
178.1925004454849
 20
14.32153861551032
 30
0.0
 10
178.1941403137429
 20
14.19854884492178
 30
0.0
 10
178.1962570745753
 20
14.0830093138376
 30
0.0
 10
178.1963848422363
 20
13.98090903955837
 30
0.0
 10
178.2006514396554
 20
13.89009848838157
 30
0.0
 10
178.1908440085289
 20
13.83213621208786
 30
0.0
 10
178.2118474771689
 20
13.76517130132029
 30
0.0
 10
178.1725639739897
 20
13.77291153966686
 30
0.0
 10
177.9595307117746
 20
13.75755254145197
 30
0.0
 10
177.7636297943186
 20
14.31403058094461
 30
0.0
 10
177.4611197631543
 20
14.57556035348508
 30
0.0
 10
177.3067935648021
 20
14.70898038201725
 30
0.0
 11
177.3067935648021
 21
14.70898038201725
 31
0.0
 11
176.8595529338511
 21
15.18757635411978
 31
0.0
 11
176.4124049070643
 21
15.6635264928897
 31
0.0
 11
176.4089664262493
 21
15.55086249986232
 31
0.0
 11
176.4055610183501
 21
15.40557538184311
 31
0.0
 11
176.4029636920275
 21
15.21465645827968
 31
0.0
 11
176.4021126156603
 21
14.96521170139757
 31
0.0
 11
176.4025239230289
 21
14.8843980295428
 31
0.0
 11
176.4038420329817
 21
14.78640628477562
 31
0.0
 11
176.4055192267718
 21
14.6771355729974
 31
0.0
 11
176.4072367127519
 21
14.56282454872039
 31
0.0
 11
176.4094007838772
 21
14.44497802965266
 31
0.0
 11
176.4124049070643
 21
14.32545802100199
 31
0.0
 11
176.4158359733139
 21
14.20933349846156
 31
0.0
 11
176.4192928929999
 21
14.1018674655023
 31
0.0
 11
176.4227085253088
 21
14.00510162351264
 31
0.0
 11
176.4261896983793
 21
13.92125406276971
 31
0.0
 11
176.4296006184313
 21
13.8563286200776
 31
0.0
 11
176.4330776843148
 21
13.81626739612928
 31
0.0
 11
176.3754263821571
 21
13.82145433189186
 31
0.0
 11
176.3126746318308
 21
13.82315538223863
 31
0.0
 11
176.2464251717157
 21
13.82145433189186
 31
0.0
 11
176.1853747739675
 21
13.81626739612928
 31
0.0
 11
176.1926772737812
 21
13.86531894125591
 31
0.0
 11
176.2008793569054
 21
13.94356725720856
 31
0.0
 11
176.2090098822349
 21
14.04551893253029
 31
0.0
 11
176.2163406441397
 21
14.16542920159753
 31
0.0
 11
176.2236358280421
 21
14.3000591234389
 31
0.0
 11
176.2318444255596
 21
14.44586107652746
 31
0.0
 11
176.2395504149466
 21
14.59715203135073
 31
0.0
 11
176.2455763002094
 21
14.74850913200734
 31
0.0
 11
176.2503046247417
 21
14.89817951391436
 31
0.0
 11
176.254192897212
 21
15.04435739582223
 31
0.0
 11
176.2567527408965
 21
15.18111831592696
 31
0.0
 11
176.2576324804575
 21
15.3023085068689
 31
0.0
 11
176.257192610677
 21
15.60939715262544
 31
0.0
 11
176.2559126888347
 21
15.86997204839366
 31
0.0
 11
176.2528658717893
 21
16.07719922716125
 31
0.0
 11
176.2473049112763
 21
16.22421385386061
 31
0.0
 11
176.2615728121469
 21
16.22421385386061
 31
0.0
 11
176.2880703423352
 21
16.22421385386061
 31
0.0
 11
176.3023382432058
 21
16.22421385386061
 31
0.0
 11
176.5194743650277
 21
15.98910179662773
 31
0.0
 11
176.751274412308
 21
15.73751281231562
 31
0.0
 11
176.9894816018839
 21
15.47949555543571
 31
0.0
 11
177.2260074557522
 21
15.22497079855489
 31
0.0
 11
177.4555698717705
 21
14.97899759549138
 31
0.0
 11
177.6731797360104
 21
14.74678934034107
 31
0.0
 11
177.8713724913707
 21
14.538266805671
 31
0.0
 11
178.0430143099086
 21
14.36326697932589
 31
0.0
 11
178.0430143099086
 21
14.38918210687043
 31
0.0
 11
178.0430143099086
 21
14.45601585685371
 31
0.0
 11
178.0430143099086
 21
14.54740078030025
 31
0.0
 11
178.0430143099086
 21
14.64696942823453
 31
0.0
 11
178.0430143099086
 21
14.73835435168106
 31
0.0
 11
178.0430143099086
 21
14.80518810166435
 31
0.0
 11
178.0430143099086
 21
14.83110322920889
 31
0.0
 11
178.0417233637609
 21
15.18755430550867
 31
0.0
 11
178.0378461155958
 21
15.53450684014415
 31
0.0
 11
178.0296197790002
 21
15.86693815950552
 31
0.0
 11
178.0154535467229
 21
16.17960510387179
 31
0.0
 11
178.0790351249618
 21
16.16666367158334
 31
0.0
 11
178.132417015961
 21
16.16238072887607
 31
0.0
 11
178.1805381084833
 21
16.16666367158334
 31
0.0
 11
178.2424836798197
 21
16.17960510387179
 31
0.0
 11
178.2351216487575
 21
16.084981284451
 31
0.0
 11
178.2269790968818
 21
15.95257496503965
 31
0.0
 11
178.2183705364004
 21
15.79600336785656
 31
0.0
 11
178.2097547223215
 21
15.62916593734271
 31
0.0
 11
178.2016187850289
 21
15.45890325509361
 31
0.0
 11
178.1942501393835
 21
15.292060312427
 31
0.0
 11
178.1891406931522
 21
15.1432994357281
 31
0.0
 11
178.1874503478904
 21
15.02722121527101
 31
0.0
 11
178.1874503478904
 21
14.93258747397519
 31
0.0
 11
178.1874503478904
 21
14.82077565976707
 31
0.0
 11
178.1878461204497
 21
14.70123801222748
 31
0.0
 11
178.1890819450709
 21
14.5766005209392
 31
0.0
 11
178.1908392193317
 21
14.44883212687391
 31
0.0
 11
178.1925303477607
 21
14.32028982655879
 31
0.0
 11
178.1942876220214
 21
14.19558288214555
 31
0.0
 11
178.1959787504506
 21
14.0794748960635
 31
0.0
 11
178.1972884379172
 21
13.97495896727017
 31
0.0
 11
178.1976985420735
 21
13.88517371555653
 31
0.0
 11
178.1976985420735
 21
13.81891763918416
 31
0.0
 11
178.1976985420735
 21
13.7716586461404
 31
0.0
 11
178.1736699662976
 21
13.7716586461404
 31
0.0
 11
178.1496413905218
 21
13.7716586461404
 31
0.0
 11
177.7410729200422
 21
14.2346673526219
 31
0.0
 11
177.3067935648021
 21
14.70898038201725
 31
0.0
  0
SPLINE
  5
B2
102
{ACAD_REACTORS
330
CF
102
}
330
48
100
AcDbEntity
  8
_U_30EC_U_30A4_U_30E4_U_30FC_1
  6
Continuous
 62
     2
100
AcDbSpline
210
0.0
220
0.0
230
1.0
 70
    11
 71
     3
 72
    25
 73
    21
 74
    19
 42
0.000000001
 43
0.0000000001
 44
0.00000001
 40
0.0
 40
0.0
 40
0.0
 40
0.0
 40
0.0911479969063684
 40
0.185811789620495
 40
0.2804128399734207
 40
0.3715889190713658
 40
0.467908049421814
 40
0.5642683809228379
 40
0.6605683222643854
 40
0.7569653015809403
 40
0.8561348172521887
 40
1.092615965104199
 40
1.374867658141788
 40
1.611348812011478
 40
1.710518328425139
 40
1.809403163726447
 40
2.045205463293973
 40
2.326646917622027
 40
2.562449217190503
 40
2.661334043833811
 40
2.661334043833811
 40
2.661334043833811
 40
2.661334043833811
 10
173.26837005672
 20
14.88614538197292
 30
0.0
 10
173.2987525917923
 20
14.88598079714554
 30
0.0
 10
173.3606895889113
 20
14.88564528689922
 30
0.0
 10
173.454135696033
 20
14.88269055452
 30
0.0
 10
173.5475095236358
 20
14.8797775287715
 30
0.0
 10
173.6417760753476
 20
14.87894201643417
 30
0.0
 10
173.7354964790967
 20
14.87996644658046
 30
0.0
 10
173.8352040303205
 20
14.87916977470973
 30
0.0
 10
173.9188949546312
 20
14.88921410235219
 30
0.0
 10
174.0637996315045
 20
14.86234617674165
 30
0.0
 10
173.9396132444801
 20
15.03665530280048
 30
0.0
 10
173.8965867286283
 20
15.19651711006093
 30
0.0
 10
173.7808922142209
 20
15.45518458550213
 30
0.0
 10
173.7017565431258
 20
15.59231052861861
 30
0.0
 10
173.6431576621817
 20
15.80937033134078
 30
0.0
 10
173.5864803939439
 20
15.59266134213427
 30
0.0
 10
173.5052809900477
 20
15.45327012438239
 30
0.0
 10
173.4063701281489
 20
15.20406969370193
 30
0.0
 10
173.325362509426
 20
15.01925830226075
 30
0.0
 10
173.2813683325839
 20
14.91650446856116
 30
0.0
 10
173.26837005672
 20
14.88614538197292
 30
0.0
 11
173.26837005672
 21
14.88614538197292
 31
0.0
 11
173.359513773782
 21
14.8852612326676
 31
0.0
 11
173.4541428297582
 21
14.88269697919599
 31
0.0
 11
173.5487082179706
 21
14.88009965280777
 31
0.0
 11
173.6398803250196
 21
14.8792485764191
 31
0.0
 11
173.7361985777706
 21
14.87965978301621
 31
0.0
 11
173.8325499034376
 21
14.88097718752972
 31
0.0
 11
173.9288262638286
 21
14.88310818579312
 31
0.0
 11
174.0251753846343
 21
14.88614538197292
 31
0.0
 11
173.9854633323141
 21
14.9770164219502
 31
0.0
 11
173.8907653613968
 21
15.19370890189602
 31
0.0
 11
173.7777387509471
 21
15.45234186183136
 31
0.0
 11
173.6830407800298
 21
15.66903434177718
 31
0.0
 11
173.6433287277096
 21
15.75990538175446
 31
0.0
 11
173.6043330259267
 21
15.66903434177718
 31
0.0
 11
173.5113432755213
 21
15.45234186183136
 31
0.0
 11
173.4003555089083
 21
15.19370890189602
 31
0.0
 11
173.3073657585029
 21
14.9770164219502
 31
0.0
 11
173.26837005672
 21
14.88614538197292
 31
0.0
  0
SPLINE
  5
B3
102
{ACAD_REACTORS
330
CF
102
}
330
48
100
AcDbEntity
  8
_U_30EC_U_30A4_U_30E4_U_30FC_1
  6
Continuous
 62
     2
100
AcDbSpline
210
0.0
220
0.0
230
1.0
 70
    11
 71
     3
 72
    57
 73
    53
 74
    51
 42
0.000000001
 43
0.0000000001
 44
0.00000001
 40
0.0
 40
0.0
 40
0.0
 40
0.0
 40
0.0471632082808948
 40
0.0914861054632152
 40
0.1357762519702387
 40
0.1826527001610682
 40
0.2295203288572307
 40
0.2737751972219624
 40
0.3181310461542786
 40
0.3652607198398507
 40
0.4571007286314428
 40
0.5671851029165189
 40
0.6894623283868007
 40
0.8181758272545876
 40
0.9510087229273807
 40
1.0858522296741
 40
1.218126164475321
 40
1.343545131142375
 40
1.454537202956791
 40
1.5671876075308
 40
1.680710966642334
 40
1.794226869736783
 40
1.900009184247498
 40
2.004085860447777
 40
2.108162674451722
 40
2.214000150155295
 40
2.496038577352131
 40
2.76235074547927
 40
2.997275353279392
 40
3.185110082137715
 40
3.246407890063885
 40
3.312607550212673
 40
3.378877742711547
 40
3.440140399651429
 40
4.100501696006457
 40
4.754913085563505
 40
5.4113316934239
 40
6.077890432568675
 40
6.110575292670954
 40
6.143260152775734
 40
6.367989363395128
 40
6.610525374951517
 40
6.863389136467286
 40
7.119380025547598
 40
7.376036605091056
 40
7.631164770966255
 40
7.87672242545638
 40
8.10495373585596
 40
8.312916685924277
 40
8.497730294941265
 40
8.651018984313838
 40
8.76473885362454
 40
8.76473885362454
 40
8.76473885362454
 40
8.76473885362454
 10
174.7922649500513
 20
13.81626739612928
 30
0.0
 10
174.7766616726931
 20
13.81826231079078
 30
0.0
 10
174.7463947960302
 20
13.822132013603
 30
0.0
 10
174.7010994202252
 20
13.82341984967269
 30
0.0
 10
174.6559553129349
 20
13.82308683554052
 30
0.0
 10
174.6099017123399
 20
13.82314658674225
 30
0.0
 10
174.5640496172097
 20
13.82325813650002
 30
0.0
 10
174.5183711648165
 20
13.82277833456591
 30
0.0
 10
174.4750811541609
 20
13.82461109618723
 30
0.0
 10
174.4039947951513
 20
13.80049556814657
 30
0.0
 10
174.4057477261442
 20
13.92184693977252
 30
0.0
 10
174.3586196370569
 20
14.00726239751231
 30
0.0
 10
174.3191478251763
 20
14.1248692934514
 30
0.0
 10
174.2706635532644
 20
14.24232752540435
 30
0.0
 10
174.2201017402523
 20
14.36405935761515
 30
0.0
 10
174.1718634610475
 20
14.49075967862461
 30
0.0
 10
174.1135232947594
 20
14.59933687784954
 30
0.0
 10
174.0980892667261
 20
14.7562065713441
 30
0.0
 10
173.9566586330635
 20
14.72373446548322
 30
0.0
 10
173.8508397414904
 20
14.73512888682179
 30
0.0
 10
173.7358569725222
 20
14.73392591514616
 30
0.0
 10
173.6253142252142
 20
14.73506945347409
 30
0.0
 10
173.5176583522783
 20
14.73418350037526
 30
0.0
 10
173.4121322529243
 20
14.73416602390518
 30
0.0
 10
173.3109192682013
 20
14.72714032472415
 30
0.0
 10
173.1266804827753
 20
14.75135859859867
 30
0.0
 10
173.1157393685411
 20
14.44741691121886
 30
0.0
 10
173.008769163475
 20
14.22353177253397
 30
0.0
 10
172.9098148604347
 20
14.03895314292498
 30
0.0
 10
172.9225090524007
 20
13.79530204804208
 30
0.0
 10
172.8050091716397
 20
13.82508046753198
 30
0.0
 10
172.742205586831
 20
13.82258089509604
 30
0.0
 10
172.67858720934
 20
13.82344075102805
 30
0.0
 10
172.3946014194074
 20
13.78098039941949
 30
0.0
 10
173.0251638499382
 20
14.50081952444784
 30
0.0
 10
173.1087645289071
 20
15.01276539435732
 30
0.0
 10
173.4929252789338
 20
15.53353743550041
 30
0.0
 10
173.4777208288567
 20
16.23519626253217
 30
0.0
 10
173.7239265722696
 20
16.22345633081255
 30
0.0
 10
173.8256346157562
 20
16.23225004452772
 30
0.0
 10
173.8249752035818
 20
15.98059650730348
 30
0.0
 10
173.9428317155829
 20
15.79818020733958
 30
0.0
 10
174.0315515260484
 20
15.55563740662864
 30
0.0
 10
174.1322292485261
 20
15.32340030530133
 30
0.0
 10
174.2311142712243
 20
15.0867464456691
 30
0.0
 10
174.3299676990669
 20
14.85461739170094
 30
0.0
 10
174.4256166390925
 20
14.63122222788785
 30
0.0
 10
174.5159904573273
 20
14.42272549049321
 30
0.0
 10
174.5989944568189
 20
14.2330844852932
 30
0.0
 10
174.6726088582799
 20
14.06663106068097
 30
0.0
 10
174.7342815895545
 20
13.929176996261
 30
0.0
 10
174.7749458885604
 20
13.84999239430035
 30
0.0
 10
174.7922649500513
 20
13.81626739612928
 30
0.0
 11
174.7922649500513
 21
13.81626739612928
 31
0.0
 11
174.7453878317448
 21
13.82145433189186
 31
0.0
 11
174.7010975896125
 21
13.82315538223863
 31
0.0
 11
174.6568074431729
 21
13.82315538223863
 31
0.0
 11
174.6099309947159
 21
13.82315538223863
 31
0.0
 11
174.5630633657034
 21
13.82315538223863
 31
0.0
 11
174.5188084970409
 21
13.82315538223863
 31
0.0
 11
174.4744852776854
 21
13.82145433189186
 31
0.0
 11
174.4276419021443
 21
13.81626739612928
 31
0.0
 11
174.3992532136325
 21
13.90360966173245
 31
0.0
 11
174.3622721815898
 21
14.0072965627482
 31
0.0
 11
174.3188386236702
 21
14.12159987001128
 31
0.0
 11
174.2711055866936
 21
14.24113531268969
 31
0.0
 11
174.2208160133237
 21
14.36408057307565
 31
0.0
 11
174.1696467003931
 21
14.48883822929447
 31
0.0
 11
174.1197531801326
 21
14.61134141502772
 31
0.0
 11
174.0733119111841
 21
14.72784517367917
 31
0.0
 11
173.9623611907589
 21
14.73087465284506
 31
0.0
 11
173.8497309225089
 21
14.7330045486779
 31
0.0
 11
173.736215206945
 21
14.73432195319141
 31
0.0
 11
173.62270004768
 21
14.73473315978853
 31
0.0
 11
173.5169185312816
 21
14.73432195319141
 31
0.0
 11
173.4128501919226
 21
14.7330045486779
 31
0.0
 11
173.3087951724045
 21
14.73087465284506
 31
0.0
 11
173.2030010615596
 21
14.72784517367917
 31
0.0
 11
173.0980914750139
 21
14.4660443751335
 31
0.0
 11
173.0034868690331
 21
14.2171023265846
 31
0.0
 11
172.9252231210298
 21
13.99559756969557
 31
0.0
 11
172.8693431224555
 21
13.81626739612928
 31
0.0
 11
172.8082651639442
 21
13.82145433189186
 31
0.0
 11
172.742087361813
 21
13.82315538223863
 31
0.0
 11
172.6758390041282
 21
13.82145433189186
 31
0.0
 11
172.6147963233938
 21
13.81626739612928
 31
0.0
 11
172.889968495193
 21
14.41656508695143
 31
0.0
 11
173.158294573417
 21
15.01343642360776
 31
0.0
 11
173.4240277350405
 21
15.61366245644381
 31
0.0
 11
173.6914740737033
 21
16.22421385386061
 31
0.0
 11
173.7241589339806
 21
16.22421385386061
 31
0.0
 11
173.7568437942579
 21
16.22421385386061
 31
0.0
 11
173.8428300681057
 21
16.01658539037084
 31
0.0
 11
173.9357285813609
 21
15.79254614563517
 31
0.0
 11
174.0328714521464
 21
15.55908663180469
 31
0.0
 11
174.1317936458032
 21
15.32298128464146
 31
0.0
 11
174.2315341249927
 21
15.08649780379784
 31
0.0
 11
174.3313071129353
 21
14.8516878125371
 31
0.0
 11
174.4280608257448
 21
14.6259949219685
 31
0.0
 11
174.5188084970409
 21
14.4165805209792
 31
0.0
 11
174.6022150834546
 21
14.22607611130461
 31
0.0
 11
174.6770293263377
 21
14.05708232662467
 31
0.0
 11
174.7410729186604
 21
13.91781337700668
 31
0.0
 11
174.7922649500513
 21
13.81626739612928
 31
0.0
  0
SPLINE
  5
B4
102
{ACAD_REACTORS
330
D0
102
}
330
48
100
AcDbEntity
  8
_U_30EC_U_30A4_U_30E4_U_30FC_1
  6
Continuous
 62
     2
100
AcDbSpline
210
0.0
220
0.0
230
1.0
 70
    11
 71
     3
 72
    99
 73
    95
 74
    93
 42
0.000000001
 43
0.0000000001
 44
0.00000001
 40
0.0
 40
0.0
 40
0.0
 40
0.0
 40
0.0796417172272494
 40
0.1621768542356667
 40
0.2486489160958053
 40
0.340496966852447
 40
0.4381912511164777
 40
0.5434463660245642
 40
0.6518115192847392
 40
0.7530190937886704
 40
0.8492196919724451
 40
0.9419290312997901
 40
1.034249663569951
 40
1.129078600620193
 40
1.226697027573233
 40
1.32722042542169
 40
1.470572134938013
 40
1.595489863371226
 40
1.71993412534839
 40
1.850576620127434
 40
1.98905962998732
 40
2.134139054227017
 40
2.280698007207228
 40
2.424529739039421
 40
2.565929576985835
 40
2.70823926077349
 40
2.861717887443648
 40
3.045168540347353
 40
3.183798301138593
 40
3.314813961455447
 40
3.442083470447288
 40
3.569912708373038
 40
3.702177512509392
 40
3.842307559659585
 40
3.99287222324596
 40
4.156750662218291
 40
4.310981861107512
 40
4.44585990932264
 40
4.57239393613158
 40
4.701656719781956
 40
4.768279086008419
 40
4.835960697898373
 40
4.912788918729302
 40
5.006285208481524
 40
5.026909478751515
 40
5.047533749020994
 40
5.101808031471086
 40
5.162325165538388
 40
5.22691974599566
 40
5.294231806596584
 40
5.364544852554712
 40
5.43831905546778
 40
5.517877651324062
 40
5.607647714861431
 40
5.700449642544249
 40
5.788251142363925
 40
5.872714706039634
 40
5.95516729257514
 40
6.037192395190199
 40
6.120669181468918
 40
6.206848616686155
 40
6.29668085541658
 40
6.442558392872397
 40
6.568190371608099
 40
6.692904567360139
 40
6.824220446556888
 40
6.96312185032915
 40
7.107843738850833
 40
7.253431663907025
 40
7.39518746803645
 40
7.533140753237528
 40
7.670550457174997
 40
7.816236511769037
 40
7.987691657358995
 40
8.142277421969023
 40
8.293662615414794
 40
8.442962460879047
 40
8.591598316185095
 40
8.743678992361595
 40
8.903725323698954
 40
9.07630700889022
 40
9.26557860468036
 40
9.459203795360507
 40
9.617619810273212
 40
9.753609671361646
 40
9.874873300003841
 40
9.954520184977552
 40
10.0241641371922
 40
10.0976976440542
 40
10.18909955924947
 40
10.20974586420117
 40
10.23039218263371
 40
10.30057101881252
 40
10.37632012987532
 40
10.37632012987532
 40
10.37632012987532
 40
10.37632012987532
 10
170.1465954835851
 20
14.13795663215994
 30
0.0
 10
170.1632217851219
 20
14.11720608845312
 30
0.0
 10
170.1970784206577
 20
14.07495111711898
 30
0.0
 10
170.2599822541037
 20
14.02029811392075
 30
0.0
 10
170.3332500940393
 20
13.97299025121051
 30
0.0
 10
170.4175969238636
 20
13.93527231437934
 30
0.0
 10
170.513224061546
 20
13.91040619731952
 30
0.0
 10
170.6171853775346
 20
13.90309559345938
 30
0.0
 10
170.7224020220405
 20
13.91142322794054
 30
0.0
 10
170.8206626371334
 20
13.94149179651528
 30
0.0
 10
170.9058986427547
 20
13.9884882297188
 30
0.0
 10
170.9779220206103
 20
14.04952991250851
 30
0.0
 10
171.0350917709094
 20
14.12412969578593
 30
0.0
 10
171.0767868747441
 20
14.21002464660169
 30
0.0
 10
171.1026952846292
 20
14.30485850432212
 30
0.0
 10
171.1118037332654
 20
14.41854979038367
 30
0.0
 10
171.0986864796487
 20
14.54332587770779
 30
0.0
 10
171.0325330334414
 20
14.66014719171891
 30
0.0
 10
170.9369370919569
 20
14.74512539577375
 30
0.0
 10
170.8249681022369
 20
14.81416684459161
 30
0.0
 10
170.6993659583269
 20
14.87204142045893
 30
0.0
 10
170.5656691620856
 20
14.92373723284337
 30
0.0
 10
170.4313122818831
 20
14.97899092397181
 30
0.0
 10
170.3051983986877
 20
15.04939770641654
 30
0.0
 10
170.1926579987535
 20
15.13785540731245
 30
0.0
 10
170.0969963064459
 20
15.24981067868477
 30
0.0
 10
170.0334157151825
 20
15.3994991010138
 30
0.0
 10
170.0200706505016
 20
15.55932794385142
 30
0.0
 10
170.0320510987447
 20
15.71048405306846
 30
0.0
 10
170.0712298928841
 20
15.83809244591537
 30
0.0
 10
170.135498775091
 20
15.95080874030852
 30
0.0
 10
170.2238204999741
 20
16.04648609268679
 30
0.0
 10
170.3338091207628
 20
16.12354214985757
 30
0.0
 10
170.4632284401266
 20
16.18151396936277
 30
0.0
 10
170.6111838967794
 20
16.21739177588822
 30
0.0
 10
170.7682069455487
 20
16.22746719050563
 30
0.0
 10
170.917494046643
 20
16.21863637762588
 30
0.0
 10
171.059625361417
 20
16.19074899340355
 30
0.0
 10
171.1595922609626
 20
16.13413314701137
 30
0.0
 10
171.3125074736184
 20
16.08674602105508
 30
0.0
 10
171.2455131717169
 20
16.00197553001182
 30
0.0
 10
171.2296479120268
 20
15.93438901873486
 30
0.0
 10
171.1978750531297
 20
15.86926092793189
 30
0.0
 10
171.215020220957
 20
15.76723453256956
 30
0.0
 10
171.1666427208232
 20
15.77493211681901
 30
0.0
 10
171.1315789440767
 20
15.76806771724811
 30
0.0
 10
171.1296697985718
 20
15.83263831158196
 30
0.0
 10
171.0985692931989
 20
15.87825639621393
 30
0.0
 10
171.0664551628456
 20
15.93561036628461
 30
0.0
 10
171.0208038475168
 20
15.98540462692554
 30
0.0
 10
170.9658508218387
 20
16.02994813718998
 30
0.0
 10
170.9010841173007
 20
16.06763988836547
 30
0.0
 10
170.8232377310597
 20
16.09283375791354
 30
0.0
 10
170.7355160553353
 20
16.0993123099811
 30
0.0
 10
170.6452903277806
 20
16.09235709285608
 30
0.0
 10
170.5594594694065
 20
16.06909190460918
 30
0.0
 10
170.4828343638596
 20
16.03131644107546
 30
0.0
 10
170.4165265636201
 20
15.98051641089576
 30
0.0
 10
170.3622560536964
 20
15.91731143407209
 30
0.0
 10
170.322492534546
 20
15.84276455710367
 30
0.0
 10
170.2976775510589
 20
15.75917313997764
 30
0.0
 10
170.289212426287
 20
15.65192948382285
 30
0.0
 10
170.3019697987104
 20
15.52965457267558
 30
0.0
 10
170.3681548409273
 20
15.41149724291214
 30
0.0
 10
170.4640977399832
 20
15.32606325709527
 30
0.0
 10
170.5757914963182
 20
15.25583362306721
 30
0.0
 10
170.7010863668702
 20
15.19659162305309
 30
0.0
 10
170.8349823941447
 20
15.14616708086128
 30
0.0
 10
170.9689930333149
 20
15.09322516984385
 30
0.0
 10
171.0950885316915
 20
15.02750170625174
 30
0.0
 10
171.2076216638418
 20
14.94480352537324
 30
0.0
 10
171.3031370284232
 20
14.83996006310071
 30
0.0
 10
171.3672706486964
 20
14.69937117251572
 30
0.0
 10
171.3811103725278
 20
14.54065409451592
 30
0.0
 10
171.367395471223
 20
14.38153155217875
 30
0.0
 10
171.3244739153984
 20
14.2348382881921
 30
0.0
 10
171.2545906329066
 20
14.10119796587143
 30
0.0
 10
171.1574592213829
 20
13.98532387699291
 30
0.0
 10
171.0347806023657
 20
13.89089981770089
 30
0.0
 10
170.8874408413168
 20
13.82179270651982
 30
0.0
 10
170.7177132497125
 20
13.77953210858851
 30
0.0
 10
170.5317404979597
 20
13.76781736230407
 30
0.0
 10
170.3528955926183
 20
13.77809486683434
 30
0.0
 10
170.1881733753744
 20
13.81966573769158
 30
0.0
 10
170.0834410841057
 20
13.88797642883939
 30
0.0
 10
169.9350960790365
 20
13.93675219032106
 30
0.0
 10
169.998037819473
 20
14.0297659129084
 30
0.0
 10
170.0072274430057
 20
14.10296536248283
 30
0.0
 10
170.0303711301232
 20
14.16936294501345
 30
0.0
 10
170.0034588335316
 20
14.26974809527584
 30
0.0
 10
170.0521338956339
 20
14.26234033517377
 30
0.0
 10
170.0916530580697
 20
14.26894063620898
 30
0.0
 10
170.0996204944701
 20
14.1907870321893
 30
0.0
 10
170.1305436967923
 20
14.15600927375856
 30
0.0
 10
170.1465954835851
 20
14.13795663215994
 30
0.0
 11
170.1465954835851
 21
14.13795663215994
 31
0.0
 11
170.1982038075864
 21
14.07729869814736
 31
0.0
 11
170.2601105501336
 21
14.0227129516332
 31
0.0
 11
170.3327764009803
 21
13.97583980928383
 31
0.0
 11
170.4166468655843
 21
13.93839906276538
 31
0.0
 11
170.511221073241
 21
13.91390636311878
 31
0.0
 11
170.6161603327166
 21
13.90575829888473
 31
0.0
 11
170.7240739497552
 21
13.91564048638223
 31
0.0
 11
170.8208419941616
 21
13.94528704887483
 31
0.0
 11
170.9050776083318
 21
13.99175118948819
 31
0.0
 11
170.9756144207686
 21
14.0519141321815
 31
0.0
 11
171.0319442109979
 21
14.1250581946632
 31
0.0
 11
171.0736690016004
 21
14.21021434047523
 31
0.0
 11
171.0994680808033
 21
14.30436190989613
 31
0.0
 11
171.1080824729447
 21
14.4045155209822
 31
0.0
 11
171.0878517703357
 21
14.54643250879397
 31
0.0
 11
171.0272522666731
 21
14.65566684036387
 31
0.0
 11
170.9364971286286
 21
14.74081306430095
 31
0.0
 11
170.826010188474
 21
14.81052746532517
 31
0.0
 11
170.7008523531254
 21
14.86979854169922
 31
0.0
 11
170.5662951950997
 21
14.9240425347412
 31
0.0
 11
170.4316884277007
 21
14.98201274306004
 31
0.0
 11
170.3065802017259
 21
15.05297399304232
 31
0.0
 11
170.196027609828
 21
15.14113315968695
 31
0.0
 11
170.1053381235266
 21
15.25080295132617
 31
0.0
 11
170.0447055469484
 21
15.39179720476316
 31
0.0
 11
170.0245079172553
 21
15.57413260402314
 31
0.0
 11
170.0374030471347
 21
15.71216131926642
 31
0.0
 11
170.0761016659391
 21
15.83733128451289
 31
0.0
 11
170.1393141731506
 21
15.94779262129084
 31
0.0
 11
170.2257499954546
 21
16.04196885390621
 31
0.0
 11
170.3336492808963
 21
16.11846540770651
 31
0.0
 11
170.4613526283329
 21
16.17615670109488
 31
0.0
 11
170.6075393259923
 21
16.21220066809973
 31
0.0
 11
170.770976856545
 21
16.22421385386061
 31
0.0
 11
170.9248918431289
 21
16.21434269066864
 31
0.0
 11
171.0564887242608
 21
16.18477329831497
 31
0.0
 11
171.172563634494
 21
16.13439993895252
 31
0.0
 11
171.2800792741122
 21
16.06264163167877
 31
0.0
 11
171.2516994050445
 21
16.00236624106886
 31
0.0
 11
171.2284855254283
 21
15.93879017337648
 31
0.0
 11
171.2078381040801
 21
15.86478841992269
 31
0.0
 11
171.1871840681486
 21
15.77360197897328
 31
0.0
 11
171.1665597978415
 21
15.77360197897328
 31
0.0
 11
171.1459355275344
 21
15.77360197897328
 31
0.0
 11
171.1256706495791
 21
15.82395108486347
 31
0.0
 11
171.0994658759421
 21
15.8785004511693
 31
0.0
 11
171.0650468924452
 21
15.93316116296115
 31
0.0
 11
171.0203554612937
 21
15.98349593725411
 31
0.0
 11
170.9657333359511
 21
16.02777175321529
 31
0.0
 11
170.9016722004326
 21
16.06436142334501
 31
0.0
 11
170.8259682961141
 21
16.08882545979727
 31
0.0
 11
170.7365722046449
 21
16.09701100667022
 31
0.0
 11
170.6440937174208
 21
16.08926973931101
 31
0.0
 11
170.5594072091646
 21
16.06609003445566
 31
0.0
 11
170.483702448884
 21
16.02863495634008
 31
0.0
 11
170.4183754766516
 21
15.97832774281103
 31
0.0
 11
170.3650487887665
 21
15.9160029337988
 31
0.0
 11
170.3254809233902
 21
15.84249947895607
 31
0.0
 11
170.3009523754712
 21
15.75988443557392
 31
0.0
 11
170.2927954104109
 21
15.67042329844352
 31
0.0
 11
170.3130095765618
 21
15.52595308146574
 31
0.0
 11
170.3736256166821
 21
15.41591177072937
 31
0.0
 11
170.4643479320758
 21
15.33033670130632
 31
0.0
 11
170.5748676948813
 21
15.25941954854626
 31
0.0
 11
170.7000089937719
 21
15.1991430555058
 31
0.0
 11
170.8345826882552
 21
15.14590447913022
 31
0.0
 11
170.9691729191968
 21
15.09039489581074
 31
0.0
 11
171.0942976816297
 21
15.0237728124941
 31
0.0
 11
171.2048009079771
 21
14.94118863716749
 31
0.0
 11
171.2955397598288
 21
14.83800003476272
 31
0.0
 11
171.3561557999489
 21
14.70552315979584
 31
0.0
 11
171.3763699660998
 21
14.53526378483839
 31
0.0
 11
171.3621839747998
 21
14.38133030397413
 31
0.0
 11
171.3196087009193
 21
14.23605531269097
 31
0.0
 11
171.2499752884265
 21
14.10398854189068
 31
0.0
 11
171.1544992078713
 21
13.99007218775248
 31
0.0
 11
171.0341060772624
 21
13.89715272597017
 31
0.0
 11
170.8896160201846
 21
13.8283235766818
 31
0.0
 11
170.7223519532714
 21
13.78581275203967
 31
0.0
 11
170.5336103348226
 21
13.7716586461404
 31
0.0
 11
170.3405031726388
 21
13.78581275203967
 31
0.0
 11
170.1878975900912
 21
13.8283235766818
 31
0.0
 11
170.0661897942203
 21
13.88899033013889
 31
0.0
 11
169.9660261826363
 21
13.95734322942737
 31
0.0
 11
169.9922320587039
 21
14.03255545163077
 31
0.0
 11
170.0090121537617
 21
14.10014767383613
 31
0.0
 11
170.0206196447851
 21
14.17275926235962
 31
0.0
 11
170.0313606254138
 21
14.26352788212859
 31
0.0
 11
170.0520069443315
 21
14.26352788212859
 31
0.0
 11
170.0726532632493
 21
14.26352788212859
 31
0.0
 11
170.1048916391629
 21
14.20119204881084
 31
0.0
 11
170.1465954835851
 21
14.13795663215994
 31
0.0
  0
LWPOLYLINE
  5
B5
102
{ACAD_REACTORS
330
C2
102
}
330
48
100
AcDbEntity
  8
_U_30EC_U_30A4_U_30E4_U_30FC_1
  6
Continuous
 62
     2
100
AcDbPolyline
 90
        5
 70
     1
 43
0.0
 10
192.4578138032672
 20
15.39722336795625
 10
192.4578138032672
 20
15.22875434022058
 10
191.1602971697031
 20
15.22875434022058
 10
191.1602971697031
 20
15.39722336795625
 10
192.4578138032672
 20
15.39722336795625
  0
MTEXT
  5
B7
330
48
100
AcDbEntity
  8
1
 62
     2
100
AcDbMText
 10
32.5
 20
282.0000000000003
 30
0.0
 40
5.0
 41
0.0
 71
     5
 72
     1
  1
図番
  7
CONVERTER_11
 73
     1
 44
0.45454545454545
  0
MTEXT
  5
B8
330
48
100
AcDbEntity
  8
1
 62
     2
100
AcDbMText
 10
29.0
 20
34.00000000000001
 30
0.0
 40
3.5
 41
0.0
 71
     5
 72
     1
  1
備考
  7
CONVERTER_11
 73
     1
 44
0.45454545454545
  0
MTEXT
  5
B9
330
48
100
AcDbEntity
  8
1
 62
     2
100
AcDbMText
 10
29.0
 20
22.75000000000001
 30
0.0
 40
3.5
 41
0.0
 71
     5
 72
     1
  1
品名
  7
CONVERTER_11
 73
     1
 44
0.72727272727273
  0
MTEXT
  5
BA
330
48
100
AcDbEntity
  8
1
 62
     2
100
AcDbMText
 10
29.0
 20
14.25000000000001
 30
0.0
 40
3.5
 41
0.0
 71
     5
 72
     1
  1
品番
  7
CONVERTER_11
 73
     1
 44
0.72727272727273
  0
MTEXT
  5
BB
330
48
100
AcDbEntity
  8
1
 62
     2
100
AcDbMText
 10
101.5
 20
25.00000000000001
 30
0.0
 40
3.0
 41
0.0
 71
     5
 72
     1
  1
承認
  7
CONVERTER_11
 73
     1
 44
0.59090909090909
  0
MTEXT
  5
BC
330
48
100
AcDbEntity
  8
1
 62
     2
100
AcDbMText
 10
175.0000000000001
 20
23.50000000000001
 30
0.0
 40
3.5
 41
0.0
 71
     5
 72
     1
  1
第三角法
  7
CONVERTER_11
 73
     1
 44
0.54545454545455
  0
MTEXT
  5
BD
330
48
100
AcDbEntity
  8
1
 62
     2
100
AcDbMText
 10
118.5
 20
25.00000000000001
 30
0.0
 40
3.0
 41
0.0
 71
     5
 72
     1
  1
検図
  7
CONVERTER_11
 73
     1
 44
0.59090909090909
  0
MTEXT
  5
BE
330
48
100
AcDbEntity
  8
1
 62
     2
100
AcDbMText
 10
152.5000000000001
 20
25.00000000000001
 30
0.0
 40
3.0
 41
0.0
 71
     5
 72
     1
  1
設計
  7
CONVERTER_11
 73
     1
 44
0.59090909090909
  0
MTEXT
  5
BF
330
48
100
AcDbEntity
  8
1
 62
     2
100
AcDbMText
 10
135.5000000000001
 20
25.00000000000001
 30
0.0
 40
3.0
 41
0.0
 71
     5
 72
     1
  1
製図
  7
CONVERTER_11
 73
     1
 44
0.59090909090909
  0
MTEXT
  5
C0
330
48
100
AcDbEntity
  8
1
 62
     2
100
AcDbMText
 10
89.5
 20
24.00000000000001
 30
0.0
 40
3.5
 41
0.0
 71
     5
 72
     1
  1
尺度
  7
CONVERTER_11
 73
     1
 44
0.54545454545455
  0
MTEXT
  5
C1
330
48
100
AcDbEntity
  8
1
 62
   250
100
AcDbMText
 10
25.0
 20
5.00000000000001
 30
0.0
 40
3.5
 41
0.0
 71
     4
 72
     1
  1
備考欄の文字列 原点位置=4
  7
CONVERTER_11
 73
     1
 44
0.54545454545455
  0
HATCH
  5
C2
330
48
100
AcDbEntity
  8
1
  6
Continuous
 62
     2
100
AcDbHatch
 10
0.0
 20
0.0
 30
0.0
210
0.0
220
0.0
230
1.0
  2
CUSTOM0
 70
     0
 71
     1
 91
        1
 92
        1
 93
        4
 72
     1
 10
192.4578138032672
 20
15.39722336795625
 11
192.4578138032672
 21
15.22875434022058
 72
     1
 10
192.4578138032672
 20
15.22875434022058
 11
191.1602971697031
 21
15.22875434022058
 72
     1
 10
191.1602971697031
 20
15.22875434022058
 11
191.1602971697031
 21
15.39722336795625
 72
     1
 10
191.1602971697031
 20
15.39722336795625
 11
192.4578138032672
 21
15.39722336795625
 97
        1
330
B5
 75
     1
 76
     2
 52
45.0
 41
0.1
 77
     0
 78
     1
 53
45.0
 43
0.0
 44
0.0
 45
-0.282842712474619
 46
0.0
 79
     0
 98
        1
 10
0.0
 20
0.0
  0
HATCH
  5
C3
330
48
100
AcDbEntity
  8
1
  6
Continuous
 62
     2
100
AcDbHatch
 10
0.0
 20
0.0
 30
0.0
210
0.0
220
0.0
230
1.0
  2
CUSTOM1
 70
     0
 71
     1
 91
        1
 92
        1
 93
        3
 72
     4
 94
        3
 73
     0
 74
     0
 95
       24
 96
       20
 40
0.0
 40
0.0
 40
0.0
 40
0.0
 40
0.2211075008753823
 40
0.4273218586245379
 40
0.5080174679238849
 40
0.5914835907869503
 40
0.8143265690191939
 40
1.054651302686503
 40
1.295452694023093
 40
1.518109231328747
 40
1.54086432190539
 40
1.595126460622651
 40
1.659890947895992
 40
1.714153085187378
 40
1.736908174961679
 40
1.764951100735401
 40
1.801562291221019
 40
1.953914424543689
 40
2.126104167379765
 40
2.126104167379765
 40
2.126104167379765
 40
2.126104167379765
 10
185.9375369556888
 20
15.58989295113017
 10
185.9112579081811
 20
15.53097628234375
 10
185.8604698894425
 20
15.41711139679256
 10
185.8131784839111
 20
15.14441958233118
 10
185.7043482802617
 20
15.24445482575454
 10
185.5514800279637
 20
15.27118593367334
 10
185.7686155181198
 20
15.48518135017632
 10
185.7838483674381
 20
15.70332117782486
 10
185.8906889492
 20
15.88451579066427
 10
185.8305380947078
 20
16.16913226311401
 10
185.9334317395402
 20
16.14114089222451
 10
185.977993346815
 20
16.13243251602299
 10
186.0380842395397
 20
16.12139654183355
 10
186.0756619587439
 20
16.1076752305556
 10
186.1252466928607
 20
16.10756076160222
 10
186.0930158919325
 20
16.07306592398624
 10
186.0171802221881
 20
16.08404104537963
 10
186.0429447159694
 20
15.89858969582451
 10
186.0055896763849
 20
15.8070231354959
 10
185.9857704961609
 20
15.75844135397706
 72
     4
 94
        3
 73
     0
 74
     0
 95
       70
 96
       66
 40
0.0
 40
0.0
 40
0.0
 40
0.0
 40
0.0241731073021188
 40
0.0846058988987013
 40
0.1631685280352715
 40
0.2417311571788903
 40
0.3021639488291614
 40
0.3263370654894688
 40
0.3533118254248028
 40
0.4228783438921241
 40
0.5179999095312514
 40
0.6216398239465178
 40
0.7167613891498746
 40
0.7863279069648904
 40
0.8133026791760877
 40
0.8372943998770997
 40
0.8945054261372193
 40
0.9627895541962246
 40
1.020000580349034
 40
1.043992300975161
 40
1.071934345522888
 40
1.113121768772822
 40
1.145225199332146
 40
1.225483775412678
 40
1.329819923771384
 40
1.434156071994274
 40
1.51441464779569
 40
1.546518078208298
 40
1.5789747642601
 40
1.662678849314038
 40
1.777131373668259
 40
1.90183337747465
 40
2.016285900500411
 40
2.09998998252775
 40
2.132446666570108
 40
2.158782354485832
 40
2.216720867907621
 40
2.274659381334046
 40
2.300995069255978
 40
2.33345175406595
 40
2.417155836543603
 40
2.531608358985042
 40
2.656310362283537
 40
2.770762886388641
 40
2.854466971339778
 40
2.886923657363584
 40
2.913597976833018
 40
2.98238964287482
 40
3.076451716946687
 40
3.178937260458299
 40
3.272999334739704
 40
3.341791001058927
 40
3.36846532066324
 40
3.396976080738489
 40
3.472140811845697
 40
3.578408190308386
 40
3.700226892455851
 40
3.822045594634068
 40
3.928312973256175
 40
4.003477705314572
 40
4.031988456866638
 40
4.058324144797438
 40
4.116262658236603
 40
4.174201171400406
 40
4.20053684960834
 40
4.20053684960834
 40
4.20053684960834
 40
4.20053684960834
 10
185.9857704961609
 20
15.75844135397706
 10
185.9938259544679
 20
15.75844359811688
 10
186.0220200663241
 20
15.75845146032799
 10
186.0765534803672
 20
15.75830754828372
 10
186.1482891808603
 20
15.75909120499899
 10
186.2236240137062
 20
15.75627570463812
 10
186.2713052366438
 20
15.76298403400958
 10
186.3195071245615
 20
15.75197563692433
 10
186.3062571799873
 20
15.80546402997034
 10
186.3151093964537
 20
15.86049583543092
 10
186.3108698036285
 20
15.9541990872611
 10
186.3133483481278
 20
16.04959482218533
 10
186.3090938706059
 20
16.14356821983387
 10
186.3179818665846
 20
16.19795062438012
 10
186.3046977409944
 20
16.25233997691461
 10
186.3514119277108
 20
16.23842216335357
 10
186.3943254545736
 20
16.24103877374043
 10
186.4605443456684
 20
16.23648422450755
 10
186.5013342271798
 20
16.22778162134161
 10
186.5525145690819
 20
16.23531799890196
 10
186.52537204872
 20
16.19349970223289
 10
186.4803096055708
 20
16.20284992072593
 10
186.4942065045051
 20
16.13841207371837
 10
186.4858414431656
 20
16.07378219627399
 10
186.4903632178399
 20
15.97529141193888
 10
186.4854741311169
 20
15.87595932842571
 10
186.4950258992082
 20
15.81293115552969
 10
186.4799761455201
 20
15.74964011499788
 10
186.5449159457209
 20
15.76515072944271
 10
186.6116246399498
 20
15.75499387697813
 10
186.7241435470828
 20
15.75988800099369
 10
186.8390235448954
 20
15.75691204732784
 10
186.9519871999747
 20
15.76221664184992
 10
187.0176267597677
 20
15.7510730647209
 10
187.0816276691053
 20
15.76744532319858
 10
187.070314288919
 20
15.71761689905276
 10
187.0775339871509
 20
15.67416715212124
 10
187.070314261127
 20
15.63071745587446
 10
187.0816277175993
 20
15.58088895196878
 10
187.0176263598972
 20
15.59726166091362
 10
186.9519921240459
 20
15.5861127166159
 10
186.8389974317331
 20
15.59144857206855
 10
186.7242456548643
 20
15.58834345663823
 10
186.6113183686861
 20
15.59364894682589
 10
186.5455220903585
 20
15.58257300019594
 10
186.4816097975359
 20
15.59887597847619
 10
186.4936015165127
 20
15.54423524395742
 10
186.4862104613006
 20
15.48854295047843
 10
186.4892684841984
 20
15.39649689140571
 10
186.4893422785684
 20
15.30179109873102
 10
186.4860313578361
 20
15.20952782902266
 10
186.4939505989904
 20
15.15435768736141
 10
186.4815076611618
 20
15.10058169100136
 10
186.5389116551633
 20
15.11453768862782
 10
186.5994708140384
 20
15.10511457884228
 10
186.7048680855082
 20
15.10942885928705
 10
186.8204294070624
 20
15.10835504612033
 10
186.9359688877798
 20
15.10725965900995
 10
187.0414181130843
 20
15.11162525770633
 10
187.1018680471805
 20
15.10209426030672
 10
187.1592837739111
 20
15.11617289606381
 10
187.147777387671
 20
15.06707153265683
 10
187.153756678175
 20
15.02564658018649
 10
187.1520311050804
 20
14.97651677966696
 10
187.1521500122972
 20
14.94854428447608
 10
187.1521871691834
 20
14.9398028819595
 72
     4
 94
        3
 73
     0
 74
     0
 95
       62
 96
       58
 40
0.0
 40
0.0
 40
0.0
 40
0.0
 40
0.0598250028308769
 40
0.2024846486897616
 40
0.3727558389220746
 40
0.515415484793607
 40
0.5752404975785339
 40
0.9332326775486626
 40
1.290451762839393
 40
1.602077253145818
 40
1.699931634112051
 40
1.799359756424987
 40
2.270120149657024
 40
2.804661928461449
 40
2.882342287383162
 40
3.076543185719013
 40
3.32900435483548
 40
3.581465524568307
 40
3.775666424543594
 40
3.853346784558214
 40
3.899120679595017
 40
3.9841293417921
 40
4.029903236817477
 40
4.105797496059633
 40
4.295533144152595
 40
4.542189486611839
 40
4.788845828875791
 40
4.978581476410175
 40
5.05447573524442
 40
5.621734664339407
 40
6.130867242037397
 40
6.225249780948568
 40
6.318913039727263
 40
6.663579954558799
 40
7.047498900224644
 40
7.435230791575574
 40
7.498943906667986
 40
7.65087518120998
 40
7.83221250900149
 40
7.984143783696876
 40
8.047856898903003
 40
8.091554632732512
 40
8.172707566964174
 40
8.2164053007679
 40
8.289021782160756
 40
8.462184160757072
 40
8.668861838005238
 40
8.842024215263745
 40
8.91464069547494
 40
8.989881580861148
 40
9.155411528827054
 40
9.320941477743837
 40
9.39618235248709
 40
9.454709011143608
 40
9.5834676601706
 40
9.712226309012822
 40
9.770752957989304
 40
9.770752957989304
 40
9.770752957989304
 40
9.770752957989304
 10
187.1521871691834
 20
14.9398028819595
 10
187.1322348171624
 20
14.93980875568671
 10
187.0647037716466
 20
14.93982863806157
 10
186.9410612161789
 20
14.93949362520326
 10
186.7863180150057
 20
14.94107673750512
 10
186.669734948248
 20
14.93686078860494
 10
186.4550942634242
 20
14.95215205331627
 10
186.8518948407228
 20
14.59198721286189
 10
186.8945656069267
 20
14.37510503397164
 10
187.3189162146612
 20
14.1932506251145
 10
187.1439821496074
 20
14.0898519656807
 10
187.0194523925084
 20
13.87831523212727
 10
186.7666277235943
 20
14.34806081001556
 10
186.4797602893626
 20
14.99511516984522
 10
186.4906335926661
 20
14.68782672154695
 10
186.488289277796
 20
14.5228861697178
 10
186.4861096126411
 20
14.28879670711694
 10
186.4980774396348
 20
14.04498072421784
 10
186.4687984740632
 20
13.89855796860984
 10
186.511452262547
 20
13.75113490174536
 10
186.4239814005639
 20
13.76685797306221
 10
186.3768527606743
 20
13.76694303543455
 10
186.2898973207712
 20
13.75109425482908
 10
186.3313474021721
 20
13.89527771422762
 10
186.3029875004284
 20
14.03855052698456
 10
186.3145973775299
 20
14.27674947365265
 10
186.3124175648271
 20
14.50517235240347
 10
186.3103111127993
 20
14.66705729375996
 10
186.3208035438322
 20
14.98153709333752
 10
186.0128963252894
 20
14.29229470872442
 10
185.7055258267454
 20
13.81476750243044
 10
185.5851367066275
 20
14.0374111263743
 10
185.4074607910723
 20
14.15011034955563
 10
185.8853326362894
 20
14.32548143465466
 10
185.9353959057208
 20
14.56091929252031
 10
186.3583799621717
 20
14.95322989344605
 10
186.127675427354
 20
14.93655307029066
 10
186.004968585934
 20
14.9426951894877
 10
185.8325483095662
 20
14.93312822699574
 10
185.7213224694449
 20
14.95448818489666
 10
185.6025779627448
 20
14.9213626535742
 10
185.6183169706686
 20
15.00203900606883
 10
185.6178550933763
 20
15.04645414290854
 10
185.6027881889931
 20
15.12967081778533
 10
185.7372380935443
 20
15.09062651983884
 10
185.8619755545745
 20
15.11739729328423
 10
186.0628755237279
 20
15.10063949044053
 10
186.1921540949353
 20
15.12204225913004
 10
186.3328419928294
 20
15.08868778853421
 10
186.2980927452615
 20
15.22651875785069
 10
186.3222185666711
 20
15.34963257349482
 10
186.2967086182392
 20
15.47024055670336
 10
186.3333251146684
 20
15.60539865141495
 10
186.2211417027768
 20
15.58094545781892
 10
186.1280356457135
 20
15.59307749842023
 10
186.0191547579819
 20
15.58957630069994
 10
185.9569697640963
 20
15.58981755951603
 10
185.9375369557245
 20
15.58989295124145
 97
        3
330
A6
330
A4
330
A5
 75
     1
 76
     2
 52
45.0
 41
0.1
 77
     0
 78
     1
 53
45.0
 43
0.0
 44
0.0
 45
-0.282842712474619
 46
0.0
 79
     0
 98
        1
 10
0.0
 20
0.0
  0
HATCH
  5
C4
330
48
100
AcDbEntity
  8
1
  6
Continuous
 62
     2
100
AcDbHatch
 10
0.0
 20
0.0
 30
0.0
210
0.0
220
0.0
230
1.0
  2
CUSTOM2
 70
     0
 71
     1
 91
        1
 92
        1
 93
        1
 72
     4
 94
        3
 73
     0
 74
     0
 95
      124
 96
      120
 40
0.0
 40
0.0
 40
0.0
 40
0.0
 40
0.027818722962451
 40
0.1011590162384269
 40
0.2048470170590239
 40
0.3237088716559245
 40
0.4425707262522
 40
0.5462587270699547
 40
0.6195990203311798
 40
0.647417752257866
 40
0.6750060736115224
 40
0.7357003855242759
 40
0.7963946998054492
 40
0.8239830245571784
 40
0.8540933811102878
 40
0.9373396629409558
 40
1.063094687343237
 40
1.220731268638103
 40
1.399622220914778
 40
1.589140358637819
 40
1.778658496423957
 40
1.957549448940624
 40
2.115186030873246
 40
2.24094105691455
 40
2.324187341760648
 40
2.354297700109497
 40
2.381886024672004
 40
2.442580338710592
 40
2.503274652750616
 40
2.530862977314723
 40
2.560983949278676
 40
2.640393784453051
 40
2.752662861759274
 40
2.881361560118319
 40
3.010060258455366
 40
3.122329335705541
 40
3.201739170818183
 40
3.231860142753544
 40
3.264298024030601
 40
3.352343701778472
 40
3.482095226868997
 40
3.639650650173258
 40
3.811108022565713
 40
3.982565394928222
 40
4.140120818152803
 40
4.269872343141514
 40
4.357918020802576
 40
4.390355902044205
 40
4.423256253992775
 40
4.508104530073296
 40
4.624121560637064
 40
4.75052817603182
 40
4.866545206602267
 40
4.951393482692224
 40
4.984293834645626
 40
5.011450833242539
 40
5.071196230152322
 40
5.130941627057395
 40
5.15809862564906
 40
5.19099897760175
 40
5.275847253689576
 40
5.39186428425701
 40
5.518270899648555
 40
5.634287930209594
 40
5.719136206288268
 40
5.752036558236155
 40
5.782130946283181
 40
5.862783906229356
 40
5.979550131775222
 40
6.117984316640629
 40
6.263641154588174
 40
6.40207533941438
 40
6.518841564908175
 40
6.599494524815756
 40
6.629588912848994
 40
6.65440302822657
 40
6.713575149488337
 40
6.784199939329654
 40
6.843372060493756
 40
6.868186175803002
 40
6.896246243202082
 40
6.939586233758479
 40
6.967846564565106
 40
7.043584251090045
 40
7.153234334451903
 40
7.283231855734653
 40
7.420011856035686
 40
7.550009376580038
 40
7.659659458835438
 40
7.735397144417431
 40
7.763657474851603
 40
7.79640972801126
 40
7.880876065096534
 40
7.99637085246592
 40
8.122208446418815
 40
8.237703224799409
 40
8.322169562011103
 40
8.354921815206117
 40
8.382078813307897
 40
8.4418242092072
 40
8.501569605240347
 40
8.528726603485923
 40
8.561478856695972
 40
8.645945193878022
 40
8.761439980865534
 40
8.887277580764676
 40
9.002772362001197
 40
9.087238696661418
 40
9.119990949235872
 40
9.152428830613571
 40
9.240474508638787
 40
9.370226034149738
 40
9.527781457984624
 40
9.699238830981612
 40
9.870696203978804
 40
10.02825162781423
 40
10.15800315332585
 40
10.24604883135139
 40
10.27848670378542
 40
10.27848670378542
 40
10.27848670378542
 40
10.27848670378542
 10
195.3821827564383
 20
14.01410517385757
 10
195.3914554737523
 20
14.01410498511274
 10
195.4251744536861
 20
14.01410430876714
 10
195.4934706812465
 20
14.01411807243305
 10
195.592014171158
 20
14.01403224219544
 10
195.7062066464812
 20
14.01441755612251
 10
195.818589441707
 20
14.01300835897545
 10
195.9214376600118
 20
14.01719117422243
 10
195.9806839874849
 20
14.00823089251983
 10
196.0371265937032
 20
14.02164434526061
 10
196.0246255586955
 20
13.97087198613361
 10
196.0329549635704
 20
13.92589320939067
 10
196.0248170841119
 20
13.88056752990488
 10
196.0370529214457
 20
13.82931932408466
 10
195.9747773490333
 20
13.84447955365276
 10
195.9060513026868
 20
13.83359750710743
 10
195.7782756749591
 20
13.83911304747972
 10
195.6262984511644
 20
13.83700851253698
 10
195.4502695972521
 20
13.83771002588473
 10
195.2644431934287
 20
13.83745237531291
 10
195.0786167437174
 20
13.83771005144603
 10
194.9025880142167
 20
13.83700841847731
 10
194.7506104154193
 20
13.83911332229988
 10
194.6228357664554
 20
13.8335968076764
 10
194.5541077836579
 20
13.84448077125942
 10
194.4918349042882
 20
13.82931786684209
 10
194.5040616290017
 20
13.88057510805171
 10
194.4960004462596
 20
13.92582473272425
 10
194.5040675809891
 20
13.97106357955323
 10
194.4918238487082
 20
14.02234176909958
 10
194.5525017120697
 20
14.00749577363135
 10
194.6162810745735
 20
14.01756448170735
 10
194.7277314353502
 20
14.01294644211999
 10
194.8497533443823
 20
14.01413328905469
 10
194.9719538137823
 20
14.01515863900634
 10
195.0829794287392
 20
14.01092475623402
 10
195.1476517413958
 20
14.02018584521739
 10
195.2091162810501
 20
14.00604423049683
 10
195.1930065601337
 20
14.07235527884517
 10
195.2042980327358
 20
14.14447790121976
 10
195.1987400822561
 20
14.27513760888286
 10
195.2008035061691
 20
14.42607323708242
 10
195.2000167127295
 20
14.59335873107886
 10
195.2007845215627
 20
14.76061110332304
 10
195.1988038785628
 20
14.91163289269914
 10
195.2041306156621
 20
15.04206069552996
 10
195.1933101388425
 20
15.11465442605899
 10
195.2090326429875
 20
15.18150469436799
 10
195.143270813249
 20
15.16580512490825
 10
195.0756367830764
 20
15.17609243083996
 10
194.9615885293809
 20
15.17113786847123
 10
194.8451242674902
 20
15.17414128030475
 10
194.7306554121477
 20
15.16880303143389
 10
194.6640324657812
 20
15.18001268074826
 10
194.5990769715185
 20
15.16349132665012
 10
194.6107989758708
 20
15.2147372047706
 10
194.6032830189121
 20
15.25950333784091
 10
194.6107989878835
 20
15.30426944897962
 10
194.5990769505347
 20
15.35551536129741
 10
194.66403263392
 20
15.33899381766815
 10
194.7306533339821
 20
15.35020571373944
 10
194.8451352858063
 20
15.34485436710664
 10
194.9615454436962
 20
15.34791188771117
 10
195.0757660174641
 20
15.34278499010708
 10
195.1430150439227
 20
15.35345733355598
 10
195.2083325941438
 20
15.33742082669077
 10
195.1941391448553
 20
15.39949685750054
 10
195.2036059462994
 20
15.46586761628762
 10
195.1990269004085
 20
15.58239972741966
 10
195.2007696555948
 20
15.71426685022376
 10
195.1997551495391
 20
15.85615960150273
 10
195.2017191344373
 20
15.9876905070258
 10
195.1964668553851
 20
16.10524577283002
 10
195.2073408763474
 20
16.16947789001584
 10
195.1919536641853
 20
16.23108802545047
 10
195.24075915378
 20
16.21702407382111
 10
195.2853995564726
 20
16.21954742075314
 10
195.3538643946742
 20
16.2151279740171
 10
195.3959106169102
 20
16.20613025544035
 10
195.4487544758775
 20
16.2141171486651
 10
195.4207035002014
 20
16.17113917611674
 10
195.3749142248594
 20
16.18259552043837
 10
195.3869539073264
 20
16.12173520005137
 10
195.3796086070641
 20
16.05769299468773
 10
195.3831195826162
 20
15.94909368863911
 10
195.3819806760173
 20
15.82494319144753
 10
195.3819174780263
 20
15.69189719829878
 10
195.3832872966867
 20
15.56797381249555
 10
195.3791638801314
 20
15.45868337849339
 10
195.3877763103564
 20
15.3960858009417
 10
195.3746757454401
 20
15.33740133296365
 10
195.4393884328198
 20
15.35362113810902
 10
195.5060405953155
 20
15.34270260383311
 10
195.6198779541103
 20
15.34793740173756
 10
195.7357259122097
 20
15.34485547516913
 10
195.849692426328
 20
15.35018259812512
 10
195.91603410181
 20
15.33904208166543
 10
195.9807188525479
 20
15.35546979593178
 10
195.9689820772722
 20
15.30425925210051
 10
195.9765168063041
 20
15.25950334121001
 10
195.9689820992258
 20
15.21474739010028
 10
195.9807188140737
 20
15.16353690871041
 10
195.9160344075252
 20
15.17996427794221
 10
195.8496886430824
 20
15.1688278444727
 10
195.7357459487012
 20
15.17413115893121
 10
195.6197995623054
 20
15.17114764593544
 10
195.5062756882122
 20
15.17606892268395
 10
195.4389231318804
 20
15.1658508751352
 10
195.3734285122495
 20
15.18145996138816
 10
195.3891713619218
 20
15.11463851827411
 10
195.3783275998212
 20
15.04207057815879
 10
195.3836581629793
 20
14.91162247614417
 10
195.3817136151854
 20
14.76064558185226
 10
195.3823133683214
 20
14.59322243934158
 10
195.3821506559605
 20
14.42656176118372
 10
195.3821895488135
 20
14.27360142921636
 10
195.38218164131
 20
14.14849178985705
 10
195.3821828382744
 20
14.0650789099142
 10
195.3821827716208
 20
14.02491778281976
 10
195.3821827564383
 20
14.01410517385757
 97
        1
330
A7
 75
     1
 76
     2
 52
45.0
 41
0.1
 77
     0
 78
     1
 53
45.0
 43
0.0
 44
0.0
 45
-0.282842712474619
 46
0.0
 79
     0
 98
        1
 10
0.0
 20
0.0
  0
HATCH
  5
C5
330
48
100
AcDbEntity
  8
1
  6
Continuous
 62
     2
100
AcDbHatch
 10
0.0
 20
0.0
 30
0.0
210
0.0
220
0.0
230
1.0
  2
CUSTOM3
 70
     0
 71
     1
 91
        1
 92
        1
 93
        1
 72
     4
 94
        3
 73
     0
 74
     0
 95
      131
 96
      127
 40
0.0
 40
0.0
 40
0.0
 40
0.0
 40
0.0195577029826344
 40
0.0426490537462135
 40
0.2863607575857073
 40
0.5344948436189634
 40
0.7842238845573531
 40
0.8737315789467931
 40
0.980383281031366
 40
1.092842274517133
 40
1.19976114665687
 40
1.289788768186575
 40
1.351573580786221
 40
1.370727117561448
 40
1.416400936017864
 40
1.470914848356008
 40
1.516588666791799
 40
1.535742203552881
 40
1.634216592293191
 40
1.760283341175008
 40
1.897966686682091
 40
2.03121638736889
 40
2.049689751137884
 40
2.101115601646818
 40
2.179502577739936
 40
2.27885931831405
 40
2.393194462258706
 40
2.516516648383818
 40
2.642834515405945
 40
2.766156701983448
 40
2.880491846754559
 40
2.9798485883586
 40
3.058235565443777
 40
3.109661416668932
 40
3.128134780704107
 40
3.146783742386424
 40
3.191254343315313
 40
3.244332157315972
 40
3.288802758225904
 40
3.307451719895175
 40
3.327717853844787
 40
3.383747753580148
 40
3.468388665924538
 40
3.574487837698845
 40
3.694892515728951
 40
3.822449946852088
 40
3.950007377920479
 40
4.070412055800569
 40
4.176511227368122
 40
4.26115213950157
 40
4.317182039076762
 40
4.337448172964683
 40
4.620011002696297
 40
4.885096638397569
 40
4.945373043518377
 40
5.014107710488677
 40
5.070481727652108
 40
5.319246955636633
 40
5.584812164506146
 40
5.859000912057037
 40
6.133746937542169
 40
6.401732212968957
 40
6.420736683995548
 40
6.472845717451198
 40
6.550702743894126
 40
6.646951193874335
 40
6.754234497930659
 40
6.865196086587437
 40
6.972479390357895
 40
7.068727839772057
 40
7.146584865451066
 40
7.198693898189296
 40
7.217698368905436
 40
7.234950401630913
 40
7.276089864269959
 40
7.325191803516068
 40
7.366331266090453
 40
7.383583298769805
 40
7.402779163492182
 40
7.453386443254614
 40
7.524934666445615
 40
7.606953361405955
 40
7.688972056429106
 40
7.760520279784357
 40
7.811127559734599
 40
7.83032342454622
 40
7.847844055299849
 40
7.894799345666891
 40
7.962779392744578
 40
8.043374293560621
 40
8.128174145149528
 40
8.208769044817329
 40
8.276749090377029
 40
8.323704379669588
 40
8.341225010056322
 40
8.35849761480047
 40
8.401679126686675
 40
8.457815092185733
 40
8.513951057728137
 40
8.557132569708093
 40
8.574405174505136
 40
8.60234066861645
 40
8.643455660539992
 40
8.66322527196666
 40
8.715345156564304
 40
8.789031889628639
 40
8.873502045520366
 40
8.95797219432399
 40
9.031658925567879
 40
9.083778811234566
 40
9.10354842300303
 40
9.119550083123567
 40
9.160817522379869
 40
9.217244429110206
 40
9.278724491644663
 40
9.335151398295448
 40
9.376418837357715
 40
9.392420497300503
 40
9.401196302734721
 40
9.417494229384195
 40
9.426270027749466
 40
9.440875075477498
 40
9.475702496998677
 40
9.517270709865839
 40
9.552098131994006
 40
9.566703169884214
 40
9.566703169884214
 40
9.566703169884214
 40
9.566703169884214
 10
194.6170254148479
 20
15.67015871511028
 10
194.6134345093371
 20
15.6645369070216
 10
194.6056039123624
 20
15.65227754419111
 10
194.5129968974547
 20
15.61601916040987
 10
194.4887622233246
 20
15.40148444212708
 10
194.3858709845939
 20
15.22197284509709
 10
194.1220492364305
 20
15.03615573798143
 10
194.284547156918
 20
14.95959336566082
 10
194.3607225760839
 20
14.89856693195442
 10
194.4492171072759
 20
14.83515804544762
 10
194.5389930233111
 20
14.7752563421956
 10
194.5883817636046
 20
14.72102154849211
 10
194.6745708157382
 20
14.69286240541833
 10
194.6411260674229
 20
14.65713309652812
 10
194.6214671166311
 20
14.62550387991907
 10
194.5919888217882
 20
14.5847587279607
 10
194.5688989446031
 20
14.55504663489644
 10
194.5380205968357
 20
14.50211422668495
 10
194.4729193365741
 20
14.62740334938903
 10
194.3796000122416
 20
14.68213900233936
 10
194.2950636285139
 20
14.73916423939341
 10
194.1722498125742
 20
14.89675287427522
 10
194.1764450847302
 20
14.82035806766836
 10
194.1751478652679
 20
14.77361280161296
 10
194.1758126448077
 20
14.69584785812601
 10
194.1755549986958
 20
14.59902068324423
 10
194.1756431239922
 20
14.48650279078809
 10
194.1756077302281
 20
14.365240859457
 10
194.1756511758281
 20
14.24086897858962
 10
194.1755199942405
 20
14.11967683631336
 10
194.1759477562047
 20
14.00691148919744
 10
194.174667820231
 20
13.91082913768745
 10
194.1779759851044
 20
13.83113826468701
 10
194.1715197740088
 20
13.78815175788785
 10
194.1806208705556
 20
13.74955432372043
 10
194.1447910339936
 20
13.75810887724072
 10
194.1115223815252
 20
13.75342519985447
 10
194.0604562576041
 20
13.75351298759785
 10
194.0269723972813
 20
13.75794430283822
 10
193.9907585408754
 20
13.7496079384251
 10
194.0009782568665
 20
13.79145277179285
 10
193.9936487887774
 20
13.83778560820175
 10
193.9973633136102
 20
13.92374831106015
 10
193.9959480554896
 20
14.0260514270485
 10
193.9964105554638
 20
14.14453223931513
 10
193.9962773686231
 20
14.26957683153357
 10
193.9963015910045
 20
14.39475828107051
 10
193.9963354925551
 20
14.51286645379059
 10
193.9962060293132
 20
14.61628748709517
 10
193.9965507549081
 20
14.69932036153667
 10
193.9958698278689
 20
14.75143368521244
 10
193.9994586600625
 20
14.87912907821362
 10
193.7826171386436
 20
14.58048716819621
 10
193.602135492195
 20
14.35263981511514
 10
193.5490322295612
 20
14.49373443289814
 10
193.520042913315
 20
14.54325767560947
 10
193.4196648062819
 20
14.64641779790101
 10
193.7405127723262
 20
14.72695035023784
 10
193.8689897005429
 20
14.91066283036434
 10
194.0906454325361
 20
15.11931995771759
 10
194.1770224894068
 20
15.29339211228347
 10
194.4549394229074
 20
15.56967051342513
 10
194.3346247839284
 20
15.56534559551115
 10
194.2863197351348
 20
15.56614856202554
 10
194.2102377454905
 20
15.56574582146585
 10
194.116701000975
 20
15.56590275611611
 10
194.0117594788557
 20
15.56582502576224
 10
193.9033887738717
 20
15.56595464378556
 10
193.7981454235897
 20
15.56554393490692
 10
193.7056237819412
 20
15.56682073671592
 10
193.6268130800707
 20
15.5634076653485
 10
193.5839674565379
 20
15.57023350036322
 10
193.5449499586516
 20
15.56065064201124
 10
193.5526365271863
 20
15.59420779565544
 10
193.5485464404312
 20
15.62523550322234
 10
193.5485531368814
 20
15.67236529270901
 10
193.5526239724911
 20
15.70340941646779
 10
193.5449495574583
 20
15.73701861635902
 10
193.5834819405494
 20
15.72748410420873
 10
193.624122801448
 20
15.73397435498072
 10
193.6951471850463
 20
15.73100150650255
 10
193.7729318149633
 20
15.73174761399158
 10
193.8507292246474
 20
15.73247814044526
 10
193.9217232089908
 20
15.72954235514161
 10
193.9624279791819
 20
15.73595468772953
 10
194.0009853489909
 20
15.72650524176004
 10
193.9927342754928
 20
15.76264692158786
 10
193.9982346669358
 20
15.80129837613228
 10
193.9955754206163
 20
15.86913528561839
 10
193.9965815471532
 20
15.9459164153874
 10
193.996017801832
 20
16.02849393582758
 10
193.9970714526593
 20
16.10517329229878
 10
193.994267586313
 20
16.173319907767
 10
194.0000702721304
 20
16.21132399809346
 10
193.9915654551158
 20
16.24758448077646
 10
194.0255610233125
 20
16.23755723771853
 10
194.05945756831
 20
16.24073266813706
 10
194.1126669060346
 20
16.2350896564061
 10
194.1660768574483
 20
16.23434774436425
 10
194.199591464949
 20
16.22819223482979
 10
194.2388086183038
 20
16.23346029773593
 10
194.2120263698493
 20
16.19253380793488
 10
194.1708111001725
 20
16.20371204538111
 10
194.1782641540874
 20
16.15867056192123
 10
194.1742227952185
 20
16.11412278028145
 10
194.1761714049641
 20
16.04223572621703
 10
194.1752364849759
 20
15.96168630588771
 10
194.176510719003
 20
15.88173995404995
 10
194.1732043793864
 20
15.80841837083183
 10
194.1802106179962
 20
15.7668864300257
 10
194.1701440380126
 20
15.72752418568113
 10
194.2029814803922
 20
15.73468063430982
 10
194.2364577296481
 20
15.73027243137945
 10
194.2915053476019
 20
15.73217943347898
 10
194.3489502595316
 20
15.7318536640729
 10
194.402302624831
 20
15.73106308733083
 10
194.4398540896639
 20
15.73313959118075
 10
194.4623172523237
 20
15.7302233816711
 10
194.4751678073731
 20
15.73572552644056
 10
194.4858255685889
 20
15.73801118197791
 10
194.4986635650143
 20
15.74494972588052
 10
194.5145991033071
 20
15.72853046313672
 10
194.5410623920891
 20
15.71709122319449
 10
194.5726805253757
 20
15.6964468783519
 10
194.5987255892151
 20
15.68116869628295
 10
194.6128517723973
 20
15.67266976323184
 10
194.6170254148479
 20
15.67015871511028
 97
        1
330
A8
 75
     1
 76
     2
 52
45.0
 41
0.1
 77
     0
 78
     1
 53
45.0
 43
0.0
 44
0.0
 45
-0.282842712474619
 46
0.0
 79
     0
 98
        1
 10
0.0
 20
0.0
  0
HATCH
  5
C6
330
48
100
AcDbEntity
  8
1
  6
Continuous
 62
     2
100
AcDbHatch
 10
0.0
 20
0.0
 30
0.0
210
0.0
220
0.0
230
1.0
  2
CUSTOM4
 70
     0
 71
     1
 91
        1
 92
        1
 93
        1
 72
     4
 94
        3
 73
     0
 74
     0
 95
       91
 96
       87
 40
0.0
 40
0.0
 40
0.0
 40
0.0
 40
0.0267532254356701
 40
0.0856103386464155
 40
0.1444674521996709
 40
0.1712206856618621
 40
0.2039416005642643
 40
0.2955601971652591
 40
0.4362601844617024
 40
0.6162252844507357
 40
0.8256392189704804
 40
1.054685709844421
 40
1.293548478893542
 40
1.532411247938314
 40
1.761457738799579
 40
1.970871673298547
 40
2.150836773256743
 40
2.291536760495604
 40
2.383155356836711
 40
2.415876284101331
 40
2.442629517487977
 40
2.501486630949111
 40
2.560343744424261
 40
2.587096977826536
 40
2.617068194440964
 40
2.699247336756105
 40
2.822032643466446
 40
2.973822353257975
 40
3.143014704823417
 40
3.318007936879996
 40
3.487200288186858
 40
3.638989997548339
 40
3.761775303794894
 40
3.843954445753201
 40
3.873925662229897
 40
3.890812773500658
 40
3.907699884771864
 40
3.937960767857449
 40
3.980983618142425
 40
4.199085915228606
 40
4.439444339237397
 40
4.677588241261
 40
5.050698317837885
 40
5.448212454763243
 40
5.855291218044797
 40
6.138575438885504
 40
6.417434507584297
 40
6.444551104393955
 40
6.504207617363229
 40
6.563864130314554
 40
6.590980727104121
 40
6.848609460381525
 40
7.109611990668502
 40
7.352910904446186
 40
7.557830220705557
 40
7.587518925913474
 40
7.652834077375916
 40
7.718149228845899
 40
7.747837934062201
 40
7.854880190301157
 40
7.976511257403702
 40
8.369487896592446
 40
8.757514959223768
 40
9.12607241933123
 40
9.46063938039235
 40
9.746695593036176
 40
9.777569943118909
 40
9.807050320931978
 40
9.8303773361291
 40
9.886003295436183
 40
9.952395569430077
 40
10.00802152870643
 40
10.03134854388235
 40
10.21356951009605
 40
10.42203479292891
 40
10.6615455673108
 40
10.91693789564322
 40
11.15832906556583
 40
11.18982674596641
 40
11.27286608520425
 40
11.39026653033373
 40
11.52484752840909
 40
11.65942852648468
 40
11.7768289716151
 40
11.85986831085709
 40
11.89136598230454
 40
11.89136598230454
 40
11.89136598230454
 40
11.89136598230454
 10
190.7027885008196
 20
14.70699600701772
 10
190.7028237765288
 20
14.71587847311985
 10
190.7029366710796
 20
14.74430237047347
 10
190.7012984568489
 20
14.79409639169803
 10
190.7069750292911
 20
14.83657564478155
 10
190.6956928731706
 20
14.88730154856848
 10
190.7632296979031
 20
14.87012900740109
 10
190.83880292107
 20
14.88290227165997
 10
190.9828357056
 20
14.87629729457383
 10
191.1569419185427
 20
14.87888462206467
 10
191.3639599611003
 20
14.87800591955554
 10
191.5894688172378
 20
14.87828207920028
 10
191.8251162293406
 20
14.87818339658663
 10
192.0607640531348
 20
14.87828184412768
 10
192.2862717580626
 20
14.8780067819079
 10
192.4932934632805
 20
14.87888186270736
 10
192.6673888915288
 20
14.87630522678447
 10
192.8114492071986
 20
14.88288290449214
 10
192.8869691915293
 20
14.87016243405605
 10
192.954577603703
 20
14.88726400191687
 10
192.9430840140676
 20
14.83674785802941
 10
192.9505104581733
 20
14.79253252226502
 10
192.9428838927986
 20
14.7486796650361
 10
192.9546489459425
 20
14.69878374479327
 10
192.8930788491983
 20
14.71393227712512
 10
192.8256791738671
 20
14.70310665350673
 10
192.7013004056221
 20
14.70852031626236
 10
192.555442823657
 20
14.70649205390784
 10
192.3893576440086
 20
14.70715777578387
 10
192.2188412621724
 20
14.70689643521241
 10
192.0519790855388
 20
14.70721553391094
 10
191.9087346827105
 20
14.70635302590763
 10
191.7773313869832
 20
14.70863300482987
 10
191.7239859134655
 20
14.70407704374203
 10
191.6485188456911
 20
14.70999914992876
 10
191.6769075779232
 20
14.70094169343353
 10
191.7033652409542
 20
14.6972591226893
 10
191.6633522907702
 20
14.66654271968275
 10
191.5713663691869
 20
14.67667591174632
 10
191.5439396207069
 20
14.43032502247786
 10
191.4478793967234
 20
14.27499558764378
 10
191.1917277964475
 20
13.94525417931566
 10
191.7627537732763
 20
14.08430022210453
 10
192.0173656320516
 20
14.08291779973363
 10
192.6279647048619
 20
13.99790569242087
 10
192.3340698578083
 20
14.29685417558202
 10
192.013330428652
 20
14.44330856901777
 10
192.1313543360433
 20
14.50025540818288
 10
192.1724716466262
 20
14.52420099873348
 10
192.2156812394412
 20
14.5459975881123
 10
192.3174574094449
 20
14.60928721253905
 10
192.4328867625248
 20
14.35147151408779
 10
192.6329591642278
 20
14.21616041113683
 10
192.7269077387228
 20
14.03792795138882
 10
192.9558829746395
 20
13.87997821027049
 10
192.8596031846708
 20
13.82915972576299
 10
192.816795976378
 20
13.79881292523054
 10
192.771824352878
 20
13.77466130281461
 10
192.7121720925213
 20
13.72552146747569
 10
192.6789731061325
 20
13.8599747567361
 10
192.5582013350795
 20
14.0159426528658
 10
192.1970976005979
 20
13.88569928059557
 10
191.8385061955541
 20
13.90224694409483
 10
191.457092045008
 20
13.89331229351868
 10
191.1703455282893
 20
13.828826716724
 10
190.859205559971
 20
13.94230668192842
 10
190.8268737818788
 20
13.83122259927767
 10
190.7896178253317
 20
13.81196313850014
 10
190.7865737632754
 20
13.85874784087299
 10
190.7679892860607
 20
13.89806853919133
 10
190.7512436616779
 20
13.95765983478234
 10
190.7383730915753
 20
14.00201969871283
 10
190.704232780643
 20
14.09106331120203
 10
190.9482714457754
 20
14.02181042943769
 10
191.1441394486673
 20
14.00030369057743
 10
191.2395426381277
 20
14.28226484478465
 10
191.2945135769598
 20
14.44363045421122
 10
191.5159619357156
 20
14.71391177589737
 10
191.3849239381217
 20
14.70548446853735
 10
191.3110026555854
 20
14.70779008496969
 10
191.1977459876244
 20
14.70671378321659
 10
191.0694251807485
 20
14.70707639076509
 10
190.9404252030415
 20
14.70697724466086
 10
190.8287840946292
 20
14.70699932712572
 10
190.7514663970025
 20
14.7069957918967
 10
190.713287653201
 20
14.70699595845081
 10
190.7027885008196
 20
14.70699600701772
 97
        1
330
A9
 75
     1
 76
     2
 52
45.0
 41
0.1
 77
     0
 78
     1
 53
45.0
 43
0.0
 44
0.0
 45
-0.282842712474619
 46
0.0
 79
     0
 98
        1
 10
0.0
 20
0.0
  0
HATCH
  5
C7
330
48
100
AcDbEntity
  8
1
  6
Continuous
 62
     2
100
AcDbHatch
 10
0.0
 20
0.0
 30
0.0
210
0.0
220
0.0
230
1.0
  2
CUSTOM5
 70
     0
 71
     1
 91
        1
 92
        1
 93
        1
 72
     4
 94
        3
 73
     0
 74
     0
 95
       35
 96
       31
 40
0.0
 40
0.0
 40
0.0
 40
0.0
 40
0.0335231036620288
 40
0.0713218571712221
 40
0.4278866681487385
 40
0.8116865841964622
 40
1.198190238000143
 40
1.56137954681277
 40
1.659983174622143
 40
1.759315573807237
 40
2.132719617231124
 40
2.5252333635889
 40
2.910815397779808
 40
3.265244364303394
 40
3.592606723582097
 40
3.964386154604044
 40
4.359942131737888
 40
4.75815411863942
 40
4.8438465387
 40
4.936650065543303
 40
5.256616602537382
 40
5.581707404416092
 40
5.89971915830823
 40
6.198363494280797
 40
6.46630104661586
 40
6.493895311537125
 40
6.559697020196918
 40
6.638234543442408
 40
6.704036252154133
 40
6.73163050842291
 40
6.73163050842291
 40
6.73163050842291
 40
6.73163050842291
 10
191.9736010568668
 20
16.23463843719134
 10
191.9676006097788
 20
16.22480690542323
 10
191.9548344099156
 20
16.20388988579795
 10
191.7949362006553
 20
16.17127126532703
 10
192.2322025842336
 20
15.88206680336696
 10
192.4345394828262
 20
15.6804113835844
 10
192.6819564267972
 20
15.43749387603277
 10
193.1831513624607
 20
15.36047662757777
 10
193.012556219897
 20
15.21876939174658
 10
192.9383299463204
 20
15.01710366209103
 10
192.6131432248187
 20
15.3695628717473
 10
192.3277741670665
 20
15.53175212559563
 10
192.0337604077658
 20
15.73687130053047
 10
191.8084452691134
 20
16.21827488595455
 10
191.5993085055522
 20
15.75343046609221
 10
191.3207873674835
 20
15.54350952252911
 10
191.0371383177208
 20
15.37424456359987
 10
190.7078639527832
 20
15.00142360907934
 10
190.6277012318224
 20
15.19708014459002
 10
190.4759724909746
 20
15.32491104190598
 10
190.9083395826794
 20
15.40454031765933
 10
191.0962565329767
 20
15.60026634915477
 10
191.3468477420504
 20
15.81632996916752
 10
191.5714350470161
 20
15.98190992300061
 10
191.6259775409714
 20
16.26133964636828
 10
191.7494661029012
 20
16.24737950408078
 10
191.8060273344521
 20
16.24521268867647
 10
191.8761870984944
 20
16.2404685988136
 10
191.9333414022105
 20
16.23709429350541
 10
191.9644190320838
 20
16.23519854711119
 10
191.9736010568668
 20
16.23463843719134
 97
        1
330
AA
 75
     1
 76
     2
 52
45.0
 41
0.1
 77
     0
 78
     1
 53
45.0
 43
0.0
 44
0.0
 45
-0.282842712474619
 46
0.0
 79
     0
 98
        1
 10
0.0
 20
0.0
  0
HATCH
  5
C8
330
48
100
AcDbEntity
  8
1
  6
Continuous
 62
     2
100
AcDbHatch
 10
0.0
 20
0.0
 30
0.0
210
0.0
220
0.0
230
1.0
  2
CUSTOM6
 70
     0
 71
     1
 91
        1
 92
        1
 93
        1
 72
     4
 94
        3
 73
     0
 74
     0
 95
       15
 96
       11
 40
0.0
 40
0.0
 40
0.0
 40
0.0
 40
0.2785535985096117
 40
0.5215624748198209
 40
0.6076917376039844
 40
0.6938210001740579
 40
0.9405019146454618
 40
1.221691403488983
 40
1.300471877080878
 40
1.379252341684643
 40
1.379252341684643
 40
1.379252341684643
 40
1.379252341684643
 10
189.5681493631
 20
16.22930267330381
 10
189.6296017794179
 20
16.17691646592716
 10
189.7446649974113
 20
16.07882876798221
 10
190.0397348497243
 20
15.92889785897222
 10
189.9025147631857
 20
15.84343227515014
 10
189.8041227843778
 20
15.71085785201555
 10
189.7130033590649
 20
16.01616985781412
 10
189.3636839480657
 20
16.07967869465377
 10
189.511925837657
 20
16.17896509880878
 10
189.5494081874237
 20
16.21252348402383
 10
189.5681493631
 20
16.22930267330381
 97
        1
330
AB
 75
     1
 76
     2
 52
45.0
 41
0.1
 77
     0
 78
     1
 53
45.0
 43
0.0
 44
0.0
 45
-0.282842712474619
 46
0.0
 79
     0
 98
        1
 10
0.0
 20
0.0
  0
HATCH
  5
C9
330
48
100
AcDbEntity
  8
1
  6
Continuous
 62
     2
100
AcDbHatch
 10
0.0
 20
0.0
 30
0.0
210
0.0
220
0.0
230
1.0
  2
CUSTOM7
 70
     0
 71
     1
 91
        1
 92
        1
 93
        1
 72
     4
 94
        3
 73
     0
 74
     0
 95
       75
 96
       71
 40
0.0
 40
0.0
 40
0.0
 40
0.0
 40
0.0342546099129691
 40
0.1245622414432346
 40
0.2522385480897518
 40
0.398599192294068
 40
0.5449598364980821
 40
0.6726361431438816
 40
0.762943774673696
 40
0.7971983935297973
 40
1.101723623449661
 40
1.408591244036665
 40
1.433332471690371
 40
1.487763172450169
 40
1.542193873081996
 40
1.566935100592546
 40
1.923523931821858
 40
2.27175570495363
 40
2.590579755100844
 40
2.858943305581075
 40
2.889120339309112
 40
2.918305855191036
 40
2.941366645531159
 40
2.996357760973063
 40
3.061992318140631
 40
3.116983433626831
 40
3.14004422399751
 40
3.411273122936457
 40
3.73244161974101
 40
3.761068217532708
 40
3.837787499630274
 40
3.94885869912591
 40
4.080541049104289
 40
4.219093782625675
 40
4.350776132722228
 40
4.461847332405561
 40
4.538566614678295
 40
4.567193212544543
 40
4.594907573998801
 40
4.66638145355734
 40
4.764111044010894
 40
4.87059253812564
 40
4.968322128642063
 40
5.039796008286748
 40
5.067510369784179
 40
5.094263603185391
 40
5.153120716668024
 40
5.211977830150467
 40
5.238731063551471
 40
5.272290535138739
 40
5.363380529444543
 40
5.49761841578122
 40
5.660621563453462
 40
5.838007341749163
 40
6.015393119910486
 40
6.178396267038083
 40
6.312634151842035
 40
6.403724143059025
 40
6.43728361267212
 40
6.464036846260736
 40
6.52289396000435
 40
6.581751071483609
 40
6.608504301590555
 40
6.637253941280703
 40
6.711397748902554
 40
6.812778057283166
 40
6.923237199248943
 40
7.024617507623587
 40
7.09876131520724
 40
7.12751094600719
 40
7.12751094600719
 40
7.12751094600719
 40
7.12751094600719
 10
188.4418622390564
 20
14.95849128473265
 10
188.4418622819707
 20
14.9470731340872
 10
188.4418624481129
 20
14.9055525784263
 10
188.4418593081786
 20
14.82146922003772
 10
188.44187882798
 20
14.70004497322329
 10
188.4417912187737
 20
14.55980494047449
 10
188.442111623523
 20
14.42006556794577
 10
188.441160590974
 20
14.2974503889493
 10
188.4431978595968
 20
14.21587074438044
 10
188.4349433178745
 20
14.06271267077699
 10
188.7430797940902
 20
14.22560236054721
 10
189.0350645173735
 20
14.39482938688004
 10
189.0408354448708
 20
14.25973235781912
 10
189.0455471719891
 20
14.21617221160445
 10
189.0482535411918
 20
14.17211249350546
 10
189.0672545672957
 20
14.02272590363133
 10
188.6583942247303
 20
14.08681172241263
 10
188.3793710348832
 20
13.97296341411017
 10
188.1018081587166
 20
13.87364095811146
 10
187.8099837184402
 20
13.91630687596351
 10
187.7869144678658
 20
13.81321679744543
 10
187.7537474383333
 20
13.78691091244469
 10
187.748065396274
 20
13.83455309036306
 10
187.7284214559044
 20
13.87180336115069
 10
187.7095089485624
 20
13.93007387847564
 10
187.6942849867707
 20
13.97385201007806
 10
187.6477246372936
 20
14.08759421046313
 10
187.989089731245
 20
14.05576301120047
 10
188.2679649367386
 20
14.02161435106481
 10
188.2617753034906
 20
14.16913976479653
 10
188.2630935452772
 20
14.24013150908832
 10
188.2624831689947
 20
14.34719767958661
 10
188.2625871570724
 20
14.47398529785998
 10
188.2629987964055
 20
14.6084924349605
 10
188.2613907841967
 20
14.73395549951185
 10
188.2659902567924
 20
14.84505246719118
 10
188.2564186502209
 20
14.90761886800689
 10
188.270400178369
 20
14.96595388295002
 10
188.2147384386703
 20
14.95289710582238
 10
188.1575655197821
 20
14.961363077495
 10
188.0616048925647
 20
14.95729976080637
 10
187.9633767522821
 20
14.95970889852475
 10
187.8672582457561
 20
14.95551600613389
 10
187.8104648525812
 20
14.96429346441164
 10
187.7550356873385
 20
14.95094936850123
 10
187.7670679427918
 20
15.00036910959257
 10
187.7592003173938
 20
15.04393988030396
 10
187.766629556383
 20
15.08830469118526
 10
187.7551930564144
 20
15.13902297763992
 10
187.8232102370134
 20
15.12162460757743
 10
187.8968496879747
 20
15.13417450237189
 10
188.0325064058211
 20
15.12799677011097
 10
188.1884909024526
 20
15.13029203093084
 10
188.3615926358144
 20
15.1294096826253
 10
188.5346942964181
 20
15.13029207142408
 10
188.6906789811217
 20
15.1279966295555
 10
188.8263351889797
 20
15.13417486262432
 10
188.8999756705652
 20
15.12162394218334
 10
188.9679914174724
 20
15.13902373012142
 10
188.9565590885922
 20
15.08830130414555
 10
188.9639539458297
 20
15.04397060811109
 10
188.956203991227
 20
15.00028307550197
 10
188.9681203741877
 20
14.95063590098477
 10
188.9108170223616
 20
14.96461411338426
 10
188.8520145789773
 20
14.95539755673255
 10
188.7525293633199
 20
14.9595226816493
 10
188.649428009835
 20
14.95822760025889
 10
188.5537846354573
 20
14.95854077077641
 10
188.4857467971617
 20
14.95848776697146
 10
188.4514462213443
 20
14.95849051871657
 10
188.4418622390564
 20
14.95849128473265
 97
        1
330
AC
 75
     1
 76
     2
 52
45.0
 41
0.1
 77
     0
 78
     1
 53
45.0
 43
0.0
 44
0.0
 45
-0.282842712474619
 46
0.0
 79
     0
 98
        1
 10
0.0
 20
0.0
  0
HATCH
  5
CA
330
48
100
AcDbEntity
  8
1
  6
Continuous
 62
     2
100
AcDbHatch
 10
0.0
 20
0.0
 30
0.0
210
0.0
220
0.0
230
1.0
  2
CUSTOM8
 70
     0
 71
     1
 91
        1
 92
        1
 93
        1
 72
     4
 94
        3
 73
     0
 74
     0
 95
       91
 96
       87
 40
0.0
 40
0.0
 40
0.0
 40
0.0
 40
0.0345987051695718
 40
0.1258134969461085
 40
0.2547723404888703
 40
0.4026032099153556
 40
0.550434079341642
 40
0.6793929228835227
 40
0.7706077146570467
 40
0.8052064287780072
 40
1.124852390615189
 40
1.427402236308783
 40
1.706356627453425
 40
1.955541417875104
 40
2.16948593856625
 40
2.34435078666472
 40
2.48056841156187
 40
2.590440557428865
 40
2.649189927151019
 40
2.749320643306254
 40
2.912632739879955
 40
3.147745656000156
 40
3.244827496384952
 40
3.338490056946542
 40
3.583815413206976
 40
3.761423943238335
 40
3.886956104362498
 40
3.985855451886636
 40
4.091766255337464
 40
4.250186473811684
 40
4.422734315084352
 40
4.628285684838462
 40
4.872093227758306
 40
5.152549652145417
 40
5.464967135837394
 40
5.803201477852308
 40
6.160362988813782
 40
6.193449448275866
 40
6.28417038550152
 40
6.41971813876439
 40
6.587285046385668
 40
6.774063446723554
 40
6.967245678113537
 40
7.15402407881758
 40
7.321590987025937
 40
7.457138740890295
 40
7.54785967855606
 40
7.58094613818262
 40
7.608533084714672
 40
7.669224367077648
 40
7.729915649429865
 40
7.757502595949916
 40
7.790278062553369
 40
7.880146277430867
 40
8.01441996318033
 40
8.180411842397831
 40
8.3654346376793
 40
8.556801071622601
 40
8.741823866830714
 40
8.907815745916224
 40
9.042089431507378
 40
9.131957646249504
 40
9.16473311279708
 40
9.41542506314
 40
9.667986180958467
 40
9.694169807462606
 40
9.756607686047621
 40
9.831130315322513
 40
9.893568193900006
 40
9.91975182039885
 40
9.950967964690681
 40
9.996421631210794
 40
10.22087981037468
 40
10.44341866197556
 40
10.47847970788868
 40
10.57091337438769
 40
10.70159545461243
 40
10.85140174170374
 40
11.00120802880491
 40
11.13189010907396
 40
11.22432377583024
 40
11.2593848093897
 40
11.28697175596159
 40
11.34766303835933
 40
11.40835432042083
 40
11.43594125892118
 40
11.43594125892118
 40
11.43594125892118
 40
11.43594125892118
 10
190.0818114333289
 20
15.55242795125078
 10
190.070278584494
 20
15.55242790287916
 10
190.0283409444999
 20
15.55242773704165
 10
189.9434129719025
 20
15.5524312580091
 10
189.8207688553129
 20
15.55240926435879
 10
189.6791206916993
 20
15.55250801177055
 10
189.537975369849
 20
15.55214686232421
 10
189.4141351317905
 20
15.5532188360909
 10
189.3317217825382
 20
15.55092249091269
 10
189.1727791229694
 20
15.5604856937342
 10
189.3503402353375
 20
15.1978539431137
 10
189.3379739205453
 20
14.95243127723115
 10
189.4064519473865
 20
14.66862501324836
 10
189.4693024320969
 20
14.43250999939035
 10
189.5452253431729
 20
14.23326740396129
 10
189.6303189577015
 20
14.07745347451374
 10
189.7244607592936
 20
13.97657857781394
 10
189.8282648207727
 20
13.92465852638965
 10
189.9125872030774
 20
13.97606484379618
 10
189.9351322179452
 20
14.09144544037515
 10
189.9745730975371
 20
14.2188514970238
 10
189.9202919734943
 20
14.53622328086757
 10
190.0451218072474
 20
14.38982180140904
 10
190.2019291513603
 20
14.35795300331173
 10
190.0947720007057
 20
14.12421357767629
 10
190.0808711209867
 20
13.95972776583656
 10
190.0234709467226
 20
13.83130869122484
 10
189.9335020145009
 20
13.76018802352827
 10
189.8095274657878
 20
13.74432324142254
 10
189.6634273196861
 20
13.77993797554171
 10
189.5243894320284
 20
13.90000570500277
 10
189.4102003962145
 20
14.0743568255032
 10
189.3146141301486
 20
14.2994660311124
 10
189.2318652572627
 20
14.56388246006442
 10
189.1807179256412
 20
14.88187933098544
 10
189.0770189207339
 20
15.15543728488913
 10
189.2042841208522
 20
15.56005818612869
 10
189.0357890623019
 20
15.55112367849679
 10
188.9511995787078
 20
15.55315961418364
 10
188.8189876387628
 20
15.55213937388407
 10
188.6560505094103
 20
15.5525323031843
 10
188.4733759170534
 20
15.5523569631337
 10
188.2847057373382
 20
15.55260105307468
 10
188.1014469020189
 20
15.55185657906238
 10
187.9404746832718
 20
15.55416360522426
 10
187.8029808335275
 20
15.54799804883663
 10
187.7289590372311
 20
15.56032838458212
 10
187.6613215186856
 20
15.54329323723557
 10
187.6732373719269
 20
15.59524438447528
 10
187.6655677285694
 20
15.64071424966529
 10
187.6732592225115
 20
15.68614453703706
 10
187.6613141797762
 20
15.7380239598457
 10
187.7283588305867
 20
15.72119143490264
 10
187.8017375665677
 20
15.73335409092671
 10
187.9379128305271
 20
15.72727231074958
 10
188.0973811801513
 20
15.72954834315058
 10
188.2789173085836
 20
15.72881233998961
 10
188.4658034862179
 20
15.72905954196134
 10
188.6468012316836
 20
15.72886400799253
 10
188.8080802578878
 20
15.72932234714839
 10
188.9393882124887
 20
15.72812673751206
 10
189.0225051322596
 20
15.73051347319742
 10
189.1556236547814
 20
15.72230605725464
 10
189.0645893502659
 20
15.97752868952654
 10
188.9789633074418
 20
16.24164358328247
 10
189.0990589003454
 20
16.22904442969164
 10
189.1514264948543
 20
16.22694235763076
 10
189.2214497569716
 20
16.22535399889657
 10
189.2671922337817
 20
16.21602567538112
 10
189.3220812646934
 20
16.22545966915427
 10
189.2963574785682
 20
16.17733028655173
 10
189.1825397571454
 20
16.18266829744166
 10
189.3159346621136
 20
15.95449174576777
 10
189.194365873547
 20
15.72156856595923
 10
189.3223188769413
 20
15.73087258884438
 10
189.4049048406461
 20
15.7280100175468
 10
189.5307214850824
 20
15.72923437412302
 10
189.6741469838057
 20
15.72932431888965
 10
189.8157420951728
 20
15.72746163183853
 10
189.9459127249967
 20
15.73333075937163
 10
190.0193452286191
 20
15.72070340823204
 10
190.0891112922096
 20
15.73877563110412
 10
190.0775772605396
 20
15.68612850546326
 10
190.0833184346682
 20
15.64221317686548
 10
190.0816615770911
 20
15.5908998267655
 10
190.081775756167
 20
15.56158792021635
 10
190.0818114333289
 20
15.55242795125078
 97
        1
330
AD
 75
     1
 76
     2
 52
45.0
 41
0.1
 77
     0
 78
     1
 53
45.0
 43
0.0
 44
0.0
 45
-0.282842712474619
 46
0.0
 79
     0
 98
        1
 10
0.0
 20
0.0
  0
HATCH
  5
CB
330
48
100
AcDbEntity
  8
1
  6
Continuous
 62
     2
100
AcDbHatch
 10
0.0
 20
0.0
 30
0.0
210
0.0
220
0.0
230
1.0
  2
CUSTOM9
 70
     0
 71
     1
 91
        1
 92
        1
 93
        1
 72
     4
 94
        3
 73
     0
 74
     0
 95
      118
 96
      114
 40
0.0
 40
0.0
 40
0.0
 40
0.0
 40
0.1054708162973078
 40
0.2466098270051592
 40
0.396591287459078
 40
0.5285525069753536
 40
0.6156245055641603
 40
0.6431434105796747
 40
0.7036850037985283
 40
0.7642265984503344
 40
0.7917455052353648
 40
0.9287404319989069
 40
1.106572819087945
 40
1.287544879680916
 40
1.317578308030435
 40
1.399928030857072
 40
1.522968204799848
 40
1.675072986590471
 40
1.844616533180548
 40
2.019973001638614
 40
2.189516548879928
 40
2.341621331585267
 40
2.464661506320406
 40
2.54701122964697
 40
2.577044658167934
 40
2.603797890893005
 40
2.66265500290872
 40
2.721512114949561
 40
2.748265347702712
 40
2.774215307344789
 40
2.845959313407119
 40
2.954338556588319
 40
3.090194227585498
 40
3.244367517100463
 40
3.407699615844224
 40
3.571031714539374
 40
3.72520500392005
 40
3.861060674729553
 40
3.969439917716245
 40
4.04118392362892
 40
4.067133883212914
 40
4.311886746012134
 40
4.547897258335502
 40
4.764747083043957
 40
4.952749679951745
 40
5.045772974195843
 40
5.137862019644912
 40
5.330543169792946
 40
5.553448265243939
 40
5.795083855888098
 40
6.043293412177164
 40
6.285761695541122
 40
6.313902908752634
 40
6.384255941793223
 40
6.475714884766812
 40
6.567173827758903
 40
6.637526860839709
 40
6.665668074074072
 40
6.692018920328045
 40
6.74999078207111
 40
6.807962643790478
 40
6.834313490017949
 40
6.856393084245227
 40
6.913335195649851
 40
6.991194817302543
 40
7.076026942283833
 40
7.153886563725352
 40
7.210828674844906
 40
7.232908268931269
 40
7.25819933492379
 40
7.32487578159244
 40
7.419142481925097
 40
7.527204308842037
 40
7.635266135230615
 40
7.729532834168601
 40
7.796209279292923
 40
7.821500344594869
 40
7.84465298885094
 40
7.899863140541662
 40
7.965759128053743
 40
8.020969279770998
 40
8.044121924046436
 40
8.069356610160451
 40
8.109134395441142
 40
8.132238100190854
 40
8.19314786778622
 40
8.279261678876392
 40
8.377977512673606
 40
8.476693347146389
 40
8.562807160411444
 40
8.62371693082623
 40
8.646820636853182
 40
8.671988793773995
 40
8.734909185827878
 40
8.816705695188592
 40
8.898502204815163
 40
8.961422597377624
 40
8.986590754550736
 40
9.012941600732889
 40
9.070913462379972
 40
9.12888532408146
 40
9.155236170324782
 40
9.180404327928825
 40
9.243324721947898
 40
9.325121234211663
 40
9.406917746637317
 40
9.469838141977773
 40
9.495006288270547
 40
9.517811184378688
 40
9.572192090486688
 40
9.63709833328092
 40
9.691479239515118
 40
9.714284125643157
 40
9.714284125643157
 40
9.714284125643157
 40
9.714284125643157
 10
185.2874469028654
 20
15.2688916318772
 10
185.3090990569039
 20
15.24111869242812
 10
185.3597257109474
 20
15.17618054561234
 10
185.4349383202592
 20
15.06891060312899
 10
185.5248482274346
 20
14.95377438266624
 10
185.5709169676674
 20
14.8535704574832
 10
185.6655825294654
 20
14.78434006814944
 10
185.6204439320413
 20
14.73771639678273
 10
185.5947047785791
 20
14.6966030886604
 10
185.5645196708012
 20
14.66065971727937
 10
185.5193684730563
 20
14.58579782596093
 10
185.4710504458562
 20
14.80782524253602
 10
185.3968539713073
 20
14.84510677337711
 10
185.2836047324607
 20
15.116102021306
 10
185.288513357817
 20
15.00095328446229
 10
185.2868486556306
 20
14.92836675781628
 10
185.2876830076715
 20
14.80625588483987
 10
185.2873609540265
 20
14.65913800810461
 10
185.2875076912457
 20
14.49307063956558
 10
185.2872950092724
 20
14.32187554608602
 10
185.2879497252034
 20
14.15552828635498
 10
185.285919246114
 20
14.00935173055693
 10
185.2913460399931
 20
13.88471047474611
 10
185.2804930868709
 20
13.81718656540626
 10
185.2956739155556
 20
13.75549061417022
 10
185.2457895108134
 20
13.76727503897002
 10
185.2017150342522
 20
13.75943822779969
 10
185.1582371630201
 20
13.76760441372703
 10
185.1092346786489
 20
13.75538056738469
 10
185.1218731234825
 20
13.80960667249313
 10
185.113018296845
 20
13.86936918907558
 10
185.1175058770314
 20
13.9792202904437
 10
185.1157960135992
 20
14.11029975405678
 10
185.1163550915987
 20
14.26198011444329
 10
185.1161928768695
 20
14.42211074929953
 10
185.1162269924675
 20
14.58236865674567
 10
185.1162514960127
 20
14.7337024752044
 10
185.1161453543227
 20
14.86582156338602
 10
185.1164299141931
 20
14.97294802533193
 10
185.1158675547568
 20
15.03808619579474
 10
185.1180765083689
 20
15.16618957858677
 10
185.0319435998603
 20
14.79097610391578
 10
184.9555140818499
 20
14.63918193123394
 10
184.8660040767834
 20
14.47766206446309
 10
184.7640413217326
 20
14.20471848820171
 10
184.7187976491039
 20
14.36717346596511
 10
184.6102355941671
 20
14.45605432058121
 10
184.7995791751754
 20
14.6054979496141
 10
184.85653405457
 20
14.79749136974925
 10
184.9717520993353
 20
15.02899622906757
 10
184.9940151630133
 20
15.21797259759065
 10
185.1771905152141
 20
15.49454089325931
 10
185.0538033597552
 20
15.48698978832095
 10
184.9925684166834
 20
15.48856772366119
 10
184.9081999617064
 20
15.48882592573674
 10
184.8204235085966
 20
15.48544845751206
 10
184.7656768696123
 20
15.49394814982022
 10
184.7104703026024
 20
15.48048561049788
 10
184.7222823035536
 20
15.52931442126764
 10
184.7142496151793
 20
15.57269004896709
 10
184.7228186104679
 20
15.61509438309573
 10
184.7102943409157
 20
15.66267796552118
 10
184.7555101538735
 20
15.65267212995109
 10
184.8014815562723
 20
15.65894105174061
 10
184.877722204771
 20
15.65593561405872
 10
184.9561296131994
 20
15.65770448278541
 10
185.0323992648933
 20
15.65464793981659
 10
185.0783009459475
 20
15.66103971376177
 10
185.1231733965401
 20
15.65093822978896
 10
185.1105552275634
 20
15.70157201581898
 10
185.1191936582707
 20
15.7550126188207
 10
185.1152361595444
 20
15.8486325513168
 10
185.1162325068335
 20
15.95112606688924
 10
185.1171927413074
 20
16.05353270248163
 10
185.1133211458006
 20
16.14735929609321
 10
185.1217789814365
 20
16.20036542840353
 10
185.1093075932836
 20
16.25211435651188
 10
185.1542106389851
 20
16.23850747226758
 10
185.1955083836772
 20
16.24100480320585
 10
185.259534428105
 20
16.23648060574488
 10
185.2986111148786
 20
16.22781003043308
 10
185.347654349874
 20
16.23515102070687
 10
185.3225080030591
 20
16.19602896051757
 10
185.2815901333724
 20
16.20563842455805
 10
185.2910109616604
 20
16.15540148169778
 10
185.2855647318747
 20
16.1038594563949
 10
185.2881699601805
 20
16.0195970758452
 10
185.2870102202155
 20
15.92559135583408
 10
185.2883591064232
 20
15.83196865395525
 10
185.2849970101508
 20
15.74679517552223
 10
185.292095991777
 20
15.69716856072044
 10
185.2812569154547
 20
15.64993694969989
 10
185.3304010225246
 20
15.66201674936851
 10
185.3794877630148
 20
15.65447393363012
 10
185.4573714280642
 20
15.65686070361432
 10
185.5350365172897
 20
15.65899381905415
 10
185.5845393931355
 20
15.65193391922455
 10
185.634459475064
 20
15.66360151936214
 10
185.6223198516881
 20
15.61540235371393
 10
185.6305838229144
 20
15.57249219801236
 10
185.6223198650783
 20
15.52958201851385
 10
185.6344594549855
 20
15.48138288754866
 10
185.5845395158746
 20
15.49305034471511
 10
185.5350350651204
 20
15.48599202435047
 10
185.4573784382974
 20
15.48811665228604
 10
185.3794643865762
 20
15.49053389365761
 10
185.3304500352717
 20
15.48291848194486
 10
185.2813246108944
 20
15.49507952557594
 10
185.2915559988571
 20
15.45073013424158
 10
185.2856677678055
 20
15.40925436202913
 10
185.287878830557
 20
15.34915394315304
 10
185.2874109346147
 20
15.3022578276289
 10
185.2874386992914
 20
15.27650146418197
 10
185.2874469028654
 20
15.2688916318772
 97
        1
330
AE
 75
     1
 76
     2
 52
45.0
 41
0.1
 77
     0
 78
     1
 53
45.0
 43
0.0
 44
0.0
 45
-0.282842712474619
 46
0.0
 79
     0
 98
        1
 10
0.0
 20
0.0
  0
HATCH
  5
CC
330
48
100
AcDbEntity
  8
1
  6
Continuous
 62
     2
100
AcDbHatch
 10
0.0
 20
0.0
 30
0.0
210
0.0
220
0.0
230
1.0
  2
CUSTOM10
 70
     0
 71
     1
 91
        1
 92
        1
 93
        1
 72
     4
 94
        3
 73
     0
 74
     0
 95
       47
 96
       43
 40
0.0
 40
0.0
 40
0.0
 40
0.0
 40
0.2207912809957112
 40
0.4459404186302887
 40
0.4902387190458539
 40
0.5327473892721769
 40
0.5742260451224248
 40
0.6155432630559541
 40
0.6568164066315028
 40
0.6982511618779389
 40
0.7407663929315611
 40
0.7851366743173109
 40
1.010288833836104
 40
1.231080507001946
 40
1.451765243652178
 40
1.67663820589147
 40
1.72046104535944
 40
1.830018144043305
 40
1.972442372352936
 40
2.114866600677305
 40
2.22442369939493
 40
2.268246538883171
 40
2.493628801206999
 40
2.715602830286402
 40
2.93421133070615
 40
3.149502369855135
 40
3.231387784850695
 40
3.318231873853731
 40
3.405143198197633
 40
3.486970301720041
 40
3.702258172493474
 40
3.920866283533698
 40
4.142839325931493
 40
4.368221903864953
 40
4.412044743359433
 40
4.521601842095448
 40
4.664026070451929
 40
4.806450298808636
 40
4.916007397546329
 40
4.959830237042652
 40
5.184703515846692
 40
5.405387250767072
 40
5.405387250767072
 40
5.405387250767072
 40
5.405387250767072
 10
182.6507427258645
 20
15.73406440953873
 10
182.6568139420003
 20
15.79758482501211
 10
182.6690762107243
 20
15.92587938689626
 10
182.5604706879412
 20
16.20166220174076
 10
182.6761985896605
 20
16.17188133432052
 10
182.7171842509016
 20
16.16765556262822
 10
182.7591205797518
 20
16.16310446389606
 10
182.8004196625711
 20
16.16201982929485
 10
182.8417032115555
 20
16.16310338195226
 10
182.8836148270648
 20
16.16766112711345
 10
182.9245983549019
 20
16.17187430209727
 10
183.0404922843488
 20
16.20177611317535
 10
182.9295652727457
 20
15.92339806609888
 10
182.9574856365267
 20
15.74283140824954
 10
182.9404267346969
 20
15.50961042346472
 10
182.9414637282102
 20
15.34906622543145
 10
182.9414099399405
 20
15.22284817558722
 10
182.9414277372481
 20
15.12428963336242
 10
182.941418858108
 20
14.99280702442962
 10
182.9414263928033
 20
14.86132844968649
 10
182.9414129405129
 20
14.76276222694091
 10
182.9414531717491
 20
14.63639735624152
 10
182.9406746403818
 20
14.4748206882287
 10
182.9565958319266
 20
14.24361821892914
 10
182.9333468885408
 20
14.05874351972003
 10
183.0360183444365
 20
13.78935602770058
 10
182.8820238362836
 20
13.82660112685818
 10
182.8004129802832
 20
13.82137994680535
 10
182.7188192292583
 20
13.82660620378351
 10
182.5648513666843
 20
13.78937069885388
 10
182.6674183421916
 20
14.05875129862881
 10
182.6442045316088
 20
14.24361585325415
 10
182.6600444655139
 20
14.47482218565639
 10
182.6593296313428
 20
14.63639712308503
 10
182.6593664569907
 20
14.76276231210521
 10
182.6593549000271
 20
14.86132756635981
 10
182.6593575019214
 20
14.9928112741722
 10
182.659364853178
 20
15.124275480312
 10
182.6593442541352
 20
15.22287786275325
 10
182.6594082192029
 20
15.34896149354428
 10
182.6581733947591
 20
15.51210091383771
 10
182.6532040396744
 20
15.6605418377755
 10
182.6507427258645
 20
15.73406440953873
 97
        1
330
AF
 75
     1
 76
     2
 52
45.0
 41
0.1
 77
     0
 78
     1
 53
45.0
 43
0.0
 44
0.0
 45
-0.282842712474619
 46
0.0
 79
     0
 98
        1
 10
0.0
 20
0.0
  0
HATCH
  5
CD
330
48
100
AcDbEntity
  8
1
  6
Continuous
 62
     2
100
AcDbHatch
 10
0.0
 20
0.0
 30
0.0
210
0.0
220
0.0
230
1.0
  2
CUSTOM11
 70
     0
 71
     1
 91
        1
 92
        1
 93
        1
 72
     4
 94
        3
 73
     0
 74
     0
 95
      110
 96
      106
 40
0.0
 40
0.0
 40
0.0
 40
0.0
 40
0.2203406257277755
 40
0.4407808782838053
 40
0.5952494494614463
 40
0.7488431659392182
 40
0.9023581831308451
 40
1.056801968670401
 40
1.210736449099873
 40
1.363041386539779
 40
1.515315729683065
 40
1.669377239147988
 40
1.721611652756467
 40
1.773199502942849
 40
1.824933793209893
 40
1.87711042648786
 40
1.982682281206538
 40
2.078781667087319
 40
2.172809640822154
 40
2.271937807378807
 40
2.378349933379172
 40
2.494131557736474
 40
2.626681683943494
 40
2.783145050795865
 40
2.890701232940719
 40
2.99313031245461
 40
3.0998697306916
 40
3.220237816691096
 40
3.352695482737382
 40
3.481732806389636
 40
3.593499473690165
 40
3.674323013331672
 40
3.817951711952622
 40
3.946167120793619
 40
4.061405053453333
 40
4.166480796002945
 40
4.262478775059097
 40
4.350736673551053
 40
4.433071991253882
 40
4.511216293814427
 40
4.564262454117746
 40
4.618474415571366
 40
4.670128488753972
 40
4.722296879126161
 40
4.819540945314031
 40
4.931194984127887
 40
5.049996040257501
 40
5.16864375541496
 40
5.283970811762257
 40
5.392260784910111
 40
5.486512254876158
 40
5.559178233949585
 40
5.591425852853251
 40
5.626215969637638
 40
5.667155838674174
 40
5.717449290213982
 40
5.738402360944597
 40
5.784499116553566
 40
5.830595872164539
 40
5.851548942897398
 40
5.873019280661512
 40
5.924217778408054
 40
5.985325662817428
 40
6.036524160567441
 40
6.05799449833397
 40
6.236847789607222
 40
6.381409928945392
 40
6.493190424178436
 40
6.574067534230245
 40
6.691018086205311
 40
6.814881554220257
 40
6.944307823240181
 40
7.071266716065749
 40
7.193488604461593
 40
7.30904277312782
 40
7.414007203170418
 40
7.505140441886201
 40
7.531150360599355
 40
7.559221645321946
 40
7.587202218920599
 40
7.612569159498806
 40
7.662550809480686
 40
7.702878875763814
 40
7.857328205230571
 40
8.010799568088359
 40
8.165256399657196
 40
8.322232698713563
 40
8.47956485501625
 40
8.635216230290453
 40
8.790882550925371
 40
8.948305154946851
 40
9.168271839032528
 40
9.387358980986809
 40
9.608047961033051
 40
9.832914234792254
 40
9.858338694962589
 40
9.925366817229595
 40
10.02013071422718
 40
10.12876249858956
 40
10.23739428295206
 40
10.33215817995148
 40
10.39918630222351
 40
10.4246107623974
 40
10.649920193369
 40
10.87188524531145
 40
10.87188524531145
 40
10.87188524531145
 40
10.87188524531145
 10
179.9057788376618
 20
15.7392326039819
 10
179.9092864933541
 20
15.80616462073804
 10
179.9163033987662
 20
15.94005891915858
 10
179.8198027599074
 20
16.22548554971468
 10
180.0510134726109
 20
16.16284386190284
 10
180.1919290057156
 20
16.17001554055992
 10
180.3490417757588
 20
16.16235883078244
 10
180.5025913427288
 20
16.1625275228304
 10
180.6545104935081
 20
16.16182040535432
 10
180.8142214813232
 20
16.1721015835164
 10
180.9408972601118
 20
16.15496511080751
 10
181.137082112208
 20
16.22727260107146
 10
181.1034395279079
 20
16.12640699080116
 10
181.1052011317184
 20
16.0761925394767
 10
181.1027342073459
 20
16.02712335586466
 10
181.134707696601
 20
15.94063490847002
 10
181.0010399903257
 20
15.98997438608336
 10
180.9172208688057
 20
15.98430634314169
 10
180.8173861139324
 20
15.99465516706298
 10
180.7186576720145
 20
16.00086450411087
 10
180.612153277111
 20
16.00697763816778
 10
180.491051169806
 20
16.01588883484585
 10
180.3703381502453
 20
16.00521605912384
 10
180.181255384344
 20
16.06468503080366
 10
180.2129028505309
 20
15.9055832007754
 10
180.1995563316836
 20
15.80839128339904
 10
180.1974958426449
 20
15.69634065110103
 10
180.1958188044671
 20
15.57699685629351
 10
180.1973336794233
 20
15.4503259215511
 10
180.1956582478669
 20
15.32301588016117
 10
180.2058844271659
 20
15.22451566404465
 10
180.1779006596582
 20
15.08388702625631
 10
180.3508029999306
 20
15.13989551134095
 10
180.4645020202771
 20
15.12719951478497
 10
180.584015167224
 20
15.13448377051255
 10
180.6888491425072
 20
15.13878017056755
 10
180.7843084898612
 20
15.14330568258977
 10
180.8763823507033
 20
15.151492011462
 10
180.947655178244
 20
15.14643850638112
 10
181.0544931705684
 20
15.18536425031673
 10
181.0226603598037
 20
15.10517122005879
 10
181.0266164503929
 20
15.05562936846034
 10
181.0234502392014
 20
15.0055747803982
 10
181.0550791490584
 20
14.92128847612022
 10
180.9210133677691
 20
14.97425365495158
 10
180.82923227932
 20
14.96540080890441
 10
180.7079729189603
 20
14.97570049965155
 10
180.5914113119772
 20
14.97748911767502
 10
180.4783375745879
 20
14.97787017109694
 10
180.3679246308471
 20
14.98415449472181
 10
180.289812406784
 20
14.97189133255364
 10
180.1913625833644
 20
15.00453887616127
 10
180.2012355173561
 20
14.94769748054206
 10
180.1973923244403
 20
14.91392130557985
 10
180.1966789884268
 20
14.87119604709411
 10
180.1963369642975
 20
14.83401607262153
 10
180.1963834255345
 20
14.79487237370771
 10
180.1963649429927
 20
14.75716849497686
 10
180.1963703431806
 20
14.71944955232402
 10
180.1963697214201
 20
14.6899432474515
 10
180.1963698151545
 20
14.65873577699301
 10
180.196370428792
 20
14.61414424908085
 10
180.1963671499337
 20
14.55963956508851
 10
180.1963759623481
 20
14.51505540201448
 10
180.1963359653417
 20
14.43117808585741
 10
180.1976024270256
 20
14.31737520677679
 10
180.1950274117842
 20
14.1683039593371
 10
180.2065009381719
 20
14.06597203813905
 10
180.1823506222264
 20
13.93338903885835
 10
180.3332993946477
 20
13.97895732272021
 10
180.4428436671556
 20
13.96427012162349
 10
180.5733970473921
 20
13.96920435125063
 10
180.6990312209513
 20
13.97257705323362
 10
180.81887306256
 20
13.97711497498774
 10
180.9391362611427
 20
13.99048536182004
 10
181.0222761663515
 20
13.98068712782597
 10
181.1456080421074
 20
14.0412621462332
 10
181.1244269203956
 20
13.98532460134021
 10
181.1235950270116
 20
13.95939249372346
 10
181.1218963707558
 20
13.93197256190939
 10
181.1217974888829
 20
13.89738195206386
 10
181.1203659301329
 20
13.86050408220768
 10
181.153280419219
 20
13.7684684102181
 10
180.9551306988107
 20
13.84132015974834
 10
180.830054829489
 20
13.81825726508607
 10
180.6673071295156
 20
13.82454021985787
 10
180.5129366450001
 20
13.82260943909926
 10
180.3566670436944
 20
13.82393762599269
 10
180.1970544465282
 20
13.82059872487863
 10
180.0540326342237
 20
13.83265795728241
 10
179.8197144881629
 20
13.76952001976921
 10
179.9173810751197
 20
14.05620527466319
 10
179.9006868780058
 20
14.2498830814266
 10
179.9146296709686
 20
14.47848242880296
 10
179.9142987846633
 20
14.63384593955049
 10
179.9143078119264
 20
14.73966336444127
 10
179.9143055876316
 20
14.80205784124215
 10
179.914306555189
 20
14.89220425248327
 10
179.9143065473262
 20
14.99621167157438
 10
179.9143053861104
 20
15.10022131375296
 10
179.9143090971502
 20
15.19036243688768
 10
179.9143011051053
 20
15.25276803097215
 10
179.9143334275018
 20
15.35868835961119
 10
179.9131440788321
 20
15.51626716544741
 10
179.9082216489256
 20
15.66528219822065
 10
179.9057788376618
 20
15.7392326039819
 97
        1
330
B0
 75
     1
 76
     2
 52
45.0
 41
0.1
 77
     0
 78
     1
 53
45.0
 43
0.0
 44
0.0
 45
-0.282842712474619
 46
0.0
 79
     0
 98
        1
 10
0.0
 20
0.0
  0
HATCH
  5
CE
330
48
100
AcDbEntity
  8
1
  6
Continuous
 62
     2
100
AcDbHatch
 10
0.0
 20
0.0
 30
0.0
210
0.0
220
0.0
230
1.0
  2
CUSTOM12
 70
     0
 71
     1
 91
        1
 92
        1
 93
        1
 72
     4
 94
        3
 73
     0
 74
     0
 95
       95
 96
       91
 40
0.0
 40
0.0
 40
0.0
 40
0.0
 40
0.6550406656911508
 40
1.308087289031932
 40
1.420803739835801
 40
1.56613075977079
 40
1.757067341888465
 40
2.006513545026463
 40
2.087328263121549
 40
2.185328872295623
 40
2.294612454748366
 40
2.408936380534819
 40
2.526802767798561
 40
2.646360524615611
 40
2.762535723971584
 40
2.870057342870154
 40
2.966883448431651
 40
3.050803243518309
 40
3.115818222436607
 40
3.156030057150237
 40
3.213914225080223
 40
3.276689026450653
 40
3.342960320981259
 40
3.404230667150565
 40
3.453822809493372
 40
3.532499827188429
 40
3.634775188507164
 40
3.754909333008165
 40
3.889736761660661
 40
4.035769602175231
 40
4.187256681197609
 40
4.338733685675956
 40
4.488478734676123
 40
4.634708317831594
 40
4.771493189921268
 40
4.89268657156121
 40
5.199775528944452
 40
5.460353566929645
 40
5.66760314234551
 40
5.814722905404484
 40
5.828990806219783
 40
5.85548833630448
 40
5.869756237118811
 40
6.189796507762792
 40
6.531890469873056
 40
6.883053637016987
 40
7.23051202491154
 40
7.566966656764567
 40
7.885203559707475
 40
8.172887439719236
 40
8.418011594062751
 40
8.443926721190673
 40
8.51076047061316
 40
8.60214539379567
 40
8.701714041647111
 40
8.793098965075341
 40
8.859932715057914
 40
8.885847842603564
 40
9.242301256612782
 40
9.589275455016733
 40
9.92180854316414
 40
10.23479624298464
 40
10.29968150889166
 40
10.35323493887743
 40
10.40154625355139
 40
10.46482922477812
 40
10.55973900668392
 40
10.69239545985604
 40
10.84920353475658
 40
11.01626328594766
 40
11.1867202436743
 40
11.35372582577198
 40
11.50257442292413
 40
11.61866495023278
 40
11.71329869152861
 40
11.82511050573894
 40
11.94464880845703
 40
12.06929242642493
 40
12.19707290435163
 40
12.32562632860516
 40
12.45034565331266
 40
12.56646595170314
 40
12.67099007414622
 40
12.76077625936769
 40
12.82703233506681
 40
12.87429132785981
 40
12.89831990323318
 40
12.9223484786
 40
13.5398476741031
 40
14.18294284359352
 40
14.18294284359352
 40
14.18294284359352
 40
14.18294284359352
 10
177.3067935648021
 20
14.70898038201725
 10
177.1752019758551
 20
14.82265058603232
 10
176.9124193802727
 20
15.04964496316158
 10
176.3997393441022
 20
15.89214462956286
 10
176.4106654595361
 20
15.53423377577021
 10
176.4041226527993
 20
15.39267392272133
 10
176.4028026631772
 20
15.19421305299281
 10
176.4018117602537
 20
15.02150296045983
 10
176.4024101751975
 20
14.8786537325758
 10
176.4038994301882
 20
14.78265005413358
 10
176.4055683588472
 20
14.67545503263141
 10
176.407193495462
 20
14.56164211517583
 10
176.4092429501685
 20
14.44441572604589
 10
176.4123165501926
 20
14.32656411232969
 10
176.4156339697045
 20
14.21228087320621
 10
176.419360534028
 20
14.10521401867277
 10
176.4217338161424
 20
14.01007408766921
 10
176.4278718888357
 20
13.92558557205695
 10
176.4239784495946
 20
13.86923087298141
 10
176.4455230443077
 20
13.79825022472354
 10
176.3680940058617
 20
13.82902677604484
 10
176.3116353240191
 20
13.82011242517616
 10
176.2540495896807
 20
13.82896218398273
 10
176.1690163478472
 20
13.79738225225944
 10
176.2009714146382
 20
13.8809515599219
 10
176.1990705282538
 20
13.9488260896831
 10
176.2107960047301
 20
14.05233256764418
 10
176.2164241053
 20
14.17002125616696
 10
176.2237902178941
 20
14.30388609164424
 10
176.232075970161
 20
14.44764152872633
 10
176.2398851897427
 20
14.59714022843445
 10
176.2457571222658
 20
14.74792549402078
 10
176.2503667817969
 20
14.89699943878438
 10
176.2542632117542
 20
15.04122913163023
 10
176.2570715126564
 20
15.17583905213017
 10
176.2576698755024
 20
15.36469614347354
 10
176.2616023867151
 20
15.58975494313154
 10
176.2442175378497
 20
15.86367091125707
 10
176.2850417342584
 20
16.02787112098597
 10
176.1995153256002
 20
16.22749661465094
 10
176.2660558907688
 20
16.22385458403978
 10
176.283872427323
 20
16.22413447160853
 10
176.4056801797504
 20
16.22632927398613
 10
176.5080770335461
 20
15.94675118721507
 10
176.7580021509357
 20
15.7456300853601
 10
176.987003533111
 20
15.47792614987909
 10
177.224515121311
 20
15.22646413862385
 10
177.4486090740772
 20
14.9896997406135
 10
177.675071628301
 20
14.73218692583084
 10
177.8325687886515
 20
14.61649335056921
 10
178.0472129612673
 20
14.27997152538793
 10
178.0422645974619
 20
14.40464754091604
 10
178.0433931602546
 20
14.46327691935736
 10
178.0428877841516
 20
14.55043662371977
 10
178.0430475158113
 20
14.64416143182872
 10
178.0430054891318
 20
14.73018971297035
 10
178.0430202040373
 20
14.79153891945496
 10
178.0429706255983
 20
14.94135231520991
 10
178.0458811522811
 20
15.17989612510105
 10
178.0259521041161
 20
15.54486509868702
 10
178.0750433936247
 20
15.80799631993409
 10
177.9177951509182
 20
16.21928904947753
 10
178.0762112872421
 20
16.16398282551748
 10
178.1311680478628
 20
16.16199686500175
 10
178.182788776674
 20
16.16264778248249
 10
178.2713198965366
 20
16.20369527738245
 10
178.2204898303168
 20
16.05696326622986
 10
178.2313389930283
 20
15.95019971954434
 10
178.2166036994847
 20
15.79085705414113
 10
178.2099976446204
 20
15.62853061652874
 10
178.2014961399915
 20
15.45992521892395
 10
178.1943227202199
 20
15.29814814703541
 10
178.1889063215389
 20
15.15422331457933
 10
178.1871713967648
 20
15.03437493466925
 10
178.1875440672318
 20
14.92686101590515
 10
178.1873656126263
 20
14.81820024645586
 10
178.1877010863139
 20
14.6995357016553
 10
178.1890040622186
 20
14.57555163512742
 10
178.1908887351573
 20
14.44858294171104
 10
178.1925004454849
 20
14.32153861551032
 10
178.1941403137429
 20
14.19854884492178
 10
178.1962570745753
 20
14.0830093138376
 10
178.1963848422363
 20
13.98090903955837
 10
178.2006514396554
 20
13.89009848838157
 10
178.1908440085289
 20
13.83213621208786
 10
178.2118474771689
 20
13.76517130132029
 10
178.1725639739897
 20
13.77291153966686
 10
177.9595307117746
 20
13.75755254145197
 10
177.7636297943186
 20
14.31403058094461
 10
177.4611197631543
 20
14.57556035348508
 10
177.3067935648021
 20
14.70898038201725
 97
        1
330
B1
 75
     1
 76
     2
 52
45.0
 41
0.1
 77
     0
 78
     1
 53
45.0
 43
0.0
 44
0.0
 45
-0.282842712474619
 46
0.0
 79
     0
 98
        1
 10
0.0
 20
0.0
  0
HATCH
  5
CF
330
48
100
AcDbEntity
  8
1
  6
Continuous
 62
     2
100
AcDbHatch
 10
0.0
 20
0.0
 30
0.0
210
0.0
220
0.0
230
1.0
  2
CUSTOM13
 70
     0
 71
     1
 91
        2
 92
        1
 93
        1
 72
     4
 94
        3
 73
     0
 74
     0
 95
       57
 96
       53
 40
0.0
 40
0.0
 40
0.0
 40
0.0
 40
0.0471632082808948
 40
0.0914861054632152
 40
0.1357762519702387
 40
0.1826527001610682
 40
0.2295203288572307
 40
0.2737751972219624
 40
0.3181310461542786
 40
0.3652607198398507
 40
0.4571007286314428
 40
0.5671851029165189
 40
0.6894623283868007
 40
0.8181758272545876
 40
0.9510087229273807
 40
1.0858522296741
 40
1.218126164475321
 40
1.343545131142375
 40
1.454537202956791
 40
1.5671876075308
 40
1.680710966642334
 40
1.794226869736783
 40
1.900009184247498
 40
2.004085860447777
 40
2.108162674451722
 40
2.214000150155295
 40
2.496038577352131
 40
2.76235074547927
 40
2.997275353279392
 40
3.185110082137715
 40
3.246407890063885
 40
3.312607550212673
 40
3.378877742711547
 40
3.440140399651429
 40
4.100501696006457
 40
4.754913085563505
 40
5.4113316934239
 40
6.077890432568675
 40
6.110575292670954
 40
6.143260152775734
 40
6.367989363395128
 40
6.610525374951517
 40
6.863389136467286
 40
7.119380025547598
 40
7.376036605091056
 40
7.631164770966255
 40
7.87672242545638
 40
8.10495373585596
 40
8.312916685924277
 40
8.497730294941265
 40
8.651018984313838
 40
8.76473885362454
 40
8.76473885362454
 40
8.76473885362454
 40
8.76473885362454
 10
174.7922649500513
 20
13.81626739612928
 10
174.7766616726931
 20
13.81826231079078
 10
174.7463947960302
 20
13.822132013603
 10
174.7010994202252
 20
13.82341984967269
 10
174.6559553129349
 20
13.82308683554052
 10
174.6099017123399
 20
13.82314658674225
 10
174.5640496172097
 20
13.82325813650002
 10
174.5183711648165
 20
13.82277833456591
 10
174.4750811541609
 20
13.82461109618723
 10
174.4039947951513
 20
13.80049556814657
 10
174.4057477261442
 20
13.92184693977252
 10
174.3586196370569
 20
14.00726239751231
 10
174.3191478251763
 20
14.1248692934514
 10
174.2706635532644
 20
14.24232752540435
 10
174.2201017402523
 20
14.36405935761515
 10
174.1718634610475
 20
14.49075967862461
 10
174.1135232947594
 20
14.59933687784954
 10
174.0980892667261
 20
14.7562065713441
 10
173.9566586330635
 20
14.72373446548322
 10
173.8508397414904
 20
14.73512888682179
 10
173.7358569725222
 20
14.73392591514616
 10
173.6253142252142
 20
14.73506945347409
 10
173.5176583522783
 20
14.73418350037526
 10
173.4121322529243
 20
14.73416602390518
 10
173.3109192682013
 20
14.72714032472415
 10
173.1266804827753
 20
14.75135859859867
 10
173.1157393685411
 20
14.44741691121886
 10
173.008769163475
 20
14.22353177253397
 10
172.9098148604347
 20
14.03895314292498
 10
172.9225090524007
 20
13.79530204804208
 10
172.8050091716397
 20
13.82508046753198
 10
172.742205586831
 20
13.82258089509604
 10
172.67858720934
 20
13.82344075102805
 10
172.3946014194074
 20
13.78098039941949
 10
173.0251638499382
 20
14.50081952444784
 10
173.1087645289071
 20
15.01276539435732
 10
173.4929252789338
 20
15.53353743550041
 10
173.4777208288567
 20
16.23519626253217
 10
173.7239265722696
 20
16.22345633081255
 10
173.8256346157562
 20
16.23225004452772
 10
173.8249752035818
 20
15.98059650730348
 10
173.9428317155829
 20
15.79818020733958
 10
174.0315515260484
 20
15.55563740662864
 10
174.1322292485261
 20
15.32340030530133
 10
174.2311142712243
 20
15.0867464456691
 10
174.3299676990669
 20
14.85461739170094
 10
174.4256166390925
 20
14.63122222788785
 10
174.5159904573273
 20
14.42272549049321
 10
174.5989944568189
 20
14.2330844852932
 10
174.6726088582799
 20
14.06663106068097
 10
174.7342815895545
 20
13.929176996261
 10
174.7749458885604
 20
13.84999239430035
 10
174.7922649500513
 20
13.81626739612928
 97
        1
330
B3
 92
       16
 93
        1
 72
     4
 94
        3
 73
     0
 74
     0
 95
       25
 96
       21
 40
0.0
 40
0.0
 40
0.0
 40
0.0
 40
0.0911479969063684
 40
0.185811789620495
 40
0.2804128399734207
 40
0.3715889190713658
 40
0.467908049421814
 40
0.5642683809228379
 40
0.6605683222643854
 40
0.7569653015809403
 40
0.8561348172521887
 40
1.092615965104199
 40
1.374867658141788
 40
1.611348812011478
 40
1.710518328425139
 40
1.809403163726447
 40
2.045205463293973
 40
2.326646917622027
 40
2.562449217190503
 40
2.661334043833811
 40
2.661334043833811
 40
2.661334043833811
 40
2.661334043833811
 10
173.26837005672
 20
14.88614538197292
 10
173.2987525917923
 20
14.88598079714554
 10
173.3606895889113
 20
14.88564528689922
 10
173.454135696033
 20
14.88269055452
 10
173.5475095236358
 20
14.8797775287715
 10
173.6417760753476
 20
14.87894201643417
 10
173.7354964790967
 20
14.87996644658046
 10
173.8352040303205
 20
14.87916977470973
 10
173.9188949546312
 20
14.88921410235219
 10
174.0637996315045
 20
14.86234617674165
 10
173.9396132444801
 20
15.03665530280048
 10
173.8965867286283
 20
15.19651711006093
 10
173.7808922142209
 20
15.45518458550213
 10
173.7017565431258
 20
15.59231052861861
 10
173.6431576621817
 20
15.80937033134078
 10
173.5864803939439
 20
15.59266134213427
 10
173.5052809900477
 20
15.45327012438239
 10
173.4063701281489
 20
15.20406969370193
 10
173.325362509426
 20
15.01925830226075
 10
173.2813683325839
 20
14.91650446856116
 10
173.26837005672
 20
14.88614538197292
 97
        1
330
B2
 75
     1
 76
     2
 52
45.0
 41
0.1
 77
     0
 78
     1
 53
45.0
 43
0.0
 44
0.0
 45
-0.282842712474619
 46
0.0
 79
     0
 98
        1
 10
0.0
 20
0.0
  0
HATCH
  5
D0
330
48
100
AcDbEntity
  8
1
  6
Continuous
 62
     2
100
AcDbHatch
 10
0.0
 20
0.0
 30
0.0
210
0.0
220
0.0
230
1.0
  2
CUSTOM14
 70
     0
 71
     1
 91
        1
 92
        1
 93
        1
 72
     4
 94
        3
 73
     0
 74
     0
 95
       99
 96
       95
 40
0.0
 40
0.0
 40
0.0
 40
0.0
 40
0.0796417172272494
 40
0.1621768542356667
 40
0.2486489160958053
 40
0.340496966852447
 40
0.4381912511164777
 40
0.5434463660245642
 40
0.6518115192847392
 40
0.7530190937886704
 40
0.8492196919724451
 40
0.9419290312997901
 40
1.034249663569951
 40
1.129078600620193
 40
1.226697027573233
 40
1.32722042542169
 40
1.470572134938013
 40
1.595489863371226
 40
1.71993412534839
 40
1.850576620127434
 40
1.98905962998732
 40
2.134139054227017
 40
2.280698007207228
 40
2.424529739039421
 40
2.565929576985835
 40
2.70823926077349
 40
2.861717887443648
 40
3.045168540347353
 40
3.183798301138593
 40
3.314813961455447
 40
3.442083470447288
 40
3.569912708373038
 40
3.702177512509392
 40
3.842307559659585
 40
3.99287222324596
 40
4.156750662218291
 40
4.310981861107512
 40
4.44585990932264
 40
4.57239393613158
 40
4.701656719781956
 40
4.768279086008419
 40
4.835960697898373
 40
4.912788918729302
 40
5.006285208481524
 40
5.026909478751515
 40
5.047533749020994
 40
5.101808031471086
 40
5.162325165538388
 40
5.22691974599566
 40
5.294231806596584
 40
5.364544852554712
 40
5.43831905546778
 40
5.517877651324062
 40
5.607647714861431
 40
5.700449642544249
 40
5.788251142363925
 40
5.872714706039634
 40
5.95516729257514
 40
6.037192395190199
 40
6.120669181468918
 40
6.206848616686155
 40
6.29668085541658
 40
6.442558392872397
 40
6.568190371608099
 40
6.692904567360139
 40
6.824220446556888
 40
6.96312185032915
 40
7.107843738850833
 40
7.253431663907025
 40
7.39518746803645
 40
7.533140753237528
 40
7.670550457174997
 40
7.816236511769037
 40
7.987691657358995
 40
8.142277421969023
 40
8.293662615414794
 40
8.442962460879047
 40
8.591598316185095
 40
8.743678992361595
 40
8.903725323698954
 40
9.07630700889022
 40
9.26557860468036
 40
9.459203795360507
 40
9.617619810273212
 40
9.753609671361646
 40
9.874873300003841
 40
9.954520184977552
 40
10.0241641371922
 40
10.0976976440542
 40
10.18909955924947
 40
10.20974586420117
 40
10.23039218263371
 40
10.30057101881252
 40
10.37632012987532
 40
10.37632012987532
 40
10.37632012987532
 40
10.37632012987532
 10
170.1465954835851
 20
14.13795663215994
 10
170.1632217851219
 20
14.11720608845312
 10
170.1970784206577
 20
14.07495111711898
 10
170.2599822541037
 20
14.02029811392075
 10
170.3332500940393
 20
13.97299025121051
 10
170.4175969238636
 20
13.93527231437934
 10
170.513224061546
 20
13.91040619731952
 10
170.6171853775346
 20
13.90309559345938
 10
170.7224020220405
 20
13.91142322794054
 10
170.8206626371334
 20
13.94149179651528
 10
170.9058986427547
 20
13.9884882297188
 10
170.9779220206103
 20
14.04952991250851
 10
171.0350917709094
 20
14.12412969578593
 10
171.0767868747441
 20
14.21002464660169
 10
171.1026952846292
 20
14.30485850432212
 10
171.1118037332654
 20
14.41854979038367
 10
171.0986864796487
 20
14.54332587770779
 10
171.0325330334414
 20
14.66014719171891
 10
170.9369370919569
 20
14.74512539577375
 10
170.8249681022369
 20
14.81416684459161
 10
170.6993659583269
 20
14.87204142045893
 10
170.5656691620856
 20
14.92373723284337
 10
170.4313122818831
 20
14.97899092397181
 10
170.3051983986877
 20
15.04939770641654
 10
170.1926579987535
 20
15.13785540731245
 10
170.0969963064459
 20
15.24981067868477
 10
170.0334157151825
 20
15.3994991010138
 10
170.0200706505016
 20
15.55932794385142
 10
170.0320510987447
 20
15.71048405306846
 10
170.0712298928841
 20
15.83809244591537
 10
170.135498775091
 20
15.95080874030852
 10
170.2238204999741
 20
16.04648609268679
 10
170.3338091207628
 20
16.12354214985757
 10
170.4632284401266
 20
16.18151396936277
 10
170.6111838967794
 20
16.21739177588822
 10
170.7682069455487
 20
16.22746719050563
 10
170.917494046643
 20
16.21863637762588
 10
171.059625361417
 20
16.19074899340355
 10
171.1595922609626
 20
16.13413314701137
 10
171.3125074736184
 20
16.08674602105508
 10
171.2455131717169
 20
16.00197553001182
 10
171.2296479120268
 20
15.93438901873486
 10
171.1978750531297
 20
15.86926092793189
 10
171.215020220957
 20
15.76723453256956
 10
171.1666427208232
 20
15.77493211681901
 10
171.1315789440767
 20
15.76806771724811
 10
171.1296697985718
 20
15.83263831158196
 10
171.0985692931989
 20
15.87825639621393
 10
171.0664551628456
 20
15.93561036628461
 10
171.0208038475168
 20
15.98540462692554
 10
170.9658508218387
 20
16.02994813718998
 10
170.9010841173007
 20
16.06763988836547
 10
170.8232377310597
 20
16.09283375791354
 10
170.7355160553353
 20
16.0993123099811
 10
170.6452903277806
 20
16.09235709285608
 10
170.5594594694065
 20
16.06909190460918
 10
170.4828343638596
 20
16.03131644107546
 10
170.4165265636201
 20
15.98051641089576
 10
170.3622560536964
 20
15.91731143407209
 10
170.322492534546
 20
15.84276455710367
 10
170.2976775510589
 20
15.75917313997764
 10
170.289212426287
 20
15.65192948382285
 10
170.3019697987104
 20
15.52965457267558
 10
170.3681548409273
 20
15.41149724291214
 10
170.4640977399832
 20
15.32606325709527
 10
170.5757914963182
 20
15.25583362306721
 10
170.7010863668702
 20
15.19659162305309
 10
170.8349823941447
 20
15.14616708086128
 10
170.9689930333149
 20
15.09322516984385
 10
171.0950885316915
 20
15.02750170625174
 10
171.2076216638418
 20
14.94480352537324
 10
171.3031370284232
 20
14.83996006310071
 10
171.3672706486964
 20
14.69937117251572
 10
171.3811103725278
 20
14.54065409451592
 10
171.367395471223
 20
14.38153155217875
 10
171.3244739153984
 20
14.2348382881921
 10
171.2545906329066
 20
14.10119796587143
 10
171.1574592213829
 20
13.98532387699291
 10
171.0347806023657
 20
13.89089981770089
 10
170.8874408413168
 20
13.82179270651982
 10
170.7177132497125
 20
13.77953210858851
 10
170.5317404979597
 20
13.76781736230407
 10
170.3528955926183
 20
13.77809486683434
 10
170.1881733753744
 20
13.81966573769158
 10
170.0834410841057
 20
13.88797642883939
 10
169.9350960790365
 20
13.93675219032106
 10
169.998037819473
 20
14.0297659129084
 10
170.0072274430057
 20
14.10296536248283
 10
170.0303711301232
 20
14.16936294501345
 10
170.0034588335316
 20
14.26974809527584
 10
170.0521338956339
 20
14.26234033517377
 10
170.0916530580697
 20
14.26894063620898
 10
170.0996204944701
 20
14.1907870321893
 10
170.1305436967923
 20
14.15600927375856
 10
170.1465954835851
 20
14.13795663215994
 97
        1
330
B4
 75
     1
 76
     2
 52
45.0
 41
0.1
 77
     0
 78
     1
 53
45.0
 43
0.0
 44
0.0
 45
-0.282842712474619
 46
0.0
 79
     0
 98
        1
 10
0.0
 20
0.0
  0
ENDBLK
  5
4A
330
48
100
AcDbEntity
  8
0
100
AcDbBlockEnd
  0
BLOCK
  5
4D
330
4B
100
AcDbEntity
  8
0
100
AcDbBlockBegin
  2
開示A4枠
 70
     0
 10
0.0
 20
0.0
 30
0.0
  3
開示A4枠
  1

  0
INSERT
  5
4C
330
4B
100
AcDbEntity
  8
1
100
AcDbBlockReference
  2
開示A4
 10
0.0
 20
0.0
 30
0.0
  0
ENDBLK
  5
4E
330
4B
100
AcDbEntity
  8
0
100
AcDbBlockEnd
  0
BLOCK
  5
50
330
4F
100
AcDbEntity
  8
0
100
AcDbBlockBegin
  2
T252
 70
     0
 10
58.72868489247644
 20
106.5312880637106
 30
0.0
  3
T252
  1

  0
LINE
  5
D1
330
4F
100
AcDbEntity
  8
1
  6
Continuous
 62
     7
100
AcDbLine
 10
69.13996145309751
 20
168.7355741372174
 30
0.0
 11
83.31740833185539
 21
168.7355741372174
 31
0.0
  0
LINE
  5
D2
330
4F
100
AcDbEntity
  8
1
  6
Continuous
 62
     7
100
AcDbLine
 10
86.54072963333799
 20
170.5965595583131
 30
0.0
 11
93.62945307271693
 21
182.8745887161218
 31
0.0
  0
LINE
  5
D3
330
4F
100
AcDbEntity
  8
1
  6
Continuous
 62
     7
100
AcDbLine
 10
93.62945307271693
 20
186.5965595583131
 30
0.0
 11
86.540729633338
 21
198.8745887161217
 31
0.0
  0
LINE
  5
D4
330
4F
100
AcDbEntity
  8
1
  6
Continuous
 62
     7
100
AcDbLine
 10
83.31740833185536
 20
200.7355741372174
 30
0.0
 11
69.13996145309753
 21
200.7355741372174
 31
0.0
  0
LINE
  5
D5
330
4F
100
AcDbEntity
  8
1
  6
Continuous
 62
     7
100
AcDbLine
 10
65.91664015161487
 20
198.8745887161217
 30
0.0
 11
58.82791671223598
 21
186.596559558313
 31
0.0
  0
LINE
  5
D6
330
4F
100
AcDbEntity
  8
1
  6
Continuous
 62
     7
100
AcDbLine
 10
58.82791671223596
 20
182.8745887161217
 30
0.0
 11
65.91664015161493
 21
170.596559558313
 31
0.0
  0
LINE
  5
D7
330
4F
100
AcDbEntity
  8
1
  6
Continuous
 62
     7
100
AcDbLine
 10
66.92868489247645
 20
107.6312880637106
 30
0.0
 11
76.22868489247645
 21
107.6312880637106
 31
0.0
  0
LINE
  5
D8
330
4F
100
AcDbEntity
  8
1
  6
Continuous
 62
     7
100
AcDbLine
 10
76.22868489247645
 20
106.5312880637106
 30
0.0
 11
85.52868489247642
 21
106.5312880637106
 31
0.0
  0
LINE
  5
D9
330
4F
100
AcDbEntity
  8
1
  6
Continuous
 62
     7
100
AcDbLine
 10
86.62868489247643
 20
119.5312880637106
 30
0.0
 11
86.62868489247643
 21
117.6260321753848
 31
0.0
  0
LINE
  5
DA
330
4F
100
AcDbEntity
  8
1
  6
Continuous
 62
     7
100
AcDbLine
 10
93.72868489247645
 20
120.397313467495
 30
0.0
 11
93.72868489247645
 21
135.6652626599261
 31
0.0
  0
LINE
  5
DB
330
4F
100
AcDbEntity
  8
1
  6
Continuous
 62
     7
100
AcDbLine
 10
86.62868489247643
 20
119.5312880637106
 30
0.0
 11
92.22868489247645
 21
119.5312880637106
 31
0.0
  0
LINE
  5
DC
330
4F
100
AcDbEntity
  8
1
  6
Continuous
 62
     7
100
AcDbLine
 10
92.22868489247645
 20
136.5312880637106
 30
0.0
 11
89.72868489247645
 21
136.5312880637106
 31
0.0
  0
LINE
  5
DD
330
4F
100
AcDbEntity
  8
1
  6
Continuous
 62
     7
100
AcDbLine
 10
66.92868489247647
 20
106.5312880637106
 30
0.0
 11
76.22868489247645
 21
106.5312880637106
 31
0.0
  0
LINE
  5
DE
330
4F
100
AcDbEntity
  8
1
  6
Continuous
 62
     2
100
AcDbLine
 10
66.92868489247645
 20
107.6312880637106
 30
0.0
 11
66.92868489247647
 21
117.6260321753848
 31
0.0
  0
LINE
  5
DF
330
4F
100
AcDbEntity
  8
1
  6
Continuous
 62
     7
100
AcDbLine
 10
65.82868489247647
 20
107.6312880637106
 30
0.0
 11
66.92868489247645
 21
107.6312880637106
 31
0.0
  0
LINE
  5
E0
330
4F
100
AcDbEntity
  8
1
  6
Continuous
 62
     7
100
AcDbLine
 10
65.82868489247647
 20
119.5312880637106
 30
0.0
 11
76.22868489247645
 21
119.5312880637106
 31
0.0
  0
LINE
  5
E1
330
4F
100
AcDbEntity
  8
1
  6
Continuous
 62
     7
100
AcDbLine
 10
65.82868489247647
 20
107.6312880637106
 30
0.0
 11
65.82868489247647
 21
117.6260321753848
 31
0.0
  0
LINE
  5
E2
330
4F
100
AcDbEntity
  8
1
  6
Continuous
 62
     7
100
AcDbLine
 10
66.92868489247647
 20
106.5312880637106
 30
0.0
 11
66.92868489247645
 21
107.6312880637106
 31
0.0
  0
LINE
  5
E3
330
4F
100
AcDbEntity
  8
1
  6
Continuous
 62
     7
100
AcDbLine
 10
66.92868489247647
 20
106.5312880637106
 30
0.0
 11
65.82868489247647
 21
107.6312880637106
 31
0.0
  0
LINE
  5
E4
330
4F
100
AcDbEntity
  8
1
  6
Continuous
 62
     7
100
AcDbLine
 10
69.13996145309751
 20
135.6652626599261
 30
0.0
 11
69.13996145309751
 21
120.397313467495
 31
0.0
  0
LINE
  5
E5
330
4F
100
AcDbEntity
  8
1
  6
Continuous
 62
     7
100
AcDbLine
 10
65.91664015161493
 20
135.6652626599261
 30
0.0
 11
65.91664015161493
 21
120.397313467495
 31
0.0
  0
LINE
  5
E6
330
4F
100
AcDbEntity
  8
1
  6
Continuous
 62
     7
100
AcDbLine
 10
69.13996145309751
 20
120.397313467495
 30
0.0
 11
65.91664015161493
 21
120.397313467495
 31
0.0
  0
LINE
  5
E7
330
4F
100
AcDbEntity
  8
1
  6
Continuous
 62
     7
100
AcDbLine
 10
65.91664015161493
 20
135.6652626599261
 30
0.0
 11
69.13996145309751
 21
135.6652626599261
 31
0.0
  0
LINE
  5
E8
330
4F
100
AcDbEntity
  8
1
  6
Continuous
 62
     7
100
AcDbLine
 10
89.42868489247644
 20
136.5312880637106
 30
0.0
 11
60.22868489247645
 21
136.5312880637106
 31
0.0
  0
LINE
  5
E9
330
4F
100
AcDbEntity
  8
0
  6
Continuous
 62
     7
100
AcDbLine
 10
58.72868489247644
 20
135.6652626599261
 30
0.0
 11
60.22868489247645
 21
136.5312880637106
 31
0.0
  0
LINE
  5
EA
330
4F
100
AcDbEntity
  8
1
  6
Continuous
 62
     7
100
AcDbLine
 10
58.72868489247644
 20
135.6652626599261
 30
0.0
 11
58.72868489247644
 21
120.397313467495
 31
0.0
  0
LINE
  5
EB
330
4F
100
AcDbEntity
  8
0
  6
Continuous
 62
     7
100
AcDbLine
 10
58.72868489247644
 20
120.397313467495
 30
0.0
 11
60.22868489247645
 21
119.5312880637106
 31
0.0
  0
LINE
  5
EC
330
4F
100
AcDbEntity
  8
1
  6
Continuous
 62
     7
100
AcDbLine
 10
60.22868489247645
 20
119.5312880637106
 30
0.0
 11
65.82868489247647
 21
119.5312880637106
 31
0.0
  0
LINE
  5
ED
330
4F
100
AcDbEntity
  8
0
  6
Continuous
 62
     7
100
AcDbLine
 10
92.22868489247645
 20
119.5312880637106
 30
0.0
 11
93.72868489247645
 21
120.397313467495
 31
0.0
  0
LINE
  5
EE
330
4F
100
AcDbEntity
  8
0
  6
Continuous
 62
     7
100
AcDbLine
 10
92.22868489247645
 20
136.5312880637106
 30
0.0
 11
93.72868489247645
 21
135.6652626599261
 31
0.0
  0
LINE
  5
EF
330
4F
100
AcDbEntity
  8
0
  6
Continuous
 62
     7
100
AcDbLine
 10
89.72868489247645
 20
136.5312880637106
 30
0.0
 11
89.42868489247644
 21
136.5312880637106
 31
0.0
  0
LINE
  5
F0
330
4F
100
AcDbEntity
  8
1
  6
Continuous
 62
     2
100
AcDbLine
 10
85.52868489247642
 20
117.6260321753848
 30
0.0
 11
85.52868489247642
 21
107.6312880637106
 31
0.0
  0
LINE
  5
F1
330
4F
100
AcDbEntity
  8
1
  6
Continuous
 62
     7
100
AcDbLine
 10
86.62868489247643
 20
107.6312880637106
 30
0.0
 11
85.52868489247642
 21
106.5312880637106
 31
0.0
  0
LINE
  5
F2
330
4F
100
AcDbEntity
  8
0
  6
Continuous
 62
     7
100
AcDbLine
 10
86.62868489247643
 20
107.6312880637106
 30
0.0
 11
85.52868489247642
 21
107.6312880637106
 31
0.0
  0
LINE
  5
F3
330
4F
100
AcDbEntity
  8
1
  6
Continuous
 62
     2
100
AcDbLine
 10
85.52868489247642
 20
107.6312880637106
 30
0.0
 11
85.52868489247642
 21
106.5312880637106
 31
0.0
  0
LINE
  5
F4
330
4F
100
AcDbEntity
  8
0
  6
Continuous
 62
     2
100
AcDbLine
 10
65.82868489247647
 20
119.5312880637106
 30
0.0
 11
66.92868489247647
 21
117.6260321753848
 31
0.0
  0
LINE
  5
F5
330
4F
100
AcDbEntity
  8
0
  6
Continuous
 62
     2
100
AcDbLine
 10
85.52868489247642
 20
117.6260321753848
 30
0.0
 11
86.62868489247643
 21
119.5312880637106
 31
0.0
  0
LINE
  5
F6
330
4F
100
AcDbEntity
  8
0
  6
Continuous
 62
     7
100
AcDbLine
 10
85.52868489247642
 20
117.6260321753848
 30
0.0
 11
86.62868489247643
 21
117.6260321753848
 31
0.0
  0
LINE
  5
F7
330
4F
100
AcDbEntity
  8
1
  6
Continuous
 62
     7
100
AcDbLine
 10
86.62868489247643
 20
117.6260321753848
 30
0.0
 11
86.62868489247643
 21
107.6312880637106
 31
0.0
  0
LINE
  5
F8
330
4F
100
AcDbEntity
  8
0
  6
Continuous
 62
     7
100
AcDbLine
 10
66.92868489247647
 20
117.6260321753848
 30
0.0
 11
65.82868489247647
 21
117.6260321753848
 31
0.0
  0
LINE
  5
F9
330
4F
100
AcDbEntity
  8
1
  6
Continuous
 62
     7
100
AcDbLine
 10
65.82868489247647
 20
117.6260321753848
 30
0.0
 11
65.82868489247647
 21
119.5312880637106
 31
0.0
  0
LINE
  5
FA
330
4F
100
AcDbEntity
  8
0
  6
Continuous
 62
     7
100
AcDbLine
 10
66.92868489247647
 20
117.6260321753848
 30
0.0
 11
76.22868489247645
 21
117.6260321753848
 31
0.0
  0
LINE
  5
FB
330
4F
100
AcDbEntity
  8
0
  6
Continuous
 62
     7
100
AcDbLine
 10
89.42868489247644
 20
136.2312880637106
 30
0.0
 11
89.72868489247645
 21
136.5312880637106
 31
0.0
  0
LINE
  5
FC
330
4F
100
AcDbEntity
  8
0
  6
Continuous
 62
     7
100
AcDbLine
 10
76.22868489247645
 20
117.6260321753848
 30
0.0
 11
85.52868489247642
 21
117.6260321753848
 31
0.0
  0
LINE
  5
FD
330
4F
100
AcDbEntity
  8
1
  6
Continuous
 62
     7
100
AcDbLine
 10
76.22868489247645
 20
107.6312880637106
 30
0.0
 11
85.52868489247642
 21
107.6312880637106
 31
0.0
  0
LINE
  5
FE
330
4F
100
AcDbEntity
  8
1
  6
Continuous
 62
     7
100
AcDbLine
 10
76.22868489247645
 20
119.5312880637106
 30
0.0
 11
86.62868489247643
 21
119.5312880637106
 31
0.0
  0
LINE
  5
FF
330
4F
100
AcDbEntity
  8
1
  6
Continuous
 62
     7
100
AcDbLine
 10
83.31740833185538
 20
120.397313467495
 30
0.0
 11
83.31740833185538
 21
135.6652626599261
 31
0.0
  0
LINE
  5
100
330
4F
100
AcDbEntity
  8
1
  6
Continuous
 62
     7
100
AcDbLine
 10
83.31740833185538
 20
135.6652626599261
 30
0.0
 11
86.54072963333796
 21
135.6652626599261
 31
0.0
  0
LINE
  5
101
330
4F
100
AcDbEntity
  8
1
  6
Continuous
 62
     7
100
AcDbLine
 10
86.54072963333796
 20
120.397313467495
 30
0.0
 11
86.54072963333796
 21
135.6652626599261
 31
0.0
  0
LINE
  5
102
330
4F
100
AcDbEntity
  8
1
  6
Continuous
 62
     7
100
AcDbLine
 10
86.54072963333796
 20
120.397313467495
 30
0.0
 11
86.54072963333796
 21
135.6652626599261
 31
0.0
  0
LINE
  5
103
330
4F
100
AcDbEntity
  8
1
  6
Continuous
 62
     7
100
AcDbLine
 10
86.54072963333796
 20
120.397313467495
 30
0.0
 11
83.31740833185538
 21
120.397313467495
 31
0.0
  0
LINE
  5
104
330
4F
100
AcDbEntity
  8
1
  6
Continuous
 62
     7
100
AcDbLine
 10
152.7114879365072
 20
107.6312880637106
 30
0.0
 11
162.0114879365071
 21
107.6312880637106
 31
0.0
  0
LINE
  5
105
330
4F
100
AcDbEntity
  8
1
  6
Continuous
 62
     7
100
AcDbLine
 10
162.0114879365071
 20
106.5312880637106
 30
0.0
 11
171.3114879365071
 21
106.5312880637106
 31
0.0
  0
LINE
  5
106
330
4F
100
AcDbEntity
  8
1
  6
Continuous
 62
     7
100
AcDbLine
 10
172.4114879365071
 20
119.5312880637106
 30
0.0
 11
172.4114879365071
 21
117.6260321753848
 31
0.0
  0
LINE
  5
107
330
4F
100
AcDbEntity
  8
1
  6
Continuous
 62
     7
100
AcDbLine
 10
172.4114879365071
 20
119.5312880637106
 30
0.0
 11
178.0114879365071
 21
119.5312880637106
 31
0.0
  0
LINE
  5
108
330
4F
100
AcDbEntity
  8
1
  6
Continuous
 62
     7
100
AcDbLine
 10
178.0114879365071
 20
136.5312880637106
 30
0.0
 11
175.5114879365071
 21
136.5312880637106
 31
0.0
  0
LINE
  5
109
330
4F
100
AcDbEntity
  8
1
  6
Continuous
 62
     7
100
AcDbLine
 10
152.7114879365072
 20
106.5312880637106
 30
0.0
 11
162.0114879365071
 21
106.5312880637106
 31
0.0
  0
LINE
  5
10A
330
4F
100
AcDbEntity
  8
1
  6
Continuous
 62
     2
100
AcDbLine
 10
152.7114879365072
 20
107.6312880637106
 30
0.0
 11
152.7114879365072
 21
117.6260321753848
 31
0.0
  0
LINE
  5
10B
330
4F
100
AcDbEntity
  8
1
  6
Continuous
 62
     7
100
AcDbLine
 10
151.6114879365072
 20
107.6312880637106
 30
0.0
 11
152.7114879365072
 21
107.6312880637106
 31
0.0
  0
LINE
  5
10C
330
4F
100
AcDbEntity
  8
1
  6
Continuous
 62
     7
100
AcDbLine
 10
151.6114879365072
 20
107.6312880637106
 30
0.0
 11
151.6114879365072
 21
117.6260321753848
 31
0.0
  0
LINE
  5
10D
330
4F
100
AcDbEntity
  8
1
  6
Continuous
 62
     2
100
AcDbLine
 10
152.7114879365072
 20
106.5312880637106
 30
0.0
 11
152.7114879365072
 21
107.6312880637106
 31
0.0
  0
LINE
  5
10E
330
4F
100
AcDbEntity
  8
1
  6
Continuous
 62
     7
100
AcDbLine
 10
152.7114879365072
 20
106.5312880637106
 30
0.0
 11
151.6114879365072
 21
107.6312880637106
 31
0.0
  0
LINE
  5
10F
330
4F
100
AcDbEntity
  8
1
  6
Continuous
 62
     7
100
AcDbLine
 10
163.8724733576028
 20
135.6652626599261
 30
0.0
 11
163.8724733576028
 21
120.397313467495
 31
0.0
  0
LINE
  5
110
330
4F
100
AcDbEntity
  8
1
  6
Continuous
 62
     7
100
AcDbLine
 10
160.1505025154115
 20
135.6652626599261
 30
0.0
 11
160.1505025154115
 21
120.397313467495
 31
0.0
  0
LINE
  5
111
330
4F
100
AcDbEntity
  8
1
  6
Continuous
 62
     7
100
AcDbLine
 10
163.8724733576028
 20
120.397313467495
 30
0.0
 11
160.1505025154115
 21
120.397313467495
 31
0.0
  0
LINE
  5
112
330
4F
100
AcDbEntity
  8
1
  6
Continuous
 62
     7
100
AcDbLine
 10
160.1505025154115
 20
135.6652626599261
 30
0.0
 11
163.8724733576028
 21
135.6652626599261
 31
0.0
  0
LINE
  5
113
330
4F
100
AcDbEntity
  8
1
  6
Continuous
 62
     7
100
AcDbLine
 10
175.5114879365071
 20
136.5312880637106
 30
0.0
 11
146.0114879365071
 21
136.5312880637106
 31
0.0
  0
LINE
  5
114
330
4F
100
AcDbEntity
  8
1
  6
Continuous
 62
     7
100
AcDbLine
 10
146.0114879365071
 20
136.5312880637106
 30
0.0
 11
146.0114879365071
 21
119.5312880637106
 31
0.0
  0
LINE
  5
115
330
4F
100
AcDbEntity
  8
1
  6
Continuous
 62
     7
100
AcDbLine
 10
146.0114879365071
 20
119.5312880637106
 30
0.0
 11
151.6114879365072
 21
119.5312880637106
 31
0.0
  0
LINE
  5
116
330
4F
100
AcDbEntity
  8
1
  6
Continuous
 62
     2
100
AcDbLine
 10
171.3114879365071
 20
117.6260321753848
 30
0.0
 11
171.3114879365071
 21
107.6312880637106
 31
0.0
  0
LINE
  5
117
330
4F
100
AcDbEntity
  8
1
  6
Continuous
 62
     7
100
AcDbLine
 10
172.4114879365071
 20
107.6312880637106
 30
0.0
 11
171.3114879365071
 21
106.5312880637106
 31
0.0
  0
LINE
  5
118
330
4F
100
AcDbEntity
  8
0
  6
Continuous
 62
     7
100
AcDbLine
 10
172.4114879365071
 20
107.6312880637106
 30
0.0
 11
171.3114879365071
 21
107.6312880637106
 31
0.0
  0
LINE
  5
119
330
4F
100
AcDbEntity
  8
1
  6
Continuous
 62
     2
100
AcDbLine
 10
171.3114879365071
 20
107.6312880637106
 30
0.0
 11
171.3114879365071
 21
106.5312880637106
 31
0.0
  0
LINE
  5
11A
330
4F
100
AcDbEntity
  8
0
  6
Continuous
 62
     2
100
AcDbLine
 10
151.6114879365072
 20
119.5312880637106
 30
0.0
 11
152.7114879365072
 21
117.6260321753848
 31
0.0
  0
LINE
  5
11B
330
4F
100
AcDbEntity
  8
0
  6
Continuous
 62
     2
100
AcDbLine
 10
171.3114879365071
 20
117.6260321753848
 30
0.0
 11
172.4114879365071
 21
119.5312880637106
 31
0.0
  0
LINE
  5
11C
330
4F
100
AcDbEntity
  8
0
  6
Continuous
 62
     7
100
AcDbLine
 10
171.3114879365071
 20
117.6260321753848
 30
0.0
 11
172.4114879365071
 21
117.6260321753848
 31
0.0
  0
LINE
  5
11D
330
4F
100
AcDbEntity
  8
1
  6
Continuous
 62
     7
100
AcDbLine
 10
172.4114879365071
 20
117.6260321753848
 30
0.0
 11
172.4114879365071
 21
107.6312880637106
 31
0.0
  0
LINE
  5
11E
330
4F
100
AcDbEntity
  8
0
  6
Continuous
 62
     7
100
AcDbLine
 10
152.7114879365072
 20
117.6260321753848
 30
0.0
 11
151.6114879365072
 21
117.6260321753848
 31
0.0
  0
LINE
  5
11F
330
4F
100
AcDbEntity
  8
1
  6
Continuous
 62
     7
100
AcDbLine
 10
151.6114879365072
 20
117.6260321753848
 30
0.0
 11
151.6114879365072
 21
119.5312880637106
 31
0.0
  0
LINE
  5
120
330
4F
100
AcDbEntity
  8
0
  6
Continuous
 62
     7
100
AcDbLine
 10
152.7114879365072
 20
117.6260321753848
 30
0.0
 11
162.0114879365071
 21
117.6260321753848
 31
0.0
  0
LINE
  5
121
330
4F
100
AcDbEntity
  8
0
  6
Continuous
 62
     7
100
AcDbLine
 10
162.0114879365071
 20
117.6260321753848
 30
0.0
 11
171.3114879365071
 21
117.6260321753848
 31
0.0
  0
LINE
  5
122
330
4F
100
AcDbEntity
  8
1
  6
Continuous
 62
     7
100
AcDbLine
 10
162.0114879365071
 20
107.6312880637106
 30
0.0
 11
171.3114879365071
 21
107.6312880637106
 31
0.0
  0
LINE
  5
123
330
4F
100
AcDbEntity
  8
1
  6
Continuous
 62
     7
100
AcDbLine
 10
151.6114879365072
 20
119.5312880637106
 30
0.0
 11
172.4114879365071
 21
119.5312880637106
 31
0.0
  0
LINE
  5
124
330
4F
100
AcDbEntity
  8
1
  6
Continuous
 62
     7
100
AcDbLine
 10
176.1505025154115
 20
120.397313467495
 30
0.0
 11
176.1505025154115
 21
135.6652626599261
 31
0.0
  0
LINE
  5
125
330
4F
100
AcDbEntity
  8
1
  6
Continuous
 62
     7
100
AcDbLine
 10
178.0114879365071
 20
119.5312880637106
 30
0.0
 11
178.0114879365071
 21
136.5312880637106
 31
0.0
  0
LINE
  5
126
330
4F
100
AcDbEntity
  8
1
  6
Continuous
 62
     7
100
AcDbLine
 10
176.1505025154115
 20
135.6652626599261
 30
0.0
 11
178.0114879365071
 21
135.6652626599261
 31
0.0
  0
LINE
  5
127
330
4F
100
AcDbEntity
  8
1
  6
Continuous
 62
     7
100
AcDbLine
 10
176.1505025154115
 20
120.397313467495
 30
0.0
 11
178.0114879365071
 21
120.397313467495
 31
0.0
  0
LINE
  5
128
330
4F
100
AcDbEntity
  8
1
  6
Continuous
 62
     7
100
AcDbLine
 10
147.8724733576028
 20
135.6652626599261
 30
0.0
 11
147.8724733576028
 21
120.397313467495
 31
0.0
  0
LINE
  5
129
330
4F
100
AcDbEntity
  8
1
  6
Continuous
 62
     7
100
AcDbLine
 10
146.0114879365071
 20
135.6652626599261
 30
0.0
 11
147.8724733576028
 21
135.6652626599261
 31
0.0
  0
LINE
  5
12A
330
4F
100
AcDbEntity
  8
1
  6
Continuous
 62
     7
100
AcDbLine
 10
146.0114879365071
 20
120.397313467495
 30
0.0
 11
147.8724733576028
 21
120.397313467495
 31
0.0
  0
ARC
  5
12B
330
4F
100
AcDbEntity
  8
1
  6
Continuous
 62
     7
100
AcDbCircle
 10
76.22868489247645
 20
184.7355741372174
 30
0.0
 40
17.50000000000004
100
AcDbArc
 50
233.8955081861617
 51
246.1044918138384
  0
ARC
  5
12C
330
4F
100
AcDbEntity
  8
1
  6
Continuous
 62
     7
100
AcDbCircle
 10
76.22868489247645
 20
184.7355741372174
 30
0.0
 40
17.50000000000001
100
AcDbArc
 50
293.8955081861616
 51
306.1044918138384
  0
ARC
  5
12D
330
4F
100
AcDbEntity
  8
1
  6
Continuous
 62
     7
100
AcDbCircle
 10
76.22868489247645
 20
184.7355741372174
 30
0.0
 40
17.5
100
AcDbArc
 50
0.0
 51
6.10449181383856
  0
ARC
  5
12E
330
4F
100
AcDbEntity
  8
1
  6
Continuous
 62
     7
100
AcDbCircle
 10
76.22868489247645
 20
184.7355741372174
 30
0.0
 40
17.49999999999996
100
AcDbArc
 50
53.89550818616143
 51
66.10449181383852
  0
ARC
  5
12F
330
4F
100
AcDbEntity
  8
1
  6
Continuous
 62
     7
100
AcDbCircle
 10
76.22868489247645
 20
184.7355741372174
 30
0.0
 40
17.5
100
AcDbArc
 50
113.8955081861615
 51
126.1044918138386
  0
ARC
  5
130
330
4F
100
AcDbEntity
  8
1
  6
Continuous
 62
     7
100
AcDbCircle
 10
76.22868489247645
 20
184.7355741372174
 30
0.0
 40
17.5
100
AcDbArc
 50
353.8955081861616
 51
0.0
  0
ARC
  5
131
330
4F
100
AcDbEntity
  8
1
  6
Continuous
 62
     7
100
AcDbCircle
 10
76.22868489247645
 20
184.7355741372174
 30
0.0
 40
17.49999999999999
100
AcDbArc
 50
173.8955081861617
 51
186.1044918138386
  0
ARC
  5
132
330
4F
100
AcDbEntity
  8
0
  6
Continuous
 62
     7
100
AcDbCircle
 10
62.32266252204568
 20
128.6408294569987
 30
0.0
 40
7.890458606711857
100
AcDbArc
 50
62.90392018659901
 51
117.096079813401
  0
ARC
  5
133
330
4F
100
AcDbEntity
  8
0
  6
Continuous
 62
     7
100
AcDbCircle
 10
62.32266252204568
 20
127.4217466704224
 30
0.0
 40
7.890458606711845
100
AcDbArc
 50
242.903920186599
 51
297.096079813401
  0
ARC
  5
134
330
4F
100
AcDbEntity
  8
0
  6
Continuous
 62
     7
100
AcDbCircle
 10
76.22868489247645
 20
107.0864243350398
 30
0.0
 40
29.44486372867081
100
AcDbArc
 50
90.0
 51
103.9305545623578
  0
ARC
  5
135
330
4F
100
AcDbEntity
  8
0
  6
Continuous
 62
     7
100
AcDbCircle
 10
76.22868489247645
 20
148.9761517923811
 30
0.0
 40
29.44486372867056
100
AcDbArc
 50
256.0694454376421
 51
270.0
  0
ARC
  5
136
330
4F
100
AcDbEntity
  8
0
  6
Continuous
 62
     7
100
AcDbCircle
 10
76.22868489247645
 20
148.9761517923811
 30
0.0
 40
29.4448637286705
100
AcDbArc
 50
270.0
 51
283.9305545623578
  0
ARC
  5
137
330
4F
100
AcDbEntity
  8
0
  6
Continuous
 62
     7
100
AcDbCircle
 10
76.22868489247645
 20
107.0864243350398
 30
0.0
 40
29.44486372867075
100
AcDbArc
 50
76.06944543764224
 51
90.0
  0
ARC
  5
138
330
4F
100
AcDbEntity
  8
0
  6
Continuous
 62
     7
100
AcDbCircle
 10
90.13470726290721
 20
127.4217466704224
 30
0.0
 40
7.890458606711849
100
AcDbArc
 50
242.9039201865989
 51
297.096079813401
  0
ARC
  5
139
330
4F
100
AcDbEntity
  8
0
  6
Continuous
 62
     7
100
AcDbCircle
 10
90.13470726290721
 20
127.4217466704224
 30
0.0
 40
7.890458606711849
100
AcDbArc
 50
242.9039201865989
 51
297.096079813401
  0
ARC
  5
13A
330
4F
100
AcDbEntity
  8
0
  6
Continuous
 62
     7
100
AcDbCircle
 10
90.13470726290721
 20
128.6408294569987
 30
0.0
 40
7.890458606711855
100
AcDbArc
 50
62.90392018659906
 51
117.096079813401
  0
ARC
  5
13B
330
4F
100
AcDbEntity
  8
1
  6
Continuous
 62
     7
100
AcDbCircle
 10
170.0114879365071
 20
114.3393871121974
 30
0.0
 40
22.19190095231171
100
AcDbArc
 50
73.94063947139121
 51
106.0593605286087
  0
ARC
  5
13C
330
4F
100
AcDbEntity
  8
1
  6
Continuous
 62
     7
100
AcDbCircle
 10
170.0114879365071
 20
141.7231890152238
 30
0.0
 40
22.19190095231179
100
AcDbArc
 50
253.9406394713914
 51
286.0593605286087
  0
ARC
  5
13D
330
4F
100
AcDbEntity
  8
1
  6
Continuous
 62
     7
100
AcDbCircle
 10
154.0114879365071
 20
114.3393871121974
 30
0.0
 40
22.19190095231171
100
AcDbArc
 50
73.94063947139121
 51
106.0593605286087
  0
ARC
  5
13E
330
4F
100
AcDbEntity
  8
1
  6
Continuous
 62
     7
100
AcDbCircle
 10
154.0114879365071
 20
141.7231890152238
 30
0.0
 40
22.19190095231179
100
AcDbArc
 50
253.9406394713914
 51
286.0593605286087
  0
CIRCLE
  5
13F
330
4F
100
AcDbEntity
  8
1
  6
Continuous
 62
     7
100
AcDbCircle
 10
76.22868489247645
 20
184.7355741372174
 30
0.0
 40
6.399999999999991
  0
CIRCLE
  5
140
330
4F
100
AcDbEntity
  8
1
  6
Continuous
 62
     7
100
AcDbCircle
 10
76.22868489247645
 20
184.7355741372174
 30
0.0
 40
12.0
  0
CIRCLE
  5
141
330
4F
100
AcDbEntity
  8
1
  6
Continuous
 62
     2
100
AcDbCircle
 10
76.22868489247645
 20
184.7355741372174
 30
0.0
 40
13.19999999999999
  0
CIRCLE
  5
142
330
4F
100
AcDbEntity
  8
1
  6
Continuous
 62
     7
100
AcDbCircle
 10
76.22868489247645
 20
184.7355741372174
 30
0.0
 40
16.0
  0
ENDBLK
  5
51
330
4F
100
AcDbEntity
  8
0
100
AcDbBlockEnd
  0
BLOCK
  5
16E
330
167
100
AcDbEntity
  8
0
100
AcDbBlockBegin
  2
*D4
 70
     1
 10
0.0
 20
0.0
 30
0.0
  3
*D4
  1

  0
LINE
  5
168
330
167
100
AcDbEntity
  8
1
  6
Continuous
 62
     2
100
AcDbLine
 10
58.72868489247644
 20
214.5699628555273
 30
0.0
 11
93.72868489247645
 21
214.5699628555273
 31
0.0
  0
LINE
  5
169
330
167
100
AcDbEntity
  8
1
  6
Continuous
 62
     2
100
AcDbLine
 10
93.72868489247645
 20
184.7355741372174
 30
0.0
 11
93.72868489247645
 21
215.5699628555273
 31
0.0
  0
LINE
  5
16A
330
167
100
AcDbEntity
  8
1
  6
Continuous
 62
     2
100
AcDbLine
 10
58.72868489247644
 20
184.7355741372174
 30
0.0
 11
58.72868489247644
 21
215.5699628555273
 31
0.0
  0
SOLID
  5
16B
330
167
100
AcDbEntity
  8
1
 62
     2
100
AcDbTrace
 10
62.22868489247644
 20
215.0307465970832
 30
0.0
 11
62.22868489247644
 21
214.1091791139714
 31
0.0
 12
58.72868489247644
 22
214.5699628555273
 32
0.0
 13
58.72868489247644
 23
214.5699628555273
 33
0.0
  0
SOLID
  5
16C
330
167
100
AcDbEntity
  8
1
 62
     2
100
AcDbTrace
 10
90.22868489247645
 20
214.1091791139714
 30
0.0
 11
90.22868489247645
 21
215.0307465970832
 31
0.0
 12
93.72868489247645
 22
214.5699628555273
 32
0.0
 13
93.72868489247645
 23
214.5699628555273
 33
0.0
  0
MTEXT
  5
16D
330
167
100
AcDbEntity
  8
1
 62
     7
100
AcDbMText
 10
72.73899394398948
 20
215.569955898451
 30
0.0
 40
3.5
 41
0.0
 71
     7
 72
     1
  1
\C7;{\Fgdt;n}\C7;35
  7
CONVERTER_12
 11
0.9999999999970619
 21
2.424068405545306E-6
 31
0.0
 73
     1
 44
0.60024009603842
  0
ENDBLK
  5
16F
330
167
100
AcDbEntity
  8
0
100
AcDbBlockEnd
  0
BLOCK
  5
179
330
172
100
AcDbEntity
  8
0
100
AcDbBlockBegin
  2
*D5
 70
     1
 10
0.0
 20
0.0
 30
0.0
  3
*D5
  1

  0
LINE
  5
173
330
172
100
AcDbEntity
  8
1
  6
Continuous
 62
     2
100
AcDbLine
 10
40.93754894242905
 20
136.5312880637106
 30
0.0
 11
40.93754894242905
 21
106.5312880637106
 31
0.0
  0
LINE
  5
174
330
172
100
AcDbEntity
  8
1
  6
Continuous
 62
     2
100
AcDbLine
 10
66.92868489247647
 20
106.5312880637106
 30
0.0
 11
39.93754894242905
 21
106.5312880637106
 31
0.0
  0
LINE
  5
175
330
172
100
AcDbEntity
  8
1
  6
Continuous
 62
     2
100
AcDbLine
 10
60.22868489247645
 20
136.5312880637106
 30
0.0
 11
39.93754894242905
 21
136.5312880637106
 31
0.0
  0
SOLID
  5
176
330
172
100
AcDbEntity
  8
1
 62
     2
100
AcDbTrace
 10
41.39833268398494
 20
133.0312880637106
 30
0.0
 11
40.47676520087317
 21
133.0312880637106
 31
0.0
 12
40.93754894242905
 22
136.5312880637106
 32
0.0
 13
40.93754894242905
 23
136.5312880637106
 33
0.0
  0
SOLID
  5
177
330
172
100
AcDbEntity
  8
1
 62
     2
100
AcDbTrace
 10
40.47676520087317
 20
110.0312880637106
 30
0.0
 11
41.39833268398494
 21
110.0312880637106
 31
0.0
 12
40.93754894242905
 22
106.5312880637106
 32
0.0
 13
40.93754894242905
 23
106.5312880637106
 33
0.0
  0
MTEXT
  5
178
330
172
100
AcDbEntity
  8
1
 62
     7
100
AcDbMText
 10
39.93754894242905
 20
119.0455338189319
 30
0.0
 40
3.5
 41
0.0
 71
     7
 72
     1
  1
30
  7
CONVERTER_12
 11
0.0
 21
1.0
 31
0.0
 73
     1
 44
0.60024009603842
  0
ENDBLK
  5
17A
330
172
100
AcDbEntity
  8
0
100
AcDbBlockEnd
  0
BLOCK
  5
184
330
17D
100
AcDbEntity
  8
0
100
AcDbBlockBegin
  2
*D6
 70
     1
 10
0.0
 20
0.0
 30
0.0
  3
*D6
  1

  0
LINE
  5
17E
330
17D
100
AcDbEntity
  8
1
  6
Continuous
 62
     2
100
AcDbLine
 10
106.5479882942074
 20
200.7355741372174
 30
0.0
 11
106.5479882942074
 21
168.7355741372174
 31
0.0
  0
LINE
  5
17F
330
17D
100
AcDbEntity
  8
1
  6
Continuous
 62
     2
100
AcDbLine
 10
83.31740833185535
 20
168.7355741372174
 30
0.0
 11
107.5479882942074
 21
168.7355741372174
 31
0.0
  0
LINE
  5
180
330
17D
100
AcDbEntity
  8
1
  6
Continuous
 62
     2
100
AcDbLine
 10
83.31740833185533
 20
200.7355741372174
 30
0.0
 11
107.5479882942074
 21
200.7355741372174
 31
0.0
  0
SOLID
  5
181
330
17D
100
AcDbEntity
  8
1
 62
     2
100
AcDbTrace
 10
107.0087720357633
 20
197.2355741372174
 30
0.0
 11
106.0872045526515
 21
197.2355741372174
 31
0.0
 12
106.5479882942074
 22
200.7355741372174
 32
0.0
 13
106.5479882942074
 23
200.7355741372174
 33
0.0
  0
SOLID
  5
182
330
17D
100
AcDbEntity
  8
1
 62
     2
100
AcDbTrace
 10
106.0872045526515
 20
172.2355741372174
 30
0.0
 11
107.0087720357633
 21
172.2355741372174
 31
0.0
 12
106.5479882942074
 22
168.7355741372174
 32
0.0
 13
106.5479882942074
 23
168.7355741372174
 33
0.0
  0
MTEXT
  5
183
330
17D
100
AcDbEntity
  8
1
 62
     7
100
AcDbMText
 10
105.5479882942074
 20
181.6134772726186
 30
0.0
 40
3.5
 41
0.0
 71
     7
 72
     1
  1
32
  7
CONVERTER_12
 11
0.0
 21
1.0
 31
0.0
 73
     1
 44
0.60024009603842
  0
ENDBLK
  5
185
330
17D
100
AcDbEntity
  8
0
100
AcDbBlockEnd
  0
BLOCK
  5
18F
330
188
100
AcDbEntity
  8
0
100
AcDbBlockBegin
  2
*D7
 70
     1
 10
0.0
 20
0.0
 30
0.0
  3
*D7
  1

  0
LINE
  5
189
330
188
100
AcDbEntity
  8
0
  6
Continuous
 62
     2
100
AcDbLine
 10
48.73291509188555
 20
119.5312880637106
 30
0.0
 11
48.73291509188555
 21
106.5312880637106
 31
0.0
  0
LINE
  5
18A
330
188
100
AcDbEntity
  8
0
  6
Continuous
 62
     2
100
AcDbLine
 10
66.92868489247647
 20
106.5312880637106
 30
0.0
 11
47.73291509188555
 21
106.5312880637106
 31
0.0
  0
LINE
  5
18B
330
188
100
AcDbEntity
  8
0
  6
Continuous
 62
     2
100
AcDbLine
 10
60.22868489247647
 20
119.5312880637106
 30
0.0
 11
47.73291509188555
 21
119.5312880637106
 31
0.0
  0
SOLID
  5
18C
330
188
100
AcDbEntity
  8
0
 62
     2
100
AcDbTrace
 10
49.19369883344144
 20
116.0312880637106
 30
0.0
 11
48.27213135032967
 21
116.0312880637106
 31
0.0
 12
48.73291509188555
 22
119.5312880637106
 32
0.0
 13
48.73291509188555
 23
119.5312880637106
 33
0.0
  0
SOLID
  5
18D
330
188
100
AcDbEntity
  8
0
 62
     2
100
AcDbTrace
 10
48.27213135032967
 20
110.0312880637106
 30
0.0
 11
49.19369883344144
 21
110.0312880637106
 31
0.0
 12
48.73291509188555
 22
106.5312880637106
 32
0.0
 13
48.73291509188555
 23
106.5312880637106
 33
0.0
  0
MTEXT
  5
18E
330
188
100
AcDbEntity
  8
0
 62
     7
100
AcDbMText
 10
47.73291509188555
 20
111.7586440416645
 30
0.0
 40
3.5
 41
0.0
 71
     7
 72
     1
  1
13
  7
CONVERTER_12
 11
0.0
 21
1.0
 31
0.0
 73
     1
 44
0.60024009603842
  0
ENDBLK
  5
190
330
188
100
AcDbEntity
  8
0
100
AcDbBlockEnd
  0
ENDSEC
  0
SECTION
  2
ENTITIES
  0
INSERT
  5
52
330
1F
100
AcDbEntity
  8
0
100
AcDbBlockReference
  2
開示A4枠
 10
0.0
 20
0.0
 30
0.0
  0
INSERT
  5
53
330
1F
100
AcDbEntity
  8
1
100
AcDbBlockReference
  2
T252
 10
58.72868489247644
 20
106.5312880637106
 30
0.0
  0
LINE
  5
143
330
1F
100
AcDbEntity
  8
1
  6
DASH_CENTER
 62
     2
100
AcDbLine
 10
93.72868489247645
 20
184.7355741372174
 30
0.0
 11
97.47968559058725
 21
184.7355741372174
 31
0.0
  0
LINE
  5
144
330
1F
100
AcDbEntity
  8
1
  6
DASH_CENTER
 62
     2
100
AcDbLine
 10
55.47968559058724
 20
184.7355741372174
 30
0.0
 11
58.72868489247644
 21
184.7355741372174
 31
0.0
  0
LINE
  5
145
330
1F
100
AcDbEntity
  8
1
  6
DASH_CENTER
 62
     2
100
AcDbLine
 10
58.72868489247644
 20
184.7355741372174
 30
0.0
 11
93.72868489247645
 21
184.7355741372174
 31
0.0
  0
LINE
  5
146
330
1F
100
AcDbEntity
  8
1
  6
DASH_CENTER
 62
     2
100
AcDbLine
 10
76.22868489247645
 20
204.9765693339167
 30
0.0
 11
76.22868489247645
 21
163.9765693339167
 31
0.0
  0
LINE
  5
147
330
1F
100
AcDbEntity
  8
1
  6
DASH_CENTER
 62
     2
100
AcDbLine
 10
76.22868489247645
 20
122.5312880637106
 30
0.0
 11
76.22868489247645
 21
118.4312880637106
 31
0.0
  0
LINE
  5
148
330
1F
100
AcDbEntity
  8
1
  6
DASH_CENTER
 62
     2
100
AcDbLine
 10
76.22868489247645
 20
107.6312880637106
 30
0.0
 11
76.22868489247645
 21
106.5312880637106
 31
0.0
  0
LINE
  5
149
330
1F
100
AcDbEntity
  8
1
  6
DASH_CENTER
 62
     2
100
AcDbLine
 10
76.22868489247645
 20
106.5312880637106
 30
0.0
 11
76.22868489247645
 21
103.1968862008571
 31
0.0
  0
LINE
  5
14A
330
1F
100
AcDbEntity
  8
1
  6
DASH_CENTER
 62
     2
100
AcDbLine
 10
76.22868489247645
 20
118.4312880637106
 30
0.0
 11
76.22868489247645
 21
107.6312880637106
 31
0.0
  0
LINE
  5
14B
330
1F
100
AcDbEntity
  8
1
  6
DASH_CENTER
 62
     2
100
AcDbLine
 10
76.22868489247645
 20
140.0835086372525
 30
0.0
 11
76.22868489247645
 21
135.3312880637106
 31
0.0
  0
LINE
  5
14C
330
1F
100
AcDbEntity
  8
1
  6
DASH_CENTER
 62
     2
100
AcDbLine
 10
76.22868489247645
 20
135.3312880637106
 30
0.0
 11
76.22868489247645
 21
122.5312880637106
 31
0.0
  0
LINE
  5
14D
330
1F
100
AcDbEntity
  8
1
  6
DASH_CENTER
 62
     2
100
AcDbLine
 10
162.0114879365071
 20
140.0835086372525
 30
0.0
 11
162.0114879365071
 21
135.3312880637106
 31
0.0
  0
LINE
  5
14E
330
1F
100
AcDbEntity
  8
1
  6
DASH_CENTER
 62
     2
100
AcDbLine
 10
162.0114879365071
 20
135.3312880637106
 30
0.0
 11
162.0114879365071
 21
122.5312880637106
 31
0.0
  0
LINE
  5
14F
330
1F
100
AcDbEntity
  8
1
  6
DASH_CENTER
 62
     2
100
AcDbLine
 10
162.0114879365071
 20
118.4312880637106
 30
0.0
 11
162.0114879365071
 21
107.6312880637106
 31
0.0
  0
LINE
  5
150
330
1F
100
AcDbEntity
  8
1
  6
DASH_CENTER
 62
     2
100
AcDbLine
 10
162.0114879365071
 20
122.5312880637106
 30
0.0
 11
162.0114879365071
 21
118.4312880637106
 31
0.0
  0
LINE
  5
151
330
1F
100
AcDbEntity
  8
1
  6
DASH_CENTER
 62
     2
100
AcDbLine
 10
162.0114879365071
 20
118.4312880637106
 30
0.0
 11
162.0114879365071
 21
107.6312880637106
 31
0.0
  0
LINE
  5
152
330
1F
100
AcDbEntity
  8
1
  6
DASH_CENTER
 62
     2
100
AcDbLine
 10
162.0114879365071
 20
106.5312880637106
 30
0.0
 11
162.0114879365071
 21
103.1968862008571
 31
0.0
  0
LINE
  5
153
330
1F
100
AcDbEntity
  8
1
  6
DASH_CENTER
 62
     2
100
AcDbLine
 10
162.0114879365071
 20
107.6312880637106
 30
0.0
 11
162.0114879365071
 21
106.5312880637106
 31
0.0
  0
SOLID
  5
154
330
1F
100
AcDbEntity
  8
1
 62
     2
100
AcDbTrace
 10
88.77773531831467
 20
111.9133182939702
 30
0.0
 11
87.97963446663819
 21
111.4525345524143
 31
0.0
 12
86.62868489247643
 22
114.7140153364378
 32
0.0
 13
86.62868489247643
 23
114.7140153364378
 33
0.0
  0
LEADER
  5
155
330
1F
100
AcDbEntity
  8
1
  6
Continuous
 62
     2
100
AcDbLeader
  3
Standard
 71
     0
 76
     3
 10
86.62868489247643
 20
114.7140153364378
 30
0.0
 10
91.67291203497591
 20
105.9771576407107
 30
0.0
 10
103.6729120349759
 20
105.9771576407107
 30
0.0
  0
SOLID
  5
156
330
1F
100
AcDbEntity
  8
1
 62
     2
100
AcDbTrace
 10
90.77963446663819
 20
139.7927688477341
 30
0.0
 11
91.57773531831467
 21
139.3319851061782
 31
0.0
 12
89.42868489247644
 22
136.5312880637106
 32
0.0
 13
89.42868489247644
 23
136.5312880637106
 33
0.0
  0
LEADER
  5
157
330
1F
100
AcDbEntity
  8
1
  6
Continuous
 62
     2
100
AcDbLeader
  3
Standard
 71
     0
 76
     3
 10
89.42868489247644
 20
136.5312880637106
 30
0.0
 10
96.05716685381844
 20
148.0121555978088
 30
0.0
 10
108.0571668538184
 20
148.0121555978088
 30
0.0
  0
MTEXT
  5
159
330
1F
100
AcDbEntity
  8
1
 62
     7
100
AcDbMText
 10
157.5000000000002
 20
12.50000000000001
 30
0.0
 40
2.5
 41
0.0
 71
     5
 72
     1
  1
10
  7
CONVERTER_12
 73
     1
 44
0.7202881152461
  0
MTEXT
  5
15A
330
1F
100
AcDbEntity
  8
1
 62
     7
100
AcDbMText
 10
151.7500000000002
 20
12.50000000000001
 30
0.0
 40
2.5
 41
0.0
 71
     5
 72
     1
  1
03
  7
CONVERTER_12
 73
     1
 44
0.7202881152461
  0
MTEXT
  5
15B
330
1F
100
AcDbEntity
  8
1
 62
     7
100
AcDbMText
 10
140.5000000000001
 20
12.50000000000001
 30
0.0
 40
2.5
 41
0.0
 71
     5
 72
     1
  1
10
  7
CONVERTER_12
 73
     1
 44
0.7202881152461
  0
MTEXT
  5
15C
330
1F
100
AcDbEntity
  8
1
 62
     7
100
AcDbMText
 10
134.7500000000001
 20
12.50000000000001
 30
0.0
 40
2.5
 41
0.0
 71
     5
 72
     1
  1
03
  7
CONVERTER_12
 73
     1
 44
0.7202881152461
  0
MTEXT
  5
15D
330
1F
100
AcDbEntity
  8
1
 62
     7
100
AcDbMText
 10
123.5000000000001
 20
12.50000000000001
 30
0.0
 40
2.5
 41
0.0
 71
     5
 72
     1
  1
10
  7
CONVERTER_12
 73
     1
 44
0.7202881152461
  0
MTEXT
  5
15E
330
1F
100
AcDbEntity
  8
1
 62
     7
100
AcDbMText
 10
117.7500000000001
 20
12.50000000000001
 30
0.0
 40
2.5
 41
0.0
 71
     5
 72
     1
  1
03
  7
CONVERTER_12
 73
     1
 44
0.7202881152461
  0
MTEXT
  5
15F
330
1F
100
AcDbEntity
  8
1
 62
     7
100
AcDbMText
 10
100.75
 20
12.50000000000001
 30
0.0
 40
2.5
 41
0.0
 71
     5
 72
     1
  1
03
  7
CONVERTER_12
 73
     1
 44
0.7202881152461
  0
MTEXT
  5
160
330
1F
100
AcDbEntity
  8
1
 62
     7
100
AcDbMText
 10
106.5
 20
12.50000000000001
 30
0.0
 40
2.5
 41
0.0
 71
     5
 72
     1
  1
10
  7
CONVERTER_12
 73
     1
 44
0.7202881152461
  0
MTEXT
  5
161
330
1F
100
AcDbEntity
  8
1
 62
     7
100
AcDbMText
 10
97.67291203497591
 20
108.9771576407107
 30
0.0
 40
3.5
 41
0.0
 71
     5
 72
     1
  1
G1/2
  7
CONVERTER_12
 73
     1
 44
1.32052821128451
  0
MTEXT
  5
162
330
1F
100
AcDbEntity
  8
1
 62
     7
100
AcDbMText
 10
102.0571668538184
 20
151.0121555978088
 30
0.0
 40
3.5
 41
0.0
 71
     5
 72
     1
  1
G3/4
  7
CONVERTER_12
 73
     1
 44
1.32052821128451
  0
MTEXT
  5
163
330
1F
100
AcDbEntity
  8
1
 62
     7
100
AcDbMText
 10
85.25
 20
17.00000000000001
 30
0.0
 40
3.5
 41
0.0
 71
     5
 72
     1
  1
1
  7
CONVERTER_12
 73
     1
 44
0.7202881152461
  0
MTEXT
  5
164
330
1F
100
AcDbEntity
  8
1
 62
     7
100
AcDbMText
 10
57.0
 20
22.75000000000001
 30
0.0
 40
3.5
 41
0.0
 71
     5
 72
     1
  1
20X13アダプタ－
  7
CONVERTER_11
 73
     1
 44
0.54545454545455
  0
MTEXT
  5
165
330
1F
100
AcDbEntity
  8
1
 62
     7
100
AcDbMText
 10
57.0
 20
14.25000000000001
 30
0.0
 40
3.5
 41
0.0
 71
     5
 72
     1
  1
T252-20X13
  7
CONVERTER_12
 73
     1
 44
0.7202881152461
  0
MTEXT
  5
166
330
1F
100
AcDbEntity
  8
1
 62
     7
100
AcDbMText
 10
93.75
 20
17.00000000000001
 30
0.0
 40
3.5
 41
0.0
 71
     5
 72
     1
  1
1
  7
CONVERTER_12
 73
     1
 44
0.7202881152461
  0
DIMENSION
  5
171
330
1F
100
AcDbEntity
  8
1
100
AcDbDimension
  2
*D4
 10
58.72868489247644
 20
214.5699628555273
 30
0.0
 11
76.13399394398105
 21
217.3199628555273
 31
0.0
 70
    33
  1
<>
 71
     5
 42
-1.0
 53
0.00013888888889
  3
ME10_DIM_10
100
AcDbAlignedDimension
 13
93.72868489247645
 23
184.7355741372174
 33
0.0
 14
58.72868489247644
 24
184.7355741372174
 34
0.0
  0
DIMENSION
  5
17C
330
1F
100
AcDbEntity
  8
1
100
AcDbDimension
  2
*D5
 10
40.93754894242905
 20
136.5312880637106
 30
0.0
 11
38.18754894242905
 21
121.6705338189319
 31
0.0
 70
    32
  1
<>
 71
     5
 42
-1.0
 53
90.0
  3
ME10_DIM_11
100
AcDbAlignedDimension
 13
66.92868489247647
 23
106.5312880637106
 33
0.0
 14
60.22868489247645
 24
136.5312880637106
 34
0.0
 50
90.0
100
AcDbRotatedDimension
  0
DIMENSION
  5
187
330
1F
100
AcDbEntity
  8
1
100
AcDbDimension
  2
*D6
 10
106.5479882942074
 20
200.7355741372174
 30
0.0
 11
103.7979882942074
 21
184.2384772726186
 31
0.0
 70
    33
  1
<>
 71
     5
 42
-1.0
 53
-89.99999999999994
  3
ME10_DIM_12
100
AcDbAlignedDimension
 13
83.31740833185539
 23
168.7355741372174
 33
0.0
 14
83.31740833185536
 24
200.7355741372174
 34
0.0
  0
DIMENSION
  5
192
330
1F
100
AcDbEntity
  8
0
100
AcDbDimension
  2
*D7
 10
48.73291509188555
 20
119.5312880637106
 30
0.0
 11
45.98291509188555
 21
113.8586440416645
 31
0.0
 70
    32
  1
<>
 71
     5
 42
-1.0
 53
90.0
  3
ME10_DIM_13
100
AcDbAlignedDimension
 13
66.92868489247647
 23
106.5312880637106
 33
0.0
 14
60.22868489247645
 24
119.5312880637106
 34
0.0
 50
90.0
100
AcDbRotatedDimension
  0
ENDSEC
  0
SECTION
  2
OBJECTS
  0
DICTIONARY
  5
C
330
0
100
AcDbDictionary
281
     1
  3
ACAD_GROUP
350
D
  3
ACAD_LAYOUT
350
1A
  3
ACAD_MATERIAL
350
3B
  3
ACAD_MLEADERSTYLE
350
195
  3
ACAD_MLINESTYLE
350
17
  3
ACAD_PLOTSETTINGS
350
19
  3
ACAD_PLOTSTYLENAME
350
E
  3
ACAD_VISUALSTYLE
350
2A
  3
AcDbVariableDictionary
350
193
  0
DICTIONARY
  5
D
102
{ACAD_REACTORS
330
C
102
}
330
C
100
AcDbDictionary
281
     1
  0
DICTIONARY
  5
1A
102
{ACAD_REACTORS
330
C
102
}
330
C
100
AcDbDictionary
281
     1
  3
Layout1
350
1E
  3
Layout2
350
26
  3
Model
350
22
  0
DICTIONARY
  5
3B
102
{ACAD_REACTORS
330
C
102
}
330
C
100
AcDbDictionary
281
     1
  3
ByBlock
350
3D
  3
ByLayer
350
3C
  3
Global
350
3E
  0
DICTIONARY
  5
195
102
{ACAD_REACTORS
330
C
102
}
330
C
100
AcDbDictionary
281
     1
  0
DICTIONARY
  5
17
102
{ACAD_REACTORS
330
C
102
}
330
C
100
AcDbDictionary
281
     1
  3
Standard
350
18
  0
DICTIONARY
  5
19
102
{ACAD_REACTORS
330
C
102
}
330
C
100
AcDbDictionary
281
     1
  0
ACDBDICTIONARYWDFLT
  5
E
102
{ACAD_REACTORS
330
C
102
}
330
C
100
AcDbDictionary
281
     1
  3
Normal
350
F
100
AcDbDictionaryWithDefault
340
F
  0
DICTIONARY
  5
2A
102
{ACAD_REACTORS
330
C
102
}
330
C
100
AcDbDictionary
281
     1
  3
2dWireframe
350
2F
  3
3D Hidden
350
31
  3
3dWireframe
350
30
  3
Basic
350
32
  3
Brighten
350
36
  3
ColorChange
350
3A
  3
Conceptual
350
34
  3
Dim
350
35
  3
Facepattern
350
39
  3
Flat
350
2B
  3
FlatWithEdges
350
2C
  3
Gouraud
350
2D
  3
GouraudWithEdges
350
2E
  3
Linepattern
350
38
  3
Realistic
350
33
  3
Thicken
350
37
  0
DICTIONARY
  5
193
102
{ACAD_REACTORS
330
C
102
}
330
C
100
AcDbDictionary
281
     1
  3
DIMASSOC
350
196
  3
HIDETEXT
350
197
  0
LAYOUT
  5
1E
102
{ACAD_REACTORS
330
1A
102
}
330
1A
100
AcDbPlotSettings
  1

  2
none_device
  4

  6

 40
0.0
 41
0.0
 42
0.0
 43
0.0
 44
0.0
 45
0.0
 46
0.0
 47
0.0
 48
0.0
 49
0.0
140
0.0
141
0.0
142
1.0
143
1.0
 70
   688
 72
     0
 73
     0
 74
     5
  7

 75
    16
147
1.0
148
0.0
149
0.0
100
AcDbLayout
  1
Layout1
 70
     1
 71
     1
 10
0.0
 20
0.0
 11
12.0
 21
9.0
 12
0.0
 22
0.0
 32
0.0
 14
1.00000000000000E+20
 24
1.00000000000000E+20
 34
1.00000000000000E+20
 15
-1.00000000000000E+20
 25
-1.00000000000000E+20
 35
-1.00000000000000E+20
146
0.0
 13
0.0
 23
0.0
 33
0.0
 16
1.0
 26
0.0
 36
0.0
 17
0.0
 27
1.0
 37
0.0
 76
     0
330
1B
  0
LAYOUT
  5
26
102
{ACAD_REACTORS
330
1A
102
}
330
1A
100
AcDbPlotSettings
  1

  2
none_device
  4

  6

 40
0.0
 41
0.0
 42
0.0
 43
0.0
 44
0.0
 45
0.0
 46
0.0
 47
0.0
 48
0.0
 49
0.0
140
0.0
141
0.0
142
1.0
143
1.0
 70
   688
 72
     0
 73
     0
 74
     5
  7

 75
    16
147
1.0
148
0.0
149
0.0
100
AcDbLayout
  1
Layout2
 70
     1
 71
     2
 10
0.0
 20
0.0
 11
0.0
 21
0.0
 12
0.0
 22
0.0
 32
0.0
 14
0.0
 24
0.0
 34
0.0
 15
0.0
 25
0.0
 35
0.0
146
0.0
 13
0.0
 23
0.0
 33
0.0
 16
1.0
 26
0.0
 36
0.0
 17
0.0
 27
1.0
 37
0.0
 76
     0
330
23
  0
LAYOUT
  5
22
102
{ACAD_REACTORS
330
1A
102
}
330
1A
100
AcDbPlotSettings
  1

  2
none_device
  4

  6

 40
0.0
 41
0.0
 42
0.0
 43
0.0
 44
0.0
 45
0.0
 46
0.0
 47
0.0
 48
0.0
 49
0.0
140
0.0
141
0.0
142
1.0
143
1.0
 70
  1712
 72
     0
 73
     0
 74
     0
  7

 75
     0
147
1.0
148
0.0
149
0.0
100
AcDbLayout
  1
Model
 70
     1
 71
     0
 10
0.0
 20
0.0
 11
12.0
 21
9.0
 12
0.0
 22
0.0
 32
0.0
 14
0.0
 24
0.0
 34
0.0
 15
210.0000000000001
 25
297.0
 35
0.0
146
0.0
 13
0.0
 23
0.0
 33
0.0
 16
1.0
 26
0.0
 36
0.0
 17
0.0
 27
1.0
 37
0.0
 76
     0
330
1F
331
29
  0
MATERIAL
  5
3D
102
{ACAD_REACTORS
330
3B
102
}
102
{ACAD_XDICTIONARY
360
1BA
102
}
330
3B
100
AcDbMaterial
  1
ByBlock
  0
MATERIAL
  5
3C
102
{ACAD_REACTORS
330
3B
102
}
102
{ACAD_XDICTIONARY
360
1B8
102
}
330
3B
100
AcDbMaterial
  1
ByLayer
  0
MATERIAL
  5
3E
102
{ACAD_REACTORS
330
3B
102
}
102
{ACAD_XDICTIONARY
360
1BC
102
}
330
3B
100
AcDbMaterial
  1
Global
  0
MLINESTYLE
  5
18
102
{ACAD_REACTORS
330
17
102
}
330
17
100
AcDbMlineStyle
  2
Standard
 70
     0
  3

 62
   256
 51
90.0
 52
90.0
 71
     2
 49
0.5
 62
   256
  6
BYLAYER
 49
-0.5
 62
   256
  6
BYLAYER
  0
ACDBPLACEHOLDER
  5
F
102
{ACAD_REACTORS
330
E
102
}
330
E
  0
VISUALSTYLE
  5
2F
102
{ACAD_REACTORS
330
2A
102
}
102
{ACAD_XDICTIONARY
360
1A0
102
}
330
2A
100
AcDbVisualStyle
  2
2dWireframe
 70
     4
 71
     0
 72
     2
 73
     0
 90
        0
 40
-0.6
 41
-30.0
 62
     5
 63
     7
 74
     1
 91
        4
 64
     7
 65
   257
 75
     1
175
     1
 42
1.0
 92
        0
 66
   257
 43
1.0
 76
     1
 77
     6
 78
     2
 67
     7
 79
     5
170
     0
171
     0
290
     0
174
     0
 93
        1
 44
0.0
173
     0
291
     0
 45
0.0
1001
ACAD
1000
AcDbSavedByObjectVersion
1070
     0
  0
VISUALSTYLE
  5
31
102
{ACAD_REACTORS
330
2A
102
}
102
{ACAD_XDICTIONARY
360
1A4
102
}
330
2A
100
AcDbVisualStyle
  2
3D Hidden
 70
     6
 71
     1
 72
     2
 73
     2
 90
        0
 40
-0.6
 41
-30.0
 62
     5
 63
     7
 74
     2
 91
        2
 64
     7
 65
   257
 75
     2
175
     1
 42
40.0
 92
        0
 66
   257
 43
1.0
 76
     1
 77
     6
 78
     2
 67
     7
 79
     3
170
     0
171
     0
290
     0
174
     0
 93
        1
 44
0.0
173
     0
291
     0
 45
0.0
1001
ACAD
1000
AcDbSavedByObjectVersion
1070
     0
  0
VISUALSTYLE
  5
30
102
{ACAD_REACTORS
330
2A
102
}
102
{ACAD_XDICTIONARY
360
1A2
102
}
330
2A
100
AcDbVisualStyle
  2
3dWireframe
 70
     5
 71
     0
 72
     2
 73
     0
 90
        0
 40
-0.6
 41
-30.0
 62
     5
 63
     7
 74
     1
 91
        4
 64
     7
 65
   257
 75
     1
175
     1
 42
1.0
 92
        0
 66
   257
 43
1.0
 76
     1
 77
     6
 78
     2
 67
     7
 79
     5
170
     0
171
     0
290
     0
174
     0
 93
        1
 44
0.0
173
     0
291
     0
 45
0.0
1001
ACAD
1000
AcDbSavedByObjectVersion
1070
     0
  0
VISUALSTYLE
  5
32
102
{ACAD_REACTORS
330
2A
102
}
102
{ACAD_XDICTIONARY
360
1A6
102
}
330
2A
100
AcDbVisualStyle
  2
Basic
 70
     7
 71
     1
 72
     0
 73
     1
 90
        0
 40
-0.6
 41
-30.0
 62
     5
 63
     7
 74
     0
 91
        4
 64
     7
 65
   257
 75
     1
175
     1
 42
1.0
 92
        8
 66
     7
 43
1.0
 76
     1
 77
     6
 78
     2
 67
     7
 79
     5
170
     0
171
     0
290
     0
174
     0
 93
        1
 44
0.0
173
     0
291
     1
 45
0.0
1001
ACAD
1000
AcDbSavedByObjectVersion
1070
     0
  0
VISUALSTYLE
  5
36
102
{ACAD_REACTORS
330
2A
102
}
102
{ACAD_XDICTIONARY
360
1AE
102
}
330
2A
100
AcDbVisualStyle
  2
Brighten
 70
    12
 71
     2
 72
     2
 73
     0
 90
        0
 40
-0.6
 41
-30.0
 62
     5
 63
     7
 74
     1
 91
        4
 64
     7
 65
   257
 75
     1
175
     1
 42
1.0
 92
        8
 66
     7
 43
1.0
 76
     1
 77
     6
 78
     2
 67
     7
 79
     5
170
     0
171
     0
290
     0
174
     0
 93
        1
 44
50.0
173
     0
291
     1
 45
0.0
1001
ACAD
1000
AcDbSavedByObjectVersion
1070
     0
  0
VISUALSTYLE
  5
3A
102
{ACAD_REACTORS
330
2A
102
}
102
{ACAD_XDICTIONARY
360
1B6
102
}
330
2A
100
AcDbVisualStyle
  2
ColorChange
 70
    16
 71
     2
 72
     2
 73
     3
 90
        0
 40
-0.6
 41
-30.0
 62
     5
 63
     8
 74
     1
 91
        4
 64
     7
 65
   257
 75
     1
175
     1
 42
1.0
 92
        8
 66
     8
 43
1.0
 76
     1
 77
     6
 78
     2
 67
     7
 79
     5
170
     0
171
     0
290
     0
174
     0
 93
        1
 44
0.0
173
     0
291
     1
 45
0.0
1001
ACAD
1000
AcDbSavedByObjectVersion
1070
     0
  0
VISUALSTYLE
  5
34
102
{ACAD_REACTORS
330
2A
102
}
102
{ACAD_XDICTIONARY
360
1AA
102
}
330
2A
100
AcDbVisualStyle
  2
Conceptual
 70
     9
 71
     3
 72
     2
 73
     0
 90
        0
 40
-0.6
 41
-30.0
 62
     5
 63
     7
 74
     2
 91
        2
 64
     7
 65
   257
 75
     1
175
     1
 42
40.0
 92
        8
 66
     7
 43
1.0
 76
     1
 77
     6
 78
     2
 67
     7
 79
     3
170
     0
171
     0
290
     0
174
     0
 93
        1
 44
0.0
173
     0
291
     0
 45
0.0
1001
ACAD
1000
AcDbSavedByObjectVersion
1070
     0
  0
VISUALSTYLE
  5
35
102
{ACAD_REACTORS
330
2A
102
}
102
{ACAD_XDICTIONARY
360
1AC
102
}
330
2A
100
AcDbVisualStyle
  2
Dim
 70
    11
 71
     2
 72
     2
 73
     0
 90
        0
 40
-0.6
 41
-30.0
 62
     5
 63
     7
 74
     1
 91
        4
 64
     7
 65
   257
 75
     1
175
     1
 42
1.0
 92
        8
 66
     7
 43
1.0
 76
     1
 77
     6
 78
     2
 67
     7
 79
     5
170
     0
171
     0
290
     0
174
     0
 93
        1
 44
-50.0
173
     0
291
     1
 45
0.0
1001
ACAD
1000
AcDbSavedByObjectVersion
1070
     0
  0
VISUALSTYLE
  5
39
102
{ACAD_REACTORS
330
2A
102
}
102
{ACAD_XDICTIONARY
360
1B4
102
}
330
2A
100
AcDbVisualStyle
  2
Facepattern
 70
    15
 71
     2
 72
     2
 73
     0
 90
        0
 40
-0.6
 41
-30.0
 62
     5
 63
     7
 74
     1
 91
        4
 64
     7
 65
   257
 75
     1
175
     1
 42
1.0
 92
        8
 66
     7
 43
1.0
 76
     1
 77
     6
 78
     2
 67
     7
 79
     5
170
     0
171
     0
290
     0
174
     0
 93
        1
 44
0.0
173
     0
291
     1
 45
0.0
1001
ACAD
1000
AcDbSavedByObjectVersion
1070
     0
  0
VISUALSTYLE
  5
2B
102
{ACAD_REACTORS
330
2A
102
}
102
{ACAD_XDICTIONARY
360
198
102
}
330
2A
100
AcDbVisualStyle
  2
Flat
 70
     0
 71
     2
 72
     1
 73
     1
 90
        2
 40
-0.6
 41
30.0
 62
     5
 63
     7
 74
     0
 91
        4
 64
     7
 65
   257
 75
     1
175
     1
 42
1.0
 92
        8
 66
     7
 43
1.0
 76
     1
 77
     6
 78
     2
 67
     7
 79
     5
170
     0
171
     0
290
     0
174
     0
 93
       13
 44
0.0
173
     0
291
     1
 45
0.0
1001
ACAD
1000
AcDbSavedByObjectVersion
1070
     0
  0
VISUALSTYLE
  5
2C
102
{ACAD_REACTORS
330
2A
102
}
102
{ACAD_XDICTIONARY
360
19A
102
}
330
2A
100
AcDbVisualStyle
  2
FlatWithEdges
 70
     1
 71
     2
 72
     1
 73
     1
 90
        2
 40
-0.6
 41
30.0
 62
     5
 63
     7
 74
     1
 91
        4
 64
     7
 65
   257
 75
     1
175
     1
 42
1.0
 92
        0
 66
   257
 43
1.0
 76
     1
 77
     6
 78
     2
 67
     7
 79
     5
170
     0
171
     0
290
     0
174
     0
 93
       13
 44
0.0
173
     0
291
     1
 45
0.0
1001
ACAD
1000
AcDbSavedByObjectVersion
1070
     0
  0
VISUALSTYLE
  5
2D
102
{ACAD_REACTORS
330
2A
102
}
102
{ACAD_XDICTIONARY
360
19C
102
}
330
2A
100
AcDbVisualStyle
  2
Gouraud
 70
     2
 71
     2
 72
     2
 73
     1
 90
        2
 40
-0.6
 41
30.0
 62
     5
 63
     7
 74
     0
 91
        4
 64
     7
 65
   257
 75
     1
175
     1
 42
1.0
 92
        0
 66
     7
 43
1.0
 76
     1
 77
     6
 78
     2
 67
     7
 79
     5
170
     0
171
     0
290
     0
174
     0
 93
       13
 44
0.0
173
     0
291
     1
 45
0.0
1001
ACAD
1000
AcDbSavedByObjectVersion
1070
     0
  0
VISUALSTYLE
  5
2E
102
{ACAD_REACTORS
330
2A
102
}
102
{ACAD_XDICTIONARY
360
19E
102
}
330
2A
100
AcDbVisualStyle
  2
GouraudWithEdges
 70
     3
 71
     2
 72
     2
 73
     1
 90
        2
 40
-0.6
 41
30.0
 62
     5
 63
     7
 74
     1
 91
        4
 64
     7
 65
   257
 75
     1
175
     1
 42
1.0
 92
        0
 66
   257
 43
1.0
 76
     1
 77
     6
 78
     2
 67
     7
 79
     5
170
     0
171
     0
290
     0
174
     0
 93
       13
 44
0.0
173
     0
291
     1
 45
0.0
1001
ACAD
1000
AcDbSavedByObjectVersion
1070
     0
  0
VISUALSTYLE
  5
38
102
{ACAD_REACTORS
330
2A
102
}
102
{ACAD_XDICTIONARY
360
1B2
102
}
330
2A
100
AcDbVisualStyle
  2
Linepattern
 70
    14
 71
     2
 72
     2
 73
     0
 90
        0
 40
-0.6
 41
-30.0
 62
     5
 63
     7
 74
     1
 91
        4
 64
     7
 65
   257
 75
     7
175
     7
 42
1.0
 92
        8
 66
     7
 43
1.0
 76
     1
 77
     6
 78
     2
 67
     7
 79
     5
170
     0
171
     0
290
     0
174
     0
 93
        1
 44
0.0
173
     0
291
     1
 45
0.0
1001
ACAD
1000
AcDbSavedByObjectVersion
1070
     0
  0
VISUALSTYLE
  5
33
102
{ACAD_REACTORS
330
2A
102
}
102
{ACAD_XDICTIONARY
360
1A8
102
}
330
2A
100
AcDbVisualStyle
  2
Realistic
 70
     8
 71
     2
 72
     2
 73
     0
 90
        0
 40
-0.6
 41
-30.0
 62
     5
 63
     7
 74
     1
 91
        0
 64
     7
 65
   257
 75
     1
175
     1
 42
1.0
 92
        8
 66
     8
 43
1.0
 76
     1
 77
     6
 78
     2
 67
     7
 79
     5
170
     0
171
     0
290
     0
174
     0
 93
       13
 44
0.0
173
     0
291
     0
 45
0.0
1001
ACAD
1000
AcDbSavedByObjectVersion
1070
     0
  0
VISUALSTYLE
  5
37
102
{ACAD_REACTORS
330
2A
102
}
102
{ACAD_XDICTIONARY
360
1B0
102
}
330
2A
100
AcDbVisualStyle
  2
Thicken
 70
    13
 71
     2
 72
     2
 73
     0
 90
        0
 40
-0.6
 41
-30.0
 62
     5
 63
     7
 74
     1
 91
        4
 64
     7
 65
   257
 75
     1
175
     1
 42
1.0
 92
       12
 66
     7
 43
1.0
 76
     1
 77
     6
 78
     2
 67
     7
 79
     5
170
     0
171
     0
290
     0
174
     0
 93
        1
 44
0.0
173
     0
291
     1
 45
0.0
1001
ACAD
1000
AcDbSavedByObjectVersion
1070
     0
  0
DICTIONARYVAR
  5
196
102
{ACAD_REACTORS
330
193
102
}
330
193
100
DictionaryVariables
280
     0
  1
2
  0
DICTIONARYVAR
  5
197
102
{ACAD_REACTORS
330
193
102
}
330
193
100
DictionaryVariables
280
     0
  1
1
  0
DICTIONARY
  5
1BA
330
3D
100
AcDbDictionary
280
     1
281
     1
  3
ACAD_XREC_ROUNDTRIP
360
1BB
  0
DICTIONARY
  5
1B8
330
3C
100
AcDbDictionary
280
     1
281
     1
  3
ACAD_XREC_ROUNDTRIP
360
1B9
  0
DICTIONARY
  5
1BC
330
3E
100
AcDbDictionary
280
     1
281
     1
  3
ACAD_XREC_ROUNDTRIP
360
1BD
  0
DICTIONARY
  5
1A0
330
2F
100
AcDbDictionary
280
     1
281
     1
  3
ACAD_XREC_ROUNDTRIP
360
1A1
  0
DICTIONARY
  5
1A4
330
31
100
AcDbDictionary
280
     1
281
     1
  3
ACAD_XREC_ROUNDTRIP
360
1A5
  0
DICTIONARY
  5
1A2
330
30
100
AcDbDictionary
280
     1
281
     1
  3
ACAD_XREC_ROUNDTRIP
360
1A3
  0
DICTIONARY
  5
1A6
330
32
100
AcDbDictionary
280
     1
281
     1
  3
ACAD_XREC_ROUNDTRIP
360
1A7
  0
DICTIONARY
  5
1AE
330
36
100
AcDbDictionary
280
     1
281
     1
  3
ACAD_XREC_ROUNDTRIP
360
1AF
  0
DICTIONARY
  5
1B6
330
3A
100
AcDbDictionary
280
     1
281
     1
  3
ACAD_XREC_ROUNDTRIP
360
1B7
  0
DICTIONARY
  5
1AA
330
34
100
AcDbDictionary
280
     1
281
     1
  3
ACAD_XREC_ROUNDTRIP
360
1AB
  0
DICTIONARY
  5
1AC
330
35
100
AcDbDictionary
280
     1
281
     1
  3
ACAD_XREC_ROUNDTRIP
360
1AD
  0
DICTIONARY
  5
1B4
330
39
100
AcDbDictionary
280
     1
281
     1
  3
ACAD_XREC_ROUNDTRIP
360
1B5
  0
DICTIONARY
  5
198
330
2B
100
AcDbDictionary
280
     1
281
     1
  3
ACAD_XREC_ROUNDTRIP
360
199
  0
DICTIONARY
  5
19A
330
2C
100
AcDbDictionary
280
     1
281
     1
  3
ACAD_XREC_ROUNDTRIP
360
19B
  0
DICTIONARY
  5
19C
330
2D
100
AcDbDictionary
280
     1
281
     1
  3
ACAD_XREC_ROUNDTRIP
360
19D
  0
DICTIONARY
  5
19E
330
2E
100
AcDbDictionary
280
     1
281
     1
  3
ACAD_XREC_ROUNDTRIP
360
19F
  0
DICTIONARY
  5
1B2
330
38
100
AcDbDictionary
280
     1
281
     1
  3
ACAD_XREC_ROUNDTRIP
360
1B3
  0
DICTIONARY
  5
1A8
330
33
100
AcDbDictionary
280
     1
281
     1
  3
ACAD_XREC_ROUNDTRIP
360
1A9
  0
DICTIONARY
  5
1B0
330
37
100
AcDbDictionary
280
     1
281
     1
  3
ACAD_XREC_ROUNDTRIP
360
1B1
  0
XRECORD
  5
1BB
102
{ACAD_REACTORS
330
1BA
102
}
330
1BA
100
AcDbXrecord
280
     1
102
MATERIAL
148
0.0
149
0.0
149
0.0
 93
        0
 94
      127
282
     0
 72
     1
 77
     1
171
     1
175
     1
179
     1
273
     0
  0
XRECORD
  5
1B9
102
{ACAD_REACTORS
330
1B8
102
}
330
1B8
100
AcDbXrecord
280
     1
102
MATERIAL
148
0.0
149
0.0
149
0.0
 93
        0
 94
      127
282
     0
 72
     1
 77
     1
171
     1
175
     1
179
     1
273
     0
  0
XRECORD
  5
1BD
102
{ACAD_REACTORS
330
1BC
102
}
330
1BC
100
AcDbXrecord
280
     1
102
MATERIAL
148
0.0
149
0.0
149
0.0
 93
        0
 94
      127
282
     0
 72
     1
 77
     1
171
     1
175
     1
179
     1
273
     0
  0
XRECORD
  5
1A1
102
{ACAD_REACTORS
330
1A0
102
}
330
1A0
100
AcDbXrecord
280
     1
102
RTVSPropertyOp0
 70
     1
102
RTVSPropertyOp1
 70
     1
102
RTVSPropertyOp2
 70
     1
102
RTVSPropertyOp3
 70
     1
102
RTVSPropertyOp4
 70
     1
102
RTVSPropertyOp5
 70
     1
102
RTVSPropertyOp6
 70
     1
102
RTVSPropertyOp7
 70
     1
102
RTVSPropertyOp8
 70
     1
102
RTVSPropertyOp9
 70
     1
102
RTVSPropertyOp10
 70
     1
102
RTVSPropertyOp11
 70
     1
102
RTVSPropertyOp12
 70
     1
102
RTVSPropertyOp13
 70
     1
102
RTVSPropertyOp14
 70
     1
102
RTVSPropertyOp15
 70
     1
102
RTVSPropertyOp16
 70
     1
102
RTVSPropertyOp17
 70
     1
102
RTVSPropertyOp18
 70
     1
102
RTVSPropertyOp19
 70
     1
102
RTVSPropertyOp20
 70
     1
102
RTVSPropertyOp21
 70
     1
102
RTVSPropertyOp22
 70
     1
102
RTVSPropertyOp23
 70
     1
102
RTVSPropertyOp24
 70
     1
102
RTVSPropertyOp25
 70
     1
102
RTVSPropertyOp26
 70
     1
102
RTVSPropertyOp27
 70
     1
102
RTVSPropertyOp28
 70
     1
102
RTVSPropertyOp29
 70
     1
102
RTVSPropertyOp30
 70
     1
102
RTVSPropertyOp31
 70
     1
102
RTVSPropertyOp32
 70
     1
  0
XRECORD
  5
1A5
102
{ACAD_REACTORS
330
1A4
102
}
330
1A4
100
AcDbXrecord
280
     1
102
RTVSPropertyOp0
 70
     1
102
RTVSPropertyOp1
 70
     1
102
RTVSPropertyOp2
 70
     1
102
RTVSPropertyOp3
 70
     1
102
RTVSPropertyOp4
 70
     1
102
RTVSPropertyOp5
 70
     1
102
RTVSPropertyOp6
 70
     1
102
RTVSPropertyOp7
 70
     1
102
RTVSPropertyOp8
 70
     1
102
RTVSPropertyOp9
 70
     1
102
RTVSPropertyOp10
 70
     1
102
RTVSPropertyOp11
 70
     1
102
RTVSPropertyOp12
 70
     1
102
RTVSPropertyOp13
 70
     1
102
RTVSPropertyOp14
 70
     1
102
RTVSPropertyOp15
 70
     1
102
RTVSPropertyOp16
 70
     1
102
RTVSPropertyOp17
 70
     1
102
RTVSPropertyOp18
 70
     1
102
RTVSPropertyOp19
 70
     1
102
RTVSPropertyOp20
 70
     1
102
RTVSPropertyOp21
 70
     1
102
RTVSPropertyOp22
 70
     1
102
RTVSPropertyOp23
 70
     1
102
RTVSPropertyOp24
 70
     1
102
RTVSPropertyOp25
 70
     1
102
RTVSPropertyOp26
 70
     1
102
RTVSPropertyOp27
 70
     1
102
RTVSPropertyOp28
 70
     1
102
RTVSPropertyOp29
 70
     1
102
RTVSPropertyOp30
 70
     1
102
RTVSPropertyOp31
 70
     1
102
RTVSPropertyOp32
 70
     1
  0
XRECORD
  5
1A3
102
{ACAD_REACTORS
330
1A2
102
}
330
1A2
100
AcDbXrecord
280
     1
102
RTVSPropertyOp0
 70
     1
102
RTVSPropertyOp1
 70
     1
102
RTVSPropertyOp2
 70
     1
102
RTVSPropertyOp3
 70
     1
102
RTVSPropertyOp4
 70
     1
102
RTVSPropertyOp5
 70
     1
102
RTVSPropertyOp6
 70
     1
102
RTVSPropertyOp7
 70
     1
102
RTVSPropertyOp8
 70
     1
102
RTVSPropertyOp9
 70
     1
102
RTVSPropertyOp10
 70
     1
102
RTVSPropertyOp11
 70
     1
102
RTVSPropertyOp12
 70
     1
102
RTVSPropertyOp13
 70
     1
102
RTVSPropertyOp14
 70
     1
102
RTVSPropertyOp15
 70
     1
102
RTVSPropertyOp16
 70
     1
102
RTVSPropertyOp17
 70
     1
102
RTVSPropertyOp18
 70
     1
102
RTVSPropertyOp19
 70
     1
102
RTVSPropertyOp20
 70
     1
102
RTVSPropertyOp21
 70
     1
102
RTVSPropertyOp22
 70
     1
102
RTVSPropertyOp23
 70
     1
102
RTVSPropertyOp24
 70
     1
102
RTVSPropertyOp25
 70
     1
102
RTVSPropertyOp26
 70
     1
102
RTVSPropertyOp27
 70
     1
102
RTVSPropertyOp28
 70
     1
102
RTVSPropertyOp29
 70
     1
102
RTVSPropertyOp30
 70
     1
102
RTVSPropertyOp31
 70
     1
102
RTVSPropertyOp32
 70
     1
  0
XRECORD
  5
1A7
102
{ACAD_REACTORS
330
1A6
102
}
330
1A6
100
AcDbXrecord
280
     1
102
RTVSPropertyOp0
 70
     1
102
RTVSPropertyOp1
 70
     1
102
RTVSPropertyOp2
 70
     1
102
RTVSPropertyOp3
 70
     1
102
RTVSPropertyOp4
 70
     1
102
RTVSPropertyOp5
 70
     1
102
RTVSPropertyOp6
 70
     1
102
RTVSPropertyOp7
 70
     1
102
RTVSPropertyOp8
 70
     1
102
RTVSPropertyOp9
 70
     1
102
RTVSPropertyOp10
 70
     1
102
RTVSPropertyOp11
 70
     1
102
RTVSPropertyOp12
 70
     1
102
RTVSPropertyOp13
 70
     1
102
RTVSPropertyOp14
 70
     1
102
RTVSPropertyOp15
 70
     1
102
RTVSPropertyOp16
 70
     1
102
RTVSPropertyOp17
 70
     1
102
RTVSPropertyOp18
 70
     1
102
RTVSPropertyOp19
 70
     1
102
RTVSPropertyOp20
 70
     1
102
RTVSPropertyOp21
 70
     1
102
RTVSPropertyOp22
 70
     1
102
RTVSPropertyOp23
 70
     1
102
RTVSPropertyOp24
 70
     1
102
RTVSPropertyOp25
 70
     1
102
RTVSPropertyOp26
 70
     1
102
RTVSPropertyOp27
 70
     1
102
RTVSPropertyOp28
 70
     1
102
RTVSPropertyOp29
 70
     1
102
RTVSPropertyOp30
 70
     1
102
RTVSPropertyOp31
 70
     1
102
RTVSPropertyOp32
 70
     1
  0
XRECORD
  5
1AF
102
{ACAD_REACTORS
330
1AE
102
}
330
1AE
100
AcDbXrecord
280
     1
102
RTVSPropertyOp0
 70
     1
102
RTVSPropertyOp1
 70
     1
102
RTVSPropertyOp2
 70
     1
102
RTVSPropertyOp3
 70
     1
102
RTVSPropertyOp4
 70
     1
102
RTVSPropertyOp5
 70
     1
102
RTVSPropertyOp6
 70
     1
102
RTVSPropertyOp7
 70
     1
102
RTVSPropertyOp8
 70
     1
102
RTVSPropertyOp9
 70
     1
102
RTVSPropertyOp10
 70
     1
102
RTVSPropertyOp11
 70
     1
102
RTVSPropertyOp12
 70
     1
102
RTVSPropertyOp13
 70
     1
102
RTVSPropertyOp14
 70
     1
102
RTVSPropertyOp15
 70
     1
102
RTVSPropertyOp16
 70
     1
102
RTVSPropertyOp17
 70
     1
102
RTVSPropertyOp18
 70
     1
102
RTVSPropertyOp19
 70
     1
102
RTVSPropertyOp20
 70
     1
102
RTVSPropertyOp21
 70
     1
102
RTVSPropertyOp22
 70
     1
102
RTVSPropertyOp23
 70
     1
102
RTVSPropertyOp24
 70
     1
102
RTVSPropertyOp25
 70
     1
102
RTVSPropertyOp26
 70
     1
102
RTVSPropertyOp27
 70
     1
102
RTVSPropertyOp28
 70
     1
102
RTVSPropertyOp29
 70
     1
102
RTVSPropertyOp30
 70
     1
102
RTVSPropertyOp31
 70
     1
102
RTVSPropertyOp32
 70
     1
  0
XRECORD
  5
1B7
102
{ACAD_REACTORS
330
1B6
102
}
330
1B6
100
AcDbXrecord
280
     1
102
RTVSPropertyOp0
 70
     1
102
RTVSPropertyOp1
 70
     1
102
RTVSPropertyOp2
 70
     1
102
RTVSPropertyOp3
 70
     1
102
RTVSPropertyOp4
 70
     1
102
RTVSPropertyOp5
 70
     1
102
RTVSPropertyOp6
 70
     1
102
RTVSPropertyOp7
 70
     1
102
RTVSPropertyOp8
 70
     1
102
RTVSPropertyOp9
 70
     1
102
RTVSPropertyOp10
 70
     1
102
RTVSPropertyOp11
 70
     1
102
RTVSPropertyOp12
 70
     1
102
RTVSPropertyOp13
 70
     1
102
RTVSPropertyOp14
 70
     1
102
RTVSPropertyOp15
 70
     1
102
RTVSPropertyOp16
 70
     1
102
RTVSPropertyOp17
 70
     1
102
RTVSPropertyOp18
 70
     1
102
RTVSPropertyOp19
 70
     1
102
RTVSPropertyOp20
 70
     1
102
RTVSPropertyOp21
 70
     1
102
RTVSPropertyOp22
 70
     1
102
RTVSPropertyOp23
 70
     1
102
RTVSPropertyOp24
 70
     1
102
RTVSPropertyOp25
 70
     1
102
RTVSPropertyOp26
 70
     1
102
RTVSPropertyOp27
 70
     1
102
RTVSPropertyOp28
 70
     1
102
RTVSPropertyOp29
 70
     1
102
RTVSPropertyOp30
 70
     1
102
RTVSPropertyOp31
 70
     1
102
RTVSPropertyOp32
 70
     1
  0
XRECORD
  5
1AB
102
{ACAD_REACTORS
330
1AA
102
}
330
1AA
100
AcDbXrecord
280
     1
102
RTVSPropertyOp0
 70
     1
102
RTVSPropertyOp1
 70
     1
102
RTVSPropertyOp2
 70
     1
102
RTVSPropertyOp3
 70
     1
102
RTVSPropertyOp4
 70
     1
102
RTVSPropertyOp5
 70
     1
102
RTVSPropertyOp6
 70
     1
102
RTVSPropertyOp7
 70
     1
102
RTVSPropertyOp8
 70
     1
102
RTVSPropertyOp9
 70
     1
102
RTVSPropertyOp10
 70
     1
102
RTVSPropertyOp11
 70
     1
102
RTVSPropertyOp12
 70
     1
102
RTVSPropertyOp13
 70
     1
102
RTVSPropertyOp14
 70
     1
102
RTVSPropertyOp15
 70
     1
102
RTVSPropertyOp16
 70
     1
102
RTVSPropertyOp17
 70
     1
102
RTVSPropertyOp18
 70
     1
102
RTVSPropertyOp19
 70
     1
102
RTVSPropertyOp20
 70
     1
102
RTVSPropertyOp21
 70
     1
102
RTVSPropertyOp22
 70
     1
102
RTVSPropertyOp23
 70
     1
102
RTVSPropertyOp24
 70
     1
102
RTVSPropertyOp25
 70
     1
102
RTVSPropertyOp26
 70
     1
102
RTVSPropertyOp27
 70
     1
102
RTVSPropertyOp28
 70
     1
102
RTVSPropertyOp29
 70
     1
102
RTVSPropertyOp30
 70
     1
102
RTVSPropertyOp31
 70
     1
102
RTVSPropertyOp32
 70
     1
  0
XRECORD
  5
1AD
102
{ACAD_REACTORS
330
1AC
102
}
330
1AC
100
AcDbXrecord
280
     1
102
RTVSPropertyOp0
 70
     1
102
RTVSPropertyOp1
 70
     1
102
RTVSPropertyOp2
 70
     1
102
RTVSPropertyOp3
 70
     1
102
RTVSPropertyOp4
 70
     1
102
RTVSPropertyOp5
 70
     1
102
RTVSPropertyOp6
 70
     1
102
RTVSPropertyOp7
 70
     1
102
RTVSPropertyOp8
 70
     1
102
RTVSPropertyOp9
 70
     1
102
RTVSPropertyOp10
 70
     1
102
RTVSPropertyOp11
 70
     1
102
RTVSPropertyOp12
 70
     1
102
RTVSPropertyOp13
 70
     1
102
RTVSPropertyOp14
 70
     1
102
RTVSPropertyOp15
 70
     1
102
RTVSPropertyOp16
 70
     1
102
RTVSPropertyOp17
 70
     1
102
RTVSPropertyOp18
 70
     1
102
RTVSPropertyOp19
 70
     1
102
RTVSPropertyOp20
 70
     1
102
RTVSPropertyOp21
 70
     1
102
RTVSPropertyOp22
 70
     1
102
RTVSPropertyOp23
 70
     1
102
RTVSPropertyOp24
 70
     1
102
RTVSPropertyOp25
 70
     1
102
RTVSPropertyOp26
 70
     1
102
RTVSPropertyOp27
 70
     1
102
RTVSPropertyOp28
 70
     1
102
RTVSPropertyOp29
 70
     1
102
RTVSPropertyOp30
 70
     1
102
RTVSPropertyOp31
 70
     1
102
RTVSPropertyOp32
 70
     1
  0
XRECORD
  5
1B5
102
{ACAD_REACTORS
330
1B4
102
}
330
1B4
100
AcDbXrecord
280
     1
102
RTVSPropertyOp0
 70
     1
102
RTVSPropertyOp1
 70
     1
102
RTVSPropertyOp2
 70
     1
102
RTVSPropertyOp3
 70
     1
102
RTVSPropertyOp4
 70
     1
102
RTVSPropertyOp5
 70
     1
102
RTVSPropertyOp6
 70
     1
102
RTVSPropertyOp7
 70
     1
102
RTVSPropertyOp8
 70
     1
102
RTVSPropertyOp9
 70
     1
102
RTVSPropertyOp10
 70
     1
102
RTVSPropertyOp11
 70
     1
102
RTVSPropertyOp12
 70
     1
102
RTVSPropertyOp13
 70
     1
102
RTVSPropertyOp14
 70
     1
102
RTVSPropertyOp15
 70
     1
102
RTVSPropertyOp16
 70
     1
102
RTVSPropertyOp17
 70
     1
102
RTVSPropertyOp18
 70
     1
102
RTVSPropertyOp19
 70
     1
102
RTVSPropertyOp20
 70
     1
102
RTVSPropertyOp21
 70
     1
102
RTVSPropertyOp22
 70
     1
102
RTVSPropertyOp23
 70
     1
102
RTVSPropertyOp24
 70
     1
102
RTVSPropertyOp25
 70
     1
102
RTVSPropertyOp26
 70
     1
102
RTVSPropertyOp27
 70
     1
102
RTVSPropertyOp28
 70
     1
102
RTVSPropertyOp29
 70
     1
102
RTVSPropertyOp30
 70
     1
102
RTVSPropertyOp31
 70
     1
102
RTVSPropertyOp32
 70
     1
  0
XRECORD
  5
199
102
{ACAD_REACTORS
330
198
102
}
330
198
100
AcDbXrecord
280
     1
102
RTVSPropertyOp0
 70
     1
102
RTVSPropertyOp1
 70
     1
102
RTVSPropertyOp2
 70
     1
102
RTVSPropertyOp3
 70
     1
102
RTVSPropertyOp4
 70
     1
102
RTVSPropertyOp5
 70
     1
102
RTVSPropertyOp6
 70
     1
102
RTVSPropertyOp7
 70
     1
102
RTVSPropertyOp8
 70
     1
102
RTVSPropertyOp9
 70
     1
102
RTVSPropertyOp10
 70
     1
102
RTVSPropertyOp11
 70
     1
102
RTVSPropertyOp12
 70
     1
102
RTVSPropertyOp13
 70
     1
102
RTVSPropertyOp14
 70
     1
102
RTVSPropertyOp15
 70
     1
102
RTVSPropertyOp16
 70
     1
102
RTVSPropertyOp17
 70
     1
102
RTVSPropertyOp18
 70
     1
102
RTVSPropertyOp19
 70
     1
102
RTVSPropertyOp20
 70
     1
102
RTVSPropertyOp21
 70
     1
102
RTVSPropertyOp22
 70
     1
102
RTVSPropertyOp23
 70
     1
102
RTVSPropertyOp24
 70
     1
102
RTVSPropertyOp25
 70
     1
102
RTVSPropertyOp26
 70
     1
102
RTVSPropertyOp27
 70
     1
102
RTVSPropertyOp28
 70
     1
102
RTVSPropertyOp29
 70
     1
102
RTVSPropertyOp30
 70
     1
102
RTVSPropertyOp31
 70
     1
102
RTVSPropertyOp32
 70
     1
  0
XRECORD
  5
19B
102
{ACAD_REACTORS
330
19A
102
}
330
19A
100
AcDbXrecord
280
     1
102
RTVSPropertyOp0
 70
     1
102
RTVSPropertyOp1
 70
     1
102
RTVSPropertyOp2
 70
     1
102
RTVSPropertyOp3
 70
     1
102
RTVSPropertyOp4
 70
     1
102
RTVSPropertyOp5
 70
     1
102
RTVSPropertyOp6
 70
     1
102
RTVSPropertyOp7
 70
     1
102
RTVSPropertyOp8
 70
     1
102
RTVSPropertyOp9
 70
     1
102
RTVSPropertyOp10
 70
     1
102
RTVSPropertyOp11
 70
     1
102
RTVSPropertyOp12
 70
     1
102
RTVSPropertyOp13
 70
     1
102
RTVSPropertyOp14
 70
     1
102
RTVSPropertyOp15
 70
     1
102
RTVSPropertyOp16
 70
     1
102
RTVSPropertyOp17
 70
     1
102
RTVSPropertyOp18
 70
     1
102
RTVSPropertyOp19
 70
     1
102
RTVSPropertyOp20
 70
     1
102
RTVSPropertyOp21
 70
     1
102
RTVSPropertyOp22
 70
     1
102
RTVSPropertyOp23
 70
     1
102
RTVSPropertyOp24
 70
     1
102
RTVSPropertyOp25
 70
     1
102
RTVSPropertyOp26
 70
     1
102
RTVSPropertyOp27
 70
     1
102
RTVSPropertyOp28
 70
     1
102
RTVSPropertyOp29
 70
     1
102
RTVSPropertyOp30
 70
     1
102
RTVSPropertyOp31
 70
     1
102
RTVSPropertyOp32
 70
     1
  0
XRECORD
  5
19D
102
{ACAD_REACTORS
330
19C
102
}
330
19C
100
AcDbXrecord
280
     1
102
RTVSPropertyOp0
 70
     1
102
RTVSPropertyOp1
 70
     1
102
RTVSPropertyOp2
 70
     1
102
RTVSPropertyOp3
 70
     1
102
RTVSPropertyOp4
 70
     1
102
RTVSPropertyOp5
 70
     1
102
RTVSPropertyOp6
 70
     1
102
RTVSPropertyOp7
 70
     1
102
RTVSPropertyOp8
 70
     1
102
RTVSPropertyOp9
 70
     1
102
RTVSPropertyOp10
 70
     1
102
RTVSPropertyOp11
 70
     1
102
RTVSPropertyOp12
 70
     1
102
RTVSPropertyOp13
 70
     1
102
RTVSPropertyOp14
 70
     1
102
RTVSPropertyOp15
 70
     1
102
RTVSPropertyOp16
 70
     1
102
RTVSPropertyOp17
 70
     1
102
RTVSPropertyOp18
 70
     1
102
RTVSPropertyOp19
 70
     1
102
RTVSPropertyOp20
 70
     1
102
RTVSPropertyOp21
 70
     1
102
RTVSPropertyOp22
 70
     1
102
RTVSPropertyOp23
 70
     1
102
RTVSPropertyOp24
 70
     1
102
RTVSPropertyOp25
 70
     1
102
RTVSPropertyOp26
 70
     1
102
RTVSPropertyOp27
 70
     1
102
RTVSPropertyOp28
 70
     1
102
RTVSPropertyOp29
 70
     1
102
RTVSPropertyOp30
 70
     1
102
RTVSPropertyOp31
 70
     1
102
RTVSPropertyOp32
 70
     1
  0
XRECORD
  5
19F
102
{ACAD_REACTORS
330
19E
102
}
330
19E
100
AcDbXrecord
280
     1
102
RTVSPropertyOp0
 70
     1
102
RTVSPropertyOp1
 70
     1
102
RTVSPropertyOp2
 70
     1
102
RTVSPropertyOp3
 70
     1
102
RTVSPropertyOp4
 70
     1
102
RTVSPropertyOp5
 70
     1
102
RTVSPropertyOp6
 70
     1
102
RTVSPropertyOp7
 70
     1
102
RTVSPropertyOp8
 70
     1
102
RTVSPropertyOp9
 70
     1
102
RTVSPropertyOp10
 70
     1
102
RTVSPropertyOp11
 70
     1
102
RTVSPropertyOp12
 70
     1
102
RTVSPropertyOp13
 70
     1
102
RTVSPropertyOp14
 70
     1
102
RTVSPropertyOp15
 70
     1
102
RTVSPropertyOp16
 70
     1
102
RTVSPropertyOp17
 70
     1
102
RTVSPropertyOp18
 70
     1
102
RTVSPropertyOp19
 70
     1
102
RTVSPropertyOp20
 70
     1
102
RTVSPropertyOp21
 70
     1
102
RTVSPropertyOp22
 70
     1
102
RTVSPropertyOp23
 70
     1
102
RTVSPropertyOp24
 70
     1
102
RTVSPropertyOp25
 70
     1
102
RTVSPropertyOp26
 70
     1
102
RTVSPropertyOp27
 70
     1
102
RTVSPropertyOp28
 70
     1
102
RTVSPropertyOp29
 70
     1
102
RTVSPropertyOp30
 70
     1
102
RTVSPropertyOp31
 70
     1
102
RTVSPropertyOp32
 70
     1
  0
XRECORD
  5
1B3
102
{ACAD_REACTORS
330
1B2
102
}
330
1B2
100
AcDbXrecord
280
     1
102
RTVSPropertyOp0
 70
     1
102
RTVSPropertyOp1
 70
     1
102
RTVSPropertyOp2
 70
     1
102
RTVSPropertyOp3
 70
     1
102
RTVSPropertyOp4
 70
     1
102
RTVSPropertyOp5
 70
     1
102
RTVSPropertyOp6
 70
     1
102
RTVSPropertyOp7
 70
     1
102
RTVSPropertyOp8
 70
     1
102
RTVSPropertyOp9
 70
     1
102
RTVSPropertyOp10
 70
     1
102
RTVSPropertyOp11
 70
     1
102
RTVSPropertyOp12
 70
     1
102
RTVSPropertyOp13
 70
     1
102
RTVSPropertyOp14
 70
     1
102
RTVSPropertyOp15
 70
     1
102
RTVSPropertyOp16
 70
     1
102
RTVSPropertyOp17
 70
     1
102
RTVSPropertyOp18
 70
     1
102
RTVSPropertyOp19
 70
     1
102
RTVSPropertyOp20
 70
     1
102
RTVSPropertyOp21
 70
     1
102
RTVSPropertyOp22
 70
     1
102
RTVSPropertyOp23
 70
     1
102
RTVSPropertyOp24
 70
     1
102
RTVSPropertyOp25
 70
     1
102
RTVSPropertyOp26
 70
     1
102
RTVSPropertyOp27
 70
     1
102
RTVSPropertyOp28
 70
     1
102
RTVSPropertyOp29
 70
     1
102
RTVSPropertyOp30
 70
     1
102
RTVSPropertyOp31
 70
     1
102
RTVSPropertyOp32
 70
     1
  0
XRECORD
  5
1A9
102
{ACAD_REACTORS
330
1A8
102
}
330
1A8
100
AcDbXrecord
280
     1
102
RTVSPropertyOp0
 70
     1
102
RTVSPropertyOp1
 70
     1
102
RTVSPropertyOp2
 70
     1
102
RTVSPropertyOp3
 70
     1
102
RTVSPropertyOp4
 70
     1
102
RTVSPropertyOp5
 70
     1
102
RTVSPropertyOp6
 70
     1
102
RTVSPropertyOp7
 70
     1
102
RTVSPropertyOp8
 70
     1
102
RTVSPropertyOp9
 70
     1
102
RTVSPropertyOp10
 70
     1
102
RTVSPropertyOp11
 70
     1
102
RTVSPropertyOp12
 70
     1
102
RTVSPropertyOp13
 70
     1
102
RTVSPropertyOp14
 70
     1
102
RTVSPropertyOp15
 70
     1
102
RTVSPropertyOp16
 70
     1
102
RTVSPropertyOp17
 70
     1
102
RTVSPropertyOp18
 70
     1
102
RTVSPropertyOp19
 70
     1
102
RTVSPropertyOp20
 70
     1
102
RTVSPropertyOp21
 70
     1
102
RTVSPropertyOp22
 70
     1
102
RTVSPropertyOp23
 70
     1
102
RTVSPropertyOp24
 70
     1
102
RTVSPropertyOp25
 70
     1
102
RTVSPropertyOp26
 70
     1
102
RTVSPropertyOp27
 70
     1
102
RTVSPropertyOp28
 70
     1
102
RTVSPropertyOp29
 70
     1
102
RTVSPropertyOp30
 70
     1
102
RTVSPropertyOp31
 70
     1
102
RTVSPropertyOp32
 70
     1
  0
XRECORD
  5
1B1
102
{ACAD_REACTORS
330
1B0
102
}
330
1B0
100
AcDbXrecord
280
     1
102
RTVSPropertyOp0
 70
     1
102
RTVSPropertyOp1
 70
     1
102
RTVSPropertyOp2
 70
     1
102
RTVSPropertyOp3
 70
     1
102
RTVSPropertyOp4
 70
     1
102
RTVSPropertyOp5
 70
     1
102
RTVSPropertyOp6
 70
     1
102
RTVSPropertyOp7
 70
     1
102
RTVSPropertyOp8
 70
     1
102
RTVSPropertyOp9
 70
     1
102
RTVSPropertyOp10
 70
     1
102
RTVSPropertyOp11
 70
     1
102
RTVSPropertyOp12
 70
     1
102
RTVSPropertyOp13
 70
     1
102
RTVSPropertyOp14
 70
     1
102
RTVSPropertyOp15
 70
     1
102
RTVSPropertyOp16
 70
     1
102
RTVSPropertyOp17
 70
     1
102
RTVSPropertyOp18
 70
     1
102
RTVSPropertyOp19
 70
     1
102
RTVSPropertyOp20
 70
     1
102
RTVSPropertyOp21
 70
     1
102
RTVSPropertyOp22
 70
     1
102
RTVSPropertyOp23
 70
     1
102
RTVSPropertyOp24
 70
     1
102
RTVSPropertyOp25
 70
     1
102
RTVSPropertyOp26
 70
     1
102
RTVSPropertyOp27
 70
     1
102
RTVSPropertyOp28
 70
     1
102
RTVSPropertyOp29
 70
     1
102
RTVSPropertyOp30
 70
     1
102
RTVSPropertyOp31
 70
     1
102
RTVSPropertyOp32
 70
     1
  0
ENDSEC
  0
EOF
