  0
SECTION
  2
HEADER
  9
$ACADVER
  1
AC1015
  9
$ACADMAINTVER
 70
     6
  9
$DWGCODEPAGE
  3
ANSI_932
  9
$INSBASE
 10
0.0
 20
0.0
 30
0.0
  9
$EXTMIN
 10
0.0
 20
0.0
 30
0.0
  9
$EXTMAX
 10
210.0000000000001
 20
297.0
 30
0.0
  9
$LIMMIN
 10
0.0
 20
0.0
  9
$LIMMAX
 10
12.0
 20
9.0
  9
$ORTHOMODE
 70
     0
  9
$REGENMODE
 70
     1
  9
$FILLMODE
 70
     1
  9
$QTEXTMODE
 70
     0
  9
$MIRRTEXT
 70
     1
  9
$LTSCALE
 40
1.0
  9
$ATTMODE
 70
     1
  9
$TEXTSIZE
 40
0.2
  9
$TRACEWID
 40
0.05
  9
$TEXTSTYLE
  7
Standard
  9
$CLAYER
  8
0
  9
$CELTYPE
  6
ByLayer
  9
$CECOLOR
 62
   256
  9
$CELTSCALE
 40
1.0
  9
$DISPSILH
 70
     0
  9
$DIMSCALE
 40
1.0
  9
$DIMASZ
 40
0.18
  9
$DIMEXO
 40
0.0625
  9
$DIMDLI
 40
0.38
  9
$DIMRND
 40
0.0
  9
$DIMDLE
 40
0.0
  9
$DIMEXE
 40
0.18
  9
$DIMTP
 40
0.0
  9
$DIMTM
 40
0.0
  9
$DIMTXT
 40
0.18
  9
$DIMCEN
 40
0.09
  9
$DIMTSZ
 40
0.0
  9
$DIMTOL
 70
     0
  9
$DIMLIM
 70
     0
  9
$DIMTIH
 70
     1
  9
$DIMTOH
 70
     1
  9
$DIMSE1
 70
     0
  9
$DIMSE2
 70
     0
  9
$DIMTAD
 70
     0
  9
$DIMZIN
 70
     0
  9
$DIMBLK
  1

  9
$DIMASO
 70
     1
  9
$DIMSHO
 70
     1
  9
$DIMPOST
  1

  9
$DIMAPOST
  1

  9
$DIMALT
 70
     0
  9
$DIMALTD
 70
     2
  9
$DIMALTF
 40
25.4
  9
$DIMLFAC
 40
1.0
  9
$DIMTOFL
 70
     0
  9
$DIMTVP
 40
0.0
  9
$DIMTIX
 70
     0
  9
$DIMSOXD
 70
     0
  9
$DIMSAH
 70
     0
  9
$DIMBLK1
  1

  9
$DIMBLK2
  1

  9
$DIMSTYLE
  2
Standard
  9
$DIMCLRD
 70
     0
  9
$DIMCLRE
 70
     0
  9
$DIMCLRT
 70
     0
  9
$DIMTFAC
 40
1.0
  9
$DIMGAP
 40
0.09
  9
$DIMJUST
 70
     0
  9
$DIMSD1
 70
     0
  9
$DIMSD2
 70
     0
  9
$DIMTOLJ
 70
     1
  9
$DIMTZIN
 70
     0
  9
$DIMALTZ
 70
     0
  9
$DIMALTTZ
 70
     0
  9
$DIMUPT
 70
     0
  9
$DIMDEC
 70
     4
  9
$DIMTDEC
 70
     4
  9
$DIMALTU
 70
     2
  9
$DIMALTTD
 70
     2
  9
$DIMTXSTY
  7
Standard
  9
$DIMAUNIT
 70
     0
  9
$DIMADEC
 70
     0
  9
$DIMALTRND
 40
0.0
  9
$DIMAZIN
 70
     0
  9
$DIMDSEP
 70
    46
  9
$DIMATFIT
 70
     3
  9
$DIMFRAC
 70
     0
  9
$DIMLDRBLK
  1

  9
$DIMLUNIT
 70
     2
  9
$DIMLWD
 70
    -2
  9
$DIMLWE
 70
    -2
  9
$DIMTMOVE
 70
     0
  9
$LUNITS
 70
     2
  9
$LUPREC
 70
     4
  9
$SKETCHINC
 40
0.1
  9
$FILLETRAD
 40
0.5
  9
$AUNITS
 70
     0
  9
$AUPREC
 70
     0
  9
$MENU
  1
.
  9
$ELEVATION
 40
0.0
  9
$PELEVATION
 40
0.0
  9
$THICKNESS
 40
0.0
  9
$LIMCHECK
 70
     0
  9
$CHAMFERA
 40
0.5
  9
$CHAMFERB
 40
0.5
  9
$CHAMFERC
 40
1.0
  9
$CHAMFERD
 40
0.0
  9
$SKPOLY
 70
     0
  9
$TDCREATE
 40
2460416.588560891
  9
$TDUCREATE
 40
2460416.213560891
  9
$TDUPDATE
 40
2460416.588561967
  9
$TDUUPDATE
 40
2460416.213561967
  9
$TDINDWG
 40
0.0000000116
  9
$TDUSRTIMER
 40
0.0000000116
  9
$USRTIMER
 70
     1
  9
$ANGBASE
 50
0.0
  9
$ANGDIR
 70
     0
  9
$PDMODE
 70
     0
  9
$PDSIZE
 40
0.0
  9
$PLINEWID
 40
0.0
  9
$SPLFRAME
 70
     0
  9
$SPLINETYPE
 70
     6
  9
$SPLINESEGS
 70
     8
  9
$HANDSEED
  5
1BA
  9
$SURFTAB1
 70
     6
  9
$SURFTAB2
 70
     6
  9
$SURFTYPE
 70
     6
  9
$SURFU
 70
     6
  9
$SURFV
 70
     6
  9
$UCSBASE
  2

  9
$UCSNAME
  2

  9
$UCSORG
 10
0.0
 20
0.0
 30
0.0
  9
$UCSXDIR
 10
1.0
 20
0.0
 30
0.0
  9
$UCSYDIR
 10
0.0
 20
1.0
 30
0.0
  9
$UCSORTHOREF
  2

  9
$UCSORTHOVIEW
 70
     0
  9
$UCSORGTOP
 10
0.0
 20
0.0
 30
0.0
  9
$UCSORGBOTTOM
 10
0.0
 20
0.0
 30
0.0
  9
$UCSORGLEFT
 10
0.0
 20
0.0
 30
0.0
  9
$UCSORGRIGHT
 10
0.0
 20
0.0
 30
0.0
  9
$UCSORGFRONT
 10
0.0
 20
0.0
 30
0.0
  9
$UCSORGBACK
 10
0.0
 20
0.0
 30
0.0
  9
$PUCSBASE
  2

  9
$PUCSNAME
  2

  9
$PUCSORG
 10
0.0
 20
0.0
 30
0.0
  9
$PUCSXDIR
 10
1.0
 20
0.0
 30
0.0
  9
$PUCSYDIR
 10
0.0
 20
1.0
 30
0.0
  9
$PUCSORTHOREF
  2

  9
$PUCSORTHOVIEW
 70
     0
  9
$PUCSORGTOP
 10
0.0
 20
0.0
 30
0.0
  9
$PUCSORGBOTTOM
 10
0.0
 20
0.0
 30
0.0
  9
$PUCSORGLEFT
 10
0.0
 20
0.0
 30
0.0
  9
$PUCSORGRIGHT
 10
0.0
 20
0.0
 30
0.0
  9
$PUCSORGFRONT
 10
0.0
 20
0.0
 30
0.0
  9
$PUCSORGBACK
 10
0.0
 20
0.0
 30
0.0
  9
$USERI1
 70
     0
  9
$USERI2
 70
     0
  9
$USERI3
 70
     0
  9
$USERI4
 70
     0
  9
$USERI5
 70
     0
  9
$USERR1
 40
18.1
  9
$USERR2
 40
0.0
  9
$USERR3
 40
0.0
  9
$USERR4
 40
0.0
  9
$USERR5
 40
0.0
  9
$WORLDVIEW
 70
     1
  9
$SHADEDGE
 70
     3
  9
$SHADEDIF
 70
    70
  9
$TILEMODE
 70
     1
  9
$MAXACTVP
 70
    64
  9
$PINSBASE
 10
0.0
 20
0.0
 30
0.0
  9
$PLIMCHECK
 70
     0
  9
$PEXTMIN
 10
1.00000000000000E+20
 20
1.00000000000000E+20
 30
1.00000000000000E+20
  9
$PEXTMAX
 10
-1.00000000000000E+20
 20
-1.00000000000000E+20
 30
-1.00000000000000E+20
  9
$PLIMMIN
 10
0.0
 20
0.0
  9
$PLIMMAX
 10
12.0
 20
9.0
  9
$UNITMODE
 70
     0
  9
$VISRETAIN
 70
     1
  9
$PLINEGEN
 70
     0
  9
$PSLTSCALE
 70
     1
  9
$TREEDEPTH
 70
  3020
  9
$CMLSTYLE
  2
Standard
  9
$CMLJUST
 70
     0
  9
$CMLSCALE
 40
1.0
  9
$PROXYGRAPHICS
 70
     1
  9
$MEASUREMENT
 70
     1
  9
$CELWEIGHT
370
    -1
  9
$ENDCAPS
280
     0
  9
$JOINSTYLE
280
     0
  9
$LWDISPLAY
290
     0
  9
$INSUNITS
 70
     4
  9
$HYPERLINKBASE
  1

  9
$STYLESHEET
  1

  9
$XEDIT
290
     1
  9
$CEPSNTYPE
380
     0
  9
$PSTYLEMODE
290
     1
  9
$FINGERPRINTGUID
  2
{2F0F7446-6E41-44A4-B97C-38B2A541D081}
  9
$VERSIONGUID
  2
{FAEB1C32-E019-11D5-929B-00C0DF256EC4}
  9
$EXTNAMES
290
     1
  9
$PSVPSCALE
 40
0.0
  9
$OLESTARTUP
290
     0
  0
ENDSEC
  0
SECTION
  2
CLASSES
  0
CLASS
  1
ACDBDICTIONARYWDFLT
  2
AcDbDictionaryWithDefault
  3
ObjectDBX Classes
 90
        0
280
     0
281
     0
  0
CLASS
  1
VISUALSTYLE
  2
AcDbVisualStyle
  3
ObjectDBX Classes
 90
     4095
280
     0
281
     0
  0
CLASS
  1
MATERIAL
  2
AcDbMaterial
  3
ObjectDBX Classes
 90
     1153
280
     0
281
     0
  0
CLASS
  1
DICTIONARYVAR
  2
AcDbDictionaryVar
  3
ObjectDBX Classes
 90
        0
280
     0
281
     0
  0
CLASS
  1
ACDBPLACEHOLDER
  2
AcDbPlaceHolder
  3
ObjectDBX Classes
 90
        0
280
     0
281
     0
  0
CLASS
  1
LAYOUT
  2
AcDbLayout
  3
ObjectDBX Classes
 90
        0
280
     0
281
     0
  0
ENDSEC
  0
SECTION
  2
TABLES
  0
TABLE
  2
VPORT
  5
8
330
0
100
AcDbSymbolTable
 70
     1
  0
VPORT
  5
29
330
8
100
AcDbSymbolTableRecord
100
AcDbViewportTableRecord
  2
*Active
 70
     0
 10
0.0
 20
0.0
 11
1.0
 21
1.0
 12
105.0000000000001
 22
148.5
 13
0.0
 23
0.0
 14
0.5
 24
0.5
 15
0.5
 25
0.5
 16
0.0
 26
0.0
 36
1.0
 17
0.0
 27
0.0
 37
0.0
 40
326.7
 41
1.60267857142857
 42
50.0
 43
0.0
 44
0.0
 50
0.0
 51
0.0
 71
     0
 72
   100
 73
     1
 74
     3
 75
     0
 76
     0
 77
     0
 78
     0
281
     0
 65
     1
110
0.0
120
0.0
130
0.0
111
1.0
121
0.0
131
0.0
112
0.0
122
1.0
132
0.0
 79
     0
146
0.0
  0
ENDTAB
  0
TABLE
  2
LTYPE
  5
5
330
0
100
AcDbSymbolTable
 70
     8
  0
LTYPE
  5
14
330
5
100
AcDbSymbolTableRecord
100
AcDbLinetypeTableRecord
  2
ByBlock
 70
     0
  3

 72
    65
 73
     0
 40
0.0
  0
LTYPE
  5
15
330
5
100
AcDbSymbolTableRecord
100
AcDbLinetypeTableRecord
  2
ByLayer
 70
     0
  3

 72
    65
 73
     0
 40
0.0
  0
LTYPE
  5
16
330
5
100
AcDbSymbolTableRecord
100
AcDbLinetypeTableRecord
  2
Continuous
 70
     0
  3
Solid line
 72
    65
 73
     0
 40
0.0
  0
LTYPE
  5
3F
330
5
100
AcDbSymbolTableRecord
100
AcDbLinetypeTableRecord
  2
DASHED
 70
     0
  3
Dashed
 72
    65
 73
     2
 40
15.0
 49
7.0
 74
     0
 49
-8.0
 74
     0
  0
LTYPE
  5
40
330
5
100
AcDbSymbolTableRecord
100
AcDbLinetypeTableRecord
  2
DOTTED
 70
     0
  3
Dotted
 72
    65
 73
     2
 40
1.0
 49
0.0
 74
     0
 49
-1.0
 74
     0
  0
LTYPE
  5
41
330
5
100
AcDbSymbolTableRecord
100
AcDbLinetypeTableRecord
  2
DOT_CENTER
 70
     0
  3
Dot_Center
 72
    65
 73
     4
 40
14.0
 49
12.0
 74
     0
 49
-1.0
 74
     0
 49
0.0
 74
     0
 49
-1.0
 74
     0
  0
LTYPE
  5
42
330
5
100
AcDbSymbolTableRecord
100
AcDbLinetypeTableRecord
  2
LONG_DASHED
 70
     0
  3
Long_Dashed
 72
    65
 73
     2
 40
15.0
 49
10.0
 74
     0
 49
-5.0
 74
     0
  0
LTYPE
  5
43
330
5
100
AcDbSymbolTableRecord
100
AcDbLinetypeTableRecord
  2
DASH_CENTER
 70
     0
  3
Dash_Center
 72
    65
 73
     4
 40
14.0
 49
11.0
 74
     0
 49
-1.0
 74
     0
 49
1.0
 74
     0
 49
-1.0
 74
     0
  0
LTYPE
  5
44
330
5
100
AcDbSymbolTableRecord
100
AcDbLinetypeTableRecord
  2
PHANTOM
 70
     0
  3
Phantom
 72
    65
 73
     6
 40
13.0
 49
10.0
 74
     0
 49
-1.0
 74
     0
 49
0.0
 74
     0
 49
-1.0
 74
     0
 49
0.0
 74
     0
 49
-1.0
 74
     0
  0
LTYPE
  5
45
330
5
100
AcDbSymbolTableRecord
100
AcDbLinetypeTableRecord
  2
CENTER_DASH_DASH
 70
     0
  3
Center_Dash_Dash
 72
    65
 73
     6
 40
14.0
 49
9.0
 74
     0
 49
-1.0
 74
     0
 49
1.0
 74
     0
 49
-1.0
 74
     0
 49
1.0
 74
     0
 49
-1.0
 74
     0
  0
ENDTAB
  0
TABLE
  2
LAYER
  5
2
330
0
100
AcDbSymbolTable
 70
     3
  0
LAYER
  5
10
330
2
100
AcDbSymbolTableRecord
100
AcDbLayerTableRecord
  2
0
 70
     0
 62
     7
  6
Continuous
370
    -3
390
F
  0
LAYER
  5
46
330
2
100
AcDbSymbolTableRecord
100
AcDbLayerTableRecord
  2
1
 70
     0
 62
     7
  6
Continuous
370
    -3
390
F
  0
LAYER
  5
47
330
2
100
AcDbSymbolTableRecord
100
AcDbLayerTableRecord
  2
_U_30EC_U_30A4_U_30E4_U_30FC_1
 70
     0
 62
     7
  6
Continuous
370
    -3
390
F
  0
ENDTAB
  0
TABLE
  2
STYLE
  5
3
330
0
100
AcDbSymbolTable
 70
     4
  0
STYLE
  5
11
330
3
100
AcDbSymbolTableRecord
100
AcDbTextStyleTableRecord
  2
Standard
 70
     0
 40
0.0
 41
1.0
 50
0.0
 71
     0
 42
0.2
  3
txt
  4

  0
STYLE
  5
B6
330
3
100
AcDbSymbolTableRecord
100
AcDbTextStyleTableRecord
  2
CONVERTER_11
 70
     0
 40
0.0
 41
0.89
 50
0.0
 71
     0
 42
0.2
  3
MS Mincho.ttf
  4

1001
ACAD
1000
MS Mincho
1071
    32785
  0
STYLE
  5
13A
330
3
100
AcDbSymbolTableRecord
100
AcDbTextStyleTableRecord
  2
CONVERTER_12
 70
     0
 40
0.0
 41
0.779
 50
0.0
 71
     0
 42
0.2
  3
complex.shx
  4

  0
STYLE
  5
146
330
3
100
AcDbSymbolTableRecord
100
AcDbTextStyleTableRecord
  2
CONVERTER_13
 70
     0
 40
0.0
 41
0.9
 50
0.0
 71
     0
 42
0.2
  3
txt.shx
  4

  0
ENDTAB
  0
TABLE
  2
VIEW
  5
6
330
0
100
AcDbSymbolTable
 70
     0
  0
ENDTAB
  0
TABLE
  2
UCS
  5
7
330
0
100
AcDbSymbolTable
 70
     0
  0
ENDTAB
  0
TABLE
  2
APPID
  5
9
330
0
100
AcDbSymbolTable
 70
     1
  0
APPID
  5
12
330
9
100
AcDbSymbolTableRecord
100
AcDbRegAppTableRecord
  2
ACAD
 70
     0
  0
ENDTAB
  0
TABLE
  2
DIMSTYLE
  5
A
330
0
100
AcDbSymbolTable
 70
     6
100
AcDbDimStyleTable
  0
DIMSTYLE
105
27
330
A
100
AcDbSymbolTableRecord
100
AcDbDimStyleTableRecord
  2
Standard
 70
     0
178
     0
340
11
  0
DIMSTYLE
105
15E
102
{ACAD_REACTORS
330
15F
102
}
330
A
100
AcDbSymbolTableRecord
100
AcDbDimStyleTableRecord
  2
ME10_DIM_10
 70
     0
 41
3.5
 42
0.0
 44
1.0
 73
     0
 74
     0
 77
     1
 78
     8
140
3.5
147
1.0
172
     1
173
     1
174
     1
175
     1
176
     2
177
     2
271
     2
178
     7
271
     2
340
146
  0
DIMSTYLE
105
169
102
{ACAD_REACTORS
330
16A
102
}
330
A
100
AcDbSymbolTableRecord
100
AcDbDimStyleTableRecord
  2
ME10_DIM_11
 70
     0
 41
3.5
 42
0.0
 44
1.0
 73
     0
 74
     0
 77
     1
 78
     8
140
3.5
147
1.0
172
     1
173
     1
174
     1
175
     1
176
     2
177
     2
271
     2
178
     7
271
     2
340
146
  0
DIMSTYLE
105
174
102
{ACAD_REACTORS
330
175
102
}
330
A
100
AcDbSymbolTableRecord
100
AcDbDimStyleTableRecord
  2
ME10_DIM_12
 70
     0
 41
3.5
 42
0.0
 44
1.0
 73
     0
 74
     0
 77
     1
 78
     8
140
3.5
147
1.0
172
     1
173
     1
174
     1
175
     1
176
     2
177
     2
271
     2
178
     7
271
     2
340
146
  0
DIMSTYLE
105
181
102
{ACAD_REACTORS
330
182
102
}
330
A
100
AcDbSymbolTableRecord
100
AcDbDimStyleTableRecord
  2
ME10_DIM_13
 70
     0
  3
{\Fgdt;n}<>
 41
3.5
 42
0.0
 44
1.0
 73
     0
 74
     0
 77
     1
 78
     8
140
3.5
147
1.0
172
     1
173
     1
174
     1
175
     1
176
     2
177
     2
271
     2
178
     7
271
     2
340
146
  0
DIMSTYLE
105
18D
102
{ACAD_REACTORS
330
18E
102
}
330
A
100
AcDbSymbolTableRecord
100
AcDbDimStyleTableRecord
  2
ME10_DIM_14
 70
     0
  3
{\Fgdt;n}<>
 41
3.5
 42
0.0
 44
1.0
 73
     0
 74
     0
 77
     1
 78
     8
140
3.5
147
1.0
172
     1
173
     1
174
     1
175
     1
176
     2
177
     2
271
     2
178
     7
271
     2
340
146
  0
ENDTAB
  0
TABLE
  2
BLOCK_RECORD
  5
1
330
0
100
AcDbSymbolTable
 70
     9
  0
BLOCK_RECORD
  5
1F
330
1
100
AcDbSymbolTableRecord
100
AcDbBlockTableRecord
  2
*Model_Space
340
22
  0
BLOCK_RECORD
  5
1B
330
1
100
AcDbSymbolTableRecord
100
AcDbBlockTableRecord
  2
*Paper_Space
340
1E
  0
BLOCK_RECORD
  5
23
330
1
100
AcDbSymbolTableRecord
100
AcDbBlockTableRecord
  2
*Paper_Space0
340
26
  0
BLOCK_RECORD
  5
48
330
1
100
AcDbSymbolTableRecord
100
AcDbBlockTableRecord
  2
開示A4
340
0
102
{BLKREFS
331
4C
102
}
  0
BLOCK_RECORD
  5
4B
330
1
100
AcDbSymbolTableRecord
100
AcDbBlockTableRecord
  2
開示A4枠
340
0
102
{BLKREFS
331
52
102
}
  0
BLOCK_RECORD
  5
4F
330
1
100
AcDbSymbolTableRecord
100
AcDbBlockTableRecord
  2
T29-0-13X15
340
0
102
{BLKREFS
331
53
102
}
  0
BLOCK_RECORD
  5
155
330
1
100
AcDbSymbolTableRecord
100
AcDbBlockTableRecord
  2
*D4
340
0
  0
BLOCK_RECORD
  5
160
330
1
100
AcDbSymbolTableRecord
100
AcDbBlockTableRecord
  2
*D5
340
0
  0
BLOCK_RECORD
  5
16B
330
1
100
AcDbSymbolTableRecord
100
AcDbBlockTableRecord
  2
*D6
340
0
  0
BLOCK_RECORD
  5
176
330
1
100
AcDbSymbolTableRecord
100
AcDbBlockTableRecord
  2
*D7
340
0
  0
BLOCK_RECORD
  5
183
330
1
100
AcDbSymbolTableRecord
100
AcDbBlockTableRecord
  2
*D8
340
0
  0
ENDTAB
  0
ENDSEC
  0
SECTION
  2
BLOCKS
  0
BLOCK
  5
20
330
1F
100
AcDbEntity
  8
0
100
AcDbBlockBegin
  2
*Model_Space
 70
     0
 10
0.0
 20
0.0
 30
0.0
  3
*Model_Space
  1

  0
ENDBLK
  5
21
330
1F
100
AcDbEntity
  8
0
100
AcDbBlockEnd
  0
BLOCK
  5
1C
330
1B
100
AcDbEntity
 67
     1
  8
0
100
AcDbBlockBegin
  2
*Paper_Space
 70
     0
 10
0.0
 20
0.0
 30
0.0
  3
*Paper_Space
  1

  0
ENDBLK
  5
1D
330
1B
100
AcDbEntity
 67
     1
  8
0
100
AcDbBlockEnd
  0
BLOCK
  5
24
330
23
100
AcDbEntity
  8
0
100
AcDbBlockBegin
  2
*Paper_Space0
 70
     0
 10
0.0
 20
0.0
 30
0.0
  3
*Paper_Space0
  1

  0
ENDBLK
  5
25
330
23
100
AcDbEntity
  8
0
100
AcDbBlockEnd
  0
BLOCK
  5
49
330
48
100
AcDbEntity
  8
0
100
AcDbBlockBegin
  2
開示A4
 70
     0
 10
0.0
 20
0.0
 30
0.0
  3
開示A4
  1

  0
POINT
  5
54
330
48
100
AcDbEntity
  8
1
 62
     4
100
AcDbPoint
 10
34.00000000000001
 20
34.0
 30
0.0
  0
POINT
  5
55
330
48
100
AcDbEntity
  8
1
 62
     4
100
AcDbPoint
 10
57.00000000000005
 20
12.25
 30
0.0
  0
POINT
  5
56
330
48
100
AcDbEntity
  8
1
 62
     4
100
AcDbPoint
 10
57.00000000000005
 20
20.75
 30
0.0
  0
POINT
  5
57
330
48
100
AcDbEntity
  8
1
 62
     4
100
AcDbPoint
 10
57.00000000000005
 20
24.75
 30
0.0
  0
POINT
  5
58
330
48
100
AcDbEntity
  8
1
 62
     4
100
AcDbPoint
 10
57.00000000000005
 20
16.25
 30
0.0
  0
POINT
  5
59
330
48
100
AcDbEntity
  8
1
 62
     4
100
AcDbPoint
 10
157.5000000000001
 20
19.0
 30
0.0
  0
POINT
  5
5A
330
48
100
AcDbEntity
  8
1
 62
     4
100
AcDbPoint
 10
47.50000000000001
 20
282.0000000000003
 30
0.0
  0
POINT
  5
5B
330
48
100
AcDbEntity
  8
1
 62
     4
100
AcDbPoint
 10
57.00000000000005
 20
22.75
 30
0.0
  0
POINT
  5
5C
330
48
100
AcDbEntity
  8
1
 62
     4
100
AcDbPoint
 10
57.00000000000005
 20
14.25
 30
0.0
  0
POINT
  5
5D
330
48
100
AcDbEntity
  8
1
 62
     4
100
AcDbPoint
 10
157.5000000000001
 20
12.5
 30
0.0
  0
POINT
  5
5E
330
48
100
AcDbEntity
  8
1
 62
     4
100
AcDbPoint
 10
163.2500000000001
 20
12.5
 30
0.0
  0
POINT
  5
5F
330
48
100
AcDbEntity
  8
1
 62
     4
100
AcDbPoint
 10
151.7500000000001
 20
12.5
 30
0.0
  0
POINT
  5
60
330
48
100
AcDbEntity
  8
1
 62
     4
100
AcDbPoint
 10
134.7500000000001
 20
12.5
 30
0.0
  0
POINT
  5
61
330
48
100
AcDbEntity
  8
1
 62
     4
100
AcDbPoint
 10
146.2500000000001
 20
12.5
 30
0.0
  0
POINT
  5
62
330
48
100
AcDbEntity
  8
1
 62
     4
100
AcDbPoint
 10
140.5000000000001
 20
12.5
 30
0.0
  0
POINT
  5
63
330
48
100
AcDbEntity
  8
1
 62
     4
100
AcDbPoint
 10
140.5000000000001
 20
19.0
 30
0.0
  0
POINT
  5
64
330
48
100
AcDbEntity
  8
1
 62
     4
100
AcDbPoint
 10
117.7500000000001
 20
12.5
 30
0.0
  0
POINT
  5
65
330
48
100
AcDbEntity
  8
1
 62
     4
100
AcDbPoint
 10
129.2500000000001
 20
12.5
 30
0.0
  0
POINT
  5
66
330
48
100
AcDbEntity
  8
1
 62
     4
100
AcDbPoint
 10
123.5000000000001
 20
12.5
 30
0.0
  0
POINT
  5
67
330
48
100
AcDbEntity
  8
1
 62
     4
100
AcDbPoint
 10
123.5000000000001
 20
19.0
 30
0.0
  0
POINT
  5
68
330
48
100
AcDbEntity
  8
1
 62
     4
100
AcDbPoint
 10
100.7500000000001
 20
12.5
 30
0.0
  0
POINT
  5
69
330
48
100
AcDbEntity
  8
1
 62
     4
100
AcDbPoint
 10
112.2500000000001
 20
12.5
 30
0.0
  0
POINT
  5
6A
330
48
100
AcDbEntity
  8
1
 62
     4
100
AcDbPoint
 10
106.5000000000001
 20
12.5
 30
0.0
  0
POINT
  5
6B
330
48
100
AcDbEntity
  8
1
 62
     4
100
AcDbPoint
 10
106.5000000000001
 20
19.0
 30
0.0
  0
POINT
  5
6C
330
48
100
AcDbEntity
  8
1
 62
     4
100
AcDbPoint
 10
85.25000000000006
 20
17.0
 30
0.0
  0
POINT
  5
6D
330
48
100
AcDbEntity
  8
1
 62
     4
100
AcDbPoint
 10
93.75000000000006
 20
17.0
 30
0.0
  0
POINT
  5
6E
330
48
100
AcDbEntity
  8
1
 62
     4
100
AcDbPoint
 10
183.0000000000001
 20
15.0
 30
0.0
  0
LINE
  5
6F
330
48
100
AcDbEntity
  8
1
  6
Continuous
 62
     2
100
AcDbLine
 10
81.00000000000006
 20
27.0
 30
0.0
 11
81.00000000000006
 21
10.0
 31
0.0
  0
LINE
  5
70
330
48
100
AcDbEntity
  8
1
  6
DOT_CENTER
 62
     2
100
AcDbLine
 10
187.0000000000001
 20
26.5
 30
0.0
 11
187.0000000000001
 21
20.5
 31
0.0
  0
LINE
  5
71
330
48
100
AcDbEntity
  8
1
  6
DOT_CENTER
 62
     2
100
AcDbLine
 10
184.0000000000001
 20
23.5
 30
0.0
 11
197.0000000000001
 21
23.5
 31
0.0
  0
LINE
  5
72
330
48
100
AcDbEntity
  8
1
  6
Continuous
 62
     7
100
AcDbLine
 10
196.0000000000001
 20
21.5
 30
0.0
 11
191.0000000000001
 21
22.30000000000001
 31
0.0
  0
LINE
  5
73
330
48
100
AcDbEntity
  8
1
  6
Continuous
 62
     7
100
AcDbLine
 10
196.0000000000001
 20
25.5
 30
0.0
 11
196.0000000000001
 21
21.5
 31
0.0
  0
LINE
  5
74
330
48
100
AcDbEntity
  8
1
  6
Continuous
 62
     7
100
AcDbLine
 10
191.0000000000001
 20
24.69999999999999
 30
0.0
 11
196.0000000000001
 21
25.5
 31
0.0
  0
LINE
  5
75
330
48
100
AcDbEntity
  8
1
  6
Continuous
 62
     7
100
AcDbLine
 10
191.0000000000001
 20
24.69999999999999
 30
0.0
 11
191.0000000000001
 21
22.30000000000001
 31
0.0
  0
LINE
  5
76
330
48
100
AcDbEntity
  8
1
  6
Continuous
 62
     2
100
AcDbLine
 10
33.00000000000001
 20
27.0
 30
0.0
 11
33.00000000000001
 21
10.0
 31
0.0
  0
LINE
  5
77
330
48
100
AcDbEntity
  8
1
  6
Continuous
 62
     2
100
AcDbLine
 10
25.00000000000001
 20
18.5
 30
0.0
 11
81.00000000000006
 21
18.5
 31
0.0
  0
LINE
  5
78
330
48
100
AcDbEntity
  8
1
  6
Continuous
 62
     7
100
AcDbLine
 10
200.0000000000001
 20
287.0000000000003
 30
0.0
 11
105.0000000000001
 21
287.0000000000003
 31
0.0
  0
LINE
  5
79
330
48
100
AcDbEntity
  8
1
  6
Continuous
 62
     7
100
AcDbLine
 10
200.0000000000001
 20
10.0
 30
0.0
 11
200.0000000000001
 21
148.5
 31
0.0
  0
LINE
  5
7A
330
48
100
AcDbEntity
  8
1
  6
Continuous
 62
     7
100
AcDbLine
 10
25.00000000000001
 20
10.0
 30
0.0
 11
105.0000000000001
 21
10.0
 31
0.0
  0
LINE
  5
7B
330
48
100
AcDbEntity
  8
1
  6
PHANTOM
 62
     4
100
AcDbLine
 10
0.0
 20
297.0
 30
0.0
 11
0.0
 21
0.0
 31
0.0
  0
LINE
  5
7C
330
48
100
AcDbEntity
  8
1
  6
PHANTOM
 62
     4
100
AcDbLine
 10
210.0000000000001
 20
297.0
 30
0.0
 11
0.0
 21
297.0
 31
0.0
  0
LINE
  5
7D
330
48
100
AcDbEntity
  8
1
  6
PHANTOM
 62
     4
100
AcDbLine
 10
210.0000000000001
 20
0.0
 30
0.0
 11
210.0000000000001
 21
297.0
 31
0.0
  0
LINE
  5
7E
330
48
100
AcDbEntity
  8
1
  6
PHANTOM
 62
     4
100
AcDbLine
 10
0.0
 20
0.0
 30
0.0
 11
210.0000000000001
 21
0.0
 31
0.0
  0
LINE
  5
7F
330
48
100
AcDbEntity
  8
1
  6
Continuous
 62
     7
100
AcDbLine
 10
25.00000000000001
 20
41.0
 30
0.0
 11
200.0000000000001
 21
41.0
 31
0.0
  0
LINE
  5
80
330
48
100
AcDbEntity
  8
1
  6
Continuous
 62
     7
100
AcDbLine
 10
200.0000000000001
 20
27.0
 30
0.0
 11
25.00000000000001
 21
27.0
 31
0.0
  0
LINE
  5
81
330
48
100
AcDbEntity
  8
1
  6
Continuous
 62
     2
100
AcDbLine
 10
33.00000000000001
 20
41.0
 30
0.0
 11
33.00000000000001
 21
27.0
 31
0.0
  0
LINE
  5
82
330
48
100
AcDbEntity
  8
1
  6
Continuous
 62
     2
100
AcDbLine
 10
55.00000000000001
 20
287.0000000000003
 30
0.0
 11
55.00000000000001
 21
277.0000000000003
 31
0.0
  0
LINE
  5
83
330
48
100
AcDbEntity
  8
1
  6
Continuous
 62
     2
100
AcDbLine
 10
40.00000000000001
 20
287.0000000000003
 30
0.0
 11
40.00000000000001
 21
277.0000000000003
 31
0.0
  0
LINE
  5
84
330
48
100
AcDbEntity
  8
1
  6
Continuous
 62
     7
100
AcDbLine
 10
25.00000000000001
 20
10.0
 30
0.0
 11
25.00000000000001
 21
148.5
 31
0.0
  0
LINE
  5
85
330
48
100
AcDbEntity
  8
1
  6
Continuous
 62
     2
100
AcDbLine
 10
55.00000000000001
 20
277.0000000000003
 30
0.0
 11
25.00000000000001
 21
277.0000000000003
 31
0.0
  0
LINE
  5
86
330
48
100
AcDbEntity
  8
1
  6
Continuous
 62
     2
100
AcDbLine
 10
166.0000000000001
 20
27.0
 30
0.0
 11
166.0000000000001
 21
10.0
 31
0.0
  0
LINE
  5
87
330
48
100
AcDbEntity
  8
1
  6
Continuous
 62
     2
100
AcDbLine
 10
132.0000000000001
 20
27.0
 30
0.0
 11
132.0000000000001
 21
10.0
 31
0.0
  0
LINE
  5
88
330
48
100
AcDbEntity
  8
1
  6
Continuous
 62
     2
100
AcDbLine
 10
149.0000000000001
 20
27.0
 30
0.0
 11
149.0000000000001
 21
10.0
 31
0.0
  0
LINE
  5
89
330
48
100
AcDbEntity
  8
1
  6
Continuous
 62
     2
100
AcDbLine
 10
115.0000000000001
 20
27.0
 30
0.0
 11
115.0000000000001
 21
10.0
 31
0.0
  0
LINE
  5
8A
330
48
100
AcDbEntity
  8
1
  6
Continuous
 62
     2
100
AcDbLine
 10
98.00000000000006
 20
27.0
 30
0.0
 11
98.00000000000006
 21
10.0
 31
0.0
  0
LINE
  5
8B
330
48
100
AcDbEntity
  8
1
  6
Continuous
 62
     2
100
AcDbLine
 10
166.0000000000001
 20
20.0
 30
0.0
 11
200.0000000000001
 21
20.0
 31
0.0
  0
LINE
  5
8C
330
48
100
AcDbEntity
  8
1
  6
Continuous
 62
     2
100
AcDbLine
 10
105.0000000000001
 20
287.0000000000003
 30
0.0
 11
105.0000000000001
 21
292.0000000000003
 31
0.0
  0
LINE
  5
8D
330
48
100
AcDbEntity
  8
1
  6
Continuous
 62
     7
100
AcDbLine
 10
105.0000000000001
 20
287.0000000000003
 30
0.0
 11
25.00000000000001
 21
287.0000000000003
 31
0.0
  0
LINE
  5
8E
330
48
100
AcDbEntity
  8
1
  6
Continuous
 62
     2
100
AcDbLine
 10
25.00000000000001
 20
148.5
 30
0.0
 11
20.00000000000001
 21
148.5
 31
0.0
  0
LINE
  5
8F
330
48
100
AcDbEntity
  8
1
  6
Continuous
 62
     7
100
AcDbLine
 10
25.00000000000001
 20
148.5
 30
0.0
 11
25.00000000000001
 21
287.0000000000003
 31
0.0
  0
LINE
  5
90
330
48
100
AcDbEntity
  8
1
  6
Continuous
 62
     2
100
AcDbLine
 10
200.0000000000001
 20
148.5
 30
0.0
 11
205.0000000000001
 21
148.5
 31
0.0
  0
LINE
  5
91
330
48
100
AcDbEntity
  8
1
  6
Continuous
 62
     7
100
AcDbLine
 10
200.0000000000001
 20
148.5
 30
0.0
 11
200.0000000000001
 21
287.0000000000003
 31
0.0
  0
LINE
  5
92
330
48
100
AcDbEntity
  8
1
  6
Continuous
 62
     2
100
AcDbLine
 10
105.0000000000001
 20
10.0
 30
0.0
 11
105.0000000000001
 21
5.0
 31
0.0
  0
LINE
  5
93
330
48
100
AcDbEntity
  8
1
  6
Continuous
 62
     7
100
AcDbLine
 10
105.0000000000001
 20
10.0
 30
0.0
 11
200.0000000000001
 21
10.0
 31
0.0
  0
CIRCLE
  5
98
330
48
100
AcDbEntity
  8
1
  6
DOT_CENTER
 62
     7
100
AcDbCircle
 10
89.50000000000006
 20
18.0
 30
0.0
 40
0.0999999999999943
  0
CIRCLE
  5
99
330
48
100
AcDbEntity
  8
1
  6
DOT_CENTER
 62
     7
100
AcDbCircle
 10
89.50000000000006
 20
16.0
 30
0.0
 40
0.0999999999999943
  0
CIRCLE
  5
9A
330
48
100
AcDbEntity
  8
1
  6
Continuous
 62
     7
100
AcDbCircle
 10
187.0000000000001
 20
23.5
 30
0.0
 40
2.0
  0
CIRCLE
  5
9B
330
48
100
AcDbEntity
  8
1
  6
Continuous
 62
     7
100
AcDbCircle
 10
187.0000000000001
 20
23.5
 30
0.0
 40
1.200000000000074
  0
CIRCLE
  5
9C
330
48
100
AcDbEntity
  8
1
  6
Continuous
 62
     7
100
AcDbCircle
 10
154.5000000000001
 20
12.5
 30
0.0
 40
0.2999999999998977
  0
CIRCLE
  5
9D
330
48
100
AcDbEntity
  8
1
  6
Continuous
 62
     7
100
AcDbCircle
 10
160.5000000000001
 20
12.5
 30
0.0
 40
0.2999999999998977
  0
CIRCLE
  5
9E
330
48
100
AcDbEntity
  8
1
  6
Continuous
 62
     7
100
AcDbCircle
 10
143.5000000000001
 20
12.5
 30
0.0
 40
0.2999999999998977
  0
CIRCLE
  5
9F
330
48
100
AcDbEntity
  8
1
  6
Continuous
 62
     7
100
AcDbCircle
 10
137.5000000000001
 20
12.5
 30
0.0
 40
0.2999999999998977
  0
CIRCLE
  5
A0
330
48
100
AcDbEntity
  8
1
  6
Continuous
 62
     7
100
AcDbCircle
 10
126.5000000000001
 20
12.5
 30
0.0
 40
0.2999999999998977
  0
CIRCLE
  5
A1
330
48
100
AcDbEntity
  8
1
  6
Continuous
 62
     7
100
AcDbCircle
 10
120.5000000000001
 20
12.5
 30
0.0
 40
0.2999999999998977
  0
CIRCLE
  5
A2
330
48
100
AcDbEntity
  8
1
  6
Continuous
 62
     7
100
AcDbCircle
 10
109.5000000000001
 20
12.5
 30
0.0
 40
0.2999999999998977
  0
CIRCLE
  5
A3
330
48
100
AcDbEntity
  8
1
  6
Continuous
 62
     7
100
AcDbCircle
 10
103.5000000000001
 20
12.5
 30
0.0
 40
0.2999999999998977
  0
SPLINE
  5
A4
102
{ACAD_REACTORS
330
C2
102
}
330
48
100
AcDbEntity
  8
_U_30EC_U_30A4_U_30E4_U_30FC_1
  6
Continuous
 62
     2
100
AcDbSpline
210
0.0
220
0.0
230
1.0
 70
    11
 71
     3
 72
    99
 73
    95
 74
    93
 42
0.000000001
 43
0.0000000001
 44
0.00000001
 40
0.0
 40
0.0
 40
0.0
 40
0.0
 40
0.0796417172272386
 40
0.1621768542355955
 40
0.2486489160958086
 40
0.3404969668524525
 40
0.4381912511164561
 40
0.5434463660244867
 40
0.6518115192847194
 40
0.7530190937886808
 40
0.8492196919724573
 40
0.941929031299807
 40
1.034249663569956
 40
1.129078600620164
 40
1.226697027573212
 40
1.32722042542167
 40
1.470572134937999
 40
1.595489863371207
 40
1.719934125348394
 40
1.850576620127405
 40
1.989059629987327
 40
2.134139054226996
 40
2.280698007207258
 40
2.424529739039477
 40
2.56592957698584
 40
2.70823926077354
 40
2.861717887443684
 40
3.045168540347377
 40
3.183798301138613
 40
3.31481396145546
 40
3.442083470447329
 40
3.569912708373098
 40
3.702177512509452
 40
3.842307559659565
 40
3.992872223245941
 40
4.156750662218274
 40
4.310981861107637
 40
4.445859909322708
 40
4.572393936131653
 40
4.701656719782035
 40
4.768279086008516
 40
4.835960697898448
 40
4.912788918729382
 40
5.006285208481618
 40
5.026909478751666
 40
5.047533749021174
 40
5.101808031471258
 40
5.162325165538543
 40
5.226919745995835
 40
5.2942318065968
 40
5.364544852554905
 40
5.43831905546793
 40
5.517877651324262
 40
5.607647714861574
 40
5.700449642544421
 40
5.788251142364151
 40
5.87271470603979
 40
5.95516729257537
 40
6.037192395190409
 40
6.120669181469103
 40
6.206848616686342
 40
6.296680855416768
 40
6.442558392872592
 40
6.568190371608267
 40
6.692904567360369
 40
6.824220446557123
 40
6.963121850329413
 40
7.107843738851249
 40
7.253431663907312
 40
7.395187468036688
 40
7.533140753237717
 40
7.670550457175214
 40
7.816236511769265
 40
7.987691657359232
 40
8.142277421969247
 40
8.293662615415013
 40
8.442962460879304
 40
8.591598316185312
 40
8.743678992361813
 40
8.903725323699168
 40
9.076307008890462
 40
9.265578604680572
 40
9.459203795360718
 40
9.617619810273423
 40
9.753609671361906
 40
9.87487330000406
 40
9.954520184977744
 40
10.02416413719239
 40
10.0976976440544
 40
10.18909955924967
 40
10.20974586420137
 40
10.23039218263383
 40
10.30057101881271
 40
10.37632012987548
 40
10.37632012987548
 40
10.37632012987548
 40
10.37632012987548
 10
170.1465954835851
 20
14.13795663215993
 30
0.0
 10
170.1632217851219
 20
14.11720608845313
 30
0.0
 10
170.1970784206577
 20
14.07495111711902
 30
0.0
 10
170.2599822541036
 20
14.0202981139207
 30
0.0
 10
170.3332500940393
 20
13.97299025121054
 30
0.0
 10
170.4175969238636
 20
13.93527231437933
 30
0.0
 10
170.513224061546
 20
13.91040619731951
 30
0.0
 10
170.6171853775346
 20
13.90309559345935
 30
0.0
 10
170.7224020220405
 20
13.91142322794053
 30
0.0
 10
170.8206626371333
 20
13.94149179651528
 30
0.0
 10
170.9058986427547
 20
13.9884882297188
 30
0.0
 10
170.9779220206103
 20
14.04952991250852
 30
0.0
 10
171.0350917709094
 20
14.12412969578591
 30
0.0
 10
171.076786874744
 20
14.21002464660171
 30
0.0
 10
171.1026952846293
 20
14.30485850432211
 30
0.0
 10
171.1118037332654
 20
14.41854979038367
 30
0.0
 10
171.0986864796487
 20
14.54332587770778
 30
0.0
 10
171.0325330334414
 20
14.66014719171891
 30
0.0
 10
170.9369370919569
 20
14.74512539577374
 30
0.0
 10
170.8249681022368
 20
14.8141668445916
 30
0.0
 10
170.6993659583269
 20
14.87204142045892
 30
0.0
 10
170.5656691620855
 20
14.92373723284339
 30
0.0
 10
170.431312281883
 20
14.9789909239718
 30
0.0
 10
170.3051983986877
 20
15.04939770641651
 30
0.0
 10
170.1926579987535
 20
15.13785540731248
 30
0.0
 10
170.0969963064458
 20
15.24981067868474
 30
0.0
 10
170.0334157151825
 20
15.39949910101381
 30
0.0
 10
170.0200706505016
 20
15.55932794385142
 30
0.0
 10
170.0320510987448
 20
15.71048405306844
 30
0.0
 10
170.071229892884
 20
15.83809244591539
 30
0.0
 10
170.1354987750909
 20
15.9508087403085
 30
0.0
 10
170.2238204999742
 20
16.04648609268679
 30
0.0
 10
170.3338091207628
 20
16.12354214985755
 30
0.0
 10
170.4632284401265
 20
16.18151396936278
 30
0.0
 10
170.6111838967793
 20
16.21739177588822
 30
0.0
 10
170.7682069455486
 20
16.22746719050564
 30
0.0
 10
170.917494046643
 20
16.21863637762591
 30
0.0
 10
171.059625361417
 20
16.19074899340355
 30
0.0
 10
171.1595922609625
 20
16.13413314701137
 30
0.0
 10
171.3125074736185
 20
16.08674602105505
 30
0.0
 10
171.2455131717168
 20
16.00197553001184
 30
0.0
 10
171.2296479120268
 20
15.93438901873484
 30
0.0
 10
171.1978750531297
 20
15.86926092793189
 30
0.0
 10
171.215020220957
 20
15.76723453256952
 30
0.0
 10
171.1666427208232
 20
15.774932116819
 30
0.0
 10
171.1315789440765
 20
15.76806771724807
 30
0.0
 10
171.1296697985718
 20
15.83263831158196
 30
0.0
 10
171.0985692931988
 20
15.87825639621393
 30
0.0
 10
171.0664551628457
 20
15.93561036628462
 30
0.0
 10
171.0208038475167
 20
15.98540462692552
 30
0.0
 10
170.9658508218387
 20
16.02994813718997
 30
0.0
 10
170.9010841173007
 20
16.06763988836551
 30
0.0
 10
170.8232377310597
 20
16.09283375791352
 30
0.0
 10
170.7355160553352
 20
16.0993123099811
 30
0.0
 10
170.6452903277806
 20
16.09235709285607
 30
0.0
 10
170.5594594694064
 20
16.06909190460923
 30
0.0
 10
170.4828343638597
 20
16.03131644107541
 30
0.0
 10
170.4165265636199
 20
15.98051641089578
 30
0.0
 10
170.3622560536964
 20
15.91731143407209
 30
0.0
 10
170.3224925345459
 20
15.84276455710364
 30
0.0
 10
170.2976775510588
 20
15.75917313997763
 30
0.0
 10
170.2892124262869
 20
15.65192948382285
 30
0.0
 10
170.3019697987104
 20
15.5296545726756
 30
0.0
 10
170.3681548409273
 20
15.4114972429121
 30
0.0
 10
170.4640977399832
 20
15.3260632570953
 30
0.0
 10
170.5757914963182
 20
15.2558336230672
 30
0.0
 10
170.7010863668703
 20
15.19659162305303
 30
0.0
 10
170.8349823941448
 20
15.14616708086135
 30
0.0
 10
170.9689930333151
 20
15.09322516984382
 30
0.0
 10
171.0950885316915
 20
15.02750170625173
 30
0.0
 10
171.2076216638417
 20
14.9448035253732
 30
0.0
 10
171.3031370284232
 20
14.83996006310073
 30
0.0
 10
171.3672706486964
 20
14.69937117251571
 30
0.0
 10
171.3811103725278
 20
14.54065409451591
 30
0.0
 10
171.367395471223
 20
14.38153155217876
 30
0.0
 10
171.3244739153984
 20
14.23483828819209
 30
0.0
 10
171.2545906329065
 20
14.10119796587146
 30
0.0
 10
171.1574592213828
 20
13.98532387699289
 30
0.0
 10
171.0347806023657
 20
13.89089981770089
 30
0.0
 10
170.8874408413167
 20
13.82179270651982
 30
0.0
 10
170.7177132497125
 20
13.77953210858853
 30
0.0
 10
170.5317404979597
 20
13.76781736230409
 30
0.0
 10
170.3528955926183
 20
13.77809486683435
 30
0.0
 10
170.1881733753744
 20
13.8196657376916
 30
0.0
 10
170.0834410841057
 20
13.88797642883936
 30
0.0
 10
169.9350960790365
 20
13.93675219032108
 30
0.0
 10
169.9980378194729
 20
14.0297659129084
 30
0.0
 10
170.0072274430058
 20
14.10296536248282
 30
0.0
 10
170.0303711301232
 20
14.16936294501345
 30
0.0
 10
170.0034588335315
 20
14.26974809527583
 30
0.0
 10
170.0521338956339
 20
14.26234033517378
 30
0.0
 10
170.0916530580696
 20
14.26894063620894
 30
0.0
 10
170.0996204944703
 20
14.19078703218936
 30
0.0
 10
170.1305436967923
 20
14.15600927375856
 30
0.0
 10
170.1465954835851
 20
14.13795663215993
 30
0.0
 11
170.1465954835851
 21
14.13795663215993
 31
0.0
 11
170.1982038075864
 21
14.07729869814736
 31
0.0
 11
170.2601105501335
 21
14.0227129516332
 31
0.0
 11
170.3327764009803
 21
13.97583980928383
 31
0.0
 11
170.4166468655843
 21
13.93839906276537
 31
0.0
 11
170.511221073241
 21
13.91390636311877
 31
0.0
 11
170.6161603327165
 21
13.90575829888471
 31
0.0
 11
170.7240739497552
 21
13.91564048638222
 31
0.0
 11
170.8208419941616
 21
13.94528704887483
 31
0.0
 11
170.9050776083318
 21
13.99175118948819
 31
0.0
 11
170.9756144207686
 21
14.05191413218151
 31
0.0
 11
171.0319442109979
 21
14.1250581946632
 31
0.0
 11
171.0736690016003
 21
14.21021434047523
 31
0.0
 11
171.0994680808033
 21
14.30436190989612
 31
0.0
 11
171.1080824729447
 21
14.40451552098219
 31
0.0
 11
171.0878517703357
 21
14.54643250879397
 31
0.0
 11
171.0272522666731
 21
14.65566684036386
 31
0.0
 11
170.9364971286285
 21
14.74081306430094
 31
0.0
 11
170.826010188474
 21
14.81052746532515
 31
0.0
 11
170.7008523531254
 21
14.86979854169923
 31
0.0
 11
170.5662951950997
 21
14.9240425347412
 31
0.0
 11
170.4316884277006
 21
14.98201274306004
 31
0.0
 11
170.3065802017258
 21
15.05297399304232
 31
0.0
 11
170.196027609828
 21
15.14113315968693
 31
0.0
 11
170.1053381235265
 21
15.25080295132617
 31
0.0
 11
170.0447055469483
 21
15.39179720476315
 31
0.0
 11
170.0245079172553
 21
15.57413260402313
 31
0.0
 11
170.0374030471347
 21
15.71216131926641
 31
0.0
 11
170.076101665939
 21
15.83733128451289
 31
0.0
 11
170.1393141731506
 21
15.94779262129084
 31
0.0
 11
170.2257499954546
 21
16.04196885390621
 31
0.0
 11
170.3336492808963
 21
16.11846540770651
 31
0.0
 11
170.4613526283328
 21
16.17615670109487
 31
0.0
 11
170.6075393259922
 21
16.21220066809973
 31
0.0
 11
170.7709768565449
 21
16.22421385386062
 31
0.0
 11
170.924891843129
 21
16.21434269066864
 31
0.0
 11
171.0564887242608
 21
16.18477329831498
 31
0.0
 11
171.172563634494
 21
16.13439993895252
 31
0.0
 11
171.2800792741122
 21
16.06264163167876
 31
0.0
 11
171.2516994050444
 21
16.00236624106886
 31
0.0
 11
171.2284855254283
 21
15.93879017337648
 31
0.0
 11
171.2078381040801
 21
15.86478841992269
 31
0.0
 11
171.1871840681486
 21
15.77360197897326
 31
0.0
 11
171.1665597978414
 21
15.77360197897326
 31
0.0
 11
171.1459355275343
 21
15.77360197897326
 31
0.0
 11
171.1256706495791
 21
15.82395108486347
 31
0.0
 11
171.0994658759421
 21
15.87850045116929
 31
0.0
 11
171.0650468924451
 21
15.93316116296115
 31
0.0
 11
171.0203554612936
 21
15.98349593725411
 31
0.0
 11
170.965733335951
 21
16.02777175321529
 31
0.0
 11
170.9016722004326
 21
16.06436142334502
 31
0.0
 11
170.825968296114
 21
16.08882545979727
 31
0.0
 11
170.7365722046449
 21
16.09701100667022
 31
0.0
 11
170.6440937174207
 21
16.08926973931102
 31
0.0
 11
170.5594072091645
 21
16.06609003445567
 31
0.0
 11
170.483702448884
 21
16.02863495634008
 31
0.0
 11
170.4183754766515
 21
15.97832774281102
 31
0.0
 11
170.3650487887664
 21
15.91600293379879
 31
0.0
 11
170.3254809233902
 21
15.84249947895606
 31
0.0
 11
170.3009523754711
 21
15.75988443557391
 31
0.0
 11
170.2927954104108
 21
15.67042329844352
 31
0.0
 11
170.3130095765618
 21
15.52595308146574
 31
0.0
 11
170.373625616682
 21
15.41591177072937
 31
0.0
 11
170.4643479320758
 21
15.33033670130632
 31
0.0
 11
170.5748676948813
 21
15.25941954854625
 31
0.0
 11
170.700008993772
 21
15.19914305550579
 31
0.0
 11
170.8345826882554
 21
15.14590447913022
 31
0.0
 11
170.9691729191968
 21
15.09039489581074
 31
0.0
 11
171.0942976816297
 21
15.02377281249409
 31
0.0
 11
171.204800907977
 21
14.94118863716749
 31
0.0
 11
171.2955397598288
 21
14.83800003476273
 31
0.0
 11
171.3561557999489
 21
14.70552315979584
 31
0.0
 11
171.3763699660998
 21
14.53526378483838
 31
0.0
 11
171.3621839747998
 21
14.38133030397413
 31
0.0
 11
171.3196087009193
 21
14.23605531269098
 31
0.0
 11
171.2499752884264
 21
14.10398854189068
 31
0.0
 11
171.1544992078713
 21
13.99007218775248
 31
0.0
 11
171.0341060772624
 21
13.89715272597017
 31
0.0
 11
170.8896160201846
 21
13.82832357668181
 31
0.0
 11
170.7223519532714
 21
13.78581275203968
 31
0.0
 11
170.5336103348226
 21
13.77165864614042
 31
0.0
 11
170.3405031726388
 21
13.78581275203968
 31
0.0
 11
170.1878975900912
 21
13.82832357668181
 31
0.0
 11
170.0661897942203
 21
13.8889903301389
 31
0.0
 11
169.9660261826363
 21
13.95734322942738
 31
0.0
 11
169.9922320587039
 21
14.03255545163076
 31
0.0
 11
170.0090121537617
 21
14.10014767383612
 31
0.0
 11
170.0206196447851
 21
14.17275926235961
 31
0.0
 11
170.0313606254138
 21
14.26352788212859
 31
0.0
 11
170.0520069443315
 21
14.26352788212859
 31
0.0
 11
170.0726532632492
 21
14.26352788212859
 31
0.0
 11
170.104891639163
 21
14.20119204881084
 31
0.0
 11
170.1465954835851
 21
14.13795663215993
 31
0.0
  0
SPLINE
  5
A5
102
{ACAD_REACTORS
330
C3
102
}
330
48
100
AcDbEntity
  8
_U_30EC_U_30A4_U_30E4_U_30FC_1
  6
Continuous
 62
     2
100
AcDbSpline
210
0.0
220
0.0
230
1.0
 70
    11
 71
     3
 72
    57
 73
    53
 74
    51
 42
0.000000001
 43
0.0000000001
 44
0.00000001
 40
0.0
 40
0.0
 40
0.0
 40
0.0
 40
0.0471632082808958
 40
0.0914861054632158
 40
0.1357762519702962
 40
0.1826527001610688
 40
0.2295203288572029
 40
0.273775197221963
 40
0.3181310461542221
 40
0.3652607198398516
 40
0.4571007286314572
 40
0.5671851029165383
 40
0.6894623283868404
 40
0.8181758272546057
 40
0.9510087229273907
 40
1.085852229674108
 40
1.218126164475334
 40
1.343545131142385
 40
1.454537202956802
 40
1.567187607530811
 40
1.680710966642344
 40
1.794226869736794
 40
1.900009184247508
 40
2.004085860447787
 40
2.10816267445176
 40
2.214000150155305
 40
2.496038577352131
 40
2.762350745479262
 40
2.997275353279412
 40
3.185110082137762
 40
3.246407890063904
 40
3.312607550212522
 40
3.378877742711537
 40
3.440140399651477
 40
4.100501696006543
 40
4.754913085563587
 40
5.411331693423968
 40
6.07789043256875
 40
6.110575292671029
 40
6.143260152775809
 40
6.367989363395242
 40
6.610525374951639
 40
6.863389136467396
 40
7.119380025547711
 40
7.376036605091169
 40
7.631164770966405
 40
7.876722425456509
 40
8.104953735856093
 40
8.312916685924387
 40
8.497730294941372
 40
8.651018984313925
 40
8.764738853624674
 40
8.764738853624674
 40
8.764738853624674
 40
8.764738853624674
 10
174.7922649500513
 20
13.81626739612926
 30
0.0
 10
174.7766616726931
 20
13.81826231079077
 30
0.0
 10
174.7463947960302
 20
13.82213201360299
 30
0.0
 10
174.7010994202253
 20
13.82341984967267
 30
0.0
 10
174.6559553129349
 20
13.8230868355405
 30
0.0
 10
174.6099017123399
 20
13.82314658674222
 30
0.0
 10
174.5640496172097
 20
13.8232581365
 30
0.0
 10
174.5183711648166
 20
13.82277833456589
 30
0.0
 10
174.4750811541609
 20
13.82461109618722
 30
0.0
 10
174.4039947951513
 20
13.80049556814653
 30
0.0
 10
174.4057477261441
 20
13.92184693977251
 30
0.0
 10
174.358619637057
 20
14.00726239751234
 30
0.0
 10
174.3191478251762
 20
14.12486929345135
 30
0.0
 10
174.2706635532645
 20
14.24232752540437
 30
0.0
 10
174.2201017402523
 20
14.36405935761514
 30
0.0
 10
174.1718634610475
 20
14.4907596786246
 30
0.0
 10
174.1135232947594
 20
14.59933687784954
 30
0.0
 10
174.0980892667261
 20
14.75620657134408
 30
0.0
 10
173.9566586330636
 20
14.72373446548323
 30
0.0
 10
173.8508397414904
 20
14.7351288868218
 30
0.0
 10
173.7358569725222
 20
14.73392591514615
 30
0.0
 10
173.6253142252141
 20
14.73506945347409
 30
0.0
 10
173.5176583522783
 20
14.73418350037526
 30
0.0
 10
173.4121322529243
 20
14.7341660239052
 30
0.0
 10
173.3109192682013
 20
14.72714032472414
 30
0.0
 10
173.1266804827753
 20
14.75135859859866
 30
0.0
 10
173.1157393685411
 20
14.44741691121886
 30
0.0
 10
173.0087691634749
 20
14.22353177253397
 30
0.0
 10
172.9098148604346
 20
14.03895314292498
 30
0.0
 10
172.9225090524007
 20
13.79530204804206
 30
0.0
 10
172.8050091716397
 20
13.82508046753196
 30
0.0
 10
172.742205586831
 20
13.82258089509601
 30
0.0
 10
172.67858720934
 20
13.82344075102805
 30
0.0
 10
172.3946014194073
 20
13.78098039941942
 30
0.0
 10
173.0251638499381
 20
14.50081952444783
 30
0.0
 10
173.1087645289071
 20
15.01276539435726
 30
0.0
 10
173.4929252789338
 20
15.53353743550047
 30
0.0
 10
173.4777208288565
 20
16.23519626253211
 30
0.0
 10
173.7239265722696
 20
16.22345633081257
 30
0.0
 10
173.8256346157561
 20
16.23225004452772
 30
0.0
 10
173.8249752035819
 20
15.9805965073035
 30
0.0
 10
173.9428317155828
 20
15.79818020733956
 30
0.0
 10
174.0315515260485
 20
15.55563740662864
 30
0.0
 10
174.1322292485261
 20
15.32340030530133
 30
0.0
 10
174.2311142712242
 20
15.08674644566907
 30
0.0
 10
174.3299676990671
 20
14.85461739170099
 30
0.0
 10
174.4256166390925
 20
14.63122222788783
 30
0.0
 10
174.5159904573273
 20
14.4227254904932
 30
0.0
 10
174.5989944568189
 20
14.23308448529318
 30
0.0
 10
174.6726088582799
 20
14.066631060681
 30
0.0
 10
174.7342815895545
 20
13.92917699626098
 30
0.0
 10
174.7749458885604
 20
13.84999239430033
 30
0.0
 10
174.7922649500513
 20
13.81626739612926
 30
0.0
 11
174.7922649500513
 21
13.81626739612926
 31
0.0
 11
174.7453878317448
 21
13.82145433189185
 31
0.0
 11
174.7010975896125
 21
13.82315538223861
 31
0.0
 11
174.6568074431729
 21
13.82315538223861
 31
0.0
 11
174.6099309947159
 21
13.82315538223861
 31
0.0
 11
174.5630633657034
 21
13.82315538223861
 31
0.0
 11
174.5188084970409
 21
13.82315538223861
 31
0.0
 11
174.4744852776855
 21
13.82145433189185
 31
0.0
 11
174.4276419021443
 21
13.81626739612926
 31
0.0
 11
174.3992532136325
 21
13.90360966173244
 31
0.0
 11
174.3622721815898
 21
14.0072965627482
 31
0.0
 11
174.3188386236701
 21
14.12159987001127
 31
0.0
 11
174.2711055866936
 21
14.24113531268969
 31
0.0
 11
174.2208160133237
 21
14.36408057307564
 31
0.0
 11
174.1696467003931
 21
14.48883822929446
 31
0.0
 11
174.1197531801326
 21
14.61134141502772
 31
0.0
 11
174.0733119111841
 21
14.72784517367916
 31
0.0
 11
173.9623611907589
 21
14.73087465284506
 31
0.0
 11
173.8497309225089
 21
14.73300454867791
 31
0.0
 11
173.736215206945
 21
14.7343219531914
 31
0.0
 11
173.62270004768
 21
14.73473315978853
 31
0.0
 11
173.5169185312816
 21
14.7343219531914
 31
0.0
 11
173.4128501919226
 21
14.73300454867791
 31
0.0
 11
173.3087951724045
 21
14.73087465284506
 31
0.0
 11
173.2030010615596
 21
14.72784517367916
 31
0.0
 11
173.0980914750139
 21
14.46604437513351
 31
0.0
 11
173.0034868690331
 21
14.21710232658461
 31
0.0
 11
172.9252231210298
 21
13.99559756969557
 31
0.0
 11
172.8693431224554
 21
13.81626739612926
 31
0.0
 11
172.8082651639442
 21
13.82145433189185
 31
0.0
 11
172.7420873618131
 21
13.82315538223861
 31
0.0
 11
172.6758390041282
 21
13.82145433189185
 31
0.0
 11
172.6147963233937
 21
13.81626739612926
 31
0.0
 11
172.889968495193
 21
14.41656508695142
 31
0.0
 11
173.158294573417
 21
15.01343642360774
 31
0.0
 11
173.4240277350404
 21
15.61366245644381
 31
0.0
 11
173.6914740737032
 21
16.22421385386062
 31
0.0
 11
173.7241589339805
 21
16.22421385386062
 31
0.0
 11
173.7568437942578
 21
16.22421385386062
 31
0.0
 11
173.8428300681057
 21
16.01658539037084
 31
0.0
 11
173.9357285813609
 21
15.79254614563516
 31
0.0
 11
174.0328714521464
 21
15.55908663180469
 31
0.0
 11
174.1317936458032
 21
15.32298128464146
 31
0.0
 11
174.2315341249927
 21
15.08649780379784
 31
0.0
 11
174.3313071129354
 21
14.85168781253711
 31
0.0
 11
174.4280608257449
 21
14.62599492196849
 31
0.0
 11
174.5188084970409
 21
14.41658052097918
 31
0.0
 11
174.6022150834546
 21
14.22607611130461
 31
0.0
 11
174.6770293263377
 21
14.05708232662468
 31
0.0
 11
174.7410729186603
 21
13.91781337700668
 31
0.0
 11
174.7922649500513
 21
13.81626739612926
 31
0.0
  0
SPLINE
  5
A6
102
{ACAD_REACTORS
330
C3
102
}
330
48
100
AcDbEntity
  8
_U_30EC_U_30A4_U_30E4_U_30FC_1
  6
Continuous
 62
     2
100
AcDbSpline
210
0.0
220
0.0
230
1.0
 70
    11
 71
     3
 72
    25
 73
    21
 74
    19
 42
0.000000001
 43
0.0000000001
 44
0.00000001
 40
0.0
 40
0.0
 40
0.0
 40
0.0
 40
0.0911479969063684
 40
0.1858117896204945
 40
0.2804128399734206
 40
0.3715889190712804
 40
0.4679080494217571
 40
0.5642683809228379
 40
0.6605683222644707
 40
0.7569653015809401
 40
0.8561348172521901
 40
1.092615965104202
 40
1.374867658141793
 40
1.611348812011488
 40
1.710518328425149
 40
1.809403163726456
 40
2.045205463293988
 40
2.326646917622043
 40
2.562449217190523
 40
2.661334043833831
 40
2.661334043833831
 40
2.661334043833831
 40
2.661334043833831
 10
173.26837005672
 20
14.88614538197291
 30
0.0
 10
173.2987525917924
 20
14.88598079714554
 30
0.0
 10
173.3606895889112
 20
14.88564528689921
 30
0.0
 10
173.454135696033
 20
14.88269055452002
 30
0.0
 10
173.5475095236358
 20
14.87977752877149
 30
0.0
 10
173.6417760753475
 20
14.87894201643416
 30
0.0
 10
173.7354964790966
 20
14.87996644658046
 30
0.0
 10
173.8352040303205
 20
14.87916977470972
 30
0.0
 10
173.9188949546313
 20
14.88921410235219
 30
0.0
 10
174.0637996315045
 20
14.86234617674166
 30
0.0
 10
173.9396132444801
 20
15.03665530280048
 30
0.0
 10
173.8965867286283
 20
15.19651711006093
 30
0.0
 10
173.780892214221
 20
15.45518458550213
 30
0.0
 10
173.7017565431258
 20
15.59231052861861
 30
0.0
 10
173.6431576621816
 20
15.80937033134078
 30
0.0
 10
173.5864803939439
 20
15.59266134213426
 30
0.0
 10
173.5052809900477
 20
15.45327012438239
 30
0.0
 10
173.4063701281489
 20
15.20406969370192
 30
0.0
 10
173.3253625094259
 20
15.01925830226074
 30
0.0
 10
173.2813683325839
 20
14.91650446856115
 30
0.0
 10
173.26837005672
 20
14.88614538197291
 30
0.0
 11
173.26837005672
 21
14.88614538197291
 31
0.0
 11
173.359513773782
 21
14.88526123266759
 31
0.0
 11
173.4541428297582
 21
14.882696979196
 31
0.0
 11
173.5487082179706
 21
14.88009965280777
 31
0.0
 11
173.6398803250195
 21
14.87924857641909
 31
0.0
 11
173.7361985777706
 21
14.8796597830162
 31
0.0
 11
173.8325499034376
 21
14.88097718752971
 31
0.0
 11
173.9288262638287
 21
14.88310818579312
 31
0.0
 11
174.0251753846343
 21
14.88614538197291
 31
0.0
 11
173.9854633323141
 21
14.97701642195019
 31
0.0
 11
173.8907653613968
 21
15.19370890189602
 31
0.0
 11
173.7777387509471
 21
15.45234186183136
 31
0.0
 11
173.6830407800298
 21
15.66903434177718
 31
0.0
 11
173.6433287277096
 21
15.75990538175446
 31
0.0
 11
173.6043330259267
 21
15.66903434177718
 31
0.0
 11
173.5113432755213
 21
15.45234186183136
 31
0.0
 11
173.4003555089083
 21
15.19370890189602
 31
0.0
 11
173.3073657585029
 21
14.97701642195019
 31
0.0
 11
173.26837005672
 21
14.88614538197291
 31
0.0
  0
SPLINE
  5
A7
102
{ACAD_REACTORS
330
C4
102
}
330
48
100
AcDbEntity
  8
_U_30EC_U_30A4_U_30E4_U_30FC_1
  6
Continuous
 62
     2
100
AcDbSpline
210
0.0
220
0.0
230
1.0
 70
    11
 71
     3
 72
    95
 73
    91
 74
    89
 42
0.000000001
 43
0.0000000001
 44
0.00000001
 40
0.0
 40
0.0
 40
0.0
 40
0.0
 40
0.6550406656912479
 40
1.308087289032009
 40
1.420803739835883
 40
1.566130759770868
 40
1.757067341888549
 40
2.00651354502653
 40
2.08732826312163
 40
2.185328872295711
 40
2.294612454748462
 40
2.408936380534898
 40
2.526802767798646
 40
2.64636052461569
 40
2.762535723971661
 40
2.870057342870231
 40
2.96688344843174
 40
3.050803243518375
 40
3.115818222436689
 40
3.156030057150336
 40
3.213914225080267
 40
3.276689026450753
 40
3.342960320981416
 40
3.404230667150666
 40
3.453822809493487
 40
3.532499827188531
 40
3.634775188507284
 40
3.754909333008285
 40
3.88973676166078
 40
4.03576960217534
 40
4.187256681197722
 40
4.338733685676072
 40
4.488478734676236
 40
4.634708317831709
 40
4.771493189921387
 40
4.892686571561335
 40
5.199775528944564
 40
5.460353566929761
 40
5.667603142345627
 40
5.814722905404608
 40
5.828990806219906
 40
5.855488336304603
 40
5.869756237118935
 40
6.189796507762895
 40
6.531890469873119
 40
6.883053637017118
 40
7.230512024911668
 40
7.566966656764703
 40
7.885203559707596
 40
8.172887439719405
 40
8.418011594062879
 40
8.443926721190799
 40
8.510760470613285
 40
8.602145393795794
 40
8.701714041647232
 40
8.793098965075462
 40
8.859932715058033
 40
8.885847842603681
 40
9.242301256612901
 40
9.589275455016871
 40
9.921808543164271
 40
10.23479624298475
 40
10.29968150889178
 40
10.35323493887774
 40
10.4015462535515
 40
10.46482922477823
 40
10.55973900668402
 40
10.69239545985614
 40
10.84920353475669
 40
11.01626328594779
 40
11.18672024367441
 40
11.35372582577208
 40
11.50257442292425
 40
11.6186649502329
 40
11.71329869152873
 40
11.82511050573905
 40
11.94464880845713
 40
12.06929242642504
 40
12.19707290435173
 40
12.32562632860526
 40
12.45034565331276
 40
12.56646595170325
 40
12.67099007414632
 40
12.76077625936779
 40
12.82703233506691
 40
12.8742913278599
 40
12.89831990323329
 40
12.92234847860017
 40
13.53984767410318
 40
14.18294284359354
 40
14.18294284359354
 40
14.18294284359354
 40
14.18294284359354
 10
177.3067935648022
 20
14.70898038201725
 30
0.0
 10
177.1752019758551
 20
14.82265058603231
 30
0.0
 10
176.9124193802727
 20
15.04964496316151
 30
0.0
 10
176.3997393441023
 20
15.89214462956286
 30
0.0
 10
176.4106654595361
 20
15.5342337757702
 30
0.0
 10
176.4041226527994
 20
15.39267392272133
 30
0.0
 10
176.4028026631771
 20
15.19421305299281
 30
0.0
 10
176.4018117602538
 20
15.02150296045983
 30
0.0
 10
176.4024101751973
 20
14.8786537325758
 30
0.0
 10
176.4038994301883
 20
14.78265005413358
 30
0.0
 10
176.4055683588472
 20
14.6754550326314
 30
0.0
 10
176.407193495462
 20
14.56164211517581
 30
0.0
 10
176.4092429501684
 20
14.44441572604589
 30
0.0
 10
176.4123165501927
 20
14.3265641123297
 30
0.0
 10
176.4156339697044
 20
14.21228087320621
 30
0.0
 10
176.4193605340279
 20
14.10521401867277
 30
0.0
 10
176.4217338161425
 20
14.01007408766922
 30
0.0
 10
176.4278718888356
 20
13.92558557205694
 30
0.0
 10
176.4239784495946
 20
13.86923087298141
 30
0.0
 10
176.4455230443077
 20
13.79825022472353
 30
0.0
 10
176.3680940058617
 20
13.82902677604485
 30
0.0
 10
176.3116353240191
 20
13.82011242517612
 30
0.0
 10
176.2540495896806
 20
13.82896218398274
 30
0.0
 10
176.1690163478472
 20
13.79738225225943
 30
0.0
 10
176.2009714146382
 20
13.8809515599219
 30
0.0
 10
176.1990705282539
 20
13.94882608968309
 30
0.0
 10
176.21079600473
 20
14.05233256764418
 30
0.0
 10
176.2164241053
 20
14.17002125616696
 30
0.0
 10
176.2237902178941
 20
14.30388609164423
 30
0.0
 10
176.232075970161
 20
14.44764152872632
 30
0.0
 10
176.2398851897427
 20
14.59714022843444
 30
0.0
 10
176.2457571222657
 20
14.74792549402078
 30
0.0
 10
176.2503667817969
 20
14.89699943878438
 30
0.0
 10
176.254263211754
 20
15.04122913163022
 30
0.0
 10
176.2570715126565
 20
15.17583905213018
 30
0.0
 10
176.2576698755022
 20
15.36469614347355
 30
0.0
 10
176.2616023867151
 20
15.58975494313155
 30
0.0
 10
176.2442175378498
 20
15.86367091125708
 30
0.0
 10
176.2850417342582
 20
16.02787112098597
 30
0.0
 10
176.1995153256003
 20
16.22749661465096
 30
0.0
 10
176.2660558907688
 20
16.22385458403978
 30
0.0
 10
176.283872427323
 20
16.22413447160854
 30
0.0
 10
176.4056801797506
 20
16.22632927398613
 30
0.0
 10
176.508077033546
 20
15.9467511872151
 30
0.0
 10
176.7580021509357
 20
15.74563008536007
 30
0.0
 10
176.987003533111
 20
15.47792614987911
 30
0.0
 10
177.224515121311
 20
15.22646413862384
 30
0.0
 10
177.4486090740772
 20
14.98969974061349
 30
0.0
 10
177.675071628301
 20
14.73218692583083
 30
0.0
 10
177.8325687886516
 20
14.61649335056926
 30
0.0
 10
178.0472129612673
 20
14.27997152538795
 30
0.0
 10
178.0422645974619
 20
14.40464754091603
 30
0.0
 10
178.0433931602546
 20
14.46327691935736
 30
0.0
 10
178.0428877841517
 20
14.55043662371976
 30
0.0
 10
178.0430475158114
 20
14.64416143182872
 30
0.0
 10
178.0430054891317
 20
14.73018971297034
 30
0.0
 10
178.0430202040373
 20
14.79153891945494
 30
0.0
 10
178.0429706255983
 20
14.94135231520992
 30
0.0
 10
178.0458811522811
 20
15.17989612510103
 30
0.0
 10
178.0259521041162
 20
15.54486509868702
 30
0.0
 10
178.0750433936246
 20
15.8079963199341
 30
0.0
 10
177.9177951509181
 20
16.21928904947749
 30
0.0
 10
178.0762112872422
 20
16.16398282551746
 30
0.0
 10
178.1311680478629
 20
16.16199686500173
 30
0.0
 10
178.182788776674
 20
16.16264778248253
 30
0.0
 10
178.2713198965366
 20
16.20369527738244
 30
0.0
 10
178.2204898303169
 20
16.05696326622987
 30
0.0
 10
178.2313389930285
 20
15.95019971954433
 30
0.0
 10
178.2166036994847
 20
15.79085705414113
 30
0.0
 10
178.2099976446203
 20
15.62853061652874
 30
0.0
 10
178.2014961399915
 20
15.45992521892394
 30
0.0
 10
178.1943227202199
 20
15.29814814703541
 30
0.0
 10
178.1889063215389
 20
15.15422331457931
 30
0.0
 10
178.1871713967648
 20
15.03437493466925
 30
0.0
 10
178.1875440672319
 20
14.92686101590514
 30
0.0
 10
178.1873656126263
 20
14.81820024645586
 30
0.0
 10
178.187701086314
 20
14.6995357016553
 30
0.0
 10
178.1890040622185
 20
14.57555163512741
 30
0.0
 10
178.1908887351574
 20
14.44858294171105
 30
0.0
 10
178.1925004454853
 20
14.32153861551032
 30
0.0
 10
178.1941403137429
 20
14.19854884492177
 30
0.0
 10
178.1962570745751
 20
14.08300931383759
 30
0.0
 10
178.1963848422364
 20
13.98090903955837
 30
0.0
 10
178.2006514396554
 20
13.89009848838157
 30
0.0
 10
178.1908440085289
 20
13.83213621208787
 30
0.0
 10
178.2118474771689
 20
13.7651713013203
 30
0.0
 10
178.1725639739897
 20
13.77291153966689
 30
0.0
 10
177.9595307117744
 20
13.75755254145194
 30
0.0
 10
177.7636297943187
 20
14.31403058094463
 30
0.0
 10
177.4611197631544
 20
14.57556035348509
 30
0.0
 10
177.3067935648022
 20
14.70898038201725
 30
0.0
 11
177.3067935648022
 21
14.70898038201725
 31
0.0
 11
176.859552933851
 21
15.18757635411978
 31
0.0
 11
176.4124049070643
 21
15.6635264928897
 31
0.0
 11
176.4089664262493
 21
15.55086249986232
 31
0.0
 11
176.4055610183501
 21
15.40557538184311
 31
0.0
 11
176.4029636920274
 21
15.21465645827967
 31
0.0
 11
176.4021126156603
 21
14.96521170139758
 31
0.0
 11
176.4025239230289
 21
14.8843980295428
 31
0.0
 11
176.4038420329817
 21
14.78640628477561
 31
0.0
 11
176.4055192267718
 21
14.67713557299738
 31
0.0
 11
176.4072367127519
 21
14.56282454872039
 31
0.0
 11
176.4094007838772
 21
14.44497802965265
 31
0.0
 11
176.4124049070643
 21
14.32545802100199
 31
0.0
 11
176.4158359733138
 21
14.20933349846156
 31
0.0
 11
176.4192928929998
 21
14.1018674655023
 31
0.0
 11
176.4227085253088
 21
14.00510162351263
 31
0.0
 11
176.4261896983792
 21
13.92125406276972
 31
0.0
 11
176.4296006184313
 21
13.8563286200776
 31
0.0
 11
176.4330776843148
 21
13.81626739612926
 31
0.0
 11
176.3754263821571
 21
13.82145433189185
 31
0.0
 11
176.3126746318308
 21
13.82315538223861
 31
0.0
 11
176.2464251717157
 21
13.82145433189185
 31
0.0
 11
176.1853747739675
 21
13.81626739612926
 31
0.0
 11
176.1926772737812
 21
13.8653189412559
 31
0.0
 11
176.2008793569054
 21
13.94356725720854
 31
0.0
 11
176.2090098822348
 21
14.04551893253029
 31
0.0
 11
176.2163406441397
 21
14.16542920159753
 31
0.0
 11
176.2236358280422
 21
14.3000591234389
 31
0.0
 11
176.2318444255596
 21
14.44586107652745
 31
0.0
 11
176.2395504149466
 21
14.59715203135072
 31
0.0
 11
176.2455763002093
 21
14.74850913200734
 31
0.0
 11
176.2503046247416
 21
14.89817951391436
 31
0.0
 11
176.2541928972119
 21
15.04435739582223
 31
0.0
 11
176.2567527408965
 21
15.18111831592696
 31
0.0
 11
176.2576324804575
 21
15.30230850686891
 31
0.0
 11
176.257192610677
 21
15.60939715262544
 31
0.0
 11
176.2559126888347
 21
15.86997204839366
 31
0.0
 11
176.2528658717893
 21
16.07719922716125
 31
0.0
 11
176.2473049112763
 21
16.22421385386062
 31
0.0
 11
176.2615728121469
 21
16.22421385386062
 31
0.0
 11
176.2880703423352
 21
16.22421385386062
 31
0.0
 11
176.3023382432058
 21
16.22421385386062
 31
0.0
 11
176.5194743650276
 21
15.98910179662774
 31
0.0
 11
176.7512744123079
 21
15.73751281231563
 31
0.0
 11
176.9894816018839
 21
15.4794955554357
 31
0.0
 11
177.2260074557522
 21
15.22497079855489
 31
0.0
 11
177.4555698717705
 21
14.97899759549137
 31
0.0
 11
177.6731797360104
 21
14.74678934034108
 31
0.0
 11
177.8713724913708
 21
14.538266805671
 31
0.0
 11
178.0430143099086
 21
14.36326697932589
 31
0.0
 11
178.0430143099086
 21
14.38918210687043
 31
0.0
 11
178.0430143099086
 21
14.45601585685371
 31
0.0
 11
178.0430143099086
 21
14.54740078030024
 31
0.0
 11
178.0430143099086
 21
14.64696942823453
 31
0.0
 11
178.0430143099086
 21
14.73835435168106
 31
0.0
 11
178.0430143099086
 21
14.80518810166434
 31
0.0
 11
178.0430143099086
 21
14.83110322920888
 31
0.0
 11
178.0417233637609
 21
15.18755430550867
 31
0.0
 11
178.0378461155958
 21
15.53450684014416
 31
0.0
 11
178.0296197790002
 21
15.86693815950552
 31
0.0
 11
178.0154535467229
 21
16.17960510387178
 31
0.0
 11
178.0790351249618
 21
16.16666367158334
 31
0.0
 11
178.1324170159612
 21
16.16238072887606
 31
0.0
 11
178.1805381084833
 21
16.16666367158334
 31
0.0
 11
178.2424836798197
 21
16.17960510387178
 31
0.0
 11
178.2351216487575
 21
16.084981284451
 31
0.0
 11
178.2269790968819
 21
15.95257496503965
 31
0.0
 11
178.2183705364004
 21
15.79600336785656
 31
0.0
 11
178.2097547223214
 21
15.62916593734269
 31
0.0
 11
178.2016187850288
 21
15.4589032550936
 31
0.0
 11
178.1942501393835
 21
15.292060312427
 31
0.0
 11
178.1891406931522
 21
15.14329943572809
 31
0.0
 11
178.1874503478904
 21
15.027221215271
 31
0.0
 11
178.1874503478904
 21
14.93258747397518
 31
0.0
 11
178.1874503478904
 21
14.82077565976707
 31
0.0
 11
178.1878461204497
 21
14.70123801222749
 31
0.0
 11
178.1890819450709
 21
14.5766005209392
 31
0.0
 11
178.1908392193317
 21
14.44883212687392
 31
0.0
 11
178.1925303477609
 21
14.32028982655879
 31
0.0
 11
178.1942876220214
 21
14.19558288214555
 31
0.0
 11
178.1959787504505
 21
14.07947489606349
 31
0.0
 11
178.1972884379172
 21
13.97495896727018
 31
0.0
 11
178.1976985420735
 21
13.88517371555653
 31
0.0
 11
178.1976985420735
 21
13.81891763918417
 31
0.0
 11
178.1976985420735
 21
13.77165864614042
 31
0.0
 11
178.1736699662976
 21
13.77165864614042
 31
0.0
 11
178.1496413905217
 21
13.77165864614042
 31
0.0
 11
177.7410729200423
 21
14.2346673526219
 31
0.0
 11
177.3067935648022
 21
14.70898038201725
 31
0.0
  0
SPLINE
  5
A8
102
{ACAD_REACTORS
330
C5
102
}
330
48
100
AcDbEntity
  8
_U_30EC_U_30A4_U_30E4_U_30FC_1
  6
Continuous
 62
     2
100
AcDbSpline
210
0.0
220
0.0
230
1.0
 70
    11
 71
     3
 72
   110
 73
   106
 74
   104
 42
0.000000001
 43
0.0000000001
 44
0.00000001
 40
0.0
 40
0.0
 40
0.0
 40
0.0
 40
0.2203406257277808
 40
0.4407808782838091
 40
0.595249449461535
 40
0.7488431659393074
 40
0.902358183130934
 40
1.056801968670404
 40
1.210736449099961
 40
1.363041386539868
 40
1.515315729683126
 40
1.669377239148077
 40
1.72161165275656
 40
1.773199502942936
 40
1.824933793209979
 40
1.877110426487958
 40
1.982682281206693
 40
2.078781667087416
 40
2.17280964082228
 40
2.271937807378905
 40
2.378349933379269
 40
2.494131557736571
 40
2.62668168394362
 40
2.783145050796048
 40
2.890701232940901
 40
2.993130312454789
 40
3.09986973069178
 40
3.220237816691266
 40
3.352695482737556
 40
3.481732806389815
 40
3.593499473690346
 40
3.674323013331852
 40
3.817951711952802
 40
3.946167120793799
 40
4.061405053453513
 40
4.166480796003126
 40
4.262478775059192
 40
4.350736673551232
 40
4.43307199125409
 40
4.511216293814523
 40
4.564262454117829
 40
4.618474415571452
 40
4.670128488754058
 40
4.722296879126248
 40
4.819540945314118
 40
4.931194984127976
 40
5.049996040257561
 40
5.168643755414964
 40
5.283970811762289
 40
5.392260784910115
 40
5.486512254876161
 40
5.559178233949589
 40
5.591425852853266
 40
5.626215969637645
 40
5.667155838674193
 40
5.717449290214015
 40
5.738402360944624
 40
5.784499116553583
 40
5.830595872164549
 40
5.851548942897402
 40
5.873019280661515
 40
5.924217778408057
 40
5.985325662817433
 40
6.036524160567446
 40
6.057994498333972
 40
6.236847789607237
 40
6.381409928945416
 40
6.493190424178446
 40
6.574067534230267
 40
6.691018086205361
 40
6.814881554220364
 40
6.944307823240288
 40
7.071266716065854
 40
7.193488604461699
 40
7.309042773127926
 40
7.414007203170524
 40
7.505140441886307
 40
7.531150360599439
 40
7.559221645322009
 40
7.587202218920675
 40
7.612569159498908
 40
7.662550809480777
 40
7.702878875763922
 40
7.857328205230651
 40
8.010799568088268
 40
8.165256399657304
 40
8.322232698713671
 40
8.479564855016358
 40
8.635216230290562
 40
8.79088255092548
 40
8.948305154947045
 40
9.168271839032746
 40
9.387358980987006
 40
9.608047961033252
 40
9.832914234792469
 40
9.858338694962804
 40
9.92536681722981
 40
10.02013071422739
 40
10.12876249858978
 40
10.23739428295228
 40
10.33215817995169
 40
10.39918630222373
 40
10.42461076239762
 40
10.64992019336922
 40
10.87188524531165
 40
10.87188524531165
 40
10.87188524531165
 40
10.87188524531165
 10
179.9057788376618
 20
15.73923260398189
 30
0.0
 10
179.9092864933542
 20
15.80616462073804
 30
0.0
 10
179.9163033987662
 20
15.94005891915858
 30
0.0
 10
179.8198027599072
 20
16.22548554971469
 30
0.0
 10
180.0510134726109
 20
16.16284386190284
 30
0.0
 10
180.1919290057156
 20
16.17001554055989
 30
0.0
 10
180.3490417757588
 20
16.16235883078245
 30
0.0
 10
180.5025913427288
 20
16.16252752283038
 30
0.0
 10
180.6545104935081
 20
16.16182040535433
 30
0.0
 10
180.8142214813232
 20
16.17210158351637
 30
0.0
 10
180.9408972601118
 20
16.15496511080752
 30
0.0
 10
181.137082112208
 20
16.22727260107145
 30
0.0
 10
181.1034395279078
 20
16.12640699080116
 30
0.0
 10
181.1052011317184
 20
16.07619253947671
 30
0.0
 10
181.1027342073458
 20
16.02712335586466
 30
0.0
 10
181.1347076966011
 20
15.94063490847
 30
0.0
 10
181.0010399903256
 20
15.98997438608336
 30
0.0
 10
180.9172208688057
 20
15.98430634314168
 30
0.0
 10
180.8173861139324
 20
15.99465516706298
 30
0.0
 10
180.7186576720145
 20
16.00086450411086
 30
0.0
 10
180.6121532771111
 20
16.00697763816778
 30
0.0
 10
180.4910511698059
 20
16.01588883484585
 30
0.0
 10
180.3703381502453
 20
16.00521605912384
 30
0.0
 10
180.1812553843438
 20
16.06468503080367
 30
0.0
 10
180.212902850531
 20
15.9055832007754
 30
0.0
 10
180.1995563316836
 20
15.80839128339904
 30
0.0
 10
180.1974958426448
 20
15.69634065110104
 30
0.0
 10
180.1958188044671
 20
15.57699685629351
 30
0.0
 10
180.1973336794232
 20
15.45032592155111
 30
0.0
 10
180.1956582478669
 20
15.32301588016117
 30
0.0
 10
180.2058844271657
 20
15.22451566404464
 30
0.0
 10
180.1779006596582
 20
15.08388702625631
 30
0.0
 10
180.3508029999305
 20
15.13989551134095
 30
0.0
 10
180.4645020202772
 20
15.12719951478496
 30
0.0
 10
180.584015167224
 20
15.13448377051256
 30
0.0
 10
180.6888491425071
 20
15.13878017056755
 30
0.0
 10
180.7843084898612
 20
15.14330568258977
 30
0.0
 10
180.8763823507033
 20
15.15149201146198
 30
0.0
 10
180.9476551782439
 20
15.14643850638111
 30
0.0
 10
181.0544931705683
 20
15.18536425031671
 30
0.0
 10
181.0226603598037
 20
15.10517122005878
 30
0.0
 10
181.0266164503929
 20
15.05562936846034
 30
0.0
 10
181.0234502392014
 20
15.0055747803982
 30
0.0
 10
181.0550791490583
 20
14.92128847612019
 30
0.0
 10
180.9210133677691
 20
14.97425365495159
 30
0.0
 10
180.8292322793199
 20
14.96540080890443
 30
0.0
 10
180.7079729189603
 20
14.97570049965154
 30
0.0
 10
180.5914113119772
 20
14.97748911767501
 30
0.0
 10
180.4783375745879
 20
14.97787017109694
 30
0.0
 10
180.3679246308471
 20
14.98415449472178
 30
0.0
 10
180.289812406784
 20
14.97189133255364
 30
0.0
 10
180.1913625833645
 20
15.00453887616128
 30
0.0
 10
180.201235517356
 20
14.94769748054206
 30
0.0
 10
180.1973923244401
 20
14.91392130557984
 30
0.0
 10
180.1966789884268
 20
14.8711960470941
 30
0.0
 10
180.1963369642976
 20
14.83401607262152
 30
0.0
 10
180.1963834255345
 20
14.7948723737077
 30
0.0
 10
180.1963649429927
 20
14.75716849497686
 30
0.0
 10
180.1963703431806
 20
14.71944955232403
 30
0.0
 10
180.19636972142
 20
14.6899432474515
 30
0.0
 10
180.1963698151545
 20
14.65873577699302
 30
0.0
 10
180.1963704287921
 20
14.61414424908086
 30
0.0
 10
180.1963671499337
 20
14.55963956508853
 30
0.0
 10
180.1963759623481
 20
14.51505540201449
 30
0.0
 10
180.1963359653417
 20
14.43117808585742
 30
0.0
 10
180.1976024270255
 20
14.31737520677679
 30
0.0
 10
180.1950274117841
 20
14.16830395933709
 30
0.0
 10
180.206500938172
 20
14.06597203813905
 30
0.0
 10
180.1823506222263
 20
13.93338903885833
 30
0.0
 10
180.3332993946476
 20
13.97895732272021
 30
0.0
 10
180.4428436671556
 20
13.96427012162347
 30
0.0
 10
180.573397047392
 20
13.96920435125063
 30
0.0
 10
180.6990312209514
 20
13.9725770532336
 30
0.0
 10
180.81887306256
 20
13.97711497498772
 30
0.0
 10
180.9391362611426
 20
13.99048536182003
 30
0.0
 10
181.0222761663516
 20
13.98068712782595
 30
0.0
 10
181.1456080421073
 20
14.04126214623321
 30
0.0
 10
181.1244269203957
 20
13.9853246013402
 30
0.0
 10
181.1235950270118
 20
13.95939249372346
 30
0.0
 10
181.1218963707558
 20
13.93197256190939
 30
0.0
 10
181.1217974888828
 20
13.89738195206385
 30
0.0
 10
181.1203659301329
 20
13.86050408220767
 30
0.0
 10
181.153280419219
 20
13.76846841021808
 30
0.0
 10
180.9551306988108
 20
13.84132015974831
 30
0.0
 10
180.8300548294891
 20
13.81825726508604
 30
0.0
 10
180.6673071295157
 20
13.82454021985785
 30
0.0
 10
180.5129366450001
 20
13.82260943909925
 30
0.0
 10
180.3566670436944
 20
13.82393762599267
 30
0.0
 10
180.1970544465282
 20
13.82059872487861
 30
0.0
 10
180.0540326342236
 20
13.8326579572824
 30
0.0
 10
179.8197144881628
 20
13.76952001976917
 30
0.0
 10
179.9173810751197
 20
14.05620527466317
 30
0.0
 10
179.9006868780058
 20
14.2498830814266
 30
0.0
 10
179.9146296709685
 20
14.47848242880295
 30
0.0
 10
179.9142987846631
 20
14.63384593955048
 30
0.0
 10
179.9143078119264
 20
14.73966336444127
 30
0.0
 10
179.9143055876316
 20
14.80205784124215
 30
0.0
 10
179.9143065551889
 20
14.89220425248327
 30
0.0
 10
179.9143065473262
 20
14.99621167157438
 30
0.0
 10
179.9143053861102
 20
15.10022131375296
 30
0.0
 10
179.9143090971502
 20
15.19036243688768
 30
0.0
 10
179.9143011051052
 20
15.25276803097215
 30
0.0
 10
179.9143334275018
 20
15.35868835961119
 30
0.0
 10
179.9131440788319
 20
15.51626716544739
 30
0.0
 10
179.9082216489256
 20
15.66528219822065
 30
0.0
 10
179.9057788376618
 20
15.73923260398189
 30
0.0
 11
179.9057788376618
 21
15.73923260398189
 31
0.0
 11
179.896691822374
 21
15.95938578101017
 31
0.0
 11
179.8868249573133
 21
16.17960510387178
 31
0.0
 11
180.04115751414
 21
16.17312391463728
 31
0.0
 11
180.1946500189046
 21
16.16754892331923
 31
0.0
 11
180.3481160653367
 21
16.1636716750563
 31
0.0
 11
180.5025544554939
 21
16.16238072887606
 31
0.0
 11
180.6564835227474
 21
16.1636716750563
 31
0.0
 11
180.8087391004601
 21
16.16754892331923
 31
0.0
 11
180.9609113551074
 21
16.17312391463728
 31
0.0
 11
181.1148364762483
 21
16.17960510387178
 31
0.0
 11
181.1070811703123
 21
16.12794961777357
 31
0.0
 11
181.1044991623591
 21
16.07642642334204
 31
0.0
 11
181.1070811703123
 21
16.0247566056466
 31
0.0
 11
181.1148364762483
 21
15.97315954836785
 31
0.0
 11
181.0094874054411
 21
15.98001446156058
 31
0.0
 11
180.9136375700061
 21
15.98693552058657
 31
0.0
 11
180.8198593171903
 21
15.99378381919599
 31
0.0
 11
180.7209679915881
 21
16.0006321178054
 31
0.0
 11
180.6147532199924
 21
16.00710999974824
 31
0.0
 11
180.4991060528037
 21
16.01268829835794
 31
0.0
 11
180.3666126447258
 21
16.01656554662087
 31
0.0
 11
180.2101546018423
 21
16.01785649280112
 31
0.0
 11
180.2062663293721
 21
15.91037061609187
 31
0.0
 11
180.2015380048401
 21
15.80805072896465
 31
0.0
 11
180.1976607566749
 21
15.70138175329687
 31
0.0
 11
180.1963698105272
 21
15.58102059013251
 31
0.0
 11
180.1967799146835
 21
15.44856355891566
 31
0.0
 11
180.1980896021501
 21
15.31953288186455
 31
0.0
 11
180.1994074577049
 21
15.20777398432309
 31
0.0
 11
180.199819115366
 21
15.12695149302385
 31
0.0
 11
180.3434452935874
 21
15.1278025694125
 31
0.0
 11
180.4716343930758
 21
15.13039989580076
 31
0.0
 11
180.5868078221796
 21
15.13425509545254
 31
0.0
 11
180.691775631222
 21
15.13901649302076
 31
0.0
 11
180.7876346289421
 21
15.14418027774175
 31
0.0
 11
180.8757413374194
 21
15.14934406246266
 31
0.0
 11
180.9578881438497
 21
15.15491243919739
 31
0.0
 11
181.035769233557
 21
15.16132086801525
 31
0.0
 11
181.0280180445186
 21
15.10884407115337
 31
0.0
 11
181.0254328449317
 21
15.05469378470858
 31
0.0
 11
181.0280180445186
 21
15.00310444444366
 31
0.0
 11
181.035769233557
 21
14.95151510417881
 31
0.0
 11
180.9389813454013
 21
14.96092324653757
 31
0.0
 11
180.8275950722014
 21
14.96865128473013
 31
0.0
 11
180.7089261429372
 21
14.97425273438146
 31
0.0
 11
180.5903167449214
 21
14.9772678819501
 31
0.0
 11
180.4750025117521
 21
14.97898767361638
 31
0.0
 11
180.36672619507
 21
14.98070746528256
 31
0.0
 11
180.2724839317708
 21
14.98202486979617
 31
0.0
 11
180.199819115366
 21
14.9824360763933
 31
0.0
 11
180.1994074577049
 21
14.95019108508191
 31
0.0
 11
180.1980896021501
 21
14.91542593752118
 31
0.0
 11
180.1967799146835
 21
14.87450702260084
 31
0.0
 11
180.1963698105272
 21
14.8242152430995
 31
0.0
 11
180.1963698105272
 21
14.80326217235821
 31
0.0
 11
180.1963698105272
 21
14.75716541672736
 31
0.0
 11
180.1963698105272
 21
14.71106866109651
 31
0.0
 11
180.1963698105272
 21
14.69011559035522
 31
0.0
 11
180.1963698105272
 21
14.66864525258281
 31
0.0
 11
180.1963698105272
 21
14.61744675481785
 31
0.0
 11
180.1963698105272
 21
14.55633887038869
 31
0.0
 11
180.1963698105272
 21
14.50514037262372
 31
0.0
 11
180.1963698105272
 21
14.48367003485132
 31
0.0
 11
180.1967799146835
 21
14.30481721371548
 31
0.0
 11
180.1980896021501
 21
14.16026100715442
 31
0.0
 11
180.2002868589709
 21
14.04850210961289
 31
0.0
 11
180.2032586986985
 21
13.96767961831364
 31
0.0
 11
180.3202092517447
 21
13.96767961831364
 31
0.0
 11
180.4440727208747
 21
13.96767961831364
 31
0.0
 11
180.5734925526423
 21
13.9689705644939
 31
0.0
 11
180.7003922282244
 21
13.97284781275681
 31
0.0
 11
180.8224658067973
 21
13.97886708358864
 31
0.0
 11
180.9377587499463
 21
13.98663260442001
 31
0.0
 11
181.0421754573518
 21
13.99734161483402
 31
0.0
 11
181.1320599255448
 21
14.01237656274691
 31
0.0
 11
181.1264254031192
 21
13.98698427976715
 31
0.0
 11
181.1234433285424
 21
13.95907184053803
 31
0.0
 11
181.12213398812
 21
13.93112191867003
 31
0.0
 11
181.1217235369194
 21
13.90575829888471
 31
0.0
 11
181.1243087365064
 21
13.85584355063326
 31
0.0
 11
181.1320599255448
 21
13.81626739612926
 31
0.0
 11
180.9776977178345
 21
13.82145433189185
 31
0.0
 11
180.8242357818766
 21
13.82315538223861
 31
0.0
 11
180.6697789496483
 21
13.82315538223861
 31
0.0
 11
180.5128026496768
 21
13.82315538223861
 31
0.0
 11
180.3554704921536
 21
13.82315538223861
 31
0.0
 11
180.199819115366
 21
13.82315538223861
 31
0.0
 11
180.0441620874241
 21
13.82145433189185
 31
0.0
 11
179.8868249573133
 21
13.81626739612926
 31
0.0
 11
179.896691822374
 21
14.0360126738521
 31
0.0
 11
179.9057788376618
 21
14.2549112849085
 31
0.0
 11
179.91217215184
 21
14.47550763902002
 31
0.0
 11
179.9143063455009
 21
14.70036378479716
 31
0.0
 11
179.9143063455009
 21
14.72578824496875
 31
0.0
 11
179.9143063455009
 21
14.79281636723932
 31
0.0
 11
179.9143063455009
 21
14.88758026424254
 31
0.0
 11
179.9143063455009
 21
14.99621204861208
 31
0.0
 11
179.9143063455009
 21
15.10484383298162
 31
0.0
 11
179.9143063455009
 21
15.19960772998484
 31
0.0
 11
179.9143063455009
 21
15.2666358522554
 31
0.0
 11
179.9143063455009
 21
15.292060312427
 31
0.0
 11
179.91217215184
 21
15.51735963528735
 31
0.0
 11
179.9057788376618
 21
15.73923260398189
 31
0.0
  0
SPLINE
  5
A9
102
{ACAD_REACTORS
330
C6
102
}
330
48
100
AcDbEntity
  8
_U_30EC_U_30A4_U_30E4_U_30FC_1
  6
Continuous
 62
     2
100
AcDbSpline
210
0.0
220
0.0
230
1.0
 70
    11
 71
     3
 72
    47
 73
    43
 74
    41
 42
0.000000001
 43
0.0000000001
 44
0.00000001
 40
0.0
 40
0.0
 40
0.0
 40
0.0
 40
0.2207912809957196
 40
0.4459404186302851
 40
0.4902387190457931
 40
0.5327473892721744
 40
0.5742260451223926
 40
0.6155432630559505
 40
0.6568164066314994
 40
0.6982511618779342
 40
0.7407663929315583
 40
0.7851366743173072
 40
1.010288833836089
 40
1.231080507001937
 40
1.451765243652166
 40
1.676638205891466
 40
1.720461045359437
 40
1.830018144043295
 40
1.972442372352923
 40
2.114866600677288
 40
2.224423699394906
 40
2.268246538883147
 40
2.493628801206984
 40
2.715602830286392
 40
2.934211330706147
 40
3.149502369855139
 40
3.2313877848507
 40
3.318231873853736
 40
3.405143198197638
 40
3.486970301720047
 40
3.702258172493487
 40
3.92086628353372
 40
4.142839325931517
 40
4.368221903864984
 40
4.412044743359464
 40
4.521601842095474
 40
4.664026070451949
 40
4.806450298808655
 40
4.916007397546342
 40
4.959830237042664
 40
5.184703515846711
 40
5.405387250767085
 40
5.405387250767085
 40
5.405387250767085
 40
5.405387250767085
 10
182.6507427258644
 20
15.73406440953872
 30
0.0
 10
182.6568139420002
 20
15.7975848250121
 30
0.0
 10
182.6690762107242
 20
15.92587938689624
 30
0.0
 10
182.5604706879414
 20
16.20166220174075
 30
0.0
 10
182.6761985896604
 20
16.17188133432052
 30
0.0
 10
182.7171842509015
 20
16.16765556262819
 30
0.0
 10
182.7591205797519
 20
16.16310446389607
 30
0.0
 10
182.800419662571
 20
16.16201982929483
 30
0.0
 10
182.8417032115556
 20
16.16310338195228
 30
0.0
 10
182.8836148270647
 20
16.16766112711342
 30
0.0
 10
182.9245983549019
 20
16.17187430209728
 30
0.0
 10
183.0404922843487
 20
16.2017761131753
 30
0.0
 10
182.9295652727457
 20
15.92339806609889
 30
0.0
 10
182.9574856365268
 20
15.74283140824952
 30
0.0
 10
182.9404267346969
 20
15.50961042346471
 30
0.0
 10
182.9414637282102
 20
15.34906622543146
 30
0.0
 10
182.9414099399403
 20
15.2228481755872
 30
0.0
 10
182.941427737248
 20
15.12428963336241
 30
0.0
 10
182.9414188581079
 20
14.99280702442963
 30
0.0
 10
182.9414263928032
 20
14.8613284496865
 30
0.0
 10
182.9414129405128
 20
14.76276222694091
 30
0.0
 10
182.9414531717491
 20
14.63639735624153
 30
0.0
 10
182.9406746403816
 20
14.4748206882287
 30
0.0
 10
182.9565958319268
 20
14.24361821892915
 30
0.0
 10
182.9333468885408
 20
14.05874351972002
 30
0.0
 10
183.0360183444365
 20
13.78935602770055
 30
0.0
 10
182.8820238362836
 20
13.82660112685817
 30
0.0
 10
182.8004129802833
 20
13.82137994680533
 30
0.0
 10
182.7188192292583
 20
13.8266062037835
 30
0.0
 10
182.5648513666844
 20
13.78937069885385
 30
0.0
 10
182.6674183421917
 20
14.0587512986288
 30
0.0
 10
182.6442045316086
 20
14.24361585325414
 30
0.0
 10
182.6600444655139
 20
14.47482218565639
 30
0.0
 10
182.6593296313426
 20
14.63639712308503
 30
0.0
 10
182.6593664569907
 20
14.76276231210522
 30
0.0
 10
182.659354900027
 20
14.86132756635982
 30
0.0
 10
182.6593575019214
 20
14.9928112741722
 30
0.0
 10
182.6593648531779
 20
15.12427548031199
 30
0.0
 10
182.6593442541351
 20
15.22287786275325
 30
0.0
 10
182.6594082192028
 20
15.34896149354426
 30
0.0
 10
182.658173394759
 20
15.51210091383771
 30
0.0
 10
182.6532040396744
 20
15.6605418377755
 30
0.0
 10
182.6507427258644
 20
15.73406440953872
 30
0.0
 11
182.6507427258644
 21
15.73406440953872
 31
0.0
 11
182.6417328200379
 21
15.95467178795577
 31
0.0
 11
182.6318769706147
 21
16.17960510387178
 31
0.0
 11
182.6756985840801
 21
16.17312391463728
 31
0.0
 11
182.7178400934216
 21
16.16754892331923
 31
0.0
 11
182.759137140979
 21
16.1636716750563
 31
0.0
 11
182.8004341885365
 21
16.16238072887606
 31
0.0
 11
182.8416871388731
 21
16.1636716750563
 31
0.0
 11
182.8829400892097
 21
16.16754892331923
 31
0.0
 11
182.9250882131343
 21
16.17312391463728
 31
0.0
 11
182.9689825870144
 21
16.17960510387178
 31
0.0
 11
182.9590577693891
 21
15.95467178795577
 31
0.0
 11
182.9500384208311
 21
15.73406440953872
 31
0.0
 11
182.9435638463435
 21
15.51347467001055
 31
0.0
 11
182.9414218238285
 21
15.28861190965006
 31
0.0
 11
182.9414218238285
 21
15.24478907015484
 31
0.0
 11
182.9414218238285
 21
15.13523197141681
 31
0.0
 11
182.9414218238285
 21
14.99280774305737
 31
0.0
 11
182.9414218238285
 21
14.85038351469792
 31
0.0
 11
182.9414218238285
 21
14.74082641595989
 31
0.0
 11
182.9414218238285
 21
14.69700357646468
 31
0.0
 11
182.9435638463434
 21
14.47163149318767
 31
0.0
 11
182.9500384208311
 21
14.2497519099098
 31
0.0
 11
182.9590577693891
 21
14.03132954885329
 31
0.0
 11
182.9689825870144
 21
13.81626739612926
 31
0.0
 11
182.887261616877
 21
13.82145433189185
 31
0.0
 11
182.8004341885365
 21
13.82315538223861
 31
0.0
 11
182.713539511934
 21
13.82145433189185
 31
0.0
 11
182.6318769706147
 21
13.81626739612926
 31
0.0
 11
182.6417328200379
 21
14.03132954885329
 31
0.0
 11
182.6507427258644
 21
14.2497519099098
 31
0.0
 11
182.6571833838798
 21
14.47163149318767
 31
0.0
 11
182.6593583588023
 21
14.69700357646468
 31
0.0
 11
182.6593583588023
 21
14.74082641595989
 31
0.0
 11
182.6593583588023
 21
14.85038351469793
 31
0.0
 11
182.6593583588023
 21
14.99280774305737
 31
0.0
 11
182.6593583588023
 21
15.13523197141681
 31
0.0
 11
182.6593583588023
 21
15.24478907015485
 31
0.0
 11
182.6593583588023
 21
15.28861190965006
 31
0.0
 11
182.6571833838798
 21
15.51347467001055
 31
0.0
 11
182.6507427258644
 21
15.73406440953872
 31
0.0
  0
SPLINE
  5
AA
102
{ACAD_REACTORS
330
C7
102
}
330
48
100
AcDbEntity
  8
_U_30EC_U_30A4_U_30E4_U_30FC_1
  6
Continuous
 62
     2
100
AcDbSpline
210
0.0
220
0.0
230
1.0
 70
    11
 71
     3
 72
   118
 73
   114
 74
   112
 42
0.000000001
 43
0.0000000001
 44
0.00000001
 40
0.0
 40
0.0
 40
0.0
 40
0.0
 40
0.1054708162973064
 40
0.2466098270051549
 40
0.3965912874590694
 40
0.5285525069753392
 40
0.6156245055641355
 40
0.64314341057965
 40
0.7036850037985035
 40
0.7642265984503096
 40
0.79174550523534
 40
0.928740431998891
 40
1.106572819087926
 40
1.287544879680872
 40
1.317578308030389
 40
1.399928030857027
 40
1.522968204799801
 40
1.675072986590423
 40
1.8446165331805
 40
2.019973001638564
 40
2.189516548879877
 40
2.341621331585215
 40
2.464661506320351
 40
2.547011229646915
 40
2.577044658167879
 40
2.60379789089295
 40
2.662655002908665
 40
2.721512114949506
 40
2.748265347702657
 40
2.774215307344734
 40
2.845959313407064
 40
2.954338556588264
 40
3.090194227585443
 40
3.244367517100408
 40
3.407699615844169
 40
3.571031714539319
 40
3.725205003919995
 40
3.861060674729498
 40
3.96943991771619
 40
4.041183923628865
 40
4.067133883212859
 40
4.311886746012072
 40
4.547897258335438
 40
4.764747083043892
 40
4.952749679951679
 40
5.045772974195775
 40
5.137862019644894
 40
5.330543169792937
 40
5.553448265243925
 40
5.795083855888104
 40
6.043293412177156
 40
6.28576169554109
 40
6.313902908752574
 40
6.384255941793164
 40
6.475714884766752
 40
6.567173827758815
 40
6.637526860839593
 40
6.665668074073956
 40
6.692018920327934
 40
6.749990782071011
 40
6.807962643790386
 40
6.834313490017863
 40
6.856393084245141
 40
6.913335195649765
 40
6.991194817302457
 40
7.076026942283747
 40
7.153886563725266
 40
7.210828674844819
 40
7.232908268931183
 40
7.258199334923704
 40
7.324875781592352
 40
7.419142481925007
 40
7.527204308841947
 40
7.635266135230522
 40
7.729532834168504
 40
7.796209279292826
 40
7.821500344594773
 40
7.844652988850843
 40
7.899863140541565
 40
7.965759128053646
 40
8.020969279770902
 40
8.04412192404634
 40
8.069356610160359
 40
8.109134395441044
 40
8.132238100190756
 40
8.193147867786118
 40
8.279261678876294
 40
8.377977512673509
 40
8.476693347146293
 40
8.562807160411344
 40
8.62371693082613
 40
8.646820636853084
 40
8.671988793773897
 40
8.734909185827751
 40
8.816705695188466
 40
8.898502204815008
 40
8.96142259737744
 40
8.986590754550553
 40
9.012941600732713
 40
9.070913462379803
 40
9.128885324081306
 40
9.15523617032463
 40
9.180404327928672
 40
9.243324721947717
 40
9.325121234211453
 40
9.406917746637108
 40
9.469838141977563
 40
9.495006288270309
 40
9.51781118437845
 40
9.572192090486451
 40
9.63709833328068
 40
9.69147923951488
 40
9.71428412564292
 40
9.71428412564292
 40
9.71428412564292
 40
9.71428412564292
 10
185.2874469028654
 20
15.26889163187718
 30
0.0
 10
185.3090990569038
 20
15.24111869242809
 30
0.0
 10
185.3597257109475
 20
15.17618054561233
 30
0.0
 10
185.4349383202591
 20
15.06891060312898
 30
0.0
 10
185.5248482274347
 20
14.95377438266624
 30
0.0
 10
185.5709169676674
 20
14.8535704574832
 30
0.0
 10
185.6655825294654
 20
14.78434006814944
 30
0.0
 10
185.6204439320413
 20
14.73771639678274
 30
0.0
 10
185.5947047785791
 20
14.69660308866041
 30
0.0
 10
185.5645196708012
 20
14.66065971727939
 30
0.0
 10
185.5193684730563
 20
14.58579782596093
 30
0.0
 10
185.4710504458562
 20
14.80782524253602
 30
0.0
 10
185.3968539713073
 20
14.8451067733771
 30
0.0
 10
185.2836047324608
 20
15.11610202130599
 30
0.0
 10
185.288513357817
 20
15.00095328446228
 30
0.0
 10
185.2868486556307
 20
14.92836675781628
 30
0.0
 10
185.2876830076715
 20
14.80625588483986
 30
0.0
 10
185.2873609540265
 20
14.6591380081046
 30
0.0
 10
185.2875076912457
 20
14.49307063956557
 30
0.0
 10
185.2872950092724
 20
14.32187554608602
 30
0.0
 10
185.2879497252034
 20
14.15552828635498
 30
0.0
 10
185.285919246114
 20
14.00935173055693
 30
0.0
 10
185.2913460399931
 20
13.8847104747461
 30
0.0
 10
185.2804930868709
 20
13.81718656540626
 30
0.0
 10
185.2956739155556
 20
13.75549061417022
 30
0.0
 10
185.2457895108134
 20
13.76727503897002
 30
0.0
 10
185.2017150342523
 20
13.75943822779969
 30
0.0
 10
185.1582371630201
 20
13.76760441372703
 30
0.0
 10
185.1092346786489
 20
13.75538056738469
 30
0.0
 10
185.1218731234825
 20
13.80960667249313
 30
0.0
 10
185.113018296845
 20
13.86936918907558
 30
0.0
 10
185.1175058770314
 20
13.9792202904437
 30
0.0
 10
185.1157960135992
 20
14.11029975405678
 30
0.0
 10
185.1163550915987
 20
14.26198011444329
 30
0.0
 10
185.1161928768695
 20
14.42211074929953
 30
0.0
 10
185.1162269924675
 20
14.58236865674567
 30
0.0
 10
185.1162514960127
 20
14.7337024752044
 30
0.0
 10
185.1161453543227
 20
14.86582156338602
 30
0.0
 10
185.1164299141931
 20
14.97294802533194
 30
0.0
 10
185.1158675547568
 20
15.03808619579474
 30
0.0
 10
185.1180765083691
 20
15.16618957858678
 30
0.0
 10
185.0319435998601
 20
14.79097610391578
 30
0.0
 10
184.95551408185
 20
14.63918193123395
 30
0.0
 10
184.8660040767832
 20
14.4776620644631
 30
0.0
 10
184.7640413217326
 20
14.20471848820171
 30
0.0
 10
184.7187976491039
 20
14.36717346596515
 30
0.0
 10
184.610235594167
 20
14.45605432058117
 30
0.0
 10
184.7995791751753
 20
14.6054979496141
 30
0.0
 10
184.85653405457
 20
14.79749136974926
 30
0.0
 10
184.9717520993353
 20
15.02899622906755
 30
0.0
 10
184.9940151630132
 20
15.21797259759063
 30
0.0
 10
185.1771905152139
 20
15.49454089325928
 30
0.0
 10
185.0538033597552
 20
15.48698978832093
 30
0.0
 10
184.9925684166834
 20
15.48856772366118
 30
0.0
 10
184.9081999617064
 20
15.48882592573671
 30
0.0
 10
184.8204235085966
 20
15.48544845751205
 30
0.0
 10
184.7656768696122
 20
15.49394814982019
 30
0.0
 10
184.7104703026025
 20
15.48048561049787
 30
0.0
 10
184.7222823035536
 20
15.52931442126763
 30
0.0
 10
184.7142496151793
 20
15.57269004896708
 30
0.0
 10
184.7228186104678
 20
15.61509438309573
 30
0.0
 10
184.7102943409157
 20
15.66267796552119
 30
0.0
 10
184.7555101538735
 20
15.6526721299511
 30
0.0
 10
184.8014815562724
 20
15.65894105174062
 30
0.0
 10
184.877722204771
 20
15.65593561405873
 30
0.0
 10
184.9561296131994
 20
15.65770448278542
 30
0.0
 10
185.0323992648933
 20
15.65464793981661
 30
0.0
 10
185.0783009459475
 20
15.66103971376178
 30
0.0
 10
185.1231733965401
 20
15.65093822978897
 30
0.0
 10
185.1105552275635
 20
15.70157201581899
 30
0.0
 10
185.1191936582707
 20
15.75501261882071
 30
0.0
 10
185.1152361595445
 20
15.84863255131681
 30
0.0
 10
185.1162325068335
 20
15.95112606688924
 30
0.0
 10
185.1171927413074
 20
16.05353270248163
 30
0.0
 10
185.1133211458006
 20
16.14735929609321
 30
0.0
 10
185.1217789814365
 20
16.20036542840353
 30
0.0
 10
185.1093075932836
 20
16.25211435651188
 30
0.0
 10
185.154210638985
 20
16.23850747226757
 30
0.0
 10
185.1955083836773
 20
16.24100480320585
 30
0.0
 10
185.259534428105
 20
16.23648060574488
 30
0.0
 10
185.2986111148785
 20
16.22781003043307
 30
0.0
 10
185.3476543498741
 20
16.23515102070688
 30
0.0
 10
185.3225080030591
 20
16.19602896051757
 30
0.0
 10
185.2815901333724
 20
16.20563842455807
 30
0.0
 10
185.2910109616604
 20
16.15540148169778
 30
0.0
 10
185.2855647318747
 20
16.10385945639491
 30
0.0
 10
185.2881699601805
 20
16.01959707584522
 30
0.0
 10
185.2870102202155
 20
15.92559135583409
 30
0.0
 10
185.2883591064232
 20
15.83196865395527
 30
0.0
 10
185.2849970101509
 20
15.74679517552224
 30
0.0
 10
185.292095991777
 20
15.69716856072045
 30
0.0
 10
185.2812569154547
 20
15.6499369496999
 30
0.0
 10
185.3304010225246
 20
15.66201674936852
 30
0.0
 10
185.3794877630148
 20
15.65447393363012
 30
0.0
 10
185.4573714280641
 20
15.65686070361433
 30
0.0
 10
185.5350365172897
 20
15.65899381905416
 30
0.0
 10
185.5845393931354
 20
15.65193391922456
 30
0.0
 10
185.6344594750639
 20
15.66360151936215
 30
0.0
 10
185.622319851688
 20
15.61540235371393
 30
0.0
 10
185.6305838229144
 20
15.57249219801235
 30
0.0
 10
185.6223198650783
 20
15.52958201851384
 30
0.0
 10
185.6344594549854
 20
15.48138288754863
 30
0.0
 10
185.5845395158747
 20
15.4930503447151
 30
0.0
 10
185.5350350651203
 20
15.48599202435044
 30
0.0
 10
185.4573784382973
 20
15.48811665228602
 30
0.0
 10
185.379464386576
 20
15.49053389365759
 30
0.0
 10
185.3304500352718
 20
15.48291848194485
 30
0.0
 10
185.2813246108943
 20
15.4950795255759
 30
0.0
 10
185.2915559988573
 20
15.45073013424157
 30
0.0
 10
185.2856677678054
 20
15.4092543620291
 30
0.0
 10
185.287878830557
 20
15.34915394315302
 30
0.0
 10
185.2874109346147
 20
15.30225782762887
 30
0.0
 10
185.2874386992914
 20
15.27650146418195
 30
0.0
 10
185.2874469028654
 20
15.26889163187718
 30
0.0
 11
185.2874469028654
 21
15.26889163187718
 31
0.0
 11
185.3516977534485
 21
15.18524999634255
 31
0.0
 11
185.43482588355
 21
15.0711888974822
 31
0.0
 11
185.5216831568896
 21
14.94891767195723
 31
0.0
 11
185.5971214371872
 21
14.84064565642876
 31
0.0
 11
185.6459925881626
 21
14.76858218755791
 31
0.0
 11
185.6296821285093
 21
14.746417821244
 31
0.0
 11
185.593799117272
 21
14.6976562153534
 31
0.0
 11
185.5579161060347
 21
14.64889460946281
 31
0.0
 11
185.5416056463814
 21
14.6267302431489
 31
0.0
 11
185.4763067109446
 21
14.74716139023814
 31
0.0
 11
185.3848434243235
 21
14.89966983670208
 31
0.0
 11
185.2874469028654
 21
15.05219788193142
 31
0.0
 11
185.2874469028654
 21
15.02216445328253
 31
0.0
 11
185.2874469028654
 21
14.93981472956783
 31
0.0
 11
185.2874469028654
 21
14.81677455413528
 31
0.0
 11
185.2874469028654
 21
14.66466977033283
 31
0.0
 11
185.2874469028654
 21
14.49512622150845
 31
0.0
 11
185.2874469028654
 21
14.31976975101009
 31
0.0
 11
185.2874469028654
 21
14.15022620218571
 31
0.0
 11
185.2874469028654
 21
13.99812141838326
 31
0.0
 11
185.2874469028654
 21
13.87508124295071
 31
0.0
 11
185.2874469028654
 21
13.79273151923601
 31
0.0
 11
185.2874469028654
 21
13.76269809058712
 31
0.0
 11
185.260693670041
 21
13.76269809058712
 31
0.0
 11
185.2018365578272
 21
13.76269809058712
 31
0.0
 11
185.1429794456135
 21
13.76269809058712
 31
0.0
 11
185.1162262127891
 21
13.76269809058712
 31
0.0
 11
185.1162262127891
 21
13.7886480503125
 31
0.0
 11
185.1162262127891
 21
13.86039205661208
 31
0.0
 11
185.1162262127891
 21
13.96877130017102
 31
0.0
 11
185.1162262127891
 21
14.10462697167448
 31
0.0
 11
185.1162262127891
 21
14.25880026180761
 31
0.0
 11
185.1162262127891
 21
14.42213236125559
 31
0.0
 11
185.1162262127891
 21
14.58546446070357
 31
0.0
 11
185.1162262127891
 21
14.7396377508367
 31
0.0
 11
185.1162262127891
 21
14.87549342234016
 31
0.0
 11
185.1162262127891
 21
14.9838726658991
 31
0.0
 11
185.1162262127891
 21
15.05561667219868
 31
0.0
 11
185.1162262127891
 21
15.08156663192406
 31
0.0
 11
185.0379865861721
 21
14.84965603302373
 31
0.0
 11
184.9497110789303
 21
14.63077616328679
 31
0.0
 11
184.8544106930045
 21
14.43598991333548
 31
0.0
 11
184.7550964303356
 21
14.27636017379203
 31
0.0
 11
184.7109198342406
 21
14.358224461966
 31
0.0
 11
184.658805738348
 21
14.43414885430812
 31
0.0
 11
184.7627302590299
 21
14.59640087926757
 31
0.0
 11
184.8629319864735
 21
14.7955146542178
 31
0.0
 11
184.9550446607902
 21
15.01890447916196
 31
0.0
 11
185.0347020220912
 21
15.25398465410319
 31
0.0
 11
185.097537810488
 21
15.48816947904464
 31
0.0
 11
185.0693965972142
 21
15.48816947904464
 31
0.0
 11
184.9990435640297
 21
15.48816947904464
 31
0.0
 11
184.9075846208898
 21
15.48816947904464
 31
0.0
 11
184.8161256777499
 21
15.48816947904464
 31
0.0
 11
184.7457726445654
 21
15.48816947904464
 31
0.0
 11
184.7176314312916
 21
15.48816947904464
 31
0.0
 11
184.7176314312916
 21
15.51452032539222
 31
0.0
 11
184.7176314312916
 21
15.57249218735689
 31
0.0
 11
184.7176314312916
 21
15.63046404932155
 31
0.0
 11
184.7176314312916
 21
15.65681489566913
 31
0.0
 11
184.739711025602
 21
15.65681489566913
 31
0.0
 11
184.7966531372444
 21
15.65681489566913
 31
0.0
 11
184.8745127592862
 21
15.65681489566913
 31
0.0
 11
184.9593448847945
 21
15.65681489566913
 31
0.0
 11
185.0372045068362
 21
15.65681489566913
 31
0.0
 11
185.0941466184787
 21
15.65681489566913
 31
0.0
 11
185.1162262127891
 21
15.65681489566913
 31
0.0
 11
185.1162262127891
 21
15.68210596174354
 31
0.0
 11
185.1162262127891
 21
15.74878240866698
 31
0.0
 11
185.1162262127891
 21
15.84304910948977
 31
0.0
 11
185.1162262127891
 21
15.95111093726225
 31
0.0
 11
185.1162262127891
 21
16.05917276503472
 31
0.0
 11
185.1162262127891
 21
16.15343946585751
 31
0.0
 11
185.1162262127891
 21
16.22011591278095
 31
0.0
 11
185.1162262127891
 21
16.24540697885536
 31
0.0
 11
185.1393181988666
 21
16.243732131078
 31
0.0
 11
185.1943837041285
 21
16.23973826330122
 31
0.0
 11
185.2601070491183
 21
16.23497138885796
 31
0.0
 11
185.3151725543802
 21
16.23097752108117
 31
0.0
 11
185.3382645404577
 21
16.22930267330381
 31
0.0
 11
185.3249012644362
 21
16.20789677921191
 31
0.0
 11
185.2874469028654
 21
16.1945011455347
 31
0.0
 11
185.2874469028654
 21
16.17139743948579
 31
0.0
 11
185.2874469028654
 21
16.11048766899321
 31
0.0
 11
185.2874469028654
 21
16.02437385553817
 31
0.0
 11
185.2874469028654
 21
15.92565802060192
 31
0.0
 11
185.2874469028654
 21
15.82694218566566
 31
0.0
 11
185.2874469028654
 21
15.74082837221063
 31
0.0
 11
185.2874469028654
 21
15.67991860171804
 31
0.0
 11
185.2874469028654
 21
15.65681489566913
 31
0.0
 11
185.312615060481
 21
15.65681489566913
 31
0.0
 11
185.3755354545199
 21
15.65681489566913
 31
0.0
 11
185.4573319667706
 21
15.65681489566913
 31
0.0
 11
185.5391284790213
 21
15.65681489566913
 31
0.0
 11
185.6020488730602
 21
15.65681489566913
 31
0.0
 11
185.6272170306758
 21
15.65681489566913
 31
0.0
 11
185.6272170306758
 21
15.63046404932155
 31
0.0
 11
185.6272170306758
 21
15.57249218735689
 31
0.0
 11
185.6272170306758
 21
15.51452032539222
 31
0.0
 11
185.6272170306758
 21
15.48816947904464
 31
0.0
 11
185.6020488730602
 21
15.48816947904464
 31
0.0
 11
185.5391284790213
 21
15.48816947904464
 31
0.0
 11
185.4573319667706
 21
15.48816947904464
 31
0.0
 11
185.37553545452
 21
15.48816947904464
 31
0.0
 11
185.312615060481
 21
15.48816947904464
 31
0.0
 11
185.2874469028654
 21
15.48816947904464
 31
0.0
 11
185.2874469028654
 21
15.46536458293923
 31
0.0
 11
185.2874469028654
 21
15.41098367684169
 31
0.0
 11
185.2874469028654
 21
15.34607743408013
 31
0.0
 11
185.2874469028654
 21
15.2916965279826
 31
0.0
 11
185.2874469028654
 21
15.26889163187718
 31
0.0
  0
SPLINE
  5
AB
102
{ACAD_REACTORS
330
C8
102
}
330
48
100
AcDbEntity
  8
_U_30EC_U_30A4_U_30E4_U_30FC_1
  6
Continuous
 62
     2
100
AcDbSpline
210
0.0
220
0.0
230
1.0
 70
    11
 71
     3
 72
    91
 73
    87
 74
    85
 42
0.000000001
 43
0.0000000001
 44
0.00000001
 40
0.0
 40
0.0
 40
0.0
 40
0.0
 40
0.0345987051695718
 40
0.1258134969461369
 40
0.2547723404888987
 40
0.4026032099154125
 40
0.5504340793416704
 40
0.679392922883608
 40
0.7706077146571035
 40
0.8052064287780925
 40
1.124852390615279
 40
1.42740223630887
 40
1.706356627453513
 40
1.955541417875189
 40
2.169485938566334
 40
2.344350786664774
 40
2.480568411561922
 40
2.590440557428944
 40
2.649189927151098
 40
2.749320643306335
 40
2.912632739880039
 40
3.147745656000245
 40
3.244827496385055
 40
3.33849005694664
 40
3.583815413207079
 40
3.761423943238433
 40
3.886956104362599
 40
3.985855451886761
 40
4.091766255337562
 40
4.250186473811782
 40
4.42273431508445
 40
4.628285684838565
 40
4.87209322775841
 40
5.152549652145521
 40
5.464967135837495
 40
5.803201477852404
 40
6.160362988813871
 40
6.193449448275954
 40
6.284170385501609
 40
6.419718138764479
 40
6.587285046385757
 40
6.774063446723643
 40
6.967245678113626
 40
7.154024078817669
 40
7.321590987026026
 40
7.457138740890384
 40
7.547859678556149
 40
7.580946138182709
 40
7.608533084714763
 40
7.669224367077746
 40
7.729915649429971
 40
7.757502595950024
 40
7.790278062553478
 40
7.880146277430976
 40
8.014419963180439
 40
8.18041184239794
 40
8.365434637679408
 40
8.55680107162271
 40
8.741823866830822
 40
8.907815745916333
 40
9.042089431507486
 40
9.131957646249612
 40
9.164733112797188
 40
9.415425063140106
 40
9.66798618095858
 40
9.69416980746272
 40
9.756607686047651
 40
9.831130315322458
 40
9.893568193899865
 40
9.919751820398682
 40
9.950967964690506
 40
9.996421631210616
 40
10.22087981037451
 40
10.44341866197539
 40
10.47847970788852
 40
10.57091337438752
 40
10.70159545461227
 40
10.85140174170357
 40
11.00120802880475
 40
11.1318901090738
 40
11.22432377583008
 40
11.25938480938954
 40
11.28697175596143
 40
11.34766303835917
 40
11.40835432042068
 40
11.43594125892103
 40
11.43594125892103
 40
11.43594125892103
 40
11.43594125892103
 10
190.0818114333289
 20
15.55242795125076
 30
0.0
 10
190.0702785844941
 20
15.55242790287914
 30
0.0
 10
190.0283409444998
 20
15.55242773704163
 30
0.0
 10
189.9434129719026
 20
15.55243125800908
 30
0.0
 10
189.8207688553128
 20
15.55240926435877
 30
0.0
 10
189.6791206916993
 20
15.55250801177053
 30
0.0
 10
189.537975369849
 20
15.55214686232419
 30
0.0
 10
189.4141351317905
 20
15.55321883609088
 30
0.0
 10
189.3317217825381
 20
15.55092249091267
 30
0.0
 10
189.1727791229693
 20
15.5604856937342
 30
0.0
 10
189.3503402353376
 20
15.1978539431137
 30
0.0
 10
189.3379739205453
 20
14.95243127723113
 30
0.0
 10
189.4064519473865
 20
14.66862501324835
 30
0.0
 10
189.469302432097
 20
14.43250999939034
 30
0.0
 10
189.5452253431728
 20
14.2332674039613
 30
0.0
 10
189.6303189577017
 20
14.07745347451373
 30
0.0
 10
189.7244607592934
 20
13.97657857781392
 30
0.0
 10
189.8282648207728
 20
13.92465852638965
 30
0.0
 10
189.9125872030774
 20
13.97606484379618
 30
0.0
 10
189.9351322179452
 20
14.09144544037515
 30
0.0
 10
189.9745730975372
 20
14.21885149702381
 30
0.0
 10
189.9202919734944
 20
14.53622328086761
 30
0.0
 10
190.0451218072473
 20
14.38982180140902
 30
0.0
 10
190.2019291513603
 20
14.35795300331174
 30
0.0
 10
190.0947720007056
 20
14.12421357767628
 30
0.0
 10
190.0808711209867
 20
13.95972776583656
 30
0.0
 10
190.0234709467225
 20
13.83130869122483
 30
0.0
 10
189.9335020145009
 20
13.76018802352827
 30
0.0
 10
189.8095274657878
 20
13.74432324142253
 30
0.0
 10
189.6634273196861
 20
13.77993797554171
 30
0.0
 10
189.5243894320284
 20
13.90000570500276
 30
0.0
 10
189.4102003962145
 20
14.07435682550319
 30
0.0
 10
189.3146141301485
 20
14.29946603111239
 30
0.0
 10
189.2318652572626
 20
14.56388246006442
 30
0.0
 10
189.1807179256411
 20
14.88187933098543
 30
0.0
 10
189.0770189207339
 20
15.15543728488913
 30
0.0
 10
189.2042841208521
 20
15.56005818612866
 30
0.0
 10
189.0357890623019
 20
15.55112367849677
 30
0.0
 10
188.9511995787078
 20
15.55315961418362
 30
0.0
 10
188.8189876387628
 20
15.55213937388405
 30
0.0
 10
188.6560505094103
 20
15.55253230318428
 30
0.0
 10
188.4733759170534
 20
15.55235696313368
 30
0.0
 10
188.2847057373382
 20
15.55260105307467
 30
0.0
 10
188.1014469020189
 20
15.55185657906235
 30
0.0
 10
187.9404746832718
 20
15.55416360522425
 30
0.0
 10
187.8029808335276
 20
15.54799804883661
 30
0.0
 10
187.7289590372311
 20
15.5603283845821
 30
0.0
 10
187.6613215186856
 20
15.54329323723555
 30
0.0
 10
187.6732373719269
 20
15.59524438447527
 30
0.0
 10
187.6655677285694
 20
15.64071424966528
 30
0.0
 10
187.6732592225115
 20
15.68614453703705
 30
0.0
 10
187.6613141797761
 20
15.7380239598457
 30
0.0
 10
187.7283588305867
 20
15.72119143490264
 30
0.0
 10
187.8017375665677
 20
15.73335409092671
 30
0.0
 10
187.9379128305271
 20
15.72727231074958
 30
0.0
 10
188.0973811801513
 20
15.72954834315058
 30
0.0
 10
188.2789173085836
 20
15.72881233998961
 30
0.0
 10
188.4658034862179
 20
15.72905954196134
 30
0.0
 10
188.6468012316836
 20
15.72886400799253
 30
0.0
 10
188.8080802578878
 20
15.72932234714839
 30
0.0
 10
188.9393882124887
 20
15.72812673751206
 30
0.0
 10
189.0225051322596
 20
15.73051347319743
 30
0.0
 10
189.1556236547815
 20
15.72230605725464
 30
0.0
 10
189.0645893502657
 20
15.97752868952654
 30
0.0
 10
188.9789633074421
 20
16.2416435832825
 30
0.0
 10
189.0990589003455
 20
16.22904442969165
 30
0.0
 10
189.1514264948544
 20
16.22694235763076
 30
0.0
 10
189.2214497569715
 20
16.22535399889657
 30
0.0
 10
189.2671922337818
 20
16.21602567538113
 30
0.0
 10
189.3220812646933
 20
16.22545966915427
 30
0.0
 10
189.2963574785681
 20
16.17733028655174
 30
0.0
 10
189.1825397571452
 20
16.18266829744168
 30
0.0
 10
189.3159346621135
 20
15.95449174576776
 30
0.0
 10
189.1943658735471
 20
15.72156856595922
 30
0.0
 10
189.3223188769413
 20
15.73087258884439
 30
0.0
 10
189.4049048406461
 20
15.7280100175468
 30
0.0
 10
189.5307214850824
 20
15.72923437412302
 30
0.0
 10
189.6741469838057
 20
15.72932431888965
 30
0.0
 10
189.8157420951728
 20
15.72746163183853
 30
0.0
 10
189.9459127249967
 20
15.73333075937163
 30
0.0
 10
190.0193452286191
 20
15.72070340823203
 30
0.0
 10
190.0891112922096
 20
15.73877563110412
 30
0.0
 10
190.0775772605396
 20
15.68612850546326
 30
0.0
 10
190.0833184346682
 20
15.64221317686546
 30
0.0
 10
190.0816615770911
 20
15.59089982676548
 30
0.0
 10
190.081775756167
 20
15.56158792021633
 30
0.0
 10
190.0818114333289
 20
15.55242795125076
 30
0.0
 11
190.0818114333289
 21
15.55242795125076
 31
0.0
 11
190.0472127192051
 21
15.55242795125076
 31
0.0
 11
189.9559979274241
 21
15.55242795125076
 31
0.0
 11
189.8270390838717
 21
15.55242795125076
 31
0.0
 11
189.6792082144335
 21
15.55242795125076
 31
0.0
 11
189.5313773449954
 21
15.55242795125076
 31
0.0
 11
189.402418501443
 21
15.55242795125076
 31
0.0
 11
189.311203709662
 21
15.55242795125076
 31
0.0
 11
189.2766049955382
 21
15.55242795125076
 31
0.0
 11
189.3083140497693
 21
15.2343586493012
 31
0.0
 11
189.3527866656866
 21
14.9350952278808
 31
0.0
 11
189.409238911832
 21
14.66191269512576
 31
0.0
 11
189.4768868567478
 21
14.42208605917227
 31
0.0
 11
189.5549465689762
 21
14.22289032815654
 31
0.0
 11
189.6426341170591
 21
14.07160051021477
 31
0.0
 11
189.7391655695388
 21
13.97549161348317
 31
0.0
 11
189.8437569949575
 21
13.94183864609792
 31
0.0
 11
189.8943077302786
 21
13.97177376978835
 31
0.0
 11
189.9310588991552
 21
14.06491619815048
 31
0.0
 11
189.9562640977528
 21
14.22627151712055
 31
0.0
 11
189.9721769222369
 21
14.46084531263483
 31
0.0
 11
190.0494082682583
 21
14.40202182306618
 31
0.0
 11
190.1327184184385
 21
14.35921885432691
 31
0.0
 11
190.1066365811216
 21
14.1152838866101
 31
0.0
 11
190.0673317805105
 21
13.94207902887562
 31
0.0
 11
190.0105702596765
 21
13.83011272445916
 31
0.0
 11
189.932118261691
 21
13.76989341669644
 31
0.0
 11
189.8277420296257
 21
13.75192954892316
 31
0.0
 11
189.6738595065098
 21
13.7895744001236
 31
0.0
 11
189.5388902376748
 21
13.89707348877402
 31
0.0
 11
189.4221739916163
 21
14.06627361744808
 31
0.0
 11
189.32305053683
 21
14.28902158871943
 31
0.0
 11
189.2408596418113
 21
14.55716420516172
 31
0.0
 11
189.1749410750559
 21
14.8625482693486
 31
0.0
 11
189.1246346050594
 21
15.19702058385373
 31
0.0
 11
189.0892800003172
 21
15.55242795125076
 31
0.0
 11
189.0561935405844
 21
15.55242795125076
 31
0.0
 11
188.9654726026075
 21
15.55242795125076
 31
0.0
 11
188.8299248482186
 21
15.55242795125076
 31
0.0
 11
188.6623579392495
 21
15.55242795125076
 31
0.0
 11
188.4755795375324
 21
15.55242795125076
 31
0.0
 11
188.2823973048993
 21
15.55242795125076
 31
0.0
 11
188.0956189031822
 21
15.55242795125076
 31
0.0
 11
187.9280519942131
 21
15.55242795125076
 31
0.0
 11
187.7925042398242
 21
15.55242795125076
 31
0.0
 11
187.7017833018473
 21
15.55242795125076
 31
0.0
 11
187.6686968421145
 21
15.55242795125076
 31
0.0
 11
187.6686968421145
 21
15.58001489785845
 31
0.0
 11
187.6686968421145
 21
15.64070618039537
 31
0.0
 11
187.6686968421145
 21
15.70139746293229
 31
0.0
 11
187.6686968421145
 21
15.72898440953998
 31
0.0
 11
187.7014723087631
 21
15.72898440953998
 31
0.0
 11
187.7913405237673
 21
15.72898440953998
 31
0.0
 11
187.9256142097148
 21
15.72898440953998
 31
0.0
 11
188.0916060891932
 21
15.72898440953998
 31
0.0
 11
188.2766288847901
 21
15.72898440953998
 31
0.0
 11
188.4679953190932
 21
15.72898440953998
 31
0.0
 11
188.6530181146902
 21
15.72898440953998
 31
0.0
 11
188.8190099941685
 21
15.72898440953998
 31
0.0
 11
188.953283680116
 21
15.72898440953998
 31
0.0
 11
189.0431518951202
 21
15.72898440953998
 31
0.0
 11
189.0759273617688
 21
15.72898440953998
 31
0.0
 11
189.0659183950103
 21
15.97947647544958
 31
0.0
 11
189.0599112510664
 21
16.23196614552532
 31
0.0
 11
189.086057587066
 21
16.23056921608122
 31
0.0
 11
189.148406542142
 21
16.22723807663762
 31
0.0
 11
189.22282303691
 21
16.2232622005275
 31
0.0
 11
189.2851719919859
 21
16.21993106108388
 31
0.0
 11
189.3113183279855
 21
16.21853413163979
 31
0.0
 11
189.298293111304
 21
16.19016528616081
 31
0.0
 11
189.2551649266405
 21
16.17581274276165
 31
0.0
 11
189.2574991961821
 21
15.95136670115108
 31
0.0
 11
189.2658452735903
 21
15.72898440953998
 31
0.0
 11
189.3009063195165
 21
15.72898440953998
 31
0.0
 11
189.3933399860495
 21
15.72898440953998
 31
0.0
 11
189.5240220663201
 21
15.72898440953998
 31
0.0
 11
189.6738283534596
 21
15.72898440953998
 31
0.0
 11
189.8236346405991
 21
15.72898440953998
 31
0.0
 11
189.9543167208697
 21
15.72898440953998
 31
0.0
 11
190.0467503874027
 21
15.72898440953998
 31
0.0
 11
190.0818114333289
 21
15.72898440953998
 31
0.0
 11
190.0818114333289
 21
15.70139746293229
 31
0.0
 11
190.0818114333289
 21
15.64070618039537
 31
0.0
 11
190.0818114333289
 21
15.58001489785845
 31
0.0
 11
190.0818114333289
 21
15.55242795125076
 31
0.0
  0
SPLINE
  5
AC
102
{ACAD_REACTORS
330
C9
102
}
330
48
100
AcDbEntity
  8
_U_30EC_U_30A4_U_30E4_U_30FC_1
  6
Continuous
 62
     2
100
AcDbSpline
210
0.0
220
0.0
230
1.0
 70
    11
 71
     3
 72
    75
 73
    71
 74
    69
 42
0.000000001
 43
0.0000000001
 44
0.00000001
 40
0.0
 40
0.0
 40
0.0
 40
0.0
 40
0.0342546099129691
 40
0.1245622414432346
 40
0.2522385480897518
 40
0.398599192294068
 40
0.5449598364980821
 40
0.6726361431438816
 40
0.762943774673696
 40
0.7971983935297973
 40
1.101723623449658
 40
1.408591244036661
 40
1.433332471690369
 40
1.487763172450163
 40
1.542193873081994
 40
1.566935100592542
 40
1.923523931821796
 40
2.271755704953622
 40
2.590579755100864
 40
2.858943305581149
 40
2.88912033930917
 40
2.918305855191122
 40
2.941366645531243
 40
2.996357760973134
 40
3.061992318140677
 40
3.116983433626871
 40
3.140044223997548
 40
3.4112731229365
 40
3.732441619741054
 40
3.761068217532752
 40
3.837787499630314
 40
3.948858699125954
 40
4.08054104910433
 40
4.219093782625713
 40
4.350776132722263
 40
4.461847332405599
 40
4.538566614678329
 40
4.567193212544577
 40
4.594907573998835
 40
4.666381453557374
 40
4.764111044010956
 40
4.870592538125759
 40
4.968322128642182
 40
5.039796008286839
 40
5.067510369784298
 40
5.09426360318551
 40
5.153120716668143
 40
5.211977830150586
 40
5.23873106355159
 40
5.272290535138829
 40
5.36338052944469
 40
5.497618415781368
 40
5.66062156345361
 40
5.838007341749311
 40
6.015393119910662
 40
6.178396267038288
 40
6.312634151842239
 40
6.403724143059229
 40
6.437283612672324
 40
6.464036846260941
 40
6.522893960004554
 40
6.581751071483813
 40
6.608504301590759
 40
6.637253941280907
 40
6.711397748902758
 40
6.812778057283371
 40
6.923237199249147
 40
7.024617507623791
 40
7.098761315207444
 40
7.127510946007394
 40
7.127510946007394
 40
7.127510946007394
 40
7.127510946007394
 10
188.4418622390564
 20
14.95849128473265
 30
0.0
 10
188.4418622819707
 20
14.9470731340872
 30
0.0
 10
188.4418624481129
 20
14.9055525784263
 30
0.0
 10
188.4418593081786
 20
14.82146922003772
 30
0.0
 10
188.44187882798
 20
14.70004497322329
 30
0.0
 10
188.4417912187737
 20
14.55980494047449
 30
0.0
 10
188.442111623523
 20
14.42006556794577
 30
0.0
 10
188.4411605909741
 20
14.29745038894929
 30
0.0
 10
188.4431978595967
 20
14.21587074438044
 30
0.0
 10
188.4349433178746
 20
14.06271267077698
 30
0.0
 10
188.7430797940901
 20
14.22560236054721
 30
0.0
 10
189.0350645173736
 20
14.39482938688003
 30
0.0
 10
189.0408354448707
 20
14.2597323578191
 30
0.0
 10
189.0455471719891
 20
14.21617221160443
 30
0.0
 10
189.0482535411918
 20
14.17211249350544
 30
0.0
 10
189.0672545672958
 20
14.02272590363133
 30
0.0
 10
188.6583942247302
 20
14.08681172241261
 30
0.0
 10
188.3793710348832
 20
13.97296341411017
 30
0.0
 10
188.1018081587166
 20
13.87364095811142
 30
0.0
 10
187.8099837184401
 20
13.91630687596358
 30
0.0
 10
187.7869144678658
 20
13.81321679744542
 30
0.0
 10
187.7537474383333
 20
13.78691091244469
 30
0.0
 10
187.7480653962739
 20
13.83455309036304
 30
0.0
 10
187.7284214559044
 20
13.87180336115069
 30
0.0
 10
187.7095089485623
 20
13.93007387847564
 30
0.0
 10
187.6942849867708
 20
13.97385201007804
 30
0.0
 10
187.6477246372934
 20
14.08759421046311
 30
0.0
 10
187.989089731245
 20
14.05576301120048
 30
0.0
 10
188.2679649367386
 20
14.02161435106483
 30
0.0
 10
188.2617753034906
 20
14.16913976479653
 30
0.0
 10
188.2630935452772
 20
14.24013150908833
 30
0.0
 10
188.2624831689947
 20
14.34719767958662
 30
0.0
 10
188.2625871570723
 20
14.47398529785998
 30
0.0
 10
188.2629987964055
 20
14.60849243496051
 30
0.0
 10
188.2613907841967
 20
14.73395549951185
 30
0.0
 10
188.2659902567925
 20
14.84505246719118
 30
0.0
 10
188.2564186502208
 20
14.9076188680069
 30
0.0
 10
188.270400178369
 20
14.96595388295002
 30
0.0
 10
188.2147384386703
 20
14.95289710582239
 30
0.0
 10
188.1575655197821
 20
14.961363077495
 30
0.0
 10
188.0616048925646
 20
14.95729976080636
 30
0.0
 10
187.9633767522821
 20
14.95970889852476
 30
0.0
 10
187.8672582457559
 20
14.95551600613388
 30
0.0
 10
187.8104648525812
 20
14.96429346441164
 30
0.0
 10
187.7550356873384
 20
14.95094936850122
 30
0.0
 10
187.7670679427917
 20
15.00036910959258
 30
0.0
 10
187.7592003173937
 20
15.04393988030396
 30
0.0
 10
187.7666295563828
 20
15.08830469118525
 30
0.0
 10
187.7551930564144
 20
15.13902297763991
 30
0.0
 10
187.8232102370132
 20
15.12162460757743
 30
0.0
 10
187.8968496879747
 20
15.13417450237189
 30
0.0
 10
188.0325064058211
 20
15.12799677011097
 30
0.0
 10
188.1884909024525
 20
15.13029203093084
 30
0.0
 10
188.3615926358143
 20
15.1294096826253
 30
0.0
 10
188.5346942964181
 20
15.13029207142408
 30
0.0
 10
188.6906789811216
 20
15.1279966295555
 30
0.0
 10
188.8263351889797
 20
15.13417486262432
 30
0.0
 10
188.8999756705652
 20
15.12162394218335
 30
0.0
 10
188.9679914174724
 20
15.13902373012142
 30
0.0
 10
188.9565590885922
 20
15.08830130414555
 30
0.0
 10
188.9639539458297
 20
15.04397060811109
 30
0.0
 10
188.956203991227
 20
15.00028307550197
 30
0.0
 10
188.9681203741877
 20
14.95063590098477
 30
0.0
 10
188.9108170223616
 20
14.96461411338426
 30
0.0
 10
188.8520145789773
 20
14.95539755673255
 30
0.0
 10
188.7525293633199
 20
14.9595226816493
 30
0.0
 10
188.649428009835
 20
14.95822760025889
 30
0.0
 10
188.5537846354573
 20
14.95854077077641
 30
0.0
 10
188.4857467971617
 20
14.95848776697146
 30
0.0
 10
188.4514462213443
 20
14.95849051871657
 30
0.0
 10
188.4418622390564
 20
14.95849128473265
 30
0.0
 11
188.4418622390564
 21
14.95849128473265
 31
0.0
 11
188.4418622390564
 21
14.92423666587186
 31
0.0
 11
188.4418622390564
 21
14.83392903432976
 31
0.0
 11
188.4418622390564
 21
14.7062527276668
 31
0.0
 11
188.4418622390564
 21
14.5598920834434
 31
0.0
 11
188.4418622390564
 21
14.41353143922001
 31
0.0
 11
188.4418622390564
 21
14.28585513255705
 31
0.0
 11
188.4418622390564
 21
14.19554750101495
 31
0.0
 11
188.4418622390564
 21
14.16129288215416
 31
0.0
 11
188.7391932644567
 21
14.22709475713768
 31
0.0
 11
189.0384623627245
 21
14.29496038212071
 31
0.0
 11
189.0405487124976
 21
14.27030727882826
 31
0.0
 11
189.0451386819987
 21
14.21607045158489
 31
0.0
 11
189.0497286514996
 21
14.1618336243415
 31
0.0
 11
189.0518150012728
 21
14.13718052104906
 31
0.0
 11
188.705639688924
 21
14.05163370140897
 31
0.0
 11
188.3669653138838
 21
13.97060877629902
 31
0.0
 11
188.0563731516688
 21
13.8986276402493
 31
0.0
 11
187.7944444777955
 21
13.84021218778992
 31
0.0
 11
187.7817515029292
 21
13.81283442738014
 31
0.0
 11
187.7569794787513
 21
13.79740260446735
 31
0.0
 11
187.7491867589501
 21
13.81910683390636
 31
0.0
 11
187.7306041194242
 21
13.87086307333786
 31
0.0
 11
187.70842483999
 21
13.93263664943351
 31
0.0
 11
187.689842200464
 21
13.984392888865
 31
0.0
 11
187.6820494806628
 21
14.00609711830401
 31
0.0
 11
187.9482776335932
 21
14.05794001759666
 31
0.0
 11
188.2626334936288
 21
14.12373968771911
 31
0.0
 11
188.2626334936288
 21
14.15236628569625
 31
0.0
 11
188.2626334936288
 21
14.229085568275
 31
0.0
 11
188.2626334936288
 21
14.34015676842633
 31
0.0
 11
188.2626334936288
 21
14.47183911912119
 31
0.0
 11
188.2626334936288
 21
14.61039185333057
 31
0.0
 11
188.2626334936288
 21
14.74207420402544
 31
0.0
 11
188.2626334936288
 21
14.85314540417676
 31
0.0
 11
188.2626334936288
 21
14.9298646867555
 31
0.0
 11
188.2626334936288
 21
14.95849128473265
 31
0.0
 11
188.2349191321107
 21
14.95849128473265
 31
0.0
 11
188.1634452524063
 21
14.95849128473265
 31
0.0
 11
188.06571566179
 21
14.95849128473265
 31
0.0
 11
187.9592341675364
 21
14.95849128473265
 31
0.0
 11
187.86150457692
 21
14.95849128473265
 31
0.0
 11
187.7900306972156
 21
14.95849128473265
 31
0.0
 11
187.7623163356975
 21
14.95849128473265
 31
0.0
 11
187.7623163356975
 21
14.9852445182329
 31
0.0
 11
187.7623163356975
 21
15.04410163193345
 31
0.0
 11
187.7623163356975
 21
15.10295874563399
 31
0.0
 11
187.7623163356975
 21
15.12971197913424
 31
0.0
 11
187.7958758072874
 21
15.12971197913424
 31
0.0
 11
187.8869658016031
 21
15.12971197913424
 31
0.0
 11
188.0212036879629
 21
15.12971197913424
 31
0.0
 11
188.1842068356856
 21
15.12971197913424
 31
0.0
 11
188.3615926140897
 21
15.12971197913424
 31
0.0
 11
188.5389783924938
 21
15.12971197913424
 31
0.0
 11
188.7019815402164
 21
15.12971197913424
 31
0.0
 11
188.8362194265763
 21
15.12971197913424
 31
0.0
 11
188.9273094208918
 21
15.12971197913424
 31
0.0
 11
188.9608688924818
 21
15.12971197913424
 31
0.0
 11
188.9608688924818
 21
15.10295874563399
 31
0.0
 11
188.9608688924818
 21
15.04410163193344
 31
0.0
 11
188.9608688924818
 21
14.9852445182329
 31
0.0
 11
188.9608688924818
 21
14.95849128473265
 31
0.0
 11
188.9321192527877
 21
14.95849128473265
 31
0.0
 11
188.8579754451555
 21
14.95849128473265
 31
0.0
 11
188.7565951367604
 21
14.95849128473265
 31
0.0
 11
188.6461359947778
 21
14.95849128473265
 31
0.0
 11
188.5447556863827
 21
14.95849128473265
 31
0.0
 11
188.4706118787505
 21
14.95849128473265
 31
0.0
 11
188.4418622390564
 21
14.95849128473265
 31
0.0
  0
SPLINE
  5
AD
102
{ACAD_REACTORS
330
CA
102
}
330
48
100
AcDbEntity
  8
_U_30EC_U_30A4_U_30E4_U_30FC_1
  6
Continuous
 62
     2
100
AcDbSpline
210
0.0
220
0.0
230
1.0
 70
    11
 71
     3
 72
    15
 73
    11
 74
     9
 42
0.000000001
 43
0.0000000001
 44
0.00000001
 40
0.0
 40
0.0
 40
0.0
 40
0.0
 40
0.2785535985096574
 40
0.5215624748198874
 40
0.6076917376040509
 40
0.6938210001741243
 40
0.9405019146455295
 40
1.221691403489038
 40
1.300471877080918
 40
1.379252341684645
 40
1.379252341684645
 40
1.379252341684645
 40
1.379252341684645
 10
189.5681493630999
 20
16.22930267330381
 30
0.0
 10
189.6296017794178
 20
16.17691646592715
 30
0.0
 10
189.7446649974113
 20
16.07882876798222
 30
0.0
 10
190.0397348497243
 20
15.92889785897222
 30
0.0
 10
189.9025147631856
 20
15.84343227515014
 30
0.0
 10
189.8041227843779
 20
15.71085785201554
 30
0.0
 10
189.7130033590649
 20
16.01616985781414
 30
0.0
 10
189.3636839480657
 20
16.07967869465373
 30
0.0
 10
189.5119258376571
 20
16.17896509880877
 30
0.0
 10
189.5494081874236
 20
16.21252348402382
 30
0.0
 10
189.5681493630999
 20
16.22930267330381
 30
0.0
 11
189.5681493630999
 21
16.22930267330381
 31
0.0
 11
189.7919222440596
 21
16.06341774278972
 31
0.0
 11
189.9695046306383
 21
15.89753281227564
 31
0.0
 11
189.9066308127979
 21
15.83866743034592
 31
0.0
 11
189.8437569949575
 21
15.7798020484162
 31
0.0
 11
189.6688535117725
 21
15.95375677059492
 31
0.0
 11
189.4478256856141
 21
16.12757920110701
 31
0.0
 11
189.507987524357
 21
16.17844093720541
 31
0.0
 11
189.5681493630999
 21
16.22930267330381
 31
0.0
  0
SPLINE
  5
AE
102
{ACAD_REACTORS
330
CB
102
}
330
48
100
AcDbEntity
  8
_U_30EC_U_30A4_U_30E4_U_30FC_1
  6
Continuous
 62
     2
100
AcDbSpline
210
0.0
220
0.0
230
1.0
 70
    11
 71
     3
 72
    35
 73
    31
 74
    29
 42
0.000000001
 43
0.0000000001
 44
0.00000001
 40
0.0
 40
0.0
 40
0.0
 40
0.0
 40
0.0335231036620288
 40
0.0713218571712182
 40
0.4278866681487453
 40
0.8116865841964701
 40
1.198190238000155
 40
1.561379546812786
 40
1.659983174622102
 40
1.759315573807276
 40
2.13271961723116
 40
2.525233363588914
 40
2.910815397779785
 40
3.265244364303376
 40
3.592606723582068
 40
3.96438615460402
 40
4.359942131737867
 40
4.758154118639428
 40
4.843846538700066
 40
4.936650065543358
 40
5.256616602537441
 40
5.581707404416179
 40
5.899719158308316
 40
6.198363494280919
 40
6.466301046615982
 40
6.493895311537247
 40
6.559697020197039
 40
6.638234543442529
 40
6.704036252154252
 40
6.73163050842303
 40
6.73163050842303
 40
6.73163050842303
 40
6.73163050842303
 10
191.9736010568668
 20
16.23463843719134
 30
0.0
 10
191.9676006097788
 20
16.22480690542323
 30
0.0
 10
191.9548344099157
 20
16.20388988579795
 30
0.0
 10
191.7949362006554
 20
16.17127126532708
 30
0.0
 10
192.2322025842336
 20
15.88206680336694
 30
0.0
 10
192.4345394828262
 20
15.6804113835844
 30
0.0
 10
192.6819564267973
 20
15.43749387603274
 30
0.0
 10
193.1831513624606
 20
15.3604766275778
 30
0.0
 10
193.0125562198971
 20
15.21876939174653
 30
0.0
 10
192.9383299463201
 20
15.01710366209111
 30
0.0
 10
192.6131432248188
 20
15.36956287174723
 30
0.0
 10
192.3277741670664
 20
15.53175212559563
 30
0.0
 10
192.0337604077657
 20
15.73687130053048
 30
0.0
 10
191.8084452691135
 20
16.21827488595457
 30
0.0
 10
191.5993085055522
 20
15.7534304660922
 30
0.0
 10
191.3207873674835
 20
15.54350952252911
 30
0.0
 10
191.0371383177209
 20
15.37424456359982
 30
0.0
 10
190.7078639527832
 20
15.00142360907936
 30
0.0
 10
190.6277012318224
 20
15.19708014458999
 30
0.0
 10
190.4759724909745
 20
15.32491104190596
 30
0.0
 10
190.9083395826795
 20
15.40454031765934
 30
0.0
 10
191.0962565329766
 20
15.60026634915474
 30
0.0
 10
191.3468477420502
 20
15.81632996916753
 30
0.0
 10
191.5714350470162
 20
15.9819099230006
 30
0.0
 10
191.6259775409712
 20
16.26133964636824
 30
0.0
 10
191.7494661029012
 20
16.24737950408078
 30
0.0
 10
191.806027334452
 20
16.24521268867647
 30
0.0
 10
191.8761870984944
 20
16.24046859881359
 30
0.0
 10
191.9333414022105
 20
16.23709429350541
 30
0.0
 10
191.9644190320838
 20
16.23519854711119
 30
0.0
 10
191.9736010568668
 20
16.23463843719134
 30
0.0
 11
191.9736010568668
 21
16.23463843719134
 31
0.0
 11
191.9525319069884
 21
16.20856374969785
 31
0.0
 11
191.9174464559424
 21
16.1945011455347
 31
0.0
 11
192.1512374769094
 21
15.92527961131382
 31
0.0
 11
192.4414585957566
 21
15.67413407969259
 31
0.0
 11
192.7612797483684
 21
15.45710987618783
 31
0.0
 11
193.0838708706289
 21
15.29025232631636
 31
0.0
 11
193.0213299868077
 21
15.21402035584929
 31
0.0
 11
192.9688035818975
 21
15.12971197913424
 31
0.0
 11
192.6436279095814
 21
15.3132640483158
 31
0.0
 11
192.3237227768436
 21
15.54070139743428
 31
0.0
 11
192.0354200158608
 21
15.7967385512331
 31
0.0
 11
191.8050514588095
 21
16.06609003445567
 31
0.0
 11
191.5995531719517
 21
15.81126348721036
 31
0.0
 11
191.3288301341536
 21
15.55645182277755
 31
0.0
 11
191.0119538423247
 21
15.31969466354855
 31
0.0
 11
190.6679957933741
 21
15.11903163191465
 31
0.0
 11
190.6218855341338
 21
15.19126067703553
 31
0.0
 11
190.5636970460348
 21
15.26355586798965
 31
0.0
 11
190.8433040489015
 21
15.41911456961744
 31
0.0
 11
191.1093004621154
 21
15.60601009790405
 31
0.0
 11
191.3499997459747
 21
15.81384496285208
 31
0.0
 11
191.5537153607775
 21
16.03222167446415
 31
0.0
 11
191.7087607668219
 21
16.25074274274286
 31
0.0
 11
191.7363041569866
 21
16.24906789496551
 31
0.0
 11
191.8019845489177
 21
16.24507402718872
 31
0.0
 11
191.880377274771
 21
16.24030715274548
 31
0.0
 11
191.9460576667021
 21
16.2363132849687
 31
0.0
 11
191.9736010568668
 21
16.23463843719134
 31
0.0
  0
SPLINE
  5
AF
102
{ACAD_REACTORS
330
CC
102
}
330
48
100
AcDbEntity
  8
_U_30EC_U_30A4_U_30E4_U_30FC_1
  6
Continuous
 62
     2
100
AcDbSpline
210
0.0
220
0.0
230
1.0
 70
    11
 71
     3
 72
    91
 73
    87
 74
    85
 42
0.000000001
 43
0.0000000001
 44
0.00000001
 40
0.0
 40
0.0
 40
0.0
 40
0.0
 40
0.0267532254356701
 40
0.0856103386464102
 40
0.1444674521996621
 40
0.1712206856618514
 40
0.2039416005642536
 40
0.2955601971652484
 40
0.4362601844617202
 40
0.6162252844507534
 40
0.8256392189704982
 40
1.054685709844496
 40
1.29354847889356
 40
1.53241124793836
 40
1.761457738799625
 40
1.970871673298593
 40
2.150836773256789
 40
2.29153676049565
 40
2.383155356836785
 40
2.415876284101405
 40
2.44262951748805
 40
2.50148663094918
 40
2.560343744424327
 40
2.5870969778266
 40
2.617068194441027
 40
2.699247336756168
 40
2.82203264346651
 40
2.973822353258039
 40
3.143014704823481
 40
3.31800793688006
 40
3.487200288186922
 40
3.638989997548403
 40
3.761775303794958
 40
3.843954445753265
 40
3.87392566222996
 40
3.89081277350072
 40
3.907699884771925
 40
3.93796076785752
 40
3.980983618142497
 40
4.199085915228673
 40
4.439444339237477
 40
4.677588241261105
 40
5.05069831783799
 40
5.448212454763405
 40
5.855291218044987
 40
6.138575438885722
 40
6.417434507584553
 40
6.444551104394235
 40
6.504207617363534
 40
6.563864130314855
 40
6.590980727104448
 40
6.848609460381851
 40
7.10961199066883
 40
7.352910904446496
 40
7.557830220705839
 40
7.587518925913757
 40
7.652834077376128
 40
7.718149228846065
 40
7.74783793406232
 40
7.854880190301342
 40
7.976511257403883
 40
8.369487896592627
 40
8.757514959223949
 40
9.126072419331411
 40
9.46063938039253
 40
9.746695593036357
 40
9.777569943119099
 40
9.807050320932168
 40
9.83037733612929
 40
9.886003295436373
 40
9.952395569430267
 40
10.00802152870662
 40
10.03134854388254
 40
10.21356951009619
 40
10.4220347929291
 40
10.66154556731099
 40
10.91693789564339
 40
11.15832906556602
 40
11.1898267459666
 40
11.27286608520447
 40
11.39026653033394
 40
11.52484752840931
 40
11.65942852648496
 40
11.77682897161537
 40
11.85986831085734
 40
11.89136598230482
 40
11.89136598230482
 40
11.89136598230482
 40
11.89136598230482
 10
190.7027885008195
 20
14.70699600701772
 30
0.0
 10
190.7028237765287
 20
14.71587847311985
 30
0.0
 10
190.7029366710795
 20
14.74430237047346
 30
0.0
 10
190.7012984568487
 20
14.79409639169803
 30
0.0
 10
190.7069750292911
 20
14.83657564478154
 30
0.0
 10
190.6956928731705
 20
14.88730154856847
 30
0.0
 10
190.7632296979031
 20
14.87012900740109
 30
0.0
 10
190.83880292107
 20
14.88290227165996
 30
0.0
 10
190.9828357056
 20
14.87629729457382
 30
0.0
 10
191.1569419185426
 20
14.87888462206466
 30
0.0
 10
191.3639599611002
 20
14.87800591955552
 30
0.0
 10
191.5894688172376
 20
14.87828207920027
 30
0.0
 10
191.8251162293406
 20
14.87818339658663
 30
0.0
 10
192.0607640531347
 20
14.87828184412767
 30
0.0
 10
192.2862717580626
 20
14.87800678190789
 30
0.0
 10
192.4932934632805
 20
14.87888186270735
 30
0.0
 10
192.6673888915288
 20
14.87630522678446
 30
0.0
 10
192.8114492071985
 20
14.88288290449213
 30
0.0
 10
192.8869691915293
 20
14.87016243405604
 30
0.0
 10
192.9545776037029
 20
14.88726400191686
 30
0.0
 10
192.9430840140676
 20
14.83674785802941
 30
0.0
 10
192.9505104581733
 20
14.79253252226501
 30
0.0
 10
192.9428838927986
 20
14.7486796650361
 30
0.0
 10
192.9546489459425
 20
14.69878374479327
 30
0.0
 10
192.8930788491983
 20
14.71393227712512
 30
0.0
 10
192.8256791738671
 20
14.70310665350673
 30
0.0
 10
192.7013004056221
 20
14.70852031626236
 30
0.0
 10
192.555442823657
 20
14.70649205390784
 30
0.0
 10
192.3893576440086
 20
14.70715777578387
 30
0.0
 10
192.2188412621724
 20
14.70689643521241
 30
0.0
 10
192.0519790855388
 20
14.70721553391094
 30
0.0
 10
191.9087346827105
 20
14.70635302590763
 30
0.0
 10
191.7773313869832
 20
14.70863300482987
 30
0.0
 10
191.7239859134655
 20
14.70407704374203
 30
0.0
 10
191.6485188456911
 20
14.70999914992876
 30
0.0
 10
191.6769075779231
 20
14.70094169343353
 30
0.0
 10
191.7033652409543
 20
14.69725912268932
 30
0.0
 10
191.6633522907701
 20
14.66654271968274
 30
0.0
 10
191.5713663691869
 20
14.67667591174632
 30
0.0
 10
191.5439396207069
 20
14.43032502247785
 30
0.0
 10
191.4478793967234
 20
14.27499558764377
 30
0.0
 10
191.1917277964473
 20
13.94525417931568
 30
0.0
 10
191.7627537732763
 20
14.08430022210453
 30
0.0
 10
192.0173656320516
 20
14.08291779973363
 30
0.0
 10
192.6279647048618
 20
13.99790569242089
 30
0.0
 10
192.3340698578083
 20
14.29685417558198
 30
0.0
 10
192.0133304286517
 20
14.44330856901781
 30
0.0
 10
192.1313543360434
 20
14.50025540818288
 30
0.0
 10
192.1724716466261
 20
14.52420099873349
 30
0.0
 10
192.2156812394411
 20
14.5459975881123
 30
0.0
 10
192.317457409445
 20
14.60928721253903
 30
0.0
 10
192.4328867625248
 20
14.3514715140878
 30
0.0
 10
192.6329591642278
 20
14.21616041113683
 30
0.0
 10
192.7269077387228
 20
14.03792795138884
 30
0.0
 10
192.9558829746392
 20
13.87997821027047
 30
0.0
 10
192.8596031846708
 20
13.829159725763
 30
0.0
 10
192.816795976378
 20
13.79881292523051
 30
0.0
 10
192.771824352878
 20
13.7746613028146
 30
0.0
 10
192.7121720925214
 20
13.72552146747563
 30
0.0
 10
192.6789731061324
 20
13.85997475673606
 30
0.0
 10
192.5582013350796
 20
14.01594265286579
 30
0.0
 10
192.1970976005978
 20
13.88569928059556
 30
0.0
 10
191.8385061955541
 20
13.90224694409483
 30
0.0
 10
191.4570920450079
 20
13.89331229351867
 30
0.0
 10
191.1703455282892
 20
13.82882671672401
 30
0.0
 10
190.8592055599711
 20
13.94230668192843
 30
0.0
 10
190.8268737818788
 20
13.83122259927767
 30
0.0
 10
190.7896178253318
 20
13.81196313850014
 30
0.0
 10
190.7865737632754
 20
13.85874784087299
 30
0.0
 10
190.7679892860607
 20
13.89806853919134
 30
0.0
 10
190.7512436616779
 20
13.95765983478234
 30
0.0
 10
190.7383730915754
 20
14.00201969871283
 30
0.0
 10
190.7042327806429
 20
14.091063311202
 30
0.0
 10
190.9482714457754
 20
14.02181042943769
 30
0.0
 10
191.1441394486672
 20
14.00030369057741
 30
0.0
 10
191.2395426381277
 20
14.28226484478463
 30
0.0
 10
191.2945135769595
 20
14.44363045421125
 30
0.0
 10
191.5159619357158
 20
14.71391177589738
 30
0.0
 10
191.3849239381217
 20
14.70548446853735
 30
0.0
 10
191.3110026555854
 20
14.70779008496969
 30
0.0
 10
191.1977459876244
 20
14.70671378321658
 30
0.0
 10
191.0694251807483
 20
14.7070763907651
 30
0.0
 10
190.9404252030415
 20
14.70697724466085
 30
0.0
 10
190.8287840946291
 20
14.70699932712572
 30
0.0
 10
190.7514663970024
 20
14.7069957918967
 30
0.0
 10
190.713287653201
 20
14.70699595845081
 30
0.0
 10
190.7027885008195
 20
14.70699600701772
 30
0.0
 11
190.7027885008195
 21
14.70699600701772
 31
0.0
 11
190.7027885008195
 21
14.73374924051797
 31
0.0
 11
190.7027885008195
 21
14.79260635421853
 31
0.0
 11
190.7027885008195
 21
14.85146346791909
 31
0.0
 11
190.7027885008195
 21
14.87821670141935
 31
0.0
 11
190.7355094280988
 21
14.87821670141935
 31
0.0
 11
190.8271280244808
 21
14.87821670141935
 31
0.0
 11
190.9678280117818
 21
14.87821670141935
 31
0.0
 11
191.1477931118179
 21
14.87821670141935
 31
0.0
 11
191.3572070464053
 21
14.87821670141935
 31
0.0
 11
191.5862535373604
 21
14.87821670141935
 31
0.0
 11
191.8251163064992
 21
14.87821670141935
 31
0.0
 11
192.0639790756381
 21
14.87821670141935
 31
0.0
 11
192.2930255665931
 21
14.87821670141935
 31
0.0
 11
192.5024395011805
 21
14.87821670141935
 31
0.0
 11
192.6824046012167
 21
14.87821670141935
 31
0.0
 11
192.8231045885176
 21
14.87821670141935
 31
0.0
 11
192.9147231848996
 21
14.87821670141935
 31
0.0
 11
192.9474441121789
 21
14.87821670141935
 31
0.0
 11
192.9474441121789
 21
14.85146346791909
 31
0.0
 11
192.9474441121789
 21
14.79260635421853
 31
0.0
 11
192.9474441121789
 21
14.73374924051797
 31
0.0
 11
192.9474441121789
 21
14.70699600701772
 31
0.0
 11
192.9174728954758
 21
14.70699600701772
 31
0.0
 11
192.8352937529027
 21
14.70699600701772
 31
0.0
 11
192.7125084457639
 21
14.70699600701772
 31
0.0
 11
192.5607187353642
 21
14.70699600701772
 31
0.0
 11
192.3915263830077
 21
14.70699600701772
 31
0.0
 11
192.216533149999
 21
14.70699600701772
 31
0.0
 11
192.0473407976426
 21
14.70699600701772
 31
0.0
 11
191.8955510872428
 21
14.70699600701772
 31
0.0
 11
191.7727657801041
 21
14.70699600701772
 31
0.0
 11
191.6905866375309
 21
14.70699600701772
 31
0.0
 11
191.6606154208278
 21
14.70699600701772
 31
0.0
 11
191.6766359412525
 21
14.70165583340794
 31
0.0
 11
191.6926564616771
 21
14.69631565979816
 31
0.0
 11
191.6706155681421
 21
14.67558114591442
 31
0.0
 11
191.6284861855364
 21
14.66685871536109
 31
0.0
 11
191.5365235541377
 21
14.46909247312657
 31
0.0
 11
191.4279078521763
 21
14.25467511978508
 31
0.0
 11
191.3127500824807
 21
14.0462255905162
 31
0.0
 11
191.685736667502
 21
14.05582441253029
 31
0.0
 11
192.083070003615
 21
14.06781232404995
 31
0.0
 11
192.4899342191146
 21
14.08102711828533
 31
0.0
 11
192.2983119496978
 21
14.2896676130248
 31
0.0
 11
192.0966752013698
 21
14.48229420151833
 31
0.0
 11
192.1204947794749
 21
14.49525327269565
 31
0.0
 11
192.1728978513061
 21
14.52376322928577
 31
0.0
 11
192.2253009231374
 21
14.55227318587588
 31
0.0
 11
192.2491205012425
 21
14.5652322570532
 31
0.0
 11
192.4387101558627
 21
14.39079508370268
 31
0.0
 11
192.6200310940436
 21
14.20305846374091
 31
0.0
 11
192.7777729231148
 21
14.01782380992436
 31
0.0
 11
192.8966252504058
 21
13.85089253500948
 31
0.0
 11
192.8715408217923
 21
13.83501202286068
 31
0.0
 11
192.8163550788426
 21
13.80007489613331
 31
0.0
 11
192.7611693358929
 21
13.76513776940594
 31
0.0
 11
192.7360849072794
 21
13.74925725725714
 31
0.0
 11
192.6775518151612
 21
13.83887824681808
 31
0.0
 11
192.6050015078457
 21
13.93650288221031
 31
0.0
 11
192.2125412924095
 21
13.91636286943759
 31
0.0
 11
191.8249474069561
 21
13.89803302999774
 31
0.0
 11
191.4567378976213
 21
13.88202178722396
 31
0.0
 11
191.1224308105412
 21
13.86883756444948
 31
0.0
 11
190.8365441918517
 21
13.85898878500751
 31
0.0
 11
190.821186232174
 21
13.83220523466695
 31
0.0
 11
190.7937434290546
 21
13.82143559057246
 31
0.0
 11
190.786792719232
 21
13.84370299445578
 31
0.0
 11
190.7702179496548
 21
13.89680218833139
 31
0.0
 11
190.7504351601596
 21
13.96017864553777
 31
0.0
 11
190.7338603905825
 21
14.01327783941338
 31
0.0
 11
190.7269096807599
 21
14.0355452432967
 31
0.0
 11
190.9091199859153
 21
14.03751638912953
 31
0.0
 11
191.1174975848589
 21
14.04356211829472
 31
0.0
 11
191.2303203127216
 21
14.25483550301553
 31
0.0
 11
191.3407936722035
 21
14.48509813155879
 31
0.0
 11
191.4358254265628
 21
14.70699600701772
 31
0.0
 11
191.4043277461597
 21
14.70699600701772
 31
0.0
 11
191.3212884069154
 21
14.70699600701772
 31
0.0
 11
191.2038879617768
 21
14.70699600701772
 31
0.0
 11
191.0693069636912
 21
14.70699600701772
 31
0.0
 11
190.9347259656055
 21
14.70699600701772
 31
0.0
 11
190.8173255204669
 21
14.70699600701772
 31
0.0
 11
190.7342861812226
 21
14.70699600701772
 31
0.0
 11
190.7027885008195
 21
14.70699600701772
 31
0.0
  0
SPLINE
  5
B0
102
{ACAD_REACTORS
330
CD
102
}
330
48
100
AcDbEntity
  8
_U_30EC_U_30A4_U_30E4_U_30FC_1
  6
Continuous
 62
     2
100
AcDbSpline
210
0.0
220
0.0
230
1.0
 70
    11
 71
     3
 72
   131
 73
   127
 74
   125
 42
0.000000001
 43
0.0000000001
 44
0.00000001
 40
0.0
 40
0.0
 40
0.0
 40
0.0
 40
0.019557702982603
 40
0.0426490537460327
 40
0.2863607575856061
 40
0.5344948436188874
 40
0.7842238845572603
 40
0.8737315789466789
 40
0.9803832810312517
 40
1.092842274516974
 40
1.199761146656734
 40
1.289788768186415
 40
1.351573580786064
 40
1.370727117561293
 40
1.416400936017672
 40
1.470914848355785
 40
1.516588666791546
 40
1.53574220355261
 40
1.634216592293007
 40
1.760283341174865
 40
1.897966686681948
 40
2.031216387368774
 40
2.049689751137768
 40
2.101115601646704
 40
2.179502577739822
 40
2.278859318313936
 40
2.393194462258593
 40
2.516516648383707
 40
2.642834515405836
 40
2.766156701983338
 40
2.880491846754452
 40
2.979848588358495
 40
3.058235565443672
 40
3.109661416668827
 40
3.128134780704002
 40
3.146783742386319
 40
3.19125434331518
 40
3.244332157315839
 40
3.288802758225742
 40
3.307451719894985
 40
3.327717853844598
 40
3.383747753579957
 40
3.468388665924349
 40
3.574487837698658
 40
3.694892515728764
 40
3.822449946851904
 40
3.950007377920295
 40
4.070412055800386
 40
4.176511227367943
 40
4.261152139501389
 40
4.317182039076583
 40
4.337448172964503
 40
4.620011002696141
 40
4.885096638397449
 40
4.945373043518217
 40
5.014107710488527
 40
5.070481727651984
 40
5.319246955636554
 40
5.584812164506068
 40
5.859000912056939
 40
6.133746937542088
 40
6.401732212968891
 40
6.420736683995481
 40
6.472845717451132
 40
6.550702743894059
 40
6.646951193874268
 40
6.754234497930592
 40
6.86519608658737
 40
6.972479390357829
 40
7.068727839771991
 40
7.146584865451
 40
7.198693898189229
 40
7.21769836890537
 40
7.234950401630846
 40
7.276089864269889
 40
7.325191803515996
 40
7.36633126609038
 40
7.38358329876973
 40
7.402779163492107
 40
7.453386443254538
 40
7.52493466644554
 40
7.606953361405879
 40
7.688972056429031
 40
7.760520279784282
 40
7.811127559734524
 40
7.830323424546145
 40
7.847844055299777
 40
7.894799345666816
 40
7.962779392744506
 40
8.043374293560557
 40
8.128174145149465
 40
8.208769044817267
 40
8.27674909037697
 40
8.323704379669536
 40
8.341225010056267
 40
8.358497614800415
 40
8.40167912668662
 40
8.457815092185678
 40
8.513951057728082
 40
8.557132569708038
 40
8.574405174505081
 40
8.602340668616442
 40
8.643455660539981
 40
8.663225271966649
 40
8.715345156564297
 40
8.789031889628635
 40
8.873502045520366
 40
8.957972194323991
 40
9.031658925567886
 40
9.083778811234577
 40
9.103548423003039
 40
9.119550083123576
 40
9.160817522379878
 40
9.217244429110243
 40
9.278724491644729
 40
9.335151398295514
 40
9.376418837357809
 40
9.392420497300597
 40
9.401196302734816
 40
9.417494229384289
 40
9.42627002774956
 40
9.440875075477592
 40
9.475702496998773
 40
9.517270709865935
 40
9.552098131994104
 40
9.566703169884311
 40
9.566703169884311
 40
9.566703169884311
 40
9.566703169884311
 10
194.6170254148479
 20
15.67015871511026
 30
0.0
 10
194.6134345093371
 20
15.66453690702159
 30
0.0
 10
194.6056039123624
 20
15.65227754419116
 30
0.0
 10
194.5129968974551
 20
15.61601916040948
 30
0.0
 10
194.4887622233246
 20
15.40148444212725
 30
0.0
 10
194.3858709845938
 20
15.22197284509706
 30
0.0
 10
194.1220492364305
 20
15.03615573798145
 30
0.0
 10
194.284547156918
 20
14.9595933656608
 30
0.0
 10
194.3607225760838
 20
14.89856693195444
 30
0.0
 10
194.4492171072758
 20
14.83515804544759
 30
0.0
 10
194.538993023311
 20
14.77525634219561
 30
0.0
 10
194.5883817636046
 20
14.7210215484921
 30
0.0
 10
194.674570815738
 20
14.69286240541832
 30
0.0
 10
194.6411260674229
 20
14.65713309652813
 30
0.0
 10
194.621467116631
 20
14.62550387991905
 30
0.0
 10
194.5919888217882
 20
14.58475872796069
 30
0.0
 10
194.5688989446032
 20
14.55504663489643
 30
0.0
 10
194.5380205968358
 20
14.5021142266849
 30
0.0
 10
194.472919336574
 20
14.62740334938902
 30
0.0
 10
194.3796000122416
 20
14.68213900233933
 30
0.0
 10
194.2950636285138
 20
14.73916423939342
 30
0.0
 10
194.1722498125744
 20
14.89675287427523
 30
0.0
 10
194.1764450847301
 20
14.82035806766836
 30
0.0
 10
194.1751478652677
 20
14.77361280161296
 30
0.0
 10
194.1758126448076
 20
14.695847858126
 30
0.0
 10
194.1755549986957
 20
14.59902068324423
 30
0.0
 10
194.1756431239921
 20
14.48650279078809
 30
0.0
 10
194.1756077302282
 20
14.365240859457
 30
0.0
 10
194.1756511758278
 20
14.24086897858961
 30
0.0
 10
194.1755199942406
 20
14.11967683631337
 30
0.0
 10
194.1759477562046
 20
14.00691148919743
 30
0.0
 10
194.174667820231
 20
13.91082913768744
 30
0.0
 10
194.1779759851044
 20
13.831138264687
 30
0.0
 10
194.1715197740086
 20
13.78815175788784
 30
0.0
 10
194.1806208705556
 20
13.74955432372043
 30
0.0
 10
194.1447910339935
 20
13.7581088772407
 30
0.0
 10
194.1115223815252
 20
13.75342519985446
 30
0.0
 10
194.060456257604
 20
13.75351298759784
 30
0.0
 10
194.0269723972813
 20
13.75794430283821
 30
0.0
 10
193.9907585408754
 20
13.74960793842509
 30
0.0
 10
194.0009782568665
 20
13.79145277179284
 30
0.0
 10
193.9936487887773
 20
13.83778560820174
 30
0.0
 10
193.9973633136102
 20
13.92374831106014
 30
0.0
 10
193.9959480554896
 20
14.02605142704849
 30
0.0
 10
193.9964105554638
 20
14.14453223931512
 30
0.0
 10
193.996277368623
 20
14.26957683153356
 30
0.0
 10
193.9963015910045
 20
14.39475828107051
 30
0.0
 10
193.9963354925551
 20
14.51286645379058
 30
0.0
 10
193.9962060293132
 20
14.61628748709516
 30
0.0
 10
193.9965507549081
 20
14.69932036153668
 30
0.0
 10
193.995869827869
 20
14.75143368521243
 30
0.0
 10
193.9994586600622
 20
14.87912907821363
 30
0.0
 10
193.7826171386437
 20
14.5804871681962
 30
0.0
 10
193.602135492195
 20
14.35263981511511
 30
0.0
 10
193.5490322295611
 20
14.49373443289815
 30
0.0
 10
193.5200429133149
 20
14.54325767560946
 30
0.0
 10
193.4196648062817
 20
14.64641779790101
 30
0.0
 10
193.7405127723261
 20
14.72695035023782
 30
0.0
 10
193.8689897005429
 20
14.91066283036434
 30
0.0
 10
194.0906454325359
 20
15.1193199577176
 30
0.0
 10
194.1770224894069
 20
15.29339211228348
 30
0.0
 10
194.4549394229073
 20
15.56967051342512
 30
0.0
 10
194.3346247839284
 20
15.56534559551115
 30
0.0
 10
194.2863197351348
 20
15.56614856202553
 30
0.0
 10
194.2102377454905
 20
15.56574582146585
 30
0.0
 10
194.116701000975
 20
15.56590275611611
 30
0.0
 10
194.0117594788557
 20
15.56582502576224
 30
0.0
 10
193.9033887738717
 20
15.56595464378556
 30
0.0
 10
193.7981454235897
 20
15.56554393490692
 30
0.0
 10
193.7056237819412
 20
15.56682073671592
 30
0.0
 10
193.6268130800707
 20
15.5634076653485
 30
0.0
 10
193.5839674565379
 20
15.57023350036321
 30
0.0
 10
193.5449499586516
 20
15.56065064201124
 30
0.0
 10
193.5526365271863
 20
15.59420779565543
 30
0.0
 10
193.5485464404312
 20
15.62523550322234
 30
0.0
 10
193.5485531368814
 20
15.672365292709
 30
0.0
 10
193.5526239724911
 20
15.70340941646779
 30
0.0
 10
193.5449495574582
 20
15.73701861635901
 30
0.0
 10
193.5834819405495
 20
15.72748410420872
 30
0.0
 10
193.624122801448
 20
15.73397435498071
 30
0.0
 10
193.6951471850463
 20
15.73100150650254
 30
0.0
 10
193.7729318149633
 20
15.73174761399158
 30
0.0
 10
193.8507292246474
 20
15.73247814044525
 30
0.0
 10
193.9217232089907
 20
15.7295423551416
 30
0.0
 10
193.962427979182
 20
15.73595468772952
 30
0.0
 10
194.0009853489909
 20
15.72650524176004
 30
0.0
 10
193.9927342754928
 20
15.76264692158785
 30
0.0
 10
193.9982346669358
 20
15.80129837613226
 30
0.0
 10
193.9955754206163
 20
15.86913528561839
 30
0.0
 10
193.9965815471532
 20
15.9459164153874
 30
0.0
 10
193.9960178018319
 20
16.02849393582757
 30
0.0
 10
193.9970714526593
 20
16.10517329229879
 30
0.0
 10
193.994267586313
 20
16.173319907767
 30
0.0
 10
194.0000702721302
 20
16.21132399809347
 30
0.0
 10
193.9915654551159
 20
16.24758448077647
 30
0.0
 10
194.0255610233125
 20
16.23755723771853
 30
0.0
 10
194.0594575683099
 20
16.24073266813707
 30
0.0
 10
194.1126669060346
 20
16.2350896564061
 30
0.0
 10
194.1660768574483
 20
16.23434774436425
 30
0.0
 10
194.199591464949
 20
16.2281922348298
 30
0.0
 10
194.2388086183039
 20
16.23346029773593
 30
0.0
 10
194.2120263698492
 20
16.19253380793489
 30
0.0
 10
194.1708111001723
 20
16.20371204538111
 30
0.0
 10
194.1782641540874
 20
16.15867056192126
 30
0.0
 10
194.1742227952184
 20
16.11412278028145
 30
0.0
 10
194.176171404964
 20
16.04223572621704
 30
0.0
 10
194.1752364849758
 20
15.96168630588771
 30
0.0
 10
194.176510719003
 20
15.88173995404995
 30
0.0
 10
194.1732043793863
 20
15.80841837083183
 30
0.0
 10
194.1802106179961
 20
15.76688643002568
 30
0.0
 10
194.1701440380126
 20
15.72752418568113
 30
0.0
 10
194.2029814803921
 20
15.73468063430981
 30
0.0
 10
194.236457729648
 20
15.73027243137945
 30
0.0
 10
194.2915053476019
 20
15.73217943347897
 30
0.0
 10
194.3489502595314
 20
15.73185366407288
 30
0.0
 10
194.4023026248309
 20
15.73106308733082
 30
0.0
 10
194.4398540896638
 20
15.73313959118073
 30
0.0
 10
194.4623172523237
 20
15.7302233816711
 30
0.0
 10
194.4751678073731
 20
15.73572552644055
 30
0.0
 10
194.4858255685889
 20
15.7380111819779
 30
0.0
 10
194.4986635650143
 20
15.74494972588051
 30
0.0
 10
194.5145991033071
 20
15.72853046313671
 30
0.0
 10
194.5410623920892
 20
15.71709122319447
 30
0.0
 10
194.5726805253758
 20
15.6964468783519
 30
0.0
 10
194.5987255892151
 20
15.68116869628293
 30
0.0
 10
194.6128517723973
 20
15.67266976323182
 30
0.0
 10
194.6170254148479
 20
15.67015871511026
 30
0.0
 11
194.6170254148479
 21
15.67015871511026
 31
0.0
 11
194.6049990002243
 21
15.65473571164188
 31
0.0
 11
194.5848961795566
 21
15.64337406233918
 31
0.0
 11
194.4778986355813
 21
15.42440620231159
 31
0.0
 11
194.3477039934324
 21
15.21317201512161
 31
0.0
 11
194.1996540366071
 21
15.01206059027479
 31
0.0
 11
194.2734958253735
 21
14.96147384935379
 31
0.0
 11
194.36056643118
 21
14.89988411653739
 31
0.0
 11
194.4518003750404
 21
14.83413160594426
 31
0.0
 11
194.5381321779687
 21
14.77105653169304
 31
0.0
 11
194.6104963609787
 21
14.71749910790242
 31
0.0
 11
194.6598274450842
 21
14.68029954869104
 31
0.0
 11
194.6486940702212
 21
14.66471410869494
 31
0.0
 11
194.6221452532403
 21
14.62754882870423
 31
0.0
 11
194.5904579555533
 21
14.58319026871532
 31
0.0
 11
194.5639091385724
 21
14.54602498872461
 31
0.0
 11
194.5527757637094
 21
14.53043954872851
 31
0.0
 11
194.4807013362948
 21
14.59754008690617
 31
0.0
 11
194.3852856985381
 21
14.67993354174669
 31
0.0
 11
194.279326415217
 21
14.76785017366916
 31
0.0
 11
194.175621051109
 21
14.85152024309267
 31
0.0
 11
194.175621051109
 21
14.83304687900863
 31
0.0
 11
194.175621051109
 21
14.78162102763955
 31
0.0
 11
194.175621051109
 21
14.70323405030999
 31
0.0
 11
194.175621051109
 21
14.60387730834449
 31
0.0
 11
194.175621051109
 21
14.4895421630676
 31
0.0
 11
194.175621051109
 21
14.36621997580389
 31
0.0
 11
194.175621051109
 21
14.2399021078779
 31
0.0
 11
194.175621051109
 21
14.11657992061419
 31
0.0
 11
194.175621051109
 21
14.0022447753373
 31
0.0
 11
194.175621051109
 21
13.9028880333718
 31
0.0
 11
194.175621051109
 21
13.82450105604223
 31
0.0
 11
194.175621051109
 21
13.77307520467316
 31
0.0
 11
194.175621051109
 21
13.75460184058912
 31
0.0
 11
194.1569720893626
 21
13.75460184058912
 31
0.0
 11
194.1125014882749
 21
13.75460184058912
 31
0.0
 11
194.0594236740736
 21
13.75460184058912
 31
0.0
 11
194.0149530729859
 21
13.75460184058912
 31
0.0
 11
193.9963041112395
 21
13.75460184058912
 31
0.0
 11
193.9963041112395
 21
13.77486797460219
 31
0.0
 11
193.9963041112395
 21
13.83089787452066
 31
0.0
 11
193.9963041112395
 21
13.91553878716347
 31
0.0
 11
193.9963041112395
 21
14.02163795934953
 31
0.0
 11
193.9963041112395
 21
14.14204263789776
 31
0.0
 11
193.9963041112395
 21
14.26960006962706
 31
0.0
 11
193.9963041112395
 21
14.39715750135636
 31
0.0
 11
193.9963041112395
 21
14.51756217990459
 31
0.0
 11
193.9963041112395
 21
14.62366135209064
 31
0.0
 11
193.9963041112395
 21
14.70830226473345
 31
0.0
 11
193.9963041112395
 21
14.76433216465193
 31
0.0
 11
193.9963041112395
 21
14.784598298665
 31
0.0
 11
193.7883272849481
 21
14.59331998274057
 31
0.0
 11
193.5763486358424
 21
14.43414885430812
 31
0.0
 11
193.5495629014482
 21
14.48814671952095
 31
0.0
 11
193.5138765415024
 21
14.54689140572026
 31
0.0
 11
193.4799697494123
 21
14.59192871537977
 31
0.0
 11
193.6830287742318
 21
14.73563387201055
 31
0.0
 11
193.881853195826
 21
14.91168423529989
 31
0.0
 11
194.0677041444179
 21
15.11327514524951
 31
0.0
 11
194.2318427502303
 21
15.3336019418611
 31
0.0
 11
194.3655301434864
 21
15.56585996513636
 31
0.0
 11
194.3465256724482
 21
15.56585996513636
 31
0.0
 11
194.2944166389562
 21
15.56585996513636
 31
0.0
 11
194.2165596124447
 21
15.56585996513636
 31
0.0
 11
194.1203111623478
 21
15.56585996513636
 31
0.0
 11
194.0130278580997
 21
15.56585996513636
 31
0.0
 11
193.9020662691345
 21
15.56585996513636
 31
0.0
 11
193.7947829648864
 21
15.56585996513636
 31
0.0
 11
193.6985345147895
 21
15.56585996513636
 31
0.0
 11
193.620677488278
 21
15.56585996513636
 31
0.0
 11
193.568568454786
 21
15.56585996513636
 31
0.0
 11
193.5495639837478
 21
15.56585996513636
 31
0.0
 11
193.5495639837478
 21
15.58311199790982
 31
0.0
 11
193.5495639837478
 21
15.62425146067732
 31
0.0
 11
193.5495639837478
 21
15.67335340010949
 31
0.0
 11
193.5495639837478
 21
15.71449286287699
 31
0.0
 11
193.5495639837478
 21
15.73174489565045
 31
0.0
 11
193.5687598486009
 21
15.73174489565045
 31
0.0
 11
193.6193671286684
 21
15.73174489565045
 31
0.0
 11
193.690915352212
 21
15.73174489565045
 31
0.0
 11
193.7729340474937
 21
15.73174489565045
 31
0.0
 11
193.8549527427753
 21
15.73174489565045
 31
0.0
 11
193.9265009663189
 21
15.73174489565045
 31
0.0
 11
193.9771082463864
 21
15.73174489565045
 31
0.0
 11
193.9963041112395
 21
15.73174489565045
 31
0.0
 11
193.9963041112395
 21
15.74926552655218
 31
0.0
 11
193.9963041112395
 21
15.79622081736882
 31
0.0
 11
193.9963041112395
 21
15.86420086526753
 31
0.0
 11
193.9963041112395
 21
15.94479576741549
 31
0.0
 11
193.9963041112395
 21
16.02959562097987
 31
0.0
 11
193.9963041112395
 21
16.11019052312783
 31
0.0
 11
193.9963041112395
 21
16.17817057102654
 31
0.0
 11
193.9963041112395
 21
16.22512586184318
 31
0.0
 11
193.9963041112395
 21
16.24264649274491
 31
0.0
 11
194.0135484112111
 21
16.2416580616752
 31
0.0
 11
194.0566591611401
 21
16.23918698400092
 31
0.0
 11
194.1127031360477
 21
16.23597458302436
 31
0.0
 11
194.1687471109553
 21
16.2327621820478
 31
0.0
 11
194.2118578608843
 21
16.23029110437352
 31
0.0
 11
194.2291021608559
 21
16.22930267330381
 31
0.0
 11
194.2143774674851
 21
16.2055629337264
 31
0.0
 11
194.175621051109
 21
16.19183767331313
 31
0.0
 11
194.175621051109
 21
16.17206806177294
 31
0.0
 11
194.175621051109
 21
16.11994817680334
 31
0.0
 11
194.175621051109
 21
16.0462614428808
 31
0.0
 11
194.175621051109
 21
15.96179128448179
 31
0.0
 11
194.175621051109
 21
15.87732112608278
 31
0.0
 11
194.175621051109
 21
15.80363439216024
 31
0.0
 11
194.175621051109
 21
15.75151450719064
 31
0.0
 11
194.175621051109
 21
15.73174489565045
 31
0.0
 11
194.1916227112935
 21
15.73174489565045
 31
0.0
 11
194.232890150717
 21
15.73174489565045
 31
0.0
 11
194.2893170576837
 21
15.73174489565045
 31
0.0
 11
194.3507971204981
 21
15.73174489565045
 31
0.0
 11
194.4072240274648
 21
15.73174489565045
 31
0.0
 11
194.4484914668882
 21
15.73174489565045
 31
0.0
 11
194.4644931270728
 21
15.73174489565045
 31
0.0
 11
194.4728206422924
 21
15.73451387455921
 31
0.0
 11
194.4882860277004
 21
15.73965626396118
 31
0.0
 11
194.49661354292
 21
15.74242524286993
 31
0.0
 11
194.5091363776005
 21
15.73490952398292
 31
0.0
 11
194.5389985218386
 21
15.71698742509852
 31
0.0
 11
194.5746404359293
 21
15.69559653288166
 31
0.0
 11
194.6045025801674
 21
15.67767443399727
 31
0.0
 11
194.6170254148479
 21
15.67015871511026
 31
0.0
  0
SPLINE
  5
B1
102
{ACAD_REACTORS
330
CE
102
}
330
48
100
AcDbEntity
  8
_U_30EC_U_30A4_U_30E4_U_30FC_1
  6
Continuous
 62
     2
100
AcDbSpline
210
0.0
220
0.0
230
1.0
 70
    11
 71
     3
 72
   124
 73
   120
 74
   118
 42
0.000000001
 43
0.0000000001
 44
0.00000001
 40
0.0
 40
0.0
 40
0.0
 40
0.0
 40
0.027818722962451
 40
0.1011590162384269
 40
0.2048470170590239
 40
0.3237088716559245
 40
0.4425707262522
 40
0.5462587270699547
 40
0.6195990203311798
 40
0.647417752257866
 40
0.6750060736115224
 40
0.7357003855242741
 40
0.7963946998054474
 40
0.8239830245571766
 40
0.854093381110286
 40
0.937339662940954
 40
1.063094687343235
 40
1.220731268638102
 40
1.399622220914776
 40
1.589140358637817
 40
1.778658496423955
 40
1.957549448940622
 40
2.115186030873244
 40
2.240941056914548
 40
2.324187341760646
 40
2.354297700109496
 40
2.381886024672004
 40
2.442580338710591
 40
2.503274652750613
 40
2.53086297731472
 40
2.560983949278673
 40
2.640393784453047
 40
2.75266286175927
 40
2.881361560118315
 40
3.010060258455362
 40
3.122329335705538
 40
3.20173917081818
 40
3.231860142753541
 40
3.264298024030599
 40
3.352343701778469
 40
3.482095226868993
 40
3.639650650173258
 40
3.811108022565716
 40
3.982565394928225
 40
4.140120818152808
 40
4.269872343141521
 40
4.357918020802583
 40
4.390355902044212
 40
4.423256253992782
 40
4.508104530073303
 40
4.624121560637071
 40
4.750528176031827
 40
4.866545206602274
 40
4.951393482692231
 40
4.984293834645633
 40
5.011450833242544
 40
5.071196230152323
 40
5.130941627057394
 40
5.158098625649056
 40
5.190998977601747
 40
5.275847253689572
 40
5.391864284257006
 40
5.518270899648551
 40
5.634287930209591
 40
5.719136206288264
 40
5.752036558236152
 40
5.782130946283178
 40
5.862783906229352
 40
5.979550131775221
 40
6.117984316640629
 40
6.263641154588176
 40
6.402075339414384
 40
6.518841564908178
 40
6.599494524815763
 40
6.629588912849001
 40
6.654403028226578
 40
6.713575149488345
 40
6.784199939329663
 40
6.843372060493765
 40
6.868186175803011
 40
6.896246243202051
 40
6.939586233758502
 40
6.96784656456513
 40
7.043584251090071
 40
7.153234334451928
 40
7.283231855734679
 40
7.420011856035715
 40
7.550009376580067
 40
7.659659458835471
 40
7.735397144417465
 40
7.763657474851636
 40
7.796409728011294
 40
7.880876065096568
 40
7.996370852465954
 40
8.122208446418849
 40
8.237703224799443
 40
8.322169562011137
 40
8.35492181520615
 40
8.382078813307928
 40
8.441824209207228
 40
8.50156960524037
 40
8.528726603485946
 40
8.561478856695995
 40
8.645945193878045
 40
8.761439980865557
 40
8.8872775807647
 40
9.00277236200122
 40
9.08723869666144
 40
9.119990949235895
 40
9.152428830613594
 40
9.24047450863881
 40
9.370226034149766
 40
9.52778145798465
 40
9.69923883098164
 40
9.870696203978834
 40
10.02825162781426
 40
10.15800315332588
 40
10.24604883135143
 40
10.27848670378545
 40
10.27848670378545
 40
10.27848670378545
 40
10.27848670378545
 10
195.3821827564383
 20
14.01410517385756
 30
0.0
 10
195.3914554737523
 20
14.01410498511273
 30
0.0
 10
195.4251744536861
 20
14.01410430876713
 30
0.0
 10
195.4934706812465
 20
14.01411807243304
 30
0.0
 10
195.592014171158
 20
14.01403224219544
 30
0.0
 10
195.7062066464812
 20
14.01441755612249
 30
0.0
 10
195.818589441707
 20
14.01300835897544
 30
0.0
 10
195.9214376600118
 20
14.01719117422242
 30
0.0
 10
195.9806839874849
 20
14.00823089251982
 30
0.0
 10
196.0371265937033
 20
14.0216443452606
 30
0.0
 10
196.0246255586955
 20
13.97087198613361
 30
0.0
 10
196.0329549635703
 20
13.92589320939065
 30
0.0
 10
196.024817084112
 20
13.88056752990487
 30
0.0
 10
196.0370529214457
 20
13.82931932408465
 30
0.0
 10
195.9747773490333
 20
13.84447955365275
 30
0.0
 10
195.9060513026868
 20
13.83359750710742
 30
0.0
 10
195.7782756749591
 20
13.83911304747971
 30
0.0
 10
195.6262984511644
 20
13.83700851253698
 30
0.0
 10
195.4502695972521
 20
13.83771002588472
 30
0.0
 10
195.2644431934287
 20
13.83745237531291
 30
0.0
 10
195.0786167437174
 20
13.83771005144602
 30
0.0
 10
194.9025880142167
 20
13.83700841847729
 30
0.0
 10
194.7506104154194
 20
13.83911332229988
 30
0.0
 10
194.6228357664554
 20
13.83359680767639
 30
0.0
 10
194.554107783658
 20
13.84448077125942
 30
0.0
 10
194.4918349042882
 20
13.82931786684208
 30
0.0
 10
194.5040616290017
 20
13.88057510805171
 30
0.0
 10
194.4960004462595
 20
13.92582473272424
 30
0.0
 10
194.5040675809891
 20
13.97106357955322
 30
0.0
 10
194.4918238487082
 20
14.02234176909957
 30
0.0
 10
194.5525017120697
 20
14.00749577363134
 30
0.0
 10
194.6162810745735
 20
14.01756448170734
 30
0.0
 10
194.7277314353502
 20
14.01294644211998
 30
0.0
 10
194.8497533443823
 20
14.01413328905467
 30
0.0
 10
194.9719538137823
 20
14.01515863900633
 30
0.0
 10
195.0829794287392
 20
14.010924756234
 30
0.0
 10
195.1476517413958
 20
14.02018584521738
 30
0.0
 10
195.2091162810501
 20
14.00604423049682
 30
0.0
 10
195.1930065601337
 20
14.07235527884516
 30
0.0
 10
195.2042980327358
 20
14.14447790121974
 30
0.0
 10
195.1987400822561
 20
14.27513760888285
 30
0.0
 10
195.2008035061691
 20
14.42607323708241
 30
0.0
 10
195.2000167127295
 20
14.59335873107886
 30
0.0
 10
195.2007845215627
 20
14.76061110332303
 30
0.0
 10
195.1988038785628
 20
14.91163289269915
 30
0.0
 10
195.2041306156621
 20
15.04206069552995
 30
0.0
 10
195.1933101388425
 20
15.114654426059
 30
0.0
 10
195.2090326429875
 20
15.18150469436799
 30
0.0
 10
195.143270813249
 20
15.16580512490825
 30
0.0
 10
195.0756367830764
 20
15.17609243083996
 30
0.0
 10
194.9615885293809
 20
15.17113786847123
 30
0.0
 10
194.8451242674902
 20
15.17414128030475
 30
0.0
 10
194.7306554121477
 20
15.16880303143389
 30
0.0
 10
194.6640324657812
 20
15.18001268074826
 30
0.0
 10
194.5990769715186
 20
15.16349132665012
 30
0.0
 10
194.6107989758707
 20
15.21473720477059
 30
0.0
 10
194.6032830189122
 20
15.25950333784091
 30
0.0
 10
194.6107989878835
 20
15.3042694489796
 30
0.0
 10
194.5990769505347
 20
15.3555153612974
 30
0.0
 10
194.66403263392
 20
15.33899381766814
 30
0.0
 10
194.7306533339822
 20
15.35020571373943
 30
0.0
 10
194.8451352858063
 20
15.34485436710663
 30
0.0
 10
194.9615454436962
 20
15.34791188771116
 30
0.0
 10
195.0757660174641
 20
15.34278499010707
 30
0.0
 10
195.1430150439227
 20
15.35345733355597
 30
0.0
 10
195.2083325941438
 20
15.33742082669076
 30
0.0
 10
195.1941391448553
 20
15.39949685750052
 30
0.0
 10
195.2036059462994
 20
15.46586761628762
 30
0.0
 10
195.1990269004085
 20
15.58239972741965
 30
0.0
 10
195.2007696555948
 20
15.71426685022375
 30
0.0
 10
195.1997551495392
 20
15.85615960150273
 30
0.0
 10
195.2017191344372
 20
15.9876905070258
 30
0.0
 10
195.1964668553851
 20
16.10524577283001
 30
0.0
 10
195.2073408763475
 20
16.16947789001584
 30
0.0
 10
195.1919536641853
 20
16.23108802545047
 30
0.0
 10
195.24075915378
 20
16.21702407382111
 30
0.0
 10
195.2853995564726
 20
16.21954742075313
 30
0.0
 10
195.3538643946742
 20
16.21512797401709
 30
0.0
 10
195.3959106169103
 20
16.20613025544034
 30
0.0
 10
195.4487544758775
 20
16.2141171486651
 30
0.0
 10
195.4207035002014
 20
16.1711391761167
 30
0.0
 10
195.3749142248594
 20
16.18259552043839
 30
0.0
 10
195.3869539073265
 20
16.12173520005137
 30
0.0
 10
195.379608607064
 20
16.05769299468772
 30
0.0
 10
195.3831195826162
 20
15.94909368863911
 30
0.0
 10
195.3819806760173
 20
15.82494319144753
 30
0.0
 10
195.3819174780263
 20
15.69189719829877
 30
0.0
 10
195.3832872966869
 20
15.56797381249555
 30
0.0
 10
195.3791638801313
 20
15.45868337849337
 30
0.0
 10
195.3877763103564
 20
15.39608580094169
 30
0.0
 10
195.3746757454402
 20
15.33740133296364
 30
0.0
 10
195.4393884328198
 20
15.35362113810901
 30
0.0
 10
195.5060405953156
 20
15.34270260383311
 30
0.0
 10
195.6198779541103
 20
15.34793740173755
 30
0.0
 10
195.7357259122097
 20
15.34485547516912
 30
0.0
 10
195.849692426328
 20
15.35018259812512
 30
0.0
 10
195.9160341018099
 20
15.33904208166541
 30
0.0
 10
195.980718852548
 20
15.35546979593177
 30
0.0
 10
195.9689820772722
 20
15.30425925210049
 30
0.0
 10
195.9765168063041
 20
15.25950334121001
 30
0.0
 10
195.9689820992257
 20
15.21474739010027
 30
0.0
 10
195.9807188140736
 20
15.16353690871041
 30
0.0
 10
195.9160344075252
 20
15.1799642779422
 30
0.0
 10
195.8496886430824
 20
15.1688278444727
 30
0.0
 10
195.7357459487012
 20
15.17413115893121
 30
0.0
 10
195.6197995623054
 20
15.17114764593544
 30
0.0
 10
195.5062756882122
 20
15.17606892268395
 30
0.0
 10
195.4389231318804
 20
15.1658508751352
 30
0.0
 10
195.3734285122495
 20
15.18145996138816
 30
0.0
 10
195.3891713619218
 20
15.11463851827411
 30
0.0
 10
195.3783275998213
 20
15.04207057815879
 30
0.0
 10
195.3836581629792
 20
14.91162247614416
 30
0.0
 10
195.3817136151855
 20
14.76064558185226
 30
0.0
 10
195.3823133683214
 20
14.59322243934158
 30
0.0
 10
195.3821506559604
 20
14.42656176118371
 30
0.0
 10
195.3821895488136
 20
14.27360142921636
 30
0.0
 10
195.3821816413098
 20
14.14849178985704
 30
0.0
 10
195.3821828382746
 20
14.06507890991419
 30
0.0
 10
195.3821827716207
 20
14.02491778281975
 30
0.0
 10
195.3821827564383
 20
14.01410517385756
 30
0.0
 11
195.3821827564383
 21
14.01410517385756
 31
0.0
 11
195.4100014883675
 21
14.01410517385756
 31
0.0
 11
195.4833417816353
 21
14.01410517385756
 31
0.0
 11
195.5870297824622
 21
14.01410517385756
 31
0.0
 11
195.7058916370687
 21
14.01410517385756
 31
0.0
 11
195.8247534916751
 21
14.01410517385756
 31
0.0
 11
195.928441492502
 21
14.01410517385756
 31
0.0
 11
196.0017817857698
 21
14.01410517385756
 31
0.0
 11
196.029600517699
 21
14.01410517385756
 31
0.0
 11
196.029600517699
 21
13.98651684921169
 31
0.0
 11
196.029600517699
 21
13.92582253499076
 31
0.0
 11
196.029600517699
 21
13.86512822076983
 31
0.0
 11
196.029600517699
 21
13.83753989612396
 31
0.0
 11
195.9994901593494
 21
13.83753989612396
 31
0.0
 11
195.9162438745004
 21
13.83753989612396
 31
0.0
 11
195.7904888484521
 21
13.83753989612396
 31
0.0
 11
195.6328522665041
 21
13.83753989612396
 31
0.0
 11
195.4539613139564
 21
13.83753989612396
 31
0.0
 11
195.2644431761088
 21
13.83753989612396
 31
0.0
 11
195.0749250382612
 21
13.83753989612396
 31
0.0
 11
194.8960340857135
 21
13.83753989612396
 31
0.0
 11
194.7383975037655
 21
13.83753989612396
 31
0.0
 11
194.6126424777171
 21
13.83753989612396
 31
0.0
 11
194.5293961928682
 21
13.83753989612396
 31
0.0
 11
194.4992858345186
 21
13.83753989612396
 31
0.0
 11
194.4992858345186
 21
13.86512822076984
 31
0.0
 11
194.4992858345186
 21
13.92582253499076
 31
0.0
 11
194.4992858345186
 21
13.98651684921169
 31
0.0
 11
194.4992858345186
 21
14.01410517385756
 31
0.0
 11
194.5294068064946
 21
14.01410517385756
 31
0.0
 11
194.6088166417039
 21
14.01410517385756
 31
0.0
 11
194.7210857190689
 21
14.01410517385756
 31
0.0
 11
194.8497844175117
 21
14.01410517385756
 31
0.0
 11
194.9784831159545
 21
14.01410517385756
 31
0.0
 11
195.0907521933194
 21
14.01410517385756
 31
0.0
 11
195.1701620285289
 21
14.01410517385756
 31
0.0
 11
195.2002830005048
 21
14.01410517385756
 31
0.0
 11
195.2002830005048
 21
14.04654305523834
 31
0.0
 11
195.2002830005048
 21
14.13458873327189
 31
0.0
 11
195.2002830005048
 21
14.26434025879502
 31
0.0
 11
195.2002830005048
 21
14.42189568264453
 31
0.0
 11
195.2002830005048
 21
14.59335305565724
 31
0.0
 11
195.2002830005048
 21
14.76481042866994
 31
0.0
 11
195.2002830005048
 21
14.92236585251945
 31
0.0
 11
195.2002830005048
 21
15.05211737804258
 31
0.0
 11
195.2002830005048
 21
15.14016305607613
 31
0.0
 11
195.2002830005048
 21
15.17260093745691
 31
0.0
 11
195.1673826485529
 21
15.17260093745691
 31
0.0
 11
195.0825343724662
 21
15.17260093745691
 31
0.0
 11
194.9665173418988
 21
15.17260093745691
 31
0.0
 11
194.8401107265044
 21
15.17260093745691
 31
0.0
 11
194.724093695937
 21
15.17260093745691
 31
0.0
 11
194.6392454198503
 21
15.17260093745691
 31
0.0
 11
194.6063450678984
 21
15.17260093745691
 31
0.0
 11
194.6063450678984
 21
15.19975793614803
 31
0.0
 11
194.6063450678984
 21
15.2595033332685
 31
0.0
 11
194.6063450678984
 21
15.31924873038897
 31
0.0
 11
194.6063450678984
 21
15.34640572908009
 31
0.0
 11
194.6392454198504
 21
15.34640572908009
 31
0.0
 11
194.724093695937
 21
15.34640572908009
 31
0.0
 11
194.8401107265044
 21
15.34640572908009
 31
0.0
 11
194.9665173418988
 21
15.34640572908009
 31
0.0
 11
195.0825343724662
 21
15.34640572908009
 31
0.0
 11
195.1673826485529
 21
15.34640572908009
 31
0.0
 11
195.2002830005048
 21
15.34640572908009
 31
0.0
 11
195.2002830005048
 21
15.37650011731369
 31
0.0
 11
195.2002830005048
 21
15.45715307777973
 31
0.0
 11
195.2002830005048
 21
15.57391930412608
 31
0.0
 11
195.2002830005048
 21
15.71235349000063
 31
0.0
 11
195.2002830005048
 21
15.85801032905123
 31
0.0
 11
195.2002830005048
 21
15.99644451492578
 31
0.0
 11
195.2002830005048
 21
16.11321074127213
 31
0.0
 11
195.2002830005048
 21
16.19386370173817
 31
0.0
 11
195.2002830005048
 21
16.22395808997177
 31
0.0
 11
195.2250405288618
 21
16.22228324219441
 31
0.0
 11
195.2840777118669
 21
16.21828937441765
 31
0.0
 11
195.3545414464214
 21
16.21352249997441
 31
0.0
 11
195.4135786294265
 21
16.20952863219764
 31
0.0
 11
195.4383361577835
 21
16.20785378442028
 31
0.0
 11
195.4233067224031
 21
16.1841581420651
 31
0.0
 11
195.3821827564383
 21
16.17047697887404
 31
0.0
 11
195.3821827564383
 21
16.14221664794832
 31
0.0
 11
195.3821827564383
 21
16.06647896106739
 31
0.0
 11
195.3821827564383
 21
15.95682887707561
 31
0.0
 11
195.3821827564383
 21
15.8268313548173
 31
0.0
 11
195.3821827564383
 21
15.69005135313683
 31
0.0
 11
195.3821827564383
 21
15.56005383087852
 31
0.0
 11
195.3821827564383
 21
15.45040374688673
 31
0.0
 11
195.3821827564383
 21
15.37466606000581
 31
0.0
 11
195.3821827564383
 21
15.34640572908009
 31
0.0
 11
195.4149350096115
 21
15.34640572908009
 31
0.0
 11
195.4994013467422
 21
15.34640572908009
 31
0.0
 11
195.6148961342476
 21
15.34640572908009
 31
0.0
 11
195.7407337385445
 21
15.34640572908009
 31
0.0
 11
195.8562285260498
 21
15.34640572908009
 31
0.0
 11
195.9406948631806
 21
15.34640572908009
 31
0.0
 11
195.9734471163538
 21
15.34640572908009
 31
0.0
 11
195.9734471163538
 21
15.31924873038897
 31
0.0
 11
195.9734471163538
 21
15.2595033332685
 31
0.0
 11
195.9734471163538
 21
15.19975793614803
 31
0.0
 11
195.9734471163538
 21
15.17260093745691
 31
0.0
 11
195.9406948631806
 21
15.17260093745691
 31
0.0
 11
195.8562285260498
 21
15.17260093745691
 31
0.0
 11
195.7407337385445
 21
15.17260093745691
 31
0.0
 11
195.6148961342476
 21
15.17260093745691
 31
0.0
 11
195.4994013467422
 21
15.17260093745691
 31
0.0
 11
195.4149350096114
 21
15.17260093745691
 31
0.0
 11
195.3821827564383
 21
15.17260093745691
 31
0.0
 11
195.3821827564383
 21
15.14016305607613
 31
0.0
 11
195.3821827564383
 21
15.05211737804258
 31
0.0
 11
195.3821827564383
 21
14.92236585251945
 31
0.0
 11
195.3821827564383
 21
14.76481042866994
 31
0.0
 11
195.3821827564383
 21
14.59335305565724
 31
0.0
 11
195.3821827564383
 21
14.42189568264453
 31
0.0
 11
195.3821827564383
 21
14.26434025879502
 31
0.0
 11
195.3821827564383
 21
14.13458873327189
 31
0.0
 11
195.3821827564383
 21
14.04654305523834
 31
0.0
 11
195.3821827564383
 21
14.01410517385756
 31
0.0
  0
SPLINE
  5
B2
102
{ACAD_REACTORS
330
CF
102
}
330
48
100
AcDbEntity
  8
_U_30EC_U_30A4_U_30E4_U_30FC_1
  6
Continuous
 62
     2
100
AcDbSpline
210
0.0
220
0.0
230
1.0
 70
     8
 71
     3
 72
    62
 73
    58
 74
    56
 42
0.000000001
 43
0.0000000001
 44
0.00000001
 40
0.0
 40
0.0
 40
0.0
 40
0.0
 40
0.0598250028308769
 40
0.2024846486897616
 40
0.3727558389220746
 40
0.515415484793607
 40
0.5752404975785339
 40
0.9332326775487019
 40
1.290451762839453
 40
1.602077253145813
 40
1.699931634112047
 40
1.799359756424975
 40
2.27012014965701
 40
2.804661928461459
 40
2.882342287383168
 40
3.076543185719018
 40
3.329004354835478
 40
3.581465524568304
 40
3.775666424543584
 40
3.853346784558204
 40
3.899120679594978
 40
3.984129341792004
 40
4.029903236817381
 40
4.105797496059537
 40
4.295533144152499
 40
4.542189486611743
 40
4.788845828875695
 40
4.97858147641008
 40
5.054475735244324
 40
5.621734664339315
 40
6.130867242037302
 40
6.225249780948507
 40
6.318913039727162
 40
6.663579954558695
 40
7.047498900224541
 40
7.435230791575482
 40
7.498943906667894
 40
7.650875181209888
 40
7.832212509001399
 40
7.984143783696784
 40
8.04785689890291
 40
8.091554632732416
 40
8.172707566964073
 40
8.216405300767796
 40
8.289021782160653
 40
8.46218416075697
 40
8.668861838005135
 40
8.842024215263642
 40
8.914640695474837
 40
8.989881580861043
 40
9.155411528826946
 40
9.320941477743727
 40
9.396182352486976
 40
9.454709011143494
 40
9.583467660170486
 40
9.712226309012708
 40
9.77075295798919
 40
9.77075295798919
 40
9.77075295798919
 40
9.77075295798919
 10
187.1521871691834
 20
14.93980288195951
 30
0.0
 10
187.1322348171624
 20
14.93980875568672
 30
0.0
 10
187.0647037716466
 20
14.93982863806158
 30
0.0
 10
186.9410612161789
 20
14.93949362520326
 30
0.0
 10
186.7863180150057
 20
14.94107673750513
 30
0.0
 10
186.6697349482481
 20
14.93686078860496
 30
0.0
 10
186.4550942634242
 20
14.95215205331628
 30
0.0
 10
186.8518948407229
 20
14.5919872128619
 30
0.0
 10
186.8945656069268
 20
14.37510503397168
 30
0.0
 10
187.318916214661
 20
14.19325062511448
 30
0.0
 10
187.1439821496074
 20
14.0898519656807
 30
0.0
 10
187.0194523925083
 20
13.87831523212728
 30
0.0
 10
186.7666277235943
 20
14.34806081001561
 30
0.0
 10
186.4797602893628
 20
14.99511516984521
 30
0.0
 10
186.4906335926659
 20
14.68782672154693
 30
0.0
 10
186.488289277796
 20
14.52288616971778
 30
0.0
 10
186.4861096126411
 20
14.28879670711693
 30
0.0
 10
186.4980774396346
 20
14.04498072421783
 30
0.0
 10
186.4687984740631
 20
13.89855796860984
 30
0.0
 10
186.5114522625469
 20
13.75113490174537
 30
0.0
 10
186.4239814005639
 20
13.76685797306221
 30
0.0
 10
186.3768527606744
 20
13.76694303543455
 30
0.0
 10
186.2898973207712
 20
13.75109425482908
 30
0.0
 10
186.3313474021722
 20
13.89527771422762
 30
0.0
 10
186.3029875004284
 20
14.03855052698456
 30
0.0
 10
186.3145973775299
 20
14.27674947365265
 30
0.0
 10
186.3124175648271
 20
14.50517235240347
 30
0.0
 10
186.3103111127993
 20
14.66705729375995
 30
0.0
 10
186.3208035438323
 20
14.98153709333752
 30
0.0
 10
186.0128963252893
 20
14.29229470872437
 30
0.0
 10
185.7055258267455
 20
13.81476750243052
 30
0.0
 10
185.5851367066275
 20
14.03741112637427
 30
0.0
 10
185.4074607910723
 20
14.15011034955569
 30
0.0
 10
185.8853326362894
 20
14.32548143465464
 30
0.0
 10
185.9353959057208
 20
14.56091929252031
 30
0.0
 10
186.3583799621715
 20
14.95322989344607
 30
0.0
 10
186.1276754273541
 20
14.93655307029067
 30
0.0
 10
186.004968585934
 20
14.94269518948772
 30
0.0
 10
185.8325483095661
 20
14.93312822699575
 30
0.0
 10
185.7213224694448
 20
14.95448818489666
 30
0.0
 10
185.6025779627448
 20
14.92136265357421
 30
0.0
 10
185.6183169706685
 20
15.00203900606884
 30
0.0
 10
185.6178550933762
 20
15.04645414290854
 30
0.0
 10
185.6027881889931
 20
15.12967081778534
 30
0.0
 10
185.7372380935443
 20
15.09062651983884
 30
0.0
 10
185.8619755545746
 20
15.11739729328423
 30
0.0
 10
186.0628755237279
 20
15.10063949044053
 30
0.0
 10
186.1921540949353
 20
15.12204225913004
 30
0.0
 10
186.3328419928293
 20
15.08868778853421
 30
0.0
 10
186.2980927452614
 20
15.22651875785069
 30
0.0
 10
186.3222185666711
 20
15.34963257349482
 30
0.0
 10
186.2967086182392
 20
15.47024055670336
 30
0.0
 10
186.3333251146684
 20
15.60539865141494
 30
0.0
 10
186.2211417027769
 20
15.58094545781891
 30
0.0
 10
186.1280356457135
 20
15.59307749842022
 30
0.0
 10
186.0191547579819
 20
15.58957630069994
 30
0.0
 10
185.9569697640963
 20
15.58981755951602
 30
0.0
 10
185.9375369557245
 20
15.58989295124144
 30
0.0
 11
187.1521871691834
 21
14.93980288195951
 31
0.0
 11
187.0923621563983
 21
14.93980288195951
 31
0.0
 11
186.949702510526
 21
14.93980288195951
 31
0.0
 11
186.7794313202915
 21
14.93980288195951
 31
0.0
 11
186.6367716744192
 21
14.93980288195951
 31
0.0
 11
186.5769466616341
 21
14.93980288195951
 31
0.0
 11
186.7679960754843
 21
14.63705127966891
 31
0.0
 11
186.994127278563
 21
14.36051890576684
 31
0.0
 11
187.2244526173371
 21
14.15061253493457
 31
0.0
 11
187.1521596330704
 21
14.08466403668716
 31
0.0
 11
187.0879364402643
 21
14.00876059052561
 31
0.0
 11
186.7732818215558
 21
14.35891458349363
 31
0.0
 11
186.4886640249976
 21
14.811382951436
 31
0.0
 11
186.4886640249976
 21
14.73370259137312
 31
0.0
 11
186.4886640249976
 21
14.53950169121592
 31
0.0
 11
186.4886640249976
 21
14.28704052101156
 31
0.0
 11
186.4886640249976
 21
14.0345793508072
 31
0.0
 11
186.4886640249976
 21
13.84037845065
 31
0.0
 11
186.4886640249976
 21
13.76269809058712
 31
0.0
 11
186.4428901295605
 21
13.76269809058712
 31
0.0
 11
186.3578814666058
 21
13.76269809058712
 31
0.0
 11
186.3121075711686
 21
13.76269809058712
 31
0.0
 11
186.3121075711686
 21
13.8385923498274
 31
0.0
 11
186.3121075711686
 21
14.02832799792812
 31
0.0
 11
186.3121075711686
 21
14.27498434045904
 31
0.0
 11
186.3121075711686
 21
14.52164068298997
 31
0.0
 11
186.3121075711686
 21
14.71137633109067
 31
0.0
 11
186.3121075711686
 21
14.78727059033096
 31
0.0
 11
185.9987626399266
 21
14.31440946197694
 31
0.0
 11
185.6352328662148
 21
13.95795177109383
 31
0.0
 11
185.5773927461628
 21
14.03253450545023
 31
0.0
 11
185.5094852305342
 21
14.09704322939243
 31
0.0
 11
185.7750721898319
 21
14.3167221979589
 31
0.0
 11
186.0233764972061
 21
14.60953395971697
 31
0.0
 11
186.226498280526
 21
14.93980288195951
 31
0.0
 11
186.1627851652721
 21
14.93980288195951
 31
0.0
 11
186.0108538904359
 21
14.93980288195951
 31
0.0
 11
185.8295165624055
 21
14.93980288195951
 31
0.0
 11
185.6775852875693
 21
14.93980288195951
 31
0.0
 11
185.6138721723154
 21
14.93980288195951
 31
0.0
 11
185.6138721723154
 21
14.98350061600209
 31
0.0
 11
185.6138721723154
 21
15.0646535506526
 31
0.0
 11
185.6138721723154
 21
15.10835128469518
 31
0.0
 11
185.6864886537961
 21
15.10835128469518
 31
0.0
 11
185.8596510327117
 21
15.10835128469518
 31
0.0
 11
186.0663287107723
 21
15.10835128469518
 31
0.0
 11
186.2394910896879
 21
15.10835128469518
 31
0.0
 11
186.3121075711686
 21
15.10835128469518
 31
0.0
 11
186.3121075711686
 21
15.18359217009304
 31
0.0
 11
186.3121075711686
 21
15.34912211796831
 31
0.0
 11
186.3121075711686
 21
15.51465206584359
 31
0.0
 11
186.3121075711686
 21
15.58989295124144
 31
0.0
 11
186.2535809125055
 21
15.58989295124144
 31
0.0
 11
186.1248222634466
 21
15.58989295124144
 31
0.0
 11
185.9960636143877
 21
15.58989295124144
 31
0.0
 11
185.9375369557245
 21
15.58989295124144
 31
0.0
  0
SPLINE
  5
B3
102
{ACAD_REACTORS
330
CF
102
}
330
48
100
AcDbEntity
  8
_U_30EC_U_30A4_U_30E4_U_30FC_1
  6
Continuous
 62
     2
100
AcDbSpline
210
0.0
220
0.0
230
1.0
 70
     8
 71
     3
 72
    70
 73
    66
 74
    64
 42
0.000000001
 43
0.0000000001
 44
0.00000001
 40
0.0
 40
0.0
 40
0.0
 40
0.0
 40
0.0241731073021188
 40
0.0846058988987013
 40
0.1631685280352715
 40
0.2417311571788903
 40
0.3021639488291614
 40
0.3263370654894688
 40
0.3533118254248028
 40
0.4228783438921259
 40
0.517999909531255
 40
0.621639823946525
 40
0.7167613891498853
 40
0.7863279069649011
 40
0.8133026791760983
 40
0.8372943998771104
 40
0.8945054261372299
 40
0.9627895541962352
 40
1.020000580349045
 40
1.043992300975172
 40
1.071934345522917
 40
1.113121768772899
 40
1.145225199332224
 40
1.225483775412762
 40
1.329819923771474
 40
1.434156071994364
 40
1.514414647795789
 40
1.546518078208397
 40
1.578974764260171
 40
1.662678849314166
 40
1.777131373668386
 40
1.901833377474777
 40
2.016285900500567
 40
2.099989982527934
 40
2.132446666570293
 40
2.158782354486015
 40
2.216720867907805
 40
2.274659381334228
 40
2.300995069256162
 40
2.333451754066135
 40
2.417155836543815
 40
2.531608358985255
 40
2.65631036228375
 40
2.770762886388882
 40
2.854466971340047
 40
2.886923657363854
 40
2.913597976833288
 40
2.98238964287509
 40
3.076451716946953
 40
3.178937260458565
 40
3.272999334739966
 40
3.341791001059186
 40
3.368465320663498
 40
3.396976080738748
 40
3.472140811845984
 40
3.578408190308674
 40
3.700226892456139
 40
3.822045594634384
 40
3.928312973256519
 40
4.003477705314917
 40
4.031988456866983
 40
4.058324144797781
 40
4.116262658236942
 40
4.174201171400742
 40
4.200536849608674
 40
4.200536849608674
 40
4.200536849608674
 40
4.200536849608674
 10
185.9857704961609
 20
15.75844135397705
 30
0.0
 10
185.9938259544679
 20
15.75844359811687
 30
0.0
 10
186.0220200663241
 20
15.75845146032798
 30
0.0
 10
186.0765534803672
 20
15.75830754828371
 30
0.0
 10
186.1482891808603
 20
15.75909120499898
 30
0.0
 10
186.2236240137062
 20
15.75627570463811
 30
0.0
 10
186.2713052366438
 20
15.76298403400957
 30
0.0
 10
186.3195071245615
 20
15.75197563692431
 30
0.0
 10
186.3062571799873
 20
15.80546402997033
 30
0.0
 10
186.3151093964537
 20
15.86049583543092
 30
0.0
 10
186.3108698036285
 20
15.95419908726109
 30
0.0
 10
186.3133483481278
 20
16.04959482218532
 30
0.0
 10
186.3090938706059
 20
16.14356821983387
 30
0.0
 10
186.3179818665846
 20
16.19795062438013
 30
0.0
 10
186.3046977409944
 20
16.25233997691461
 30
0.0
 10
186.3514119277108
 20
16.23842216335357
 30
0.0
 10
186.3943254545736
 20
16.24103877374043
 30
0.0
 10
186.4605443456684
 20
16.23648422450755
 30
0.0
 10
186.5013342271798
 20
16.22778162134161
 30
0.0
 10
186.5525145690819
 20
16.23531799890196
 30
0.0
 10
186.52537204872
 20
16.19349970223287
 30
0.0
 10
186.4803096055707
 20
16.20284992072596
 30
0.0
 10
186.4942065045051
 20
16.13841207371837
 30
0.0
 10
186.4858414431654
 20
16.073782196274
 30
0.0
 10
186.4903632178398
 20
15.97529141193888
 30
0.0
 10
186.4854741311167
 20
15.87595932842571
 30
0.0
 10
186.4950258992081
 20
15.81293115552969
 30
0.0
 10
186.4799761455201
 20
15.74964011499789
 30
0.0
 10
186.5449159457208
 20
15.76515072944269
 30
0.0
 10
186.6116246399497
 20
15.75499387697812
 30
0.0
 10
186.7241435470827
 20
15.75988800099367
 30
0.0
 10
186.8390235448954
 20
15.75691204732784
 30
0.0
 10
186.9519871999747
 20
15.76221664184991
 30
0.0
 10
187.0176267597677
 20
15.75107306472089
 30
0.0
 10
187.0816276691053
 20
15.76744532319857
 30
0.0
 10
187.0703142889189
 20
15.71761689905274
 30
0.0
 10
187.077533987151
 20
15.67416715212123
 30
0.0
 10
187.0703142611268
 20
15.63071745587445
 30
0.0
 10
187.0816277175994
 20
15.58088895196876
 30
0.0
 10
187.0176263598971
 20
15.59726166091362
 30
0.0
 10
186.951992124046
 20
15.58611271661588
 30
0.0
 10
186.838997431733
 20
15.59144857206854
 30
0.0
 10
186.7242456548644
 20
15.58834345663822
 30
0.0
 10
186.611318368686
 20
15.59364894682588
 30
0.0
 10
186.5455220903585
 20
15.58257300019594
 30
0.0
 10
186.4816097975358
 20
15.59887597847617
 30
0.0
 10
186.4936015165126
 20
15.54423524395742
 30
0.0
 10
186.4862104613006
 20
15.48854295047842
 30
0.0
 10
186.4892684841982
 20
15.3964968914057
 30
0.0
 10
186.4893422785684
 20
15.30179109873102
 30
0.0
 10
186.4860313578359
 20
15.20952782902265
 30
0.0
 10
186.4939505989904
 20
15.15435768736141
 30
0.0
 10
186.4815076611617
 20
15.10058169100136
 30
0.0
 10
186.5389116551632
 20
15.11453768862782
 30
0.0
 10
186.5994708140383
 20
15.10511457884227
 30
0.0
 10
186.7048680855081
 20
15.10942885928705
 30
0.0
 10
186.8204294070623
 20
15.10835504612032
 30
0.0
 10
186.9359688877798
 20
15.10725965900995
 30
0.0
 10
187.0414181130842
 20
15.11162525770633
 30
0.0
 10
187.1018680471805
 20
15.10209426030672
 30
0.0
 10
187.1592837739111
 20
15.11617289606381
 30
0.0
 10
187.147777387671
 20
15.06707153265683
 30
0.0
 10
187.153756678175
 20
15.0256465801865
 30
0.0
 10
187.1520311050804
 20
14.97651677966696
 30
0.0
 10
187.1521500122972
 20
14.94854428447609
 30
0.0
 10
187.1521871691834
 20
14.93980288195951
 30
0.0
 11
185.9857704961609
 21
15.75844135397705
 31
0.0
 11
186.0099436128281
 21
15.75844135397705
 31
0.0
 11
186.0703764044962
 21
15.75844135397705
 31
0.0
 11
186.1489390336648
 21
15.75844135397705
 31
0.0
 11
186.2275016628333
 21
15.75844135397705
 31
0.0
 11
186.2879344545013
 21
15.75844135397705
 31
0.0
 11
186.3121075711686
 21
15.75844135397705
 31
0.0
 11
186.3121075711686
 21
15.78541612620063
 31
0.0
 11
186.3121075711686
 21
15.85498264404039
 31
0.0
 11
186.3121075711686
 21
15.95010420924985
 31
0.0
 11
186.3121075711686
 21
16.05374412358256
 31
0.0
 11
186.3121075711686
 21
16.14886568879202
 31
0.0
 11
186.3121075711686
 21
16.21843220663178
 31
0.0
 11
186.3121075711686
 21
16.24540697885536
 31
0.0
 11
186.3360407604891
 21
16.243732131078
 31
0.0
 11
186.3931122119457
 21
16.23973826330121
 31
0.0
 11
186.461229750781
 21
16.23497138885795
 31
0.0
 11
186.5183012022376
 21
16.23097752108117
 31
0.0
 11
186.5422343915581
 21
16.22930267330381
 31
0.0
 11
186.5274972731229
 21
16.2055629337264
 31
0.0
 11
186.4886640249976
 21
16.19183767331313
 31
0.0
 11
186.4886640249976
 21
16.1597342422512
 31
0.0
 11
186.4886640249976
 21
16.07947566459637
 31
0.0
 11
186.4886640249976
 21
15.97513951364509
 31
0.0
 11
186.4886640249976
 21
15.87080336269381
 31
0.0
 11
186.4886640249976
 21
15.79054478503898
 31
0.0
 11
186.4886640249976
 21
15.75844135397705
 31
0.0
 11
186.5211207110824
 21
15.75844135397705
 31
0.0
 11
186.6048247962486
 21
15.75844135397705
 31
0.0
 11
186.7192773208634
 21
15.75844135397705
 31
0.0
 11
186.8439793252946
 21
15.75844135397705
 31
0.0
 11
186.9584318499095
 21
15.75844135397705
 31
0.0
 11
187.0421359350756
 21
15.75844135397705
 31
0.0
 11
187.0745926211604
 21
15.75844135397705
 31
0.0
 11
187.0745926211604
 21
15.73210566604961
 31
0.0
 11
187.0745926211604
 21
15.67416715260924
 31
0.0
 11
187.0745926211604
 21
15.61622863916888
 31
0.0
 11
187.0745926211604
 21
15.58989295124144
 31
0.0
 11
187.0421359350756
 21
15.58989295124144
 31
0.0
 11
186.9584318499095
 21
15.58989295124144
 31
0.0
 11
186.8439793252946
 21
15.58989295124144
 31
0.0
 11
186.7192773208634
 21
15.58989295124144
 31
0.0
 11
186.6048247962485
 21
15.58989295124144
 31
0.0
 11
186.5211207110824
 21
15.58989295124144
 31
0.0
 11
186.4886640249976
 21
15.58989295124144
 31
0.0
 11
186.4886640249976
 21
15.56321863152022
 31
0.0
 11
186.4886640249976
 21
15.49442696487075
 31
0.0
 11
186.4886640249976
 21
15.40036489006434
 31
0.0
 11
186.4886640249976
 21
15.29787934587228
 31
0.0
 11
186.4886640249976
 21
15.20381727106587
 31
0.0
 11
186.4886640249976
 21
15.1350256044164
 31
0.0
 11
186.4886640249976
 21
15.10835128469518
 31
0.0
 11
186.5171747850993
 21
15.10835128469518
 31
0.0
 11
186.5923395162767
 21
15.10835128469518
 31
0.0
 11
186.6986068948376
 21
15.10835128469518
 31
0.0
 11
186.8204255970905
 21
15.10835128469518
 31
0.0
 11
186.9422442993434
 21
15.10835128469518
 31
0.0
 11
187.0485116779044
 21
15.10835128469518
 31
0.0
 11
187.1236764090817
 21
15.10835128469518
 31
0.0
 11
187.1521871691834
 21
15.10835128469518
 31
0.0
 11
187.1521871691834
 21
15.08201559676773
 31
0.0
 11
187.1521871691834
 21
15.02407708332735
 31
0.0
 11
187.1521871691834
 21
14.96613856988696
 31
0.0
 11
187.1521871691834
 21
14.93980288195951
 31
0.0
  0
SPLINE
  5
B4
102
{ACAD_REACTORS
330
CF
102
}
330
48
100
AcDbEntity
  8
_U_30EC_U_30A4_U_30E4_U_30FC_1
  6
Continuous
 62
     2
100
AcDbSpline
210
0.0
220
0.0
230
1.0
 70
     8
 71
     3
 72
    24
 73
    20
 74
    18
 42
0.000000001
 43
0.0000000001
 44
0.00000001
 40
0.0
 40
0.0
 40
0.0
 40
0.0
 40
0.2211075008753499
 40
0.4273218586245486
 40
0.5080174679238665
 40
0.5914835907869538
 40
0.8143265690192117
 40
1.054651302686528
 40
1.295452694023114
 40
1.518109231328768
 40
1.540864321905411
 40
1.595126460622672
 40
1.659890947896013
 40
1.714153085187399
 40
1.7369081749617
 40
1.764951100735422
 40
1.80156229122104
 40
1.95391442454372
 40
2.126104167379796
 40
2.126104167379796
 40
2.126104167379796
 40
2.126104167379796
 10
185.9375369556888
 20
15.58989295113017
 30
0.0
 10
185.9112579081811
 20
15.53097628234374
 30
0.0
 10
185.8604698894428
 20
15.41711139679252
 30
0.0
 10
185.813178483911
 20
15.14441958233115
 30
0.0
 10
185.7043482802618
 20
15.24445482575455
 30
0.0
 10
185.5514800279637
 20
15.27118593367329
 30
0.0
 10
185.7686155181199
 20
15.48518135017632
 30
0.0
 10
185.7838483674381
 20
15.70332117782486
 30
0.0
 10
185.8906889492
 20
15.88451579066427
 30
0.0
 10
185.8305380947078
 20
16.16913226311401
 30
0.0
 10
185.9334317395402
 20
16.14114089222451
 30
0.0
 10
185.977993346815
 20
16.13243251602299
 30
0.0
 10
186.0380842395397
 20
16.12139654183355
 30
0.0
 10
186.0756619587439
 20
16.1076752305556
 30
0.0
 10
186.1252466928607
 20
16.10756076160222
 30
0.0
 10
186.0930158919325
 20
16.07306592398624
 30
0.0
 10
186.0171802221881
 20
16.08404104537964
 30
0.0
 10
186.0429447159694
 20
15.8985896958245
 30
0.0
 10
186.0055896763849
 20
15.80702313549589
 30
0.0
 10
185.9857704961609
 20
15.75844135397705
 30
0.0
 11
185.9375369556888
 21
15.58989295113017
 31
0.0
 11
185.8616471328552
 21
15.38221708318559
 31
0.0
 11
185.7717402238432
 21
15.19663392356193
 31
0.0
 11
185.701149392311
 21
15.2357327256355
 31
0.0
 11
185.6245525192651
 21
15.26889163187718
 31
0.0
 11
185.7214026947455
 21
15.46958801203538
 31
0.0
 11
185.7994641467471
 21
15.69688163177024
 31
0.0
 11
185.858971692972
 21
15.93021436608691
 31
0.0
 11
185.9001601511226
 21
16.14902808999054
 31
0.0
 11
185.9224183822215
 21
16.14429889221395
 31
0.0
 11
185.975495702534
 21
16.13302157443899
 31
0.0
 11
186.0388460525845
 21
16.11956154999792
 31
0.0
 11
186.0919233728971
 21
16.10828423222296
 31
0.0
 11
186.1141816039959
 21
16.10355503444637
 31
0.0
 11
186.0964097157461
 21
16.0818625084101
 31
0.0
 11
186.0606122998071
 21
16.07418628445367
 31
0.0
 11
186.028195330148
 21
15.92532288171313
 31
0.0
 11
185.9857704961609
 21
15.75844135397705
 31
0.0
  0
LWPOLYLINE
  5
B5
102
{ACAD_REACTORS
330
D0
102
}
330
48
100
AcDbEntity
  8
_U_30EC_U_30A4_U_30E4_U_30FC_1
  6
Continuous
 62
     2
100
AcDbPolyline
 90
        5
 70
     1
 43
0.0
 10
191.1602971697031
 20
15.39722336795626
 10
192.4578138032672
 20
15.39722336795626
 10
192.4578138032672
 20
15.22875434022058
 10
191.1602971697031
 20
15.22875434022058
 10
191.1602971697031
 20
15.39722336795626
  0
MTEXT
  5
B7
330
48
100
AcDbEntity
  8
1
 62
   250
100
AcDbMText
 10
25.00000000000001
 20
5.0
 30
0.0
 40
3.5
 41
0.0
 71
     4
 72
     1
  1
備考欄の文字列 原点位置=4
  7
CONVERTER_11
 73
     1
 44
0.54545454545455
  0
MTEXT
  5
B8
330
48
100
AcDbEntity
  8
1
 62
     2
100
AcDbMText
 10
89.50000000000006
 20
24.0
 30
0.0
 40
3.5
 41
0.0
 71
     5
 72
     1
  1
尺度
  7
CONVERTER_11
 73
     1
 44
0.54545454545455
  0
MTEXT
  5
B9
330
48
100
AcDbEntity
  8
1
 62
     2
100
AcDbMText
 10
135.5000000000001
 20
25.0
 30
0.0
 40
3.0
 41
0.0
 71
     5
 72
     1
  1
製図
  7
CONVERTER_11
 73
     1
 44
0.59090909090909
  0
MTEXT
  5
BA
330
48
100
AcDbEntity
  8
1
 62
     2
100
AcDbMText
 10
152.5000000000001
 20
25.0
 30
0.0
 40
3.0
 41
0.0
 71
     5
 72
     1
  1
設計
  7
CONVERTER_11
 73
     1
 44
0.59090909090909
  0
MTEXT
  5
BB
330
48
100
AcDbEntity
  8
1
 62
     2
100
AcDbMText
 10
118.5000000000001
 20
25.0
 30
0.0
 40
3.0
 41
0.0
 71
     5
 72
     1
  1
検図
  7
CONVERTER_11
 73
     1
 44
0.59090909090909
  0
MTEXT
  5
BC
330
48
100
AcDbEntity
  8
1
 62
     2
100
AcDbMText
 10
175.0000000000001
 20
23.5
 30
0.0
 40
3.5
 41
0.0
 71
     5
 72
     1
  1
第三角法
  7
CONVERTER_11
 73
     1
 44
0.54545454545455
  0
MTEXT
  5
BD
330
48
100
AcDbEntity
  8
1
 62
     2
100
AcDbMText
 10
101.5000000000001
 20
25.0
 30
0.0
 40
3.0
 41
0.0
 71
     5
 72
     1
  1
承認
  7
CONVERTER_11
 73
     1
 44
0.59090909090909
  0
MTEXT
  5
BE
330
48
100
AcDbEntity
  8
1
 62
     2
100
AcDbMText
 10
29.00000000000001
 20
14.25
 30
0.0
 40
3.5
 41
0.0
 71
     5
 72
     1
  1
品番
  7
CONVERTER_11
 73
     1
 44
0.72727272727273
  0
MTEXT
  5
BF
330
48
100
AcDbEntity
  8
1
 62
     2
100
AcDbMText
 10
29.00000000000001
 20
22.75
 30
0.0
 40
3.5
 41
0.0
 71
     5
 72
     1
  1
品名
  7
CONVERTER_11
 73
     1
 44
0.72727272727273
  0
MTEXT
  5
C0
330
48
100
AcDbEntity
  8
1
 62
     2
100
AcDbMText
 10
29.00000000000001
 20
34.0
 30
0.0
 40
3.5
 41
0.0
 71
     5
 72
     1
  1
備考
  7
CONVERTER_11
 73
     1
 44
0.45454545454545
  0
MTEXT
  5
C1
330
48
100
AcDbEntity
  8
1
 62
     2
100
AcDbMText
 10
32.50000000000001
 20
282.0000000000003
 30
0.0
 40
5.0
 41
0.0
 71
     5
 72
     1
  1
図番
  7
CONVERTER_11
 73
     1
 44
0.45454545454545
  0
HATCH
  5
C2
330
48
100
AcDbEntity
  8
1
  6
Continuous
 62
     2
100
AcDbHatch
 10
0.0
 20
0.0
 30
0.0
210
0.0
220
0.0
230
1.0
  2
CUSTOM0
 70
     0
 71
     1
 91
        1
 92
        1
 93
        1
 72
     4
 94
        3
 73
     0
 74
     0
 95
       99
 96
       95
 40
0.0
 40
0.0
 40
0.0
 40
0.0
 40
0.0796417172272386
 40
0.1621768542355955
 40
0.2486489160958086
 40
0.3404969668524525
 40
0.4381912511164561
 40
0.5434463660244867
 40
0.6518115192847194
 40
0.7530190937886808
 40
0.8492196919724573
 40
0.941929031299807
 40
1.034249663569956
 40
1.129078600620164
 40
1.226697027573212
 40
1.32722042542167
 40
1.470572134937999
 40
1.595489863371207
 40
1.719934125348394
 40
1.850576620127405
 40
1.989059629987327
 40
2.134139054226996
 40
2.280698007207258
 40
2.424529739039477
 40
2.56592957698584
 40
2.70823926077354
 40
2.861717887443684
 40
3.045168540347377
 40
3.183798301138613
 40
3.31481396145546
 40
3.442083470447329
 40
3.569912708373098
 40
3.702177512509452
 40
3.842307559659565
 40
3.992872223245941
 40
4.156750662218274
 40
4.310981861107637
 40
4.445859909322708
 40
4.572393936131653
 40
4.701656719782035
 40
4.768279086008516
 40
4.835960697898448
 40
4.912788918729382
 40
5.006285208481618
 40
5.026909478751666
 40
5.047533749021174
 40
5.101808031471258
 40
5.162325165538543
 40
5.226919745995835
 40
5.2942318065968
 40
5.364544852554905
 40
5.43831905546793
 40
5.517877651324262
 40
5.607647714861574
 40
5.700449642544421
 40
5.788251142364151
 40
5.87271470603979
 40
5.95516729257537
 40
6.037192395190409
 40
6.120669181469103
 40
6.206848616686342
 40
6.296680855416768
 40
6.442558392872592
 40
6.568190371608267
 40
6.692904567360369
 40
6.824220446557123
 40
6.963121850329413
 40
7.107843738851249
 40
7.253431663907312
 40
7.395187468036688
 40
7.533140753237717
 40
7.670550457175214
 40
7.816236511769265
 40
7.987691657359232
 40
8.142277421969247
 40
8.293662615415013
 40
8.442962460879304
 40
8.591598316185312
 40
8.743678992361813
 40
8.903725323699168
 40
9.076307008890462
 40
9.265578604680572
 40
9.459203795360718
 40
9.617619810273423
 40
9.753609671361906
 40
9.87487330000406
 40
9.954520184977744
 40
10.02416413719239
 40
10.0976976440544
 40
10.18909955924967
 40
10.20974586420137
 40
10.23039218263383
 40
10.30057101881271
 40
10.37632012987548
 40
10.37632012987548
 40
10.37632012987548
 40
10.37632012987548
 10
170.1465954835851
 20
14.13795663215993
 10
170.1632217851219
 20
14.11720608845313
 10
170.1970784206577
 20
14.07495111711902
 10
170.2599822541036
 20
14.0202981139207
 10
170.3332500940393
 20
13.97299025121054
 10
170.4175969238636
 20
13.93527231437933
 10
170.513224061546
 20
13.91040619731951
 10
170.6171853775346
 20
13.90309559345935
 10
170.7224020220405
 20
13.91142322794053
 10
170.8206626371333
 20
13.94149179651528
 10
170.9058986427547
 20
13.9884882297188
 10
170.9779220206103
 20
14.04952991250852
 10
171.0350917709094
 20
14.12412969578591
 10
171.076786874744
 20
14.21002464660171
 10
171.1026952846293
 20
14.30485850432211
 10
171.1118037332654
 20
14.41854979038367
 10
171.0986864796487
 20
14.54332587770778
 10
171.0325330334414
 20
14.66014719171891
 10
170.9369370919569
 20
14.74512539577374
 10
170.8249681022368
 20
14.8141668445916
 10
170.6993659583269
 20
14.87204142045892
 10
170.5656691620855
 20
14.92373723284339
 10
170.431312281883
 20
14.9789909239718
 10
170.3051983986877
 20
15.04939770641651
 10
170.1926579987535
 20
15.13785540731248
 10
170.0969963064458
 20
15.24981067868474
 10
170.0334157151825
 20
15.39949910101381
 10
170.0200706505016
 20
15.55932794385142
 10
170.0320510987448
 20
15.71048405306844
 10
170.071229892884
 20
15.83809244591539
 10
170.1354987750909
 20
15.9508087403085
 10
170.2238204999742
 20
16.04648609268679
 10
170.3338091207628
 20
16.12354214985755
 10
170.4632284401265
 20
16.18151396936278
 10
170.6111838967793
 20
16.21739177588822
 10
170.7682069455486
 20
16.22746719050564
 10
170.917494046643
 20
16.21863637762591
 10
171.059625361417
 20
16.19074899340355
 10
171.1595922609625
 20
16.13413314701137
 10
171.3125074736185
 20
16.08674602105505
 10
171.2455131717168
 20
16.00197553001184
 10
171.2296479120268
 20
15.93438901873484
 10
171.1978750531297
 20
15.86926092793189
 10
171.215020220957
 20
15.76723453256952
 10
171.1666427208232
 20
15.774932116819
 10
171.1315789440765
 20
15.76806771724807
 10
171.1296697985718
 20
15.83263831158196
 10
171.0985692931988
 20
15.87825639621393
 10
171.0664551628457
 20
15.93561036628462
 10
171.0208038475167
 20
15.98540462692552
 10
170.9658508218387
 20
16.02994813718997
 10
170.9010841173007
 20
16.06763988836551
 10
170.8232377310597
 20
16.09283375791352
 10
170.7355160553352
 20
16.0993123099811
 10
170.6452903277806
 20
16.09235709285607
 10
170.5594594694064
 20
16.06909190460923
 10
170.4828343638597
 20
16.03131644107541
 10
170.4165265636199
 20
15.98051641089578
 10
170.3622560536964
 20
15.91731143407209
 10
170.3224925345459
 20
15.84276455710364
 10
170.2976775510588
 20
15.75917313997763
 10
170.2892124262869
 20
15.65192948382285
 10
170.3019697987104
 20
15.5296545726756
 10
170.3681548409273
 20
15.4114972429121
 10
170.4640977399832
 20
15.3260632570953
 10
170.5757914963182
 20
15.2558336230672
 10
170.7010863668703
 20
15.19659162305303
 10
170.8349823941448
 20
15.14616708086135
 10
170.9689930333151
 20
15.09322516984382
 10
171.0950885316915
 20
15.02750170625173
 10
171.2076216638417
 20
14.9448035253732
 10
171.3031370284232
 20
14.83996006310073
 10
171.3672706486964
 20
14.69937117251571
 10
171.3811103725278
 20
14.54065409451591
 10
171.367395471223
 20
14.38153155217876
 10
171.3244739153984
 20
14.23483828819209
 10
171.2545906329065
 20
14.10119796587146
 10
171.1574592213828
 20
13.98532387699289
 10
171.0347806023657
 20
13.89089981770089
 10
170.8874408413167
 20
13.82179270651982
 10
170.7177132497125
 20
13.77953210858853
 10
170.5317404979597
 20
13.76781736230409
 10
170.3528955926183
 20
13.77809486683435
 10
170.1881733753744
 20
13.8196657376916
 10
170.0834410841057
 20
13.88797642883936
 10
169.9350960790365
 20
13.93675219032108
 10
169.9980378194729
 20
14.0297659129084
 10
170.0072274430058
 20
14.10296536248282
 10
170.0303711301232
 20
14.16936294501345
 10
170.0034588335315
 20
14.26974809527583
 10
170.0521338956339
 20
14.26234033517378
 10
170.0916530580696
 20
14.26894063620894
 10
170.0996204944703
 20
14.19078703218936
 10
170.1305436967923
 20
14.15600927375856
 10
170.1465954835851
 20
14.13795663215993
 97
        1
330
A4
 75
     1
 76
     2
 52
45.0
 41
0.1
 77
     0
 78
     1
 53
45.0
 43
0.0
 44
0.0
 45
-0.282842712474619
 46
0.0
 79
     0
 98
        1
 10
0.0
 20
0.0
  0
HATCH
  5
C3
330
48
100
AcDbEntity
  8
1
  6
Continuous
 62
     2
100
AcDbHatch
 10
0.0
 20
0.0
 30
0.0
210
0.0
220
0.0
230
1.0
  2
CUSTOM1
 70
     0
 71
     1
 91
        2
 92
        1
 93
        1
 72
     4
 94
        3
 73
     0
 74
     0
 95
       57
 96
       53
 40
0.0
 40
0.0
 40
0.0
 40
0.0
 40
0.0471632082808958
 40
0.0914861054632158
 40
0.1357762519702962
 40
0.1826527001610688
 40
0.2295203288572029
 40
0.273775197221963
 40
0.3181310461542221
 40
0.3652607198398516
 40
0.4571007286314572
 40
0.5671851029165383
 40
0.6894623283868404
 40
0.8181758272546057
 40
0.9510087229273907
 40
1.085852229674108
 40
1.218126164475334
 40
1.343545131142385
 40
1.454537202956802
 40
1.567187607530811
 40
1.680710966642344
 40
1.794226869736794
 40
1.900009184247508
 40
2.004085860447787
 40
2.10816267445176
 40
2.214000150155305
 40
2.496038577352131
 40
2.762350745479262
 40
2.997275353279412
 40
3.185110082137762
 40
3.246407890063904
 40
3.312607550212522
 40
3.378877742711537
 40
3.440140399651477
 40
4.100501696006543
 40
4.754913085563587
 40
5.411331693423968
 40
6.07789043256875
 40
6.110575292671029
 40
6.143260152775809
 40
6.367989363395242
 40
6.610525374951639
 40
6.863389136467396
 40
7.119380025547711
 40
7.376036605091169
 40
7.631164770966405
 40
7.876722425456509
 40
8.104953735856093
 40
8.312916685924387
 40
8.497730294941372
 40
8.651018984313925
 40
8.764738853624674
 40
8.764738853624674
 40
8.764738853624674
 40
8.764738853624674
 10
174.7922649500513
 20
13.81626739612926
 10
174.7766616726931
 20
13.81826231079077
 10
174.7463947960302
 20
13.82213201360299
 10
174.7010994202253
 20
13.82341984967267
 10
174.6559553129349
 20
13.8230868355405
 10
174.6099017123399
 20
13.82314658674222
 10
174.5640496172097
 20
13.8232581365
 10
174.5183711648166
 20
13.82277833456589
 10
174.4750811541609
 20
13.82461109618722
 10
174.4039947951513
 20
13.80049556814653
 10
174.4057477261441
 20
13.92184693977251
 10
174.358619637057
 20
14.00726239751234
 10
174.3191478251762
 20
14.12486929345135
 10
174.2706635532645
 20
14.24232752540437
 10
174.2201017402523
 20
14.36405935761514
 10
174.1718634610475
 20
14.4907596786246
 10
174.1135232947594
 20
14.59933687784954
 10
174.0980892667261
 20
14.75620657134408
 10
173.9566586330636
 20
14.72373446548323
 10
173.8508397414904
 20
14.7351288868218
 10
173.7358569725222
 20
14.73392591514615
 10
173.6253142252141
 20
14.73506945347409
 10
173.5176583522783
 20
14.73418350037526
 10
173.4121322529243
 20
14.7341660239052
 10
173.3109192682013
 20
14.72714032472414
 10
173.1266804827753
 20
14.75135859859866
 10
173.1157393685411
 20
14.44741691121886
 10
173.0087691634749
 20
14.22353177253397
 10
172.9098148604346
 20
14.03895314292498
 10
172.9225090524007
 20
13.79530204804206
 10
172.8050091716397
 20
13.82508046753196
 10
172.742205586831
 20
13.82258089509601
 10
172.67858720934
 20
13.82344075102805
 10
172.3946014194073
 20
13.78098039941942
 10
173.0251638499381
 20
14.50081952444783
 10
173.1087645289071
 20
15.01276539435726
 10
173.4929252789338
 20
15.53353743550047
 10
173.4777208288565
 20
16.23519626253211
 10
173.7239265722696
 20
16.22345633081257
 10
173.8256346157561
 20
16.23225004452772
 10
173.8249752035819
 20
15.9805965073035
 10
173.9428317155828
 20
15.79818020733956
 10
174.0315515260485
 20
15.55563740662864
 10
174.1322292485261
 20
15.32340030530133
 10
174.2311142712242
 20
15.08674644566907
 10
174.3299676990671
 20
14.85461739170099
 10
174.4256166390925
 20
14.63122222788783
 10
174.5159904573273
 20
14.4227254904932
 10
174.5989944568189
 20
14.23308448529318
 10
174.6726088582799
 20
14.066631060681
 10
174.7342815895545
 20
13.92917699626098
 10
174.7749458885604
 20
13.84999239430033
 10
174.7922649500513
 20
13.81626739612926
 97
        1
330
A5
 92
       16
 93
        1
 72
     4
 94
        3
 73
     0
 74
     0
 95
       25
 96
       21
 40
0.0
 40
0.0
 40
0.0
 40
0.0
 40
0.0911479969063684
 40
0.1858117896204945
 40
0.2804128399734206
 40
0.3715889190712804
 40
0.4679080494217571
 40
0.5642683809228379
 40
0.6605683222644707
 40
0.7569653015809401
 40
0.8561348172521901
 40
1.092615965104202
 40
1.374867658141793
 40
1.611348812011488
 40
1.710518328425149
 40
1.809403163726456
 40
2.045205463293988
 40
2.326646917622043
 40
2.562449217190523
 40
2.661334043833831
 40
2.661334043833831
 40
2.661334043833831
 40
2.661334043833831
 10
173.26837005672
 20
14.88614538197291
 10
173.2987525917924
 20
14.88598079714554
 10
173.3606895889112
 20
14.88564528689921
 10
173.454135696033
 20
14.88269055452002
 10
173.5475095236358
 20
14.87977752877149
 10
173.6417760753475
 20
14.87894201643416
 10
173.7354964790966
 20
14.87996644658046
 10
173.8352040303205
 20
14.87916977470972
 10
173.9188949546313
 20
14.88921410235219
 10
174.0637996315045
 20
14.86234617674166
 10
173.9396132444801
 20
15.03665530280048
 10
173.8965867286283
 20
15.19651711006093
 10
173.780892214221
 20
15.45518458550213
 10
173.7017565431258
 20
15.59231052861861
 10
173.6431576621816
 20
15.80937033134078
 10
173.5864803939439
 20
15.59266134213426
 10
173.5052809900477
 20
15.45327012438239
 10
173.4063701281489
 20
15.20406969370192
 10
173.3253625094259
 20
15.01925830226074
 10
173.2813683325839
 20
14.91650446856115
 10
173.26837005672
 20
14.88614538197291
 97
        1
330
A6
 75
     1
 76
     2
 52
45.0
 41
0.1
 77
     0
 78
     1
 53
45.0
 43
0.0
 44
0.0
 45
-0.282842712474619
 46
0.0
 79
     0
 98
        1
 10
0.0
 20
0.0
  0
HATCH
  5
C4
330
48
100
AcDbEntity
  8
1
  6
Continuous
 62
     2
100
AcDbHatch
 10
0.0
 20
0.0
 30
0.0
210
0.0
220
0.0
230
1.0
  2
CUSTOM2
 70
     0
 71
     1
 91
        1
 92
        1
 93
        1
 72
     4
 94
        3
 73
     0
 74
     0
 95
       95
 96
       91
 40
0.0
 40
0.0
 40
0.0
 40
0.0
 40
0.6550406656912479
 40
1.308087289032009
 40
1.420803739835883
 40
1.566130759770868
 40
1.757067341888549
 40
2.00651354502653
 40
2.08732826312163
 40
2.185328872295711
 40
2.294612454748462
 40
2.408936380534898
 40
2.526802767798646
 40
2.64636052461569
 40
2.762535723971661
 40
2.870057342870231
 40
2.96688344843174
 40
3.050803243518375
 40
3.115818222436689
 40
3.156030057150336
 40
3.213914225080267
 40
3.276689026450753
 40
3.342960320981416
 40
3.404230667150666
 40
3.453822809493487
 40
3.532499827188531
 40
3.634775188507284
 40
3.754909333008285
 40
3.88973676166078
 40
4.03576960217534
 40
4.187256681197722
 40
4.338733685676072
 40
4.488478734676236
 40
4.634708317831709
 40
4.771493189921387
 40
4.892686571561335
 40
5.199775528944564
 40
5.460353566929761
 40
5.667603142345627
 40
5.814722905404608
 40
5.828990806219906
 40
5.855488336304603
 40
5.869756237118935
 40
6.189796507762895
 40
6.531890469873119
 40
6.883053637017118
 40
7.230512024911668
 40
7.566966656764703
 40
7.885203559707596
 40
8.172887439719405
 40
8.418011594062879
 40
8.443926721190799
 40
8.510760470613285
 40
8.602145393795794
 40
8.701714041647232
 40
8.793098965075462
 40
8.859932715058033
 40
8.885847842603681
 40
9.242301256612901
 40
9.589275455016871
 40
9.921808543164271
 40
10.23479624298475
 40
10.29968150889178
 40
10.35323493887774
 40
10.4015462535515
 40
10.46482922477823
 40
10.55973900668402
 40
10.69239545985614
 40
10.84920353475669
 40
11.01626328594779
 40
11.18672024367441
 40
11.35372582577208
 40
11.50257442292425
 40
11.6186649502329
 40
11.71329869152873
 40
11.82511050573905
 40
11.94464880845713
 40
12.06929242642504
 40
12.19707290435173
 40
12.32562632860526
 40
12.45034565331276
 40
12.56646595170325
 40
12.67099007414632
 40
12.76077625936779
 40
12.82703233506691
 40
12.8742913278599
 40
12.89831990323329
 40
12.92234847860017
 40
13.53984767410318
 40
14.18294284359354
 40
14.18294284359354
 40
14.18294284359354
 40
14.18294284359354
 10
177.3067935648022
 20
14.70898038201725
 10
177.1752019758551
 20
14.82265058603231
 10
176.9124193802727
 20
15.04964496316151
 10
176.3997393441023
 20
15.89214462956286
 10
176.4106654595361
 20
15.5342337757702
 10
176.4041226527994
 20
15.39267392272133
 10
176.4028026631771
 20
15.19421305299281
 10
176.4018117602538
 20
15.02150296045983
 10
176.4024101751973
 20
14.8786537325758
 10
176.4038994301883
 20
14.78265005413358
 10
176.4055683588472
 20
14.6754550326314
 10
176.407193495462
 20
14.56164211517581
 10
176.4092429501684
 20
14.44441572604589
 10
176.4123165501927
 20
14.3265641123297
 10
176.4156339697044
 20
14.21228087320621
 10
176.4193605340279
 20
14.10521401867277
 10
176.4217338161425
 20
14.01007408766922
 10
176.4278718888356
 20
13.92558557205694
 10
176.4239784495946
 20
13.86923087298141
 10
176.4455230443077
 20
13.79825022472353
 10
176.3680940058617
 20
13.82902677604485
 10
176.3116353240191
 20
13.82011242517612
 10
176.2540495896806
 20
13.82896218398274
 10
176.1690163478472
 20
13.79738225225943
 10
176.2009714146382
 20
13.8809515599219
 10
176.1990705282539
 20
13.94882608968309
 10
176.21079600473
 20
14.05233256764418
 10
176.2164241053
 20
14.17002125616696
 10
176.2237902178941
 20
14.30388609164423
 10
176.232075970161
 20
14.44764152872632
 10
176.2398851897427
 20
14.59714022843444
 10
176.2457571222657
 20
14.74792549402078
 10
176.2503667817969
 20
14.89699943878438
 10
176.254263211754
 20
15.04122913163022
 10
176.2570715126565
 20
15.17583905213018
 10
176.2576698755022
 20
15.36469614347355
 10
176.2616023867151
 20
15.58975494313155
 10
176.2442175378498
 20
15.86367091125708
 10
176.2850417342582
 20
16.02787112098597
 10
176.1995153256003
 20
16.22749661465096
 10
176.2660558907688
 20
16.22385458403978
 10
176.283872427323
 20
16.22413447160854
 10
176.4056801797506
 20
16.22632927398613
 10
176.508077033546
 20
15.9467511872151
 10
176.7580021509357
 20
15.74563008536007
 10
176.987003533111
 20
15.47792614987911
 10
177.224515121311
 20
15.22646413862384
 10
177.4486090740772
 20
14.98969974061349
 10
177.675071628301
 20
14.73218692583083
 10
177.8325687886516
 20
14.61649335056926
 10
178.0472129612673
 20
14.27997152538795
 10
178.0422645974619
 20
14.40464754091603
 10
178.0433931602546
 20
14.46327691935736
 10
178.0428877841517
 20
14.55043662371976
 10
178.0430475158114
 20
14.64416143182872
 10
178.0430054891317
 20
14.73018971297034
 10
178.0430202040373
 20
14.79153891945494
 10
178.0429706255983
 20
14.94135231520992
 10
178.0458811522811
 20
15.17989612510103
 10
178.0259521041162
 20
15.54486509868702
 10
178.0750433936246
 20
15.8079963199341
 10
177.9177951509181
 20
16.21928904947749
 10
178.0762112872422
 20
16.16398282551746
 10
178.1311680478629
 20
16.16199686500173
 10
178.182788776674
 20
16.16264778248253
 10
178.2713198965366
 20
16.20369527738244
 10
178.2204898303169
 20
16.05696326622987
 10
178.2313389930285
 20
15.95019971954433
 10
178.2166036994847
 20
15.79085705414113
 10
178.2099976446203
 20
15.62853061652874
 10
178.2014961399915
 20
15.45992521892394
 10
178.1943227202199
 20
15.29814814703541
 10
178.1889063215389
 20
15.15422331457931
 10
178.1871713967648
 20
15.03437493466925
 10
178.1875440672319
 20
14.92686101590514
 10
178.1873656126263
 20
14.81820024645586
 10
178.187701086314
 20
14.6995357016553
 10
178.1890040622185
 20
14.57555163512741
 10
178.1908887351574
 20
14.44858294171105
 10
178.1925004454853
 20
14.32153861551032
 10
178.1941403137429
 20
14.19854884492177
 10
178.1962570745751
 20
14.08300931383759
 10
178.1963848422364
 20
13.98090903955837
 10
178.2006514396554
 20
13.89009848838157
 10
178.1908440085289
 20
13.83213621208787
 10
178.2118474771689
 20
13.7651713013203
 10
178.1725639739897
 20
13.77291153966689
 10
177.9595307117744
 20
13.75755254145194
 10
177.7636297943187
 20
14.31403058094463
 10
177.4611197631544
 20
14.57556035348509
 10
177.3067935648022
 20
14.70898038201725
 97
        1
330
A7
 75
     1
 76
     2
 52
45.0
 41
0.1
 77
     0
 78
     1
 53
45.0
 43
0.0
 44
0.0
 45
-0.282842712474619
 46
0.0
 79
     0
 98
        1
 10
0.0
 20
0.0
  0
HATCH
  5
C5
330
48
100
AcDbEntity
  8
1
  6
Continuous
 62
     2
100
AcDbHatch
 10
0.0
 20
0.0
 30
0.0
210
0.0
220
0.0
230
1.0
  2
CUSTOM3
 70
     0
 71
     1
 91
        1
 92
        1
 93
        1
 72
     4
 94
        3
 73
     0
 74
     0
 95
      110
 96
      106
 40
0.0
 40
0.0
 40
0.0
 40
0.0
 40
0.2203406257277808
 40
0.4407808782838091
 40
0.595249449461535
 40
0.7488431659393074
 40
0.902358183130934
 40
1.056801968670404
 40
1.210736449099961
 40
1.363041386539868
 40
1.515315729683126
 40
1.669377239148077
 40
1.72161165275656
 40
1.773199502942936
 40
1.824933793209979
 40
1.877110426487958
 40
1.982682281206693
 40
2.078781667087416
 40
2.17280964082228
 40
2.271937807378905
 40
2.378349933379269
 40
2.494131557736571
 40
2.62668168394362
 40
2.783145050796048
 40
2.890701232940901
 40
2.993130312454789
 40
3.09986973069178
 40
3.220237816691266
 40
3.352695482737556
 40
3.481732806389815
 40
3.593499473690346
 40
3.674323013331852
 40
3.817951711952802
 40
3.946167120793799
 40
4.061405053453513
 40
4.166480796003126
 40
4.262478775059192
 40
4.350736673551232
 40
4.43307199125409
 40
4.511216293814523
 40
4.564262454117829
 40
4.618474415571452
 40
4.670128488754058
 40
4.722296879126248
 40
4.819540945314118
 40
4.931194984127976
 40
5.049996040257561
 40
5.168643755414964
 40
5.283970811762289
 40
5.392260784910115
 40
5.486512254876161
 40
5.559178233949589
 40
5.591425852853266
 40
5.626215969637645
 40
5.667155838674193
 40
5.717449290214015
 40
5.738402360944624
 40
5.784499116553583
 40
5.830595872164549
 40
5.851548942897402
 40
5.873019280661515
 40
5.924217778408057
 40
5.985325662817433
 40
6.036524160567446
 40
6.057994498333972
 40
6.236847789607237
 40
6.381409928945416
 40
6.493190424178446
 40
6.574067534230267
 40
6.691018086205361
 40
6.814881554220364
 40
6.944307823240288
 40
7.071266716065854
 40
7.193488604461699
 40
7.309042773127926
 40
7.414007203170524
 40
7.505140441886307
 40
7.531150360599439
 40
7.559221645322009
 40
7.587202218920675
 40
7.612569159498908
 40
7.662550809480777
 40
7.702878875763922
 40
7.857328205230651
 40
8.010799568088268
 40
8.165256399657304
 40
8.322232698713671
 40
8.479564855016358
 40
8.635216230290562
 40
8.79088255092548
 40
8.948305154947045
 40
9.168271839032746
 40
9.387358980987006
 40
9.608047961033252
 40
9.832914234792469
 40
9.858338694962804
 40
9.92536681722981
 40
10.02013071422739
 40
10.12876249858978
 40
10.23739428295228
 40
10.33215817995169
 40
10.39918630222373
 40
10.42461076239762
 40
10.64992019336922
 40
10.87188524531165
 40
10.87188524531165
 40
10.87188524531165
 40
10.87188524531165
 10
179.9057788376618
 20
15.73923260398189
 10
179.9092864933542
 20
15.80616462073804
 10
179.9163033987662
 20
15.94005891915858
 10
179.8198027599072
 20
16.22548554971469
 10
180.0510134726109
 20
16.16284386190284
 10
180.1919290057156
 20
16.17001554055989
 10
180.3490417757588
 20
16.16235883078245
 10
180.5025913427288
 20
16.16252752283038
 10
180.6545104935081
 20
16.16182040535433
 10
180.8142214813232
 20
16.17210158351637
 10
180.9408972601118
 20
16.15496511080752
 10
181.137082112208
 20
16.22727260107145
 10
181.1034395279078
 20
16.12640699080116
 10
181.1052011317184
 20
16.07619253947671
 10
181.1027342073458
 20
16.02712335586466
 10
181.1347076966011
 20
15.94063490847
 10
181.0010399903256
 20
15.98997438608336
 10
180.9172208688057
 20
15.98430634314168
 10
180.8173861139324
 20
15.99465516706298
 10
180.7186576720145
 20
16.00086450411086
 10
180.6121532771111
 20
16.00697763816778
 10
180.4910511698059
 20
16.01588883484585
 10
180.3703381502453
 20
16.00521605912384
 10
180.1812553843438
 20
16.06468503080367
 10
180.212902850531
 20
15.9055832007754
 10
180.1995563316836
 20
15.80839128339904
 10
180.1974958426448
 20
15.69634065110104
 10
180.1958188044671
 20
15.57699685629351
 10
180.1973336794232
 20
15.45032592155111
 10
180.1956582478669
 20
15.32301588016117
 10
180.2058844271657
 20
15.22451566404464
 10
180.1779006596582
 20
15.08388702625631
 10
180.3508029999305
 20
15.13989551134095
 10
180.4645020202772
 20
15.12719951478496
 10
180.584015167224
 20
15.13448377051256
 10
180.6888491425071
 20
15.13878017056755
 10
180.7843084898612
 20
15.14330568258977
 10
180.8763823507033
 20
15.15149201146198
 10
180.9476551782439
 20
15.14643850638111
 10
181.0544931705683
 20
15.18536425031671
 10
181.0226603598037
 20
15.10517122005878
 10
181.0266164503929
 20
15.05562936846034
 10
181.0234502392014
 20
15.0055747803982
 10
181.0550791490583
 20
14.92128847612019
 10
180.9210133677691
 20
14.97425365495159
 10
180.8292322793199
 20
14.96540080890443
 10
180.7079729189603
 20
14.97570049965154
 10
180.5914113119772
 20
14.97748911767501
 10
180.4783375745879
 20
14.97787017109694
 10
180.3679246308471
 20
14.98415449472178
 10
180.289812406784
 20
14.97189133255364
 10
180.1913625833645
 20
15.00453887616128
 10
180.201235517356
 20
14.94769748054206
 10
180.1973923244401
 20
14.91392130557984
 10
180.1966789884268
 20
14.8711960470941
 10
180.1963369642976
 20
14.83401607262152
 10
180.1963834255345
 20
14.7948723737077
 10
180.1963649429927
 20
14.75716849497686
 10
180.1963703431806
 20
14.71944955232403
 10
180.19636972142
 20
14.6899432474515
 10
180.1963698151545
 20
14.65873577699302
 10
180.1963704287921
 20
14.61414424908086
 10
180.1963671499337
 20
14.55963956508853
 10
180.1963759623481
 20
14.51505540201449
 10
180.1963359653417
 20
14.43117808585742
 10
180.1976024270255
 20
14.31737520677679
 10
180.1950274117841
 20
14.16830395933709
 10
180.206500938172
 20
14.06597203813905
 10
180.1823506222263
 20
13.93338903885833
 10
180.3332993946476
 20
13.97895732272021
 10
180.4428436671556
 20
13.96427012162347
 10
180.573397047392
 20
13.96920435125063
 10
180.6990312209514
 20
13.9725770532336
 10
180.81887306256
 20
13.97711497498772
 10
180.9391362611426
 20
13.99048536182003
 10
181.0222761663516
 20
13.98068712782595
 10
181.1456080421073
 20
14.04126214623321
 10
181.1244269203957
 20
13.9853246013402
 10
181.1235950270118
 20
13.95939249372346
 10
181.1218963707558
 20
13.93197256190939
 10
181.1217974888828
 20
13.89738195206385
 10
181.1203659301329
 20
13.86050408220767
 10
181.153280419219
 20
13.76846841021808
 10
180.9551306988108
 20
13.84132015974831
 10
180.8300548294891
 20
13.81825726508604
 10
180.6673071295157
 20
13.82454021985785
 10
180.5129366450001
 20
13.82260943909925
 10
180.3566670436944
 20
13.82393762599267
 10
180.1970544465282
 20
13.82059872487861
 10
180.0540326342236
 20
13.8326579572824
 10
179.8197144881628
 20
13.76952001976917
 10
179.9173810751197
 20
14.05620527466317
 10
179.9006868780058
 20
14.2498830814266
 10
179.9146296709685
 20
14.47848242880295
 10
179.9142987846631
 20
14.63384593955048
 10
179.9143078119264
 20
14.73966336444127
 10
179.9143055876316
 20
14.80205784124215
 10
179.9143065551889
 20
14.89220425248327
 10
179.9143065473262
 20
14.99621167157438
 10
179.9143053861102
 20
15.10022131375296
 10
179.9143090971502
 20
15.19036243688768
 10
179.9143011051052
 20
15.25276803097215
 10
179.9143334275018
 20
15.35868835961119
 10
179.9131440788319
 20
15.51626716544739
 10
179.9082216489256
 20
15.66528219822065
 10
179.9057788376618
 20
15.73923260398189
 97
        1
330
A8
 75
     1
 76
     2
 52
45.0
 41
0.1
 77
     0
 78
     1
 53
45.0
 43
0.0
 44
0.0
 45
-0.282842712474619
 46
0.0
 79
     0
 98
        1
 10
0.0
 20
0.0
  0
HATCH
  5
C6
330
48
100
AcDbEntity
  8
1
  6
Continuous
 62
     2
100
AcDbHatch
 10
0.0
 20
0.0
 30
0.0
210
0.0
220
0.0
230
1.0
  2
CUSTOM4
 70
     0
 71
     1
 91
        1
 92
        1
 93
        1
 72
     4
 94
        3
 73
     0
 74
     0
 95
       47
 96
       43
 40
0.0
 40
0.0
 40
0.0
 40
0.0
 40
0.2207912809957196
 40
0.4459404186302851
 40
0.4902387190457931
 40
0.5327473892721744
 40
0.5742260451223926
 40
0.6155432630559505
 40
0.6568164066314994
 40
0.6982511618779342
 40
0.7407663929315583
 40
0.7851366743173072
 40
1.010288833836089
 40
1.231080507001937
 40
1.451765243652166
 40
1.676638205891466
 40
1.720461045359437
 40
1.830018144043295
 40
1.972442372352923
 40
2.114866600677288
 40
2.224423699394906
 40
2.268246538883147
 40
2.493628801206984
 40
2.715602830286392
 40
2.934211330706147
 40
3.149502369855139
 40
3.2313877848507
 40
3.318231873853736
 40
3.405143198197638
 40
3.486970301720047
 40
3.702258172493487
 40
3.92086628353372
 40
4.142839325931517
 40
4.368221903864984
 40
4.412044743359464
 40
4.521601842095474
 40
4.664026070451949
 40
4.806450298808655
 40
4.916007397546342
 40
4.959830237042664
 40
5.184703515846711
 40
5.405387250767085
 40
5.405387250767085
 40
5.405387250767085
 40
5.405387250767085
 10
182.6507427258644
 20
15.73406440953872
 10
182.6568139420002
 20
15.7975848250121
 10
182.6690762107242
 20
15.92587938689624
 10
182.5604706879414
 20
16.20166220174075
 10
182.6761985896604
 20
16.17188133432052
 10
182.7171842509015
 20
16.16765556262819
 10
182.7591205797519
 20
16.16310446389607
 10
182.800419662571
 20
16.16201982929483
 10
182.8417032115556
 20
16.16310338195228
 10
182.8836148270647
 20
16.16766112711342
 10
182.9245983549019
 20
16.17187430209728
 10
183.0404922843487
 20
16.2017761131753
 10
182.9295652727457
 20
15.92339806609889
 10
182.9574856365268
 20
15.74283140824952
 10
182.9404267346969
 20
15.50961042346471
 10
182.9414637282102
 20
15.34906622543146
 10
182.9414099399403
 20
15.2228481755872
 10
182.941427737248
 20
15.12428963336241
 10
182.9414188581079
 20
14.99280702442963
 10
182.9414263928032
 20
14.8613284496865
 10
182.9414129405128
 20
14.76276222694091
 10
182.9414531717491
 20
14.63639735624153
 10
182.9406746403816
 20
14.4748206882287
 10
182.9565958319268
 20
14.24361821892915
 10
182.9333468885408
 20
14.05874351972002
 10
183.0360183444365
 20
13.78935602770055
 10
182.8820238362836
 20
13.82660112685817
 10
182.8004129802833
 20
13.82137994680533
 10
182.7188192292583
 20
13.8266062037835
 10
182.5648513666844
 20
13.78937069885385
 10
182.6674183421917
 20
14.0587512986288
 10
182.6442045316086
 20
14.24361585325414
 10
182.6600444655139
 20
14.47482218565639
 10
182.6593296313426
 20
14.63639712308503
 10
182.6593664569907
 20
14.76276231210522
 10
182.659354900027
 20
14.86132756635982
 10
182.6593575019214
 20
14.9928112741722
 10
182.6593648531779
 20
15.12427548031199
 10
182.6593442541351
 20
15.22287786275325
 10
182.6594082192028
 20
15.34896149354426
 10
182.658173394759
 20
15.51210091383771
 10
182.6532040396744
 20
15.6605418377755
 10
182.6507427258644
 20
15.73406440953872
 97
        1
330
A9
 75
     1
 76
     2
 52
45.0
 41
0.1
 77
     0
 78
     1
 53
45.0
 43
0.0
 44
0.0
 45
-0.282842712474619
 46
0.0
 79
     0
 98
        1
 10
0.0
 20
0.0
  0
HATCH
  5
C7
330
48
100
AcDbEntity
  8
1
  6
Continuous
 62
     2
100
AcDbHatch
 10
0.0
 20
0.0
 30
0.0
210
0.0
220
0.0
230
1.0
  2
CUSTOM5
 70
     0
 71
     1
 91
        1
 92
        1
 93
        1
 72
     4
 94
        3
 73
     0
 74
     0
 95
      118
 96
      114
 40
0.0
 40
0.0
 40
0.0
 40
0.0
 40
0.1054708162973064
 40
0.2466098270051549
 40
0.3965912874590694
 40
0.5285525069753392
 40
0.6156245055641355
 40
0.64314341057965
 40
0.7036850037985035
 40
0.7642265984503096
 40
0.79174550523534
 40
0.928740431998891
 40
1.106572819087926
 40
1.287544879680872
 40
1.317578308030389
 40
1.399928030857027
 40
1.522968204799801
 40
1.675072986590423
 40
1.8446165331805
 40
2.019973001638564
 40
2.189516548879877
 40
2.341621331585215
 40
2.464661506320351
 40
2.547011229646915
 40
2.577044658167879
 40
2.60379789089295
 40
2.662655002908665
 40
2.721512114949506
 40
2.748265347702657
 40
2.774215307344734
 40
2.845959313407064
 40
2.954338556588264
 40
3.090194227585443
 40
3.244367517100408
 40
3.407699615844169
 40
3.571031714539319
 40
3.725205003919995
 40
3.861060674729498
 40
3.96943991771619
 40
4.041183923628865
 40
4.067133883212859
 40
4.311886746012072
 40
4.547897258335438
 40
4.764747083043892
 40
4.952749679951679
 40
5.045772974195775
 40
5.137862019644894
 40
5.330543169792937
 40
5.553448265243925
 40
5.795083855888104
 40
6.043293412177156
 40
6.28576169554109
 40
6.313902908752574
 40
6.384255941793164
 40
6.475714884766752
 40
6.567173827758815
 40
6.637526860839593
 40
6.665668074073956
 40
6.692018920327934
 40
6.749990782071011
 40
6.807962643790386
 40
6.834313490017863
 40
6.856393084245141
 40
6.913335195649765
 40
6.991194817302457
 40
7.076026942283747
 40
7.153886563725266
 40
7.210828674844819
 40
7.232908268931183
 40
7.258199334923704
 40
7.324875781592352
 40
7.419142481925007
 40
7.527204308841947
 40
7.635266135230522
 40
7.729532834168504
 40
7.796209279292826
 40
7.821500344594773
 40
7.844652988850843
 40
7.899863140541565
 40
7.965759128053646
 40
8.020969279770902
 40
8.04412192404634
 40
8.069356610160359
 40
8.109134395441044
 40
8.132238100190756
 40
8.193147867786118
 40
8.279261678876294
 40
8.377977512673509
 40
8.476693347146293
 40
8.562807160411344
 40
8.62371693082613
 40
8.646820636853084
 40
8.671988793773897
 40
8.734909185827751
 40
8.816705695188466
 40
8.898502204815008
 40
8.96142259737744
 40
8.986590754550553
 40
9.012941600732713
 40
9.070913462379803
 40
9.128885324081306
 40
9.15523617032463
 40
9.180404327928672
 40
9.243324721947717
 40
9.325121234211453
 40
9.406917746637108
 40
9.469838141977563
 40
9.495006288270309
 40
9.51781118437845
 40
9.572192090486451
 40
9.63709833328068
 40
9.69147923951488
 40
9.71428412564292
 40
9.71428412564292
 40
9.71428412564292
 40
9.71428412564292
 10
185.2874469028654
 20
15.26889163187718
 10
185.3090990569038
 20
15.24111869242809
 10
185.3597257109475
 20
15.17618054561233
 10
185.4349383202591
 20
15.06891060312898
 10
185.5248482274347
 20
14.95377438266624
 10
185.5709169676674
 20
14.8535704574832
 10
185.6655825294654
 20
14.78434006814944
 10
185.6204439320413
 20
14.73771639678274
 10
185.5947047785791
 20
14.69660308866041
 10
185.5645196708012
 20
14.66065971727939
 10
185.5193684730563
 20
14.58579782596093
 10
185.4710504458562
 20
14.80782524253602
 10
185.3968539713073
 20
14.8451067733771
 10
185.2836047324608
 20
15.11610202130599
 10
185.288513357817
 20
15.00095328446228
 10
185.2868486556307
 20
14.92836675781628
 10
185.2876830076715
 20
14.80625588483986
 10
185.2873609540265
 20
14.6591380081046
 10
185.2875076912457
 20
14.49307063956557
 10
185.2872950092724
 20
14.32187554608602
 10
185.2879497252034
 20
14.15552828635498
 10
185.285919246114
 20
14.00935173055693
 10
185.2913460399931
 20
13.8847104747461
 10
185.2804930868709
 20
13.81718656540626
 10
185.2956739155556
 20
13.75549061417022
 10
185.2457895108134
 20
13.76727503897002
 10
185.2017150342523
 20
13.75943822779969
 10
185.1582371630201
 20
13.76760441372703
 10
185.1092346786489
 20
13.75538056738469
 10
185.1218731234825
 20
13.80960667249313
 10
185.113018296845
 20
13.86936918907558
 10
185.1175058770314
 20
13.9792202904437
 10
185.1157960135992
 20
14.11029975405678
 10
185.1163550915987
 20
14.26198011444329
 10
185.1161928768695
 20
14.42211074929953
 10
185.1162269924675
 20
14.58236865674567
 10
185.1162514960127
 20
14.7337024752044
 10
185.1161453543227
 20
14.86582156338602
 10
185.1164299141931
 20
14.97294802533194
 10
185.1158675547568
 20
15.03808619579474
 10
185.1180765083691
 20
15.16618957858678
 10
185.0319435998601
 20
14.79097610391578
 10
184.95551408185
 20
14.63918193123395
 10
184.8660040767832
 20
14.4776620644631
 10
184.7640413217326
 20
14.20471848820171
 10
184.7187976491039
 20
14.36717346596515
 10
184.610235594167
 20
14.45605432058117
 10
184.7995791751753
 20
14.6054979496141
 10
184.85653405457
 20
14.79749136974926
 10
184.9717520993353
 20
15.02899622906755
 10
184.9940151630132
 20
15.21797259759063
 10
185.1771905152139
 20
15.49454089325928
 10
185.0538033597552
 20
15.48698978832093
 10
184.9925684166834
 20
15.48856772366118
 10
184.9081999617064
 20
15.48882592573671
 10
184.8204235085966
 20
15.48544845751205
 10
184.7656768696122
 20
15.49394814982019
 10
184.7104703026025
 20
15.48048561049787
 10
184.7222823035536
 20
15.52931442126763
 10
184.7142496151793
 20
15.57269004896708
 10
184.7228186104678
 20
15.61509438309573
 10
184.7102943409157
 20
15.66267796552119
 10
184.7555101538735
 20
15.6526721299511
 10
184.8014815562724
 20
15.65894105174062
 10
184.877722204771
 20
15.65593561405873
 10
184.9561296131994
 20
15.65770448278542
 10
185.0323992648933
 20
15.65464793981661
 10
185.0783009459475
 20
15.66103971376178
 10
185.1231733965401
 20
15.65093822978897
 10
185.1105552275635
 20
15.70157201581899
 10
185.1191936582707
 20
15.75501261882071
 10
185.1152361595445
 20
15.84863255131681
 10
185.1162325068335
 20
15.95112606688924
 10
185.1171927413074
 20
16.05353270248163
 10
185.1133211458006
 20
16.14735929609321
 10
185.1217789814365
 20
16.20036542840353
 10
185.1093075932836
 20
16.25211435651188
 10
185.154210638985
 20
16.23850747226757
 10
185.1955083836773
 20
16.24100480320585
 10
185.259534428105
 20
16.23648060574488
 10
185.2986111148785
 20
16.22781003043307
 10
185.3476543498741
 20
16.23515102070688
 10
185.3225080030591
 20
16.19602896051757
 10
185.2815901333724
 20
16.20563842455807
 10
185.2910109616604
 20
16.15540148169778
 10
185.2855647318747
 20
16.10385945639491
 10
185.2881699601805
 20
16.01959707584522
 10
185.2870102202155
 20
15.92559135583409
 10
185.2883591064232
 20
15.83196865395527
 10
185.2849970101509
 20
15.74679517552224
 10
185.292095991777
 20
15.69716856072045
 10
185.2812569154547
 20
15.6499369496999
 10
185.3304010225246
 20
15.66201674936852
 10
185.3794877630148
 20
15.65447393363012
 10
185.4573714280641
 20
15.65686070361433
 10
185.5350365172897
 20
15.65899381905416
 10
185.5845393931354
 20
15.65193391922456
 10
185.6344594750639
 20
15.66360151936215
 10
185.622319851688
 20
15.61540235371393
 10
185.6305838229144
 20
15.57249219801235
 10
185.6223198650783
 20
15.52958201851384
 10
185.6344594549854
 20
15.48138288754863
 10
185.5845395158747
 20
15.4930503447151
 10
185.5350350651203
 20
15.48599202435044
 10
185.4573784382973
 20
15.48811665228602
 10
185.379464386576
 20
15.49053389365759
 10
185.3304500352718
 20
15.48291848194485
 10
185.2813246108943
 20
15.4950795255759
 10
185.2915559988573
 20
15.45073013424157
 10
185.2856677678054
 20
15.4092543620291
 10
185.287878830557
 20
15.34915394315302
 10
185.2874109346147
 20
15.30225782762887
 10
185.2874386992914
 20
15.27650146418195
 10
185.2874469028654
 20
15.26889163187718
 97
        1
330
AA
 75
     1
 76
     2
 52
45.0
 41
0.1
 77
     0
 78
     1
 53
45.0
 43
0.0
 44
0.0
 45
-0.282842712474619
 46
0.0
 79
     0
 98
        1
 10
0.0
 20
0.0
  0
HATCH
  5
C8
330
48
100
AcDbEntity
  8
1
  6
Continuous
 62
     2
100
AcDbHatch
 10
0.0
 20
0.0
 30
0.0
210
0.0
220
0.0
230
1.0
  2
CUSTOM6
 70
     0
 71
     1
 91
        1
 92
        1
 93
        1
 72
     4
 94
        3
 73
     0
 74
     0
 95
       91
 96
       87
 40
0.0
 40
0.0
 40
0.0
 40
0.0
 40
0.0345987051695718
 40
0.1258134969461369
 40
0.2547723404888987
 40
0.4026032099154125
 40
0.5504340793416704
 40
0.679392922883608
 40
0.7706077146571035
 40
0.8052064287780925
 40
1.124852390615279
 40
1.42740223630887
 40
1.706356627453513
 40
1.955541417875189
 40
2.169485938566334
 40
2.344350786664774
 40
2.480568411561922
 40
2.590440557428944
 40
2.649189927151098
 40
2.749320643306335
 40
2.912632739880039
 40
3.147745656000245
 40
3.244827496385055
 40
3.33849005694664
 40
3.583815413207079
 40
3.761423943238433
 40
3.886956104362599
 40
3.985855451886761
 40
4.091766255337562
 40
4.250186473811782
 40
4.42273431508445
 40
4.628285684838565
 40
4.87209322775841
 40
5.152549652145521
 40
5.464967135837495
 40
5.803201477852404
 40
6.160362988813871
 40
6.193449448275954
 40
6.284170385501609
 40
6.419718138764479
 40
6.587285046385757
 40
6.774063446723643
 40
6.967245678113626
 40
7.154024078817669
 40
7.321590987026026
 40
7.457138740890384
 40
7.547859678556149
 40
7.580946138182709
 40
7.608533084714763
 40
7.669224367077746
 40
7.729915649429971
 40
7.757502595950024
 40
7.790278062553478
 40
7.880146277430976
 40
8.014419963180439
 40
8.18041184239794
 40
8.365434637679408
 40
8.55680107162271
 40
8.741823866830822
 40
8.907815745916333
 40
9.042089431507486
 40
9.131957646249612
 40
9.164733112797188
 40
9.415425063140106
 40
9.66798618095858
 40
9.69416980746272
 40
9.756607686047651
 40
9.831130315322458
 40
9.893568193899865
 40
9.919751820398682
 40
9.950967964690506
 40
9.996421631210616
 40
10.22087981037451
 40
10.44341866197539
 40
10.47847970788852
 40
10.57091337438752
 40
10.70159545461227
 40
10.85140174170357
 40
11.00120802880475
 40
11.1318901090738
 40
11.22432377583008
 40
11.25938480938954
 40
11.28697175596143
 40
11.34766303835917
 40
11.40835432042068
 40
11.43594125892103
 40
11.43594125892103
 40
11.43594125892103
 40
11.43594125892103
 10
190.0818114333289
 20
15.55242795125076
 10
190.0702785844941
 20
15.55242790287914
 10
190.0283409444998
 20
15.55242773704163
 10
189.9434129719026
 20
15.55243125800908
 10
189.8207688553128
 20
15.55240926435877
 10
189.6791206916993
 20
15.55250801177053
 10
189.537975369849
 20
15.55214686232419
 10
189.4141351317905
 20
15.55321883609088
 10
189.3317217825381
 20
15.55092249091267
 10
189.1727791229693
 20
15.5604856937342
 10
189.3503402353376
 20
15.1978539431137
 10
189.3379739205453
 20
14.95243127723113
 10
189.4064519473865
 20
14.66862501324835
 10
189.469302432097
 20
14.43250999939034
 10
189.5452253431728
 20
14.2332674039613
 10
189.6303189577017
 20
14.07745347451373
 10
189.7244607592934
 20
13.97657857781392
 10
189.8282648207728
 20
13.92465852638965
 10
189.9125872030774
 20
13.97606484379618
 10
189.9351322179452
 20
14.09144544037515
 10
189.9745730975372
 20
14.21885149702381
 10
189.9202919734944
 20
14.53622328086761
 10
190.0451218072473
 20
14.38982180140902
 10
190.2019291513603
 20
14.35795300331174
 10
190.0947720007056
 20
14.12421357767628
 10
190.0808711209867
 20
13.95972776583656
 10
190.0234709467225
 20
13.83130869122483
 10
189.9335020145009
 20
13.76018802352827
 10
189.8095274657878
 20
13.74432324142253
 10
189.6634273196861
 20
13.77993797554171
 10
189.5243894320284
 20
13.90000570500276
 10
189.4102003962145
 20
14.07435682550319
 10
189.3146141301485
 20
14.29946603111239
 10
189.2318652572626
 20
14.56388246006442
 10
189.1807179256411
 20
14.88187933098543
 10
189.0770189207339
 20
15.15543728488913
 10
189.2042841208521
 20
15.56005818612866
 10
189.0357890623019
 20
15.55112367849677
 10
188.9511995787078
 20
15.55315961418362
 10
188.8189876387628
 20
15.55213937388405
 10
188.6560505094103
 20
15.55253230318428
 10
188.4733759170534
 20
15.55235696313368
 10
188.2847057373382
 20
15.55260105307467
 10
188.1014469020189
 20
15.55185657906235
 10
187.9404746832718
 20
15.55416360522425
 10
187.8029808335276
 20
15.54799804883661
 10
187.7289590372311
 20
15.5603283845821
 10
187.6613215186856
 20
15.54329323723555
 10
187.6732373719269
 20
15.59524438447527
 10
187.6655677285694
 20
15.64071424966528
 10
187.6732592225115
 20
15.68614453703705
 10
187.6613141797761
 20
15.7380239598457
 10
187.7283588305867
 20
15.72119143490264
 10
187.8017375665677
 20
15.73335409092671
 10
187.9379128305271
 20
15.72727231074958
 10
188.0973811801513
 20
15.72954834315058
 10
188.2789173085836
 20
15.72881233998961
 10
188.4658034862179
 20
15.72905954196134
 10
188.6468012316836
 20
15.72886400799253
 10
188.8080802578878
 20
15.72932234714839
 10
188.9393882124887
 20
15.72812673751206
 10
189.0225051322596
 20
15.73051347319743
 10
189.1556236547815
 20
15.72230605725464
 10
189.0645893502657
 20
15.97752868952654
 10
188.9789633074421
 20
16.2416435832825
 10
189.0990589003455
 20
16.22904442969165
 10
189.1514264948544
 20
16.22694235763076
 10
189.2214497569715
 20
16.22535399889657
 10
189.2671922337818
 20
16.21602567538113
 10
189.3220812646933
 20
16.22545966915427
 10
189.2963574785681
 20
16.17733028655174
 10
189.1825397571452
 20
16.18266829744168
 10
189.3159346621135
 20
15.95449174576776
 10
189.1943658735471
 20
15.72156856595922
 10
189.3223188769413
 20
15.73087258884439
 10
189.4049048406461
 20
15.7280100175468
 10
189.5307214850824
 20
15.72923437412302
 10
189.6741469838057
 20
15.72932431888965
 10
189.8157420951728
 20
15.72746163183853
 10
189.9459127249967
 20
15.73333075937163
 10
190.0193452286191
 20
15.72070340823203
 10
190.0891112922096
 20
15.73877563110412
 10
190.0775772605396
 20
15.68612850546326
 10
190.0833184346682
 20
15.64221317686546
 10
190.0816615770911
 20
15.59089982676548
 10
190.081775756167
 20
15.56158792021633
 10
190.0818114333289
 20
15.55242795125076
 97
        1
330
AB
 75
     1
 76
     2
 52
45.0
 41
0.1
 77
     0
 78
     1
 53
45.0
 43
0.0
 44
0.0
 45
-0.282842712474619
 46
0.0
 79
     0
 98
        1
 10
0.0
 20
0.0
  0
HATCH
  5
C9
330
48
100
AcDbEntity
  8
1
  6
Continuous
 62
     2
100
AcDbHatch
 10
0.0
 20
0.0
 30
0.0
210
0.0
220
0.0
230
1.0
  2
CUSTOM7
 70
     0
 71
     1
 91
        1
 92
        1
 93
        1
 72
     4
 94
        3
 73
     0
 74
     0
 95
       75
 96
       71
 40
0.0
 40
0.0
 40
0.0
 40
0.0
 40
0.0342546099129691
 40
0.1245622414432346
 40
0.2522385480897518
 40
0.398599192294068
 40
0.5449598364980821
 40
0.6726361431438816
 40
0.762943774673696
 40
0.7971983935297973
 40
1.101723623449658
 40
1.408591244036661
 40
1.433332471690369
 40
1.487763172450163
 40
1.542193873081994
 40
1.566935100592542
 40
1.923523931821796
 40
2.271755704953622
 40
2.590579755100864
 40
2.858943305581149
 40
2.88912033930917
 40
2.918305855191122
 40
2.941366645531243
 40
2.996357760973134
 40
3.061992318140677
 40
3.116983433626871
 40
3.140044223997548
 40
3.4112731229365
 40
3.732441619741054
 40
3.761068217532752
 40
3.837787499630314
 40
3.948858699125954
 40
4.08054104910433
 40
4.219093782625713
 40
4.350776132722263
 40
4.461847332405599
 40
4.538566614678329
 40
4.567193212544577
 40
4.594907573998835
 40
4.666381453557374
 40
4.764111044010956
 40
4.870592538125759
 40
4.968322128642182
 40
5.039796008286839
 40
5.067510369784298
 40
5.09426360318551
 40
5.153120716668143
 40
5.211977830150586
 40
5.23873106355159
 40
5.272290535138829
 40
5.36338052944469
 40
5.497618415781368
 40
5.66062156345361
 40
5.838007341749311
 40
6.015393119910662
 40
6.178396267038288
 40
6.312634151842239
 40
6.403724143059229
 40
6.437283612672324
 40
6.464036846260941
 40
6.522893960004554
 40
6.581751071483813
 40
6.608504301590759
 40
6.637253941280907
 40
6.711397748902758
 40
6.812778057283371
 40
6.923237199249147
 40
7.024617507623791
 40
7.098761315207444
 40
7.127510946007394
 40
7.127510946007394
 40
7.127510946007394
 40
7.127510946007394
 10
188.4418622390564
 20
14.95849128473265
 10
188.4418622819707
 20
14.9470731340872
 10
188.4418624481129
 20
14.9055525784263
 10
188.4418593081786
 20
14.82146922003772
 10
188.44187882798
 20
14.70004497322329
 10
188.4417912187737
 20
14.55980494047449
 10
188.442111623523
 20
14.42006556794577
 10
188.4411605909741
 20
14.29745038894929
 10
188.4431978595967
 20
14.21587074438044
 10
188.4349433178746
 20
14.06271267077698
 10
188.7430797940901
 20
14.22560236054721
 10
189.0350645173736
 20
14.39482938688003
 10
189.0408354448707
 20
14.2597323578191
 10
189.0455471719891
 20
14.21617221160443
 10
189.0482535411918
 20
14.17211249350544
 10
189.0672545672958
 20
14.02272590363133
 10
188.6583942247302
 20
14.08681172241261
 10
188.3793710348832
 20
13.97296341411017
 10
188.1018081587166
 20
13.87364095811142
 10
187.8099837184401
 20
13.91630687596358
 10
187.7869144678658
 20
13.81321679744542
 10
187.7537474383333
 20
13.78691091244469
 10
187.7480653962739
 20
13.83455309036304
 10
187.7284214559044
 20
13.87180336115069
 10
187.7095089485623
 20
13.93007387847564
 10
187.6942849867708
 20
13.97385201007804
 10
187.6477246372934
 20
14.08759421046311
 10
187.989089731245
 20
14.05576301120048
 10
188.2679649367386
 20
14.02161435106483
 10
188.2617753034906
 20
14.16913976479653
 10
188.2630935452772
 20
14.24013150908833
 10
188.2624831689947
 20
14.34719767958662
 10
188.2625871570723
 20
14.47398529785998
 10
188.2629987964055
 20
14.60849243496051
 10
188.2613907841967
 20
14.73395549951185
 10
188.2659902567925
 20
14.84505246719118
 10
188.2564186502208
 20
14.9076188680069
 10
188.270400178369
 20
14.96595388295002
 10
188.2147384386703
 20
14.95289710582239
 10
188.1575655197821
 20
14.961363077495
 10
188.0616048925646
 20
14.95729976080636
 10
187.9633767522821
 20
14.95970889852476
 10
187.8672582457559
 20
14.95551600613388
 10
187.8104648525812
 20
14.96429346441164
 10
187.7550356873384
 20
14.95094936850122
 10
187.7670679427917
 20
15.00036910959258
 10
187.7592003173937
 20
15.04393988030396
 10
187.7666295563828
 20
15.08830469118525
 10
187.7551930564144
 20
15.13902297763991
 10
187.8232102370132
 20
15.12162460757743
 10
187.8968496879747
 20
15.13417450237189
 10
188.0325064058211
 20
15.12799677011097
 10
188.1884909024525
 20
15.13029203093084
 10
188.3615926358143
 20
15.1294096826253
 10
188.5346942964181
 20
15.13029207142408
 10
188.6906789811216
 20
15.1279966295555
 10
188.8263351889797
 20
15.13417486262432
 10
188.8999756705652
 20
15.12162394218335
 10
188.9679914174724
 20
15.13902373012142
 10
188.9565590885922
 20
15.08830130414555
 10
188.9639539458297
 20
15.04397060811109
 10
188.956203991227
 20
15.00028307550197
 10
188.9681203741877
 20
14.95063590098477
 10
188.9108170223616
 20
14.96461411338426
 10
188.8520145789773
 20
14.95539755673255
 10
188.7525293633199
 20
14.9595226816493
 10
188.649428009835
 20
14.95822760025889
 10
188.5537846354573
 20
14.95854077077641
 10
188.4857467971617
 20
14.95848776697146
 10
188.4514462213443
 20
14.95849051871657
 10
188.4418622390564
 20
14.95849128473265
 97
        1
330
AC
 75
     1
 76
     2
 52
45.0
 41
0.1
 77
     0
 78
     1
 53
45.0
 43
0.0
 44
0.0
 45
-0.282842712474619
 46
0.0
 79
     0
 98
        1
 10
0.0
 20
0.0
  0
HATCH
  5
CA
330
48
100
AcDbEntity
  8
1
  6
Continuous
 62
     2
100
AcDbHatch
 10
0.0
 20
0.0
 30
0.0
210
0.0
220
0.0
230
1.0
  2
CUSTOM8
 70
     0
 71
     1
 91
        1
 92
        1
 93
        1
 72
     4
 94
        3
 73
     0
 74
     0
 95
       15
 96
       11
 40
0.0
 40
0.0
 40
0.0
 40
0.0
 40
0.2785535985096574
 40
0.5215624748198874
 40
0.6076917376040509
 40
0.6938210001741243
 40
0.9405019146455295
 40
1.221691403489038
 40
1.300471877080918
 40
1.379252341684645
 40
1.379252341684645
 40
1.379252341684645
 40
1.379252341684645
 10
189.5681493630999
 20
16.22930267330381
 10
189.6296017794178
 20
16.17691646592715
 10
189.7446649974113
 20
16.07882876798222
 10
190.0397348497243
 20
15.92889785897222
 10
189.9025147631856
 20
15.84343227515014
 10
189.8041227843779
 20
15.71085785201554
 10
189.7130033590649
 20
16.01616985781414
 10
189.3636839480657
 20
16.07967869465373
 10
189.5119258376571
 20
16.17896509880877
 10
189.5494081874236
 20
16.21252348402382
 10
189.5681493630999
 20
16.22930267330381
 97
        1
330
AD
 75
     1
 76
     2
 52
45.0
 41
0.1
 77
     0
 78
     1
 53
45.0
 43
0.0
 44
0.0
 45
-0.282842712474619
 46
0.0
 79
     0
 98
        1
 10
0.0
 20
0.0
  0
HATCH
  5
CB
330
48
100
AcDbEntity
  8
1
  6
Continuous
 62
     2
100
AcDbHatch
 10
0.0
 20
0.0
 30
0.0
210
0.0
220
0.0
230
1.0
  2
CUSTOM9
 70
     0
 71
     1
 91
        1
 92
        1
 93
        1
 72
     4
 94
        3
 73
     0
 74
     0
 95
       35
 96
       31
 40
0.0
 40
0.0
 40
0.0
 40
0.0
 40
0.0335231036620288
 40
0.0713218571712182
 40
0.4278866681487453
 40
0.8116865841964701
 40
1.198190238000155
 40
1.561379546812786
 40
1.659983174622102
 40
1.759315573807276
 40
2.13271961723116
 40
2.525233363588914
 40
2.910815397779785
 40
3.265244364303376
 40
3.592606723582068
 40
3.96438615460402
 40
4.359942131737867
 40
4.758154118639428
 40
4.843846538700066
 40
4.936650065543358
 40
5.256616602537441
 40
5.581707404416179
 40
5.899719158308316
 40
6.198363494280919
 40
6.466301046615982
 40
6.493895311537247
 40
6.559697020197039
 40
6.638234543442529
 40
6.704036252154252
 40
6.73163050842303
 40
6.73163050842303
 40
6.73163050842303
 40
6.73163050842303
 10
191.9736010568668
 20
16.23463843719134
 10
191.9676006097788
 20
16.22480690542323
 10
191.9548344099157
 20
16.20388988579795
 10
191.7949362006554
 20
16.17127126532708
 10
192.2322025842336
 20
15.88206680336694
 10
192.4345394828262
 20
15.6804113835844
 10
192.6819564267973
 20
15.43749387603274
 10
193.1831513624606
 20
15.3604766275778
 10
193.0125562198971
 20
15.21876939174653
 10
192.9383299463201
 20
15.01710366209111
 10
192.6131432248188
 20
15.36956287174723
 10
192.3277741670664
 20
15.53175212559563
 10
192.0337604077657
 20
15.73687130053048
 10
191.8084452691135
 20
16.21827488595457
 10
191.5993085055522
 20
15.7534304660922
 10
191.3207873674835
 20
15.54350952252911
 10
191.0371383177209
 20
15.37424456359982
 10
190.7078639527832
 20
15.00142360907936
 10
190.6277012318224
 20
15.19708014458999
 10
190.4759724909745
 20
15.32491104190596
 10
190.9083395826795
 20
15.40454031765934
 10
191.0962565329766
 20
15.60026634915474
 10
191.3468477420502
 20
15.81632996916753
 10
191.5714350470162
 20
15.9819099230006
 10
191.6259775409712
 20
16.26133964636824
 10
191.7494661029012
 20
16.24737950408078
 10
191.806027334452
 20
16.24521268867647
 10
191.8761870984944
 20
16.24046859881359
 10
191.9333414022105
 20
16.23709429350541
 10
191.9644190320838
 20
16.23519854711119
 10
191.9736010568668
 20
16.23463843719134
 97
        1
330
AE
 75
     1
 76
     2
 52
45.0
 41
0.1
 77
     0
 78
     1
 53
45.0
 43
0.0
 44
0.0
 45
-0.282842712474619
 46
0.0
 79
     0
 98
        1
 10
0.0
 20
0.0
  0
HATCH
  5
CC
330
48
100
AcDbEntity
  8
1
  6
Continuous
 62
     2
100
AcDbHatch
 10
0.0
 20
0.0
 30
0.0
210
0.0
220
0.0
230
1.0
  2
CUSTOM10
 70
     0
 71
     1
 91
        1
 92
        1
 93
        1
 72
     4
 94
        3
 73
     0
 74
     0
 95
       91
 96
       87
 40
0.0
 40
0.0
 40
0.0
 40
0.0
 40
0.0267532254356701
 40
0.0856103386464102
 40
0.1444674521996621
 40
0.1712206856618514
 40
0.2039416005642536
 40
0.2955601971652484
 40
0.4362601844617202
 40
0.6162252844507534
 40
0.8256392189704982
 40
1.054685709844496
 40
1.29354847889356
 40
1.53241124793836
 40
1.761457738799625
 40
1.970871673298593
 40
2.150836773256789
 40
2.29153676049565
 40
2.383155356836785
 40
2.415876284101405
 40
2.44262951748805
 40
2.50148663094918
 40
2.560343744424327
 40
2.5870969778266
 40
2.617068194441027
 40
2.699247336756168
 40
2.82203264346651
 40
2.973822353258039
 40
3.143014704823481
 40
3.31800793688006
 40
3.487200288186922
 40
3.638989997548403
 40
3.761775303794958
 40
3.843954445753265
 40
3.87392566222996
 40
3.89081277350072
 40
3.907699884771925
 40
3.93796076785752
 40
3.980983618142497
 40
4.199085915228673
 40
4.439444339237477
 40
4.677588241261105
 40
5.05069831783799
 40
5.448212454763405
 40
5.855291218044987
 40
6.138575438885722
 40
6.417434507584553
 40
6.444551104394235
 40
6.504207617363534
 40
6.563864130314855
 40
6.590980727104448
 40
6.848609460381851
 40
7.10961199066883
 40
7.352910904446496
 40
7.557830220705839
 40
7.587518925913757
 40
7.652834077376128
 40
7.718149228846065
 40
7.74783793406232
 40
7.854880190301342
 40
7.976511257403883
 40
8.369487896592627
 40
8.757514959223949
 40
9.126072419331411
 40
9.46063938039253
 40
9.746695593036357
 40
9.777569943119099
 40
9.807050320932168
 40
9.83037733612929
 40
9.886003295436373
 40
9.952395569430267
 40
10.00802152870662
 40
10.03134854388254
 40
10.21356951009619
 40
10.4220347929291
 40
10.66154556731099
 40
10.91693789564339
 40
11.15832906556602
 40
11.1898267459666
 40
11.27286608520447
 40
11.39026653033394
 40
11.52484752840931
 40
11.65942852648496
 40
11.77682897161537
 40
11.85986831085734
 40
11.89136598230482
 40
11.89136598230482
 40
11.89136598230482
 40
11.89136598230482
 10
190.7027885008195
 20
14.70699600701772
 10
190.7028237765287
 20
14.71587847311985
 10
190.7029366710795
 20
14.74430237047346
 10
190.7012984568487
 20
14.79409639169803
 10
190.7069750292911
 20
14.83657564478154
 10
190.6956928731705
 20
14.88730154856847
 10
190.7632296979031
 20
14.87012900740109
 10
190.83880292107
 20
14.88290227165996
 10
190.9828357056
 20
14.87629729457382
 10
191.1569419185426
 20
14.87888462206466
 10
191.3639599611002
 20
14.87800591955552
 10
191.5894688172376
 20
14.87828207920027
 10
191.8251162293406
 20
14.87818339658663
 10
192.0607640531347
 20
14.87828184412767
 10
192.2862717580626
 20
14.87800678190789
 10
192.4932934632805
 20
14.87888186270735
 10
192.6673888915288
 20
14.87630522678446
 10
192.8114492071985
 20
14.88288290449213
 10
192.8869691915293
 20
14.87016243405604
 10
192.9545776037029
 20
14.88726400191686
 10
192.9430840140676
 20
14.83674785802941
 10
192.9505104581733
 20
14.79253252226501
 10
192.9428838927986
 20
14.7486796650361
 10
192.9546489459425
 20
14.69878374479327
 10
192.8930788491983
 20
14.71393227712512
 10
192.8256791738671
 20
14.70310665350673
 10
192.7013004056221
 20
14.70852031626236
 10
192.555442823657
 20
14.70649205390784
 10
192.3893576440086
 20
14.70715777578387
 10
192.2188412621724
 20
14.70689643521241
 10
192.0519790855388
 20
14.70721553391094
 10
191.9087346827105
 20
14.70635302590763
 10
191.7773313869832
 20
14.70863300482987
 10
191.7239859134655
 20
14.70407704374203
 10
191.6485188456911
 20
14.70999914992876
 10
191.6769075779231
 20
14.70094169343353
 10
191.7033652409543
 20
14.69725912268932
 10
191.6633522907701
 20
14.66654271968274
 10
191.5713663691869
 20
14.67667591174632
 10
191.5439396207069
 20
14.43032502247785
 10
191.4478793967234
 20
14.27499558764377
 10
191.1917277964473
 20
13.94525417931568
 10
191.7627537732763
 20
14.08430022210453
 10
192.0173656320516
 20
14.08291779973363
 10
192.6279647048618
 20
13.99790569242089
 10
192.3340698578083
 20
14.29685417558198
 10
192.0133304286517
 20
14.44330856901781
 10
192.1313543360434
 20
14.50025540818288
 10
192.1724716466261
 20
14.52420099873349
 10
192.2156812394411
 20
14.5459975881123
 10
192.317457409445
 20
14.60928721253903
 10
192.4328867625248
 20
14.3514715140878
 10
192.6329591642278
 20
14.21616041113683
 10
192.7269077387228
 20
14.03792795138884
 10
192.9558829746392
 20
13.87997821027047
 10
192.8596031846708
 20
13.829159725763
 10
192.816795976378
 20
13.79881292523051
 10
192.771824352878
 20
13.7746613028146
 10
192.7121720925214
 20
13.72552146747563
 10
192.6789731061324
 20
13.85997475673606
 10
192.5582013350796
 20
14.01594265286579
 10
192.1970976005978
 20
13.88569928059556
 10
191.8385061955541
 20
13.90224694409483
 10
191.4570920450079
 20
13.89331229351867
 10
191.1703455282892
 20
13.82882671672401
 10
190.8592055599711
 20
13.94230668192843
 10
190.8268737818788
 20
13.83122259927767
 10
190.7896178253318
 20
13.81196313850014
 10
190.7865737632754
 20
13.85874784087299
 10
190.7679892860607
 20
13.89806853919134
 10
190.7512436616779
 20
13.95765983478234
 10
190.7383730915754
 20
14.00201969871283
 10
190.7042327806429
 20
14.091063311202
 10
190.9482714457754
 20
14.02181042943769
 10
191.1441394486672
 20
14.00030369057741
 10
191.2395426381277
 20
14.28226484478463
 10
191.2945135769595
 20
14.44363045421125
 10
191.5159619357158
 20
14.71391177589738
 10
191.3849239381217
 20
14.70548446853735
 10
191.3110026555854
 20
14.70779008496969
 10
191.1977459876244
 20
14.70671378321658
 10
191.0694251807483
 20
14.7070763907651
 10
190.9404252030415
 20
14.70697724466085
 10
190.8287840946291
 20
14.70699932712572
 10
190.7514663970024
 20
14.7069957918967
 10
190.713287653201
 20
14.70699595845081
 10
190.7027885008195
 20
14.70699600701772
 97
        1
330
AF
 75
     1
 76
     2
 52
45.0
 41
0.1
 77
     0
 78
     1
 53
45.0
 43
0.0
 44
0.0
 45
-0.282842712474619
 46
0.0
 79
     0
 98
        1
 10
0.0
 20
0.0
  0
HATCH
  5
CD
330
48
100
AcDbEntity
  8
1
  6
Continuous
 62
     2
100
AcDbHatch
 10
0.0
 20
0.0
 30
0.0
210
0.0
220
0.0
230
1.0
  2
CUSTOM11
 70
     0
 71
     1
 91
        1
 92
        1
 93
        1
 72
     4
 94
        3
 73
     0
 74
     0
 95
      131
 96
      127
 40
0.0
 40
0.0
 40
0.0
 40
0.0
 40
0.019557702982603
 40
0.0426490537460327
 40
0.2863607575856061
 40
0.5344948436188874
 40
0.7842238845572603
 40
0.8737315789466789
 40
0.9803832810312517
 40
1.092842274516974
 40
1.199761146656734
 40
1.289788768186415
 40
1.351573580786064
 40
1.370727117561293
 40
1.416400936017672
 40
1.470914848355785
 40
1.516588666791546
 40
1.53574220355261
 40
1.634216592293007
 40
1.760283341174865
 40
1.897966686681948
 40
2.031216387368774
 40
2.049689751137768
 40
2.101115601646704
 40
2.179502577739822
 40
2.278859318313936
 40
2.393194462258593
 40
2.516516648383707
 40
2.642834515405836
 40
2.766156701983338
 40
2.880491846754452
 40
2.979848588358495
 40
3.058235565443672
 40
3.109661416668827
 40
3.128134780704002
 40
3.146783742386319
 40
3.19125434331518
 40
3.244332157315839
 40
3.288802758225742
 40
3.307451719894985
 40
3.327717853844598
 40
3.383747753579957
 40
3.468388665924349
 40
3.574487837698658
 40
3.694892515728764
 40
3.822449946851904
 40
3.950007377920295
 40
4.070412055800386
 40
4.176511227367943
 40
4.261152139501389
 40
4.317182039076583
 40
4.337448172964503
 40
4.620011002696141
 40
4.885096638397449
 40
4.945373043518217
 40
5.014107710488527
 40
5.070481727651984
 40
5.319246955636554
 40
5.584812164506068
 40
5.859000912056939
 40
6.133746937542088
 40
6.401732212968891
 40
6.420736683995481
 40
6.472845717451132
 40
6.550702743894059
 40
6.646951193874268
 40
6.754234497930592
 40
6.86519608658737
 40
6.972479390357829
 40
7.068727839771991
 40
7.146584865451
 40
7.198693898189229
 40
7.21769836890537
 40
7.234950401630846
 40
7.276089864269889
 40
7.325191803515996
 40
7.36633126609038
 40
7.38358329876973
 40
7.402779163492107
 40
7.453386443254538
 40
7.52493466644554
 40
7.606953361405879
 40
7.688972056429031
 40
7.760520279784282
 40
7.811127559734524
 40
7.830323424546145
 40
7.847844055299777
 40
7.894799345666816
 40
7.962779392744506
 40
8.043374293560557
 40
8.128174145149465
 40
8.208769044817267
 40
8.27674909037697
 40
8.323704379669536
 40
8.341225010056267
 40
8.358497614800415
 40
8.40167912668662
 40
8.457815092185678
 40
8.513951057728082
 40
8.557132569708038
 40
8.574405174505081
 40
8.602340668616442
 40
8.643455660539981
 40
8.663225271966649
 40
8.715345156564297
 40
8.789031889628635
 40
8.873502045520366
 40
8.957972194323991
 40
9.031658925567886
 40
9.083778811234577
 40
9.103548423003039
 40
9.119550083123576
 40
9.160817522379878
 40
9.217244429110243
 40
9.278724491644729
 40
9.335151398295514
 40
9.376418837357809
 40
9.392420497300597
 40
9.401196302734816
 40
9.417494229384289
 40
9.42627002774956
 40
9.440875075477592
 40
9.475702496998773
 40
9.517270709865935
 40
9.552098131994104
 40
9.566703169884311
 40
9.566703169884311
 40
9.566703169884311
 40
9.566703169884311
 10
194.6170254148479
 20
15.67015871511026
 10
194.6134345093371
 20
15.66453690702159
 10
194.6056039123624
 20
15.65227754419116
 10
194.5129968974551
 20
15.61601916040948
 10
194.4887622233246
 20
15.40148444212725
 10
194.3858709845938
 20
15.22197284509706
 10
194.1220492364305
 20
15.03615573798145
 10
194.284547156918
 20
14.9595933656608
 10
194.3607225760838
 20
14.89856693195444
 10
194.4492171072758
 20
14.83515804544759
 10
194.538993023311
 20
14.77525634219561
 10
194.5883817636046
 20
14.7210215484921
 10
194.674570815738
 20
14.69286240541832
 10
194.6411260674229
 20
14.65713309652813
 10
194.621467116631
 20
14.62550387991905
 10
194.5919888217882
 20
14.58475872796069
 10
194.5688989446032
 20
14.55504663489643
 10
194.5380205968358
 20
14.5021142266849
 10
194.472919336574
 20
14.62740334938902
 10
194.3796000122416
 20
14.68213900233933
 10
194.2950636285138
 20
14.73916423939342
 10
194.1722498125744
 20
14.89675287427523
 10
194.1764450847301
 20
14.82035806766836
 10
194.1751478652677
 20
14.77361280161296
 10
194.1758126448076
 20
14.695847858126
 10
194.1755549986957
 20
14.59902068324423
 10
194.1756431239921
 20
14.48650279078809
 10
194.1756077302282
 20
14.365240859457
 10
194.1756511758278
 20
14.24086897858961
 10
194.1755199942406
 20
14.11967683631337
 10
194.1759477562046
 20
14.00691148919743
 10
194.174667820231
 20
13.91082913768744
 10
194.1779759851044
 20
13.831138264687
 10
194.1715197740086
 20
13.78815175788784
 10
194.1806208705556
 20
13.74955432372043
 10
194.1447910339935
 20
13.7581088772407
 10
194.1115223815252
 20
13.75342519985446
 10
194.060456257604
 20
13.75351298759784
 10
194.0269723972813
 20
13.75794430283821
 10
193.9907585408754
 20
13.74960793842509
 10
194.0009782568665
 20
13.79145277179284
 10
193.9936487887773
 20
13.83778560820174
 10
193.9973633136102
 20
13.92374831106014
 10
193.9959480554896
 20
14.02605142704849
 10
193.9964105554638
 20
14.14453223931512
 10
193.996277368623
 20
14.26957683153356
 10
193.9963015910045
 20
14.39475828107051
 10
193.9963354925551
 20
14.51286645379058
 10
193.9962060293132
 20
14.61628748709516
 10
193.9965507549081
 20
14.69932036153668
 10
193.995869827869
 20
14.75143368521243
 10
193.9994586600622
 20
14.87912907821363
 10
193.7826171386437
 20
14.5804871681962
 10
193.602135492195
 20
14.35263981511511
 10
193.5490322295611
 20
14.49373443289815
 10
193.5200429133149
 20
14.54325767560946
 10
193.4196648062817
 20
14.64641779790101
 10
193.7405127723261
 20
14.72695035023782
 10
193.8689897005429
 20
14.91066283036434
 10
194.0906454325359
 20
15.1193199577176
 10
194.1770224894069
 20
15.29339211228348
 10
194.4549394229073
 20
15.56967051342512
 10
194.3346247839284
 20
15.56534559551115
 10
194.2863197351348
 20
15.56614856202553
 10
194.2102377454905
 20
15.56574582146585
 10
194.116701000975
 20
15.56590275611611
 10
194.0117594788557
 20
15.56582502576224
 10
193.9033887738717
 20
15.56595464378556
 10
193.7981454235897
 20
15.56554393490692
 10
193.7056237819412
 20
15.56682073671592
 10
193.6268130800707
 20
15.5634076653485
 10
193.5839674565379
 20
15.57023350036321
 10
193.5449499586516
 20
15.56065064201124
 10
193.5526365271863
 20
15.59420779565543
 10
193.5485464404312
 20
15.62523550322234
 10
193.5485531368814
 20
15.672365292709
 10
193.5526239724911
 20
15.70340941646779
 10
193.5449495574582
 20
15.73701861635901
 10
193.5834819405495
 20
15.72748410420872
 10
193.624122801448
 20
15.73397435498071
 10
193.6951471850463
 20
15.73100150650254
 10
193.7729318149633
 20
15.73174761399158
 10
193.8507292246474
 20
15.73247814044525
 10
193.9217232089907
 20
15.7295423551416
 10
193.962427979182
 20
15.73595468772952
 10
194.0009853489909
 20
15.72650524176004
 10
193.9927342754928
 20
15.76264692158785
 10
193.9982346669358
 20
15.80129837613226
 10
193.9955754206163
 20
15.86913528561839
 10
193.9965815471532
 20
15.9459164153874
 10
193.9960178018319
 20
16.02849393582757
 10
193.9970714526593
 20
16.10517329229879
 10
193.994267586313
 20
16.173319907767
 10
194.0000702721302
 20
16.21132399809347
 10
193.9915654551159
 20
16.24758448077647
 10
194.0255610233125
 20
16.23755723771853
 10
194.0594575683099
 20
16.24073266813707
 10
194.1126669060346
 20
16.2350896564061
 10
194.1660768574483
 20
16.23434774436425
 10
194.199591464949
 20
16.2281922348298
 10
194.2388086183039
 20
16.23346029773593
 10
194.2120263698492
 20
16.19253380793489
 10
194.1708111001723
 20
16.20371204538111
 10
194.1782641540874
 20
16.15867056192126
 10
194.1742227952184
 20
16.11412278028145
 10
194.176171404964
 20
16.04223572621704
 10
194.1752364849758
 20
15.96168630588771
 10
194.176510719003
 20
15.88173995404995
 10
194.1732043793863
 20
15.80841837083183
 10
194.1802106179961
 20
15.76688643002568
 10
194.1701440380126
 20
15.72752418568113
 10
194.2029814803921
 20
15.73468063430981
 10
194.236457729648
 20
15.73027243137945
 10
194.2915053476019
 20
15.73217943347897
 10
194.3489502595314
 20
15.73185366407288
 10
194.4023026248309
 20
15.73106308733082
 10
194.4398540896638
 20
15.73313959118073
 10
194.4623172523237
 20
15.7302233816711
 10
194.4751678073731
 20
15.73572552644055
 10
194.4858255685889
 20
15.7380111819779
 10
194.4986635650143
 20
15.74494972588051
 10
194.5145991033071
 20
15.72853046313671
 10
194.5410623920892
 20
15.71709122319447
 10
194.5726805253758
 20
15.6964468783519
 10
194.5987255892151
 20
15.68116869628293
 10
194.6128517723973
 20
15.67266976323182
 10
194.6170254148479
 20
15.67015871511026
 97
        1
330
B0
 75
     1
 76
     2
 52
45.0
 41
0.1
 77
     0
 78
     1
 53
45.0
 43
0.0
 44
0.0
 45
-0.282842712474619
 46
0.0
 79
     0
 98
        1
 10
0.0
 20
0.0
  0
HATCH
  5
CE
330
48
100
AcDbEntity
  8
1
  6
Continuous
 62
     2
100
AcDbHatch
 10
0.0
 20
0.0
 30
0.0
210
0.0
220
0.0
230
1.0
  2
CUSTOM12
 70
     0
 71
     1
 91
        1
 92
        1
 93
        1
 72
     4
 94
        3
 73
     0
 74
     0
 95
      124
 96
      120
 40
0.0
 40
0.0
 40
0.0
 40
0.0
 40
0.027818722962451
 40
0.1011590162384269
 40
0.2048470170590239
 40
0.3237088716559245
 40
0.4425707262522
 40
0.5462587270699547
 40
0.6195990203311798
 40
0.647417752257866
 40
0.6750060736115224
 40
0.7357003855242741
 40
0.7963946998054474
 40
0.8239830245571766
 40
0.854093381110286
 40
0.937339662940954
 40
1.063094687343235
 40
1.220731268638102
 40
1.399622220914776
 40
1.589140358637817
 40
1.778658496423955
 40
1.957549448940622
 40
2.115186030873244
 40
2.240941056914548
 40
2.324187341760646
 40
2.354297700109496
 40
2.381886024672004
 40
2.442580338710591
 40
2.503274652750613
 40
2.53086297731472
 40
2.560983949278673
 40
2.640393784453047
 40
2.75266286175927
 40
2.881361560118315
 40
3.010060258455362
 40
3.122329335705538
 40
3.20173917081818
 40
3.231860142753541
 40
3.264298024030599
 40
3.352343701778469
 40
3.482095226868993
 40
3.639650650173258
 40
3.811108022565716
 40
3.982565394928225
 40
4.140120818152808
 40
4.269872343141521
 40
4.357918020802583
 40
4.390355902044212
 40
4.423256253992782
 40
4.508104530073303
 40
4.624121560637071
 40
4.750528176031827
 40
4.866545206602274
 40
4.951393482692231
 40
4.984293834645633
 40
5.011450833242544
 40
5.071196230152323
 40
5.130941627057394
 40
5.158098625649056
 40
5.190998977601747
 40
5.275847253689572
 40
5.391864284257006
 40
5.518270899648551
 40
5.634287930209591
 40
5.719136206288264
 40
5.752036558236152
 40
5.782130946283178
 40
5.862783906229352
 40
5.979550131775221
 40
6.117984316640629
 40
6.263641154588176
 40
6.402075339414384
 40
6.518841564908178
 40
6.599494524815763
 40
6.629588912849001
 40
6.654403028226578
 40
6.713575149488345
 40
6.784199939329663
 40
6.843372060493765
 40
6.868186175803011
 40
6.896246243202051
 40
6.939586233758502
 40
6.96784656456513
 40
7.043584251090071
 40
7.153234334451928
 40
7.283231855734679
 40
7.420011856035715
 40
7.550009376580067
 40
7.659659458835471
 40
7.735397144417465
 40
7.763657474851636
 40
7.796409728011294
 40
7.880876065096568
 40
7.996370852465954
 40
8.122208446418849
 40
8.237703224799443
 40
8.322169562011137
 40
8.35492181520615
 40
8.382078813307928
 40
8.441824209207228
 40
8.50156960524037
 40
8.528726603485946
 40
8.561478856695995
 40
8.645945193878045
 40
8.761439980865557
 40
8.8872775807647
 40
9.00277236200122
 40
9.08723869666144
 40
9.119990949235895
 40
9.152428830613594
 40
9.24047450863881
 40
9.370226034149766
 40
9.52778145798465
 40
9.69923883098164
 40
9.870696203978834
 40
10.02825162781426
 40
10.15800315332588
 40
10.24604883135143
 40
10.27848670378545
 40
10.27848670378545
 40
10.27848670378545
 40
10.27848670378545
 10
195.3821827564383
 20
14.01410517385756
 10
195.3914554737523
 20
14.01410498511273
 10
195.4251744536861
 20
14.01410430876713
 10
195.4934706812465
 20
14.01411807243304
 10
195.592014171158
 20
14.01403224219544
 10
195.7062066464812
 20
14.01441755612249
 10
195.818589441707
 20
14.01300835897544
 10
195.9214376600118
 20
14.01719117422242
 10
195.9806839874849
 20
14.00823089251982
 10
196.0371265937033
 20
14.0216443452606
 10
196.0246255586955
 20
13.97087198613361
 10
196.0329549635703
 20
13.92589320939065
 10
196.024817084112
 20
13.88056752990487
 10
196.0370529214457
 20
13.82931932408465
 10
195.9747773490333
 20
13.84447955365275
 10
195.9060513026868
 20
13.83359750710742
 10
195.7782756749591
 20
13.83911304747971
 10
195.6262984511644
 20
13.83700851253698
 10
195.4502695972521
 20
13.83771002588472
 10
195.2644431934287
 20
13.83745237531291
 10
195.0786167437174
 20
13.83771005144602
 10
194.9025880142167
 20
13.83700841847729
 10
194.7506104154194
 20
13.83911332229988
 10
194.6228357664554
 20
13.83359680767639
 10
194.554107783658
 20
13.84448077125942
 10
194.4918349042882
 20
13.82931786684208
 10
194.5040616290017
 20
13.88057510805171
 10
194.4960004462595
 20
13.92582473272424
 10
194.5040675809891
 20
13.97106357955322
 10
194.4918238487082
 20
14.02234176909957
 10
194.5525017120697
 20
14.00749577363134
 10
194.6162810745735
 20
14.01756448170734
 10
194.7277314353502
 20
14.01294644211998
 10
194.8497533443823
 20
14.01413328905467
 10
194.9719538137823
 20
14.01515863900633
 10
195.0829794287392
 20
14.010924756234
 10
195.1476517413958
 20
14.02018584521738
 10
195.2091162810501
 20
14.00604423049682
 10
195.1930065601337
 20
14.07235527884516
 10
195.2042980327358
 20
14.14447790121974
 10
195.1987400822561
 20
14.27513760888285
 10
195.2008035061691
 20
14.42607323708241
 10
195.2000167127295
 20
14.59335873107886
 10
195.2007845215627
 20
14.76061110332303
 10
195.1988038785628
 20
14.91163289269915
 10
195.2041306156621
 20
15.04206069552995
 10
195.1933101388425
 20
15.114654426059
 10
195.2090326429875
 20
15.18150469436799
 10
195.143270813249
 20
15.16580512490825
 10
195.0756367830764
 20
15.17609243083996
 10
194.9615885293809
 20
15.17113786847123
 10
194.8451242674902
 20
15.17414128030475
 10
194.7306554121477
 20
15.16880303143389
 10
194.6640324657812
 20
15.18001268074826
 10
194.5990769715186
 20
15.16349132665012
 10
194.6107989758707
 20
15.21473720477059
 10
194.6032830189122
 20
15.25950333784091
 10
194.6107989878835
 20
15.3042694489796
 10
194.5990769505347
 20
15.3555153612974
 10
194.66403263392
 20
15.33899381766814
 10
194.7306533339822
 20
15.35020571373943
 10
194.8451352858063
 20
15.34485436710663
 10
194.9615454436962
 20
15.34791188771116
 10
195.0757660174641
 20
15.34278499010707
 10
195.1430150439227
 20
15.35345733355597
 10
195.2083325941438
 20
15.33742082669076
 10
195.1941391448553
 20
15.39949685750052
 10
195.2036059462994
 20
15.46586761628762
 10
195.1990269004085
 20
15.58239972741965
 10
195.2007696555948
 20
15.71426685022375
 10
195.1997551495392
 20
15.85615960150273
 10
195.2017191344372
 20
15.9876905070258
 10
195.1964668553851
 20
16.10524577283001
 10
195.2073408763475
 20
16.16947789001584
 10
195.1919536641853
 20
16.23108802545047
 10
195.24075915378
 20
16.21702407382111
 10
195.2853995564726
 20
16.21954742075313
 10
195.3538643946742
 20
16.21512797401709
 10
195.3959106169103
 20
16.20613025544034
 10
195.4487544758775
 20
16.2141171486651
 10
195.4207035002014
 20
16.1711391761167
 10
195.3749142248594
 20
16.18259552043839
 10
195.3869539073265
 20
16.12173520005137
 10
195.379608607064
 20
16.05769299468772
 10
195.3831195826162
 20
15.94909368863911
 10
195.3819806760173
 20
15.82494319144753
 10
195.3819174780263
 20
15.69189719829877
 10
195.3832872966869
 20
15.56797381249555
 10
195.3791638801313
 20
15.45868337849337
 10
195.3877763103564
 20
15.39608580094169
 10
195.3746757454402
 20
15.33740133296364
 10
195.4393884328198
 20
15.35362113810901
 10
195.5060405953156
 20
15.34270260383311
 10
195.6198779541103
 20
15.34793740173755
 10
195.7357259122097
 20
15.34485547516912
 10
195.849692426328
 20
15.35018259812512
 10
195.9160341018099
 20
15.33904208166541
 10
195.980718852548
 20
15.35546979593177
 10
195.9689820772722
 20
15.30425925210049
 10
195.9765168063041
 20
15.25950334121001
 10
195.9689820992257
 20
15.21474739010027
 10
195.9807188140736
 20
15.16353690871041
 10
195.9160344075252
 20
15.1799642779422
 10
195.8496886430824
 20
15.1688278444727
 10
195.7357459487012
 20
15.17413115893121
 10
195.6197995623054
 20
15.17114764593544
 10
195.5062756882122
 20
15.17606892268395
 10
195.4389231318804
 20
15.1658508751352
 10
195.3734285122495
 20
15.18145996138816
 10
195.3891713619218
 20
15.11463851827411
 10
195.3783275998213
 20
15.04207057815879
 10
195.3836581629792
 20
14.91162247614416
 10
195.3817136151855
 20
14.76064558185226
 10
195.3823133683214
 20
14.59322243934158
 10
195.3821506559604
 20
14.42656176118371
 10
195.3821895488136
 20
14.27360142921636
 10
195.3821816413098
 20
14.14849178985704
 10
195.3821828382746
 20
14.06507890991419
 10
195.3821827716207
 20
14.02491778281975
 10
195.3821827564383
 20
14.01410517385756
 97
        1
330
B1
 75
     1
 76
     2
 52
45.0
 41
0.1
 77
     0
 78
     1
 53
45.0
 43
0.0
 44
0.0
 45
-0.282842712474619
 46
0.0
 79
     0
 98
        1
 10
0.0
 20
0.0
  0
HATCH
  5
CF
330
48
100
AcDbEntity
  8
1
  6
Continuous
 62
     2
100
AcDbHatch
 10
0.0
 20
0.0
 30
0.0
210
0.0
220
0.0
230
1.0
  2
CUSTOM13
 70
     0
 71
     1
 91
        1
 92
        1
 93
        3
 72
     4
 94
        3
 73
     0
 74
     0
 95
       24
 96
       20
 40
0.0
 40
0.0
 40
0.0
 40
0.0
 40
0.2211075008753499
 40
0.4273218586245486
 40
0.5080174679238665
 40
0.5914835907869538
 40
0.8143265690192117
 40
1.054651302686528
 40
1.295452694023114
 40
1.518109231328768
 40
1.540864321905411
 40
1.595126460622672
 40
1.659890947896013
 40
1.714153085187399
 40
1.7369081749617
 40
1.764951100735422
 40
1.80156229122104
 40
1.95391442454372
 40
2.126104167379796
 40
2.126104167379796
 40
2.126104167379796
 40
2.126104167379796
 10
185.9375369556888
 20
15.58989295113017
 10
185.9112579081811
 20
15.53097628234374
 10
185.8604698894428
 20
15.41711139679252
 10
185.813178483911
 20
15.14441958233115
 10
185.7043482802618
 20
15.24445482575455
 10
185.5514800279637
 20
15.27118593367329
 10
185.7686155181199
 20
15.48518135017632
 10
185.7838483674381
 20
15.70332117782486
 10
185.8906889492
 20
15.88451579066427
 10
185.8305380947078
 20
16.16913226311401
 10
185.9334317395402
 20
16.14114089222451
 10
185.977993346815
 20
16.13243251602299
 10
186.0380842395397
 20
16.12139654183355
 10
186.0756619587439
 20
16.1076752305556
 10
186.1252466928607
 20
16.10756076160222
 10
186.0930158919325
 20
16.07306592398624
 10
186.0171802221881
 20
16.08404104537964
 10
186.0429447159694
 20
15.8985896958245
 10
186.0055896763849
 20
15.80702313549589
 10
185.9857704961609
 20
15.75844135397705
 72
     4
 94
        3
 73
     0
 74
     0
 95
       70
 96
       66
 40
0.0
 40
0.0
 40
0.0
 40
0.0
 40
0.0241731073021188
 40
0.0846058988987013
 40
0.1631685280352715
 40
0.2417311571788903
 40
0.3021639488291614
 40
0.3263370654894688
 40
0.3533118254248028
 40
0.4228783438921259
 40
0.517999909531255
 40
0.621639823946525
 40
0.7167613891498853
 40
0.7863279069649011
 40
0.8133026791760983
 40
0.8372943998771104
 40
0.8945054261372299
 40
0.9627895541962352
 40
1.020000580349045
 40
1.043992300975172
 40
1.071934345522917
 40
1.113121768772899
 40
1.145225199332224
 40
1.225483775412762
 40
1.329819923771474
 40
1.434156071994364
 40
1.514414647795789
 40
1.546518078208397
 40
1.578974764260171
 40
1.662678849314166
 40
1.777131373668386
 40
1.901833377474777
 40
2.016285900500567
 40
2.099989982527934
 40
2.132446666570293
 40
2.158782354486015
 40
2.216720867907805
 40
2.274659381334228
 40
2.300995069256162
 40
2.333451754066135
 40
2.417155836543815
 40
2.531608358985255
 40
2.65631036228375
 40
2.770762886388882
 40
2.854466971340047
 40
2.886923657363854
 40
2.913597976833288
 40
2.98238964287509
 40
3.076451716946953
 40
3.178937260458565
 40
3.272999334739966
 40
3.341791001059186
 40
3.368465320663498
 40
3.396976080738748
 40
3.472140811845984
 40
3.578408190308674
 40
3.700226892456139
 40
3.822045594634384
 40
3.928312973256519
 40
4.003477705314917
 40
4.031988456866983
 40
4.058324144797781
 40
4.116262658236942
 40
4.174201171400742
 40
4.200536849608674
 40
4.200536849608674
 40
4.200536849608674
 40
4.200536849608674
 10
185.9857704961609
 20
15.75844135397705
 10
185.9938259544679
 20
15.75844359811687
 10
186.0220200663241
 20
15.75845146032798
 10
186.0765534803672
 20
15.75830754828371
 10
186.1482891808603
 20
15.75909120499898
 10
186.2236240137062
 20
15.75627570463811
 10
186.2713052366438
 20
15.76298403400957
 10
186.3195071245615
 20
15.75197563692431
 10
186.3062571799873
 20
15.80546402997033
 10
186.3151093964537
 20
15.86049583543092
 10
186.3108698036285
 20
15.95419908726109
 10
186.3133483481278
 20
16.04959482218532
 10
186.3090938706059
 20
16.14356821983387
 10
186.3179818665846
 20
16.19795062438013
 10
186.3046977409944
 20
16.25233997691461
 10
186.3514119277108
 20
16.23842216335357
 10
186.3943254545736
 20
16.24103877374043
 10
186.4605443456684
 20
16.23648422450755
 10
186.5013342271798
 20
16.22778162134161
 10
186.5525145690819
 20
16.23531799890196
 10
186.52537204872
 20
16.19349970223287
 10
186.4803096055707
 20
16.20284992072596
 10
186.4942065045051
 20
16.13841207371837
 10
186.4858414431654
 20
16.073782196274
 10
186.4903632178398
 20
15.97529141193888
 10
186.4854741311167
 20
15.87595932842571
 10
186.4950258992081
 20
15.81293115552969
 10
186.4799761455201
 20
15.74964011499789
 10
186.5449159457208
 20
15.76515072944269
 10
186.6116246399497
 20
15.75499387697812
 10
186.7241435470827
 20
15.75988800099367
 10
186.8390235448954
 20
15.75691204732784
 10
186.9519871999747
 20
15.76221664184991
 10
187.0176267597677
 20
15.75107306472089
 10
187.0816276691053
 20
15.76744532319857
 10
187.0703142889189
 20
15.71761689905274
 10
187.077533987151
 20
15.67416715212123
 10
187.0703142611268
 20
15.63071745587445
 10
187.0816277175994
 20
15.58088895196876
 10
187.0176263598971
 20
15.59726166091362
 10
186.951992124046
 20
15.58611271661588
 10
186.838997431733
 20
15.59144857206854
 10
186.7242456548644
 20
15.58834345663822
 10
186.611318368686
 20
15.59364894682588
 10
186.5455220903585
 20
15.58257300019594
 10
186.4816097975358
 20
15.59887597847617
 10
186.4936015165126
 20
15.54423524395742
 10
186.4862104613006
 20
15.48854295047842
 10
186.4892684841982
 20
15.3964968914057
 10
186.4893422785684
 20
15.30179109873102
 10
186.4860313578359
 20
15.20952782902265
 10
186.4939505989904
 20
15.15435768736141
 10
186.4815076611617
 20
15.10058169100136
 10
186.5389116551632
 20
15.11453768862782
 10
186.5994708140383
 20
15.10511457884227
 10
186.7048680855081
 20
15.10942885928705
 10
186.8204294070623
 20
15.10835504612032
 10
186.9359688877798
 20
15.10725965900995
 10
187.0414181130842
 20
15.11162525770633
 10
187.1018680471805
 20
15.10209426030672
 10
187.1592837739111
 20
15.11617289606381
 10
187.147777387671
 20
15.06707153265683
 10
187.153756678175
 20
15.0256465801865
 10
187.1520311050804
 20
14.97651677966696
 10
187.1521500122972
 20
14.94854428447609
 10
187.1521871691834
 20
14.93980288195951
 72
     4
 94
        3
 73
     0
 74
     0
 95
       62
 96
       58
 40
0.0
 40
0.0
 40
0.0
 40
0.0
 40
0.0598250028308769
 40
0.2024846486897616
 40
0.3727558389220746
 40
0.515415484793607
 40
0.5752404975785339
 40
0.9332326775487019
 40
1.290451762839453
 40
1.602077253145813
 40
1.699931634112047
 40
1.799359756424975
 40
2.27012014965701
 40
2.804661928461459
 40
2.882342287383168
 40
3.076543185719018
 40
3.329004354835478
 40
3.581465524568304
 40
3.775666424543584
 40
3.853346784558204
 40
3.899120679594978
 40
3.984129341792004
 40
4.029903236817381
 40
4.105797496059537
 40
4.295533144152499
 40
4.542189486611743
 40
4.788845828875695
 40
4.97858147641008
 40
5.054475735244324
 40
5.621734664339315
 40
6.130867242037302
 40
6.225249780948507
 40
6.318913039727162
 40
6.663579954558695
 40
7.047498900224541
 40
7.435230791575482
 40
7.498943906667894
 40
7.650875181209888
 40
7.832212509001399
 40
7.984143783696784
 40
8.04785689890291
 40
8.091554632732416
 40
8.172707566964073
 40
8.216405300767796
 40
8.289021782160653
 40
8.46218416075697
 40
8.668861838005135
 40
8.842024215263642
 40
8.914640695474837
 40
8.989881580861043
 40
9.155411528826946
 40
9.320941477743727
 40
9.396182352486976
 40
9.454709011143494
 40
9.583467660170486
 40
9.712226309012708
 40
9.77075295798919
 40
9.77075295798919
 40
9.77075295798919
 40
9.77075295798919
 10
187.1521871691834
 20
14.93980288195951
 10
187.1322348171624
 20
14.93980875568672
 10
187.0647037716466
 20
14.93982863806158
 10
186.9410612161789
 20
14.93949362520326
 10
186.7863180150057
 20
14.94107673750513
 10
186.6697349482481
 20
14.93686078860496
 10
186.4550942634242
 20
14.95215205331628
 10
186.8518948407229
 20
14.5919872128619
 10
186.8945656069268
 20
14.37510503397168
 10
187.318916214661
 20
14.19325062511448
 10
187.1439821496074
 20
14.0898519656807
 10
187.0194523925083
 20
13.87831523212728
 10
186.7666277235943
 20
14.34806081001561
 10
186.4797602893628
 20
14.99511516984521
 10
186.4906335926659
 20
14.68782672154693
 10
186.488289277796
 20
14.52288616971778
 10
186.4861096126411
 20
14.28879670711693
 10
186.4980774396346
 20
14.04498072421783
 10
186.4687984740631
 20
13.89855796860984
 10
186.5114522625469
 20
13.75113490174537
 10
186.4239814005639
 20
13.76685797306221
 10
186.3768527606744
 20
13.76694303543455
 10
186.2898973207712
 20
13.75109425482908
 10
186.3313474021722
 20
13.89527771422762
 10
186.3029875004284
 20
14.03855052698456
 10
186.3145973775299
 20
14.27674947365265
 10
186.3124175648271
 20
14.50517235240347
 10
186.3103111127993
 20
14.66705729375995
 10
186.3208035438323
 20
14.98153709333752
 10
186.0128963252893
 20
14.29229470872437
 10
185.7055258267455
 20
13.81476750243052
 10
185.5851367066275
 20
14.03741112637427
 10
185.4074607910723
 20
14.15011034955569
 10
185.8853326362894
 20
14.32548143465464
 10
185.9353959057208
 20
14.56091929252031
 10
186.3583799621715
 20
14.95322989344607
 10
186.1276754273541
 20
14.93655307029067
 10
186.004968585934
 20
14.94269518948772
 10
185.8325483095661
 20
14.93312822699575
 10
185.7213224694448
 20
14.95448818489666
 10
185.6025779627448
 20
14.92136265357421
 10
185.6183169706685
 20
15.00203900606884
 10
185.6178550933762
 20
15.04645414290854
 10
185.6027881889931
 20
15.12967081778534
 10
185.7372380935443
 20
15.09062651983884
 10
185.8619755545746
 20
15.11739729328423
 10
186.0628755237279
 20
15.10063949044053
 10
186.1921540949353
 20
15.12204225913004
 10
186.3328419928293
 20
15.08868778853421
 10
186.2980927452614
 20
15.22651875785069
 10
186.3222185666711
 20
15.34963257349482
 10
186.2967086182392
 20
15.47024055670336
 10
186.3333251146684
 20
15.60539865141494
 10
186.2211417027769
 20
15.58094545781891
 10
186.1280356457135
 20
15.59307749842022
 10
186.0191547579819
 20
15.58957630069994
 10
185.9569697640963
 20
15.58981755951602
 10
185.9375369557245
 20
15.58989295124144
 97
        3
330
B3
330
B4
330
B2
 75
     1
 76
     2
 52
45.0
 41
0.1
 77
     0
 78
     1
 53
45.0
 43
0.0
 44
0.0
 45
-0.282842712474619
 46
0.0
 79
     0
 98
        1
 10
0.0
 20
0.0
  0
HATCH
  5
D0
330
48
100
AcDbEntity
  8
1
  6
Continuous
 62
     2
100
AcDbHatch
 10
0.0
 20
0.0
 30
0.0
210
0.0
220
0.0
230
1.0
  2
CUSTOM14
 70
     0
 71
     1
 91
        1
 92
        1
 93
        4
 72
     1
 10
192.4578138032672
 20
15.22875434022058
 11
191.1602971697031
 21
15.22875434022058
 72
     1
 10
191.1602971697031
 20
15.22875434022058
 11
191.1602971697031
 21
15.39722336795626
 72
     1
 10
191.1602971697031
 20
15.39722336795626
 11
192.4578138032672
 21
15.39722336795626
 72
     1
 10
192.4578138032672
 20
15.39722336795626
 11
192.4578138032672
 21
15.22875434022058
 97
        1
330
B5
 75
     1
 76
     2
 52
45.0
 41
0.1
 77
     0
 78
     1
 53
45.0
 43
0.0
 44
0.0
 45
-0.282842712474619
 46
0.0
 79
     0
 98
        1
 10
0.0
 20
0.0
  0
ENDBLK
  5
4A
330
48
100
AcDbEntity
  8
0
100
AcDbBlockEnd
  0
BLOCK
  5
4D
330
4B
100
AcDbEntity
  8
0
100
AcDbBlockBegin
  2
開示A4枠
 70
     0
 10
0.0
 20
0.0
 30
0.0
  3
開示A4枠
  1

  0
INSERT
  5
4C
330
4B
100
AcDbEntity
  8
1
100
AcDbBlockReference
  2
開示A4
 10
0.0
 20
0.0
 30
0.0
  0
ENDBLK
  5
4E
330
4B
100
AcDbEntity
  8
0
100
AcDbBlockEnd
  0
BLOCK
  5
50
330
4F
100
AcDbEntity
  8
0
100
AcDbBlockBegin
  2
T29-0-13X15
 70
     0
 10
240.0963038270983
 20
153.0195560615432
 30
0.0
  3
T29-0-13X15
  1

  0
LINE
  5
D1
330
4F
100
AcDbEntity
  8
1
  6
Continuous
 62
     7
100
AcDbLine
 10
52.59392452409706
 20
136.9481511428022
 30
0.0
 11
82.59392452409705
 21
136.9481511428022
 31
0.0
  0
LINE
  5
D2
330
4F
100
AcDbEntity
  8
1
  6
Continuous
 62
     7
100
AcDbLine
 10
73.53343726760076
 20
92.1981511428022
 30
0.0
 11
91.65441178059325
 21
92.1981511428022
 31
0.0
  0
LINE
  5
D3
330
4F
100
AcDbEntity
  8
1
  6
Continuous
 62
     7
100
AcDbLine
 10
70.35828814077314
 20
108.6981511428022
 30
0.0
 11
78.35828814077314
 21
108.6981511428022
 31
0.0
  0
LINE
  5
D4
330
4F
100
AcDbEntity
  8
1
  6
Continuous
 62
     7
100
AcDbLine
 10
93.56543827166075
 20
113.6981511428022
 30
0.0
 11
85.56543827166075
 21
113.6981511428022
 31
0.0
  0
LINE
  5
D5
330
4F
100
AcDbEntity
  8
1
  6
Continuous
 62
     7
100
AcDbLine
 10
56.62241077653335
 20
117.1981511428022
 30
0.0
 11
64.62241077653334
 21
117.1981511428022
 31
0.0
  0
LINE
  5
D6
330
4F
100
AcDbEntity
  8
1
  6
Continuous
 62
     7
100
AcDbLine
 10
79.82956090742096
 20
122.1981511428022
 30
0.0
 11
71.82956090742104
 21
122.1981511428022
 31
0.0
  0
LINE
  5
D7
330
4F
100
AcDbEntity
  8
1
  6
Continuous
 62
     7
100
AcDbLine
 10
52.99392452409703
 20
133.1577429370287
 30
0.0
 11
82.19392452409704
 21
133.1577429370288
 31
0.0
  0
LINE
  5
D8
330
4F
100
AcDbEntity
  8
1
  6
Continuous
 62
     7
100
AcDbLine
 10
52.84392452409706
 20
137.1981511428022
 30
0.0
 11
82.34392452409705
 21
137.1981511428022
 31
0.0
  0
LINE
  5
D9
330
4F
100
AcDbEntity
  8
1
  6
Continuous
 62
     7
100
AcDbLine
 10
69.59392452409705
 20
106.1981511428022
 30
0.0
 11
95.59392452409705
 21
106.1981511428022
 31
0.0
  0
LINE
  5
DA
330
4F
100
AcDbEntity
  8
1
  6
Continuous
 62
     7
100
AcDbLine
 10
71.98155765491086
 20
104.0337072724932
 30
0.0
 11
93.20629139328335
 21
104.0337072724933
 31
0.0
  0
LINE
  5
DB
330
4F
100
AcDbEntity
  8
1
  6
Continuous
 62
     2
100
AcDbLine
 10
73.49649792166664
 20
93.38015114280199
 30
0.0
 11
73.16355765491156
 21
104.0337072724932
 31
0.0
  0
LINE
  5
DC
330
4F
100
AcDbEntity
  8
1
  6
Continuous
 62
     7
100
AcDbLine
 10
72.31449792166595
 20
93.38015114280199
 30
0.0
 11
92.87454277980285
 21
93.38015114280199
 31
0.0
  0
LINE
  5
DD
330
4F
100
AcDbEntity
  8
1
  6
Continuous
 62
     7
100
AcDbLine
 10
69.59392452409705
 20
107.53269252286
 30
0.0
 11
69.59392452409705
 21
106.1981511428022
 31
0.0
  0
LINE
  5
DE
330
4F
100
AcDbEntity
  8
1
  6
Continuous
 62
     7
100
AcDbLine
 10
81.60789938013525
 20
121.6235653910472
 30
0.0
 11
94.07296224003966
 21
114.5600297704347
 31
0.0
  0
LINE
  5
DF
330
4F
100
AcDbEntity
  8
1
  6
Continuous
 62
     7
100
AcDbLine
 10
56.11488680815446
 20
116.3362725151697
 30
0.0
 11
68.57994966805884
 21
109.2727368945572
 31
0.0
  0
LINE
  5
E0
330
4F
100
AcDbEntity
  8
1
  6
Continuous
 62
     7
100
AcDbLine
 10
71.98155765491086
 20
104.0337072724932
 30
0.0
 11
71.91391540374275
 21
106.1981511428022
 31
0.0
  0
LINE
  5
E1
330
4F
100
AcDbEntity
  8
1
  6
Continuous
 62
     2
100
AcDbLine
 10
71.91391540374275
 20
106.1981511428022
 30
0.0
 11
73.16355765491156
 21
104.0337072724932
 31
0.0
  0
LINE
  5
E2
330
4F
100
AcDbEntity
  8
1
  6
Continuous
 62
     7
100
AcDbLine
 10
71.94016671557446
 20
105.3581511428021
 30
0.0
 11
71.94016671557446
 21
105.3581511427966
 31
0.0
  0
LINE
  5
E3
330
4F
100
AcDbEntity
  8
1
  6
Continuous
 62
     7
100
AcDbLine
 10
71.94016671557446
 20
105.3581511428021
 30
0.0
 11
71.94016671557446
 21
105.3581511427966
 31
0.0
  0
LINE
  5
E4
330
4F
100
AcDbEntity
  8
1
  6
Continuous
 62
     7
100
AcDbLine
 10
72.31449792166595
 20
93.38015114280199
 30
0.0
 11
73.53343726760076
 21
92.1981511428022
 31
0.0
  0
LINE
  5
E5
330
4F
100
AcDbEntity
  8
1
  6
Continuous
 62
     2
100
AcDbLine
 10
73.53343726760076
 20
92.1981511428022
 30
0.0
 11
73.49649792166664
 21
93.38015114280199
 31
0.0
  0
LINE
  5
E6
330
4F
100
AcDbEntity
  8
1
  6
Continuous
 62
     7
100
AcDbLine
 10
71.94016671557446
 20
105.3581511427966
 30
0.0
 11
71.94016671557446
 21
105.3581511428021
 31
0.0
  0
LINE
  5
E7
330
4F
100
AcDbEntity
  8
1
  6
Continuous
 62
     7
100
AcDbLine
 10
71.94016671557446
 20
105.3581511427966
 30
0.0
 11
71.94016671557446
 21
105.3581511428021
 31
0.0
  0
LINE
  5
E8
330
4F
100
AcDbEntity
  8
1
  6
Continuous
 62
     7
100
AcDbLine
 10
71.94016671557446
 20
105.3581511428021
 30
0.0
 11
71.94016671557446
 21
105.3581511427966
 31
0.0
  0
LINE
  5
E9
330
4F
100
AcDbEntity
  8
1
  6
Continuous
 62
     7
100
AcDbLine
 10
71.94016671557446
 20
105.3581511428021
 30
0.0
 11
71.94016671557446
 21
105.3581511427966
 31
0.0
  0
LINE
  5
EA
330
4F
100
AcDbEntity
  8
1
  6
Continuous
 62
     7
100
AcDbLine
 10
72.31449792166595
 20
93.38015114280199
 30
0.0
 11
71.98155765491086
 21
104.0337072724932
 31
0.0
  0
LINE
  5
EB
330
4F
100
AcDbEntity
  8
1
  6
Continuous
 62
     7
100
AcDbLine
 10
93.27393364445123
 20
106.1981511428022
 30
0.0
 11
93.20629139328335
 21
104.0337072724933
 31
0.0
  0
LINE
  5
EC
330
4F
100
AcDbEntity
  8
1
  6
Continuous
 62
     7
100
AcDbLine
 10
92.87454277980285
 20
93.41828214201169
 30
0.0
 11
91.65441178059325
 21
92.1981511428022
 31
0.0
  0
LINE
  5
ED
330
4F
100
AcDbEntity
  8
1
  6
Continuous
 62
     2
100
AcDbLine
 10
93.27393364445123
 20
106.1981511428022
 30
0.0
 11
92.02429139328265
 21
104.0337072724933
 31
0.0
  0
LINE
  5
EE
330
4F
100
AcDbEntity
  8
1
  6
Continuous
 62
     2
100
AcDbLine
 10
92.02429139328265
 20
104.0337072724933
 30
0.0
 11
91.65441178059325
 21
92.1981511428022
 31
0.0
  0
LINE
  5
EF
330
4F
100
AcDbEntity
  8
1
  6
Continuous
 62
     7
100
AcDbLine
 10
93.20629139328335
 20
104.0337072724933
 30
0.0
 11
92.87454277980285
 21
93.41828214201169
 31
0.0
  0
LINE
  5
F0
330
4F
100
AcDbEntity
  8
1
  6
Continuous
 62
     7
100
AcDbLine
 10
95.59392452409705
 20
106.1981511428022
 30
0.0
 11
95.59392452409705
 21
111.9499632128889
 31
0.0
  0
LINE
  5
F1
330
4F
100
AcDbEntity
  8
1
  6
Continuous
 62
     7
100
AcDbLine
 10
80.59392452409705
 20
131.1981511428022
 30
0.0
 11
80.59392452409705
 21
123.3636097627444
 31
0.0
  0
LINE
  5
F2
330
4F
100
AcDbEntity
  8
1
  6
Continuous
 62
     7
100
AcDbLine
 10
82.59392452409705
 20
136.9481511428022
 30
0.0
 11
82.59392452409705
 21
133.6476408855854
 31
0.0
  0
LINE
  5
F3
330
4F
100
AcDbEntity
  8
1
  6
Continuous
 62
     7
100
AcDbLine
 10
82.34392452409705
 20
137.1981511428022
 30
0.0
 11
82.59392452409705
 21
136.9481511428022
 31
0.0
  0
LINE
  5
F4
330
4F
100
AcDbEntity
  8
1
  6
Continuous
 62
     7
100
AcDbLine
 10
52.59392452409706
 20
136.9481511428022
 30
0.0
 11
52.84392452409706
 21
137.1981511428022
 31
0.0
  0
LINE
  5
F5
330
4F
100
AcDbEntity
  8
1
  6
Continuous
 62
     7
100
AcDbLine
 10
52.59392452409706
 20
136.9481511428022
 30
0.0
 11
52.59392452409706
 21
133.6476408855854
 31
0.0
  0
LINE
  5
F6
330
4F
100
AcDbEntity
  8
1
  6
Continuous
 62
     7
100
AcDbLine
 10
54.59392452409706
 20
131.1981511428022
 30
0.0
 11
54.59392452409706
 21
118.9463390727155
 31
0.0
  0
LINE
  5
F7
330
4F
100
AcDbEntity
  8
1
  6
Continuous
 62
     7
100
AcDbLine
 10
82.59392452409705
 20
210.1981511428022
 30
0.0
 11
75.07723929764495
 21
210.1981511428022
 31
0.0
  0
LINE
  5
F8
330
4F
100
AcDbEntity
  8
1
  6
Continuous
 62
     7
100
AcDbLine
 10
82.59392452409705
 20
184.1981511428022
 30
0.0
 11
75.07723929764495
 21
184.1981511428022
 31
0.0
  0
LINE
  5
F9
330
4F
100
AcDbEntity
  8
1
  6
Continuous
 62
     7
100
AcDbLine
 10
150.7139245240971
 20
136.9481511428022
 30
0.0
 11
180.7139245240971
 21
136.9481511428022
 31
0.0
  0
LINE
  5
FA
330
4F
100
AcDbEntity
  8
1
  6
Continuous
 62
     7
100
AcDbLine
 10
156.6534372676007
 20
92.1981511428022
 30
0.0
 11
174.7744117805933
 21
92.1981511428022
 31
0.0
  0
LINE
  5
FB
330
4F
100
AcDbEntity
  8
1
  6
Continuous
 62
     7
100
AcDbLine
 10
151.1139245240971
 20
133.1577429370287
 30
0.0
 11
180.3139245240971
 21
133.1577429370288
 31
0.0
  0
LINE
  5
FC
330
4F
100
AcDbEntity
  8
1
  6
Continuous
 62
     7
100
AcDbLine
 10
150.9639245240971
 20
137.1981511428022
 30
0.0
 11
180.4639245240971
 21
137.1981511428022
 31
0.0
  0
LINE
  5
FD
330
4F
100
AcDbEntity
  8
1
  6
Continuous
 62
     7
100
AcDbLine
 10
152.7139245240971
 20
106.1981511428022
 30
0.0
 11
178.7139245240971
 21
106.1981511428022
 31
0.0
  0
LINE
  5
FE
330
4F
100
AcDbEntity
  8
1
  6
Continuous
 62
     7
100
AcDbLine
 10
155.1015576549108
 20
104.0337072724932
 30
0.0
 11
176.3262913932834
 21
104.0337072724933
 31
0.0
  0
LINE
  5
FF
330
4F
100
AcDbEntity
  8
1
  6
Continuous
 62
     2
100
AcDbLine
 10
156.6164979216667
 20
93.38015114280199
 30
0.0
 11
156.2835576549115
 21
104.0337072724932
 31
0.0
  0
LINE
  5
100
330
4F
100
AcDbEntity
  8
1
  6
Continuous
 62
     7
100
AcDbLine
 10
155.434497921666
 20
93.38015114280199
 30
0.0
 11
175.9945427798029
 21
93.38015114280199
 31
0.0
  0
LINE
  5
101
330
4F
100
AcDbEntity
  8
1
  6
Continuous
 62
     7
100
AcDbLine
 10
152.7139245240971
 20
107.53269252286
 30
0.0
 11
152.7139245240971
 21
106.1981511428022
 31
0.0
  0
LINE
  5
102
330
4F
100
AcDbEntity
  8
1
  6
Continuous
 62
     7
100
AcDbLine
 10
155.1015576549108
 20
104.0337072724932
 30
0.0
 11
155.0339154037428
 21
106.1981511428022
 31
0.0
  0
LINE
  5
103
330
4F
100
AcDbEntity
  8
1
  6
Continuous
 62
     2
100
AcDbLine
 10
155.0339154037428
 20
106.1981511428022
 30
0.0
 11
156.2835576549115
 21
104.0337072724932
 31
0.0
  0
LINE
  5
104
330
4F
100
AcDbEntity
  8
1
  6
Continuous
 62
     7
100
AcDbLine
 10
155.0601667155744
 20
105.3581511428021
 30
0.0
 11
155.0601667155744
 21
105.3581511427966
 31
0.0
  0
LINE
  5
105
330
4F
100
AcDbEntity
  8
1
  6
Continuous
 62
     7
100
AcDbLine
 10
155.0601667155744
 20
105.3581511428021
 30
0.0
 11
155.0601667155744
 21
105.3581511427966
 31
0.0
  0
LINE
  5
106
330
4F
100
AcDbEntity
  8
1
  6
Continuous
 62
     7
100
AcDbLine
 10
155.434497921666
 20
93.38015114280199
 30
0.0
 11
156.6534372676007
 21
92.1981511428022
 31
0.0
  0
LINE
  5
107
330
4F
100
AcDbEntity
  8
1
  6
Continuous
 62
     2
100
AcDbLine
 10
156.6534372676007
 20
92.1981511428022
 30
0.0
 11
156.6164979216667
 21
93.38015114280199
 31
0.0
  0
LINE
  5
108
330
4F
100
AcDbEntity
  8
1
  6
Continuous
 62
     7
100
AcDbLine
 10
155.0601667155744
 20
105.3581511427966
 30
0.0
 11
155.0601667155744
 21
105.3581511428021
 31
0.0
  0
LINE
  5
109
330
4F
100
AcDbEntity
  8
1
  6
Continuous
 62
     7
100
AcDbLine
 10
155.0601667155744
 20
105.3581511427966
 30
0.0
 11
155.0601667155744
 21
105.3581511428021
 31
0.0
  0
LINE
  5
10A
330
4F
100
AcDbEntity
  8
1
  6
Continuous
 62
     7
100
AcDbLine
 10
155.0601667155744
 20
105.3581511428021
 30
0.0
 11
155.0601667155744
 21
105.3581511427966
 31
0.0
  0
LINE
  5
10B
330
4F
100
AcDbEntity
  8
1
  6
Continuous
 62
     7
100
AcDbLine
 10
155.0601667155744
 20
105.3581511428021
 30
0.0
 11
155.0601667155744
 21
105.3581511427966
 31
0.0
  0
LINE
  5
10C
330
4F
100
AcDbEntity
  8
1
  6
Continuous
 62
     7
100
AcDbLine
 10
155.434497921666
 20
93.38015114280199
 30
0.0
 11
155.1015576549108
 21
104.0337072724932
 31
0.0
  0
LINE
  5
10D
330
4F
100
AcDbEntity
  8
1
  6
Continuous
 62
     7
100
AcDbLine
 10
176.3939336444512
 20
106.1981511428022
 30
0.0
 11
176.3262913932834
 21
104.0337072724933
 31
0.0
  0
LINE
  5
10E
330
4F
100
AcDbEntity
  8
1
  6
Continuous
 62
     7
100
AcDbLine
 10
175.9945427798029
 20
93.41828214201169
 30
0.0
 11
174.7744117805933
 21
92.1981511428022
 31
0.0
  0
LINE
  5
10F
330
4F
100
AcDbEntity
  8
1
  6
Continuous
 62
     2
100
AcDbLine
 10
176.3939336444512
 20
106.1981511428022
 30
0.0
 11
175.1442913932827
 21
104.0337072724933
 31
0.0
  0
LINE
  5
110
330
4F
100
AcDbEntity
  8
1
  6
Continuous
 62
     2
100
AcDbLine
 10
175.1442913932827
 20
104.0337072724933
 30
0.0
 11
174.7744117805933
 21
92.1981511428022
 31
0.0
  0
LINE
  5
111
330
4F
100
AcDbEntity
  8
1
  6
Continuous
 62
     7
100
AcDbLine
 10
176.3262913932834
 20
104.0337072724933
 30
0.0
 11
175.9945427798029
 21
93.41828214201169
 31
0.0
  0
LINE
  5
112
330
4F
100
AcDbEntity
  8
1
  6
Continuous
 62
     7
100
AcDbLine
 10
178.7139245240971
 20
106.1981511428022
 30
0.0
 11
178.7139245240971
 21
111.9499632128889
 31
0.0
  0
LINE
  5
113
330
4F
100
AcDbEntity
  8
1
  6
Continuous
 62
     7
100
AcDbLine
 10
178.7139245240971
 20
131.1981511428022
 30
0.0
 11
178.7139245240971
 21
113.6981511428022
 31
0.0
  0
LINE
  5
114
330
4F
100
AcDbEntity
  8
1
  6
Continuous
 62
     7
100
AcDbLine
 10
180.7139245240971
 20
136.9481511428022
 30
0.0
 11
180.7139245240971
 21
133.6476408855854
 31
0.0
  0
LINE
  5
115
330
4F
100
AcDbEntity
  8
1
  6
Continuous
 62
     7
100
AcDbLine
 10
180.4639245240971
 20
137.1981511428022
 30
0.0
 11
180.7139245240971
 21
136.9481511428022
 31
0.0
  0
LINE
  5
116
330
4F
100
AcDbEntity
  8
1
  6
Continuous
 62
     7
100
AcDbLine
 10
150.7139245240971
 20
136.9481511428022
 30
0.0
 11
150.9639245240971
 21
137.1981511428022
 31
0.0
  0
LINE
  5
117
330
4F
100
AcDbEntity
  8
1
  6
Continuous
 62
     7
100
AcDbLine
 10
150.7139245240971
 20
136.9481511428022
 30
0.0
 11
150.7139245240971
 21
133.6476408855854
 31
0.0
  0
LINE
  5
118
330
4F
100
AcDbEntity
  8
1
  6
Continuous
 62
     7
100
AcDbLine
 10
152.7139245240971
 20
131.1981511428022
 30
0.0
 11
152.7139245240971
 21
113.6981511428022
 31
0.0
  0
LINE
  5
119
330
4F
100
AcDbEntity
  8
1
  6
Continuous
 62
     7
100
AcDbLine
 10
152.7139245240971
 20
113.6981511428022
 30
0.0
 11
178.7139245240971
 21
113.6981511428022
 31
0.0
  0
LINE
  5
11A
330
4F
100
AcDbEntity
  8
1
  6
Continuous
 62
     7
100
AcDbLine
 10
178.7139245240971
 20
113.6981511428022
 30
0.0
 11
178.7139245240971
 21
111.9499632128889
 31
0.0
  0
LINE
  5
11B
330
4F
100
AcDbEntity
  8
1
  6
Continuous
 62
     7
100
AcDbLine
 10
152.7139245240971
 20
113.6981511428022
 30
0.0
 11
152.7139245240971
 21
107.53269252286
 31
0.0
  0
LINE
  5
11C
330
4F
100
AcDbEntity
  8
1
  6
Continuous
 62
     7
100
AcDbLine
 10
165.7130336498022
 20
122.1981511428022
 30
0.0
 11
177.0128453874063
 21
122.1981511428022
 31
0.0
  0
LINE
  5
11D
330
4F
100
AcDbEntity
  8
1
  6
Continuous
 62
     7
100
AcDbLine
 10
154.4132219121979
 20
122.1981511428022
 30
0.0
 11
165.7130336498022
 21
122.1981511428022
 31
0.0
  0
ARC
  5
11E
330
4F
100
AcDbEntity
  8
1
  6
Continuous
 62
     7
100
AcDbCircle
 10
67.59392452409705
 20
107.53269252286
 30
0.0
 40
2.0
100
AcDbArc
 50
0.0
 51
60.46121774044057
  0
ARC
  5
11F
330
4F
100
AcDbEntity
  8
1
  6
Continuous
 62
     7
100
AcDbCircle
 10
92.59392452409705
 20
111.9499632128889
 30
0.0
 40
3.0
100
AcDbArc
 50
0.0
 51
60.461217740442
  0
ARC
  5
120
330
4F
100
AcDbEntity
  8
1
  6
Continuous
 62
     7
100
AcDbCircle
 10
82.59392452409705
 20
123.3636097627444
 30
0.0
 40
2.0
100
AcDbArc
 50
180.0
 51
240.4612177404408
  0
ARC
  5
121
330
4F
100
AcDbEntity
  8
1
  6
Continuous
 62
     7
100
AcDbCircle
 10
57.59392452409706
 20
118.9463390727155
 30
0.0
 40
3.0
100
AcDbArc
 50
180.0
 51
240.4612177404422
  0
ARC
  5
122
330
4F
100
AcDbEntity
  8
1
  6
Continuous
 62
     7
100
AcDbCircle
 10
82.59392452409705
 20
131.1981511428022
 30
0.0
 40
2.00000000000004
100
AcDbArc
 50
101.5369590328154
 51
180.0
  0
ARC
  5
123
330
4F
100
AcDbEntity
  8
1
  6
Continuous
 62
     7
100
AcDbCircle
 10
82.59392452409705
 20
197.1981511428022
 30
0.0
 40
10.49999999999999
100
AcDbArc
 50
142.0733507512621
 51
217.926649248738
  0
ARC
  5
124
330
4F
100
AcDbEntity
  8
1
  6
Continuous
 62
     7
100
AcDbCircle
 10
82.59392452409705
 20
197.1981511428022
 30
0.0
 40
6.5
100
AcDbArc
 50
180.0
 51
202.2569351151157
  0
ARC
  5
125
330
4F
100
AcDbEntity
  8
1
  6
Continuous
 62
     7
100
AcDbCircle
 10
82.59392452409705
 20
197.1981511428022
 30
0.0
 40
6.500000000000009
100
AcDbArc
 50
157.7430648848842
 51
180.0
  0
ARC
  5
126
330
4F
100
AcDbEntity
  8
1
  6
Continuous
 62
     7
100
AcDbCircle
 10
67.59392452409705
 20
197.1981511428022
 30
0.0
 40
15.00000000000001
100
AcDbArc
 50
60.07356513338569
 51
90.0
  0
ARC
  5
127
330
4F
100
AcDbEntity
  8
1
  6
Continuous
 62
     7
100
AcDbCircle
 10
67.59392452409705
 20
197.1981511428022
 30
0.0
 40
9.315499999999977
100
AcDbArc
 50
65.74746664172655
 51
90.0
  0
LWPOLYLINE
  5
128
330
4F
100
AcDbEntity
  8
1
  6
Continuous
 62
     2
100
AcDbPolyline
 90
        2
 70
     1
 43
0.0
 10
67.59392452409705
 20
207.6956511428022
 42
1.0
 10
67.59392452409705
 20
186.7006511428022
 42
1.0
  0
LWPOLYLINE
  5
129
330
4F
100
AcDbEntity
  8
1
  6
Continuous
 62
     7
100
AcDbPolyline
 90
        2
 70
     1
 43
0.0
 10
67.59392452409705
 20
208.4481511428022
 42
1.0
 10
67.59392452409705
 20
185.9481511428022
 42
1.0
  0
ARC
  5
12A
330
4F
100
AcDbEntity
  8
1
  6
Continuous
 62
     7
100
AcDbCircle
 10
67.59392452409705
 20
197.1981511428022
 30
0.0
 40
9.315500000000018
100
AcDbArc
 50
320.8723768678064
 51
39.12762313219364
  0
ARC
  5
12B
330
4F
100
AcDbEntity
  8
1
  6
Continuous
 62
     7
100
AcDbCircle
 10
67.59392452409705
 20
197.1981511428022
 30
0.0
 40
9.315499999999977
100
AcDbArc
 50
294.2525333582734
 51
320.8723768678064
  0
ARC
  5
12C
330
4F
100
AcDbEntity
  8
1
  6
Continuous
 62
     7
100
AcDbCircle
 10
67.59392452409705
 20
197.1981511428022
 30
0.0
 40
9.315500000000018
100
AcDbArc
 50
39.12762313219364
 51
65.74746664172655
  0
ARC
  5
12D
330
4F
100
AcDbEntity
  8
1
  6
Continuous
 62
     7
100
AcDbCircle
 10
67.59392452409705
 20
197.1981511428022
 30
0.0
 40
9.315499999999986
100
AcDbArc
 50
90.0
 51
294.2525333582734
  0
ARC
  5
12E
330
4F
100
AcDbEntity
  8
1
  6
Continuous
 62
     7
100
AcDbCircle
 10
67.59392452409705
 20
197.1981511428022
 30
0.0
 40
15.0
100
AcDbArc
 50
90.0
 51
60.07356513338569
  0
ARC
  5
12F
330
4F
100
AcDbEntity
  8
1
  6
Continuous
 62
     7
100
AcDbCircle
 10
82.59392452409705
 20
197.1981511428022
 30
0.0
 40
13.0
100
AcDbArc
 50
270.0
 51
90.0
  0
ARC
  5
130
330
4F
100
AcDbEntity
  8
1
  6
Continuous
 62
     7
100
AcDbCircle
 10
180.7139245240971
 20
131.1981511428022
 30
0.0
 40
2.00000000000004
100
AcDbArc
 50
101.5369590328154
 51
180.0
  0
CIRCLE
  5
131
330
4F
100
AcDbEntity
  8
1
  6
Continuous
 62
     7
100
AcDbCircle
 10
67.59392452409705
 20
197.1981511428022
 30
0.0
 40
12.5
  0
CIRCLE
  5
132
330
4F
100
AcDbEntity
  8
1
  6
Continuous
 62
     7
100
AcDbCircle
 10
67.59392452409705
 20
197.1981511428022
 30
0.0
 40
13.0
  0
CIRCLE
  5
133
330
4F
100
AcDbEntity
  8
1
  6
Continuous
 62
     7
100
AcDbCircle
 10
67.59392452409705
 20
197.1981511428022
 30
0.0
 40
14.75
  0
ARC
  5
134
330
4F
100
AcDbEntity
  8
1
  6
Continuous
 62
     7
100
AcDbCircle
 10
53.09392452409706
 20
133.6476408855854
 30
0.0
 40
0.5
100
AcDbArc
 50
180.0
 51
258.4630409671823
  0
ARC
  5
135
330
4F
100
AcDbEntity
  8
1
  6
Continuous
 62
     7
100
AcDbCircle
 10
52.59392452409706
 20
131.1981511428022
 30
0.0
 40
2.0
100
AcDbArc
 50
0.0
 51
78.4630409671851
  0
ARC
  5
136
330
4F
100
AcDbEntity
  8
1
  6
Continuous
 62
     7
100
AcDbCircle
 10
82.09392452409705
 20
133.6476408855854
 30
0.0
 40
0.499999999999967
100
AcDbArc
 50
281.5369590328156
 51
0.0
  0
ARC
  5
137
330
4F
100
AcDbEntity
  8
1
  6
Continuous
 62
     7
100
AcDbCircle
 10
151.2139245240971
 20
133.6476408855854
 30
0.0
 40
0.5
100
AcDbArc
 50
180.0
 51
258.4630409671832
  0
ARC
  5
138
330
4F
100
AcDbEntity
  8
1
  6
Continuous
 62
     7
100
AcDbCircle
 10
150.7139245240971
 20
131.1981511428022
 30
0.0
 40
2.0
100
AcDbArc
 50
0.0
 51
78.46304096718491
  0
ARC
  5
139
330
4F
100
AcDbEntity
  8
1
  6
Continuous
 62
     7
100
AcDbCircle
 10
180.2139245240971
 20
133.6476408855854
 30
0.0
 40
0.499999999999967
100
AcDbArc
 50
281.5369590328156
 51
0.0
  0
MTEXT
  5
13B
330
4F
100
AcDbEntity
  8
1
 62
     7
100
AcDbMText
 10
67.56340729711786
 20
125.4311950293972
 30
0.0
 40
5.0
 41
0.0
 71
     5
 72
     1
  1
13X15
  7
CONVERTER_12
 11
6.123031769111886E-17
 21
-1.0
 31
0.0
 73
     1
 44
1.32052821128451
  0
ENDBLK
  5
51
330
4F
100
AcDbEntity
  8
0
100
AcDbBlockEnd
  0
BLOCK
  5
15C
330
155
100
AcDbEntity
  8
0
100
AcDbBlockBegin
  2
*D4
 70
     1
 10
0.0
 20
0.0
 30
0.0
  3
*D4
  1

  0
LINE
  5
156
330
155
100
AcDbEntity
  8
1
  6
Continuous
 62
     2
100
AcDbLine
 10
67.59392452409705
 20
223.1981511428022
 30
0.0
 11
82.59392452409705
 21
223.1981511428022
 31
0.0
  0
LINE
  5
157
330
155
100
AcDbEntity
  8
1
  6
Continuous
 62
     2
100
AcDbLine
 10
82.59392452409705
 20
213.518350550282
 30
0.0
 11
82.59392452409705
 21
224.1981511428022
 31
0.0
  0
LINE
  5
158
330
155
100
AcDbEntity
  8
1
  6
Continuous
 62
     2
100
AcDbLine
 10
67.59392452409705
 20
215.1981511428022
 30
0.0
 11
67.59392452409705
 21
224.1981511428022
 31
0.0
  0
SOLID
  5
159
330
155
100
AcDbEntity
  8
1
 62
     2
100
AcDbTrace
 10
71.09392452409705
 20
223.6589348843581
 30
0.0
 11
71.09392452409705
 21
222.7373674012463
 31
0.0
 12
67.59392452409705
 22
223.1981511428022
 32
0.0
 13
67.59392452409705
 23
223.1981511428022
 33
0.0
  0
SOLID
  5
15A
330
155
100
AcDbEntity
  8
1
 62
     2
100
AcDbTrace
 10
79.09392452409705
 20
222.7373674012463
 30
0.0
 11
79.09392452409705
 21
223.6589348843581
 31
0.0
 12
82.59392452409705
 22
223.1981511428022
 32
0.0
 13
82.59392452409705
 23
223.1981511428022
 33
0.0
  0
MTEXT
  5
15B
330
155
100
AcDbEntity
  8
1
 62
     7
100
AcDbMText
 10
72.79021017699066
 20
224.1981511428022
 30
0.0
 40
3.5
 41
0.0
 71
     7
 72
     1
  1
15
  7
CONVERTER_13
 11
0.9999999999970619
 21
2.424068405545306E-6
 31
0.0
 73
     1
 44
0.60024009603842
  0
ENDBLK
  5
15D
330
155
100
AcDbEntity
  8
0
100
AcDbBlockEnd
  0
BLOCK
  5
167
330
160
100
AcDbEntity
  8
0
100
AcDbBlockBegin
  2
*D5
 70
     1
 10
0.0
 20
0.0
 30
0.0
  3
*D5
  1

  0
LINE
  5
161
330
160
100
AcDbEntity
  8
0
  6
Continuous
 62
     2
100
AcDbLine
 10
104.5939245240971
 20
106.1981511428022
 30
0.0
 11
104.5939245240971
 21
92.19815114280217
 31
0.0
  0
LINE
  5
162
330
160
100
AcDbEntity
  8
0
  6
Continuous
 62
     2
100
AcDbLine
 10
91.6544117805933
 20
92.19815114280217
 30
0.0
 11
105.5939245240971
 21
92.19815114280217
 31
0.0
  0
LINE
  5
163
330
160
100
AcDbEntity
  8
0
  6
Continuous
 62
     2
100
AcDbLine
 10
95.5939245240971
 20
106.1981511428022
 30
0.0
 11
105.5939245240971
 21
106.1981511428022
 31
0.0
  0
SOLID
  5
164
330
160
100
AcDbEntity
  8
0
 62
     2
100
AcDbTrace
 10
105.054708265653
 20
102.6981511428022
 30
0.0
 11
104.1331407825412
 21
102.6981511428022
 31
0.0
 12
104.5939245240971
 22
106.1981511428022
 32
0.0
 13
104.5939245240971
 23
106.1981511428022
 33
0.0
  0
SOLID
  5
165
330
160
100
AcDbEntity
  8
0
 62
     2
100
AcDbTrace
 10
104.1331407825412
 20
95.69815114280217
 30
0.0
 11
105.054708265653
 21
95.69815114280217
 31
0.0
 12
104.5939245240971
 22
92.19815114280217
 32
0.0
 13
104.5939245240971
 23
92.19815114280217
 33
0.0
  0
MTEXT
  5
166
330
160
100
AcDbEntity
  8
0
 62
     7
100
AcDbMText
 10
103.5939245240971
 20
96.4408726545482
 30
0.0
 40
3.5
 41
0.0
 71
     7
 72
     1
  1
14
  7
CONVERTER_13
 11
0.0
 21
1.0
 31
0.0
 73
     1
 44
0.60024009603842
  0
ENDBLK
  5
168
330
160
100
AcDbEntity
  8
0
100
AcDbBlockEnd
  0
BLOCK
  5
172
330
16B
100
AcDbEntity
  8
0
100
AcDbBlockBegin
  2
*D6
 70
     1
 10
0.0
 20
0.0
 30
0.0
  3
*D6
  1

  0
LINE
  5
16C
330
16B
100
AcDbEntity
  8
0
  6
Continuous
 62
     2
100
AcDbLine
 10
112.5939245240971
 20
137.1981511428022
 30
0.0
 11
112.5939245240971
 21
92.1981511428022
 31
0.0
  0
LINE
  5
16D
330
16B
100
AcDbEntity
  8
0
  6
Continuous
 62
     2
100
AcDbLine
 10
91.6544117805933
 20
92.1981511428022
 30
0.0
 11
113.5939245240971
 21
92.1981511428022
 31
0.0
  0
LINE
  5
16E
330
16B
100
AcDbEntity
  8
0
  6
Continuous
 62
     2
100
AcDbLine
 10
82.3439245240971
 20
137.1981511428022
 30
0.0
 11
113.5939245240971
 21
137.1981511428022
 31
0.0
  0
SOLID
  5
16F
330
16B
100
AcDbEntity
  8
0
 62
     2
100
AcDbTrace
 10
113.054708265653
 20
133.6981511428022
 30
0.0
 11
112.1331407825412
 21
133.6981511428022
 31
0.0
 12
112.5939245240971
 22
137.1981511428022
 32
0.0
 13
112.5939245240971
 23
137.1981511428022
 33
0.0
  0
SOLID
  5
170
330
16B
100
AcDbEntity
  8
0
 62
     2
100
AcDbTrace
 10
112.1331407825412
 20
95.6981511428022
 30
0.0
 11
113.054708265653
 21
95.6981511428022
 31
0.0
 12
112.5939245240971
 22
92.1981511428022
 32
0.0
 13
112.5939245240971
 23
92.1981511428022
 33
0.0
  0
MTEXT
  5
171
330
16B
100
AcDbEntity
  8
0
 62
     7
100
AcDbMText
 10
111.5939245240971
 20
112.8535150092172
 30
0.0
 40
3.5
 41
0.0
 71
     7
 72
     1
  1
45
  7
CONVERTER_13
 11
0.0
 21
1.0
 31
0.0
 73
     1
 44
0.60024009603842
  0
ENDBLK
  5
173
330
16B
100
AcDbEntity
  8
0
100
AcDbBlockEnd
  0
BLOCK
  5
17F
330
176
100
AcDbEntity
  8
0
100
AcDbBlockBegin
  2
*D7
 70
     1
 10
0.0
 20
0.0
 30
0.0
  3
*D7
  1

  0
LINE
  5
177
330
176
100
AcDbEntity
  8
0
  6
Continuous
 62
     2
100
AcDbLine
 10
52.59392452409708
 20
148.1981511428022
 30
0.0
 11
82.59392452409708
 21
148.1981511428022
 31
0.0
  0
LINE
  5
178
330
176
100
AcDbEntity
  8
0
  6
Continuous
 62
     2
100
AcDbLine
 10
82.59392452409708
 20
136.9481511428022
 30
0.0
 11
82.59392452409708
 21
144.3984327753472
 31
0.0
  0
LINE
  5
179
330
176
100
AcDbEntity
  8
0
  6
Continuous
 62
     2
100
AcDbLine
 10
82.59392452409708
 20
145.6310038632352
 30
0.0
 11
82.59392452409708
 21
149.1981511428022
 31
0.0
  0
LINE
  5
17A
330
176
100
AcDbEntity
  8
0
  6
Continuous
 62
     2
100
AcDbLine
 10
52.59392452409708
 20
145.2593455603932
 30
0.0
 11
52.59392452409708
 21
149.1981511428022
 31
0.0
  0
LINE
  5
17B
330
176
100
AcDbEntity
  8
0
  6
Continuous
 62
     2
100
AcDbLine
 10
52.59392452409708
 20
136.9481511428022
 30
0.0
 11
52.59392452409708
 21
144.5790430017912
 31
0.0
  0
SOLID
  5
17C
330
176
100
AcDbEntity
  8
0
 62
     2
100
AcDbTrace
 10
56.09392452409708
 20
148.6589348843581
 30
0.0
 11
56.09392452409708
 21
147.7373674012463
 31
0.0
 12
52.59392452409708
 22
148.1981511428022
 32
0.0
 13
52.59392452409708
 23
148.1981511428022
 33
0.0
  0
SOLID
  5
17D
330
176
100
AcDbEntity
  8
0
 62
     2
100
AcDbTrace
 10
79.09392452409708
 20
147.7373674012463
 30
0.0
 11
79.09392452409708
 21
148.6589348843581
 31
0.0
 12
82.59392452409708
 22
148.1981511428022
 32
0.0
 13
82.59392452409708
 23
148.1981511428022
 33
0.0
  0
MTEXT
  5
17E
330
176
100
AcDbEntity
  8
0
 62
     7
100
AcDbMText
 10
64.2181903955092
 20
149.1981441857259
 30
0.0
 40
3.5
 41
0.0
 71
     7
 72
     1
  1
\C7;{\Fgdt;n}\C7;30
  7
CONVERTER_13
 11
0.9999999999970619
 21
2.424068405545306E-6
 31
0.0
 73
     1
 44
0.60024009603842
  0
ENDBLK
  5
180
330
176
100
AcDbEntity
  8
0
100
AcDbBlockEnd
  0
BLOCK
  5
18B
330
183
100
AcDbEntity
  8
0
100
AcDbBlockBegin
  2
*D8
 70
     1
 10
0.0
 20
0.0
 30
0.0
  3
*D8
  1

  0
LINE
  5
184
330
183
100
AcDbEntity
  8
0
  6
Continuous
 62
     2
100
AcDbLine
 10
69.59392452409705
 20
83.1981511428022
 30
0.0
 11
95.59392452409705
 21
83.1981511428022
 31
0.0
  0
LINE
  5
185
330
183
100
AcDbEntity
  8
0
  6
Continuous
 62
     2
100
AcDbLine
 10
95.59392452409705
 20
106.1981511428022
 30
0.0
 11
95.59392452409705
 21
82.1981511428022
 31
0.0
  0
LINE
  5
186
330
183
100
AcDbEntity
  8
0
  6
Continuous
 62
     2
100
AcDbLine
 10
69.59392452409705
 20
94.0340639439272
 30
0.0
 11
69.59392452409705
 21
82.1981511428022
 31
0.0
  0
LINE
  5
187
330
183
100
AcDbEntity
  8
0
  6
Continuous
 62
     2
100
AcDbLine
 10
69.59392452409705
 20
106.1981511428022
 30
0.0
 11
69.59392452409705
 21
95.0414891534182
 31
0.0
  0
SOLID
  5
188
330
183
100
AcDbEntity
  8
0
 62
     2
100
AcDbTrace
 10
73.09392452409705
 20
83.65893488435809
 30
0.0
 11
73.09392452409705
 21
82.73736740124632
 31
0.0
 12
69.59392452409705
 22
83.1981511428022
 32
0.0
 13
69.59392452409705
 23
83.1981511428022
 33
0.0
  0
SOLID
  5
189
330
183
100
AcDbEntity
  8
0
 62
     2
100
AcDbTrace
 10
92.09392452409705
 20
82.73736740124632
 30
0.0
 11
92.09392452409705
 21
83.65893488435809
 31
0.0
 12
95.59392452409705
 22
83.1981511428022
 32
0.0
 13
95.59392452409705
 23
83.1981511428022
 33
0.0
  0
MTEXT
  5
18A
330
183
100
AcDbEntity
  8
0
 62
     7
100
AcDbMText
 10
79.75447726494417
 20
84.19814418572588
 30
0.0
 40
3.5
 41
0.0
 71
     7
 72
     1
  1
\C7;{\Fgdt;n}\C7;26
  7
CONVERTER_13
 11
0.9999999999970619
 21
2.424068405545306E-6
 31
0.0
 73
     1
 44
0.60024009603842
  0
ENDBLK
  5
18C
330
183
100
AcDbEntity
  8
0
100
AcDbBlockEnd
  0
ENDSEC
  0
SECTION
  2
ENTITIES
  0
INSERT
  5
52
330
1F
100
AcDbEntity
  8
0
100
AcDbBlockReference
  2
開示A4枠
 10
0.0
 20
0.0
 30
0.0
  0
INSERT
  5
53
330
1F
100
AcDbEntity
  8
0
100
AcDbBlockReference
  2
T29-0-13X15
 10
240.0963038270983
 20
153.0195560615432
 30
0.0
  0
LINE
  5
13C
330
1F
100
AcDbEntity
  8
1
  6
DASH_CENTER
 62
     2
100
AcDbLine
 10
82.59392452409705
 20
213.518350550282
 30
0.0
 11
82.59392452409705
 21
180.7791076731952
 31
0.0
  0
LINE
  5
13D
330
1F
100
AcDbEntity
  8
1
  6
DASH_CENTER
 62
     2
100
AcDbLine
 10
49.59392452409706
 20
197.1981511428022
 30
0.0
 11
98.59392452409705
 21
197.1981511428022
 31
0.0
  0
LINE
  5
13E
330
1F
100
AcDbEntity
  8
1
  6
DASH_CENTER
 62
     2
100
AcDbLine
 10
67.59392452409705
 20
215.1981511428022
 30
0.0
 11
67.59392452409705
 21
179.1981511428022
 31
0.0
  0
LINE
  5
13F
330
1F
100
AcDbEntity
  8
1
  6
DASH_CENTER
 62
     2
100
AcDbLine
 10
82.59392452409705
 20
111.2348149272969
 30
0.0
 11
82.59392452409705
 21
89.1981511428022
 31
0.0
  0
LINE
  5
140
330
1F
100
AcDbEntity
  8
1
  6
DASH_CENTER
 62
     2
100
AcDbLine
 10
67.59392452409705
 20
140.1981511428022
 30
0.0
 11
67.59392452409705
 21
118.1981511428022
 31
0.0
  0
LINE
  5
141
330
1F
100
AcDbEntity
  8
1
  6
DASH_CENTER
 62
     2
100
AcDbLine
 10
165.7130336498022
 20
140.1981511428022
 30
0.0
 11
165.7130336498022
 21
89.1981511428022
 31
0.0
  0
SOLID
  5
142
330
1F
100
AcDbEntity
  8
1
 62
     2
100
AcDbTrace
 10
70.79078164613529
 20
95.64692853052951
 30
0.0
 11
69.99268079445882
 21
96.1077122720854
 31
0.0
 12
72.14173122029706
 22
98.90840931455298
 32
0.0
 13
72.14173122029706
 23
98.90840931455298
 33
0.0
  0
LEADER
  5
143
330
1F
100
AcDbEntity
  8
1
  6
Continuous
 62
     2
100
AcDbLeader
  3
Standard
 71
     0
 76
     3
 10
72.14173122029706
 20
98.90840931455298
 30
0.0
 10
62.49405916660856
 20
82.1981511428022
 30
0.0
 10
49.00960501587675
 20
82.1981511428022
 30
0.0
  0
SOLID
  5
144
330
1F
100
AcDbEntity
  8
1
 62
     2
100
AcDbTrace
 10
79.4423740982588
 20
140.4596319268257
 30
0.0
 11
80.24047494993528
 21
139.9988481852698
 31
0.0
 12
78.09142452409705
 22
137.1981511428022
 32
0.0
 13
78.09142452409705
 23
137.1981511428022
 33
0.0
  0
LEADER
  5
145
330
1F
100
AcDbEntity
  8
1
  6
Continuous
 62
     2
100
AcDbLeader
  3
Standard
 71
     0
 76
     3
 10
78.09142452409705
 20
137.1981511428022
 30
0.0
 10
90.95568856853853
 20
159.4797100697563
 30
0.0
 10
104.8159125990125
 20
159.4797100697563
 30
0.0
  0
MTEXT
  5
147
330
1F
100
AcDbEntity
  8
1
 62
     7
100
AcDbMText
 10
157.5000000000001
 20
12.5
 30
0.0
 40
2.5
 41
0.0
 71
     5
 72
     1
  1
9
  7
CONVERTER_13
 73
     1
 44
0.7202881152461
  0
MTEXT
  5
148
330
1F
100
AcDbEntity
  8
1
 62
     7
100
AcDbMText
 10
151.7500000000001
 20
12.5
 30
0.0
 40
2.5
 41
0.0
 71
     5
 72
     1
  1
03
  7
CONVERTER_13
 73
     1
 44
0.7202881152461
  0
MTEXT
  5
149
330
1F
100
AcDbEntity
  8
1
 62
     7
100
AcDbMText
 10
140.5000000000001
 20
12.5
 30
0.0
 40
2.5
 41
0.0
 71
     5
 72
     1
  1
9
  7
CONVERTER_13
 73
     1
 44
0.7202881152461
  0
MTEXT
  5
14A
330
1F
100
AcDbEntity
  8
1
 62
     7
100
AcDbMText
 10
134.7500000000001
 20
12.5
 30
0.0
 40
2.5
 41
0.0
 71
     5
 72
     1
  1
03
  7
CONVERTER_13
 73
     1
 44
0.7202881152461
  0
MTEXT
  5
14B
330
1F
100
AcDbEntity
  8
1
 62
     7
100
AcDbMText
 10
123.5000000000001
 20
12.5
 30
0.0
 40
2.5
 41
0.0
 71
     5
 72
     1
  1
9
  7
CONVERTER_13
 73
     1
 44
0.7202881152461
  0
MTEXT
  5
14C
330
1F
100
AcDbEntity
  8
1
 62
     7
100
AcDbMText
 10
117.7500000000001
 20
12.5
 30
0.0
 40
2.5
 41
0.0
 71
     5
 72
     1
  1
03
  7
CONVERTER_13
 73
     1
 44
0.7202881152461
  0
MTEXT
  5
14D
330
1F
100
AcDbEntity
  8
1
 62
     7
100
AcDbMText
 10
100.7500000000001
 20
12.5
 30
0.0
 40
2.5
 41
0.0
 71
     5
 72
     1
  1
03
  7
CONVERTER_13
 73
     1
 44
0.7202881152461
  0
MTEXT
  5
14E
330
1F
100
AcDbEntity
  8
1
 62
     7
100
AcDbMText
 10
106.5000000000001
 20
12.5
 30
0.0
 40
2.5
 41
0.0
 71
     5
 72
     1
  1
9
  7
CONVERTER_13
 73
     1
 44
0.7202881152461
  0
MTEXT
  5
14F
330
1F
100
AcDbEntity
  8
0
 62
     7
100
AcDbMText
 10
56.20229851218445
 20
85.03572866318629
 30
0.0
 40
3.5
 41
0.0
 71
     5
 72
     1
  1
R1/2
  7
CONVERTER_13
 73
     1
 44
1.32052821128451
  0
MTEXT
  5
150
330
1F
100
AcDbEntity
  8
0
 62
     7
100
AcDbMText
 10
97.85986341002715
 20
162.1231863470131
 30
0.0
 40
3.5
 41
0.0
 71
     5
 72
     1
  1
G1/2
  7
CONVERTER_13
 73
     1
 44
1.32052821128451
  0
MTEXT
  5
151
330
1F
100
AcDbEntity
  8
1
 62
     7
100
AcDbMText
 10
93.75000000000006
 20
16.99999999999999
 30
0.0
 40
3.5
 41
0.0
 71
     5
 72
     1
  1
1
  7
CONVERTER_13
 73
     1
 44
0.7202881152461
  0
MTEXT
  5
152
330
1F
100
AcDbEntity
  8
1
 62
     7
100
AcDbMText
 10
57.00000000000005
 20
14.24999999999999
 30
0.0
 40
3.5
 41
0.0
 71
     5
 72
     1
  1
T29-13X15
  7
CONVERTER_13
 73
     1
 44
0.7202881152461
  0
MTEXT
  5
153
330
1F
100
AcDbEntity
  8
1
 62
     7
100
AcDbMText
 10
57.00000000000005
 20
22.75
 30
0.0
 40
3.5
 41
0.0
 71
     5
 72
     1
  1
偏心ザルボ
  7
CONVERTER_11
 73
     1
 44
0.54545454545455
  0
MTEXT
  5
154
330
1F
100
AcDbEntity
  8
1
 62
     7
100
AcDbMText
 10
85.25000000000006
 20
16.99999999999999
 30
0.0
 40
3.5
 41
0.0
 71
     5
 72
     1
  1
1
  7
CONVERTER_13
 73
     1
 44
0.7202881152461
  0
DIMENSION
  5
15F
330
1F
100
AcDbEntity
  8
1
100
AcDbDimension
  2
*D4
 10
67.59392452409705
 20
223.1981511428022
 30
0.0
 11
74.89021017699065
 21
225.9481511428022
 31
0.0
 70
    32
  1
<>
 71
     5
 42
-1.0
 53
0.00013888888889
  3
ME10_DIM_10
100
AcDbAlignedDimension
 13
82.59392452409705
 23
213.518350550282
 33
0.0
 14
67.59392452409705
 24
215.1981511428022
 34
0.0
100
AcDbRotatedDimension
  0
DIMENSION
  5
16A
330
1F
100
AcDbEntity
  8
0
100
AcDbDimension
  2
*D5
 10
104.5939245240971
 20
106.1981511428022
 30
0.0
 11
101.8439245240971
 21
98.5408726545482
 31
0.0
 70
    32
  1
<>
 71
     5
 42
-1.0
 53
90.0
  3
ME10_DIM_11
100
AcDbAlignedDimension
 13
91.65441178059325
 23
92.1981511428022
 33
0.0
 14
95.59392452409705
 24
106.1981511428022
 34
0.0
 50
90.0
100
AcDbRotatedDimension
  0
DIMENSION
  5
175
330
1F
100
AcDbEntity
  8
0
100
AcDbDimension
  2
*D6
 10
112.5939245240971
 20
137.1981511428022
 30
0.0
 11
109.8439245240971
 21
115.4785150092172
 31
0.0
 70
    32
  1
<>
 71
     5
 42
-1.0
 53
90.0
  3
ME10_DIM_12
100
AcDbAlignedDimension
 13
91.65441178059325
 23
92.1981511428022
 33
0.0
 14
82.34392452409705
 24
137.1981511428022
 34
0.0
 50
90.0
100
AcDbRotatedDimension
  0
DIMENSION
  5
182
330
1F
100
AcDbEntity
  8
0
100
AcDbDimension
  2
*D7
 10
52.59392452409708
 20
148.1981511428022
 30
0.0
 11
67.61319039550077
 21
150.9481511428022
 31
0.0
 70
    32
  1
<>
 71
     5
 42
-1.0
 53
0.00013888888889
  3
ME10_DIM_13
100
AcDbAlignedDimension
 13
82.59392452409705
 23
136.9481511428022
 33
0.0
 14
52.59392452409706
 24
136.9481511428022
 34
0.0
100
AcDbRotatedDimension
  0
DIMENSION
  5
18E
330
1F
100
AcDbEntity
  8
0
100
AcDbDimension
  2
*D8
 10
69.59392452409705
 20
83.1981511428022
 30
0.0
 11
83.14947726493574
 21
85.9481511428022
 31
0.0
 70
    32
  1
<>
 71
     5
 42
-1.0
 53
0.00013888888889
  3
ME10_DIM_14
100
AcDbAlignedDimension
 13
95.59392452409705
 23
106.1981511428022
 33
0.0
 14
69.59392452409705
 24
106.1981511428022
 34
0.0
100
AcDbRotatedDimension
  0
ENDSEC
  0
SECTION
  2
OBJECTS
  0
DICTIONARY
  5
C
330
0
100
AcDbDictionary
281
     1
  3
ACAD_GROUP
350
D
  3
ACAD_LAYOUT
350
1A
  3
ACAD_MATERIAL
350
3B
  3
ACAD_MLEADERSTYLE
350
191
  3
ACAD_MLINESTYLE
350
17
  3
ACAD_PLOTSETTINGS
350
19
  3
ACAD_PLOTSTYLENAME
350
E
  3
ACAD_VISUALSTYLE
350
2A
  3
AcDbVariableDictionary
350
18F
  0
DICTIONARY
  5
D
102
{ACAD_REACTORS
330
C
102
}
330
C
100
AcDbDictionary
281
     1
  0
DICTIONARY
  5
1A
102
{ACAD_REACTORS
330
C
102
}
330
C
100
AcDbDictionary
281
     1
  3
Layout1
350
1E
  3
Layout2
350
26
  3
Model
350
22
  0
DICTIONARY
  5
3B
102
{ACAD_REACTORS
330
C
102
}
330
C
100
AcDbDictionary
281
     1
  3
ByBlock
350
3D
  3
ByLayer
350
3C
  3
Global
350
3E
  0
DICTIONARY
  5
191
102
{ACAD_REACTORS
330
C
102
}
330
C
100
AcDbDictionary
281
     1
  0
DICTIONARY
  5
17
102
{ACAD_REACTORS
330
C
102
}
330
C
100
AcDbDictionary
281
     1
  3
Standard
350
18
  0
DICTIONARY
  5
19
102
{ACAD_REACTORS
330
C
102
}
330
C
100
AcDbDictionary
281
     1
  0
ACDBDICTIONARYWDFLT
  5
E
102
{ACAD_REACTORS
330
C
102
}
330
C
100
AcDbDictionary
281
     1
  3
Normal
350
F
100
AcDbDictionaryWithDefault
340
F
  0
DICTIONARY
  5
2A
102
{ACAD_REACTORS
330
C
102
}
330
C
100
AcDbDictionary
281
     1
  3
2dWireframe
350
2F
  3
3D Hidden
350
31
  3
3dWireframe
350
30
  3
Basic
350
32
  3
Brighten
350
36
  3
ColorChange
350
3A
  3
Conceptual
350
34
  3
Dim
350
35
  3
Facepattern
350
39
  3
Flat
350
2B
  3
FlatWithEdges
350
2C
  3
Gouraud
350
2D
  3
GouraudWithEdges
350
2E
  3
Linepattern
350
38
  3
Realistic
350
33
  3
Thicken
350
37
  0
DICTIONARY
  5
18F
102
{ACAD_REACTORS
330
C
102
}
330
C
100
AcDbDictionary
281
     1
  3
DIMASSOC
350
192
  3
HIDETEXT
350
193
  0
LAYOUT
  5
1E
102
{ACAD_REACTORS
330
1A
102
}
330
1A
100
AcDbPlotSettings
  1

  2
none_device
  4

  6

 40
0.0
 41
0.0
 42
0.0
 43
0.0
 44
0.0
 45
0.0
 46
0.0
 47
0.0
 48
0.0
 49
0.0
140
0.0
141
0.0
142
1.0
143
1.0
 70
   688
 72
     0
 73
     0
 74
     5
  7

 75
    16
147
1.0
148
0.0
149
0.0
100
AcDbLayout
  1
Layout1
 70
     1
 71
     1
 10
0.0
 20
0.0
 11
12.0
 21
9.0
 12
0.0
 22
0.0
 32
0.0
 14
1.00000000000000E+20
 24
1.00000000000000E+20
 34
1.00000000000000E+20
 15
-1.00000000000000E+20
 25
-1.00000000000000E+20
 35
-1.00000000000000E+20
146
0.0
 13
0.0
 23
0.0
 33
0.0
 16
1.0
 26
0.0
 36
0.0
 17
0.0
 27
1.0
 37
0.0
 76
     0
330
1B
  0
LAYOUT
  5
26
102
{ACAD_REACTORS
330
1A
102
}
330
1A
100
AcDbPlotSettings
  1

  2
none_device
  4

  6

 40
0.0
 41
0.0
 42
0.0
 43
0.0
 44
0.0
 45
0.0
 46
0.0
 47
0.0
 48
0.0
 49
0.0
140
0.0
141
0.0
142
1.0
143
1.0
 70
   688
 72
     0
 73
     0
 74
     5
  7

 75
    16
147
1.0
148
0.0
149
0.0
100
AcDbLayout
  1
Layout2
 70
     1
 71
     2
 10
0.0
 20
0.0
 11
0.0
 21
0.0
 12
0.0
 22
0.0
 32
0.0
 14
0.0
 24
0.0
 34
0.0
 15
0.0
 25
0.0
 35
0.0
146
0.0
 13
0.0
 23
0.0
 33
0.0
 16
1.0
 26
0.0
 36
0.0
 17
0.0
 27
1.0
 37
0.0
 76
     0
330
23
  0
LAYOUT
  5
22
102
{ACAD_REACTORS
330
1A
102
}
330
1A
100
AcDbPlotSettings
  1

  2
none_device
  4

  6

 40
0.0
 41
0.0
 42
0.0
 43
0.0
 44
0.0
 45
0.0
 46
0.0
 47
0.0
 48
0.0
 49
0.0
140
0.0
141
0.0
142
1.0
143
1.0
 70
  1712
 72
     0
 73
     0
 74
     0
  7

 75
     0
147
1.0
148
0.0
149
0.0
100
AcDbLayout
  1
Model
 70
     1
 71
     0
 10
0.0
 20
0.0
 11
12.0
 21
9.0
 12
0.0
 22
0.0
 32
0.0
 14
0.0
 24
0.0
 34
0.0
 15
210.0000000000001
 25
297.0
 35
0.0
146
0.0
 13
0.0
 23
0.0
 33
0.0
 16
1.0
 26
0.0
 36
0.0
 17
0.0
 27
1.0
 37
0.0
 76
     0
330
1F
331
29
  0
MATERIAL
  5
3D
102
{ACAD_REACTORS
330
3B
102
}
102
{ACAD_XDICTIONARY
360
1B6
102
}
330
3B
100
AcDbMaterial
  1
ByBlock
  0
MATERIAL
  5
3C
102
{ACAD_REACTORS
330
3B
102
}
102
{ACAD_XDICTIONARY
360
1B4
102
}
330
3B
100
AcDbMaterial
  1
ByLayer
  0
MATERIAL
  5
3E
102
{ACAD_REACTORS
330
3B
102
}
102
{ACAD_XDICTIONARY
360
1B8
102
}
330
3B
100
AcDbMaterial
  1
Global
  0
MLINESTYLE
  5
18
102
{ACAD_REACTORS
330
17
102
}
330
17
100
AcDbMlineStyle
  2
Standard
 70
     0
  3

 62
   256
 51
90.0
 52
90.0
 71
     2
 49
0.5
 62
   256
  6
BYLAYER
 49
-0.5
 62
   256
  6
BYLAYER
  0
ACDBPLACEHOLDER
  5
F
102
{ACAD_REACTORS
330
E
102
}
330
E
  0
VISUALSTYLE
  5
2F
102
{ACAD_REACTORS
330
2A
102
}
102
{ACAD_XDICTIONARY
360
19C
102
}
330
2A
100
AcDbVisualStyle
  2
2dWireframe
 70
     4
 71
     0
 72
     2
 73
     0
 90
        0
 40
-0.6
 41
-30.0
 62
     5
 63
     7
 74
     1
 91
        4
 64
     7
 65
   257
 75
     1
175
     1
 42
1.0
 92
        0
 66
   257
 43
1.0
 76
     1
 77
     6
 78
     2
 67
     7
 79
     5
170
     0
171
     0
290
     0
174
     0
 93
        1
 44
0.0
173
     0
291
     0
 45
0.0
1001
ACAD
1000
AcDbSavedByObjectVersion
1070
     0
  0
VISUALSTYLE
  5
31
102
{ACAD_REACTORS
330
2A
102
}
102
{ACAD_XDICTIONARY
360
1A0
102
}
330
2A
100
AcDbVisualStyle
  2
3D Hidden
 70
     6
 71
     1
 72
     2
 73
     2
 90
        0
 40
-0.6
 41
-30.0
 62
     5
 63
     7
 74
     2
 91
        2
 64
     7
 65
   257
 75
     2
175
     1
 42
40.0
 92
        0
 66
   257
 43
1.0
 76
     1
 77
     6
 78
     2
 67
     7
 79
     3
170
     0
171
     0
290
     0
174
     0
 93
        1
 44
0.0
173
     0
291
     0
 45
0.0
1001
ACAD
1000
AcDbSavedByObjectVersion
1070
     0
  0
VISUALSTYLE
  5
30
102
{ACAD_REACTORS
330
2A
102
}
102
{ACAD_XDICTIONARY
360
19E
102
}
330
2A
100
AcDbVisualStyle
  2
3dWireframe
 70
     5
 71
     0
 72
     2
 73
     0
 90
        0
 40
-0.6
 41
-30.0
 62
     5
 63
     7
 74
     1
 91
        4
 64
     7
 65
   257
 75
     1
175
     1
 42
1.0
 92
        0
 66
   257
 43
1.0
 76
     1
 77
     6
 78
     2
 67
     7
 79
     5
170
     0
171
     0
290
     0
174
     0
 93
        1
 44
0.0
173
     0
291
     0
 45
0.0
1001
ACAD
1000
AcDbSavedByObjectVersion
1070
     0
  0
VISUALSTYLE
  5
32
102
{ACAD_REACTORS
330
2A
102
}
102
{ACAD_XDICTIONARY
360
1A2
102
}
330
2A
100
AcDbVisualStyle
  2
Basic
 70
     7
 71
     1
 72
     0
 73
     1
 90
        0
 40
-0.6
 41
-30.0
 62
     5
 63
     7
 74
     0
 91
        4
 64
     7
 65
   257
 75
     1
175
     1
 42
1.0
 92
        8
 66
     7
 43
1.0
 76
     1
 77
     6
 78
     2
 67
     7
 79
     5
170
     0
171
     0
290
     0
174
     0
 93
        1
 44
0.0
173
     0
291
     1
 45
0.0
1001
ACAD
1000
AcDbSavedByObjectVersion
1070
     0
  0
VISUALSTYLE
  5
36
102
{ACAD_REACTORS
330
2A
102
}
102
{ACAD_XDICTIONARY
360
1AA
102
}
330
2A
100
AcDbVisualStyle
  2
Brighten
 70
    12
 71
     2
 72
     2
 73
     0
 90
        0
 40
-0.6
 41
-30.0
 62
     5
 63
     7
 74
     1
 91
        4
 64
     7
 65
   257
 75
     1
175
     1
 42
1.0
 92
        8
 66
     7
 43
1.0
 76
     1
 77
     6
 78
     2
 67
     7
 79
     5
170
     0
171
     0
290
     0
174
     0
 93
        1
 44
50.0
173
     0
291
     1
 45
0.0
1001
ACAD
1000
AcDbSavedByObjectVersion
1070
     0
  0
VISUALSTYLE
  5
3A
102
{ACAD_REACTORS
330
2A
102
}
102
{ACAD_XDICTIONARY
360
1B2
102
}
330
2A
100
AcDbVisualStyle
  2
ColorChange
 70
    16
 71
     2
 72
     2
 73
     3
 90
        0
 40
-0.6
 41
-30.0
 62
     5
 63
     8
 74
     1
 91
        4
 64
     7
 65
   257
 75
     1
175
     1
 42
1.0
 92
        8
 66
     8
 43
1.0
 76
     1
 77
     6
 78
     2
 67
     7
 79
     5
170
     0
171
     0
290
     0
174
     0
 93
        1
 44
0.0
173
     0
291
     1
 45
0.0
1001
ACAD
1000
AcDbSavedByObjectVersion
1070
     0
  0
VISUALSTYLE
  5
34
102
{ACAD_REACTORS
330
2A
102
}
102
{ACAD_XDICTIONARY
360
1A6
102
}
330
2A
100
AcDbVisualStyle
  2
Conceptual
 70
     9
 71
     3
 72
     2
 73
     0
 90
        0
 40
-0.6
 41
-30.0
 62
     5
 63
     7
 74
     2
 91
        2
 64
     7
 65
   257
 75
     1
175
     1
 42
40.0
 92
        8
 66
     7
 43
1.0
 76
     1
 77
     6
 78
     2
 67
     7
 79
     3
170
     0
171
     0
290
     0
174
     0
 93
        1
 44
0.0
173
     0
291
     0
 45
0.0
1001
ACAD
1000
AcDbSavedByObjectVersion
1070
     0
  0
VISUALSTYLE
  5
35
102
{ACAD_REACTORS
330
2A
102
}
102
{ACAD_XDICTIONARY
360
1A8
102
}
330
2A
100
AcDbVisualStyle
  2
Dim
 70
    11
 71
     2
 72
     2
 73
     0
 90
        0
 40
-0.6
 41
-30.0
 62
     5
 63
     7
 74
     1
 91
        4
 64
     7
 65
   257
 75
     1
175
     1
 42
1.0
 92
        8
 66
     7
 43
1.0
 76
     1
 77
     6
 78
     2
 67
     7
 79
     5
170
     0
171
     0
290
     0
174
     0
 93
        1
 44
-50.0
173
     0
291
     1
 45
0.0
1001
ACAD
1000
AcDbSavedByObjectVersion
1070
     0
  0
VISUALSTYLE
  5
39
102
{ACAD_REACTORS
330
2A
102
}
102
{ACAD_XDICTIONARY
360
1B0
102
}
330
2A
100
AcDbVisualStyle
  2
Facepattern
 70
    15
 71
     2
 72
     2
 73
     0
 90
        0
 40
-0.6
 41
-30.0
 62
     5
 63
     7
 74
     1
 91
        4
 64
     7
 65
   257
 75
     1
175
     1
 42
1.0
 92
        8
 66
     7
 43
1.0
 76
     1
 77
     6
 78
     2
 67
     7
 79
     5
170
     0
171
     0
290
     0
174
     0
 93
        1
 44
0.0
173
     0
291
     1
 45
0.0
1001
ACAD
1000
AcDbSavedByObjectVersion
1070
     0
  0
VISUALSTYLE
  5
2B
102
{ACAD_REACTORS
330
2A
102
}
102
{ACAD_XDICTIONARY
360
194
102
}
330
2A
100
AcDbVisualStyle
  2
Flat
 70
     0
 71
     2
 72
     1
 73
     1
 90
        2
 40
-0.6
 41
30.0
 62
     5
 63
     7
 74
     0
 91
        4
 64
     7
 65
   257
 75
     1
175
     1
 42
1.0
 92
        8
 66
     7
 43
1.0
 76
     1
 77
     6
 78
     2
 67
     7
 79
     5
170
     0
171
     0
290
     0
174
     0
 93
       13
 44
0.0
173
     0
291
     1
 45
0.0
1001
ACAD
1000
AcDbSavedByObjectVersion
1070
     0
  0
VISUALSTYLE
  5
2C
102
{ACAD_REACTORS
330
2A
102
}
102
{ACAD_XDICTIONARY
360
196
102
}
330
2A
100
AcDbVisualStyle
  2
FlatWithEdges
 70
     1
 71
     2
 72
     1
 73
     1
 90
        2
 40
-0.6
 41
30.0
 62
     5
 63
     7
 74
     1
 91
        4
 64
     7
 65
   257
 75
     1
175
     1
 42
1.0
 92
        0
 66
   257
 43
1.0
 76
     1
 77
     6
 78
     2
 67
     7
 79
     5
170
     0
171
     0
290
     0
174
     0
 93
       13
 44
0.0
173
     0
291
     1
 45
0.0
1001
ACAD
1000
AcDbSavedByObjectVersion
1070
     0
  0
VISUALSTYLE
  5
2D
102
{ACAD_REACTORS
330
2A
102
}
102
{ACAD_XDICTIONARY
360
198
102
}
330
2A
100
AcDbVisualStyle
  2
Gouraud
 70
     2
 71
     2
 72
     2
 73
     1
 90
        2
 40
-0.6
 41
30.0
 62
     5
 63
     7
 74
     0
 91
        4
 64
     7
 65
   257
 75
     1
175
     1
 42
1.0
 92
        0
 66
     7
 43
1.0
 76
     1
 77
     6
 78
     2
 67
     7
 79
     5
170
     0
171
     0
290
     0
174
     0
 93
       13
 44
0.0
173
     0
291
     1
 45
0.0
1001
ACAD
1000
AcDbSavedByObjectVersion
1070
     0
  0
VISUALSTYLE
  5
2E
102
{ACAD_REACTORS
330
2A
102
}
102
{ACAD_XDICTIONARY
360
19A
102
}
330
2A
100
AcDbVisualStyle
  2
GouraudWithEdges
 70
     3
 71
     2
 72
     2
 73
     1
 90
        2
 40
-0.6
 41
30.0
 62
     5
 63
     7
 74
     1
 91
        4
 64
     7
 65
   257
 75
     1
175
     1
 42
1.0
 92
        0
 66
   257
 43
1.0
 76
     1
 77
     6
 78
     2
 67
     7
 79
     5
170
     0
171
     0
290
     0
174
     0
 93
       13
 44
0.0
173
     0
291
     1
 45
0.0
1001
ACAD
1000
AcDbSavedByObjectVersion
1070
     0
  0
VISUALSTYLE
  5
38
102
{ACAD_REACTORS
330
2A
102
}
102
{ACAD_XDICTIONARY
360
1AE
102
}
330
2A
100
AcDbVisualStyle
  2
Linepattern
 70
    14
 71
     2
 72
     2
 73
     0
 90
        0
 40
-0.6
 41
-30.0
 62
     5
 63
     7
 74
     1
 91
        4
 64
     7
 65
   257
 75
     7
175
     7
 42
1.0
 92
        8
 66
     7
 43
1.0
 76
     1
 77
     6
 78
     2
 67
     7
 79
     5
170
     0
171
     0
290
     0
174
     0
 93
        1
 44
0.0
173
     0
291
     1
 45
0.0
1001
ACAD
1000
AcDbSavedByObjectVersion
1070
     0
  0
VISUALSTYLE
  5
33
102
{ACAD_REACTORS
330
2A
102
}
102
{ACAD_XDICTIONARY
360
1A4
102
}
330
2A
100
AcDbVisualStyle
  2
Realistic
 70
     8
 71
     2
 72
     2
 73
     0
 90
        0
 40
-0.6
 41
-30.0
 62
     5
 63
     7
 74
     1
 91
        0
 64
     7
 65
   257
 75
     1
175
     1
 42
1.0
 92
        8
 66
     8
 43
1.0
 76
     1
 77
     6
 78
     2
 67
     7
 79
     5
170
     0
171
     0
290
     0
174
     0
 93
       13
 44
0.0
173
     0
291
     0
 45
0.0
1001
ACAD
1000
AcDbSavedByObjectVersion
1070
     0
  0
VISUALSTYLE
  5
37
102
{ACAD_REACTORS
330
2A
102
}
102
{ACAD_XDICTIONARY
360
1AC
102
}
330
2A
100
AcDbVisualStyle
  2
Thicken
 70
    13
 71
     2
 72
     2
 73
     0
 90
        0
 40
-0.6
 41
-30.0
 62
     5
 63
     7
 74
     1
 91
        4
 64
     7
 65
   257
 75
     1
175
     1
 42
1.0
 92
       12
 66
     7
 43
1.0
 76
     1
 77
     6
 78
     2
 67
     7
 79
     5
170
     0
171
     0
290
     0
174
     0
 93
        1
 44
0.0
173
     0
291
     1
 45
0.0
1001
ACAD
1000
AcDbSavedByObjectVersion
1070
     0
  0
DICTIONARYVAR
  5
192
102
{ACAD_REACTORS
330
18F
102
}
330
18F
100
DictionaryVariables
280
     0
  1
2
  0
DICTIONARYVAR
  5
193
102
{ACAD_REACTORS
330
18F
102
}
330
18F
100
DictionaryVariables
280
     0
  1
1
  0
DICTIONARY
  5
1B6
330
3D
100
AcDbDictionary
280
     1
281
     1
  3
ACAD_XREC_ROUNDTRIP
360
1B7
  0
DICTIONARY
  5
1B4
330
3C
100
AcDbDictionary
280
     1
281
     1
  3
ACAD_XREC_ROUNDTRIP
360
1B5
  0
DICTIONARY
  5
1B8
330
3E
100
AcDbDictionary
280
     1
281
     1
  3
ACAD_XREC_ROUNDTRIP
360
1B9
  0
DICTIONARY
  5
19C
330
2F
100
AcDbDictionary
280
     1
281
     1
  3
ACAD_XREC_ROUNDTRIP
360
19D
  0
DICTIONARY
  5
1A0
330
31
100
AcDbDictionary
280
     1
281
     1
  3
ACAD_XREC_ROUNDTRIP
360
1A1
  0
DICTIONARY
  5
19E
330
30
100
AcDbDictionary
280
     1
281
     1
  3
ACAD_XREC_ROUNDTRIP
360
19F
  0
DICTIONARY
  5
1A2
330
32
100
AcDbDictionary
280
     1
281
     1
  3
ACAD_XREC_ROUNDTRIP
360
1A3
  0
DICTIONARY
  5
1AA
330
36
100
AcDbDictionary
280
     1
281
     1
  3
ACAD_XREC_ROUNDTRIP
360
1AB
  0
DICTIONARY
  5
1B2
330
3A
100
AcDbDictionary
280
     1
281
     1
  3
ACAD_XREC_ROUNDTRIP
360
1B3
  0
DICTIONARY
  5
1A6
330
34
100
AcDbDictionary
280
     1
281
     1
  3
ACAD_XREC_ROUNDTRIP
360
1A7
  0
DICTIONARY
  5
1A8
330
35
100
AcDbDictionary
280
     1
281
     1
  3
ACAD_XREC_ROUNDTRIP
360
1A9
  0
DICTIONARY
  5
1B0
330
39
100
AcDbDictionary
280
     1
281
     1
  3
ACAD_XREC_ROUNDTRIP
360
1B1
  0
DICTIONARY
  5
194
330
2B
100
AcDbDictionary
280
     1
281
     1
  3
ACAD_XREC_ROUNDTRIP
360
195
  0
DICTIONARY
  5
196
330
2C
100
AcDbDictionary
280
     1
281
     1
  3
ACAD_XREC_ROUNDTRIP
360
197
  0
DICTIONARY
  5
198
330
2D
100
AcDbDictionary
280
     1
281
     1
  3
ACAD_XREC_ROUNDTRIP
360
199
  0
DICTIONARY
  5
19A
330
2E
100
AcDbDictionary
280
     1
281
     1
  3
ACAD_XREC_ROUNDTRIP
360
19B
  0
DICTIONARY
  5
1AE
330
38
100
AcDbDictionary
280
     1
281
     1
  3
ACAD_XREC_ROUNDTRIP
360
1AF
  0
DICTIONARY
  5
1A4
330
33
100
AcDbDictionary
280
     1
281
     1
  3
ACAD_XREC_ROUNDTRIP
360
1A5
  0
DICTIONARY
  5
1AC
330
37
100
AcDbDictionary
280
     1
281
     1
  3
ACAD_XREC_ROUNDTRIP
360
1AD
  0
XRECORD
  5
1B7
102
{ACAD_REACTORS
330
1B6
102
}
330
1B6
100
AcDbXrecord
280
     1
102
MATERIAL
148
0.0
149
0.0
149
0.0
 93
        0
 94
      127
282
     0
 72
     1
 77
     1
171
     1
175
     1
179
     1
273
     0
  0
XRECORD
  5
1B5
102
{ACAD_REACTORS
330
1B4
102
}
330
1B4
100
AcDbXrecord
280
     1
102
MATERIAL
148
0.0
149
0.0
149
0.0
 93
        0
 94
      127
282
     0
 72
     1
 77
     1
171
     1
175
     1
179
     1
273
     0
  0
XRECORD
  5
1B9
102
{ACAD_REACTORS
330
1B8
102
}
330
1B8
100
AcDbXrecord
280
     1
102
MATERIAL
148
0.0
149
0.0
149
0.0
 93
        0
 94
      127
282
     0
 72
     1
 77
     1
171
     1
175
     1
179
     1
273
     0
  0
XRECORD
  5
19D
102
{ACAD_REACTORS
330
19C
102
}
330
19C
100
AcDbXrecord
280
     1
102
RTVSPropertyOp0
 70
     1
102
RTVSPropertyOp1
 70
     1
102
RTVSPropertyOp2
 70
     1
102
RTVSPropertyOp3
 70
     1
102
RTVSPropertyOp4
 70
     1
102
RTVSPropertyOp5
 70
     1
102
RTVSPropertyOp6
 70
     1
102
RTVSPropertyOp7
 70
     1
102
RTVSPropertyOp8
 70
     1
102
RTVSPropertyOp9
 70
     1
102
RTVSPropertyOp10
 70
     1
102
RTVSPropertyOp11
 70
     1
102
RTVSPropertyOp12
 70
     1
102
RTVSPropertyOp13
 70
     1
102
RTVSPropertyOp14
 70
     1
102
RTVSPropertyOp15
 70
     1
102
RTVSPropertyOp16
 70
     1
102
RTVSPropertyOp17
 70
     1
102
RTVSPropertyOp18
 70
     1
102
RTVSPropertyOp19
 70
     1
102
RTVSPropertyOp20
 70
     1
102
RTVSPropertyOp21
 70
     1
102
RTVSPropertyOp22
 70
     1
102
RTVSPropertyOp23
 70
     1
102
RTVSPropertyOp24
 70
     1
102
RTVSPropertyOp25
 70
     1
102
RTVSPropertyOp26
 70
     1
102
RTVSPropertyOp27
 70
     1
102
RTVSPropertyOp28
 70
     1
102
RTVSPropertyOp29
 70
     1
102
RTVSPropertyOp30
 70
     1
102
RTVSPropertyOp31
 70
     1
102
RTVSPropertyOp32
 70
     1
  0
XRECORD
  5
1A1
102
{ACAD_REACTORS
330
1A0
102
}
330
1A0
100
AcDbXrecord
280
     1
102
RTVSPropertyOp0
 70
     1
102
RTVSPropertyOp1
 70
     1
102
RTVSPropertyOp2
 70
     1
102
RTVSPropertyOp3
 70
     1
102
RTVSPropertyOp4
 70
     1
102
RTVSPropertyOp5
 70
     1
102
RTVSPropertyOp6
 70
     1
102
RTVSPropertyOp7
 70
     1
102
RTVSPropertyOp8
 70
     1
102
RTVSPropertyOp9
 70
     1
102
RTVSPropertyOp10
 70
     1
102
RTVSPropertyOp11
 70
     1
102
RTVSPropertyOp12
 70
     1
102
RTVSPropertyOp13
 70
     1
102
RTVSPropertyOp14
 70
     1
102
RTVSPropertyOp15
 70
     1
102
RTVSPropertyOp16
 70
     1
102
RTVSPropertyOp17
 70
     1
102
RTVSPropertyOp18
 70
     1
102
RTVSPropertyOp19
 70
     1
102
RTVSPropertyOp20
 70
     1
102
RTVSPropertyOp21
 70
     1
102
RTVSPropertyOp22
 70
     1
102
RTVSPropertyOp23
 70
     1
102
RTVSPropertyOp24
 70
     1
102
RTVSPropertyOp25
 70
     1
102
RTVSPropertyOp26
 70
     1
102
RTVSPropertyOp27
 70
     1
102
RTVSPropertyOp28
 70
     1
102
RTVSPropertyOp29
 70
     1
102
RTVSPropertyOp30
 70
     1
102
RTVSPropertyOp31
 70
     1
102
RTVSPropertyOp32
 70
     1
  0
XRECORD
  5
19F
102
{ACAD_REACTORS
330
19E
102
}
330
19E
100
AcDbXrecord
280
     1
102
RTVSPropertyOp0
 70
     1
102
RTVSPropertyOp1
 70
     1
102
RTVSPropertyOp2
 70
     1
102
RTVSPropertyOp3
 70
     1
102
RTVSPropertyOp4
 70
     1
102
RTVSPropertyOp5
 70
     1
102
RTVSPropertyOp6
 70
     1
102
RTVSPropertyOp7
 70
     1
102
RTVSPropertyOp8
 70
     1
102
RTVSPropertyOp9
 70
     1
102
RTVSPropertyOp10
 70
     1
102
RTVSPropertyOp11
 70
     1
102
RTVSPropertyOp12
 70
     1
102
RTVSPropertyOp13
 70
     1
102
RTVSPropertyOp14
 70
     1
102
RTVSPropertyOp15
 70
     1
102
RTVSPropertyOp16
 70
     1
102
RTVSPropertyOp17
 70
     1
102
RTVSPropertyOp18
 70
     1
102
RTVSPropertyOp19
 70
     1
102
RTVSPropertyOp20
 70
     1
102
RTVSPropertyOp21
 70
     1
102
RTVSPropertyOp22
 70
     1
102
RTVSPropertyOp23
 70
     1
102
RTVSPropertyOp24
 70
     1
102
RTVSPropertyOp25
 70
     1
102
RTVSPropertyOp26
 70
     1
102
RTVSPropertyOp27
 70
     1
102
RTVSPropertyOp28
 70
     1
102
RTVSPropertyOp29
 70
     1
102
RTVSPropertyOp30
 70
     1
102
RTVSPropertyOp31
 70
     1
102
RTVSPropertyOp32
 70
     1
  0
XRECORD
  5
1A3
102
{ACAD_REACTORS
330
1A2
102
}
330
1A2
100
AcDbXrecord
280
     1
102
RTVSPropertyOp0
 70
     1
102
RTVSPropertyOp1
 70
     1
102
RTVSPropertyOp2
 70
     1
102
RTVSPropertyOp3
 70
     1
102
RTVSPropertyOp4
 70
     1
102
RTVSPropertyOp5
 70
     1
102
RTVSPropertyOp6
 70
     1
102
RTVSPropertyOp7
 70
     1
102
RTVSPropertyOp8
 70
     1
102
RTVSPropertyOp9
 70
     1
102
RTVSPropertyOp10
 70
     1
102
RTVSPropertyOp11
 70
     1
102
RTVSPropertyOp12
 70
     1
102
RTVSPropertyOp13
 70
     1
102
RTVSPropertyOp14
 70
     1
102
RTVSPropertyOp15
 70
     1
102
RTVSPropertyOp16
 70
     1
102
RTVSPropertyOp17
 70
     1
102
RTVSPropertyOp18
 70
     1
102
RTVSPropertyOp19
 70
     1
102
RTVSPropertyOp20
 70
     1
102
RTVSPropertyOp21
 70
     1
102
RTVSPropertyOp22
 70
     1
102
RTVSPropertyOp23
 70
     1
102
RTVSPropertyOp24
 70
     1
102
RTVSPropertyOp25
 70
     1
102
RTVSPropertyOp26
 70
     1
102
RTVSPropertyOp27
 70
     1
102
RTVSPropertyOp28
 70
     1
102
RTVSPropertyOp29
 70
     1
102
RTVSPropertyOp30
 70
     1
102
RTVSPropertyOp31
 70
     1
102
RTVSPropertyOp32
 70
     1
  0
XRECORD
  5
1AB
102
{ACAD_REACTORS
330
1AA
102
}
330
1AA
100
AcDbXrecord
280
     1
102
RTVSPropertyOp0
 70
     1
102
RTVSPropertyOp1
 70
     1
102
RTVSPropertyOp2
 70
     1
102
RTVSPropertyOp3
 70
     1
102
RTVSPropertyOp4
 70
     1
102
RTVSPropertyOp5
 70
     1
102
RTVSPropertyOp6
 70
     1
102
RTVSPropertyOp7
 70
     1
102
RTVSPropertyOp8
 70
     1
102
RTVSPropertyOp9
 70
     1
102
RTVSPropertyOp10
 70
     1
102
RTVSPropertyOp11
 70
     1
102
RTVSPropertyOp12
 70
     1
102
RTVSPropertyOp13
 70
     1
102
RTVSPropertyOp14
 70
     1
102
RTVSPropertyOp15
 70
     1
102
RTVSPropertyOp16
 70
     1
102
RTVSPropertyOp17
 70
     1
102
RTVSPropertyOp18
 70
     1
102
RTVSPropertyOp19
 70
     1
102
RTVSPropertyOp20
 70
     1
102
RTVSPropertyOp21
 70
     1
102
RTVSPropertyOp22
 70
     1
102
RTVSPropertyOp23
 70
     1
102
RTVSPropertyOp24
 70
     1
102
RTVSPropertyOp25
 70
     1
102
RTVSPropertyOp26
 70
     1
102
RTVSPropertyOp27
 70
     1
102
RTVSPropertyOp28
 70
     1
102
RTVSPropertyOp29
 70
     1
102
RTVSPropertyOp30
 70
     1
102
RTVSPropertyOp31
 70
     1
102
RTVSPropertyOp32
 70
     1
  0
XRECORD
  5
1B3
102
{ACAD_REACTORS
330
1B2
102
}
330
1B2
100
AcDbXrecord
280
     1
102
RTVSPropertyOp0
 70
     1
102
RTVSPropertyOp1
 70
     1
102
RTVSPropertyOp2
 70
     1
102
RTVSPropertyOp3
 70
     1
102
RTVSPropertyOp4
 70
     1
102
RTVSPropertyOp5
 70
     1
102
RTVSPropertyOp6
 70
     1
102
RTVSPropertyOp7
 70
     1
102
RTVSPropertyOp8
 70
     1
102
RTVSPropertyOp9
 70
     1
102
RTVSPropertyOp10
 70
     1
102
RTVSPropertyOp11
 70
     1
102
RTVSPropertyOp12
 70
     1
102
RTVSPropertyOp13
 70
     1
102
RTVSPropertyOp14
 70
     1
102
RTVSPropertyOp15
 70
     1
102
RTVSPropertyOp16
 70
     1
102
RTVSPropertyOp17
 70
     1
102
RTVSPropertyOp18
 70
     1
102
RTVSPropertyOp19
 70
     1
102
RTVSPropertyOp20
 70
     1
102
RTVSPropertyOp21
 70
     1
102
RTVSPropertyOp22
 70
     1
102
RTVSPropertyOp23
 70
     1
102
RTVSPropertyOp24
 70
     1
102
RTVSPropertyOp25
 70
     1
102
RTVSPropertyOp26
 70
     1
102
RTVSPropertyOp27
 70
     1
102
RTVSPropertyOp28
 70
     1
102
RTVSPropertyOp29
 70
     1
102
RTVSPropertyOp30
 70
     1
102
RTVSPropertyOp31
 70
     1
102
RTVSPropertyOp32
 70
     1
  0
XRECORD
  5
1A7
102
{ACAD_REACTORS
330
1A6
102
}
330
1A6
100
AcDbXrecord
280
     1
102
RTVSPropertyOp0
 70
     1
102
RTVSPropertyOp1
 70
     1
102
RTVSPropertyOp2
 70
     1
102
RTVSPropertyOp3
 70
     1
102
RTVSPropertyOp4
 70
     1
102
RTVSPropertyOp5
 70
     1
102
RTVSPropertyOp6
 70
     1
102
RTVSPropertyOp7
 70
     1
102
RTVSPropertyOp8
 70
     1
102
RTVSPropertyOp9
 70
     1
102
RTVSPropertyOp10
 70
     1
102
RTVSPropertyOp11
 70
     1
102
RTVSPropertyOp12
 70
     1
102
RTVSPropertyOp13
 70
     1
102
RTVSPropertyOp14
 70
     1
102
RTVSPropertyOp15
 70
     1
102
RTVSPropertyOp16
 70
     1
102
RTVSPropertyOp17
 70
     1
102
RTVSPropertyOp18
 70
     1
102
RTVSPropertyOp19
 70
     1
102
RTVSPropertyOp20
 70
     1
102
RTVSPropertyOp21
 70
     1
102
RTVSPropertyOp22
 70
     1
102
RTVSPropertyOp23
 70
     1
102
RTVSPropertyOp24
 70
     1
102
RTVSPropertyOp25
 70
     1
102
RTVSPropertyOp26
 70
     1
102
RTVSPropertyOp27
 70
     1
102
RTVSPropertyOp28
 70
     1
102
RTVSPropertyOp29
 70
     1
102
RTVSPropertyOp30
 70
     1
102
RTVSPropertyOp31
 70
     1
102
RTVSPropertyOp32
 70
     1
  0
XRECORD
  5
1A9
102
{ACAD_REACTORS
330
1A8
102
}
330
1A8
100
AcDbXrecord
280
     1
102
RTVSPropertyOp0
 70
     1
102
RTVSPropertyOp1
 70
     1
102
RTVSPropertyOp2
 70
     1
102
RTVSPropertyOp3
 70
     1
102
RTVSPropertyOp4
 70
     1
102
RTVSPropertyOp5
 70
     1
102
RTVSPropertyOp6
 70
     1
102
RTVSPropertyOp7
 70
     1
102
RTVSPropertyOp8
 70
     1
102
RTVSPropertyOp9
 70
     1
102
RTVSPropertyOp10
 70
     1
102
RTVSPropertyOp11
 70
     1
102
RTVSPropertyOp12
 70
     1
102
RTVSPropertyOp13
 70
     1
102
RTVSPropertyOp14
 70
     1
102
RTVSPropertyOp15
 70
     1
102
RTVSPropertyOp16
 70
     1
102
RTVSPropertyOp17
 70
     1
102
RTVSPropertyOp18
 70
     1
102
RTVSPropertyOp19
 70
     1
102
RTVSPropertyOp20
 70
     1
102
RTVSPropertyOp21
 70
     1
102
RTVSPropertyOp22
 70
     1
102
RTVSPropertyOp23
 70
     1
102
RTVSPropertyOp24
 70
     1
102
RTVSPropertyOp25
 70
     1
102
RTVSPropertyOp26
 70
     1
102
RTVSPropertyOp27
 70
     1
102
RTVSPropertyOp28
 70
     1
102
RTVSPropertyOp29
 70
     1
102
RTVSPropertyOp30
 70
     1
102
RTVSPropertyOp31
 70
     1
102
RTVSPropertyOp32
 70
     1
  0
XRECORD
  5
1B1
102
{ACAD_REACTORS
330
1B0
102
}
330
1B0
100
AcDbXrecord
280
     1
102
RTVSPropertyOp0
 70
     1
102
RTVSPropertyOp1
 70
     1
102
RTVSPropertyOp2
 70
     1
102
RTVSPropertyOp3
 70
     1
102
RTVSPropertyOp4
 70
     1
102
RTVSPropertyOp5
 70
     1
102
RTVSPropertyOp6
 70
     1
102
RTVSPropertyOp7
 70
     1
102
RTVSPropertyOp8
 70
     1
102
RTVSPropertyOp9
 70
     1
102
RTVSPropertyOp10
 70
     1
102
RTVSPropertyOp11
 70
     1
102
RTVSPropertyOp12
 70
     1
102
RTVSPropertyOp13
 70
     1
102
RTVSPropertyOp14
 70
     1
102
RTVSPropertyOp15
 70
     1
102
RTVSPropertyOp16
 70
     1
102
RTVSPropertyOp17
 70
     1
102
RTVSPropertyOp18
 70
     1
102
RTVSPropertyOp19
 70
     1
102
RTVSPropertyOp20
 70
     1
102
RTVSPropertyOp21
 70
     1
102
RTVSPropertyOp22
 70
     1
102
RTVSPropertyOp23
 70
     1
102
RTVSPropertyOp24
 70
     1
102
RTVSPropertyOp25
 70
     1
102
RTVSPropertyOp26
 70
     1
102
RTVSPropertyOp27
 70
     1
102
RTVSPropertyOp28
 70
     1
102
RTVSPropertyOp29
 70
     1
102
RTVSPropertyOp30
 70
     1
102
RTVSPropertyOp31
 70
     1
102
RTVSPropertyOp32
 70
     1
  0
XRECORD
  5
195
102
{ACAD_REACTORS
330
194
102
}
330
194
100
AcDbXrecord
280
     1
102
RTVSPropertyOp0
 70
     1
102
RTVSPropertyOp1
 70
     1
102
RTVSPropertyOp2
 70
     1
102
RTVSPropertyOp3
 70
     1
102
RTVSPropertyOp4
 70
     1
102
RTVSPropertyOp5
 70
     1
102
RTVSPropertyOp6
 70
     1
102
RTVSPropertyOp7
 70
     1
102
RTVSPropertyOp8
 70
     1
102
RTVSPropertyOp9
 70
     1
102
RTVSPropertyOp10
 70
     1
102
RTVSPropertyOp11
 70
     1
102
RTVSPropertyOp12
 70
     1
102
RTVSPropertyOp13
 70
     1
102
RTVSPropertyOp14
 70
     1
102
RTVSPropertyOp15
 70
     1
102
RTVSPropertyOp16
 70
     1
102
RTVSPropertyOp17
 70
     1
102
RTVSPropertyOp18
 70
     1
102
RTVSPropertyOp19
 70
     1
102
RTVSPropertyOp20
 70
     1
102
RTVSPropertyOp21
 70
     1
102
RTVSPropertyOp22
 70
     1
102
RTVSPropertyOp23
 70
     1
102
RTVSPropertyOp24
 70
     1
102
RTVSPropertyOp25
 70
     1
102
RTVSPropertyOp26
 70
     1
102
RTVSPropertyOp27
 70
     1
102
RTVSPropertyOp28
 70
     1
102
RTVSPropertyOp29
 70
     1
102
RTVSPropertyOp30
 70
     1
102
RTVSPropertyOp31
 70
     1
102
RTVSPropertyOp32
 70
     1
  0
XRECORD
  5
197
102
{ACAD_REACTORS
330
196
102
}
330
196
100
AcDbXrecord
280
     1
102
RTVSPropertyOp0
 70
     1
102
RTVSPropertyOp1
 70
     1
102
RTVSPropertyOp2
 70
     1
102
RTVSPropertyOp3
 70
     1
102
RTVSPropertyOp4
 70
     1
102
RTVSPropertyOp5
 70
     1
102
RTVSPropertyOp6
 70
     1
102
RTVSPropertyOp7
 70
     1
102
RTVSPropertyOp8
 70
     1
102
RTVSPropertyOp9
 70
     1
102
RTVSPropertyOp10
 70
     1
102
RTVSPropertyOp11
 70
     1
102
RTVSPropertyOp12
 70
     1
102
RTVSPropertyOp13
 70
     1
102
RTVSPropertyOp14
 70
     1
102
RTVSPropertyOp15
 70
     1
102
RTVSPropertyOp16
 70
     1
102
RTVSPropertyOp17
 70
     1
102
RTVSPropertyOp18
 70
     1
102
RTVSPropertyOp19
 70
     1
102
RTVSPropertyOp20
 70
     1
102
RTVSPropertyOp21
 70
     1
102
RTVSPropertyOp22
 70
     1
102
RTVSPropertyOp23
 70
     1
102
RTVSPropertyOp24
 70
     1
102
RTVSPropertyOp25
 70
     1
102
RTVSPropertyOp26
 70
     1
102
RTVSPropertyOp27
 70
     1
102
RTVSPropertyOp28
 70
     1
102
RTVSPropertyOp29
 70
     1
102
RTVSPropertyOp30
 70
     1
102
RTVSPropertyOp31
 70
     1
102
RTVSPropertyOp32
 70
     1
  0
XRECORD
  5
199
102
{ACAD_REACTORS
330
198
102
}
330
198
100
AcDbXrecord
280
     1
102
RTVSPropertyOp0
 70
     1
102
RTVSPropertyOp1
 70
     1
102
RTVSPropertyOp2
 70
     1
102
RTVSPropertyOp3
 70
     1
102
RTVSPropertyOp4
 70
     1
102
RTVSPropertyOp5
 70
     1
102
RTVSPropertyOp6
 70
     1
102
RTVSPropertyOp7
 70
     1
102
RTVSPropertyOp8
 70
     1
102
RTVSPropertyOp9
 70
     1
102
RTVSPropertyOp10
 70
     1
102
RTVSPropertyOp11
 70
     1
102
RTVSPropertyOp12
 70
     1
102
RTVSPropertyOp13
 70
     1
102
RTVSPropertyOp14
 70
     1
102
RTVSPropertyOp15
 70
     1
102
RTVSPropertyOp16
 70
     1
102
RTVSPropertyOp17
 70
     1
102
RTVSPropertyOp18
 70
     1
102
RTVSPropertyOp19
 70
     1
102
RTVSPropertyOp20
 70
     1
102
RTVSPropertyOp21
 70
     1
102
RTVSPropertyOp22
 70
     1
102
RTVSPropertyOp23
 70
     1
102
RTVSPropertyOp24
 70
     1
102
RTVSPropertyOp25
 70
     1
102
RTVSPropertyOp26
 70
     1
102
RTVSPropertyOp27
 70
     1
102
RTVSPropertyOp28
 70
     1
102
RTVSPropertyOp29
 70
     1
102
RTVSPropertyOp30
 70
     1
102
RTVSPropertyOp31
 70
     1
102
RTVSPropertyOp32
 70
     1
  0
XRECORD
  5
19B
102
{ACAD_REACTORS
330
19A
102
}
330
19A
100
AcDbXrecord
280
     1
102
RTVSPropertyOp0
 70
     1
102
RTVSPropertyOp1
 70
     1
102
RTVSPropertyOp2
 70
     1
102
RTVSPropertyOp3
 70
     1
102
RTVSPropertyOp4
 70
     1
102
RTVSPropertyOp5
 70
     1
102
RTVSPropertyOp6
 70
     1
102
RTVSPropertyOp7
 70
     1
102
RTVSPropertyOp8
 70
     1
102
RTVSPropertyOp9
 70
     1
102
RTVSPropertyOp10
 70
     1
102
RTVSPropertyOp11
 70
     1
102
RTVSPropertyOp12
 70
     1
102
RTVSPropertyOp13
 70
     1
102
RTVSPropertyOp14
 70
     1
102
RTVSPropertyOp15
 70
     1
102
RTVSPropertyOp16
 70
     1
102
RTVSPropertyOp17
 70
     1
102
RTVSPropertyOp18
 70
     1
102
RTVSPropertyOp19
 70
     1
102
RTVSPropertyOp20
 70
     1
102
RTVSPropertyOp21
 70
     1
102
RTVSPropertyOp22
 70
     1
102
RTVSPropertyOp23
 70
     1
102
RTVSPropertyOp24
 70
     1
102
RTVSPropertyOp25
 70
     1
102
RTVSPropertyOp26
 70
     1
102
RTVSPropertyOp27
 70
     1
102
RTVSPropertyOp28
 70
     1
102
RTVSPropertyOp29
 70
     1
102
RTVSPropertyOp30
 70
     1
102
RTVSPropertyOp31
 70
     1
102
RTVSPropertyOp32
 70
     1
  0
XRECORD
  5
1AF
102
{ACAD_REACTORS
330
1AE
102
}
330
1AE
100
AcDbXrecord
280
     1
102
RTVSPropertyOp0
 70
     1
102
RTVSPropertyOp1
 70
     1
102
RTVSPropertyOp2
 70
     1
102
RTVSPropertyOp3
 70
     1
102
RTVSPropertyOp4
 70
     1
102
RTVSPropertyOp5
 70
     1
102
RTVSPropertyOp6
 70
     1
102
RTVSPropertyOp7
 70
     1
102
RTVSPropertyOp8
 70
     1
102
RTVSPropertyOp9
 70
     1
102
RTVSPropertyOp10
 70
     1
102
RTVSPropertyOp11
 70
     1
102
RTVSPropertyOp12
 70
     1
102
RTVSPropertyOp13
 70
     1
102
RTVSPropertyOp14
 70
     1
102
RTVSPropertyOp15
 70
     1
102
RTVSPropertyOp16
 70
     1
102
RTVSPropertyOp17
 70
     1
102
RTVSPropertyOp18
 70
     1
102
RTVSPropertyOp19
 70
     1
102
RTVSPropertyOp20
 70
     1
102
RTVSPropertyOp21
 70
     1
102
RTVSPropertyOp22
 70
     1
102
RTVSPropertyOp23
 70
     1
102
RTVSPropertyOp24
 70
     1
102
RTVSPropertyOp25
 70
     1
102
RTVSPropertyOp26
 70
     1
102
RTVSPropertyOp27
 70
     1
102
RTVSPropertyOp28
 70
     1
102
RTVSPropertyOp29
 70
     1
102
RTVSPropertyOp30
 70
     1
102
RTVSPropertyOp31
 70
     1
102
RTVSPropertyOp32
 70
     1
  0
XRECORD
  5
1A5
102
{ACAD_REACTORS
330
1A4
102
}
330
1A4
100
AcDbXrecord
280
     1
102
RTVSPropertyOp0
 70
     1
102
RTVSPropertyOp1
 70
     1
102
RTVSPropertyOp2
 70
     1
102
RTVSPropertyOp3
 70
     1
102
RTVSPropertyOp4
 70
     1
102
RTVSPropertyOp5
 70
     1
102
RTVSPropertyOp6
 70
     1
102
RTVSPropertyOp7
 70
     1
102
RTVSPropertyOp8
 70
     1
102
RTVSPropertyOp9
 70
     1
102
RTVSPropertyOp10
 70
     1
102
RTVSPropertyOp11
 70
     1
102
RTVSPropertyOp12
 70
     1
102
RTVSPropertyOp13
 70
     1
102
RTVSPropertyOp14
 70
     1
102
RTVSPropertyOp15
 70
     1
102
RTVSPropertyOp16
 70
     1
102
RTVSPropertyOp17
 70
     1
102
RTVSPropertyOp18
 70
     1
102
RTVSPropertyOp19
 70
     1
102
RTVSPropertyOp20
 70
     1
102
RTVSPropertyOp21
 70
     1
102
RTVSPropertyOp22
 70
     1
102
RTVSPropertyOp23
 70
     1
102
RTVSPropertyOp24
 70
     1
102
RTVSPropertyOp25
 70
     1
102
RTVSPropertyOp26
 70
     1
102
RTVSPropertyOp27
 70
     1
102
RTVSPropertyOp28
 70
     1
102
RTVSPropertyOp29
 70
     1
102
RTVSPropertyOp30
 70
     1
102
RTVSPropertyOp31
 70
     1
102
RTVSPropertyOp32
 70
     1
  0
XRECORD
  5
1AD
102
{ACAD_REACTORS
330
1AC
102
}
330
1AC
100
AcDbXrecord
280
     1
102
RTVSPropertyOp0
 70
     1
102
RTVSPropertyOp1
 70
     1
102
RTVSPropertyOp2
 70
     1
102
RTVSPropertyOp3
 70
     1
102
RTVSPropertyOp4
 70
     1
102
RTVSPropertyOp5
 70
     1
102
RTVSPropertyOp6
 70
     1
102
RTVSPropertyOp7
 70
     1
102
RTVSPropertyOp8
 70
     1
102
RTVSPropertyOp9
 70
     1
102
RTVSPropertyOp10
 70
     1
102
RTVSPropertyOp11
 70
     1
102
RTVSPropertyOp12
 70
     1
102
RTVSPropertyOp13
 70
     1
102
RTVSPropertyOp14
 70
     1
102
RTVSPropertyOp15
 70
     1
102
RTVSPropertyOp16
 70
     1
102
RTVSPropertyOp17
 70
     1
102
RTVSPropertyOp18
 70
     1
102
RTVSPropertyOp19
 70
     1
102
RTVSPropertyOp20
 70
     1
102
RTVSPropertyOp21
 70
     1
102
RTVSPropertyOp22
 70
     1
102
RTVSPropertyOp23
 70
     1
102
RTVSPropertyOp24
 70
     1
102
RTVSPropertyOp25
 70
     1
102
RTVSPropertyOp26
 70
     1
102
RTVSPropertyOp27
 70
     1
102
RTVSPropertyOp28
 70
     1
102
RTVSPropertyOp29
 70
     1
102
RTVSPropertyOp30
 70
     1
102
RTVSPropertyOp31
 70
     1
102
RTVSPropertyOp32
 70
     1
  0
ENDSEC
  0
EOF
