  0
SECTION
  2
HEADER
  9
$ACADVER
  1
AC1015
  9
$ACADMAINTVER
 70
     6
  9
$DWGCODEPAGE
  3
ANSI_932
  9
$INSBASE
 10
0.0
 20
0.0
 30
0.0
  9
$EXTMIN
 10
0.0
 20
0.0
 30
0.0
  9
$EXTMAX
 10
210.0
 20
297.0
 30
0.0
  9
$LIMMIN
 10
0.0
 20
0.0
  9
$LIMMAX
 10
12.0
 20
9.0
  9
$ORTHOMODE
 70
     0
  9
$REGENMODE
 70
     1
  9
$FILLMODE
 70
     1
  9
$QTEXTMODE
 70
     0
  9
$MIRRTEXT
 70
     1
  9
$LTSCALE
 40
1.0
  9
$ATTMODE
 70
     1
  9
$TEXTSIZE
 40
0.2
  9
$TRACEWID
 40
0.05
  9
$TEXTSTYLE
  7
Standard
  9
$CLAYER
  8
0
  9
$CELTYPE
  6
ByLayer
  9
$CECOLOR
 62
   256
  9
$CELTSCALE
 40
1.0
  9
$DISPSILH
 70
     0
  9
$DIMSCALE
 40
1.0
  9
$DIMASZ
 40
0.18
  9
$DIMEXO
 40
0.0625
  9
$DIMDLI
 40
0.38
  9
$DIMRND
 40
0.0
  9
$DIMDLE
 40
0.0
  9
$DIMEXE
 40
0.18
  9
$DIMTP
 40
0.0
  9
$DIMTM
 40
0.0
  9
$DIMTXT
 40
0.18
  9
$DIMCEN
 40
0.09
  9
$DIMTSZ
 40
0.0
  9
$DIMTOL
 70
     0
  9
$DIMLIM
 70
     0
  9
$DIMTIH
 70
     1
  9
$DIMTOH
 70
     1
  9
$DIMSE1
 70
     0
  9
$DIMSE2
 70
     0
  9
$DIMTAD
 70
     0
  9
$DIMZIN
 70
     0
  9
$DIMBLK
  1

  9
$DIMASO
 70
     1
  9
$DIMSHO
 70
     1
  9
$DIMPOST
  1

  9
$DIMAPOST
  1

  9
$DIMALT
 70
     0
  9
$DIMALTD
 70
     2
  9
$DIMALTF
 40
25.4
  9
$DIMLFAC
 40
1.0
  9
$DIMTOFL
 70
     0
  9
$DIMTVP
 40
0.0
  9
$DIMTIX
 70
     0
  9
$DIMSOXD
 70
     0
  9
$DIMSAH
 70
     0
  9
$DIMBLK1
  1

  9
$DIMBLK2
  1

  9
$DIMSTYLE
  2
Standard
  9
$DIMCLRD
 70
     0
  9
$DIMCLRE
 70
     0
  9
$DIMCLRT
 70
     0
  9
$DIMTFAC
 40
1.0
  9
$DIMGAP
 40
0.09
  9
$DIMJUST
 70
     0
  9
$DIMSD1
 70
     0
  9
$DIMSD2
 70
     0
  9
$DIMTOLJ
 70
     1
  9
$DIMTZIN
 70
     0
  9
$DIMALTZ
 70
     0
  9
$DIMALTTZ
 70
     0
  9
$DIMUPT
 70
     0
  9
$DIMDEC
 70
     4
  9
$DIMTDEC
 70
     4
  9
$DIMALTU
 70
     2
  9
$DIMALTTD
 70
     2
  9
$DIMTXSTY
  7
Standard
  9
$DIMAUNIT
 70
     0
  9
$DIMADEC
 70
     0
  9
$DIMALTRND
 40
0.0
  9
$DIMAZIN
 70
     0
  9
$DIMDSEP
 70
    46
  9
$DIMATFIT
 70
     3
  9
$DIMFRAC
 70
     0
  9
$DIMLDRBLK
  1

  9
$DIMLUNIT
 70
     2
  9
$DIMLWD
 70
    -2
  9
$DIMLWE
 70
    -2
  9
$DIMTMOVE
 70
     0
  9
$LUNITS
 70
     2
  9
$LUPREC
 70
     4
  9
$SKETCHINC
 40
0.1
  9
$FILLETRAD
 40
0.5
  9
$AUNITS
 70
     0
  9
$AUPREC
 70
     0
  9
$MENU
  1
.
  9
$ELEVATION
 40
0.0
  9
$PELEVATION
 40
0.0
  9
$THICKNESS
 40
0.0
  9
$LIMCHECK
 70
     0
  9
$CHAMFERA
 40
0.5
  9
$CHAMFERB
 40
0.5
  9
$CHAMFERC
 40
1.0
  9
$CHAMFERD
 40
0.0
  9
$SKPOLY
 70
     0
  9
$TDCREATE
 40
2460416.594865683
  9
$TDUCREATE
 40
2460416.219865683
  9
$TDUPDATE
 40
2460416.594866759
  9
$TDUUPDATE
 40
2460416.219866759
  9
$TDINDWG
 40
0.0000000116
  9
$TDUSRTIMER
 40
0.0000000116
  9
$USRTIMER
 70
     1
  9
$ANGBASE
 50
0.0
  9
$ANGDIR
 70
     0
  9
$PDMODE
 70
     0
  9
$PDSIZE
 40
0.0
  9
$PLINEWID
 40
0.0
  9
$SPLFRAME
 70
     0
  9
$SPLINETYPE
 70
     6
  9
$SPLINESEGS
 70
     8
  9
$HANDSEED
  5
1BD
  9
$SURFTAB1
 70
     6
  9
$SURFTAB2
 70
     6
  9
$SURFTYPE
 70
     6
  9
$SURFU
 70
     6
  9
$SURFV
 70
     6
  9
$UCSBASE
  2

  9
$UCSNAME
  2

  9
$UCSORG
 10
0.0
 20
0.0
 30
0.0
  9
$UCSXDIR
 10
1.0
 20
0.0
 30
0.0
  9
$UCSYDIR
 10
0.0
 20
1.0
 30
0.0
  9
$UCSORTHOREF
  2

  9
$UCSORTHOVIEW
 70
     0
  9
$UCSORGTOP
 10
0.0
 20
0.0
 30
0.0
  9
$UCSORGBOTTOM
 10
0.0
 20
0.0
 30
0.0
  9
$UCSORGLEFT
 10
0.0
 20
0.0
 30
0.0
  9
$UCSORGRIGHT
 10
0.0
 20
0.0
 30
0.0
  9
$UCSORGFRONT
 10
0.0
 20
0.0
 30
0.0
  9
$UCSORGBACK
 10
0.0
 20
0.0
 30
0.0
  9
$PUCSBASE
  2

  9
$PUCSNAME
  2

  9
$PUCSORG
 10
0.0
 20
0.0
 30
0.0
  9
$PUCSXDIR
 10
1.0
 20
0.0
 30
0.0
  9
$PUCSYDIR
 10
0.0
 20
1.0
 30
0.0
  9
$PUCSORTHOREF
  2

  9
$PUCSORTHOVIEW
 70
     0
  9
$PUCSORGTOP
 10
0.0
 20
0.0
 30
0.0
  9
$PUCSORGBOTTOM
 10
0.0
 20
0.0
 30
0.0
  9
$PUCSORGLEFT
 10
0.0
 20
0.0
 30
0.0
  9
$PUCSORGRIGHT
 10
0.0
 20
0.0
 30
0.0
  9
$PUCSORGFRONT
 10
0.0
 20
0.0
 30
0.0
  9
$PUCSORGBACK
 10
0.0
 20
0.0
 30
0.0
  9
$USERI1
 70
     0
  9
$USERI2
 70
     0
  9
$USERI3
 70
     0
  9
$USERI4
 70
     0
  9
$USERI5
 70
     0
  9
$USERR1
 40
18.1
  9
$USERR2
 40
0.0
  9
$USERR3
 40
0.0
  9
$USERR4
 40
0.0
  9
$USERR5
 40
0.0
  9
$WORLDVIEW
 70
     1
  9
$SHADEDGE
 70
     3
  9
$SHADEDIF
 70
    70
  9
$TILEMODE
 70
     1
  9
$MAXACTVP
 70
    64
  9
$PINSBASE
 10
0.0
 20
0.0
 30
0.0
  9
$PLIMCHECK
 70
     0
  9
$PEXTMIN
 10
1.00000000000000E+20
 20
1.00000000000000E+20
 30
1.00000000000000E+20
  9
$PEXTMAX
 10
-1.00000000000000E+20
 20
-1.00000000000000E+20
 30
-1.00000000000000E+20
  9
$PLIMMIN
 10
0.0
 20
0.0
  9
$PLIMMAX
 10
12.0
 20
9.0
  9
$UNITMODE
 70
     0
  9
$VISRETAIN
 70
     1
  9
$PLINEGEN
 70
     0
  9
$PSLTSCALE
 70
     1
  9
$TREEDEPTH
 70
  3020
  9
$CMLSTYLE
  2
Standard
  9
$CMLJUST
 70
     0
  9
$CMLSCALE
 40
1.0
  9
$PROXYGRAPHICS
 70
     1
  9
$MEASUREMENT
 70
     1
  9
$CELWEIGHT
370
    -1
  9
$ENDCAPS
280
     0
  9
$JOINSTYLE
280
     0
  9
$LWDISPLAY
290
     0
  9
$INSUNITS
 70
     4
  9
$HYPERLINKBASE
  1

  9
$STYLESHEET
  1

  9
$XEDIT
290
     1
  9
$CEPSNTYPE
380
     0
  9
$PSTYLEMODE
290
     1
  9
$FINGERPRINTGUID
  2
{9B7D61C2-86A0-4E43-81CA-533E54CA385F}
  9
$VERSIONGUID
  2
{FAEB1C32-E019-11D5-929B-00C0DF256EC4}
  9
$EXTNAMES
290
     1
  9
$PSVPSCALE
 40
0.0
  9
$OLESTARTUP
290
     0
  0
ENDSEC
  0
SECTION
  2
CLASSES
  0
CLASS
  1
ACDBDICTIONARYWDFLT
  2
AcDbDictionaryWithDefault
  3
ObjectDBX Classes
 90
        0
280
     0
281
     0
  0
CLASS
  1
VISUALSTYLE
  2
AcDbVisualStyle
  3
ObjectDBX Classes
 90
     4095
280
     0
281
     0
  0
CLASS
  1
MATERIAL
  2
AcDbMaterial
  3
ObjectDBX Classes
 90
     1153
280
     0
281
     0
  0
CLASS
  1
DICTIONARYVAR
  2
AcDbDictionaryVar
  3
ObjectDBX Classes
 90
        0
280
     0
281
     0
  0
CLASS
  1
ACDBPLACEHOLDER
  2
AcDbPlaceHolder
  3
ObjectDBX Classes
 90
        0
280
     0
281
     0
  0
CLASS
  1
LAYOUT
  2
AcDbLayout
  3
ObjectDBX Classes
 90
        0
280
     0
281
     0
  0
ENDSEC
  0
SECTION
  2
TABLES
  0
TABLE
  2
VPORT
  5
8
330
0
100
AcDbSymbolTable
 70
     1
  0
VPORT
  5
29
330
8
100
AcDbSymbolTableRecord
100
AcDbViewportTableRecord
  2
*Active
 70
     0
 10
0.0
 20
0.0
 11
1.0
 21
1.0
 12
105.0
 22
148.5
 13
0.0
 23
0.0
 14
0.5
 24
0.5
 15
0.5
 25
0.5
 16
0.0
 26
0.0
 36
1.0
 17
0.0
 27
0.0
 37
0.0
 40
326.7
 41
1.60267857142857
 42
50.0
 43
0.0
 44
0.0
 50
0.0
 51
0.0
 71
     0
 72
   100
 73
     1
 74
     3
 75
     0
 76
     0
 77
     0
 78
     0
281
     0
 65
     1
110
0.0
120
0.0
130
0.0
111
1.0
121
0.0
131
0.0
112
0.0
122
1.0
132
0.0
 79
     0
146
0.0
  0
ENDTAB
  0
TABLE
  2
LTYPE
  5
5
330
0
100
AcDbSymbolTable
 70
     8
  0
LTYPE
  5
14
330
5
100
AcDbSymbolTableRecord
100
AcDbLinetypeTableRecord
  2
ByBlock
 70
     0
  3

 72
    65
 73
     0
 40
0.0
  0
LTYPE
  5
15
330
5
100
AcDbSymbolTableRecord
100
AcDbLinetypeTableRecord
  2
ByLayer
 70
     0
  3

 72
    65
 73
     0
 40
0.0
  0
LTYPE
  5
16
330
5
100
AcDbSymbolTableRecord
100
AcDbLinetypeTableRecord
  2
Continuous
 70
     0
  3
Solid line
 72
    65
 73
     0
 40
0.0
  0
LTYPE
  5
3F
330
5
100
AcDbSymbolTableRecord
100
AcDbLinetypeTableRecord
  2
DASHED
 70
     0
  3
Dashed
 72
    65
 73
     2
 40
15.0
 49
7.0
 74
     0
 49
-8.0
 74
     0
  0
LTYPE
  5
40
330
5
100
AcDbSymbolTableRecord
100
AcDbLinetypeTableRecord
  2
DOTTED
 70
     0
  3
Dotted
 72
    65
 73
     2
 40
1.0
 49
0.0
 74
     0
 49
-1.0
 74
     0
  0
LTYPE
  5
41
330
5
100
AcDbSymbolTableRecord
100
AcDbLinetypeTableRecord
  2
DOT_CENTER
 70
     0
  3
Dot_Center
 72
    65
 73
     4
 40
14.0
 49
12.0
 74
     0
 49
-1.0
 74
     0
 49
0.0
 74
     0
 49
-1.0
 74
     0
  0
LTYPE
  5
42
330
5
100
AcDbSymbolTableRecord
100
AcDbLinetypeTableRecord
  2
LONG_DASHED
 70
     0
  3
Long_Dashed
 72
    65
 73
     2
 40
15.0
 49
10.0
 74
     0
 49
-5.0
 74
     0
  0
LTYPE
  5
43
330
5
100
AcDbSymbolTableRecord
100
AcDbLinetypeTableRecord
  2
DASH_CENTER
 70
     0
  3
Dash_Center
 72
    65
 73
     4
 40
14.0
 49
11.0
 74
     0
 49
-1.0
 74
     0
 49
1.0
 74
     0
 49
-1.0
 74
     0
  0
LTYPE
  5
44
330
5
100
AcDbSymbolTableRecord
100
AcDbLinetypeTableRecord
  2
PHANTOM
 70
     0
  3
Phantom
 72
    65
 73
     6
 40
13.0
 49
10.0
 74
     0
 49
-1.0
 74
     0
 49
0.0
 74
     0
 49
-1.0
 74
     0
 49
0.0
 74
     0
 49
-1.0
 74
     0
  0
LTYPE
  5
45
330
5
100
AcDbSymbolTableRecord
100
AcDbLinetypeTableRecord
  2
CENTER_DASH_DASH
 70
     0
  3
Center_Dash_Dash
 72
    65
 73
     6
 40
14.0
 49
9.0
 74
     0
 49
-1.0
 74
     0
 49
1.0
 74
     0
 49
-1.0
 74
     0
 49
1.0
 74
     0
 49
-1.0
 74
     0
  0
ENDTAB
  0
TABLE
  2
LAYER
  5
2
330
0
100
AcDbSymbolTable
 70
     3
  0
LAYER
  5
10
330
2
100
AcDbSymbolTableRecord
100
AcDbLayerTableRecord
  2
0
 70
     0
 62
     7
  6
Continuous
370
    -3
390
F
  0
LAYER
  5
46
330
2
100
AcDbSymbolTableRecord
100
AcDbLayerTableRecord
  2
1
 70
     0
 62
     7
  6
Continuous
370
    -3
390
F
  0
LAYER
  5
47
330
2
100
AcDbSymbolTableRecord
100
AcDbLayerTableRecord
  2
_U_30EC_U_30A4_U_30E4_U_30FC_1
 70
     0
 62
     7
  6
Continuous
370
    -3
390
F
  0
ENDTAB
  0
TABLE
  2
STYLE
  5
3
330
0
100
AcDbSymbolTable
 70
     4
  0
STYLE
  5
11
330
3
100
AcDbSymbolTableRecord
100
AcDbTextStyleTableRecord
  2
Standard
 70
     0
 40
0.0
 41
1.0
 50
0.0
 71
     0
 42
0.2
  3
txt
  4

  0
STYLE
  5
B6
330
3
100
AcDbSymbolTableRecord
100
AcDbTextStyleTableRecord
  2
CONVERTER_11
 70
     0
 40
0.0
 41
0.89
 50
0.0
 71
     0
 42
0.2
  3
MS Mincho.ttf
  4

1001
ACAD
1000
MS Mincho
1071
    32785
  0
STYLE
  5
13E
330
3
100
AcDbSymbolTableRecord
100
AcDbTextStyleTableRecord
  2
CONVERTER_12
 70
     0
 40
0.0
 41
0.779
 50
0.0
 71
     0
 42
0.2
  3
complex.shx
  4

  0
STYLE
  5
14A
330
3
100
AcDbSymbolTableRecord
100
AcDbTextStyleTableRecord
  2
CONVERTER_13
 70
     0
 40
0.0
 41
0.9
 50
0.0
 71
     0
 42
0.2
  3
txt.shx
  4

  0
ENDTAB
  0
TABLE
  2
VIEW
  5
6
330
0
100
AcDbSymbolTable
 70
     0
  0
ENDTAB
  0
TABLE
  2
UCS
  5
7
330
0
100
AcDbSymbolTable
 70
     0
  0
ENDTAB
  0
TABLE
  2
APPID
  5
9
330
0
100
AcDbSymbolTable
 70
     1
  0
APPID
  5
12
330
9
100
AcDbSymbolTableRecord
100
AcDbRegAppTableRecord
  2
ACAD
 70
     0
  0
ENDTAB
  0
TABLE
  2
DIMSTYLE
  5
A
330
0
100
AcDbSymbolTable
 70
     6
100
AcDbDimStyleTable
  0
DIMSTYLE
105
27
330
A
100
AcDbSymbolTableRecord
100
AcDbDimStyleTableRecord
  2
Standard
 70
     0
178
     0
340
11
  0
DIMSTYLE
105
163
102
{ACAD_REACTORS
330
164
102
}
330
A
100
AcDbSymbolTableRecord
100
AcDbDimStyleTableRecord
  2
ME10_DIM_10
 70
     0
  3
{\Fgdt;n}<>
 41
3.5
 42
0.0
 44
1.0
 73
     0
 74
     0
 77
     1
 78
     8
140
3.5
147
1.0
172
     1
173
     1
174
     1
175
     1
176
     2
177
     2
271
     2
178
     7
271
     2
340
14A
  0
DIMSTYLE
105
16F
102
{ACAD_REACTORS
330
170
102
}
330
A
100
AcDbSymbolTableRecord
100
AcDbDimStyleTableRecord
  2
ME10_DIM_11
 70
     0
  3
{\Fgdt;n}<>
 41
3.5
 42
0.0
 44
1.0
 73
     0
 74
     0
 77
     1
 78
     8
140
3.5
147
1.0
172
     1
173
     1
174
     1
175
     1
176
     2
177
     2
271
     2
178
     7
271
     2
340
14A
  0
DIMSTYLE
105
17A
102
{ACAD_REACTORS
330
17B
102
}
330
A
100
AcDbSymbolTableRecord
100
AcDbDimStyleTableRecord
  2
ME10_DIM_12
 70
     0
 41
3.5
 42
0.0
 44
1.0
 73
     0
 74
     0
 77
     1
 78
     8
140
3.5
147
1.0
172
     1
173
     1
174
     1
175
     1
176
     2
177
     2
271
     2
178
     7
271
     2
340
14A
  0
DIMSTYLE
105
185
102
{ACAD_REACTORS
330
186
102
}
330
A
100
AcDbSymbolTableRecord
100
AcDbDimStyleTableRecord
  2
ME10_DIM_13
 70
     0
 41
3.5
 42
0.0
 44
1.0
 73
     0
 74
     0
 77
     1
 78
     8
140
3.5
147
1.0
172
     1
173
     1
174
     1
175
     1
176
     2
177
     2
271
     2
178
     7
271
     2
340
14A
  0
DIMSTYLE
105
190
102
{ACAD_REACTORS
330
191
102
}
330
A
100
AcDbSymbolTableRecord
100
AcDbDimStyleTableRecord
  2
ME10_DIM_14
 70
     0
 41
3.5
 42
0.0
 44
1.0
 73
     0
 74
     0
 77
     1
 78
     8
140
3.5
147
1.0
172
     1
173
     1
174
     1
175
     1
176
     2
177
     2
271
     2
178
     7
271
     2
340
14A
  0
ENDTAB
  0
TABLE
  2
BLOCK_RECORD
  5
1
330
0
100
AcDbSymbolTable
 70
     9
  0
BLOCK_RECORD
  5
1F
330
1
100
AcDbSymbolTableRecord
100
AcDbBlockTableRecord
  2
*Model_Space
340
22
  0
BLOCK_RECORD
  5
1B
330
1
100
AcDbSymbolTableRecord
100
AcDbBlockTableRecord
  2
*Paper_Space
340
1E
  0
BLOCK_RECORD
  5
23
330
1
100
AcDbSymbolTableRecord
100
AcDbBlockTableRecord
  2
*Paper_Space0
340
26
  0
BLOCK_RECORD
  5
48
330
1
100
AcDbSymbolTableRecord
100
AcDbBlockTableRecord
  2
開示A4
340
0
102
{BLKREFS
331
4C
102
}
  0
BLOCK_RECORD
  5
4B
330
1
100
AcDbSymbolTableRecord
100
AcDbBlockTableRecord
  2
開示A4枠
340
0
102
{BLKREFS
331
52
102
}
  0
BLOCK_RECORD
  5
4F
330
1
100
AcDbSymbolTableRecord
100
AcDbBlockTableRecord
  2
T29-0-13X20
340
0
102
{BLKREFS
331
53
102
}
  0
BLOCK_RECORD
  5
159
330
1
100
AcDbSymbolTableRecord
100
AcDbBlockTableRecord
  2
*D4
340
0
  0
BLOCK_RECORD
  5
165
330
1
100
AcDbSymbolTableRecord
100
AcDbBlockTableRecord
  2
*D5
340
0
  0
BLOCK_RECORD
  5
171
330
1
100
AcDbSymbolTableRecord
100
AcDbBlockTableRecord
  2
*D6
340
0
  0
BLOCK_RECORD
  5
17C
330
1
100
AcDbSymbolTableRecord
100
AcDbBlockTableRecord
  2
*D7
340
0
  0
BLOCK_RECORD
  5
187
330
1
100
AcDbSymbolTableRecord
100
AcDbBlockTableRecord
  2
*D8
340
0
  0
ENDTAB
  0
ENDSEC
  0
SECTION
  2
BLOCKS
  0
BLOCK
  5
20
330
1F
100
AcDbEntity
  8
0
100
AcDbBlockBegin
  2
*Model_Space
 70
     0
 10
0.0
 20
0.0
 30
0.0
  3
*Model_Space
  1

  0
ENDBLK
  5
21
330
1F
100
AcDbEntity
  8
0
100
AcDbBlockEnd
  0
BLOCK
  5
1C
330
1B
100
AcDbEntity
 67
     1
  8
0
100
AcDbBlockBegin
  2
*Paper_Space
 70
     0
 10
0.0
 20
0.0
 30
0.0
  3
*Paper_Space
  1

  0
ENDBLK
  5
1D
330
1B
100
AcDbEntity
 67
     1
  8
0
100
AcDbBlockEnd
  0
BLOCK
  5
24
330
23
100
AcDbEntity
  8
0
100
AcDbBlockBegin
  2
*Paper_Space0
 70
     0
 10
0.0
 20
0.0
 30
0.0
  3
*Paper_Space0
  1

  0
ENDBLK
  5
25
330
23
100
AcDbEntity
  8
0
100
AcDbBlockEnd
  0
BLOCK
  5
49
330
48
100
AcDbEntity
  8
0
100
AcDbBlockBegin
  2
開示A4
 70
     0
 10
0.0
 20
0.0
 30
0.0
  3
開示A4
  1

  0
POINT
  5
54
330
48
100
AcDbEntity
  8
1
 62
     4
100
AcDbPoint
 10
34.0
 20
34.00000000000001
 30
0.0
  0
POINT
  5
55
330
48
100
AcDbEntity
  8
1
 62
     4
100
AcDbPoint
 10
56.99999999999996
 20
12.24999999999999
 30
0.0
  0
POINT
  5
56
330
48
100
AcDbEntity
  8
1
 62
     4
100
AcDbPoint
 10
56.99999999999996
 20
20.75000000000001
 30
0.0
  0
POINT
  5
57
330
48
100
AcDbEntity
  8
1
 62
     4
100
AcDbPoint
 10
56.99999999999996
 20
24.75000000000001
 30
0.0
  0
POINT
  5
58
330
48
100
AcDbEntity
  8
1
 62
     4
100
AcDbPoint
 10
56.99999999999996
 20
16.24999999999999
 30
0.0
  0
POINT
  5
59
330
48
100
AcDbEntity
  8
1
 62
     4
100
AcDbPoint
 10
157.5
 20
19.00000000000001
 30
0.0
  0
POINT
  5
5A
330
48
100
AcDbEntity
  8
1
 62
     4
100
AcDbPoint
 10
47.5
 20
282.0000000000003
 30
0.0
  0
POINT
  5
5B
330
48
100
AcDbEntity
  8
1
 62
     4
100
AcDbPoint
 10
56.99999999999996
 20
22.75000000000001
 30
0.0
  0
POINT
  5
5C
330
48
100
AcDbEntity
  8
1
 62
     4
100
AcDbPoint
 10
56.99999999999996
 20
14.24999999999999
 30
0.0
  0
POINT
  5
5D
330
48
100
AcDbEntity
  8
1
 62
     4
100
AcDbPoint
 10
157.5
 20
12.49999999999999
 30
0.0
  0
POINT
  5
5E
330
48
100
AcDbEntity
  8
1
 62
     4
100
AcDbPoint
 10
163.25
 20
12.49999999999999
 30
0.0
  0
POINT
  5
5F
330
48
100
AcDbEntity
  8
1
 62
     4
100
AcDbPoint
 10
151.75
 20
12.49999999999999
 30
0.0
  0
POINT
  5
60
330
48
100
AcDbEntity
  8
1
 62
     4
100
AcDbPoint
 10
134.75
 20
12.49999999999999
 30
0.0
  0
POINT
  5
61
330
48
100
AcDbEntity
  8
1
 62
     4
100
AcDbPoint
 10
146.25
 20
12.49999999999999
 30
0.0
  0
POINT
  5
62
330
48
100
AcDbEntity
  8
1
 62
     4
100
AcDbPoint
 10
140.5
 20
12.49999999999999
 30
0.0
  0
POINT
  5
63
330
48
100
AcDbEntity
  8
1
 62
     4
100
AcDbPoint
 10
140.5
 20
19.00000000000001
 30
0.0
  0
POINT
  5
64
330
48
100
AcDbEntity
  8
1
 62
     4
100
AcDbPoint
 10
117.75
 20
12.49999999999999
 30
0.0
  0
POINT
  5
65
330
48
100
AcDbEntity
  8
1
 62
     4
100
AcDbPoint
 10
129.25
 20
12.49999999999999
 30
0.0
  0
POINT
  5
66
330
48
100
AcDbEntity
  8
1
 62
     4
100
AcDbPoint
 10
123.5
 20
12.49999999999999
 30
0.0
  0
POINT
  5
67
330
48
100
AcDbEntity
  8
1
 62
     4
100
AcDbPoint
 10
123.5
 20
19.00000000000001
 30
0.0
  0
POINT
  5
68
330
48
100
AcDbEntity
  8
1
 62
     4
100
AcDbPoint
 10
100.75
 20
12.49999999999999
 30
0.0
  0
POINT
  5
69
330
48
100
AcDbEntity
  8
1
 62
     4
100
AcDbPoint
 10
112.25
 20
12.49999999999999
 30
0.0
  0
POINT
  5
6A
330
48
100
AcDbEntity
  8
1
 62
     4
100
AcDbPoint
 10
106.5
 20
12.49999999999999
 30
0.0
  0
POINT
  5
6B
330
48
100
AcDbEntity
  8
1
 62
     4
100
AcDbPoint
 10
106.5
 20
19.00000000000001
 30
0.0
  0
POINT
  5
6C
330
48
100
AcDbEntity
  8
1
 62
     4
100
AcDbPoint
 10
85.24999999999997
 20
16.99999999999999
 30
0.0
  0
POINT
  5
6D
330
48
100
AcDbEntity
  8
1
 62
     4
100
AcDbPoint
 10
93.74999999999997
 20
16.99999999999999
 30
0.0
  0
POINT
  5
6E
330
48
100
AcDbEntity
  8
1
 62
     4
100
AcDbPoint
 10
183.0
 20
15.00000000000001
 30
0.0
  0
LINE
  5
6F
330
48
100
AcDbEntity
  8
1
  6
Continuous
 62
     2
100
AcDbLine
 10
80.99999999999996
 20
27.00000000000001
 30
0.0
 11
80.99999999999996
 21
9.99999999999999
 31
0.0
  0
LINE
  5
70
330
48
100
AcDbEntity
  8
1
  6
DOT_CENTER
 62
     2
100
AcDbLine
 10
187.0
 20
26.50000000000001
 30
0.0
 11
187.0
 21
20.50000000000001
 31
0.0
  0
LINE
  5
71
330
48
100
AcDbEntity
  8
1
  6
DOT_CENTER
 62
     2
100
AcDbLine
 10
184.0
 20
23.50000000000001
 30
0.0
 11
197.0
 21
23.50000000000001
 31
0.0
  0
LINE
  5
72
330
48
100
AcDbEntity
  8
1
  6
Continuous
 62
     7
100
AcDbLine
 10
196.0
 20
21.50000000000001
 30
0.0
 11
191.0
 21
22.3
 31
0.0
  0
LINE
  5
73
330
48
100
AcDbEntity
  8
1
  6
Continuous
 62
     7
100
AcDbLine
 10
196.0
 20
25.50000000000001
 30
0.0
 11
196.0
 21
21.50000000000001
 31
0.0
  0
LINE
  5
74
330
48
100
AcDbEntity
  8
1
  6
Continuous
 62
     7
100
AcDbLine
 10
191.0
 20
24.7
 30
0.0
 11
196.0
 21
25.50000000000001
 31
0.0
  0
LINE
  5
75
330
48
100
AcDbEntity
  8
1
  6
Continuous
 62
     7
100
AcDbLine
 10
191.0
 20
24.7
 30
0.0
 11
191.0
 21
22.3
 31
0.0
  0
LINE
  5
76
330
48
100
AcDbEntity
  8
1
  6
Continuous
 62
     2
100
AcDbLine
 10
33.0
 20
26.99999999999999
 30
0.0
 11
33.0
 21
9.99999999999999
 31
0.0
  0
LINE
  5
77
330
48
100
AcDbEntity
  8
1
  6
Continuous
 62
     2
100
AcDbLine
 10
25.0
 20
18.50000000000001
 30
0.0
 11
80.99999999999996
 21
18.50000000000001
 31
0.0
  0
LINE
  5
78
330
48
100
AcDbEntity
  8
1
  6
Continuous
 62
     7
100
AcDbLine
 10
200.0
 20
287.0000000000003
 30
0.0
 11
105.0
 21
287.0000000000003
 31
0.0
  0
LINE
  5
79
330
48
100
AcDbEntity
  8
1
  6
Continuous
 62
     7
100
AcDbLine
 10
200.0
 20
9.99999999999999
 30
0.0
 11
200.0
 21
148.5
 31
0.0
  0
LINE
  5
7A
330
48
100
AcDbEntity
  8
1
  6
Continuous
 62
     7
100
AcDbLine
 10
25.0
 20
9.99999999999999
 30
0.0
 11
105.0
 21
9.99999999999999
 31
0.0
  0
LINE
  5
7B
330
48
100
AcDbEntity
  8
1
  6
PHANTOM
 62
     4
100
AcDbLine
 10
0.0
 20
297.0
 30
0.0
 11
0.0
 21
0.0
 31
0.0
  0
LINE
  5
7C
330
48
100
AcDbEntity
  8
1
  6
PHANTOM
 62
     4
100
AcDbLine
 10
210.0
 20
297.0
 30
0.0
 11
0.0
 21
297.0
 31
0.0
  0
LINE
  5
7D
330
48
100
AcDbEntity
  8
1
  6
PHANTOM
 62
     4
100
AcDbLine
 10
210.0
 20
0.0
 30
0.0
 11
210.0
 21
297.0
 31
0.0
  0
LINE
  5
7E
330
48
100
AcDbEntity
  8
1
  6
PHANTOM
 62
     4
100
AcDbLine
 10
0.0
 20
0.0
 30
0.0
 11
210.0
 21
0.0
 31
0.0
  0
LINE
  5
7F
330
48
100
AcDbEntity
  8
1
  6
Continuous
 62
     7
100
AcDbLine
 10
25.0
 20
41.00000000000001
 30
0.0
 11
200.0
 21
41.00000000000001
 31
0.0
  0
LINE
  5
80
330
48
100
AcDbEntity
  8
1
  6
Continuous
 62
     7
100
AcDbLine
 10
200.0
 20
27.00000000000001
 30
0.0
 11
25.0
 21
27.00000000000001
 31
0.0
  0
LINE
  5
81
330
48
100
AcDbEntity
  8
1
  6
Continuous
 62
     2
100
AcDbLine
 10
33.0
 20
41.00000000000001
 30
0.0
 11
33.0
 21
26.99999999999999
 31
0.0
  0
LINE
  5
82
330
48
100
AcDbEntity
  8
1
  6
Continuous
 62
     2
100
AcDbLine
 10
54.99999999999996
 20
287.0000000000003
 30
0.0
 11
54.99999999999996
 21
277.0000000000003
 31
0.0
  0
LINE
  5
83
330
48
100
AcDbEntity
  8
1
  6
Continuous
 62
     2
100
AcDbLine
 10
40.0
 20
287.0000000000003
 30
0.0
 11
40.0
 21
277.0000000000003
 31
0.0
  0
LINE
  5
84
330
48
100
AcDbEntity
  8
1
  6
Continuous
 62
     7
100
AcDbLine
 10
25.0
 20
9.99999999999999
 30
0.0
 11
25.0
 21
148.5
 31
0.0
  0
LINE
  5
85
330
48
100
AcDbEntity
  8
1
  6
Continuous
 62
     2
100
AcDbLine
 10
54.99999999999996
 20
277.0000000000003
 30
0.0
 11
25.0
 21
277.0000000000003
 31
0.0
  0
LINE
  5
86
330
48
100
AcDbEntity
  8
1
  6
Continuous
 62
     2
100
AcDbLine
 10
166.0
 20
27.00000000000001
 30
0.0
 11
166.0
 21
9.99999999999999
 31
0.0
  0
LINE
  5
87
330
48
100
AcDbEntity
  8
1
  6
Continuous
 62
     2
100
AcDbLine
 10
132.0
 20
27.00000000000001
 30
0.0
 11
132.0
 21
9.99999999999999
 31
0.0
  0
LINE
  5
88
330
48
100
AcDbEntity
  8
1
  6
Continuous
 62
     2
100
AcDbLine
 10
149.0
 20
27.00000000000001
 30
0.0
 11
149.0
 21
9.99999999999999
 31
0.0
  0
LINE
  5
89
330
48
100
AcDbEntity
  8
1
  6
Continuous
 62
     2
100
AcDbLine
 10
115.0
 20
27.00000000000001
 30
0.0
 11
115.0
 21
9.99999999999999
 31
0.0
  0
LINE
  5
8A
330
48
100
AcDbEntity
  8
1
  6
Continuous
 62
     2
100
AcDbLine
 10
97.99999999999997
 20
27.00000000000001
 30
0.0
 11
97.99999999999997
 21
9.99999999999999
 31
0.0
  0
LINE
  5
8B
330
48
100
AcDbEntity
  8
1
  6
Continuous
 62
     2
100
AcDbLine
 10
166.0
 20
20.00000000000001
 30
0.0
 11
200.0
 21
20.00000000000001
 31
0.0
  0
LINE
  5
8C
330
48
100
AcDbEntity
  8
1
  6
Continuous
 62
     2
100
AcDbLine
 10
105.0
 20
287.0000000000003
 30
0.0
 11
105.0
 21
292.0000000000003
 31
0.0
  0
LINE
  5
8D
330
48
100
AcDbEntity
  8
1
  6
Continuous
 62
     7
100
AcDbLine
 10
105.0
 20
287.0000000000003
 30
0.0
 11
25.0
 21
287.0000000000003
 31
0.0
  0
LINE
  5
8E
330
48
100
AcDbEntity
  8
1
  6
Continuous
 62
     2
100
AcDbLine
 10
25.0
 20
148.5
 30
0.0
 11
20.0
 21
148.5
 31
0.0
  0
LINE
  5
8F
330
48
100
AcDbEntity
  8
1
  6
Continuous
 62
     7
100
AcDbLine
 10
25.0
 20
148.5
 30
0.0
 11
25.0
 21
287.0000000000003
 31
0.0
  0
LINE
  5
90
330
48
100
AcDbEntity
  8
1
  6
Continuous
 62
     2
100
AcDbLine
 10
200.0
 20
148.5
 30
0.0
 11
205.0
 21
148.5
 31
0.0
  0
LINE
  5
91
330
48
100
AcDbEntity
  8
1
  6
Continuous
 62
     7
100
AcDbLine
 10
200.0
 20
148.5
 30
0.0
 11
200.0
 21
287.0000000000003
 31
0.0
  0
LINE
  5
92
330
48
100
AcDbEntity
  8
1
  6
Continuous
 62
     2
100
AcDbLine
 10
105.0
 20
9.99999999999999
 30
0.0
 11
105.0
 21
4.99999999999999
 31
0.0
  0
LINE
  5
93
330
48
100
AcDbEntity
  8
1
  6
Continuous
 62
     7
100
AcDbLine
 10
105.0
 20
9.99999999999999
 30
0.0
 11
200.0
 21
9.99999999999999
 31
0.0
  0
CIRCLE
  5
98
330
48
100
AcDbEntity
  8
1
  6
DOT_CENTER
 62
     7
100
AcDbCircle
 10
89.49999999999997
 20
17.99999999999999
 30
0.0
 40
0.1000000000000796
  0
CIRCLE
  5
99
330
48
100
AcDbEntity
  8
1
  6
DOT_CENTER
 62
     7
100
AcDbCircle
 10
89.49999999999997
 20
15.99999999999999
 30
0.0
 40
0.1000000000000796
  0
CIRCLE
  5
9A
330
48
100
AcDbEntity
  8
1
  6
Continuous
 62
     7
100
AcDbCircle
 10
187.0
 20
23.50000000000001
 30
0.0
 40
2.0
  0
CIRCLE
  5
9B
330
48
100
AcDbEntity
  8
1
  6
Continuous
 62
     7
100
AcDbCircle
 10
187.0
 20
23.50000000000001
 30
0.0
 40
1.200000000000102
  0
CIRCLE
  5
9C
330
48
100
AcDbEntity
  8
1
  6
Continuous
 62
     7
100
AcDbCircle
 10
154.5
 20
12.49999999999999
 30
0.0
 40
0.3000000000000966
  0
CIRCLE
  5
9D
330
48
100
AcDbEntity
  8
1
  6
Continuous
 62
     7
100
AcDbCircle
 10
160.5
 20
12.49999999999999
 30
0.0
 40
0.3000000000000966
  0
CIRCLE
  5
9E
330
48
100
AcDbEntity
  8
1
  6
Continuous
 62
     7
100
AcDbCircle
 10
143.5
 20
12.49999999999999
 30
0.0
 40
0.3000000000000966
  0
CIRCLE
  5
9F
330
48
100
AcDbEntity
  8
1
  6
Continuous
 62
     7
100
AcDbCircle
 10
137.5
 20
12.49999999999999
 30
0.0
 40
0.3000000000000966
  0
CIRCLE
  5
A0
330
48
100
AcDbEntity
  8
1
  6
Continuous
 62
     7
100
AcDbCircle
 10
126.5
 20
12.49999999999999
 30
0.0
 40
0.3000000000000966
  0
CIRCLE
  5
A1
330
48
100
AcDbEntity
  8
1
  6
Continuous
 62
     7
100
AcDbCircle
 10
120.5
 20
12.49999999999999
 30
0.0
 40
0.3000000000000966
  0
CIRCLE
  5
A2
330
48
100
AcDbEntity
  8
1
  6
Continuous
 62
     7
100
AcDbCircle
 10
109.5
 20
12.49999999999999
 30
0.0
 40
0.3000000000000966
  0
CIRCLE
  5
A3
330
48
100
AcDbEntity
  8
1
  6
Continuous
 62
     7
100
AcDbCircle
 10
103.5
 20
12.49999999999999
 30
0.0
 40
0.3000000000000966
  0
SPLINE
  5
A4
102
{ACAD_REACTORS
330
C2
102
}
330
48
100
AcDbEntity
  8
_U_30EC_U_30A4_U_30E4_U_30FC_1
  6
Continuous
 62
     2
100
AcDbSpline
210
0.0
220
0.0
230
1.0
 70
    11
 71
     3
 72
    99
 73
    95
 74
    93
 42
0.000000001
 43
0.0000000001
 44
0.00000001
 40
0.0
 40
0.0
 40
0.0
 40
0.0
 40
0.0796417172273033
 40
0.1621768542355869
 40
0.2486489160957858
 40
0.3404969668525349
 40
0.4381912511165633
 40
0.5434463660244797
 40
0.6518115192847118
 40
0.7530190937887501
 40
0.8492196919725505
 40
0.941929031299874
 40
1.034249663570088
 40
1.129078600620252
 40
1.226697027573278
 40
1.327220425421737
 40
1.470572134938053
 40
1.595489863371261
 40
1.719934125348392
 40
1.850576620127463
 40
1.989059629987294
 40
2.134139054226859
 40
2.280698007207175
 40
2.424529739039451
 40
2.565929576985817
 40
2.708239260773512
 40
2.861717887443619
 40
3.045168540347343
 40
3.183798301138573
 40
3.314813961455437
 40
3.442083470447264
 40
3.56991270837286
 40
3.702177512509263
 40
3.842307559659432
 40
3.992872223245891
 40
4.156750662218338
 40
4.310981861107446
 40
4.445859909322492
 40
4.572393936131534
 40
4.701656719781961
 40
4.768279086008452
 40
4.835960697898401
 40
4.912788918729327
 40
5.00628520848151
 40
5.026909478751644
 40
5.047533749021265
 40
5.101808031471294
 40
5.162325165538631
 40
5.226919745995949
 40
5.294231806596747
 40
5.364544852554912
 40
5.438319055467956
 40
5.517877651324322
 40
5.607647714861577
 40
5.700449642544425
 40
5.788251142364267
 40
5.872714706039849
 40
5.9551672925754
 40
6.037192395190502
 40
6.120669181469228
 40
6.206848616686466
 40
6.2966808554169
 40
6.442558392872719
 40
6.568190371608417
 40
6.69290456736053
 40
6.824220446557323
 40
6.963121850329509
 40
7.107843738851273
 40
7.253431663907411
 40
7.395187468036885
 40
7.533140753237893
 40
7.670550457175421
 40
7.816236511769425
 40
7.987691657359383
 40
8.142277421969425
 40
8.29366261541516
 40
8.44296246087944
 40
8.591598316185474
 40
8.74367899236192
 40
8.903725323699328
 40
9.076307008890705
 40
9.26557860468073
 40
9.459203795360876
 40
9.617619810273773
 40
9.75360967136213
 40
9.874873300004234
 40
9.95452018497793
 40
10.02416413719262
 40
10.09769764405461
 40
10.18909955924989
 40
10.2097458642015
 40
10.23039218263393
 40
10.30057101881277
 40
10.37632012987555
 40
10.37632012987555
 40
10.37632012987555
 40
10.37632012987555
 10
170.1465954835851
 20
14.13795663215994
 30
0.0
 10
170.163221785122
 20
14.11720608845313
 30
0.0
 10
170.1970784206578
 20
14.07495111711907
 30
0.0
 10
170.2599822541036
 20
14.02029811392069
 30
0.0
 10
170.3332500940393
 20
13.9729902512105
 30
0.0
 10
170.4175969238636
 20
13.93527231437934
 30
0.0
 10
170.5132240615461
 20
13.91040619731952
 30
0.0
 10
170.6171853775346
 20
13.90309559345937
 30
0.0
 10
170.7224020220405
 20
13.91142322794055
 30
0.0
 10
170.8206626371334
 20
13.94149179651525
 30
0.0
 10
170.9058986427549
 20
13.98848822971878
 30
0.0
 10
170.9779220206104
 20
14.04952991250854
 30
0.0
 10
171.0350917709096
 20
14.12412969578585
 30
0.0
 10
171.0767868747441
 20
14.21002464660172
 30
0.0
 10
171.1026952846292
 20
14.30485850432213
 30
0.0
 10
171.1118037332653
 20
14.41854979038366
 30
0.0
 10
171.0986864796487
 20
14.54332587770779
 30
0.0
 10
171.0325330334414
 20
14.66014719171891
 30
0.0
 10
170.9369370919569
 20
14.74512539577376
 30
0.0
 10
170.8249681022369
 20
14.81416684459159
 30
0.0
 10
170.699365958327
 20
14.87204142045889
 30
0.0
 10
170.5656691620857
 20
14.92373723284341
 30
0.0
 10
170.4313122818832
 20
14.97899092397179
 30
0.0
 10
170.3051983986877
 20
15.04939770641651
 30
0.0
 10
170.1926579987536
 20
15.1378554073125
 30
0.0
 10
170.0969963064458
 20
15.24981067868473
 30
0.0
 10
170.0334157151827
 20
15.39949910101383
 30
0.0
 10
170.0200706505016
 20
15.55932794385142
 30
0.0
 10
170.0320510987449
 20
15.71048405306847
 30
0.0
 10
170.0712298928841
 20
15.83809244591538
 30
0.0
 10
170.1354987750912
 20
15.95080874030842
 30
0.0
 10
170.223820499974
 20
16.04648609268688
 30
0.0
 10
170.3338091207627
 20
16.12354214985752
 30
0.0
 10
170.4632284401265
 20
16.1815139693628
 30
0.0
 10
170.6111838967794
 20
16.21739177588822
 30
0.0
 10
170.7682069455487
 20
16.22746719050566
 30
0.0
 10
170.917494046643
 20
16.2186363776259
 30
0.0
 10
171.059625361417
 20
16.19074899340351
 30
0.0
 10
171.1595922609626
 20
16.1341331470114
 30
0.0
 10
171.3125074736187
 20
16.08674602105508
 30
0.0
 10
171.2455131717169
 20
16.00197553001184
 30
0.0
 10
171.2296479120269
 20
15.93438901873483
 30
0.0
 10
171.1978750531297
 20
15.8692609279319
 30
0.0
 10
171.2150202209573
 20
15.76723453256952
 30
0.0
 10
171.1666427208232
 20
15.77493211681903
 30
0.0
 10
171.1315789440766
 20
15.76806771724807
 30
0.0
 10
171.1296697985719
 20
15.832638311582
 30
0.0
 10
171.0985692931989
 20
15.87825639621394
 30
0.0
 10
171.0664551628455
 20
15.93561036628451
 30
0.0
 10
171.0208038475169
 20
15.98540462692565
 30
0.0
 10
170.9658508218387
 20
16.02994813718993
 30
0.0
 10
170.9010841173009
 20
16.06763988836551
 30
0.0
 10
170.8232377310597
 20
16.09283375791352
 30
0.0
 10
170.7355160553352
 20
16.09931230998112
 30
0.0
 10
170.6452903277807
 20
16.09235709285605
 30
0.0
 10
170.5594594694065
 20
16.06909190460926
 30
0.0
 10
170.4828343638597
 20
16.0313164410754
 30
0.0
 10
170.4165265636201
 20
15.98051641089577
 30
0.0
 10
170.3622560536964
 20
15.91731143407209
 30
0.0
 10
170.3224925345458
 20
15.84276455710367
 30
0.0
 10
170.2976775510588
 20
15.75917313997763
 30
0.0
 10
170.289212426287
 20
15.65192948382284
 30
0.0
 10
170.3019697987103
 20
15.52965457267558
 30
0.0
 10
170.3681548409273
 20
15.41149724291208
 30
0.0
 10
170.4640977399833
 20
15.32606325709528
 30
0.0
 10
170.5757914963183
 20
15.25583362306725
 30
0.0
 10
170.7010863668702
 20
15.19659162305304
 30
0.0
 10
170.8349823941448
 20
15.1461670808613
 30
0.0
 10
170.9689930333149
 20
15.09322516984381
 30
0.0
 10
171.0950885316916
 20
15.02750170625179
 30
0.0
 10
171.2076216638417
 20
14.94480352537317
 30
0.0
 10
171.3031370284234
 20
14.83996006310077
 30
0.0
 10
171.3672706486963
 20
14.69937117251569
 30
0.0
 10
171.3811103725279
 20
14.54065409451592
 30
0.0
 10
171.3673954712229
 20
14.38153155217876
 30
0.0
 10
171.3244739153985
 20
14.23483828819207
 30
0.0
 10
171.2545906329066
 20
14.10119796587143
 30
0.0
 10
171.157459221383
 20
13.9853238769929
 30
0.0
 10
171.0347806023658
 20
13.89089981770085
 30
0.0
 10
170.8874408413169
 20
13.82179270651982
 30
0.0
 10
170.7177132497125
 20
13.77953210858852
 30
0.0
 10
170.5317404979598
 20
13.76781736230407
 30
0.0
 10
170.3528955926183
 20
13.77809486683438
 30
0.0
 10
170.1881733753744
 20
13.81966573769152
 30
0.0
 10
170.0834410841056
 20
13.88797642883937
 30
0.0
 10
169.9350960790366
 20
13.93675219032109
 30
0.0
 10
169.9980378194729
 20
14.02976591290842
 30
0.0
 10
170.0072274430061
 20
14.1029653624828
 30
0.0
 10
170.0303711301232
 20
14.16936294501347
 30
0.0
 10
170.0034588335317
 20
14.26974809527581
 30
0.0
 10
170.052133895634
 20
14.2623403351738
 30
0.0
 10
170.0916530580697
 20
14.26894063620894
 30
0.0
 10
170.0996204944703
 20
14.19078703218934
 30
0.0
 10
170.1305436967923
 20
14.15600927375857
 30
0.0
 10
170.1465954835851
 20
14.13795663215994
 30
0.0
 11
170.1465954835851
 21
14.13795663215994
 31
0.0
 11
170.1982038075865
 21
14.07729869814736
 31
0.0
 11
170.2601105501335
 21
14.02271295163321
 31
0.0
 11
170.3327764009802
 21
13.97583980928382
 31
0.0
 11
170.4166468655844
 21
13.93839906276536
 31
0.0
 11
170.5112210732411
 21
13.91390636311877
 31
0.0
 11
170.6161603327165
 21
13.90575829888472
 31
0.0
 11
170.7240739497552
 21
13.91564048638223
 31
0.0
 11
170.8208419941617
 21
13.94528704887482
 31
0.0
 11
170.9050776083319
 21
13.99175118948818
 31
0.0
 11
170.9756144207687
 21
14.05191413218149
 31
0.0
 11
171.031944210998
 21
14.1250581946632
 31
0.0
 11
171.0736690016004
 21
14.21021434047522
 31
0.0
 11
171.0994680808032
 21
14.30436190989613
 31
0.0
 11
171.1080824729446
 21
14.4045155209822
 31
0.0
 11
171.0878517703357
 21
14.54643250879398
 31
0.0
 11
171.0272522666731
 21
14.65566684036388
 31
0.0
 11
170.9364971286286
 21
14.74081306430094
 31
0.0
 11
170.826010188474
 21
14.81052746532517
 31
0.0
 11
170.7008523531255
 21
14.86979854169921
 31
0.0
 11
170.5662951950999
 21
14.92404253474119
 31
0.0
 11
170.4316884277008
 21
14.98201274306003
 31
0.0
 11
170.3065802017259
 21
15.05297399304233
 31
0.0
 11
170.1960276098281
 21
15.14113315968695
 31
0.0
 11
170.1053381235266
 21
15.25080295132618
 31
0.0
 11
170.0447055469485
 21
15.39179720476315
 31
0.0
 11
170.0245079172554
 21
15.57413260402315
 31
0.0
 11
170.0374030471348
 21
15.71216131926642
 31
0.0
 11
170.0761016659392
 21
15.8373312845129
 31
0.0
 11
170.1393141731507
 21
15.94779262129084
 31
0.0
 11
170.2257499954545
 21
16.0419688539062
 31
0.0
 11
170.3336492808962
 21
16.11846540770651
 31
0.0
 11
170.4613526283328
 21
16.17615670109488
 31
0.0
 11
170.6075393259923
 21
16.21220066809974
 31
0.0
 11
170.7709768565451
 21
16.22421385386063
 31
0.0
 11
170.9248918431289
 21
16.21434269066864
 31
0.0
 11
171.0564887242607
 21
16.18477329831497
 31
0.0
 11
171.172563634494
 21
16.13439993895253
 31
0.0
 11
171.2800792741123
 21
16.06264163167877
 31
0.0
 11
171.2516994050445
 21
16.00236624106886
 31
0.0
 11
171.2284855254284
 21
15.93879017337646
 31
0.0
 11
171.2078381040801
 21
15.86478841992269
 31
0.0
 11
171.1871840681488
 21
15.77360197897328
 31
0.0
 11
171.1665597978416
 21
15.77360197897328
 31
0.0
 11
171.1459355275343
 21
15.77360197897328
 31
0.0
 11
171.1256706495791
 21
15.82395108486346
 31
0.0
 11
171.0994658759421
 21
15.8785004511693
 31
0.0
 11
171.0650468924451
 21
15.93316116296115
 31
0.0
 11
171.0203554612938
 21
15.98349593725412
 31
0.0
 11
170.9657333359511
 21
16.02777175321529
 31
0.0
 11
170.9016722004327
 21
16.06436142334501
 31
0.0
 11
170.8259682961141
 21
16.08882545979728
 31
0.0
 11
170.736572204645
 21
16.09701100667023
 31
0.0
 11
170.6440937174208
 21
16.08926973931102
 31
0.0
 11
170.5594072091645
 21
16.06609003445566
 31
0.0
 11
170.483702448884
 21
16.02863495634008
 31
0.0
 11
170.4183754766516
 21
15.97832774281103
 31
0.0
 11
170.3650487887664
 21
15.91600293379879
 31
0.0
 11
170.3254809233901
 21
15.84249947895607
 31
0.0
 11
170.3009523754711
 21
15.75988443557391
 31
0.0
 11
170.2927954104108
 21
15.67042329844351
 31
0.0
 11
170.3130095765617
 21
15.52595308146573
 31
0.0
 11
170.373625616682
 21
15.41591177072935
 31
0.0
 11
170.4643479320758
 21
15.33033670130631
 31
0.0
 11
170.5748676948814
 21
15.25941954854626
 31
0.0
 11
170.7000089937719
 21
15.1991430555058
 31
0.0
 11
170.8345826882553
 21
15.14590447913021
 31
0.0
 11
170.9691729191968
 21
15.09039489581074
 31
0.0
 11
171.0942976816298
 21
15.0237728124941
 31
0.0
 11
171.2048009079771
 21
14.9411886371675
 31
0.0
 11
171.2955397598289
 21
14.83800003476272
 31
0.0
 11
171.3561557999489
 21
14.70552315979584
 31
0.0
 11
171.3763699660998
 21
14.53526378483839
 31
0.0
 11
171.3621839747998
 21
14.38133030397411
 31
0.0
 11
171.3196087009194
 21
14.23605531269097
 31
0.0
 11
171.2499752884266
 21
14.10398854189067
 31
0.0
 11
171.1544992078714
 21
13.99007218775246
 31
0.0
 11
171.0341060772625
 21
13.89715272597017
 31
0.0
 11
170.8896160201847
 21
13.8283235766818
 31
0.0
 11
170.7223519532714
 21
13.78581275203966
 31
0.0
 11
170.5336103348227
 21
13.77165864614041
 31
0.0
 11
170.3405031726388
 21
13.78581275203966
 31
0.0
 11
170.1878975900911
 21
13.8283235766818
 31
0.0
 11
170.0661897942203
 21
13.88899033013889
 31
0.0
 11
169.9660261826364
 21
13.95734322942737
 31
0.0
 11
169.992232058704
 21
14.03255545163077
 31
0.0
 11
170.0090121537619
 21
14.10014767383613
 31
0.0
 11
170.0206196447853
 21
14.17275926235962
 31
0.0
 11
170.031360625414
 21
14.2635278821286
 31
0.0
 11
170.0520069443317
 21
14.2635278821286
 31
0.0
 11
170.0726532632493
 21
14.2635278821286
 31
0.0
 11
170.104891639163
 21
14.20119204881084
 31
0.0
 11
170.1465954835851
 21
14.13795663215994
 31
0.0
  0
SPLINE
  5
A5
102
{ACAD_REACTORS
330
C3
102
}
330
48
100
AcDbEntity
  8
_U_30EC_U_30A4_U_30E4_U_30FC_1
  6
Continuous
 62
     2
100
AcDbSpline
210
0.0
220
0.0
230
1.0
 70
    11
 71
     3
 72
    57
 73
    53
 74
    51
 42
0.000000001
 43
0.0000000001
 44
0.00000001
 40
0.0
 40
0.0
 40
0.0
 40
0.0
 40
0.0471632082809505
 40
0.0914861054631859
 40
0.1357762519702095
 40
0.1826527001610674
 40
0.2295203288573151
 40
0.2737751972221605
 40
0.3181310461543918
 40
0.3652607198398501
 40
0.4571007286314496
 40
0.5671851029165269
 40
0.6894623283868471
 40
0.8181758272545732
 40
0.9510087229274242
 40
1.085852229674051
 40
1.218126164475286
 40
1.343545131142368
 40
1.454537202956756
 40
1.567187607530794
 40
1.680710966642469
 40
1.794226869736862
 40
1.900009184247633
 40
2.004085860447941
 40
2.1081626744518
 40
2.214000150155288
 40
2.496038577352156
 40
2.762350745479265
 40
2.997275353279393
 40
3.185110082137701
 40
3.246407890063984
 40
3.312607550212772
 40
3.378877742711589
 40
3.440140399651414
 40
4.100501696006401
 40
4.754913085563444
 40
5.41133169342386
 40
6.077890432568676
 40
6.110575292670955
 40
6.143260152775735
 40
6.367989363395098
 40
6.610525374951523
 40
6.863389136467283
 40
7.119380025547546
 40
7.376036605091039
 40
7.631164770966239
 40
7.876722425456394
 40
8.104953735855888
 40
8.312916685924282
 40
8.497730294941276
 40
8.6510189843138
 40
8.764738853624552
 40
8.764738853624552
 40
8.764738853624552
 40
8.764738853624552
 10
174.7922649500514
 20
13.81626739612928
 30
0.0
 10
174.7766616726932
 20
13.81826231079078
 30
0.0
 10
174.7463947960303
 20
13.82213201360298
 30
0.0
 10
174.7010994202253
 20
13.82341984967269
 30
0.0
 10
174.655955312935
 20
13.82308683554051
 30
0.0
 10
174.60990171234
 20
13.82314658674225
 30
0.0
 10
174.5640496172096
 20
13.82325813650002
 30
0.0
 10
174.5183711648165
 20
13.82277833456591
 30
0.0
 10
174.4750811541608
 20
13.82461109618721
 30
0.0
 10
174.4039947951514
 20
13.8004955681466
 30
0.0
 10
174.4057477261442
 20
13.92184693977251
 30
0.0
 10
174.3586196370569
 20
14.00726239751232
 30
0.0
 10
174.3191478251762
 20
14.12486929345134
 30
0.0
 10
174.2706635532645
 20
14.24232752540441
 30
0.0
 10
174.2201017402522
 20
14.36405935761506
 30
0.0
 10
174.1718634610478
 20
14.49075967862467
 30
0.0
 10
174.1135232947595
 20
14.59933687784953
 30
0.0
 10
174.0980892667262
 20
14.75620657134408
 30
0.0
 10
173.9566586330636
 20
14.72373446548322
 30
0.0
 10
173.8508397414904
 20
14.7351288868218
 30
0.0
 10
173.7358569725222
 20
14.73392591514615
 30
0.0
 10
173.6253142252141
 20
14.73506945347408
 30
0.0
 10
173.5176583522783
 20
14.73418350037526
 30
0.0
 10
173.4121322529242
 20
14.73416602390519
 30
0.0
 10
173.3109192682014
 20
14.72714032472416
 30
0.0
 10
173.1266804827754
 20
14.75135859859865
 30
0.0
 10
173.1157393685411
 20
14.44741691121889
 30
0.0
 10
173.0087691634751
 20
14.22353177253395
 30
0.0
 10
172.9098148604347
 20
14.03895314292496
 30
0.0
 10
172.9225090524009
 20
13.79530204804208
 30
0.0
 10
172.8050091716397
 20
13.82508046753196
 30
0.0
 10
172.7422055868311
 20
13.82258089509605
 30
0.0
 10
172.67858720934
 20
13.82344075102804
 30
0.0
 10
172.3946014194077
 20
13.78098039941952
 30
0.0
 10
173.0251638499381
 20
14.50081952444784
 30
0.0
 10
173.1087645289071
 20
15.01276539435733
 30
0.0
 10
173.4929252789339
 20
15.53353743550042
 30
0.0
 10
173.4777208288567
 20
16.23519626253217
 30
0.0
 10
173.7239265722698
 20
16.22345633081257
 30
0.0
 10
173.8256346157562
 20
16.23225004452774
 30
0.0
 10
173.8249752035818
 20
15.98059650730343
 30
0.0
 10
173.9428317155829
 20
15.7981802073396
 30
0.0
 10
174.0315515260486
 20
15.55563740662867
 30
0.0
 10
174.1322292485258
 20
15.32340030530124
 30
0.0
 10
174.2311142712244
 20
15.08674644566915
 30
0.0
 10
174.3299676990668
 20
14.85461739170089
 30
0.0
 10
174.4256166390927
 20
14.63122222788792
 30
0.0
 10
174.5159904573271
 20
14.42272549049311
 30
0.0
 10
174.598994456819
 20
14.23308448529323
 30
0.0
 10
174.67260885828
 20
14.06663106068101
 30
0.0
 10
174.7342815895545
 20
13.92917699626095
 30
0.0
 10
174.7749458885604
 20
13.84999239430034
 30
0.0
 10
174.7922649500514
 20
13.81626739612928
 30
0.0
 11
174.7922649500514
 21
13.81626739612928
 31
0.0
 11
174.7453878317448
 21
13.82145433189185
 31
0.0
 11
174.7010975896126
 21
13.82315538223863
 31
0.0
 11
174.656807443173
 21
13.82315538223863
 31
0.0
 11
174.609930994716
 21
13.82315538223863
 31
0.0
 11
174.5630633657034
 21
13.82315538223863
 31
0.0
 11
174.5188084970408
 21
13.82315538223863
 31
0.0
 11
174.4744852776854
 21
13.82145433189185
 31
0.0
 11
174.4276419021444
 21
13.81626739612928
 31
0.0
 11
174.3992532136325
 21
13.90360966173244
 31
0.0
 11
174.3622721815898
 21
14.00729656274818
 31
0.0
 11
174.3188386236701
 21
14.12159987001128
 31
0.0
 11
174.2711055866937
 21
14.24113531268968
 31
0.0
 11
174.2208160133237
 21
14.36408057307566
 31
0.0
 11
174.1696467003933
 21
14.48883822929447
 31
0.0
 11
174.1197531801327
 21
14.61134141502771
 31
0.0
 11
174.0733119111842
 21
14.72784517367917
 31
0.0
 11
173.962361190759
 21
14.73087465284506
 31
0.0
 11
173.849730922509
 21
14.7330045486779
 31
0.0
 11
173.7362152069449
 21
14.7343219531914
 31
0.0
 11
173.62270004768
 21
14.73473315978852
 31
0.0
 11
173.5169185312816
 21
14.7343219531914
 31
0.0
 11
173.4128501919225
 21
14.7330045486779
 31
0.0
 11
173.3087951724045
 21
14.73087465284506
 31
0.0
 11
173.2030010615597
 21
14.72784517367917
 31
0.0
 11
173.0980914750139
 21
14.4660443751335
 31
0.0
 11
173.0034868690332
 21
14.2171023265846
 31
0.0
 11
172.9252231210299
 21
13.99559756969557
 31
0.0
 11
172.8693431224556
 21
13.81626739612928
 31
0.0
 11
172.8082651639442
 21
13.82145433189185
 31
0.0
 11
172.742087361813
 21
13.82315538223863
 31
0.0
 11
172.6758390041283
 21
13.82145433189185
 31
0.0
 11
172.6147963233939
 21
13.81626739612928
 31
0.0
 11
172.8899684951931
 21
14.41656508695142
 31
0.0
 11
173.158294573417
 21
15.01343642360776
 31
0.0
 11
173.4240277350405
 21
15.61366245644381
 31
0.0
 11
173.6914740737034
 21
16.22421385386063
 31
0.0
 11
173.7241589339807
 21
16.22421385386063
 31
0.0
 11
173.756843794258
 21
16.22421385386063
 31
0.0
 11
173.8428300681057
 21
16.01658539037084
 31
0.0
 11
173.935728581361
 21
15.79254614563517
 31
0.0
 11
174.0328714521464
 21
15.55908663180468
 31
0.0
 11
174.1317936458031
 21
15.32298128464144
 31
0.0
 11
174.2315341249927
 21
15.08649780379784
 31
0.0
 11
174.3313071129353
 21
14.85168781253709
 31
0.0
 11
174.4280608257449
 21
14.62599492196849
 31
0.0
 11
174.5188084970408
 21
14.4165805209792
 31
0.0
 11
174.6022150834547
 21
14.22607611130461
 31
0.0
 11
174.6770293263378
 21
14.05708232662467
 31
0.0
 11
174.7410729186603
 21
13.91781337700668
 31
0.0
 11
174.7922649500514
 21
13.81626739612928
 31
0.0
  0
SPLINE
  5
A6
102
{ACAD_REACTORS
330
C3
102
}
330
48
100
AcDbEntity
  8
_U_30EC_U_30A4_U_30E4_U_30FC_1
  6
Continuous
 62
     2
100
AcDbSpline
210
0.0
220
0.0
230
1.0
 70
    11
 71
     3
 72
    25
 73
    21
 74
    19
 42
0.000000001
 43
0.0000000001
 44
0.00000001
 40
0.0
 40
0.0
 40
0.0
 40
0.0
 40
0.091147996906539
 40
0.1858117896204667
 40
0.2804128399735058
 40
0.3715889190714509
 40
0.4679080494218991
 40
0.5642683809230082
 40
0.6605683222645558
 40
0.7569653015811104
 40
0.8561348172523587
 40
1.092615965104389
 40
1.374867658141983
 40
1.61134881201172
 40
1.710518328425368
 40
1.809403163726687
 40
2.045205463294189
 40
2.326646917622249
 40
2.562449217190711
 40
2.66133404383403
 40
2.66133404383403
 40
2.66133404383403
 40
2.66133404383403
 10
173.2683700567199
 20
14.88614538197292
 30
0.0
 10
173.2987525917923
 20
14.88598079714554
 30
0.0
 10
173.3606895889112
 20
14.88564528689921
 30
0.0
 10
173.454135696033
 20
14.88269055451998
 30
0.0
 10
173.5475095236357
 20
14.87977752877151
 30
0.0
 10
173.6417760753477
 20
14.87894201643416
 30
0.0
 10
173.7354964790967
 20
14.87996644658048
 30
0.0
 10
173.8352040303205
 20
14.87916977470973
 30
0.0
 10
173.9188949546314
 20
14.8892141023522
 30
0.0
 10
174.0637996315045
 20
14.86234617674164
 30
0.0
 10
173.9396132444802
 20
15.0366553028005
 30
0.0
 10
173.8965867286282
 20
15.19651711006091
 30
0.0
 10
173.780892214221
 20
15.45518458550216
 30
0.0
 10
173.7017565431257
 20
15.59231052861857
 30
0.0
 10
173.6431576621816
 20
15.80937033134077
 30
0.0
 10
173.5864803939438
 20
15.59266134213428
 30
0.0
 10
173.5052809900477
 20
15.45327012438236
 30
0.0
 10
173.4063701281487
 20
15.20406969370194
 30
0.0
 10
173.325362509426
 20
15.01925830226074
 30
0.0
 10
173.2813683325838
 20
14.91650446856116
 30
0.0
 10
173.2683700567199
 20
14.88614538197292
 30
0.0
 11
173.2683700567199
 21
14.88614538197292
 31
0.0
 11
173.3595137737821
 21
14.88526123266759
 31
0.0
 11
173.4541428297581
 21
14.88269697919598
 31
0.0
 11
173.5487082179706
 21
14.88009965280777
 31
0.0
 11
173.6398803250196
 21
14.8792485764191
 31
0.0
 11
173.7361985777706
 21
14.87965978301622
 31
0.0
 11
173.8325499034377
 21
14.88097718752972
 31
0.0
 11
173.9288262638287
 21
14.88310818579313
 31
0.0
 11
174.0251753846344
 21
14.88614538197292
 31
0.0
 11
173.9854633323142
 21
14.9770164219502
 31
0.0
 11
173.8907653613969
 21
15.19370890189602
 31
0.0
 11
173.7777387509471
 21
15.45234186183135
 31
0.0
 11
173.6830407800297
 21
15.66903434177717
 31
0.0
 11
173.6433287277095
 21
15.75990538175445
 31
0.0
 11
173.6043330259266
 21
15.66903434177717
 31
0.0
 11
173.5113432755212
 21
15.45234186183135
 31
0.0
 11
173.4003555089082
 21
15.19370890189602
 31
0.0
 11
173.3073657585028
 21
14.9770164219502
 31
0.0
 11
173.2683700567199
 21
14.88614538197292
 31
0.0
  0
SPLINE
  5
A7
102
{ACAD_REACTORS
330
C4
102
}
330
48
100
AcDbEntity
  8
_U_30EC_U_30A4_U_30E4_U_30FC_1
  6
Continuous
 62
     2
100
AcDbSpline
210
0.0
220
0.0
230
1.0
 70
    11
 71
     3
 72
    95
 73
    91
 74
    89
 42
0.000000001
 43
0.0000000001
 44
0.00000001
 40
0.0
 40
0.0
 40
0.0
 40
0.0
 40
0.6550406656910991
 40
1.308087289031938
 40
1.420803739835808
 40
1.566130759770809
 40
1.757067341888465
 40
2.006513545026467
 40
2.087328263121549
 40
2.185328872295618
 40
2.294612454748359
 40
2.408936380534801
 40
2.526802767798569
 40
2.646360524615616
 40
2.762535723971594
 40
2.870057342870168
 40
2.966883448431647
 40
3.050803243518303
 40
3.115818222436617
 40
3.156030057150237
 40
3.213914225080166
 40
3.276689026450538
 40
3.342960320981316
 40
3.404230667150564
 40
3.453822809493365
 40
3.53249982718843
 40
3.634775188507162
 40
3.754909333008156
 40
3.889736761660649
 40
4.035769602175226
 40
4.187256681197598
 40
4.338733685675937
 40
4.488478734676104
 40
4.63470831783158
 40
4.771493189921261
 40
4.892686571561203
 40
5.199775528944443
 40
5.460353566929629
 40
5.667603142345502
 40
5.814722905404492
 40
5.828990806219819
 40
5.855488336304488
 40
5.869756237118819
 40
6.189796507762831
 40
6.531890469873027
 40
6.883053637016995
 40
7.230512024911434
 40
7.566966656764548
 40
7.88520355970736
 40
8.172887439719174
 40
8.418011594062769
 40
8.44392672119069
 40
8.510760470613176
 40
8.602145393795684
 40
8.701714041647122
 40
8.793098965075352
 40
8.859932715057923
 40
8.885847842603571
 40
9.242301256612793
 40
9.58927545501674
 40
9.92180854316414
 40
10.23479624298465
 40
10.29968150889182
 40
10.35323493887764
 40
10.40154625355152
 40
10.46482922477833
 40
10.55973900668413
 40
10.69239545985627
 40
10.84920353475681
 40
11.01626328594787
 40
11.18672024367451
 40
11.35372582577218
 40
11.50257442292434
 40
11.61866495023299
 40
11.71329869152883
 40
11.82511050573915
 40
11.94464880845724
 40
12.06929242642516
 40
12.19707290435185
 40
12.32562632860538
 40
12.45034565331287
 40
12.56646595170335
 40
12.67099007414644
 40
12.76077625936791
 40
12.82703233506703
 40
12.87429132786001
 40
12.89831990323341
 40
12.92234847860029
 40
13.5398476741033
 40
14.18294284359379
 40
14.18294284359379
 40
14.18294284359379
 40
14.18294284359379
 10
177.3067935648021
 20
14.70898038201723
 30
0.0
 10
177.1752019758551
 20
14.82265058603231
 30
0.0
 10
176.912419380273
 20
15.04964496316164
 30
0.0
 10
176.3997393441019
 20
15.89214462956289
 30
0.0
 10
176.4106654595363
 20
15.53423377577018
 30
0.0
 10
176.404122652799
 20
15.39267392272132
 30
0.0
 10
176.4028026631773
 20
15.1942130529928
 30
0.0
 10
176.4018117602539
 20
15.02150296045982
 30
0.0
 10
176.4024101751975
 20
14.87865373257579
 30
0.0
 10
176.4038994301882
 20
14.78265005413358
 30
0.0
 10
176.4055683588473
 20
14.67545503263142
 30
0.0
 10
176.4071934954617
 20
14.56164211517582
 30
0.0
 10
176.4092429501687
 20
14.44441572604589
 30
0.0
 10
176.4123165501926
 20
14.32656411232968
 30
0.0
 10
176.4156339697044
 20
14.21228087320619
 30
0.0
 10
176.4193605340281
 20
14.10521401867276
 30
0.0
 10
176.4217338161424
 20
14.0100740876692
 30
0.0
 10
176.4278718888357
 20
13.92558557205694
 30
0.0
 10
176.4239784495947
 20
13.86923087298141
 30
0.0
 10
176.4455230443078
 20
13.79825022472356
 30
0.0
 10
176.3680940058618
 20
13.82902677604482
 30
0.0
 10
176.3116353240191
 20
13.82011242517615
 30
0.0
 10
176.2540495896807
 20
13.82896218398274
 30
0.0
 10
176.1690163478474
 20
13.79738225225947
 30
0.0
 10
176.2009714146383
 20
13.8809515599219
 30
0.0
 10
176.1990705282539
 20
13.9488260896831
 30
0.0
 10
176.21079600473
 20
14.05233256764419
 30
0.0
 10
176.2164241053001
 20
14.17002125616694
 30
0.0
 10
176.223790217894
 20
14.30388609164423
 30
0.0
 10
176.2320759701611
 20
14.44764152872632
 30
0.0
 10
176.2398851897426
 20
14.59714022843444
 30
0.0
 10
176.2457571222658
 20
14.74792549402077
 30
0.0
 10
176.2503667817967
 20
14.89699943878437
 30
0.0
 10
176.2542632117544
 20
15.04122913163021
 30
0.0
 10
176.2570715126563
 20
15.17583905213017
 30
0.0
 10
176.2576698755023
 20
15.36469614347355
 30
0.0
 10
176.2616023867149
 20
15.58975494313153
 30
0.0
 10
176.24421753785
 20
15.86367091125708
 30
0.0
 10
176.2850417342581
 20
16.02787112098597
 30
0.0
 10
176.1995153256004
 20
16.22749661465099
 30
0.0
 10
176.2660558907689
 20
16.22385458403979
 30
0.0
 10
176.2838724273231
 20
16.22413447160855
 30
0.0
 10
176.4056801797503
 20
16.22632927398614
 30
0.0
 10
176.5080770335463
 20
15.94675118721514
 30
0.0
 10
176.7580021509357
 20
15.74563008536002
 30
0.0
 10
176.9870035331111
 20
15.47792614987917
 30
0.0
 10
177.2245151213108
 20
15.22646413862372
 30
0.0
 10
177.4486090740772
 20
14.98969974061361
 30
0.0
 10
177.6750716283009
 20
14.73218692583078
 30
0.0
 10
177.8325687886514
 20
14.61649335056921
 30
0.0
 10
178.0472129612676
 20
14.27997152538794
 30
0.0
 10
178.0422645974619
 20
14.40464754091604
 30
0.0
 10
178.0433931602547
 20
14.46327691935737
 30
0.0
 10
178.0428877841517
 20
14.55043662371978
 30
0.0
 10
178.0430475158114
 20
14.64416143182872
 30
0.0
 10
178.0430054891319
 20
14.73018971297035
 30
0.0
 10
178.0430202040374
 20
14.79153891945496
 30
0.0
 10
178.0429706255983
 20
14.94135231520992
 30
0.0
 10
178.0458811522812
 20
15.17989612510105
 30
0.0
 10
178.0259521041162
 20
15.544865098687
 30
0.0
 10
178.0750433936249
 20
15.80799631993414
 30
0.0
 10
177.917795150918
 20
16.2192890494775
 30
0.0
 10
178.0762112872421
 20
16.16398282551749
 30
0.0
 10
178.1311680478629
 20
16.16199686500175
 30
0.0
 10
178.182788776674
 20
16.16264778248251
 30
0.0
 10
178.2713198965367
 20
16.20369527738246
 30
0.0
 10
178.2204898303169
 20
16.05696326622986
 30
0.0
 10
178.2313389930283
 20
15.95019971954432
 30
0.0
 10
178.2166036994848
 20
15.79085705414112
 30
0.0
 10
178.2099976446206
 20
15.62853061652874
 30
0.0
 10
178.2014961399915
 20
15.45992521892396
 30
0.0
 10
178.19432272022
 20
15.29814814703542
 30
0.0
 10
178.1889063215389
 20
15.15422331457932
 30
0.0
 10
178.1871713967649
 20
15.03437493466925
 30
0.0
 10
178.1875440672319
 20
14.92686101590515
 30
0.0
 10
178.1873656126263
 20
14.81820024645586
 30
0.0
 10
178.187701086314
 20
14.6995357016553
 30
0.0
 10
178.1890040622183
 20
14.5755516351274
 30
0.0
 10
178.1908887351575
 20
14.44858294171103
 30
0.0
 10
178.192500445485
 20
14.32153861551031
 30
0.0
 10
178.1941403137431
 20
14.19854884492177
 30
0.0
 10
178.196257074575
 20
14.08300931383759
 30
0.0
 10
178.1963848422365
 20
13.98090903955837
 30
0.0
 10
178.2006514396555
 20
13.89009848838156
 30
0.0
 10
178.190844008529
 20
13.83213621208786
 30
0.0
 10
178.211847477169
 20
13.76517130132029
 30
0.0
 10
178.1725639739897
 20
13.77291153966688
 30
0.0
 10
177.959530711775
 20
13.75755254145193
 30
0.0
 10
177.7636297943186
 20
14.31403058094471
 30
0.0
 10
177.4611197631544
 20
14.57556035348509
 30
0.0
 10
177.3067935648021
 20
14.70898038201723
 30
0.0
 11
177.3067935648021
 21
14.70898038201723
 31
0.0
 11
176.8595529338511
 21
15.18757635411976
 31
0.0
 11
176.4124049070643
 21
15.66352649288969
 31
0.0
 11
176.4089664262494
 21
15.55086249986231
 31
0.0
 11
176.40556101835
 21
15.40557538184309
 31
0.0
 11
176.4029636920275
 21
15.21465645827967
 31
0.0
 11
176.4021126156604
 21
14.96521170139756
 31
0.0
 11
176.402523923029
 21
14.8843980295428
 31
0.0
 11
176.4038420329817
 21
14.78640628477562
 31
0.0
 11
176.4055192267718
 21
14.6771355729974
 31
0.0
 11
176.4072367127518
 21
14.5628245487204
 31
0.0
 11
176.4094007838773
 21
14.44497802965265
 31
0.0
 11
176.4124049070643
 21
14.32545802100198
 31
0.0
 11
176.4158359733139
 21
14.20933349846155
 31
0.0
 11
176.4192928929999
 21
14.10186746550228
 31
0.0
 11
176.4227085253088
 21
14.00510162351264
 31
0.0
 11
176.4261896983793
 21
13.92125406276971
 31
0.0
 11
176.4296006184313
 21
13.85632862007759
 31
0.0
 11
176.4330776843149
 21
13.81626739612928
 31
0.0
 11
176.3754263821572
 21
13.82145433189185
 31
0.0
 11
176.312674631831
 21
13.82315538223863
 31
0.0
 11
176.2464251717157
 21
13.82145433189185
 31
0.0
 11
176.1853747739676
 21
13.81626739612928
 31
0.0
 11
176.1926772737814
 21
13.86531894125589
 31
0.0
 11
176.2008793569055
 21
13.94356725720856
 31
0.0
 11
176.2090098822349
 21
14.04551893253029
 31
0.0
 11
176.2163406441398
 21
14.16542920159752
 31
0.0
 11
176.2236358280421
 21
14.30005912343889
 31
0.0
 11
176.2318444255596
 21
14.44586107652746
 31
0.0
 11
176.2395504149466
 21
14.59715203135072
 31
0.0
 11
176.2455763002093
 21
14.74850913200733
 31
0.0
 11
176.2503046247416
 21
14.89817951391435
 31
0.0
 11
176.2541928972121
 21
15.04435739582222
 31
0.0
 11
176.2567527408965
 21
15.18111831592696
 31
0.0
 11
176.2576324804574
 21
15.3023085068689
 31
0.0
 11
176.257192610677
 21
15.60939715262544
 31
0.0
 11
176.2559126888348
 21
15.86997204839365
 31
0.0
 11
176.2528658717893
 21
16.07719922716125
 31
0.0
 11
176.2473049112764
 21
16.22421385386063
 31
0.0
 11
176.261572812147
 21
16.22421385386063
 31
0.0
 11
176.2880703423353
 21
16.22421385386063
 31
0.0
 11
176.3023382432059
 21
16.22421385386063
 31
0.0
 11
176.5194743650278
 21
15.98910179662773
 31
0.0
 11
176.751274412308
 21
15.73751281231561
 31
0.0
 11
176.989481601884
 21
15.4794955554357
 31
0.0
 11
177.2260074557521
 21
15.22497079855488
 31
0.0
 11
177.4555698717706
 21
14.97899759549138
 31
0.0
 11
177.6731797360103
 21
14.74678934034107
 31
0.0
 11
177.8713724913707
 21
14.53826680567101
 31
0.0
 11
178.0430143099087
 21
14.3632669793259
 31
0.0
 11
178.0430143099087
 21
14.38918210687044
 31
0.0
 11
178.0430143099087
 21
14.45601585685372
 31
0.0
 11
178.0430143099087
 21
14.54740078030025
 31
0.0
 11
178.0430143099087
 21
14.64696942823454
 31
0.0
 11
178.0430143099087
 21
14.73835435168107
 31
0.0
 11
178.0430143099087
 21
14.80518810166435
 31
0.0
 11
178.0430143099087
 21
14.83110322920889
 31
0.0
 11
178.041723363761
 21
15.18755430550868
 31
0.0
 11
178.0378461155959
 21
15.53450684014415
 31
0.0
 11
178.0296197790003
 21
15.86693815950551
 31
0.0
 11
178.0154535467228
 21
16.17960510387179
 31
0.0
 11
178.0790351249619
 21
16.16666367158334
 31
0.0
 11
178.1324170159611
 21
16.16238072887607
 31
0.0
 11
178.1805381084833
 21
16.16666367158334
 31
0.0
 11
178.2424836798198
 21
16.17960510387179
 31
0.0
 11
178.2351216487575
 21
16.084981284451
 31
0.0
 11
178.2269790968818
 21
15.95257496503963
 31
0.0
 11
178.2183705364005
 21
15.79600336785655
 31
0.0
 11
178.2097547223216
 21
15.62916593734271
 31
0.0
 11
178.2016187850289
 21
15.45890325509361
 31
0.0
 11
178.1942501393836
 21
15.29206031242701
 31
0.0
 11
178.1891406931522
 21
15.1432994357281
 31
0.0
 11
178.1874503478905
 21
15.02722121527101
 31
0.0
 11
178.1874503478905
 21
14.93258747397519
 31
0.0
 11
178.1874503478905
 21
14.82077565976708
 31
0.0
 11
178.1878461204497
 21
14.70123801222749
 31
0.0
 11
178.1890819450708
 21
14.57660052093918
 31
0.0
 11
178.1908392193318
 21
14.4488321268739
 31
0.0
 11
178.1925303477608
 21
14.32028982655878
 31
0.0
 11
178.1942876220215
 21
14.19558288214555
 31
0.0
 11
178.1959787504505
 21
14.0794748960635
 31
0.0
 11
178.1972884379173
 21
13.97495896727017
 31
0.0
 11
178.1976985420736
 21
13.88517371555652
 31
0.0
 11
178.1976985420736
 21
13.81891763918415
 31
0.0
 11
178.1976985420736
 21
13.77165864614041
 31
0.0
 11
178.1736699662977
 21
13.77165864614041
 31
0.0
 11
178.1496413905218
 21
13.77165864614041
 31
0.0
 11
177.7410729200423
 21
14.2346673526219
 31
0.0
 11
177.3067935648021
 21
14.70898038201723
 31
0.0
  0
SPLINE
  5
A8
102
{ACAD_REACTORS
330
C5
102
}
330
48
100
AcDbEntity
  8
_U_30EC_U_30A4_U_30E4_U_30FC_1
  6
Continuous
 62
     2
100
AcDbSpline
210
0.0
220
0.0
230
1.0
 70
    11
 71
     3
 72
   110
 73
   106
 74
   104
 42
0.000000001
 43
0.0000000001
 44
0.00000001
 40
0.0
 40
0.0
 40
0.0
 40
0.0
 40
0.2203406257277714
 40
0.4407808782838055
 40
0.5952494494614465
 40
0.7488431659393037
 40
0.9023581831308454
 40
1.056801968670401
 40
1.210736449099873
 40
1.363041386539694
 40
1.515315729683065
 40
1.669377239147988
 40
1.72161165275647
 40
1.77319950294286
 40
1.824933793209909
 40
1.877110426487888
 40
1.982682281206652
 40
2.078781667087462
 40
2.172809640822154
 40
2.271937807378752
 40
2.37834993337923
 40
2.494131557736304
 40
2.626681683943495
 40
2.78314505079598
 40
2.890701232940847
 40
2.993130312454757
 40
3.099869730691723
 40
3.22023781669122
 40
3.352695482737507
 40
3.48173280638975
 40
3.593499473690287
 40
3.674323013331805
 40
3.817951711952783
 40
3.946167120793866
 40
4.061405053453465
 40
4.16648079600319
 40
4.262478775059171
 40
4.350736673551071
 40
4.433071991253957
 40
4.511216293814672
 40
4.564262454118013
 40
4.618474415571642
 40
4.67012848875422
 40
4.722296879126441
 40
4.819540945314366
 40
4.931194984128166
 40
5.049996040257836
 40
5.168643755415467
 40
5.283970811762678
 40
5.392260784910504
 40
5.48651225487655
 40
5.559178233949978
 40
5.591425852853638
 40
5.626215969638026
 40
5.667155838674558
 40
5.717449290214363
 40
5.738402360944978
 40
5.784499116553947
 40
5.83059587216492
 40
5.851548942897779
 40
5.873019280661893
 40
5.924217778408435
 40
5.985325662817814
 40
6.036524160567831
 40
6.057994498334359
 40
6.236847789607618
 40
6.381409928945775
 40
6.493190424178817
 40
6.574067534230623
 40
6.691018086205774
 40
6.814881554220634
 40
6.944307823240587
 40
7.071266716066325
 40
7.193488604462084
 40
7.309042773128368
 40
7.414007203170965
 40
7.505140441886749
 40
7.531150360599926
 40
7.559221645322512
 40
7.587202218921178
 40
7.612569159499382
 40
7.662550809481263
 40
7.702878875764392
 40
7.857328205231291
 40
8.010799568088938
 40
8.16525639965786
 40
8.322232698714227
 40
8.479564855016857
 40
8.635216230291118
 40
8.790882550926007
 40
8.948305154947516
 40
9.168271839033187
 40
9.387358980987473
 40
9.608047961033712
 40
9.832914234792906
 40
9.85833869496324
 40
9.92536681723025
 40
10.02013071422784
 40
10.12876249859022
 40
10.23739428295273
 40
10.33215817995215
 40
10.39918630222418
 40
10.42461076239807
 40
10.64992019336967
 40
10.87188524531211
 40
10.87188524531211
 40
10.87188524531211
 40
10.87188524531211
 10
179.9057788376618
 20
15.7392326039819
 30
0.0
 10
179.9092864933542
 20
15.80616462073804
 30
0.0
 10
179.9163033987663
 20
15.94005891915858
 30
0.0
 10
179.8198027599074
 20
16.22548554971468
 30
0.0
 10
180.0510134726109
 20
16.16284386190282
 30
0.0
 10
180.1919290057157
 20
16.17001554055992
 30
0.0
 10
180.3490417757588
 20
16.16235883078244
 30
0.0
 10
180.5025913427288
 20
16.1625275228304
 30
0.0
 10
180.6545104935081
 20
16.16182040535432
 30
0.0
 10
180.8142214813231
 20
16.1721015835164
 30
0.0
 10
180.9408972601118
 20
16.1549651108075
 30
0.0
 10
181.1370821122079
 20
16.22727260107146
 30
0.0
 10
181.1034395279079
 20
16.12640699080115
 30
0.0
 10
181.1052011317183
 20
16.0761925394767
 30
0.0
 10
181.102734207346
 20
16.02712335586466
 30
0.0
 10
181.134707696601
 20
15.94063490846997
 30
0.0
 10
181.0010399903256
 20
15.98997438608336
 30
0.0
 10
180.9172208688057
 20
15.9843063431417
 30
0.0
 10
180.8173861139324
 20
15.99465516706297
 30
0.0
 10
180.7186576720146
 20
16.00086450411089
 30
0.0
 10
180.6121532771111
 20
16.00697763816778
 30
0.0
 10
180.491051169806
 20
16.01588883484584
 30
0.0
 10
180.3703381502455
 20
16.00521605912384
 30
0.0
 10
180.1812553843436
 20
16.06468503080369
 30
0.0
 10
180.2129028505312
 20
15.9055832007754
 30
0.0
 10
180.1995563316833
 20
15.80839128339904
 30
0.0
 10
180.1974958426451
 20
15.69634065110102
 30
0.0
 10
180.1958188044671
 20
15.57699685629351
 30
0.0
 10
180.1973336794232
 20
15.4503259215511
 30
0.0
 10
180.1956582478671
 20
15.32301588016117
 30
0.0
 10
180.2058844271658
 20
15.22451566404465
 30
0.0
 10
180.1779006596581
 20
15.08388702625629
 30
0.0
 10
180.3508029999306
 20
15.13989551134096
 30
0.0
 10
180.4645020202773
 20
15.12719951478499
 30
0.0
 10
180.584015167224
 20
15.13448377051256
 30
0.0
 10
180.6888491425072
 20
15.13878017056753
 30
0.0
 10
180.7843084898612
 20
15.14330568258976
 30
0.0
 10
180.8763823507032
 20
15.151492011462
 30
0.0
 10
180.9476551782438
 20
15.14643850638112
 30
0.0
 10
181.0544931705687
 20
15.18536425031676
 30
0.0
 10
181.0226603598035
 20
15.1051712200588
 30
0.0
 10
181.026616450393
 20
15.05562936846033
 30
0.0
 10
181.0234502392013
 20
15.00557478039817
 30
0.0
 10
181.0550791490587
 20
14.92128847612022
 30
0.0
 10
180.9210133677692
 20
14.97425365495155
 30
0.0
 10
180.8292322793201
 20
14.96540080890442
 30
0.0
 10
180.7079729189603
 20
14.97570049965155
 30
0.0
 10
180.5914113119772
 20
14.97748911767502
 30
0.0
 10
180.4783375745879
 20
14.97787017109695
 30
0.0
 10
180.3679246308471
 20
14.98415449472181
 30
0.0
 10
180.2898124067841
 20
14.97189133255364
 30
0.0
 10
180.1913625833643
 20
15.00453887616125
 30
0.0
 10
180.2012355173561
 20
14.94769748054206
 30
0.0
 10
180.1973923244404
 20
14.91392130557982
 30
0.0
 10
180.1966789884268
 20
14.87119604709411
 30
0.0
 10
180.1963369642975
 20
14.83401607262153
 30
0.0
 10
180.1963834255345
 20
14.79487237370771
 30
0.0
 10
180.1963649429927
 20
14.75716849497686
 30
0.0
 10
180.1963703431806
 20
14.71944955232402
 30
0.0
 10
180.1963697214201
 20
14.6899432474515
 30
0.0
 10
180.1963698151545
 20
14.65873577699301
 30
0.0
 10
180.1963704287921
 20
14.61414424908085
 30
0.0
 10
180.1963671499336
 20
14.5596395650885
 30
0.0
 10
180.1963759623482
 20
14.51505540201448
 30
0.0
 10
180.1963359653415
 20
14.43117808585739
 30
0.0
 10
180.1976024270254
 20
14.31737520677678
 30
0.0
 10
180.1950274117843
 20
14.16830395933709
 30
0.0
 10
180.206500938172
 20
14.06597203813906
 30
0.0
 10
180.1823506222263
 20
13.93338903885832
 30
0.0
 10
180.3332993946477
 20
13.97895732272021
 30
0.0
 10
180.4428436671556
 20
13.96427012162349
 30
0.0
 10
180.5733970473921
 20
13.96920435125062
 30
0.0
 10
180.6990312209514
 20
13.97257705323362
 30
0.0
 10
180.8188730625602
 20
13.97711497498773
 30
0.0
 10
180.9391362611427
 20
13.99048536182004
 30
0.0
 10
181.0222761663515
 20
13.98068712782598
 30
0.0
 10
181.1456080421077
 20
14.04126214623318
 30
0.0
 10
181.1244269203956
 20
13.98532460134022
 30
0.0
 10
181.1235950270116
 20
13.95939249372345
 30
0.0
 10
181.1218963707558
 20
13.93197256190939
 30
0.0
 10
181.1217974888829
 20
13.89738195206384
 30
0.0
 10
181.120365930133
 20
13.86050408220767
 30
0.0
 10
181.1532804192191
 20
13.76846841021806
 30
0.0
 10
180.9551306988108
 20
13.8413201597483
 30
0.0
 10
180.830054829489
 20
13.81825726508607
 30
0.0
 10
180.6673071295156
 20
13.82454021985786
 30
0.0
 10
180.5129366450002
 20
13.82260943909927
 30
0.0
 10
180.3566670436943
 20
13.82393762599268
 30
0.0
 10
180.1970544465282
 20
13.82059872487863
 30
0.0
 10
180.0540326342237
 20
13.83265795728239
 30
0.0
 10
179.819714488163
 20
13.76952001976922
 30
0.0
 10
179.9173810751197
 20
14.05620527466318
 30
0.0
 10
179.9006868780058
 20
14.24988308142661
 30
0.0
 10
179.9146296709684
 20
14.47848242880295
 30
0.0
 10
179.9142987846632
 20
14.63384593955048
 30
0.0
 10
179.9143078119263
 20
14.73966336444126
 30
0.0
 10
179.9143055876316
 20
14.80205784124215
 30
0.0
 10
179.9143065551888
 20
14.89220425248327
 30
0.0
 10
179.9143065473261
 20
14.99621167157438
 30
0.0
 10
179.9143053861101
 20
15.10022131375296
 30
0.0
 10
179.9143090971502
 20
15.19036243688769
 30
0.0
 10
179.9143011051052
 20
15.25276803097216
 30
0.0
 10
179.9143334275017
 20
15.35868835961119
 30
0.0
 10
179.9131440788319
 20
15.51626716544741
 30
0.0
 10
179.9082216489256
 20
15.66528219822065
 30
0.0
 10
179.9057788376618
 20
15.7392326039819
 30
0.0
 11
179.9057788376618
 21
15.7392326039819
 31
0.0
 11
179.8966918223741
 21
15.95938578101018
 31
0.0
 11
179.8868249573134
 21
16.17960510387179
 31
0.0
 11
180.04115751414
 21
16.17312391463728
 31
0.0
 11
180.1946500189047
 21
16.16754892331925
 31
0.0
 11
180.3481160653367
 21
16.16367167505631
 31
0.0
 11
180.502554455494
 21
16.16238072887607
 31
0.0
 11
180.6564835227474
 21
16.16367167505631
 31
0.0
 11
180.80873910046
 21
16.16754892331925
 31
0.0
 11
180.9609113551074
 21
16.17312391463728
 31
0.0
 11
181.1148364762483
 21
16.17960510387179
 31
0.0
 11
181.1070811703124
 21
16.12794961777358
 31
0.0
 11
181.1044991623591
 21
16.07642642334203
 31
0.0
 11
181.1070811703124
 21
16.02475660564659
 31
0.0
 11
181.1148364762483
 21
15.97315954836783
 31
0.0
 11
181.0094874054411
 21
15.98001446156057
 31
0.0
 11
180.913637570006
 21
15.98693552058658
 31
0.0
 11
180.8198593171903
 21
15.99378381919599
 31
0.0
 11
180.7209679915882
 21
16.00063211780541
 31
0.0
 11
180.6147532199924
 21
16.00710999974824
 31
0.0
 11
180.4991060528039
 21
16.01268829835793
 31
0.0
 11
180.3666126447258
 21
16.01656554662088
 31
0.0
 11
180.2101546018423
 21
16.01785649280113
 31
0.0
 11
180.2062663293722
 21
15.91037061609186
 31
0.0
 11
180.20153800484
 21
15.80805072896463
 31
0.0
 11
180.197660756675
 21
15.70138175329687
 31
0.0
 11
180.1963698105272
 21
15.5810205901325
 31
0.0
 11
180.1967799146836
 21
15.44856355891565
 31
0.0
 11
180.1980896021503
 21
15.31953288186456
 31
0.0
 11
180.199407457705
 21
15.20777398432309
 31
0.0
 11
180.199819115366
 21
15.12695149302384
 31
0.0
 11
180.3434452935875
 21
15.1278025694125
 31
0.0
 11
180.4716343930759
 21
15.13039989580078
 31
0.0
 11
180.5868078221796
 21
15.13425509545254
 31
0.0
 11
180.6917756312221
 21
15.13901649302075
 31
0.0
 11
180.7876346289422
 21
15.14418027774174
 31
0.0
 11
180.8757413374193
 21
15.14934406246267
 31
0.0
 11
180.9578881438496
 21
15.15491243919739
 31
0.0
 11
181.0357692335572
 21
15.16132086801524
 31
0.0
 11
181.0280180445186
 21
15.10884407115336
 31
0.0
 11
181.0254328449317
 21
15.05469378470856
 31
0.0
 11
181.0280180445186
 21
15.00310444444367
 31
0.0
 11
181.0357692335572
 21
14.95151510417882
 31
0.0
 11
180.9389813454015
 21
14.96092324653756
 31
0.0
 11
180.8275950722016
 21
14.96865128473012
 31
0.0
 11
180.7089261429373
 21
14.97425273438146
 31
0.0
 11
180.5903167449213
 21
14.97726788195011
 31
0.0
 11
180.4750025117521
 21
14.97898767361639
 31
0.0
 11
180.36672619507
 21
14.98070746528258
 31
0.0
 11
180.2724839317708
 21
14.98202486979617
 31
0.0
 11
180.199819115366
 21
14.98243607639328
 31
0.0
 11
180.199407457705
 21
14.9501910850819
 31
0.0
 11
180.1980896021503
 21
14.91542593752116
 31
0.0
 11
180.1967799146836
 21
14.87450702260085
 31
0.0
 11
180.1963698105272
 21
14.82421524309952
 31
0.0
 11
180.1963698105272
 21
14.80326217235822
 31
0.0
 11
180.1963698105272
 21
14.75716541672736
 31
0.0
 11
180.1963698105272
 21
14.71106866109651
 31
0.0
 11
180.1963698105272
 21
14.69011559035521
 31
0.0
 11
180.1963698105272
 21
14.6686452525828
 31
0.0
 11
180.1963698105272
 21
14.61744675481784
 31
0.0
 11
180.1963698105272
 21
14.55633887038868
 31
0.0
 11
180.1963698105272
 21
14.50514037262371
 31
0.0
 11
180.1963698105272
 21
14.4836700348513
 31
0.0
 11
180.1967799146836
 21
14.30481721371547
 31
0.0
 11
180.1980896021503
 21
14.16026100715443
 31
0.0
 11
180.2002868589709
 21
14.04850210961289
 31
0.0
 11
180.2032586986985
 21
13.96767961831365
 31
0.0
 11
180.3202092517448
 21
13.96767961831365
 31
0.0
 11
180.4440727208746
 21
13.96767961831365
 31
0.0
 11
180.5734925526422
 21
13.96897056449389
 31
0.0
 11
180.7003922282245
 21
13.97284781275683
 31
0.0
 11
180.8224658067974
 21
13.97886708358865
 31
0.0
 11
180.9377587499464
 21
13.98663260442002
 31
0.0
 11
181.0421754573519
 21
13.99734161483402
 31
0.0
 11
181.1320599255449
 21
14.01237656274692
 31
0.0
 11
181.1264254031191
 21
13.98698427976715
 31
0.0
 11
181.1234433285423
 21
13.95907184053802
 31
0.0
 11
181.12213398812
 21
13.93112191867001
 31
0.0
 11
181.1217235369195
 21
13.90575829888472
 31
0.0
 11
181.1243087365064
 21
13.85584355063325
 31
0.0
 11
181.1320599255449
 21
13.81626739612928
 31
0.0
 11
180.9776977178344
 21
13.82145433189185
 31
0.0
 11
180.8242357818765
 21
13.82315538223863
 31
0.0
 11
180.6697789496483
 21
13.82315538223863
 31
0.0
 11
180.5128026496768
 21
13.82315538223863
 31
0.0
 11
180.3554704921537
 21
13.82315538223863
 31
0.0
 11
180.199819115366
 21
13.82315538223863
 31
0.0
 11
180.0441620874242
 21
13.82145433189185
 31
0.0
 11
179.8868249573134
 21
13.81626739612928
 31
0.0
 11
179.8966918223741
 21
14.03601267385209
 31
0.0
 11
179.9057788376618
 21
14.25491128490852
 31
0.0
 11
179.91217215184
 21
14.47550763902003
 31
0.0
 11
179.9143063455009
 21
14.70036378479715
 31
0.0
 11
179.9143063455009
 21
14.72578824496874
 31
0.0
 11
179.9143063455009
 21
14.79281636723931
 31
0.0
 11
179.9143063455009
 21
14.88758026424254
 31
0.0
 11
179.9143063455009
 21
14.99621204861208
 31
0.0
 11
179.9143063455009
 21
15.10484383298163
 31
0.0
 11
179.9143063455009
 21
15.19960772998484
 31
0.0
 11
179.9143063455009
 21
15.26663585225541
 31
0.0
 11
179.9143063455009
 21
15.29206031242701
 31
0.0
 11
179.91217215184
 21
15.51735963528735
 31
0.0
 11
179.9057788376618
 21
15.7392326039819
 31
0.0
  0
SPLINE
  5
A9
102
{ACAD_REACTORS
330
C6
102
}
330
48
100
AcDbEntity
  8
_U_30EC_U_30A4_U_30E4_U_30FC_1
  6
Continuous
 62
     2
100
AcDbSpline
210
0.0
220
0.0
230
1.0
 70
    11
 71
     3
 72
    47
 73
    43
 74
    41
 42
0.000000001
 43
0.0000000001
 44
0.00000001
 40
0.0
 40
0.0
 40
0.0
 40
0.0
 40
0.2207912809957089
 40
0.4459404186302985
 40
0.4902387190459481
 40
0.5327473892722148
 40
0.5742260451226042
 40
0.6155432630560768
 40
0.6568164066316254
 40
0.6982511618781465
 40
0.7407663929317406
 40
0.785136674317631
 40
1.010288833836434
 40
1.231080507002274
 40
1.451765243652515
 40
1.676638205891798
 40
1.720461045359767
 40
1.830018144043632
 40
1.972442372353263
 40
2.114866600677633
 40
2.224423699395258
 40
2.268246538883499
 40
2.493628801207339
 40
2.715602830286739
 40
2.934211330706484
 40
3.14950236985547
 40
3.231387784851115
 40
3.318231873854264
 40
3.405143198198252
 40
3.486970301720688
 40
3.702258172494126
 40
3.920866283534345
 40
4.142839325932136
 40
4.368221903865606
 40
4.412044743360086
 40
4.521601842096102
 40
4.664026070452582
 40
4.80645029880929
 40
4.916007397546982
 40
4.959830237043306
 40
5.184703515847335
 40
5.405387250767723
 40
5.405387250767723
 40
5.405387250767723
 40
5.405387250767723
 10
182.6507427258646
 20
15.73406440953873
 30
0.0
 10
182.6568139420003
 20
15.79758482501211
 30
0.0
 10
182.6690762107244
 20
15.92587938689628
 30
0.0
 10
182.5604706879412
 20
16.20166220174077
 30
0.0
 10
182.6761985896603
 20
16.17188133432053
 30
0.0
 10
182.7171842509015
 20
16.16765556262821
 30
0.0
 10
182.7591205797518
 20
16.16310446389607
 30
0.0
 10
182.800419662571
 20
16.16201982929485
 30
0.0
 10
182.8417032115556
 20
16.16310338195227
 30
0.0
 10
182.8836148270647
 20
16.16766112711343
 30
0.0
 10
182.924598354902
 20
16.1718743020973
 30
0.0
 10
183.0404922843489
 20
16.20177611317533
 30
0.0
 10
182.9295652727457
 20
15.92339806609892
 30
0.0
 10
182.9574856365266
 20
15.74283140824952
 30
0.0
 10
182.940426734697
 20
15.50961042346472
 30
0.0
 10
182.9414637282103
 20
15.34906622543145
 30
0.0
 10
182.9414099399404
 20
15.22284817558722
 30
0.0
 10
182.9414277372481
 20
15.12428963336241
 30
0.0
 10
182.941418858108
 20
14.99280702442963
 30
0.0
 10
182.9414263928033
 20
14.8613284496865
 30
0.0
 10
182.9414129405128
 20
14.7627622269409
 30
0.0
 10
182.9414531717492
 20
14.63639735624152
 30
0.0
 10
182.9406746403818
 20
14.47482068822869
 30
0.0
 10
182.9565958319266
 20
14.24361821892913
 30
0.0
 10
182.9333468885408
 20
14.05874351972001
 30
0.0
 10
183.0360183444367
 20
13.78935602770057
 30
0.0
 10
182.8820238362837
 20
13.82660112685817
 30
0.0
 10
182.8004129802832
 20
13.82137994680535
 30
0.0
 10
182.7188192292582
 20
13.8266062037835
 30
0.0
 10
182.5648513666843
 20
13.78937069885389
 30
0.0
 10
182.6674183421918
 20
14.05875129862879
 30
0.0
 10
182.6442045316089
 20
14.24361585325414
 30
0.0
 10
182.6600444655139
 20
14.47482218565638
 30
0.0
 10
182.6593296313428
 20
14.63639712308503
 30
0.0
 10
182.6593664569907
 20
14.7627623121052
 30
0.0
 10
182.6593549000271
 20
14.86132756635982
 30
0.0
 10
182.6593575019214
 20
14.99281127417219
 30
0.0
 10
182.659364853178
 20
15.124275480312
 30
0.0
 10
182.6593442541352
 20
15.22287786275326
 30
0.0
 10
182.6594082192029
 20
15.34896149354426
 30
0.0
 10
182.658173394759
 20
15.51210091383772
 30
0.0
 10
182.6532040396746
 20
15.6605418377755
 30
0.0
 10
182.6507427258646
 20
15.73406440953873
 30
0.0
 11
182.6507427258646
 21
15.73406440953873
 31
0.0
 11
182.641732820038
 21
15.95467178795577
 31
0.0
 11
182.6318769706146
 21
16.17960510387179
 31
0.0
 11
182.6756985840801
 21
16.17312391463728
 31
0.0
 11
182.7178400934215
 21
16.16754892331925
 31
0.0
 11
182.7591371409791
 21
16.16367167505631
 31
0.0
 11
182.8004341885365
 21
16.16238072887607
 31
0.0
 11
182.8416871388731
 21
16.16367167505631
 31
0.0
 11
182.8829400892098
 21
16.16754892331925
 31
0.0
 11
182.9250882131343
 21
16.17312391463728
 31
0.0
 11
182.9689825870146
 21
16.17960510387179
 31
0.0
 11
182.9590577693892
 21
15.95467178795577
 31
0.0
 11
182.950038420831
 21
15.73406440953873
 31
0.0
 11
182.9435638463435
 21
15.51347467001054
 31
0.0
 11
182.9414218238286
 21
15.28861190965007
 31
0.0
 11
182.9414218238286
 21
15.24478907015486
 31
0.0
 11
182.9414218238286
 21
15.13523197141682
 31
0.0
 11
182.9414218238286
 21
14.99280774305737
 31
0.0
 11
182.9414218238286
 21
14.85038351469792
 31
0.0
 11
182.9414218238286
 21
14.74082641595989
 31
0.0
 11
182.9414218238286
 21
14.69700357646467
 31
0.0
 11
182.9435638463435
 21
14.47163149318765
 31
0.0
 11
182.950038420831
 21
14.24975190990979
 31
0.0
 11
182.9590577693892
 21
14.03132954885329
 31
0.0
 11
182.9689825870146
 21
13.81626739612928
 31
0.0
 11
182.8872616168771
 21
13.82145433189185
 31
0.0
 11
182.8004341885365
 21
13.82315538223863
 31
0.0
 11
182.7135395119339
 21
13.82145433189185
 31
0.0
 11
182.6318769706146
 21
13.81626739612928
 31
0.0
 11
182.641732820038
 21
14.03132954885329
 31
0.0
 11
182.6507427258646
 21
14.24975190990979
 31
0.0
 11
182.6571833838799
 21
14.47163149318765
 31
0.0
 11
182.6593583588024
 21
14.69700357646467
 31
0.0
 11
182.6593583588024
 21
14.74082641595988
 31
0.0
 11
182.6593583588024
 21
14.85038351469792
 31
0.0
 11
182.6593583588024
 21
14.99280774305737
 31
0.0
 11
182.6593583588024
 21
15.13523197141682
 31
0.0
 11
182.6593583588024
 21
15.24478907015486
 31
0.0
 11
182.6593583588024
 21
15.28861190965007
 31
0.0
 11
182.6571833838799
 21
15.51347467001054
 31
0.0
 11
182.6507427258646
 21
15.73406440953873
 31
0.0
  0
SPLINE
  5
AA
102
{ACAD_REACTORS
330
C7
102
}
330
48
100
AcDbEntity
  8
_U_30EC_U_30A4_U_30E4_U_30FC_1
  6
Continuous
 62
     2
100
AcDbSpline
210
0.0
220
0.0
230
1.0
 70
    11
 71
     3
 72
   118
 73
   114
 74
   112
 42
0.000000001
 43
0.0000000001
 44
0.00000001
 40
0.0
 40
0.0
 40
0.0
 40
0.0
 40
0.1054708162973424
 40
0.2466098270051938
 40
0.3965912874591456
 40
0.5285525069754212
 40
0.6156245055642757
 40
0.6431434105798084
 40
0.7036850037986971
 40
0.7642265984505566
 40
0.7917455052356053
 40
0.9287404319990796
 40
1.106572819088159
 40
1.287544879681153
 40
1.31757830803067
 40
1.399928030857307
 40
1.522968204800081
 40
1.675072986590702
 40
1.844616533180783
 40
2.019973001638844
 40
2.189516548880157
 40
2.341621331585497
 40
2.464661506320633
 40
2.547011229647197
 40
2.577044658168161
 40
2.603797890893231
 40
2.662655002908918
 40
2.72151211494973
 40
2.74826534770291
 40
2.774215307344985
 40
2.845959313407317
 40
2.954338556588517
 40
3.090194227585695
 40
3.24436751710066
 40
3.407699615844422
 40
3.57103171453957
 40
3.72520500392025
 40
3.861060674729751
 40
3.969439917716445
 40
4.041183923629118
 40
4.067133883213112
 40
4.31188674601228
 40
4.547897258335625
 40
4.764747083044094
 40
4.952749679951886
 40
5.045772974196032
 40
5.137862019645101
 40
5.33054316979312
 40
5.553448265244098
 40
5.795083855888279
 40
6.043293412177363
 40
6.285761695541309
 40
6.313902908752821
 40
6.384255941793411
 40
6.475714884766999
 40
6.567173827759033
 40
6.637526860839811
 40
6.665668074074174
 40
6.692018920328147
 40
6.749990782071212
 40
6.80796264379058
 40
6.834313490018051
 40
6.85639308424533
 40
6.913335195649953
 40
6.991194817302588
 40
7.07602694228385
 40
7.153886563725312
 40
7.210828674844866
 40
7.232908268931201
 40
7.258199334923722
 40
7.324875781592374
 40
7.41914248192503
 40
7.527204308841974
 40
7.635266135230557
 40
7.729532834168543
 40
7.796209279292865
 40
7.821500344594812
 40
7.84465298885091
 40
7.899863140541689
 40
7.965759128053884
 40
8.020969279771226
 40
8.044121924046692
 40
8.069356610160845
 40
8.109134395441618
 40
8.13223810019133
 40
8.193147867786696
 40
8.279261678876868
 40
8.377977512674082
 40
8.476693347146865
 40
8.56280716041192
 40
8.623716930826706
 40
8.646820636853658
 40
8.67198879377447
 40
8.73490918582841
 40
8.816705695189125
 40
8.898502204815724
 40
8.961422597378213
 40
8.986590754551326
 40
9.012941600733479
 40
9.070913462380561
 40
9.12888532408205
 40
9.155236170325372
 40
9.180404327929415
 40
9.243324721948516
 40
9.32512123421231
 40
9.406917746637992
 40
9.469838141978476
 40
9.49500628827125
 40
9.517811184379392
 40
9.572192090487391
 40
9.637098333281623
 40
9.691479239515822
 40
9.71428412564386
 40
9.71428412564386
 40
9.71428412564386
 40
9.71428412564386
 10
185.2874469028653
 20
15.2688916318772
 30
0.0
 10
185.3090990569037
 20
15.24111869242812
 30
0.0
 10
185.3597257109474
 20
15.17618054561236
 30
0.0
 10
185.4349383202592
 20
15.06891060312898
 30
0.0
 10
185.5248482274346
 20
14.95377438266626
 30
0.0
 10
185.5709169676674
 20
14.85357045748318
 30
0.0
 10
185.6655825294655
 20
14.78434006814943
 30
0.0
 10
185.6204439320414
 20
14.73771639678273
 30
0.0
 10
185.594704778579
 20
14.69660308866038
 30
0.0
 10
185.5645196708012
 20
14.66065971727938
 30
0.0
 10
185.5193684730561
 20
14.58579782596094
 30
0.0
 10
185.4710504458563
 20
14.80782524253607
 30
0.0
 10
185.3968539713072
 20
14.84510677337707
 30
0.0
 10
185.2836047324605
 20
15.11610202130598
 30
0.0
 10
185.288513357817
 20
15.00095328446228
 30
0.0
 10
185.2868486556306
 20
14.92836675781626
 30
0.0
 10
185.2876830076714
 20
14.80625588483985
 30
0.0
 10
185.2873609540264
 20
14.65913800810459
 30
0.0
 10
185.2875076912456
 20
14.49307063956556
 30
0.0
 10
185.2872950092722
 20
14.32187554608601
 30
0.0
 10
185.2879497252035
 20
14.15552828635497
 30
0.0
 10
185.2859192461139
 20
14.00935173055692
 30
0.0
 10
185.291346039993
 20
13.88471047474609
 30
0.0
 10
185.2804930868708
 20
13.81718656540625
 30
0.0
 10
185.2956739155555
 20
13.75549061417021
 30
0.0
 10
185.2457895108133
 20
13.76727503897001
 30
0.0
 10
185.2017150342521
 20
13.75943822779968
 30
0.0
 10
185.1582371630201
 20
13.76760441372702
 30
0.0
 10
185.1092346786488
 20
13.75538056738467
 30
0.0
 10
185.1218731234825
 20
13.80960667249312
 30
0.0
 10
185.1130182968449
 20
13.86936918907556
 30
0.0
 10
185.1175058770314
 20
13.9792202904437
 30
0.0
 10
185.1157960135991
 20
14.11029975405678
 30
0.0
 10
185.1163550915986
 20
14.26198011444326
 30
0.0
 10
185.1161928768694
 20
14.42211074929953
 30
0.0
 10
185.1162269924674
 20
14.58236865674566
 30
0.0
 10
185.1162514960128
 20
14.73370247520439
 30
0.0
 10
185.1161453543224
 20
14.86582156338601
 30
0.0
 10
185.1164299141932
 20
14.97294802533194
 30
0.0
 10
185.1158675547567
 20
15.03808619579473
 30
0.0
 10
185.1180765083689
 20
15.16618957858674
 30
0.0
 10
185.0319435998603
 20
14.79097610391576
 30
0.0
 10
184.9555140818501
 20
14.63918193123392
 30
0.0
 10
184.8660040767833
 20
14.47766206446308
 30
0.0
 10
184.7640413217327
 20
14.20471848820171
 30
0.0
 10
184.7187976491039
 20
14.36717346596509
 30
0.0
 10
184.6102355941671
 20
14.45605432058121
 30
0.0
 10
184.7995791751753
 20
14.60549794961409
 30
0.0
 10
184.85653405457
 20
14.79749136974927
 30
0.0
 10
184.9717520993353
 20
15.02899622906756
 30
0.0
 10
184.9940151630134
 20
15.21797259759062
 30
0.0
 10
185.177190515214
 20
15.49454089325932
 30
0.0
 10
185.0538033597553
 20
15.48698978832095
 30
0.0
 10
184.9925684166834
 20
15.48856772366119
 30
0.0
 10
184.9081999617065
 20
15.48882592573674
 30
0.0
 10
184.8204235085966
 20
15.48544845751206
 30
0.0
 10
184.7656768696123
 20
15.49394814982021
 30
0.0
 10
184.7104703026025
 20
15.48048561049788
 30
0.0
 10
184.7222823035537
 20
15.52931442126764
 30
0.0
 10
184.7142496151795
 20
15.57269004896709
 30
0.0
 10
184.7228186104679
 20
15.61509438309573
 30
0.0
 10
184.7102943409158
 20
15.66267796552118
 30
0.0
 10
184.7555101538736
 20
15.65267212995109
 30
0.0
 10
184.8014815562725
 20
15.65894105174061
 30
0.0
 10
184.877722204771
 20
15.65593561405872
 30
0.0
 10
184.9561296131994
 20
15.65770448278541
 30
0.0
 10
185.0323992648933
 20
15.6546479398166
 30
0.0
 10
185.0783009459475
 20
15.66103971376176
 30
0.0
 10
185.12317339654
 20
15.65093822978897
 30
0.0
 10
185.1105552275633
 20
15.70157201581898
 30
0.0
 10
185.1191936582707
 20
15.7550126188207
 30
0.0
 10
185.1152361595443
 20
15.84863255131681
 30
0.0
 10
185.1162325068335
 20
15.95112606688924
 30
0.0
 10
185.1171927413073
 20
16.05353270248164
 30
0.0
 10
185.1133211458005
 20
16.14735929609321
 30
0.0
 10
185.1217789814364
 20
16.20036542840354
 30
0.0
 10
185.1093075932835
 20
16.2521143565119
 30
0.0
 10
185.154210638985
 20
16.23850747226758
 30
0.0
 10
185.1955083836772
 20
16.24100480320586
 30
0.0
 10
185.2595344281051
 20
16.23648060574488
 30
0.0
 10
185.2986111148787
 20
16.2278100304331
 30
0.0
 10
185.3476543498743
 20
16.23515102070686
 30
0.0
 10
185.322508003059
 20
16.19602896051762
 30
0.0
 10
185.2815901333723
 20
16.20563842455807
 30
0.0
 10
185.2910109616604
 20
16.15540148169779
 30
0.0
 10
185.2855647318746
 20
16.1038594563949
 30
0.0
 10
185.2881699601804
 20
16.0195970758452
 30
0.0
 10
185.2870102202153
 20
15.92559135583408
 30
0.0
 10
185.2883591064231
 20
15.83196865395526
 30
0.0
 10
185.2849970101508
 20
15.74679517552222
 30
0.0
 10
185.2920959917769
 20
15.69716856072044
 30
0.0
 10
185.2812569154545
 20
15.64993694969989
 30
0.0
 10
185.3304010225246
 20
15.66201674936852
 30
0.0
 10
185.3794877630147
 20
15.65447393363011
 30
0.0
 10
185.4573714280642
 20
15.65686070361433
 30
0.0
 10
185.5350365172896
 20
15.65899381905415
 30
0.0
 10
185.5845393931356
 20
15.65193391922454
 30
0.0
 10
185.634459475064
 20
15.66360151936214
 30
0.0
 10
185.6223198516882
 20
15.61540235371393
 30
0.0
 10
185.6305838229144
 20
15.57249219801237
 30
0.0
 10
185.6223198650784
 20
15.52958201851385
 30
0.0
 10
185.6344594549855
 20
15.48138288754865
 30
0.0
 10
185.5845395158747
 20
15.49305034471512
 30
0.0
 10
185.5350350651204
 20
15.48599202435047
 30
0.0
 10
185.4573784382972
 20
15.48811665228604
 30
0.0
 10
185.379464386576
 20
15.49053389365761
 30
0.0
 10
185.3304500352717
 20
15.48291848194486
 30
0.0
 10
185.2813246108943
 20
15.49507952557593
 30
0.0
 10
185.2915559988571
 20
15.45073013424159
 30
0.0
 10
185.2856677678053
 20
15.40925436202912
 30
0.0
 10
185.2878788305569
 20
15.34915394315303
 30
0.0
 10
185.2874109346146
 20
15.3022578276289
 30
0.0
 10
185.2874386992913
 20
15.27650146418197
 30
0.0
 10
185.2874469028653
 20
15.2688916318772
 30
0.0
 11
185.2874469028653
 21
15.2688916318772
 31
0.0
 11
185.3516977534484
 21
15.18524999634257
 31
0.0
 11
185.4348258835499
 21
15.07118889748221
 31
0.0
 11
185.5216831568896
 21
14.94891767195723
 31
0.0
 11
185.5971214371872
 21
14.84064565642876
 31
0.0
 11
185.6459925881627
 21
14.7685821875579
 31
0.0
 11
185.6296821285094
 21
14.74641782124399
 31
0.0
 11
185.593799117272
 21
14.69765621535339
 31
0.0
 11
185.5579161060346
 21
14.64889460946279
 31
0.0
 11
185.5416056463813
 21
14.62673024314888
 31
0.0
 11
185.4763067109446
 21
14.74716139023813
 31
0.0
 11
185.3848434243234
 21
14.89966983670206
 31
0.0
 11
185.2874469028653
 21
15.05219788193141
 31
0.0
 11
185.2874469028653
 21
15.02216445328252
 31
0.0
 11
185.2874469028653
 21
14.93981472956782
 31
0.0
 11
185.2874469028653
 21
14.81677455413527
 31
0.0
 11
185.2874469028653
 21
14.66466977033282
 31
0.0
 11
185.2874469028653
 21
14.49512622150844
 31
0.0
 11
185.2874469028653
 21
14.31976975101008
 31
0.0
 11
185.2874469028653
 21
14.1502262021857
 31
0.0
 11
185.2874469028653
 21
13.99812141838325
 31
0.0
 11
185.2874469028653
 21
13.8750812429507
 31
0.0
 11
185.2874469028653
 21
13.792731519236
 31
0.0
 11
185.2874469028653
 21
13.76269809058711
 31
0.0
 11
185.2606936700409
 21
13.76269809058711
 31
0.0
 11
185.2018365578272
 21
13.76269809058711
 31
0.0
 11
185.1429794456134
 21
13.76269809058711
 31
0.0
 11
185.116226212789
 21
13.76269809058711
 31
0.0
 11
185.116226212789
 21
13.78864805031249
 31
0.0
 11
185.116226212789
 21
13.86039205661207
 31
0.0
 11
185.116226212789
 21
13.96877130017101
 31
0.0
 11
185.116226212789
 21
14.10462697167446
 31
0.0
 11
185.116226212789
 21
14.2588002618076
 31
0.0
 11
185.116226212789
 21
14.42213236125558
 31
0.0
 11
185.116226212789
 21
14.58546446070356
 31
0.0
 11
185.116226212789
 21
14.7396377508367
 31
0.0
 11
185.116226212789
 21
14.87549342234015
 31
0.0
 11
185.116226212789
 21
14.98387266589909
 31
0.0
 11
185.116226212789
 21
15.05561667219867
 31
0.0
 11
185.116226212789
 21
15.08156663192405
 31
0.0
 11
185.0379865861722
 21
14.84965603302372
 31
0.0
 11
184.9497110789304
 21
14.63077616328678
 31
0.0
 11
184.8544106930046
 21
14.43598991333546
 31
0.0
 11
184.7550964303357
 21
14.27636017379201
 31
0.0
 11
184.7109198342406
 21
14.35822446196599
 31
0.0
 11
184.6588057383481
 21
14.43414885430811
 31
0.0
 11
184.7627302590299
 21
14.59640087926757
 31
0.0
 11
184.8629319864735
 21
14.7955146542178
 31
0.0
 11
184.9550446607902
 21
15.01890447916196
 31
0.0
 11
185.0347020220913
 21
15.2539846541032
 31
0.0
 11
185.0975378104881
 21
15.48816947904466
 31
0.0
 11
185.0693965972143
 21
15.48816947904466
 31
0.0
 11
184.9990435640298
 21
15.48816947904466
 31
0.0
 11
184.9075846208899
 21
15.48816947904466
 31
0.0
 11
184.81612567775
 21
15.48816947904466
 31
0.0
 11
184.7457726445655
 21
15.48816947904466
 31
0.0
 11
184.7176314312917
 21
15.48816947904466
 31
0.0
 11
184.7176314312917
 21
15.51452032539223
 31
0.0
 11
184.7176314312917
 21
15.57249218735689
 31
0.0
 11
184.7176314312917
 21
15.63046404932155
 31
0.0
 11
184.7176314312917
 21
15.65681489566912
 31
0.0
 11
184.739711025602
 21
15.65681489566912
 31
0.0
 11
184.7966531372445
 21
15.65681489566912
 31
0.0
 11
184.8745127592863
 21
15.65681489566912
 31
0.0
 11
184.9593448847945
 21
15.65681489566912
 31
0.0
 11
185.0372045068362
 21
15.65681489566912
 31
0.0
 11
185.0941466184786
 21
15.65681489566912
 31
0.0
 11
185.116226212789
 21
15.65681489566912
 31
0.0
 11
185.116226212789
 21
15.68210596174353
 31
0.0
 11
185.116226212789
 21
15.74878240866697
 31
0.0
 11
185.116226212789
 21
15.84304910948977
 31
0.0
 11
185.116226212789
 21
15.95111093726224
 31
0.0
 11
185.116226212789
 21
16.05917276503472
 31
0.0
 11
185.116226212789
 21
16.15343946585752
 31
0.0
 11
185.116226212789
 21
16.22011591278096
 31
0.0
 11
185.116226212789
 21
16.24540697885537
 31
0.0
 11
185.1393181988666
 21
16.24373213107801
 31
0.0
 11
185.1943837041285
 21
16.23973826330123
 31
0.0
 11
185.2601070491185
 21
16.23497138885797
 31
0.0
 11
185.3151725543804
 21
16.23097752108118
 31
0.0
 11
185.3382645404579
 21
16.22930267330382
 31
0.0
 11
185.3249012644362
 21
16.20789677921192
 31
0.0
 11
185.2874469028653
 21
16.19450114553469
 31
0.0
 11
185.2874469028653
 21
16.17139743948578
 31
0.0
 11
185.2874469028653
 21
16.11048766899319
 31
0.0
 11
185.2874469028653
 21
16.02437385553816
 31
0.0
 11
185.2874469028653
 21
15.9256580206019
 31
0.0
 11
185.2874469028653
 21
15.82694218566565
 31
0.0
 11
185.2874469028653
 21
15.74082837221061
 31
0.0
 11
185.2874469028653
 21
15.67991860171803
 31
0.0
 11
185.2874469028653
 21
15.65681489566912
 31
0.0
 11
185.3126150604809
 21
15.65681489566912
 31
0.0
 11
185.3755354545199
 21
15.65681489566912
 31
0.0
 11
185.4573319667706
 21
15.65681489566912
 31
0.0
 11
185.5391284790213
 21
15.65681489566912
 31
0.0
 11
185.6020488730603
 21
15.65681489566912
 31
0.0
 11
185.6272170306759
 21
15.65681489566912
 31
0.0
 11
185.6272170306759
 21
15.63046404932155
 31
0.0
 11
185.6272170306759
 21
15.57249218735689
 31
0.0
 11
185.6272170306759
 21
15.51452032539223
 31
0.0
 11
185.6272170306759
 21
15.48816947904466
 31
0.0
 11
185.6020488730603
 21
15.48816947904466
 31
0.0
 11
185.5391284790213
 21
15.48816947904466
 31
0.0
 11
185.4573319667706
 21
15.48816947904466
 31
0.0
 11
185.3755354545199
 21
15.48816947904466
 31
0.0
 11
185.3126150604809
 21
15.48816947904466
 31
0.0
 11
185.2874469028653
 21
15.48816947904466
 31
0.0
 11
185.2874469028653
 21
15.46536458293924
 31
0.0
 11
185.2874469028653
 21
15.41098367684171
 31
0.0
 11
185.2874469028653
 21
15.34607743408014
 31
0.0
 11
185.2874469028653
 21
15.29169652798262
 31
0.0
 11
185.2874469028653
 21
15.2688916318772
 31
0.0
  0
SPLINE
  5
AB
102
{ACAD_REACTORS
330
C8
102
}
330
48
100
AcDbEntity
  8
_U_30EC_U_30A4_U_30E4_U_30FC_1
  6
Continuous
 62
     2
100
AcDbSpline
210
0.0
220
0.0
230
1.0
 70
    11
 71
     3
 72
    91
 73
    87
 74
    85
 42
0.000000001
 43
0.0000000001
 44
0.00000001
 40
0.0
 40
0.0
 40
0.0
 40
0.0
 40
0.0345987051695434
 40
0.1258134969461085
 40
0.2547723404888703
 40
0.4026032099153841
 40
0.5504340793416704
 40
0.679392922883608
 40
0.770607714657132
 40
0.8052064287780925
 40
1.124852390615277
 40
1.42740223630887
 40
1.706356627453508
 40
1.955541417875183
 40
2.169485938566325
 40
2.344350786664791
 40
2.480568411561921
 40
2.590440557428916
 40
2.649189927151116
 40
2.749320643306309
 40
2.912632739879998
 40
3.1477456560002
 40
3.244827496385133
 40
3.338490056946777
 40
3.583815413207201
 40
3.761423943238567
 40
3.886956104362744
 40
3.98585545188695
 40
4.091766255337862
 40
4.250186473812027
 40
4.42273431508465
 40
4.628285684838727
 40
4.872093227758571
 40
5.152549652145682
 40
5.464967135837665
 40
5.803201477852593
 40
6.160362988814073
 40
6.193449448276128
 40
6.284170385501782
 40
6.419718138764623
 40
6.587285046385873
 40
6.774063446723788
 40
6.967245678113742
 40
7.154024078817756
 40
7.321590987026114
 40
7.457138740890444
 40
7.54785967855618
 40
7.58094613818274
 40
7.60853308471479
 40
7.669224367077757
 40
7.729915649429969
 40
7.757502595950016
 40
7.790278062553498
 40
7.880146277430968
 40
8.014419963180401
 40
8.18041184239793
 40
8.3654346376794
 40
8.556801071622672
 40
8.741823866830785
 40
8.907815745916352
 40
9.042089431507478
 40
9.131957646249603
 40
9.16473311279718
 40
9.415425063140114
 40
9.667986180958588
 40
9.694169807462755
 40
9.756607686047714
 40
9.83113031532252
 40
9.893568193899984
 40
9.919751820398801
 40
9.950967964690621
 40
9.996421631210785
 40
10.22087981037468
 40
10.44341866197557
 40
10.47847970788869
 40
10.5709133743877
 40
10.7015954546125
 40
10.85140174170378
 40
11.00120802880501
 40
11.13189010907406
 40
11.22432377583031
 40
11.2593848093898
 40
11.28697175596168
 40
11.34766303835941
 40
11.40835432042091
 40
11.43594125892125
 40
11.43594125892125
 40
11.43594125892125
 40
11.43594125892125
 10
190.081811433329
 20
15.55242795125078
 30
0.0
 10
190.0702785844942
 20
15.55242790287917
 30
0.0
 10
190.0283409444999
 20
15.55242773704165
 30
0.0
 10
189.9434129719027
 20
15.5524312580091
 30
0.0
 10
189.8207688553129
 20
15.55240926435879
 30
0.0
 10
189.6791206916994
 20
15.55250801177055
 30
0.0
 10
189.537975369849
 20
15.55214686232421
 30
0.0
 10
189.4141351317905
 20
15.5532188360909
 30
0.0
 10
189.3317217825382
 20
15.55092249091269
 30
0.0
 10
189.1727791229693
 20
15.5604856937342
 30
0.0
 10
189.3503402353376
 20
15.19785394311371
 30
0.0
 10
189.3379739205453
 20
14.95243127723116
 30
0.0
 10
189.4064519473865
 20
14.66862501324836
 30
0.0
 10
189.469302432097
 20
14.43250999939037
 30
0.0
 10
189.5452253431729
 20
14.23326740396129
 30
0.0
 10
189.6303189577016
 20
14.07745347451377
 30
0.0
 10
189.7244607592936
 20
13.97657857781393
 30
0.0
 10
189.8282648207727
 20
13.92465852638969
 30
0.0
 10
189.9125872030774
 20
13.97606484379616
 30
0.0
 10
189.9351322179452
 20
14.09144544037518
 30
0.0
 10
189.9745730975371
 20
14.21885149702382
 30
0.0
 10
189.9202919734942
 20
14.53622328086754
 30
0.0
 10
190.0451218072474
 20
14.38982180140905
 30
0.0
 10
190.2019291513604
 20
14.35795300331174
 30
0.0
 10
190.0947720007058
 20
14.12421357767627
 30
0.0
 10
190.0808711209868
 20
13.95972776583657
 30
0.0
 10
190.0234709467226
 20
13.83130869122481
 30
0.0
 10
189.9335020145008
 20
13.76018802352827
 30
0.0
 10
189.8095274657878
 20
13.74432324142253
 30
0.0
 10
189.663427319686
 20
13.77993797554172
 30
0.0
 10
189.5243894320284
 20
13.90000570500277
 30
0.0
 10
189.4102003962144
 20
14.07435682550321
 30
0.0
 10
189.3146141301487
 20
14.2994660311124
 30
0.0
 10
189.2318652572626
 20
14.56388246006442
 30
0.0
 10
189.1807179256412
 20
14.88187933098544
 30
0.0
 10
189.0770189207339
 20
15.15543728488912
 30
0.0
 10
189.2042841208519
 20
15.56005818612869
 30
0.0
 10
189.0357890623019
 20
15.55112367849679
 30
0.0
 10
188.9511995787077
 20
15.55315961418365
 30
0.0
 10
188.8189876387628
 20
15.55213937388407
 30
0.0
 10
188.6560505094104
 20
15.5525323031843
 30
0.0
 10
188.4733759170533
 20
15.5523569631337
 30
0.0
 10
188.2847057373383
 20
15.55260105307469
 30
0.0
 10
188.1014469020189
 20
15.55185657906237
 30
0.0
 10
187.9404746832719
 20
15.55416360522427
 30
0.0
 10
187.8029808335276
 20
15.54799804883663
 30
0.0
 10
187.7289590372311
 20
15.56032838458212
 30
0.0
 10
187.6613215186858
 20
15.54329323723557
 30
0.0
 10
187.673237371927
 20
15.59524438447528
 30
0.0
 10
187.6655677285694
 20
15.64071424966529
 30
0.0
 10
187.6732592225116
 20
15.68614453703704
 30
0.0
 10
187.6613141797762
 20
15.73802395984569
 30
0.0
 10
187.7283588305868
 20
15.72119143490262
 30
0.0
 10
187.8017375665677
 20
15.73335409092668
 30
0.0
 10
187.9379128305273
 20
15.72727231074956
 30
0.0
 10
188.0973811801513
 20
15.72954834315055
 30
0.0
 10
188.2789173085837
 20
15.7288123399896
 30
0.0
 10
188.465803486218
 20
15.72905954196131
 30
0.0
 10
188.6468012316836
 20
15.72886400799251
 30
0.0
 10
188.8080802578879
 20
15.72932234714837
 30
0.0
 10
188.9393882124888
 20
15.72812673751204
 30
0.0
 10
189.0225051322597
 20
15.73051347319741
 30
0.0
 10
189.1556236547816
 20
15.72230605725462
 30
0.0
 10
189.0645893502658
 20
15.97752868952654
 30
0.0
 10
188.978963307442
 20
16.24164358328247
 30
0.0
 10
189.0990589003454
 20
16.22904442969165
 30
0.0
 10
189.1514264948544
 20
16.22694235763075
 30
0.0
 10
189.2214497569715
 20
16.22535399889657
 30
0.0
 10
189.2671922337817
 20
16.21602567538113
 30
0.0
 10
189.3220812646933
 20
16.22545966915428
 30
0.0
 10
189.2963574785682
 20
16.17733028655169
 30
0.0
 10
189.1825397571452
 20
16.18266829744174
 30
0.0
 10
189.3159346621137
 20
15.95449174576774
 30
0.0
 10
189.1943658735471
 20
15.72156856595921
 30
0.0
 10
189.3223188769413
 20
15.73087258884437
 30
0.0
 10
189.4049048406461
 20
15.72801001754678
 30
0.0
 10
189.5307214850824
 20
15.729234374123
 30
0.0
 10
189.6741469838059
 20
15.72932431888963
 30
0.0
 10
189.8157420951728
 20
15.72746163183851
 30
0.0
 10
189.9459127249969
 20
15.73333075937161
 30
0.0
 10
190.0193452286191
 20
15.72070340823201
 30
0.0
 10
190.0891112922097
 20
15.73877563110411
 30
0.0
 10
190.0775772605397
 20
15.68612850546325
 30
0.0
 10
190.0833184346683
 20
15.64221317686548
 30
0.0
 10
190.081661577091
 20
15.59089982676548
 30
0.0
 10
190.0817757561671
 20
15.56158792021636
 30
0.0
 10
190.081811433329
 20
15.55242795125078
 30
0.0
 11
190.081811433329
 21
15.55242795125078
 31
0.0
 11
190.0472127192052
 21
15.55242795125078
 31
0.0
 11
189.9559979274242
 21
15.55242795125078
 31
0.0
 11
189.8270390838718
 21
15.55242795125078
 31
0.0
 11
189.6792082144337
 21
15.55242795125078
 31
0.0
 11
189.5313773449955
 21
15.55242795125078
 31
0.0
 11
189.4024185014431
 21
15.55242795125078
 31
0.0
 11
189.3112037096621
 21
15.55242795125078
 31
0.0
 11
189.2766049955383
 21
15.55242795125078
 31
0.0
 11
189.3083140497694
 21
15.23435864930122
 31
0.0
 11
189.3527866656866
 21
14.93509522788081
 31
0.0
 11
189.409238911832
 21
14.66191269512577
 31
0.0
 11
189.4768868567478
 21
14.42208605917228
 31
0.0
 11
189.5549465689762
 21
14.22289032815656
 31
0.0
 11
189.6426341170592
 21
14.07160051021479
 31
0.0
 11
189.7391655695389
 21
13.97549161348319
 31
0.0
 11
189.8437569949575
 21
13.94183864609794
 31
0.0
 11
189.8943077302786
 21
13.97177376978836
 31
0.0
 11
189.9310588991552
 21
14.06491619815048
 31
0.0
 11
189.9562640977528
 21
14.22627151712054
 31
0.0
 11
189.9721769222368
 21
14.46084531263482
 31
0.0
 11
190.0494082682584
 21
14.40202182306619
 31
0.0
 11
190.1327184184386
 21
14.3592188543269
 31
0.0
 11
190.1066365811218
 21
14.1152838866101
 31
0.0
 11
190.0673317805106
 21
13.94207902887562
 31
0.0
 11
190.0105702596765
 21
13.83011272445917
 31
0.0
 11
189.932118261691
 21
13.76989341669645
 31
0.0
 11
189.8277420296256
 21
13.75192954892317
 31
0.0
 11
189.6738595065097
 21
13.78957440012361
 31
0.0
 11
189.5388902376748
 21
13.89707348877403
 31
0.0
 11
189.4221739916163
 21
14.06627361744808
 31
0.0
 11
189.32305053683
 21
14.28902158871943
 31
0.0
 11
189.2408596418114
 21
14.55716420516172
 31
0.0
 11
189.174941075056
 21
14.8625482693486
 31
0.0
 11
189.1246346050593
 21
15.19702058385374
 31
0.0
 11
189.0892800003171
 21
15.55242795125078
 31
0.0
 11
189.0561935405844
 21
15.55242795125078
 31
0.0
 11
188.9654726026075
 21
15.55242795125078
 31
0.0
 11
188.8299248482185
 21
15.55242795125078
 31
0.0
 11
188.6623579392495
 21
15.55242795125078
 31
0.0
 11
188.4755795375324
 21
15.55242795125078
 31
0.0
 11
188.2823973048993
 21
15.55242795125078
 31
0.0
 11
188.0956189031822
 21
15.55242795125078
 31
0.0
 11
187.9280519942131
 21
15.55242795125078
 31
0.0
 11
187.7925042398242
 21
15.55242795125078
 31
0.0
 11
187.7017833018473
 21
15.55242795125078
 31
0.0
 11
187.6686968421146
 21
15.55242795125078
 31
0.0
 11
187.6686968421146
 21
15.58001489785847
 31
0.0
 11
187.6686968421146
 21
15.64070618039537
 31
0.0
 11
187.6686968421146
 21
15.70139746293228
 31
0.0
 11
187.6686968421146
 21
15.72898440953996
 31
0.0
 11
187.7014723087632
 21
15.72898440953996
 31
0.0
 11
187.7913405237674
 21
15.72898440953996
 31
0.0
 11
187.9256142097149
 21
15.72898440953996
 31
0.0
 11
188.0916060891933
 21
15.72898440953996
 31
0.0
 11
188.2766288847902
 21
15.72898440953996
 31
0.0
 11
188.4679953190933
 21
15.72898440953996
 31
0.0
 11
188.6530181146902
 21
15.72898440953996
 31
0.0
 11
188.8190099941686
 21
15.72898440953996
 31
0.0
 11
188.9532836801161
 21
15.72898440953996
 31
0.0
 11
189.0431518951203
 21
15.72898440953996
 31
0.0
 11
189.0759273617689
 21
15.72898440953996
 31
0.0
 11
189.0659183950103
 21
15.97947647544957
 31
0.0
 11
189.0599112510663
 21
16.23196614552531
 31
0.0
 11
189.0860575870659
 21
16.23056921608122
 31
0.0
 11
189.1484065421419
 21
16.22723807663761
 31
0.0
 11
189.2228230369099
 21
16.2232622005275
 31
0.0
 11
189.2851719919859
 21
16.21993106108389
 31
0.0
 11
189.3113183279855
 21
16.2185341316398
 31
0.0
 11
189.298293111304
 21
16.19016528616079
 31
0.0
 11
189.2551649266405
 21
16.17581274276164
 31
0.0
 11
189.2574991961821
 21
15.95136670115107
 31
0.0
 11
189.2658452735903
 21
15.72898440953996
 31
0.0
 11
189.3009063195165
 21
15.72898440953996
 31
0.0
 11
189.3933399860495
 21
15.72898440953996
 31
0.0
 11
189.5240220663201
 21
15.72898440953996
 31
0.0
 11
189.6738283534596
 21
15.72898440953996
 31
0.0
 11
189.8236346405992
 21
15.72898440953996
 31
0.0
 11
189.9543167208698
 21
15.72898440953996
 31
0.0
 11
190.0467503874027
 21
15.72898440953996
 31
0.0
 11
190.081811433329
 21
15.72898440953996
 31
0.0
 11
190.081811433329
 21
15.70139746293228
 31
0.0
 11
190.081811433329
 21
15.64070618039537
 31
0.0
 11
190.081811433329
 21
15.58001489785847
 31
0.0
 11
190.081811433329
 21
15.55242795125078
 31
0.0
  0
SPLINE
  5
AC
102
{ACAD_REACTORS
330
C9
102
}
330
48
100
AcDbEntity
  8
_U_30EC_U_30A4_U_30E4_U_30FC_1
  6
Continuous
 62
     2
100
AcDbSpline
210
0.0
220
0.0
230
1.0
 70
    11
 71
     3
 72
    75
 73
    71
 74
    69
 42
0.000000001
 43
0.0000000001
 44
0.00000001
 40
0.0
 40
0.0
 40
0.0
 40
0.0
 40
0.0342546099129691
 40
0.1245622414432346
 40
0.2522385480897536
 40
0.398599192294068
 40
0.5449598364980839
 40
0.6726361431438834
 40
0.7629437746736978
 40
0.797198393529799
 40
1.101723623449638
 40
1.408591244036586
 40
1.433332471690291
 40
1.487763172450088
 40
1.54219387308192
 40
1.566935100592469
 40
1.923523931821837
 40
2.271755704953637
 40
2.590579755100908
 40
2.858943305581195
 40
2.889120339309188
 40
2.918305855191169
 40
2.94136664553129
 40
2.996357760973179
 40
3.061992318140723
 40
3.116983433626918
 40
3.140044223997596
 40
3.41127312293657
 40
3.73244161974129
 40
3.761068217532988
 40
3.83778749963055
 40
3.948858699126187
 40
4.080541049104562
 40
4.219093782625945
 40
4.350776132722494
 40
4.461847332405828
 40
4.538566614678558
 40
4.567193212544804
 40
4.594907573999063
 40
4.66638145355763
 40
4.764111044011241
 40
4.870592538126044
 40
4.968322128642495
 40
5.039796008287208
 40
5.067510369784639
 40
5.094263603185853
 40
5.153120716668489
 40
5.211977830150936
 40
5.23873106355194
 40
5.272290535139208
 40
5.363380529445012
 40
5.497618415781718
 40
5.660621563453931
 40
5.838007341749632
 40
6.015393119911012
 40
6.178396267038609
 40
6.312634151842589
 40
6.403724143059579
 40
6.437283612672674
 40
6.46403684626129
 40
6.522893960004906
 40
6.581751071484174
 40
6.608504301591118
 40
6.637253941281266
 40
6.711397748903146
 40
6.81277805728373
 40
6.923237199249506
 40
7.024617507624122
 40
7.098761315207803
 40
7.127510946007753
 40
7.127510946007753
 40
7.127510946007753
 40
7.127510946007753
 10
188.4418622390565
 20
14.95849128473263
 30
0.0
 10
188.4418622819707
 20
14.94707313408719
 30
0.0
 10
188.441862448113
 20
14.90555257842628
 30
0.0
 10
188.4418593081787
 20
14.8214692200377
 30
0.0
 10
188.4418788279802
 20
14.70004497322327
 30
0.0
 10
188.4417912187738
 20
14.55980494047446
 30
0.0
 10
188.4421116235231
 20
14.42006556794575
 30
0.0
 10
188.4411605909741
 20
14.29745038894928
 30
0.0
 10
188.4431978595968
 20
14.21587074438041
 30
0.0
 10
188.4349433178745
 20
14.06271267077697
 30
0.0
 10
188.7430797940902
 20
14.2256023605472
 30
0.0
 10
189.0350645173735
 20
14.39482938688002
 30
0.0
 10
189.0408354448708
 20
14.25973235781911
 30
0.0
 10
189.0455471719891
 20
14.21617221160445
 30
0.0
 10
189.0482535411919
 20
14.17211249350546
 30
0.0
 10
189.0672545672961
 20
14.02272590363132
 30
0.0
 10
188.6583942247302
 20
14.08681172241262
 30
0.0
 10
188.3793710348833
 20
13.97296341411018
 30
0.0
 10
188.1018081587166
 20
13.87364095811134
 30
0.0
 10
187.8099837184401
 20
13.91630687596368
 30
0.0
 10
187.7869144678658
 20
13.81321679744536
 30
0.0
 10
187.7537474383333
 20
13.78691091244472
 30
0.0
 10
187.7480653962738
 20
13.83455309036304
 30
0.0
 10
187.7284214559045
 20
13.87180336115072
 30
0.0
 10
187.7095089485623
 20
13.93007387847565
 30
0.0
 10
187.6942849867707
 20
13.97385201007806
 30
0.0
 10
187.6477246372936
 20
14.08759421046314
 30
0.0
 10
187.989089731245
 20
14.05576301120046
 30
0.0
 10
188.267964936739
 20
14.02161435106478
 30
0.0
 10
188.2617753034907
 20
14.16913976479652
 30
0.0
 10
188.2630935452774
 20
14.24013150908832
 30
0.0
 10
188.262483168995
 20
14.34719767958662
 30
0.0
 10
188.2625871570725
 20
14.47398529785997
 30
0.0
 10
188.2629987964057
 20
14.6084924349605
 30
0.0
 10
188.261390784197
 20
14.73395549951183
 30
0.0
 10
188.2659902567927
 20
14.84505246719117
 30
0.0
 10
188.256418650221
 20
14.90761886800686
 30
0.0
 10
188.2704001783692
 20
14.96595388295001
 30
0.0
 10
188.2147384386705
 20
14.95289710582236
 30
0.0
 10
188.1575655197822
 20
14.96136307749497
 30
0.0
 10
188.0616048925648
 20
14.95729976080635
 30
0.0
 10
187.9633767522822
 20
14.95970889852474
 30
0.0
 10
187.867258245756
 20
14.95551600613386
 30
0.0
 10
187.8104648525812
 20
14.96429346441162
 30
0.0
 10
187.7550356873385
 20
14.95094936850121
 30
0.0
 10
187.7670679427918
 20
15.00036910959256
 30
0.0
 10
187.7592003173937
 20
15.04393988030395
 30
0.0
 10
187.766629556383
 20
15.08830469118524
 30
0.0
 10
187.7551930564144
 20
15.13902297763991
 30
0.0
 10
187.8232102370134
 20
15.12162460757742
 30
0.0
 10
187.8968496879747
 20
15.13417450237187
 30
0.0
 10
188.0325064058211
 20
15.12799677011096
 30
0.0
 10
188.1884909024526
 20
15.13029203093083
 30
0.0
 10
188.3615926358144
 20
15.12940968262529
 30
0.0
 10
188.5346942964182
 20
15.13029207142407
 30
0.0
 10
188.6906789811218
 20
15.12799662955549
 30
0.0
 10
188.8263351889797
 20
15.1341748626243
 30
0.0
 10
188.8999756705654
 20
15.12162394218334
 30
0.0
 10
188.9679914174724
 20
15.13902373012142
 30
0.0
 10
188.9565590885923
 20
15.08830130414554
 30
0.0
 10
188.9639539458297
 20
15.04397060811107
 30
0.0
 10
188.9562039912272
 20
15.00028307550195
 30
0.0
 10
188.9681203741877
 20
14.95063590098476
 30
0.0
 10
188.9108170223618
 20
14.96461411338425
 30
0.0
 10
188.8520145789773
 20
14.95539755673253
 30
0.0
 10
188.75252936332
 20
14.95952268164928
 30
0.0
 10
188.6494280098349
 20
14.95822760025886
 30
0.0
 10
188.5537846354575
 20
14.9585407707764
 30
0.0
 10
188.4857467971616
 20
14.95848776697144
 30
0.0
 10
188.4514462213444
 20
14.95849051871655
 30
0.0
 10
188.4418622390565
 20
14.95849128473263
 30
0.0
 11
188.4418622390565
 21
14.95849128473263
 31
0.0
 11
188.4418622390565
 21
14.92423666587184
 31
0.0
 11
188.4418622390565
 21
14.83392903432974
 31
0.0
 11
188.4418622390565
 21
14.70625272766678
 31
0.0
 11
188.4418622390565
 21
14.55989208344339
 31
0.0
 11
188.4418622390565
 21
14.41353143921999
 31
0.0
 11
188.4418622390565
 21
14.28585513255703
 31
0.0
 11
188.4418622390565
 21
14.19554750101493
 31
0.0
 11
188.4418622390565
 21
14.16129288215414
 31
0.0
 11
188.7391932644568
 21
14.22709475713769
 31
0.0
 11
189.0384623627245
 21
14.29496038212072
 31
0.0
 11
189.0405487124976
 21
14.27030727882828
 31
0.0
 11
189.0451386819987
 21
14.2160704515849
 31
0.0
 11
189.0497286514997
 21
14.16183362434152
 31
0.0
 11
189.0518150012729
 21
14.13718052104908
 31
0.0
 11
188.705639688924
 21
14.05163370140898
 31
0.0
 11
188.3669653138838
 21
13.97060877629901
 31
0.0
 11
188.0563731516688
 21
13.89862764024928
 31
0.0
 11
187.7944444777955
 21
13.8402121877899
 31
0.0
 11
187.7817515029292
 21
13.81283442738012
 31
0.0
 11
187.7569794787513
 21
13.79740260446737
 31
0.0
 11
187.7491867589501
 21
13.81910683390638
 31
0.0
 11
187.7306041194242
 21
13.87086307333787
 31
0.0
 11
187.70842483999
 21
13.93263664943353
 31
0.0
 11
187.689842200464
 21
13.98439288886502
 31
0.0
 11
187.6820494806628
 21
14.00609711830403
 31
0.0
 11
187.9482776335932
 21
14.05794001759666
 31
0.0
 11
188.262633493629
 21
14.1237396877191
 31
0.0
 11
188.262633493629
 21
14.15236628569624
 31
0.0
 11
188.262633493629
 21
14.22908556827499
 31
0.0
 11
188.262633493629
 21
14.34015676842631
 31
0.0
 11
188.262633493629
 21
14.47183911912117
 31
0.0
 11
188.262633493629
 21
14.61039185333055
 31
0.0
 11
188.262633493629
 21
14.74207420402542
 31
0.0
 11
188.262633493629
 21
14.85314540417674
 31
0.0
 11
188.262633493629
 21
14.92986468675549
 31
0.0
 11
188.262633493629
 21
14.95849128473263
 31
0.0
 11
188.2349191321109
 21
14.95849128473263
 31
0.0
 11
188.1634452524064
 21
14.95849128473263
 31
0.0
 11
188.0657156617901
 21
14.95849128473263
 31
0.0
 11
187.9592341675365
 21
14.95849128473263
 31
0.0
 11
187.8615045769201
 21
14.95849128473263
 31
0.0
 11
187.7900306972156
 21
14.95849128473263
 31
0.0
 11
187.7623163356976
 21
14.95849128473263
 31
0.0
 11
187.7623163356976
 21
14.98524451823288
 31
0.0
 11
187.7623163356976
 21
15.04410163193343
 31
0.0
 11
187.7623163356976
 21
15.10295874563398
 31
0.0
 11
187.7623163356976
 21
15.12971197913423
 31
0.0
 11
187.7958758072876
 21
15.12971197913423
 31
0.0
 11
187.8869658016031
 21
15.12971197913423
 31
0.0
 11
188.021203687963
 21
15.12971197913423
 31
0.0
 11
188.1842068356856
 21
15.12971197913423
 31
0.0
 11
188.3615926140897
 21
15.12971197913423
 31
0.0
 11
188.5389783924938
 21
15.12971197913423
 31
0.0
 11
188.7019815402165
 21
15.12971197913423
 31
0.0
 11
188.8362194265763
 21
15.12971197913423
 31
0.0
 11
188.9273094208919
 21
15.12971197913423
 31
0.0
 11
188.9608688924819
 21
15.12971197913423
 31
0.0
 11
188.9608688924819
 21
15.10295874563398
 31
0.0
 11
188.9608688924819
 21
15.04410163193343
 31
0.0
 11
188.9608688924819
 21
14.98524451823288
 31
0.0
 11
188.9608688924819
 21
14.95849128473263
 31
0.0
 11
188.9321192527878
 21
14.95849128473263
 31
0.0
 11
188.8579754451555
 21
14.95849128473263
 31
0.0
 11
188.7565951367605
 21
14.95849128473263
 31
0.0
 11
188.6461359947778
 21
14.95849128473263
 31
0.0
 11
188.5447556863828
 21
14.95849128473263
 31
0.0
 11
188.4706118787506
 21
14.95849128473263
 31
0.0
 11
188.4418622390565
 21
14.95849128473263
 31
0.0
  0
SPLINE
  5
AD
102
{ACAD_REACTORS
330
CA
102
}
330
48
100
AcDbEntity
  8
_U_30EC_U_30A4_U_30E4_U_30FC_1
  6
Continuous
 62
     2
100
AcDbSpline
210
0.0
220
0.0
230
1.0
 70
    11
 71
     3
 72
    15
 73
    11
 74
     9
 42
0.000000001
 43
0.0000000001
 44
0.00000001
 40
0.0
 40
0.0
 40
0.0
 40
0.0
 40
0.2785535985096844
 40
0.5215624748199034
 40
0.6076917376041083
 40
0.6938210001742013
 40
0.9405019146455473
 40
1.221691403489228
 40
1.300471877081169
 40
1.379252341684982
 40
1.379252341684982
 40
1.379252341684982
 40
1.379252341684982
 10
189.5681493631
 20
16.22930267330382
 30
0.0
 10
189.6296017794179
 20
16.17691646592717
 30
0.0
 10
189.7446649974114
 20
16.07882876798226
 30
0.0
 10
190.0397348497245
 20
15.92889785897217
 30
0.0
 10
189.9025147631857
 20
15.84343227515014
 30
0.0
 10
189.8041227843778
 20
15.71085785201555
 30
0.0
 10
189.7130033590651
 20
16.01616985781425
 30
0.0
 10
189.3636839480655
 20
16.07967869465375
 30
0.0
 10
189.511925837657
 20
16.17896509880879
 30
0.0
 10
189.5494081874237
 20
16.21252348402384
 30
0.0
 10
189.5681493631
 20
16.22930267330382
 30
0.0
 11
189.5681493631
 21
16.22930267330382
 31
0.0
 11
189.7919222440597
 21
16.06341774278973
 31
0.0
 11
189.9695046306384
 21
15.89753281227563
 31
0.0
 11
189.9066308127979
 21
15.83866743034591
 31
0.0
 11
189.8437569949575
 21
15.77980204841619
 31
0.0
 11
189.6688535117725
 21
15.95375677059491
 31
0.0
 11
189.447825685614
 21
16.12757920110703
 31
0.0
 11
189.507987524357
 21
16.17844093720542
 31
0.0
 11
189.5681493631
 21
16.22930267330382
 31
0.0
  0
SPLINE
  5
AE
102
{ACAD_REACTORS
330
CB
102
}
330
48
100
AcDbEntity
  8
_U_30EC_U_30A4_U_30E4_U_30FC_1
  6
Continuous
 62
     2
100
AcDbSpline
210
0.0
220
0.0
230
1.0
 70
    11
 71
     3
 72
    35
 73
    31
 74
    29
 42
0.000000001
 43
0.0000000001
 44
0.00000001
 40
0.0
 40
0.0
 40
0.0
 40
0.0
 40
0.0335231036620673
 40
0.0713218571712105
 40
0.427886668148671
 40
0.8116865841963743
 40
1.198190238000009
 40
1.561379546812685
 40
1.65998317462208
 40
1.759315573807254
 40
2.132719617231118
 40
2.525233363588845
 40
2.910815397779713
 40
3.265244364303341
 40
3.592606723582081
 40
3.964386154604006
 40
4.359942131737825
 40
4.758154118639285
 40
4.84384653869988
 40
4.936650065543272
 40
5.256616602537425
 40
5.581707404416136
 40
5.899719158308231
 40
6.198363494280818
 40
6.466301046615831
 40
6.493895311537153
 40
6.559697020196974
 40
6.638234543442578
 40
6.704036252154387
 40
6.731630508423192
 40
6.731630508423192
 40
6.731630508423192
 40
6.731630508423192
 10
191.973601056867
 20
16.23463843719135
 30
0.0
 10
191.967600609779
 20
16.22480690542324
 30
0.0
 10
191.9548344099157
 20
16.20388988579798
 30
0.0
 10
191.7949362006558
 20
16.17127126532689
 30
0.0
 10
192.2322025842336
 20
15.882066803367
 30
0.0
 10
192.4345394828263
 20
15.6804113835844
 30
0.0
 10
192.6819564267973
 20
15.43749387603274
 30
0.0
 10
193.1831513624608
 20
15.36047662757778
 30
0.0
 10
193.012556219897
 20
15.21876939174655
 30
0.0
 10
192.93832994632
 20
15.0171036620911
 30
0.0
 10
192.6131432248189
 20
15.36956287174724
 30
0.0
 10
192.3277741670664
 20
15.53175212559562
 30
0.0
 10
192.0337604077658
 20
15.7368713005305
 30
0.0
 10
191.8084452691134
 20
16.21827488595455
 30
0.0
 10
191.5993085055522
 20
15.75343046609225
 30
0.0
 10
191.3207873674834
 20
15.5435095225291
 30
0.0
 10
191.0371383177209
 20
15.37424456359989
 30
0.0
 10
190.7078639527832
 20
15.00142360907935
 30
0.0
 10
190.6277012318225
 20
15.19708014459006
 30
0.0
 10
190.4759724909743
 20
15.32491104190589
 30
0.0
 10
190.9083395826796
 20
15.40454031765936
 30
0.0
 10
191.0962565329766
 20
15.60026634915473
 30
0.0
 10
191.3468477420503
 20
15.81632996916755
 30
0.0
 10
191.5714350470162
 20
15.98190992300058
 30
0.0
 10
191.6259775409712
 20
16.26133964636828
 30
0.0
 10
191.7494661029011
 20
16.24737950408078
 30
0.0
 10
191.806027334452
 20
16.24521268867648
 30
0.0
 10
191.8761870984945
 20
16.2404685988136
 30
0.0
 10
191.9333414022106
 20
16.23709429350543
 30
0.0
 10
191.964419032084
 20
16.2351985471112
 30
0.0
 10
191.973601056867
 20
16.23463843719135
 30
0.0
 11
191.973601056867
 21
16.23463843719135
 31
0.0
 11
191.9525319069885
 21
16.20856374969786
 31
0.0
 11
191.9174464559426
 21
16.19450114553469
 31
0.0
 11
192.1512374769095
 21
15.92527961131382
 31
0.0
 11
192.4414585957567
 21
15.6741340796926
 31
0.0
 11
192.7612797483684
 21
15.45710987618784
 31
0.0
 11
193.083870870629
 21
15.29025232631638
 31
0.0
 11
193.0213299868077
 21
15.21402035584928
 31
0.0
 11
192.9688035818975
 21
15.12971197913423
 31
0.0
 11
192.6436279095814
 21
15.3132640483158
 31
0.0
 11
192.3237227768436
 21
15.54070139743428
 31
0.0
 11
192.0354200158608
 21
15.79673855123309
 31
0.0
 11
191.8050514588095
 21
16.06609003445566
 31
0.0
 11
191.5995531719516
 21
15.81126348721036
 31
0.0
 11
191.3288301341536
 21
15.55645182277756
 31
0.0
 11
191.0119538423247
 21
15.31969466354856
 31
0.0
 11
190.6679957933742
 21
15.11903163191467
 31
0.0
 11
190.6218855341339
 21
15.19126067703554
 31
0.0
 11
190.5636970460348
 21
15.26355586798967
 31
0.0
 11
190.8433040489016
 21
15.41911456961745
 31
0.0
 11
191.1093004621155
 21
15.60601009790405
 31
0.0
 11
191.3499997459747
 21
15.81384496285209
 31
0.0
 11
191.5537153607774
 21
16.03222167446416
 31
0.0
 11
191.7087607668218
 21
16.25074274274287
 31
0.0
 11
191.7363041569865
 21
16.24906789496551
 31
0.0
 11
191.8019845489177
 21
16.24507402718874
 31
0.0
 11
191.8803772747711
 21
16.24030715274548
 31
0.0
 11
191.9460576667023
 21
16.23631328496871
 31
0.0
 11
191.973601056867
 21
16.23463843719135
 31
0.0
  0
SPLINE
  5
AF
102
{ACAD_REACTORS
330
CC
102
}
330
48
100
AcDbEntity
  8
_U_30EC_U_30A4_U_30E4_U_30FC_1
  6
Continuous
 62
     2
100
AcDbSpline
210
0.0
220
0.0
230
1.0
 70
    11
 71
     3
 72
    91
 73
    87
 74
    85
 42
0.000000001
 43
0.0000000001
 44
0.00000001
 40
0.0
 40
0.0
 40
0.0
 40
0.0
 40
0.0267532254356719
 40
0.0856103386464209
 40
0.144467452199678
 40
0.1712206856618728
 40
0.2039416005642749
 40
0.2955601971652697
 40
0.4362601844617131
 40
0.6162252844507463
 40
0.8256392189705195
 40
1.054685709844432
 40
1.293548478893553
 40
1.532411247938296
 40
1.761457738799561
 40
1.970871673298529
 40
2.150836773256725
 40
2.291536760495586
 40
2.383155356836665
 40
2.415876284101313
 40
2.442629517487959
 40
2.501486630949098
 40
2.560343744424254
 40
2.587096977826529
 40
2.617068194440956
 40
2.699247336756097
 40
2.822032643466382
 40
2.973822353257911
 40
3.143014704823353
 40
3.318007936879904
 40
3.487200288186766
 40
3.638989997548246
 40
3.761775303794745
 40
3.84395444575308
 40
3.873925662229776
 40
3.890812773500482
 40
3.907699884771632
 40
3.937960767857261
 40
3.980983618142348
 40
4.199085915228469
 40
4.439444339237263
 40
4.677588241260939
 40
5.050698317837882
 40
5.448212454763239
 40
5.855291218044736
 40
6.138575438885392
 40
6.417434507584179
 40
6.444551104393838
 40
6.504207617363117
 40
6.563864130314443
 40
6.590980727104013
 40
6.848609460381423
 40
7.109611990668385
 40
7.352910904446031
 40
7.557830220705399
 40
7.587518925913316
 40
7.652834077375734
 40
7.718149228845669
 40
7.747837934061971
 40
7.854880190300891
 40
7.976511257403415
 40
8.369487896592245
 40
8.757514959223595
 40
9.126072419331058
 40
9.460639380392063
 40
9.746695593035748
 40
9.777569943118543
 40
9.80705032093172
 40
9.830377336128855
 40
9.886003295435934
 40
9.95239556942985
 40
10.00802152870621
 40
10.03134854388213
 40
10.21356951009589
 40
10.42203479292866
 40
10.66154556731061
 40
10.91693789564301
 40
11.15832906556559
 40
11.18982674596614
 40
11.27286608520401
 40
11.3902665303334
 40
11.52484752840876
 40
11.65942852648432
 40
11.77682897161471
 40
11.85986831085665
 40
11.8913659823041
 40
11.8913659823041
 40
11.8913659823041
 40
11.8913659823041
 10
190.7027885008197
 20
14.70699600701771
 30
0.0
 10
190.7028237765289
 20
14.71587847311984
 30
0.0
 10
190.7029366710796
 20
14.74430237047346
 30
0.0
 10
190.701298456849
 20
14.79409639169803
 30
0.0
 10
190.7069750292911
 20
14.83657564478154
 30
0.0
 10
190.6956928731707
 20
14.88730154856848
 30
0.0
 10
190.7632296979033
 20
14.8701290074011
 30
0.0
 10
190.8388029210701
 20
14.88290227165997
 30
0.0
 10
190.9828357056002
 20
14.87629729457383
 30
0.0
 10
191.1569419185427
 20
14.87888462206467
 30
0.0
 10
191.3639599611005
 20
14.87800591955554
 30
0.0
 10
191.5894688172378
 20
14.87828207920028
 30
0.0
 10
191.8251162293406
 20
14.87818339658664
 30
0.0
 10
192.0607640531349
 20
14.87828184412768
 30
0.0
 10
192.2862717580627
 20
14.8780067819079
 30
0.0
 10
192.4932934632806
 20
14.87888186270736
 30
0.0
 10
192.6673888915289
 20
14.87630522678447
 30
0.0
 10
192.8114492071986
 20
14.88288290449215
 30
0.0
 10
192.8869691915293
 20
14.87016243405605
 30
0.0
 10
192.9545776037031
 20
14.88726400191688
 30
0.0
 10
192.9430840140676
 20
14.83674785802941
 30
0.0
 10
192.9505104581734
 20
14.79253252226501
 30
0.0
 10
192.9428838927986
 20
14.7486796650361
 30
0.0
 10
192.9546489459426
 20
14.69878374479326
 30
0.0
 10
192.8930788491983
 20
14.71393227712511
 30
0.0
 10
192.8256791738673
 20
14.70310665350672
 30
0.0
 10
192.7013004056222
 20
14.70852031626235
 30
0.0
 10
192.5554428236572
 20
14.70649205390784
 30
0.0
 10
192.3893576440086
 20
14.70715777578385
 30
0.0
 10
192.2188412621725
 20
14.70689643521241
 30
0.0
 10
192.051979085539
 20
14.70721553391093
 30
0.0
 10
191.9087346827106
 20
14.70635302590761
 30
0.0
 10
191.7773313869835
 20
14.70863300482987
 30
0.0
 10
191.7239859134657
 20
14.70407704374201
 30
0.0
 10
191.6485188456913
 20
14.70999914992876
 30
0.0
 10
191.6769075779233
 20
14.70094169343353
 30
0.0
 10
191.7033652409543
 20
14.69725912268928
 30
0.0
 10
191.6633522907702
 20
14.66654271968273
 30
0.0
 10
191.5713663691868
 20
14.67667591174639
 30
0.0
 10
191.543939620707
 20
14.43032502247783
 30
0.0
 10
191.4478793967235
 20
14.27499558764374
 30
0.0
 10
191.1917277964473
 20
13.94525417931567
 30
0.0
 10
191.7627537732762
 20
14.0843002221045
 30
0.0
 10
192.0173656320517
 20
14.08291779973363
 30
0.0
 10
192.6279647048617
 20
13.99790569242084
 30
0.0
 10
192.3340698578083
 20
14.29685417558205
 30
0.0
 10
192.013330428652
 20
14.44330856901775
 30
0.0
 10
192.1313543360434
 20
14.50025540818287
 30
0.0
 10
192.1724716466261
 20
14.52420099873349
 30
0.0
 10
192.2156812394412
 20
14.5459975881123
 30
0.0
 10
192.317457409445
 20
14.60928721253909
 30
0.0
 10
192.4328867625248
 20
14.35147151408779
 30
0.0
 10
192.6329591642277
 20
14.21616041113683
 30
0.0
 10
192.7269077387229
 20
14.03792795138881
 30
0.0
 10
192.9558829746391
 20
13.87997821027047
 30
0.0
 10
192.8596031846708
 20
13.82915972576301
 30
0.0
 10
192.8167959763779
 20
13.79881292523054
 30
0.0
 10
192.7718243528779
 20
13.7746613028146
 30
0.0
 10
192.7121720925214
 20
13.72552146747569
 30
0.0
 10
192.6789731061325
 20
13.8599747567361
 30
0.0
 10
192.5582013350797
 20
14.01594265286582
 30
0.0
 10
192.1970976005979
 20
13.88569928059555
 30
0.0
 10
191.8385061955541
 20
13.90224694409483
 30
0.0
 10
191.4570920450079
 20
13.89331229351864
 30
0.0
 10
191.1703455282891
 20
13.8288267167241
 30
0.0
 10
190.8592055599717
 20
13.94230668192822
 30
0.0
 10
190.8268737818789
 20
13.83122259927765
 30
0.0
 10
190.7896178253317
 20
13.81196313850011
 30
0.0
 10
190.7865737632754
 20
13.85874784087296
 30
0.0
 10
190.7679892860608
 20
13.89806853919136
 30
0.0
 10
190.7512436616778
 20
13.95765983478233
 30
0.0
 10
190.7383730915753
 20
14.00201969871285
 30
0.0
 10
190.7042327806429
 20
14.09106331120203
 30
0.0
 10
190.9482714457753
 20
14.0218104294377
 30
0.0
 10
191.1441394486672
 20
14.00030369057748
 30
0.0
 10
191.2395426381277
 20
14.28226484478462
 30
0.0
 10
191.2945135769598
 20
14.44363045421121
 30
0.0
 10
191.5159619357156
 20
14.71391177589736
 30
0.0
 10
191.3849239381216
 20
14.70548446853734
 30
0.0
 10
191.3110026555854
 20
14.70779008496969
 30
0.0
 10
191.1977459876244
 20
14.70671378321657
 30
0.0
 10
191.0694251807485
 20
14.70707639076508
 30
0.0
 10
190.9404252030416
 20
14.70697724466085
 30
0.0
 10
190.8287840946292
 20
14.70699932712571
 30
0.0
 10
190.7514663970027
 20
14.70699579189669
 30
0.0
 10
190.7132876532011
 20
14.7069959584508
 30
0.0
 10
190.7027885008197
 20
14.70699600701771
 30
0.0
 11
190.7027885008197
 21
14.70699600701771
 31
0.0
 11
190.7027885008197
 21
14.73374924051797
 31
0.0
 11
190.7027885008197
 21
14.79260635421853
 31
0.0
 11
190.7027885008197
 21
14.8514634679191
 31
0.0
 11
190.7027885008197
 21
14.87821670141936
 31
0.0
 11
190.735509428099
 21
14.87821670141936
 31
0.0
 11
190.827128024481
 21
14.87821670141936
 31
0.0
 11
190.967828011782
 21
14.87821670141936
 31
0.0
 11
191.1477931118181
 21
14.87821670141936
 31
0.0
 11
191.3572070464055
 21
14.87821670141936
 31
0.0
 11
191.5862535373605
 21
14.87821670141936
 31
0.0
 11
191.8251163064994
 21
14.87821670141936
 31
0.0
 11
192.0639790756382
 21
14.87821670141936
 31
0.0
 11
192.2930255665932
 21
14.87821670141936
 31
0.0
 11
192.5024395011806
 21
14.87821670141936
 31
0.0
 11
192.6824046012168
 21
14.87821670141936
 31
0.0
 11
192.8231045885177
 21
14.87821670141936
 31
0.0
 11
192.9147231848997
 21
14.87821670141936
 31
0.0
 11
192.947444112179
 21
14.87821670141936
 31
0.0
 11
192.947444112179
 21
14.8514634679191
 31
0.0
 11
192.947444112179
 21
14.79260635421853
 31
0.0
 11
192.947444112179
 21
14.73374924051797
 31
0.0
 11
192.947444112179
 21
14.70699600701771
 31
0.0
 11
192.9174728954758
 21
14.70699600701771
 31
0.0
 11
192.8352937529027
 21
14.70699600701771
 31
0.0
 11
192.7125084457641
 21
14.70699600701771
 31
0.0
 11
192.5607187353643
 21
14.70699600701771
 31
0.0
 11
192.3915263830079
 21
14.70699600701771
 31
0.0
 11
192.2165331499992
 21
14.70699600701771
 31
0.0
 11
192.0473407976427
 21
14.70699600701771
 31
0.0
 11
191.8955510872429
 21
14.70699600701771
 31
0.0
 11
191.7727657801043
 21
14.70699600701771
 31
0.0
 11
191.6905866375311
 21
14.70699600701771
 31
0.0
 11
191.660615420828
 21
14.70699600701771
 31
0.0
 11
191.6766359412526
 21
14.70165583340793
 31
0.0
 11
191.6926564616772
 21
14.69631565979815
 31
0.0
 11
191.6706155681421
 21
14.67558114591442
 31
0.0
 11
191.6284861855363
 21
14.6668587153611
 31
0.0
 11
191.5365235541378
 21
14.46909247312657
 31
0.0
 11
191.4279078521764
 21
14.25467511978508
 31
0.0
 11
191.3127500824807
 21
14.04622559051619
 31
0.0
 11
191.6857366675021
 21
14.05582441253028
 31
0.0
 11
192.083070003615
 21
14.06781232404994
 31
0.0
 11
192.4899342191145
 21
14.08102711828532
 31
0.0
 11
192.2983119496979
 21
14.28966761302481
 31
0.0
 11
192.0966752013699
 21
14.48229420151831
 31
0.0
 11
192.120494779475
 21
14.49525327269564
 31
0.0
 11
192.1728978513062
 21
14.52376322928576
 31
0.0
 11
192.2253009231374
 21
14.55227318587588
 31
0.0
 11
192.2491205012425
 21
14.56523225705321
 31
0.0
 11
192.4387101558627
 21
14.39079508370268
 31
0.0
 11
192.6200310940436
 21
14.20305846374091
 31
0.0
 11
192.7777729231147
 21
14.01782380992436
 31
0.0
 11
192.8966252504058
 21
13.85089253500949
 31
0.0
 11
192.8715408217923
 21
13.83501202286069
 31
0.0
 11
192.8163550788425
 21
13.80007489613332
 31
0.0
 11
192.7611693358928
 21
13.76513776940596
 31
0.0
 11
192.7360849072793
 21
13.74925725725716
 31
0.0
 11
192.6775518151613
 21
13.83887824681809
 31
0.0
 11
192.6050015078458
 21
13.93650288221032
 31
0.0
 11
192.2125412924095
 21
13.91636286943759
 31
0.0
 11
191.824947406956
 21
13.89803302999773
 31
0.0
 11
191.4567378976213
 21
13.88202178722395
 31
0.0
 11
191.1224308105413
 21
13.86883756444947
 31
0.0
 11
190.8365441918519
 21
13.8589887850075
 31
0.0
 11
190.8211862321741
 21
13.83220523466695
 31
0.0
 11
190.7937434290546
 21
13.82143559057245
 31
0.0
 11
190.7867927192319
 21
13.84370299445577
 31
0.0
 11
190.7702179496548
 21
13.89680218833139
 31
0.0
 11
190.7504351601596
 21
13.96017864553777
 31
0.0
 11
190.7338603905825
 21
14.01327783941339
 31
0.0
 11
190.7269096807598
 21
14.03554524329671
 31
0.0
 11
190.9091199859153
 21
14.03751638912953
 31
0.0
 11
191.1174975848588
 21
14.04356211829473
 31
0.0
 11
191.2303203127216
 21
14.25483550301554
 31
0.0
 11
191.3407936722035
 21
14.48509813155879
 31
0.0
 11
191.4358254265627
 21
14.70699600701771
 31
0.0
 11
191.4043277461597
 21
14.70699600701771
 31
0.0
 11
191.3212884069153
 21
14.70699600701771
 31
0.0
 11
191.2038879617768
 21
14.70699600701771
 31
0.0
 11
191.0693069636912
 21
14.70699600701771
 31
0.0
 11
190.9347259656056
 21
14.70699600701771
 31
0.0
 11
190.817325520467
 21
14.70699600701771
 31
0.0
 11
190.7342861812227
 21
14.70699600701771
 31
0.0
 11
190.7027885008197
 21
14.70699600701771
 31
0.0
  0
SPLINE
  5
B0
102
{ACAD_REACTORS
330
CD
102
}
330
48
100
AcDbEntity
  8
_U_30EC_U_30A4_U_30E4_U_30FC_1
  6
Continuous
 62
     2
100
AcDbSpline
210
0.0
220
0.0
230
1.0
 70
    11
 71
     3
 72
   131
 73
   127
 74
   125
 42
0.000000001
 43
0.0000000001
 44
0.00000001
 40
0.0
 40
0.0
 40
0.0
 40
0.0
 40
0.019557702982617
 40
0.042649053746157
 40
0.2863607575856099
 40
0.5344948436188882
 40
0.7842238845572582
 40
0.8737315789466309
 40
0.9803832810311593
 40
1.092842274516908
 40
1.199761146656668
 40
1.289788768186394
 40
1.351573580786128
 40
1.370727117561372
 40
1.416400936017804
 40
1.470914848355948
 40
1.516588666791772
 40
1.535742203552854
 40
1.634216592293159
 40
1.760283341174952
 40
1.897966686682084
 40
2.031216387368934
 40
2.049689751137928
 40
2.101115601646863
 40
2.179502577739982
 40
2.278859318314096
 40
2.393194462258754
 40
2.516516648383867
 40
2.642834515405994
 40
2.766156701983498
 40
2.880491846754613
 40
2.979848588358653
 40
3.058235565443831
 40
3.109661416668985
 40
3.128134780704161
 40
3.146783742386477
 40
3.19125434331531
 40
3.244332157315912
 40
3.288802758225787
 40
3.307451719895058
 40
3.32771785384467
 40
3.38374775358003
 40
3.468388665924421
 40
3.574487837698726
 40
3.69489251572883
 40
3.822449946851967
 40
3.950007377920354
 40
4.070412055800446
 40
4.176511227367998
 40
4.261152139501444
 40
4.317182039076638
 40
4.337448172964557
 40
4.620011002696187
 40
4.885096638397412
 40
4.945373043518236
 40
5.014107710488588
 40
5.07048172765192
 40
5.319246955636398
 40
5.584812164505848
 40
5.859000912056701
 40
6.133746937541882
 40
6.401732212968715
 40
6.420736683995334
 40
6.472845717450928
 40
6.550702743893912
 40
6.646951193874121
 40
6.754234497930445
 40
6.865196086587251
 40
6.97247939035771
 40
7.0687278397719
 40
7.146584865450909
 40
7.198693898189139
 40
7.217698368905279
 40
7.234950401630759
 40
7.276089864269811
 40
7.32519180351593
 40
7.366331266090325
 40
7.383583298769678
 40
7.402779163492084
 40
7.453386443254487
 40
7.524934666445517
 40
7.606953361405856
 40
7.688972056429036
 40
7.760520279784287
 40
7.811127559734557
 40
7.830323424546179
 40
7.847844055299807
 40
7.894799345666846
 40
7.962779392744532
 40
8.043374293560575
 40
8.128174145149478
 40
8.208769044817279
 40
8.27674909037698
 40
8.323704379669538
 40
8.341225010056268
 40
8.358497614800445
 40
8.40167912668665
 40
8.45781509218568
 40
8.513951057728141
 40
8.557132569708068
 40
8.574405174505111
 40
8.602340668616494
 40
8.643455660540118
 40
8.663225271966786
 40
8.71534515656443
 40
8.789031889628765
 40
8.873502045520489
 40
8.957972194324107
 40
9.031658925567998
 40
9.083778811234682
 40
9.103548423003145
 40
9.119550083123682
 40
9.160817522379984
 40
9.21724442911035
 40
9.278724491644835
 40
9.33515139829562
 40
9.376418837357916
 40
9.392420497300703
 40
9.40119630273492
 40
9.417494229384394
 40
9.426270027749664
 40
9.440875075477697
 40
9.475702496998876
 40
9.517270709866038
 40
9.552098131994205
 40
9.566703169884413
 40
9.566703169884413
 40
9.566703169884413
 40
9.566703169884413
 10
194.6170254148479
 20
15.67015871511028
 30
0.0
 10
194.6134345093371
 20
15.6645369070216
 30
0.0
 10
194.6056039123625
 20
15.65227754419113
 30
0.0
 10
194.5129968974548
 20
15.61601916040966
 30
0.0
 10
194.4887622233247
 20
15.40148444212712
 30
0.0
 10
194.3858709845939
 20
15.2219728450971
 30
0.0
 10
194.1220492364306
 20
15.03615573798149
 30
0.0
 10
194.2845471569181
 20
14.95959336566081
 30
0.0
 10
194.3607225760838
 20
14.89856693195441
 30
0.0
 10
194.4492171072758
 20
14.8351580454476
 30
0.0
 10
194.5389930233111
 20
14.7752563421956
 30
0.0
 10
194.5883817636047
 20
14.72102154849207
 30
0.0
 10
194.6745708157382
 20
14.69286240541834
 30
0.0
 10
194.641126067423
 20
14.65713309652813
 30
0.0
 10
194.6214671166311
 20
14.62550387991907
 30
0.0
 10
194.5919888217882
 20
14.58475872796067
 30
0.0
 10
194.5688989446031
 20
14.55504663489645
 30
0.0
 10
194.5380205968356
 20
14.50211422668495
 30
0.0
 10
194.4729193365741
 20
14.62740334938901
 30
0.0
 10
194.3796000122416
 20
14.68213900233937
 30
0.0
 10
194.2950636285139
 20
14.73916423939339
 30
0.0
 10
194.1722498125742
 20
14.89675287427525
 30
0.0
 10
194.1764450847301
 20
14.82035806766837
 30
0.0
 10
194.1751478652677
 20
14.77361280161297
 30
0.0
 10
194.1758126448076
 20
14.69584785812602
 30
0.0
 10
194.1755549986956
 20
14.59902068324424
 30
0.0
 10
194.1756431239921
 20
14.4865027907881
 30
0.0
 10
194.1756077302282
 20
14.36524085945701
 30
0.0
 10
194.1756511758278
 20
14.24086897858962
 30
0.0
 10
194.1755199942405
 20
14.11967683631337
 30
0.0
 10
194.1759477562047
 20
14.00691148919744
 30
0.0
 10
194.174667820231
 20
13.91082913768745
 30
0.0
 10
194.1779759851044
 20
13.83113826468701
 30
0.0
 10
194.1715197740086
 20
13.78815175788785
 30
0.0
 10
194.1806208705556
 20
13.74955432372043
 30
0.0
 10
194.1447910339935
 20
13.75810887724071
 30
0.0
 10
194.1115223815253
 20
13.75342519985448
 30
0.0
 10
194.0604562576041
 20
13.75351298759785
 30
0.0
 10
194.0269723972814
 20
13.75794430283822
 30
0.0
 10
193.9907585408754
 20
13.7496079384251
 30
0.0
 10
194.0009782568666
 20
13.79145277179285
 30
0.0
 10
193.9936487887774
 20
13.83778560820175
 30
0.0
 10
193.9973633136103
 20
13.92374831106015
 30
0.0
 10
193.9959480554897
 20
14.0260514270485
 30
0.0
 10
193.9964105554639
 20
14.14453223931512
 30
0.0
 10
193.9962773686231
 20
14.26957683153357
 30
0.0
 10
193.9963015910045
 20
14.3947582810705
 30
0.0
 10
193.9963354925551
 20
14.51286645379058
 30
0.0
 10
193.9962060293133
 20
14.61628748709516
 30
0.0
 10
193.9965507549082
 20
14.69932036153667
 30
0.0
 10
193.9958698278691
 20
14.75143368521243
 30
0.0
 10
193.9994586600623
 20
14.87912907821362
 30
0.0
 10
193.7826171386437
 20
14.58048716819626
 30
0.0
 10
193.6021354921952
 20
14.35263981511514
 30
0.0
 10
193.5490322295612
 20
14.49373443289817
 30
0.0
 10
193.5200429133149
 20
14.54325767560938
 30
0.0
 10
193.4196648062823
 20
14.64641779790112
 30
0.0
 10
193.7405127723261
 20
14.72695035023775
 30
0.0
 10
193.868989700543
 20
14.91066283036435
 30
0.0
 10
194.0906454325359
 20
15.11931995771761
 30
0.0
 10
194.1770224894069
 20
15.29339211228344
 30
0.0
 10
194.4549394229076
 20
15.56967051342513
 30
0.0
 10
194.3346247839285
 20
15.56534559551113
 30
0.0
 10
194.286319735135
 20
15.56614856202552
 30
0.0
 10
194.2102377454905
 20
15.56574582146582
 30
0.0
 10
194.1167010009751
 20
15.56590275611608
 30
0.0
 10
194.0117594788557
 20
15.56582502576223
 30
0.0
 10
193.9033887738718
 20
15.56595464378553
 30
0.0
 10
193.7981454235897
 20
15.56554393490691
 30
0.0
 10
193.7056237819413
 20
15.5668207367159
 30
0.0
 10
193.6268130800707
 20
15.56340766534849
 30
0.0
 10
193.5839674565378
 20
15.57023350036319
 30
0.0
 10
193.5449499586516
 20
15.56065064201122
 30
0.0
 10
193.5526365271863
 20
15.59420779565542
 30
0.0
 10
193.5485464404312
 20
15.62523550322233
 30
0.0
 10
193.5485531368814
 20
15.67236529270901
 30
0.0
 10
193.5526239724912
 20
15.7034094164678
 30
0.0
 10
193.5449495574582
 20
15.73701861635904
 30
0.0
 10
193.5834819405495
 20
15.72748410420874
 30
0.0
 10
193.6241228014479
 20
15.73397435498073
 30
0.0
 10
193.6951471850463
 20
15.73100150650256
 30
0.0
 10
193.7729318149634
 20
15.7317476139916
 30
0.0
 10
193.8507292246474
 20
15.73247814044527
 30
0.0
 10
193.9217232089908
 20
15.72954235514162
 30
0.0
 10
193.9624279791821
 20
15.73595468772955
 30
0.0
 10
194.000985348991
 20
15.72650524176006
 30
0.0
 10
193.9927342754929
 20
15.76264692158786
 30
0.0
 10
193.9982346669359
 20
15.80129837613229
 30
0.0
 10
193.9955754206164
 20
15.86913528561841
 30
0.0
 10
193.9965815471534
 20
15.94591641538741
 30
0.0
 10
193.996017801832
 20
16.02849393582757
 30
0.0
 10
193.9970714526593
 20
16.10517329229879
 30
0.0
 10
193.9942675863131
 20
16.173319907767
 30
0.0
 10
194.0000702721304
 20
16.21132399809347
 30
0.0
 10
193.991565455116
 20
16.24758448077647
 30
0.0
 10
194.0255610233125
 20
16.23755723771852
 30
0.0
 10
194.05945756831
 20
16.24073266813706
 30
0.0
 10
194.1126669060347
 20
16.23508965640609
 30
0.0
 10
194.1660768574484
 20
16.23434774436426
 30
0.0
 10
194.1995914649492
 20
16.22819223482981
 30
0.0
 10
194.238808618304
 20
16.23346029773594
 30
0.0
 10
194.2120263698492
 20
16.19253380793487
 30
0.0
 10
194.1708111001724
 20
16.20371204538114
 30
0.0
 10
194.1782641540874
 20
16.15867056192124
 30
0.0
 10
194.1742227952183
 20
16.11412278028144
 30
0.0
 10
194.1761714049641
 20
16.04223572621703
 30
0.0
 10
194.1752364849758
 20
15.96168630588772
 30
0.0
 10
194.176510719003
 20
15.88173995404996
 30
0.0
 10
194.1732043793864
 20
15.80841837083184
 30
0.0
 10
194.1802106179961
 20
15.7668864300257
 30
0.0
 10
194.1701440380126
 20
15.72752418568115
 30
0.0
 10
194.2029814803921
 20
15.73468063430983
 30
0.0
 10
194.236457729648
 20
15.73027243137946
 30
0.0
 10
194.2915053476019
 20
15.73217943347899
 30
0.0
 10
194.3489502595314
 20
15.7318536640729
 30
0.0
 10
194.4023026248309
 20
15.73106308733083
 30
0.0
 10
194.4398540896639
 20
15.73313959118076
 30
0.0
 10
194.4623172523237
 20
15.73022338167111
 30
0.0
 10
194.4751678073731
 20
15.73572552644057
 30
0.0
 10
194.485825568589
 20
15.73801118197791
 30
0.0
 10
194.4986635650143
 20
15.74494972588052
 30
0.0
 10
194.5145991033071
 20
15.72853046313672
 30
0.0
 10
194.5410623920891
 20
15.71709122319449
 30
0.0
 10
194.5726805253757
 20
15.6964468783519
 30
0.0
 10
194.5987255892151
 20
15.68116869628295
 30
0.0
 10
194.6128517723973
 20
15.67266976323184
 30
0.0
 10
194.6170254148479
 20
15.67015871511028
 30
0.0
 11
194.6170254148479
 21
15.67015871511028
 31
0.0
 11
194.6049990002243
 21
15.65473571164188
 31
0.0
 11
194.5848961795565
 21
15.64337406233916
 31
0.0
 11
194.4778986355814
 21
15.42440620231159
 31
0.0
 11
194.3477039934325
 21
15.21317201512161
 31
0.0
 11
194.1996540366072
 21
15.0120605902748
 31
0.0
 11
194.2734958253735
 21
14.9614738493538
 31
0.0
 11
194.36056643118
 21
14.89988411653739
 31
0.0
 11
194.4518003750405
 21
14.83413160594426
 31
0.0
 11
194.5381321779688
 21
14.77105653169304
 31
0.0
 11
194.6104963609788
 21
14.71749910790242
 31
0.0
 11
194.6598274450844
 21
14.68029954869105
 31
0.0
 11
194.6486940702214
 21
14.66471410869495
 31
0.0
 11
194.6221452532403
 21
14.62754882870424
 31
0.0
 11
194.5904579555533
 21
14.58319026871533
 31
0.0
 11
194.5639091385723
 21
14.54602498872462
 31
0.0
 11
194.5527757637093
 21
14.53043954872852
 31
0.0
 11
194.4807013362948
 21
14.59754008690617
 31
0.0
 11
194.3852856985382
 21
14.67993354174669
 31
0.0
 11
194.279326415217
 21
14.76785017366916
 31
0.0
 11
194.175621051109
 21
14.85152024309268
 31
0.0
 11
194.175621051109
 21
14.83304687900864
 31
0.0
 11
194.175621051109
 21
14.78162102763956
 31
0.0
 11
194.175621051109
 21
14.70323405031
 31
0.0
 11
194.175621051109
 21
14.6038773083445
 31
0.0
 11
194.175621051109
 21
14.48954216306761
 31
0.0
 11
194.175621051109
 21
14.3662199758039
 31
0.0
 11
194.175621051109
 21
14.23990210787791
 31
0.0
 11
194.175621051109
 21
14.1165799206142
 31
0.0
 11
194.175621051109
 21
14.00224477533731
 31
0.0
 11
194.175621051109
 21
13.90288803337181
 31
0.0
 11
194.175621051109
 21
13.82450105604224
 31
0.0
 11
194.175621051109
 21
13.77307520467317
 31
0.0
 11
194.175621051109
 21
13.75460184058913
 31
0.0
 11
194.1569720893626
 21
13.75460184058913
 31
0.0
 11
194.112501488275
 21
13.75460184058913
 31
0.0
 11
194.0594236740737
 21
13.75460184058913
 31
0.0
 11
194.014953072986
 21
13.75460184058913
 31
0.0
 11
193.9963041112396
 21
13.75460184058913
 31
0.0
 11
193.9963041112396
 21
13.7748679746022
 31
0.0
 11
193.9963041112396
 21
13.83089787452067
 31
0.0
 11
193.9963041112396
 21
13.91553878716348
 31
0.0
 11
193.9963041112396
 21
14.02163795934954
 31
0.0
 11
193.9963041112396
 21
14.14204263789776
 31
0.0
 11
193.9963041112396
 21
14.26960006962706
 31
0.0
 11
193.9963041112396
 21
14.39715750135636
 31
0.0
 11
193.9963041112396
 21
14.51756217990458
 31
0.0
 11
193.9963041112396
 21
14.62366135209064
 31
0.0
 11
193.9963041112396
 21
14.70830226473344
 31
0.0
 11
193.9963041112396
 21
14.76433216465193
 31
0.0
 11
193.9963041112396
 21
14.78459829866499
 31
0.0
 11
193.7883272849482
 21
14.59331998274057
 31
0.0
 11
193.5763486358426
 21
14.43414885430811
 31
0.0
 11
193.5495629014484
 21
14.48814671952096
 31
0.0
 11
193.5138765415024
 21
14.54689140572026
 31
0.0
 11
193.4799697494125
 21
14.59192871537975
 31
0.0
 11
193.6830287742319
 21
14.73563387201052
 31
0.0
 11
193.881853195826
 21
14.91168423529987
 31
0.0
 11
194.0677041444178
 21
15.11327514524949
 31
0.0
 11
194.2318427502303
 21
15.33360194186108
 31
0.0
 11
194.3655301434865
 21
15.56585996513634
 31
0.0
 11
194.3465256724482
 21
15.56585996513634
 31
0.0
 11
194.2944166389563
 21
15.56585996513634
 31
0.0
 11
194.2165596124448
 21
15.56585996513634
 31
0.0
 11
194.1203111623479
 21
15.56585996513634
 31
0.0
 11
194.0130278580997
 21
15.56585996513634
 31
0.0
 11
193.9020662691345
 21
15.56585996513634
 31
0.0
 11
193.7947829648864
 21
15.56585996513634
 31
0.0
 11
193.6985345147895
 21
15.56585996513634
 31
0.0
 11
193.620677488278
 21
15.56585996513634
 31
0.0
 11
193.568568454786
 21
15.56585996513634
 31
0.0
 11
193.5495639837478
 21
15.56585996513634
 31
0.0
 11
193.5495639837478
 21
15.58311199790981
 31
0.0
 11
193.5495639837478
 21
15.62425146067731
 31
0.0
 11
193.5495639837478
 21
15.6733534001095
 31
0.0
 11
193.5495639837478
 21
15.714492862877
 31
0.0
 11
193.5495639837478
 21
15.73174489565047
 31
0.0
 11
193.568759848601
 21
15.73174489565047
 31
0.0
 11
193.6193671286684
 21
15.73174489565047
 31
0.0
 11
193.690915352212
 21
15.73174489565047
 31
0.0
 11
193.7729340474937
 21
15.73174489565047
 31
0.0
 11
193.8549527427754
 21
15.73174489565047
 31
0.0
 11
193.926500966319
 21
15.73174489565047
 31
0.0
 11
193.9771082463865
 21
15.73174489565047
 31
0.0
 11
193.9963041112396
 21
15.73174489565047
 31
0.0
 11
193.9963041112396
 21
15.7492655265522
 31
0.0
 11
193.9963041112396
 21
15.79622081736883
 31
0.0
 11
193.9963041112396
 21
15.86420086526755
 31
0.0
 11
193.9963041112396
 21
15.9447957674155
 31
0.0
 11
193.9963041112396
 21
16.02959562097987
 31
0.0
 11
193.9963041112396
 21
16.11019052312783
 31
0.0
 11
193.9963041112396
 21
16.17817057102654
 31
0.0
 11
193.9963041112396
 21
16.22512586184317
 31
0.0
 11
193.9963041112396
 21
16.2426464927449
 31
0.0
 11
194.0135484112112
 21
16.24165806167519
 31
0.0
 11
194.0566591611402
 21
16.23918698400092
 31
0.0
 11
194.1127031360478
 21
16.23597458302436
 31
0.0
 11
194.1687471109555
 21
16.2327621820478
 31
0.0
 11
194.2118578608844
 21
16.23029110437353
 31
0.0
 11
194.229102160856
 21
16.22930267330382
 31
0.0
 11
194.2143774674852
 21
16.20556293372641
 31
0.0
 11
194.175621051109
 21
16.19183767331312
 31
0.0
 11
194.175621051109
 21
16.17206806177293
 31
0.0
 11
194.175621051109
 21
16.11994817680333
 31
0.0
 11
194.175621051109
 21
16.04626144288079
 31
0.0
 11
194.175621051109
 21
15.96179128448179
 31
0.0
 11
194.175621051109
 21
15.87732112608279
 31
0.0
 11
194.175621051109
 21
15.80363439216026
 31
0.0
 11
194.175621051109
 21
15.75151450719066
 31
0.0
 11
194.175621051109
 21
15.73174489565047
 31
0.0
 11
194.1916227112935
 21
15.73174489565047
 31
0.0
 11
194.232890150717
 21
15.73174489565047
 31
0.0
 11
194.2893170576837
 21
15.73174489565047
 31
0.0
 11
194.3507971204981
 21
15.73174489565047
 31
0.0
 11
194.4072240274648
 21
15.73174489565047
 31
0.0
 11
194.4484914668882
 21
15.73174489565047
 31
0.0
 11
194.4644931270728
 21
15.73174489565047
 31
0.0
 11
194.4728206422924
 21
15.73451387455922
 31
0.0
 11
194.4882860277004
 21
15.73965626396119
 31
0.0
 11
194.49661354292
 21
15.74242524286994
 31
0.0
 11
194.5091363776005
 21
15.73490952398294
 31
0.0
 11
194.5389985218386
 21
15.71698742509854
 31
0.0
 11
194.5746404359293
 21
15.69559653288168
 31
0.0
 11
194.6045025801674
 21
15.67767443399729
 31
0.0
 11
194.6170254148479
 21
15.67015871511028
 31
0.0
  0
SPLINE
  5
B1
102
{ACAD_REACTORS
330
CE
102
}
330
48
100
AcDbEntity
  8
_U_30EC_U_30A4_U_30E4_U_30FC_1
  6
Continuous
 62
     2
100
AcDbSpline
210
0.0
220
0.0
230
1.0
 70
    11
 71
     3
 72
   124
 73
   120
 74
   118
 42
0.000000001
 43
0.0000000001
 44
0.00000001
 40
0.0
 40
0.0
 40
0.0
 40
0.0
 40
0.0278187229624226
 40
0.1011590162383985
 40
0.2048470170590239
 40
0.3237088716558961
 40
0.4425707262522
 40
0.5462587270699263
 40
0.6195990203312082
 40
0.647417752257866
 40
0.6750060736115224
 40
0.7357003855242759
 40
0.7963946998054492
 40
0.8239830245571784
 40
0.8540933811103162
 40
0.9373396629409274
 40
1.063094687343237
 40
1.220731268638075
 40
1.399622220914749
 40
1.589140358637762
 40
1.778658496423843
 40
1.957549448940539
 40
2.115186030873132
 40
2.240941056914465
 40
2.324187341760534
 40
2.354297700109384
 40
2.38188602467189
 40
2.442580338710479
 40
2.503274652750503
 40
2.53086297731461
 40
2.560983949278563
 40
2.640393784452908
 40
2.752662861759132
 40
2.88136156011812
 40
3.010060258455167
 40
3.122329335705371
 40
3.201739170817928
 40
3.231860142753317
 40
3.264298024030372
 40
3.352343701778243
 40
3.482095226868764
 40
3.639650650173022
 40
3.811108022565477
 40
3.982565394927982
 40
4.140120818152561
 40
4.269872343141269
 40
4.357918020802329
 40
4.390355902043958
 40
4.423256253992528
 40
4.50810453007302
 40
4.624121560636788
 40
4.750528176031517
 40
4.866545206601992
 40
4.951393482691949
 40
4.98429383464535
 40
5.011450833242267
 40
5.071196230152057
 40
5.130941627057136
 40
5.158098625648804
 40
5.190998977601466
 40
5.275847253689292
 40
5.391864284256754
 40
5.518270899648271
 40
5.634287930209282
 40
5.719136206287955
 40
5.752036558235871
 40
5.782130946282897
 40
5.86278390622907
 40
5.979550131774936
 40
6.11798431664034
 40
6.263641154587883
 40
6.402075339414087
 40
6.51884156490788
 40
6.599494524815461
 40
6.629588912848699
 40
6.654403028226275
 40
6.713575149488042
 40
6.784199939329388
 40
6.84337206049349
 40
6.868186175802707
 40
6.89624624320182
 40
6.939586233758158
 40
6.967846564564786
 40
7.043584251089724
 40
7.153234334451586
 40
7.283231855734339
 40
7.420011856035373
 40
7.550009376579725
 40
7.659659458835124
 40
7.735397144417121
 40
7.763657474851293
 40
7.79640972801095
 40
7.880876065096224
 40
7.99637085246561
 40
8.122208446418504
 40
8.237703224799098
 40
8.32216956201082
 40
8.354921815205806
 40
8.382078813307588
 40
8.441824209206898
 40
8.501569605240052
 40
8.528726603485632
 40
8.561478856695652
 40
8.645945193877703
 40
8.761439980865243
 40
8.887277580764385
 40
9.002772362000906
 40
9.087238696661098
 40
9.11999094923558
 40
9.152428830613278
 40
9.240474508638494
 40
9.370226034149441
 40
9.527781457984323
 40
9.699238830981312
 40
9.8706962039785
 40
10.02825162781392
 40
10.15800315332553
 40
10.24604883135108
 40
10.27848670378511
 40
10.27848670378511
 40
10.27848670378511
 40
10.27848670378511
 10
195.3821827564384
 20
14.01410517385757
 30
0.0
 10
195.3914554737524
 20
14.01410498511274
 30
0.0
 10
195.4251744536861
 20
14.01410430876714
 30
0.0
 10
195.4934706812466
 20
14.01411807243305
 30
0.0
 10
195.592014171158
 20
14.01403224219544
 30
0.0
 10
195.7062066464812
 20
14.0144175561225
 30
0.0
 10
195.8185894417072
 20
14.01300835897545
 30
0.0
 10
195.9214376600118
 20
14.01719117422243
 30
0.0
 10
195.980683987485
 20
14.00823089251983
 30
0.0
 10
196.0371265937034
 20
14.0216443452606
 30
0.0
 10
196.0246255586956
 20
13.97087198613361
 30
0.0
 10
196.0329549635704
 20
13.92589320939067
 30
0.0
 10
196.0248170841121
 20
13.88056752990488
 30
0.0
 10
196.0370529214458
 20
13.82931932408465
 30
0.0
 10
195.9747773490334
 20
13.84447955365276
 30
0.0
 10
195.9060513026869
 20
13.83359750710742
 30
0.0
 10
195.7782756749592
 20
13.83911304747972
 30
0.0
 10
195.6262984511644
 20
13.83700851253698
 30
0.0
 10
195.4502695972523
 20
13.83771002588473
 30
0.0
 10
195.2644431934288
 20
13.83745237531292
 30
0.0
 10
195.0786167437176
 20
13.83771005144602
 30
0.0
 10
194.9025880142169
 20
13.83700841847731
 30
0.0
 10
194.7506104154195
 20
13.83911332229988
 30
0.0
 10
194.6228357664555
 20
13.8335968076764
 30
0.0
 10
194.5541077836581
 20
13.84448077125942
 30
0.0
 10
194.4918349042884
 20
13.82931786684209
 30
0.0
 10
194.5040616290018
 20
13.88057510805171
 30
0.0
 10
194.4960004462598
 20
13.92582473272425
 30
0.0
 10
194.5040675809893
 20
13.97106357955323
 30
0.0
 10
194.4918238487084
 20
14.02234176909958
 30
0.0
 10
194.5525017120699
 20
14.00749577363134
 30
0.0
 10
194.6162810745737
 20
14.01756448170735
 30
0.0
 10
194.7277314353503
 20
14.01294644211999
 30
0.0
 10
194.8497533443824
 20
14.01413328905469
 30
0.0
 10
194.9719538137824
 20
14.01515863900635
 30
0.0
 10
195.0829794287392
 20
14.01092475623402
 30
0.0
 10
195.1476517413959
 20
14.02018584521739
 30
0.0
 10
195.2091162810502
 20
14.00604423049682
 30
0.0
 10
195.1930065601338
 20
14.07235527884516
 30
0.0
 10
195.2042980327359
 20
14.14447790121976
 30
0.0
 10
195.1987400822561
 20
14.27513760888285
 30
0.0
 10
195.2008035061691
 20
14.42607323708241
 30
0.0
 10
195.2000167127295
 20
14.59335873107885
 30
0.0
 10
195.2007845215629
 20
14.76061110332302
 30
0.0
 10
195.1988038785628
 20
14.91163289269912
 30
0.0
 10
195.2041306156621
 20
15.04206069552994
 30
0.0
 10
195.1933101388426
 20
15.11465442605898
 30
0.0
 10
195.2090326429876
 20
15.18150469436797
 30
0.0
 10
195.1432708132492
 20
15.16580512490823
 30
0.0
 10
195.0756367830764
 20
15.17609243083994
 30
0.0
 10
194.9615885293811
 20
15.1711378684712
 30
0.0
 10
194.8451242674903
 20
15.17414128030474
 30
0.0
 10
194.7306554121478
 20
15.16880303143388
 30
0.0
 10
194.6640324657814
 20
15.18001268074824
 30
0.0
 10
194.5990769715186
 20
15.1634913266501
 30
0.0
 10
194.610798975871
 20
15.21473720477058
 30
0.0
 10
194.6032830189122
 20
15.25950333784091
 30
0.0
 10
194.6107989878836
 20
15.30426944897961
 30
0.0
 10
194.5990769505348
 20
15.3555153612974
 30
0.0
 10
194.6640326339201
 20
15.33899381766816
 30
0.0
 10
194.7306533339821
 20
15.35020571373943
 30
0.0
 10
194.8451352858065
 20
15.34485436710665
 30
0.0
 10
194.9615454436963
 20
15.34791188771117
 30
0.0
 10
195.0757660174641
 20
15.34278499010708
 30
0.0
 10
195.1430150439228
 20
15.35345733355599
 30
0.0
 10
195.2083325941439
 20
15.33742082669076
 30
0.0
 10
195.1941391448553
 20
15.39949685750053
 30
0.0
 10
195.2036059462996
 20
15.46586761628762
 30
0.0
 10
195.1990269004085
 20
15.58239972741966
 30
0.0
 10
195.2007696555948
 20
15.71426685022375
 30
0.0
 10
195.1997551495393
 20
15.85615960150273
 30
0.0
 10
195.2017191344373
 20
15.98769050702579
 30
0.0
 10
195.1964668553852
 20
16.10524577283001
 30
0.0
 10
195.2073408763474
 20
16.16947789001583
 30
0.0
 10
195.1919536641855
 20
16.23108802545046
 30
0.0
 10
195.2407591537801
 20
16.2170240738211
 30
0.0
 10
195.2853995564727
 20
16.21954742075314
 30
0.0
 10
195.3538643946744
 20
16.21512797401709
 30
0.0
 10
195.3959106169103
 20
16.20613025544036
 30
0.0
 10
195.4487544758776
 20
16.21411714866509
 30
0.0
 10
195.4207035002013
 20
16.17113917611677
 30
0.0
 10
195.3749142248595
 20
16.18259552043835
 30
0.0
 10
195.3869539073265
 20
16.12173520005139
 30
0.0
 10
195.3796086070643
 20
16.05769299468773
 30
0.0
 10
195.3831195826162
 20
15.94909368863912
 30
0.0
 10
195.3819806760175
 20
15.82494319144753
 30
0.0
 10
195.3819174780263
 20
15.69189719829878
 30
0.0
 10
195.3832872966869
 20
15.56797381249556
 30
0.0
 10
195.3791638801314
 20
15.45868337849338
 30
0.0
 10
195.3877763103564
 20
15.39608580094169
 30
0.0
 10
195.3746757454403
 20
15.33740133296365
 30
0.0
 10
195.4393884328198
 20
15.35362113810902
 30
0.0
 10
195.5060405953157
 20
15.34270260383311
 30
0.0
 10
195.6198779541103
 20
15.34793740173756
 30
0.0
 10
195.7357259122098
 20
15.34485547516913
 30
0.0
 10
195.8496924263281
 20
15.35018259812512
 30
0.0
 10
195.91603410181
 20
15.33904208166543
 30
0.0
 10
195.980718852548
 20
15.35546979593177
 30
0.0
 10
195.9689820772724
 20
15.30425925210051
 30
0.0
 10
195.9765168063041
 20
15.25950334121
 30
0.0
 10
195.9689820992259
 20
15.21474739010027
 30
0.0
 10
195.9807188140738
 20
15.1635369087104
 30
0.0
 10
195.9160344075253
 20
15.17996427794218
 30
0.0
 10
195.8496886430826
 20
15.16882784447269
 30
0.0
 10
195.7357459487013
 20
15.17413115893119
 30
0.0
 10
195.6197995623055
 20
15.17114764593543
 30
0.0
 10
195.5062756882124
 20
15.17606892268392
 30
0.0
 10
195.4389231318805
 20
15.16585087513518
 30
0.0
 10
195.3734285122496
 20
15.18145996138815
 30
0.0
 10
195.3891713619218
 20
15.1146385182741
 30
0.0
 10
195.3783275998215
 20
15.04207057815878
 30
0.0
 10
195.3836581629792
 20
14.91162247614416
 30
0.0
 10
195.3817136151856
 20
14.76064558185225
 30
0.0
 10
195.3823133683215
 20
14.59322243934158
 30
0.0
 10
195.3821506559605
 20
14.42656176118371
 30
0.0
 10
195.3821895488136
 20
14.27360142921636
 30
0.0
 10
195.38218164131
 20
14.14849178985705
 30
0.0
 10
195.3821828382745
 20
14.06507890991419
 30
0.0
 10
195.3821827716209
 20
14.02491778281976
 30
0.0
 10
195.3821827564384
 20
14.01410517385757
 30
0.0
 11
195.3821827564384
 21
14.01410517385757
 31
0.0
 11
195.4100014883675
 21
14.01410517385757
 31
0.0
 11
195.4833417816353
 21
14.01410517385757
 31
0.0
 11
195.5870297824623
 21
14.01410517385757
 31
0.0
 11
195.7058916370687
 21
14.01410517385757
 31
0.0
 11
195.8247534916752
 21
14.01410517385757
 31
0.0
 11
195.9284414925021
 21
14.01410517385757
 31
0.0
 11
196.0017817857699
 21
14.01410517385757
 31
0.0
 11
196.0296005176991
 21
14.01410517385757
 31
0.0
 11
196.0296005176991
 21
13.9865168492117
 31
0.0
 11
196.0296005176991
 21
13.92582253499077
 31
0.0
 11
196.0296005176991
 21
13.86512822076984
 31
0.0
 11
196.0296005176991
 21
13.83753989612397
 31
0.0
 11
195.9994901593494
 21
13.83753989612397
 31
0.0
 11
195.9162438745005
 21
13.83753989612397
 31
0.0
 11
195.7904888484522
 21
13.83753989612397
 31
0.0
 11
195.6328522665042
 21
13.83753989612397
 31
0.0
 11
195.4539613139565
 21
13.83753989612397
 31
0.0
 11
195.2644431761089
 21
13.83753989612397
 31
0.0
 11
195.0749250382614
 21
13.83753989612397
 31
0.0
 11
194.8960340857137
 21
13.83753989612397
 31
0.0
 11
194.7383975037657
 21
13.83753989612397
 31
0.0
 11
194.6126424777173
 21
13.83753989612397
 31
0.0
 11
194.5293961928684
 21
13.83753989612397
 31
0.0
 11
194.4992858345188
 21
13.83753989612397
 31
0.0
 11
194.4992858345188
 21
13.86512822076984
 31
0.0
 11
194.4992858345188
 21
13.92582253499077
 31
0.0
 11
194.4992858345188
 21
13.9865168492117
 31
0.0
 11
194.4992858345188
 21
14.01410517385757
 31
0.0
 11
194.5294068064948
 21
14.01410517385757
 31
0.0
 11
194.6088166417041
 21
14.01410517385757
 31
0.0
 11
194.7210857190691
 21
14.01410517385757
 31
0.0
 11
194.8497844175118
 21
14.01410517385757
 31
0.0
 11
194.9784831159546
 21
14.01410517385757
 31
0.0
 11
195.0907521933196
 21
14.01410517385757
 31
0.0
 11
195.1701620285289
 21
14.01410517385757
 31
0.0
 11
195.2002830005049
 21
14.01410517385757
 31
0.0
 11
195.2002830005049
 21
14.04654305523835
 31
0.0
 11
195.2002830005049
 21
14.1345887332719
 31
0.0
 11
195.2002830005049
 21
14.26434025879502
 31
0.0
 11
195.2002830005049
 21
14.42189568264453
 31
0.0
 11
195.2002830005049
 21
14.59335305565723
 31
0.0
 11
195.2002830005049
 21
14.76481042866993
 31
0.0
 11
195.2002830005049
 21
14.92236585251944
 31
0.0
 11
195.2002830005049
 21
15.05211737804256
 31
0.0
 11
195.2002830005049
 21
15.14016305607611
 31
0.0
 11
195.2002830005049
 21
15.17260093745689
 31
0.0
 11
195.1673826485529
 21
15.17260093745689
 31
0.0
 11
195.0825343724663
 21
15.17260093745689
 31
0.0
 11
194.9665173418989
 21
15.17260093745689
 31
0.0
 11
194.8401107265045
 21
15.17260093745689
 31
0.0
 11
194.7240936959371
 21
15.17260093745689
 31
0.0
 11
194.6392454198505
 21
15.17260093745689
 31
0.0
 11
194.6063450678985
 21
15.17260093745689
 31
0.0
 11
194.6063450678985
 21
15.19975793614802
 31
0.0
 11
194.6063450678985
 21
15.2595033332685
 31
0.0
 11
194.6063450678985
 21
15.31924873038897
 31
0.0
 11
194.6063450678985
 21
15.3464057290801
 31
0.0
 11
194.6392454198505
 21
15.3464057290801
 31
0.0
 11
194.7240936959371
 21
15.3464057290801
 31
0.0
 11
194.8401107265045
 21
15.3464057290801
 31
0.0
 11
194.9665173418989
 21
15.3464057290801
 31
0.0
 11
195.0825343724663
 21
15.3464057290801
 31
0.0
 11
195.1673826485529
 21
15.3464057290801
 31
0.0
 11
195.2002830005049
 21
15.3464057290801
 31
0.0
 11
195.2002830005049
 21
15.3765001173137
 31
0.0
 11
195.2002830005049
 21
15.45715307777973
 31
0.0
 11
195.2002830005049
 21
15.57391930412609
 31
0.0
 11
195.2002830005049
 21
15.71235349000063
 31
0.0
 11
195.2002830005049
 21
15.85801032905123
 31
0.0
 11
195.2002830005049
 21
15.99644451492577
 31
0.0
 11
195.2002830005049
 21
16.11321074127213
 31
0.0
 11
195.2002830005049
 21
16.19386370173816
 31
0.0
 11
195.2002830005049
 21
16.22395808997176
 31
0.0
 11
195.2250405288619
 21
16.22228324219441
 31
0.0
 11
195.284077711867
 21
16.21828937441764
 31
0.0
 11
195.3545414464215
 21
16.21352249997441
 31
0.0
 11
195.4135786294266
 21
16.20952863219764
 31
0.0
 11
195.4383361577836
 21
16.20785378442029
 31
0.0
 11
195.4233067224031
 21
16.18415814206509
 31
0.0
 11
195.3821827564384
 21
16.17047697887405
 31
0.0
 11
195.3821827564384
 21
16.14221664794833
 31
0.0
 11
195.3821827564384
 21
16.06647896106741
 31
0.0
 11
195.3821827564384
 21
15.95682887707562
 31
0.0
 11
195.3821827564384
 21
15.82683135481731
 31
0.0
 11
195.3821827564384
 21
15.69005135313683
 31
0.0
 11
195.3821827564384
 21
15.56005383087853
 31
0.0
 11
195.3821827564384
 21
15.45040374688675
 31
0.0
 11
195.3821827564384
 21
15.37466606000582
 31
0.0
 11
195.3821827564384
 21
15.3464057290801
 31
0.0
 11
195.4149350096116
 21
15.3464057290801
 31
0.0
 11
195.4994013467423
 21
15.3464057290801
 31
0.0
 11
195.6148961342477
 21
15.3464057290801
 31
0.0
 11
195.7407337385446
 21
15.3464057290801
 31
0.0
 11
195.8562285260499
 21
15.3464057290801
 31
0.0
 11
195.9406948631807
 21
15.3464057290801
 31
0.0
 11
195.9734471163539
 21
15.3464057290801
 31
0.0
 11
195.9734471163539
 21
15.31924873038897
 31
0.0
 11
195.9734471163539
 21
15.2595033332685
 31
0.0
 11
195.9734471163539
 21
15.19975793614802
 31
0.0
 11
195.9734471163539
 21
15.17260093745689
 31
0.0
 11
195.9406948631807
 21
15.17260093745689
 31
0.0
 11
195.85622852605
 21
15.17260093745689
 31
0.0
 11
195.7407337385446
 21
15.17260093745689
 31
0.0
 11
195.6148961342477
 21
15.17260093745689
 31
0.0
 11
195.4994013467423
 21
15.17260093745689
 31
0.0
 11
195.4149350096116
 21
15.17260093745689
 31
0.0
 11
195.3821827564384
 21
15.17260093745689
 31
0.0
 11
195.3821827564384
 21
15.14016305607611
 31
0.0
 11
195.3821827564384
 21
15.05211737804256
 31
0.0
 11
195.3821827564384
 21
14.92236585251944
 31
0.0
 11
195.3821827564384
 21
14.76481042866993
 31
0.0
 11
195.3821827564384
 21
14.59335305565723
 31
0.0
 11
195.3821827564384
 21
14.42189568264453
 31
0.0
 11
195.3821827564384
 21
14.26434025879503
 31
0.0
 11
195.3821827564384
 21
14.1345887332719
 31
0.0
 11
195.3821827564384
 21
14.04654305523835
 31
0.0
 11
195.3821827564384
 21
14.01410517385757
 31
0.0
  0
SPLINE
  5
B2
102
{ACAD_REACTORS
330
CF
102
}
330
48
100
AcDbEntity
  8
_U_30EC_U_30A4_U_30E4_U_30FC_1
  6
Continuous
 62
     2
100
AcDbSpline
210
0.0
220
0.0
230
1.0
 70
     8
 71
     3
 72
    62
 73
    58
 74
    56
 42
0.000000001
 43
0.0000000001
 44
0.00000001
 40
0.0
 40
0.0
 40
0.0
 40
0.0
 40
0.0598250028308485
 40
0.2024846486897331
 40
0.3727558389221031
 40
0.515415484793607
 40
0.5752404975785339
 40
0.9332326775487367
 40
1.290451762839499
 40
1.602077253145916
 40
1.699931634112196
 40
1.799359756425152
 40
2.270120149657151
 40
2.804661928461653
 40
2.882342287383367
 40
3.07654318571922
 40
3.329004354835688
 40
3.581465524568521
 40
3.775666424543807
 40
3.853346784558428
 40
3.899120679595174
 40
3.984129341792058
 40
4.029903236817407
 40
4.105797496059563
 40
4.295533144152524
 40
4.542189486611769
 40
4.788845828875719
 40
4.978581476410107
 40
5.05447573524435
 40
5.621734664339384
 40
6.130867242037394
 40
6.225249780948659
 40
6.318913039727384
 40
6.663579954559053
 40
7.047498900224868
 40
7.435230791575796
 40
7.498943906668208
 40
7.650875181210145
 40
7.832212509001627
 40
7.984143783697013
 40
8.04785689890314
 40
8.091554632732645
 40
8.172707566964304
 40
8.216405300768026
 40
8.28902178216091
 40
8.462184160757255
 40
8.668861838005421
 40
8.842024215263985
 40
8.91464069547518
 40
8.98988158086139
 40
9.155411528827303
 40
9.320941477744093
 40
9.39618235248735
 40
9.454709011143839
 40
9.583467660170859
 40
9.712226309013081
 40
9.770752957989563
 40
9.770752957989563
 40
9.770752957989563
 40
9.770752957989563
 10
187.1521871691833
 20
14.93980288195949
 30
0.0
 10
187.1322348171623
 20
14.93980875568671
 30
0.0
 10
187.0647037716466
 20
14.93982863806156
 30
0.0
 10
186.9410612161788
 20
14.93949362520325
 30
0.0
 10
186.7863180150056
 20
14.9410767375051
 30
0.0
 10
186.669734948248
 20
14.93686078860495
 30
0.0
 10
186.455094263424
 20
14.95215205331624
 30
0.0
 10
186.8518948407229
 20
14.59198721286192
 30
0.0
 10
186.8945656069268
 20
14.37510503397166
 30
0.0
 10
187.3189162146612
 20
14.19325062511446
 30
0.0
 10
187.1439821496075
 20
14.08985196568072
 30
0.0
 10
187.0194523925082
 20
13.87831523212728
 30
0.0
 10
186.7666277235945
 20
14.34806081001566
 30
0.0
 10
186.4797602893626
 20
14.99511516984523
 30
0.0
 10
186.490633592666
 20
14.68782672154695
 30
0.0
 10
186.488289277796
 20
14.52288616971778
 30
0.0
 10
186.4861096126411
 20
14.28879670711693
 30
0.0
 10
186.4980774396346
 20
14.04498072421783
 30
0.0
 10
186.4687984740631
 20
13.89855796860984
 30
0.0
 10
186.511452262547
 20
13.75113490174537
 30
0.0
 10
186.423981400564
 20
13.76685797306218
 30
0.0
 10
186.3768527606745
 20
13.76694303543452
 30
0.0
 10
186.2898973207714
 20
13.75109425482908
 30
0.0
 10
186.3313474021724
 20
13.89527771422761
 30
0.0
 10
186.3029875004286
 20
14.03855052698455
 30
0.0
 10
186.31459737753
 20
14.27674947365264
 30
0.0
 10
186.3124175648273
 20
14.50517235240346
 30
0.0
 10
186.3103111127995
 20
14.66705729375995
 30
0.0
 10
186.3208035438324
 20
14.98153709333752
 30
0.0
 10
186.0128963252893
 20
14.29229470872436
 30
0.0
 10
185.7055258267458
 20
13.81476750243054
 30
0.0
 10
185.5851367066275
 20
14.03741112637428
 30
0.0
 10
185.4074607910721
 20
14.15011034955561
 30
0.0
 10
185.8853326362895
 20
14.32548143465458
 30
0.0
 10
185.9353959057207
 20
14.56091929252033
 30
0.0
 10
186.3583799621717
 20
14.95322989344606
 30
0.0
 10
186.127675427354
 20
14.93655307029065
 30
0.0
 10
186.0049685859341
 20
14.94269518948769
 30
0.0
 10
185.8325483095662
 20
14.93312822699573
 30
0.0
 10
185.721322469445
 20
14.95448818489665
 30
0.0
 10
185.6025779627448
 20
14.92136265357419
 30
0.0
 10
185.6183169706687
 20
15.00203900606883
 30
0.0
 10
185.6178550933762
 20
15.04645414290853
 30
0.0
 10
185.6027881889932
 20
15.12967081778532
 30
0.0
 10
185.7372380935444
 20
15.09062651983881
 30
0.0
 10
185.8619755545747
 20
15.11739729328421
 30
0.0
 10
186.0628755237281
 20
15.10063949044051
 30
0.0
 10
186.1921540949354
 20
15.12204225913003
 30
0.0
 10
186.3328419928296
 20
15.08868778853419
 30
0.0
 10
186.2980927452616
 20
15.22651875785067
 30
0.0
 10
186.3222185666714
 20
15.34963257349482
 30
0.0
 10
186.2967086182393
 20
15.47024055670335
 30
0.0
 10
186.3333251146686
 20
15.60539865141494
 30
0.0
 10
186.221141702777
 20
15.58094545781891
 30
0.0
 10
186.1280356457138
 20
15.59307749842024
 30
0.0
 10
186.0191547579821
 20
15.58957630069995
 30
0.0
 10
185.9569697640965
 20
15.58981755951603
 30
0.0
 10
185.9375369557247
 20
15.58989295124145
 30
0.0
 11
187.1521871691833
 21
14.93980288195949
 31
0.0
 11
187.0923621563982
 21
14.93980288195949
 31
0.0
 11
186.949702510526
 21
14.93980288195949
 31
0.0
 11
186.7794313202913
 21
14.93980288195949
 31
0.0
 11
186.6367716744191
 21
14.93980288195949
 31
0.0
 11
186.576946661634
 21
14.93980288195949
 31
0.0
 11
186.7679960754843
 21
14.6370512796689
 31
0.0
 11
186.994127278563
 21
14.36051890576685
 31
0.0
 11
187.2244526173372
 21
14.15061253493458
 31
0.0
 11
187.1521596330704
 21
14.08466403668717
 31
0.0
 11
187.0879364402643
 21
14.0087605905256
 31
0.0
 11
186.7732818215559
 21
14.35891458349363
 31
0.0
 11
186.4886640249976
 21
14.81138295143602
 31
0.0
 11
186.4886640249976
 21
14.73370259137314
 31
0.0
 11
186.4886640249976
 21
14.53950169121593
 31
0.0
 11
186.4886640249976
 21
14.28704052101156
 31
0.0
 11
186.4886640249976
 21
14.0345793508072
 31
0.0
 11
186.4886640249976
 21
13.84037845064999
 31
0.0
 11
186.4886640249976
 21
13.76269809058711
 31
0.0
 11
186.4428901295605
 21
13.76269809058711
 31
0.0
 11
186.3578814666059
 21
13.76269809058711
 31
0.0
 11
186.3121075711688
 21
13.76269809058711
 31
0.0
 11
186.3121075711688
 21
13.83859234982739
 31
0.0
 11
186.3121075711688
 21
14.02832799792811
 31
0.0
 11
186.3121075711688
 21
14.27498434045903
 31
0.0
 11
186.3121075711688
 21
14.52164068298995
 31
0.0
 11
186.3121075711688
 21
14.71137633109067
 31
0.0
 11
186.3121075711688
 21
14.78727059033095
 31
0.0
 11
185.9987626399267
 21
14.31440946197693
 31
0.0
 11
185.6352328662149
 21
13.95795177109382
 31
0.0
 11
185.5773927461628
 21
14.03253450545022
 31
0.0
 11
185.5094852305341
 21
14.09704322939241
 31
0.0
 11
185.775072189832
 21
14.31672219795889
 31
0.0
 11
186.0233764972061
 21
14.60953395971697
 31
0.0
 11
186.226498280526
 21
14.93980288195949
 31
0.0
 11
186.1627851652721
 21
14.93980288195949
 31
0.0
 11
186.0108538904359
 21
14.93980288195949
 31
0.0
 11
185.8295165624056
 21
14.93980288195949
 31
0.0
 11
185.6775852875694
 21
14.93980288195949
 31
0.0
 11
185.6138721723155
 21
14.93980288195949
 31
0.0
 11
185.6138721723155
 21
14.98350061600207
 31
0.0
 11
185.6138721723155
 21
15.06465355065258
 31
0.0
 11
185.6138721723155
 21
15.10835128469516
 31
0.0
 11
185.6864886537962
 21
15.10835128469516
 31
0.0
 11
185.8596510327119
 21
15.10835128469516
 31
0.0
 11
186.0663287107725
 21
15.10835128469516
 31
0.0
 11
186.2394910896881
 21
15.10835128469516
 31
0.0
 11
186.3121075711688
 21
15.10835128469516
 31
0.0
 11
186.3121075711688
 21
15.18359217009302
 31
0.0
 11
186.3121075711688
 21
15.3491221179683
 31
0.0
 11
186.3121075711688
 21
15.51465206584359
 31
0.0
 11
186.3121075711688
 21
15.58989295124145
 31
0.0
 11
186.2535809125057
 21
15.58989295124145
 31
0.0
 11
186.1248222634468
 21
15.58989295124145
 31
0.0
 11
185.9960636143879
 21
15.58989295124145
 31
0.0
 11
185.9375369557247
 21
15.58989295124145
 31
0.0
  0
SPLINE
  5
B3
102
{ACAD_REACTORS
330
CF
102
}
330
48
100
AcDbEntity
  8
_U_30EC_U_30A4_U_30E4_U_30FC_1
  6
Continuous
 62
     2
100
AcDbSpline
210
0.0
220
0.0
230
1.0
 70
     8
 71
     3
 72
    70
 73
    66
 74
    64
 42
0.000000001
 43
0.0000000001
 44
0.00000001
 40
0.0
 40
0.0
 40
0.0
 40
0.0
 40
0.0241731073021472
 40
0.0846058988987297
 40
0.1631685280353284
 40
0.2417311571789756
 40
0.3021639488292751
 40
0.3263370654895825
 40
0.3533118254249183
 40
0.4228783438922395
 40
0.5179999095313687
 40
0.6216398239466386
 40
0.716761389149999
 40
0.7863279069650148
 40
0.813302679176212
 40
0.8372943998771958
 40
0.894505426137287
 40
0.962789554196264
 40
1.020000580349074
 40
1.043992300975172
 40
1.071934345522908
 40
1.113121768773003
 40
1.145225199332327
 40
1.225483775412859
 40
1.329819923771566
 40
1.434156071994455
 40
1.514414647795872
 40
1.54651807820848
 40
1.578974764260253
 40
1.662678849314248
 40
1.777131373668497
 40
1.901833377474916
 40
2.016285900500734
 40
2.099989982528101
 40
2.13244666657046
 40
2.158782354486184
 40
2.216720867907973
 40
2.274659381334398
 40
2.30099506925633
 40
2.333451754066302
 40
2.417155836544011
 40
2.531608358985451
 40
2.656310362283974
 40
2.770762886389107
 40
2.8544669713403
 40
2.886923657364107
 40
2.91359797683354
 40
2.982389642875348
 40
3.076451716947216
 40
3.178937260458835
 40
3.272999334740244
 40
3.341791001059467
 40
3.368465320663781
 40
3.396976080739003
 40
3.472140811846239
 40
3.578408190308928
 40
3.700226892456365
 40
3.822045594634582
 40
3.928312973256689
 40
4.003477705315086
 40
4.031988456867151
 40
4.058324144797949
 40
4.116262658237111
 40
4.174201171400909
 40
4.200536849608842
 40
4.200536849608842
 40
4.200536849608842
 40
4.200536849608842
 10
185.985770496161
 20
15.75844135397706
 30
0.0
 10
185.993825954468
 20
15.75844359811688
 30
0.0
 10
186.0220200663242
 20
15.75845146032799
 30
0.0
 10
186.0765534803674
 20
15.75830754828373
 30
0.0
 10
186.1482891808604
 20
15.75909120499898
 30
0.0
 10
186.2236240137063
 20
15.75627570463812
 30
0.0
 10
186.2713052366439
 20
15.76298403400958
 30
0.0
 10
186.3195071245617
 20
15.75197563692432
 30
0.0
 10
186.3062571799875
 20
15.80546402997035
 30
0.0
 10
186.3151093964538
 20
15.86049583543092
 30
0.0
 10
186.3108698036287
 20
15.95419908726111
 30
0.0
 10
186.313348348128
 20
16.04959482218533
 30
0.0
 10
186.3090938706062
 20
16.14356821983388
 30
0.0
 10
186.3179818665847
 20
16.19795062438013
 30
0.0
 10
186.3046977409946
 20
16.25233997691461
 30
0.0
 10
186.351411927711
 20
16.23842216335359
 30
0.0
 10
186.3943254545738
 20
16.24103877374045
 30
0.0
 10
186.4605443456686
 20
16.23648422450755
 30
0.0
 10
186.5013342271799
 20
16.22778162134163
 30
0.0
 10
186.5525145690819
 20
16.23531799890196
 30
0.0
 10
186.5253720487201
 20
16.19349970223282
 30
0.0
 10
186.4803096055707
 20
16.202849920726
 30
0.0
 10
186.4942065045051
 20
16.13841207371837
 30
0.0
 10
186.4858414431653
 20
16.07378219627399
 30
0.0
 10
186.4903632178398
 20
15.97529141193888
 30
0.0
 10
186.4854741311167
 20
15.87595932842571
 30
0.0
 10
186.4950258992082
 20
15.81293115552969
 30
0.0
 10
186.47997614552
 20
15.7496401149979
 30
0.0
 10
186.5449159457208
 20
15.7651507294427
 30
0.0
 10
186.6116246399497
 20
15.75499387697813
 30
0.0
 10
186.7241435470827
 20
15.75988800099368
 30
0.0
 10
186.8390235448954
 20
15.75691204732784
 30
0.0
 10
186.9519871999747
 20
15.76221664184992
 30
0.0
 10
187.0176267597679
 20
15.7510730647209
 30
0.0
 10
187.0816276691054
 20
15.76744532319858
 30
0.0
 10
187.070314288919
 20
15.71761689905276
 30
0.0
 10
187.077533987151
 20
15.67416715212124
 30
0.0
 10
187.070314261127
 20
15.63071745587446
 30
0.0
 10
187.0816277175995
 20
15.58088895196877
 30
0.0
 10
187.0176263598972
 20
15.59726166091363
 30
0.0
 10
186.951992124046
 20
15.58611271661589
 30
0.0
 10
186.8389974317332
 20
15.59144857206855
 30
0.0
 10
186.7242456548643
 20
15.58834345663822
 30
0.0
 10
186.6113183686861
 20
15.5936489468259
 30
0.0
 10
186.5455220903584
 20
15.58257300019594
 30
0.0
 10
186.4816097975358
 20
15.59887597847619
 30
0.0
 10
186.4936015165126
 20
15.54423524395743
 30
0.0
 10
186.4862104613005
 20
15.48854295047842
 30
0.0
 10
186.4892684841983
 20
15.3964968914057
 30
0.0
 10
186.4893422785682
 20
15.30179109873101
 30
0.0
 10
186.4860313578359
 20
15.20952782902264
 30
0.0
 10
186.4939505989904
 20
15.15435768736139
 30
0.0
 10
186.4815076611617
 20
15.10058169100135
 30
0.0
 10
186.5389116551632
 20
15.1145376886278
 30
0.0
 10
186.5994708140383
 20
15.10511457884225
 30
0.0
 10
186.7048680855081
 20
15.10942885928704
 30
0.0
 10
186.8204294070622
 20
15.1083550461203
 30
0.0
 10
186.9359688877797
 20
15.10725965900994
 30
0.0
 10
187.0414181130841
 20
15.11162525770632
 30
0.0
 10
187.1018680471804
 20
15.1020942603067
 30
0.0
 10
187.159283773911
 20
15.11617289606379
 30
0.0
 10
187.1477773876709
 20
15.06707153265682
 30
0.0
 10
187.1537566781749
 20
15.02564658018648
 30
0.0
 10
187.1520311050801
 20
14.97651677966694
 30
0.0
 10
187.1521500122971
 20
14.94854428447607
 30
0.0
 10
187.1521871691833
 20
14.93980288195949
 30
0.0
 11
185.985770496161
 21
15.75844135397706
 31
0.0
 11
186.0099436128282
 21
15.75844135397706
 31
0.0
 11
186.0703764044964
 21
15.75844135397706
 31
0.0
 11
186.1489390336649
 21
15.75844135397706
 31
0.0
 11
186.2275016628334
 21
15.75844135397706
 31
0.0
 11
186.2879344545015
 21
15.75844135397706
 31
0.0
 11
186.3121075711688
 21
15.75844135397706
 31
0.0
 11
186.3121075711688
 21
15.78541612620064
 31
0.0
 11
186.3121075711688
 21
15.8549826440404
 31
0.0
 11
186.3121075711688
 21
15.95010420924986
 31
0.0
 11
186.3121075711688
 21
16.05374412358257
 31
0.0
 11
186.3121075711688
 21
16.14886568879203
 31
0.0
 11
186.3121075711688
 21
16.21843220663179
 31
0.0
 11
186.3121075711688
 21
16.24540697885537
 31
0.0
 11
186.3360407604893
 21
16.24373213107801
 31
0.0
 11
186.3931122119459
 21
16.23973826330122
 31
0.0
 11
186.4612297507811
 21
16.23497138885796
 31
0.0
 11
186.5183012022377
 21
16.23097752108118
 31
0.0
 11
186.5422343915582
 21
16.22930267330382
 31
0.0
 11
186.527497273123
 21
16.20556293372641
 31
0.0
 11
186.4886640249976
 21
16.19183767331312
 31
0.0
 11
186.4886640249976
 21
16.15973424225119
 31
0.0
 11
186.4886640249976
 21
16.07947566459637
 31
0.0
 11
186.4886640249976
 21
15.97513951364509
 31
0.0
 11
186.4886640249976
 21
15.87080336269381
 31
0.0
 11
186.4886640249976
 21
15.79054478503899
 31
0.0
 11
186.4886640249976
 21
15.75844135397706
 31
0.0
 11
186.5211207110824
 21
15.75844135397706
 31
0.0
 11
186.6048247962486
 21
15.75844135397706
 31
0.0
 11
186.7192773208635
 21
15.75844135397706
 31
0.0
 11
186.8439793252946
 21
15.75844135397706
 31
0.0
 11
186.9584318499095
 21
15.75844135397706
 31
0.0
 11
187.0421359350757
 21
15.75844135397706
 31
0.0
 11
187.0745926211605
 21
15.75844135397706
 31
0.0
 11
187.0745926211605
 21
15.73210566604962
 31
0.0
 11
187.0745926211605
 21
15.67416715260926
 31
0.0
 11
187.0745926211605
 21
15.61622863916889
 31
0.0
 11
187.0745926211605
 21
15.58989295124145
 31
0.0
 11
187.0421359350757
 21
15.58989295124145
 31
0.0
 11
186.9584318499095
 21
15.58989295124145
 31
0.0
 11
186.8439793252946
 21
15.58989295124145
 31
0.0
 11
186.7192773208635
 21
15.58989295124145
 31
0.0
 11
186.6048247962486
 21
15.58989295124145
 31
0.0
 11
186.5211207110824
 21
15.58989295124145
 31
0.0
 11
186.4886640249976
 21
15.58989295124145
 31
0.0
 11
186.4886640249976
 21
15.56321863152023
 31
0.0
 11
186.4886640249976
 21
15.49442696487076
 31
0.0
 11
186.4886640249976
 21
15.40036489006434
 31
0.0
 11
186.4886640249976
 21
15.29787934587227
 31
0.0
 11
186.4886640249976
 21
15.20381727106585
 31
0.0
 11
186.4886640249976
 21
15.13502560441638
 31
0.0
 11
186.4886640249976
 21
15.10835128469516
 31
0.0
 11
186.5171747850993
 21
15.10835128469516
 31
0.0
 11
186.5923395162766
 21
15.10835128469516
 31
0.0
 11
186.6986068948376
 21
15.10835128469516
 31
0.0
 11
186.8204255970904
 21
15.10835128469516
 31
0.0
 11
186.9422442993433
 21
15.10835128469516
 31
0.0
 11
187.0485116779043
 21
15.10835128469516
 31
0.0
 11
187.1236764090816
 21
15.10835128469516
 31
0.0
 11
187.1521871691833
 21
15.10835128469516
 31
0.0
 11
187.1521871691833
 21
15.08201559676771
 31
0.0
 11
187.1521871691833
 21
15.02407708332733
 31
0.0
 11
187.1521871691833
 21
14.96613856988694
 31
0.0
 11
187.1521871691833
 21
14.93980288195949
 31
0.0
  0
SPLINE
  5
B4
102
{ACAD_REACTORS
330
CF
102
}
330
48
100
AcDbEntity
  8
_U_30EC_U_30A4_U_30E4_U_30FC_1
  6
Continuous
 62
     2
100
AcDbSpline
210
0.0
220
0.0
230
1.0
 70
     8
 71
     3
 72
    24
 73
    20
 74
    18
 42
0.000000001
 43
0.0000000001
 44
0.00000001
 40
0.0
 40
0.0
 40
0.0
 40
0.0
 40
0.2211075008753817
 40
0.4273218586245221
 40
0.508017467923948
 40
0.5914835907870395
 40
0.8143265690192707
 40
1.054651302686569
 40
1.295452694023166
 40
1.518109231328837
 40
1.540864321905425
 40
1.595126460622687
 40
1.659890947896002
 40
1.714153085187306
 40
1.736908174961607
 40
1.764951100735252
 40
1.801562291220815
 40
1.953914424543492
 40
2.126104167379549
 40
2.126104167379549
 40
2.126104167379549
 40
2.126104167379549
 10
185.937536955689
 20
15.58989295113015
 30
0.0
 10
185.9112579081813
 20
15.53097628234373
 30
0.0
 10
185.8604698894426
 20
15.41711139679257
 30
0.0
 10
185.8131784839113
 20
15.14441958233116
 30
0.0
 10
185.7043482802619
 20
15.24445482575454
 30
0.0
 10
185.5514800279638
 20
15.27118593367332
 30
0.0
 10
185.7686155181199
 20
15.48518135017632
 30
0.0
 10
185.7838483674381
 20
15.70332117782488
 30
0.0
 10
185.8906889492
 20
15.88451579066424
 30
0.0
 10
185.830538094708
 20
16.16913226311404
 30
0.0
 10
185.9334317395402
 20
16.14114089222451
 30
0.0
 10
185.9779933468151
 20
16.132432516023
 30
0.0
 10
186.0380842395397
 20
16.12139654183355
 30
0.0
 10
186.0756619587438
 20
16.10767523055559
 30
0.0
 10
186.1252466928606
 20
16.10756076160222
 30
0.0
 10
186.0930158919326
 20
16.07306592398623
 30
0.0
 10
186.0171802221882
 20
16.08404104537961
 30
0.0
 10
186.0429447159693
 20
15.89858969582451
 30
0.0
 10
186.005589676385
 20
15.8070231354959
 30
0.0
 10
185.985770496161
 20
15.75844135397706
 30
0.0
 11
185.937536955689
 21
15.58989295113015
 31
0.0
 11
185.8616471328553
 21
15.3822170831856
 31
0.0
 11
185.7717402238434
 21
15.19663392356192
 31
0.0
 11
185.701149392311
 21
15.23573272563551
 31
0.0
 11
185.6245525192652
 21
15.2688916318772
 31
0.0
 11
185.7214026947456
 21
15.46958801203538
 31
0.0
 11
185.7994641467471
 21
15.69688163177023
 31
0.0
 11
185.8589716929721
 21
15.93021436608691
 31
0.0
 11
185.9001601511227
 21
16.14902808999055
 31
0.0
 11
185.9224183822215
 21
16.14429889221396
 31
0.0
 11
185.975495702534
 21
16.133021574439
 31
0.0
 11
186.0388460525845
 21
16.11956154999791
 31
0.0
 11
186.091923372897
 21
16.10828423222296
 31
0.0
 11
186.1141816039958
 21
16.10355503444636
 31
0.0
 11
186.0964097157461
 21
16.08186250841009
 31
0.0
 11
186.0606122998072
 21
16.07418628445366
 31
0.0
 11
186.028195330148
 21
15.92532288171313
 31
0.0
 11
185.985770496161
 21
15.75844135397706
 31
0.0
  0
LWPOLYLINE
  5
B5
102
{ACAD_REACTORS
330
D0
102
}
330
48
100
AcDbEntity
  8
_U_30EC_U_30A4_U_30E4_U_30FC_1
  6
Continuous
 62
     2
100
AcDbPolyline
 90
        5
 70
     1
 43
0.0
 10
191.1602971697032
 20
15.39722336795624
 10
192.4578138032672
 20
15.39722336795624
 10
192.4578138032672
 20
15.22875434022056
 10
191.1602971697032
 20
15.22875434022056
 10
191.1602971697032
 20
15.39722336795624
  0
MTEXT
  5
B7
330
48
100
AcDbEntity
  8
1
 62
   250
100
AcDbMText
 10
25.0
 20
4.99999999999999
 30
0.0
 40
3.5
 41
0.0
 71
     4
 72
     1
  1
備考欄の文字列 原点位置=4
  7
CONVERTER_11
 73
     1
 44
0.54545454545455
  0
MTEXT
  5
B8
330
48
100
AcDbEntity
  8
1
 62
     2
100
AcDbMText
 10
89.49999999999997
 20
24.00000000000001
 30
0.0
 40
3.5
 41
0.0
 71
     5
 72
     1
  1
尺度
  7
CONVERTER_11
 73
     1
 44
0.54545454545455
  0
MTEXT
  5
B9
330
48
100
AcDbEntity
  8
1
 62
     2
100
AcDbMText
 10
135.5
 20
25.00000000000001
 30
0.0
 40
3.0
 41
0.0
 71
     5
 72
     1
  1
製図
  7
CONVERTER_11
 73
     1
 44
0.59090909090909
  0
MTEXT
  5
BA
330
48
100
AcDbEntity
  8
1
 62
     2
100
AcDbMText
 10
152.5
 20
25.00000000000001
 30
0.0
 40
3.0
 41
0.0
 71
     5
 72
     1
  1
設計
  7
CONVERTER_11
 73
     1
 44
0.59090909090909
  0
MTEXT
  5
BB
330
48
100
AcDbEntity
  8
1
 62
     2
100
AcDbMText
 10
118.5
 20
25.00000000000001
 30
0.0
 40
3.0
 41
0.0
 71
     5
 72
     1
  1
検図
  7
CONVERTER_11
 73
     1
 44
0.59090909090909
  0
MTEXT
  5
BC
330
48
100
AcDbEntity
  8
1
 62
     2
100
AcDbMText
 10
175.0
 20
23.50000000000001
 30
0.0
 40
3.5
 41
0.0
 71
     5
 72
     1
  1
第三角法
  7
CONVERTER_11
 73
     1
 44
0.54545454545455
  0
MTEXT
  5
BD
330
48
100
AcDbEntity
  8
1
 62
     2
100
AcDbMText
 10
101.5
 20
25.00000000000001
 30
0.0
 40
3.0
 41
0.0
 71
     5
 72
     1
  1
承認
  7
CONVERTER_11
 73
     1
 44
0.59090909090909
  0
MTEXT
  5
BE
330
48
100
AcDbEntity
  8
1
 62
     2
100
AcDbMText
 10
29.0
 20
14.24999999999999
 30
0.0
 40
3.5
 41
0.0
 71
     5
 72
     1
  1
品番
  7
CONVERTER_11
 73
     1
 44
0.72727272727273
  0
MTEXT
  5
BF
330
48
100
AcDbEntity
  8
1
 62
     2
100
AcDbMText
 10
29.0
 20
22.74999999999999
 30
0.0
 40
3.5
 41
0.0
 71
     5
 72
     1
  1
品名
  7
CONVERTER_11
 73
     1
 44
0.72727272727273
  0
MTEXT
  5
C0
330
48
100
AcDbEntity
  8
1
 62
     2
100
AcDbMText
 10
29.0
 20
34.00000000000001
 30
0.0
 40
3.5
 41
0.0
 71
     5
 72
     1
  1
備考
  7
CONVERTER_11
 73
     1
 44
0.45454545454545
  0
MTEXT
  5
C1
330
48
100
AcDbEntity
  8
1
 62
     2
100
AcDbMText
 10
32.5
 20
282.0000000000003
 30
0.0
 40
5.0
 41
0.0
 71
     5
 72
     1
  1
図番
  7
CONVERTER_11
 73
     1
 44
0.45454545454545
  0
HATCH
  5
C2
330
48
100
AcDbEntity
  8
1
  6
Continuous
 62
     2
100
AcDbHatch
 10
0.0
 20
0.0
 30
0.0
210
0.0
220
0.0
230
1.0
  2
CUSTOM0
 70
     0
 71
     1
 91
        1
 92
        1
 93
        1
 72
     4
 94
        3
 73
     0
 74
     0
 95
       99
 96
       95
 40
0.0
 40
0.0
 40
0.0
 40
0.0
 40
0.0796417172273033
 40
0.1621768542355869
 40
0.2486489160957858
 40
0.3404969668525349
 40
0.4381912511165633
 40
0.5434463660244797
 40
0.6518115192847118
 40
0.7530190937887501
 40
0.8492196919725505
 40
0.941929031299874
 40
1.034249663570088
 40
1.129078600620252
 40
1.226697027573278
 40
1.327220425421737
 40
1.470572134938053
 40
1.595489863371261
 40
1.719934125348392
 40
1.850576620127463
 40
1.989059629987294
 40
2.134139054226859
 40
2.280698007207175
 40
2.424529739039451
 40
2.565929576985817
 40
2.708239260773512
 40
2.861717887443619
 40
3.045168540347343
 40
3.183798301138573
 40
3.314813961455437
 40
3.442083470447264
 40
3.56991270837286
 40
3.702177512509263
 40
3.842307559659432
 40
3.992872223245891
 40
4.156750662218338
 40
4.310981861107446
 40
4.445859909322492
 40
4.572393936131534
 40
4.701656719781961
 40
4.768279086008452
 40
4.835960697898401
 40
4.912788918729327
 40
5.00628520848151
 40
5.026909478751644
 40
5.047533749021265
 40
5.101808031471294
 40
5.162325165538631
 40
5.226919745995949
 40
5.294231806596747
 40
5.364544852554912
 40
5.438319055467956
 40
5.517877651324322
 40
5.607647714861577
 40
5.700449642544425
 40
5.788251142364267
 40
5.872714706039849
 40
5.9551672925754
 40
6.037192395190502
 40
6.120669181469228
 40
6.206848616686466
 40
6.2966808554169
 40
6.442558392872719
 40
6.568190371608417
 40
6.69290456736053
 40
6.824220446557323
 40
6.963121850329509
 40
7.107843738851273
 40
7.253431663907411
 40
7.395187468036885
 40
7.533140753237893
 40
7.670550457175421
 40
7.816236511769425
 40
7.987691657359383
 40
8.142277421969425
 40
8.29366261541516
 40
8.44296246087944
 40
8.591598316185474
 40
8.74367899236192
 40
8.903725323699328
 40
9.076307008890705
 40
9.26557860468073
 40
9.459203795360876
 40
9.617619810273773
 40
9.75360967136213
 40
9.874873300004234
 40
9.95452018497793
 40
10.02416413719262
 40
10.09769764405461
 40
10.18909955924989
 40
10.2097458642015
 40
10.23039218263393
 40
10.30057101881277
 40
10.37632012987555
 40
10.37632012987555
 40
10.37632012987555
 40
10.37632012987555
 10
170.1465954835851
 20
14.13795663215994
 10
170.163221785122
 20
14.11720608845313
 10
170.1970784206578
 20
14.07495111711907
 10
170.2599822541036
 20
14.02029811392069
 10
170.3332500940393
 20
13.9729902512105
 10
170.4175969238636
 20
13.93527231437934
 10
170.5132240615461
 20
13.91040619731952
 10
170.6171853775346
 20
13.90309559345937
 10
170.7224020220405
 20
13.91142322794055
 10
170.8206626371334
 20
13.94149179651525
 10
170.9058986427549
 20
13.98848822971878
 10
170.9779220206104
 20
14.04952991250854
 10
171.0350917709096
 20
14.12412969578585
 10
171.0767868747441
 20
14.21002464660172
 10
171.1026952846292
 20
14.30485850432213
 10
171.1118037332653
 20
14.41854979038366
 10
171.0986864796487
 20
14.54332587770779
 10
171.0325330334414
 20
14.66014719171891
 10
170.9369370919569
 20
14.74512539577376
 10
170.8249681022369
 20
14.81416684459159
 10
170.699365958327
 20
14.87204142045889
 10
170.5656691620857
 20
14.92373723284341
 10
170.4313122818832
 20
14.97899092397179
 10
170.3051983986877
 20
15.04939770641651
 10
170.1926579987536
 20
15.1378554073125
 10
170.0969963064458
 20
15.24981067868473
 10
170.0334157151827
 20
15.39949910101383
 10
170.0200706505016
 20
15.55932794385142
 10
170.0320510987449
 20
15.71048405306847
 10
170.0712298928841
 20
15.83809244591538
 10
170.1354987750912
 20
15.95080874030842
 10
170.223820499974
 20
16.04648609268688
 10
170.3338091207627
 20
16.12354214985752
 10
170.4632284401265
 20
16.1815139693628
 10
170.6111838967794
 20
16.21739177588822
 10
170.7682069455487
 20
16.22746719050566
 10
170.917494046643
 20
16.2186363776259
 10
171.059625361417
 20
16.19074899340351
 10
171.1595922609626
 20
16.1341331470114
 10
171.3125074736187
 20
16.08674602105508
 10
171.2455131717169
 20
16.00197553001184
 10
171.2296479120269
 20
15.93438901873483
 10
171.1978750531297
 20
15.8692609279319
 10
171.2150202209573
 20
15.76723453256952
 10
171.1666427208232
 20
15.77493211681903
 10
171.1315789440766
 20
15.76806771724807
 10
171.1296697985719
 20
15.832638311582
 10
171.0985692931989
 20
15.87825639621394
 10
171.0664551628455
 20
15.93561036628451
 10
171.0208038475169
 20
15.98540462692565
 10
170.9658508218387
 20
16.02994813718993
 10
170.9010841173009
 20
16.06763988836551
 10
170.8232377310597
 20
16.09283375791352
 10
170.7355160553352
 20
16.09931230998112
 10
170.6452903277807
 20
16.09235709285605
 10
170.5594594694065
 20
16.06909190460926
 10
170.4828343638597
 20
16.0313164410754
 10
170.4165265636201
 20
15.98051641089577
 10
170.3622560536964
 20
15.91731143407209
 10
170.3224925345458
 20
15.84276455710367
 10
170.2976775510588
 20
15.75917313997763
 10
170.289212426287
 20
15.65192948382284
 10
170.3019697987103
 20
15.52965457267558
 10
170.3681548409273
 20
15.41149724291208
 10
170.4640977399833
 20
15.32606325709528
 10
170.5757914963183
 20
15.25583362306725
 10
170.7010863668702
 20
15.19659162305304
 10
170.8349823941448
 20
15.1461670808613
 10
170.9689930333149
 20
15.09322516984381
 10
171.0950885316916
 20
15.02750170625179
 10
171.2076216638417
 20
14.94480352537317
 10
171.3031370284234
 20
14.83996006310077
 10
171.3672706486963
 20
14.69937117251569
 10
171.3811103725279
 20
14.54065409451592
 10
171.3673954712229
 20
14.38153155217876
 10
171.3244739153985
 20
14.23483828819207
 10
171.2545906329066
 20
14.10119796587143
 10
171.157459221383
 20
13.9853238769929
 10
171.0347806023658
 20
13.89089981770085
 10
170.8874408413169
 20
13.82179270651982
 10
170.7177132497125
 20
13.77953210858852
 10
170.5317404979598
 20
13.76781736230407
 10
170.3528955926183
 20
13.77809486683438
 10
170.1881733753744
 20
13.81966573769152
 10
170.0834410841056
 20
13.88797642883937
 10
169.9350960790366
 20
13.93675219032109
 10
169.9980378194729
 20
14.02976591290842
 10
170.0072274430061
 20
14.1029653624828
 10
170.0303711301232
 20
14.16936294501347
 10
170.0034588335317
 20
14.26974809527581
 10
170.052133895634
 20
14.2623403351738
 10
170.0916530580697
 20
14.26894063620894
 10
170.0996204944703
 20
14.19078703218934
 10
170.1305436967923
 20
14.15600927375857
 10
170.1465954835851
 20
14.13795663215994
 97
        1
330
A4
 75
     1
 76
     2
 52
45.0
 41
0.1
 77
     0
 78
     1
 53
45.0
 43
0.0
 44
0.0
 45
-0.282842712474619
 46
0.0
 79
     0
 98
        1
 10
0.0
 20
0.0
  0
HATCH
  5
C3
330
48
100
AcDbEntity
  8
1
  6
Continuous
 62
     2
100
AcDbHatch
 10
0.0
 20
0.0
 30
0.0
210
0.0
220
0.0
230
1.0
  2
CUSTOM1
 70
     0
 71
     1
 91
        2
 92
        1
 93
        1
 72
     4
 94
        3
 73
     0
 74
     0
 95
       57
 96
       53
 40
0.0
 40
0.0
 40
0.0
 40
0.0
 40
0.0471632082809505
 40
0.0914861054631859
 40
0.1357762519702095
 40
0.1826527001610674
 40
0.2295203288573151
 40
0.2737751972221605
 40
0.3181310461543918
 40
0.3652607198398501
 40
0.4571007286314496
 40
0.5671851029165269
 40
0.6894623283868471
 40
0.8181758272545732
 40
0.9510087229274242
 40
1.085852229674051
 40
1.218126164475286
 40
1.343545131142368
 40
1.454537202956756
 40
1.567187607530794
 40
1.680710966642469
 40
1.794226869736862
 40
1.900009184247633
 40
2.004085860447941
 40
2.1081626744518
 40
2.214000150155288
 40
2.496038577352156
 40
2.762350745479265
 40
2.997275353279393
 40
3.185110082137701
 40
3.246407890063984
 40
3.312607550212772
 40
3.378877742711589
 40
3.440140399651414
 40
4.100501696006401
 40
4.754913085563444
 40
5.41133169342386
 40
6.077890432568676
 40
6.110575292670955
 40
6.143260152775735
 40
6.367989363395098
 40
6.610525374951523
 40
6.863389136467283
 40
7.119380025547546
 40
7.376036605091039
 40
7.631164770966239
 40
7.876722425456394
 40
8.104953735855888
 40
8.312916685924282
 40
8.497730294941276
 40
8.6510189843138
 40
8.764738853624552
 40
8.764738853624552
 40
8.764738853624552
 40
8.764738853624552
 10
174.7922649500514
 20
13.81626739612928
 10
174.7766616726932
 20
13.81826231079078
 10
174.7463947960303
 20
13.82213201360298
 10
174.7010994202253
 20
13.82341984967269
 10
174.655955312935
 20
13.82308683554051
 10
174.60990171234
 20
13.82314658674225
 10
174.5640496172096
 20
13.82325813650002
 10
174.5183711648165
 20
13.82277833456591
 10
174.4750811541608
 20
13.82461109618721
 10
174.4039947951514
 20
13.8004955681466
 10
174.4057477261442
 20
13.92184693977251
 10
174.3586196370569
 20
14.00726239751232
 10
174.3191478251762
 20
14.12486929345134
 10
174.2706635532645
 20
14.24232752540441
 10
174.2201017402522
 20
14.36405935761506
 10
174.1718634610478
 20
14.49075967862467
 10
174.1135232947595
 20
14.59933687784953
 10
174.0980892667262
 20
14.75620657134408
 10
173.9566586330636
 20
14.72373446548322
 10
173.8508397414904
 20
14.7351288868218
 10
173.7358569725222
 20
14.73392591514615
 10
173.6253142252141
 20
14.73506945347408
 10
173.5176583522783
 20
14.73418350037526
 10
173.4121322529242
 20
14.73416602390519
 10
173.3109192682014
 20
14.72714032472416
 10
173.1266804827754
 20
14.75135859859865
 10
173.1157393685411
 20
14.44741691121889
 10
173.0087691634751
 20
14.22353177253395
 10
172.9098148604347
 20
14.03895314292496
 10
172.9225090524009
 20
13.79530204804208
 10
172.8050091716397
 20
13.82508046753196
 10
172.7422055868311
 20
13.82258089509605
 10
172.67858720934
 20
13.82344075102804
 10
172.3946014194077
 20
13.78098039941952
 10
173.0251638499381
 20
14.50081952444784
 10
173.1087645289071
 20
15.01276539435733
 10
173.4929252789339
 20
15.53353743550042
 10
173.4777208288567
 20
16.23519626253217
 10
173.7239265722698
 20
16.22345633081257
 10
173.8256346157562
 20
16.23225004452774
 10
173.8249752035818
 20
15.98059650730343
 10
173.9428317155829
 20
15.7981802073396
 10
174.0315515260486
 20
15.55563740662867
 10
174.1322292485258
 20
15.32340030530124
 10
174.2311142712244
 20
15.08674644566915
 10
174.3299676990668
 20
14.85461739170089
 10
174.4256166390927
 20
14.63122222788792
 10
174.5159904573271
 20
14.42272549049311
 10
174.598994456819
 20
14.23308448529323
 10
174.67260885828
 20
14.06663106068101
 10
174.7342815895545
 20
13.92917699626095
 10
174.7749458885604
 20
13.84999239430034
 10
174.7922649500514
 20
13.81626739612928
 97
        1
330
A5
 92
       16
 93
        1
 72
     4
 94
        3
 73
     0
 74
     0
 95
       25
 96
       21
 40
0.0
 40
0.0
 40
0.0
 40
0.0
 40
0.091147996906539
 40
0.1858117896204667
 40
0.2804128399735058
 40
0.3715889190714509
 40
0.4679080494218991
 40
0.5642683809230082
 40
0.6605683222645558
 40
0.7569653015811104
 40
0.8561348172523587
 40
1.092615965104389
 40
1.374867658141983
 40
1.61134881201172
 40
1.710518328425368
 40
1.809403163726687
 40
2.045205463294189
 40
2.326646917622249
 40
2.562449217190711
 40
2.66133404383403
 40
2.66133404383403
 40
2.66133404383403
 40
2.66133404383403
 10
173.2683700567199
 20
14.88614538197292
 10
173.2987525917923
 20
14.88598079714554
 10
173.3606895889112
 20
14.88564528689921
 10
173.454135696033
 20
14.88269055451998
 10
173.5475095236357
 20
14.87977752877151
 10
173.6417760753477
 20
14.87894201643416
 10
173.7354964790967
 20
14.87996644658048
 10
173.8352040303205
 20
14.87916977470973
 10
173.9188949546314
 20
14.8892141023522
 10
174.0637996315045
 20
14.86234617674164
 10
173.9396132444802
 20
15.0366553028005
 10
173.8965867286282
 20
15.19651711006091
 10
173.780892214221
 20
15.45518458550216
 10
173.7017565431257
 20
15.59231052861857
 10
173.6431576621816
 20
15.80937033134077
 10
173.5864803939438
 20
15.59266134213428
 10
173.5052809900477
 20
15.45327012438236
 10
173.4063701281487
 20
15.20406969370194
 10
173.325362509426
 20
15.01925830226074
 10
173.2813683325838
 20
14.91650446856116
 10
173.2683700567199
 20
14.88614538197292
 97
        1
330
A6
 75
     1
 76
     2
 52
45.0
 41
0.1
 77
     0
 78
     1
 53
45.0
 43
0.0
 44
0.0
 45
-0.282842712474619
 46
0.0
 79
     0
 98
        1
 10
0.0
 20
0.0
  0
HATCH
  5
C4
330
48
100
AcDbEntity
  8
1
  6
Continuous
 62
     2
100
AcDbHatch
 10
0.0
 20
0.0
 30
0.0
210
0.0
220
0.0
230
1.0
  2
CUSTOM2
 70
     0
 71
     1
 91
        1
 92
        1
 93
        1
 72
     4
 94
        3
 73
     0
 74
     0
 95
       95
 96
       91
 40
0.0
 40
0.0
 40
0.0
 40
0.0
 40
0.6550406656910991
 40
1.308087289031938
 40
1.420803739835808
 40
1.566130759770809
 40
1.757067341888465
 40
2.006513545026467
 40
2.087328263121549
 40
2.185328872295618
 40
2.294612454748359
 40
2.408936380534801
 40
2.526802767798569
 40
2.646360524615616
 40
2.762535723971594
 40
2.870057342870168
 40
2.966883448431647
 40
3.050803243518303
 40
3.115818222436617
 40
3.156030057150237
 40
3.213914225080166
 40
3.276689026450538
 40
3.342960320981316
 40
3.404230667150564
 40
3.453822809493365
 40
3.53249982718843
 40
3.634775188507162
 40
3.754909333008156
 40
3.889736761660649
 40
4.035769602175226
 40
4.187256681197598
 40
4.338733685675937
 40
4.488478734676104
 40
4.63470831783158
 40
4.771493189921261
 40
4.892686571561203
 40
5.199775528944443
 40
5.460353566929629
 40
5.667603142345502
 40
5.814722905404492
 40
5.828990806219819
 40
5.855488336304488
 40
5.869756237118819
 40
6.189796507762831
 40
6.531890469873027
 40
6.883053637016995
 40
7.230512024911434
 40
7.566966656764548
 40
7.88520355970736
 40
8.172887439719174
 40
8.418011594062769
 40
8.44392672119069
 40
8.510760470613176
 40
8.602145393795684
 40
8.701714041647122
 40
8.793098965075352
 40
8.859932715057923
 40
8.885847842603571
 40
9.242301256612793
 40
9.58927545501674
 40
9.92180854316414
 40
10.23479624298465
 40
10.29968150889182
 40
10.35323493887764
 40
10.40154625355152
 40
10.46482922477833
 40
10.55973900668413
 40
10.69239545985627
 40
10.84920353475681
 40
11.01626328594787
 40
11.18672024367451
 40
11.35372582577218
 40
11.50257442292434
 40
11.61866495023299
 40
11.71329869152883
 40
11.82511050573915
 40
11.94464880845724
 40
12.06929242642516
 40
12.19707290435185
 40
12.32562632860538
 40
12.45034565331287
 40
12.56646595170335
 40
12.67099007414644
 40
12.76077625936791
 40
12.82703233506703
 40
12.87429132786001
 40
12.89831990323341
 40
12.92234847860029
 40
13.5398476741033
 40
14.18294284359379
 40
14.18294284359379
 40
14.18294284359379
 40
14.18294284359379
 10
177.3067935648021
 20
14.70898038201723
 10
177.1752019758551
 20
14.82265058603231
 10
176.912419380273
 20
15.04964496316164
 10
176.3997393441019
 20
15.89214462956289
 10
176.4106654595363
 20
15.53423377577018
 10
176.404122652799
 20
15.39267392272132
 10
176.4028026631773
 20
15.1942130529928
 10
176.4018117602539
 20
15.02150296045982
 10
176.4024101751975
 20
14.87865373257579
 10
176.4038994301882
 20
14.78265005413358
 10
176.4055683588473
 20
14.67545503263142
 10
176.4071934954617
 20
14.56164211517582
 10
176.4092429501687
 20
14.44441572604589
 10
176.4123165501926
 20
14.32656411232968
 10
176.4156339697044
 20
14.21228087320619
 10
176.4193605340281
 20
14.10521401867276
 10
176.4217338161424
 20
14.0100740876692
 10
176.4278718888357
 20
13.92558557205694
 10
176.4239784495947
 20
13.86923087298141
 10
176.4455230443078
 20
13.79825022472356
 10
176.3680940058618
 20
13.82902677604482
 10
176.3116353240191
 20
13.82011242517615
 10
176.2540495896807
 20
13.82896218398274
 10
176.1690163478474
 20
13.79738225225947
 10
176.2009714146383
 20
13.8809515599219
 10
176.1990705282539
 20
13.9488260896831
 10
176.21079600473
 20
14.05233256764419
 10
176.2164241053001
 20
14.17002125616694
 10
176.223790217894
 20
14.30388609164423
 10
176.2320759701611
 20
14.44764152872632
 10
176.2398851897426
 20
14.59714022843444
 10
176.2457571222658
 20
14.74792549402077
 10
176.2503667817967
 20
14.89699943878437
 10
176.2542632117544
 20
15.04122913163021
 10
176.2570715126563
 20
15.17583905213017
 10
176.2576698755023
 20
15.36469614347355
 10
176.2616023867149
 20
15.58975494313153
 10
176.24421753785
 20
15.86367091125708
 10
176.2850417342581
 20
16.02787112098597
 10
176.1995153256004
 20
16.22749661465099
 10
176.2660558907689
 20
16.22385458403979
 10
176.2838724273231
 20
16.22413447160855
 10
176.4056801797503
 20
16.22632927398614
 10
176.5080770335463
 20
15.94675118721514
 10
176.7580021509357
 20
15.74563008536002
 10
176.9870035331111
 20
15.47792614987917
 10
177.2245151213108
 20
15.22646413862372
 10
177.4486090740772
 20
14.98969974061361
 10
177.6750716283009
 20
14.73218692583078
 10
177.8325687886514
 20
14.61649335056921
 10
178.0472129612676
 20
14.27997152538794
 10
178.0422645974619
 20
14.40464754091604
 10
178.0433931602547
 20
14.46327691935737
 10
178.0428877841517
 20
14.55043662371978
 10
178.0430475158114
 20
14.64416143182872
 10
178.0430054891319
 20
14.73018971297035
 10
178.0430202040374
 20
14.79153891945496
 10
178.0429706255983
 20
14.94135231520992
 10
178.0458811522812
 20
15.17989612510105
 10
178.0259521041162
 20
15.544865098687
 10
178.0750433936249
 20
15.80799631993414
 10
177.917795150918
 20
16.2192890494775
 10
178.0762112872421
 20
16.16398282551749
 10
178.1311680478629
 20
16.16199686500175
 10
178.182788776674
 20
16.16264778248251
 10
178.2713198965367
 20
16.20369527738246
 10
178.2204898303169
 20
16.05696326622986
 10
178.2313389930283
 20
15.95019971954432
 10
178.2166036994848
 20
15.79085705414112
 10
178.2099976446206
 20
15.62853061652874
 10
178.2014961399915
 20
15.45992521892396
 10
178.19432272022
 20
15.29814814703542
 10
178.1889063215389
 20
15.15422331457932
 10
178.1871713967649
 20
15.03437493466925
 10
178.1875440672319
 20
14.92686101590515
 10
178.1873656126263
 20
14.81820024645586
 10
178.187701086314
 20
14.6995357016553
 10
178.1890040622183
 20
14.5755516351274
 10
178.1908887351575
 20
14.44858294171103
 10
178.192500445485
 20
14.32153861551031
 10
178.1941403137431
 20
14.19854884492177
 10
178.196257074575
 20
14.08300931383759
 10
178.1963848422365
 20
13.98090903955837
 10
178.2006514396555
 20
13.89009848838156
 10
178.190844008529
 20
13.83213621208786
 10
178.211847477169
 20
13.76517130132029
 10
178.1725639739897
 20
13.77291153966688
 10
177.959530711775
 20
13.75755254145193
 10
177.7636297943186
 20
14.31403058094471
 10
177.4611197631544
 20
14.57556035348509
 10
177.3067935648021
 20
14.70898038201723
 97
        1
330
A7
 75
     1
 76
     2
 52
45.0
 41
0.1
 77
     0
 78
     1
 53
45.0
 43
0.0
 44
0.0
 45
-0.282842712474619
 46
0.0
 79
     0
 98
        1
 10
0.0
 20
0.0
  0
HATCH
  5
C5
330
48
100
AcDbEntity
  8
1
  6
Continuous
 62
     2
100
AcDbHatch
 10
0.0
 20
0.0
 30
0.0
210
0.0
220
0.0
230
1.0
  2
CUSTOM3
 70
     0
 71
     1
 91
        1
 92
        1
 93
        1
 72
     4
 94
        3
 73
     0
 74
     0
 95
      110
 96
      106
 40
0.0
 40
0.0
 40
0.0
 40
0.0
 40
0.2203406257277714
 40
0.4407808782838055
 40
0.5952494494614465
 40
0.7488431659393037
 40
0.9023581831308454
 40
1.056801968670401
 40
1.210736449099873
 40
1.363041386539694
 40
1.515315729683065
 40
1.669377239147988
 40
1.72161165275647
 40
1.77319950294286
 40
1.824933793209909
 40
1.877110426487888
 40
1.982682281206652
 40
2.078781667087462
 40
2.172809640822154
 40
2.271937807378752
 40
2.37834993337923
 40
2.494131557736304
 40
2.626681683943495
 40
2.78314505079598
 40
2.890701232940847
 40
2.993130312454757
 40
3.099869730691723
 40
3.22023781669122
 40
3.352695482737507
 40
3.48173280638975
 40
3.593499473690287
 40
3.674323013331805
 40
3.817951711952783
 40
3.946167120793866
 40
4.061405053453465
 40
4.16648079600319
 40
4.262478775059171
 40
4.350736673551071
 40
4.433071991253957
 40
4.511216293814672
 40
4.564262454118013
 40
4.618474415571642
 40
4.67012848875422
 40
4.722296879126441
 40
4.819540945314366
 40
4.931194984128166
 40
5.049996040257836
 40
5.168643755415467
 40
5.283970811762678
 40
5.392260784910504
 40
5.48651225487655
 40
5.559178233949978
 40
5.591425852853638
 40
5.626215969638026
 40
5.667155838674558
 40
5.717449290214363
 40
5.738402360944978
 40
5.784499116553947
 40
5.83059587216492
 40
5.851548942897779
 40
5.873019280661893
 40
5.924217778408435
 40
5.985325662817814
 40
6.036524160567831
 40
6.057994498334359
 40
6.236847789607618
 40
6.381409928945775
 40
6.493190424178817
 40
6.574067534230623
 40
6.691018086205774
 40
6.814881554220634
 40
6.944307823240587
 40
7.071266716066325
 40
7.193488604462084
 40
7.309042773128368
 40
7.414007203170965
 40
7.505140441886749
 40
7.531150360599926
 40
7.559221645322512
 40
7.587202218921178
 40
7.612569159499382
 40
7.662550809481263
 40
7.702878875764392
 40
7.857328205231291
 40
8.010799568088938
 40
8.16525639965786
 40
8.322232698714227
 40
8.479564855016857
 40
8.635216230291118
 40
8.790882550926007
 40
8.948305154947516
 40
9.168271839033187
 40
9.387358980987473
 40
9.608047961033712
 40
9.832914234792906
 40
9.85833869496324
 40
9.92536681723025
 40
10.02013071422784
 40
10.12876249859022
 40
10.23739428295273
 40
10.33215817995215
 40
10.39918630222418
 40
10.42461076239807
 40
10.64992019336967
 40
10.87188524531211
 40
10.87188524531211
 40
10.87188524531211
 40
10.87188524531211
 10
179.9057788376618
 20
15.7392326039819
 10
179.9092864933542
 20
15.80616462073804
 10
179.9163033987663
 20
15.94005891915858
 10
179.8198027599074
 20
16.22548554971468
 10
180.0510134726109
 20
16.16284386190282
 10
180.1919290057157
 20
16.17001554055992
 10
180.3490417757588
 20
16.16235883078244
 10
180.5025913427288
 20
16.1625275228304
 10
180.6545104935081
 20
16.16182040535432
 10
180.8142214813231
 20
16.1721015835164
 10
180.9408972601118
 20
16.1549651108075
 10
181.1370821122079
 20
16.22727260107146
 10
181.1034395279079
 20
16.12640699080115
 10
181.1052011317183
 20
16.0761925394767
 10
181.102734207346
 20
16.02712335586466
 10
181.134707696601
 20
15.94063490846997
 10
181.0010399903256
 20
15.98997438608336
 10
180.9172208688057
 20
15.9843063431417
 10
180.8173861139324
 20
15.99465516706297
 10
180.7186576720146
 20
16.00086450411089
 10
180.6121532771111
 20
16.00697763816778
 10
180.491051169806
 20
16.01588883484584
 10
180.3703381502455
 20
16.00521605912384
 10
180.1812553843436
 20
16.06468503080369
 10
180.2129028505312
 20
15.9055832007754
 10
180.1995563316833
 20
15.80839128339904
 10
180.1974958426451
 20
15.69634065110102
 10
180.1958188044671
 20
15.57699685629351
 10
180.1973336794232
 20
15.4503259215511
 10
180.1956582478671
 20
15.32301588016117
 10
180.2058844271658
 20
15.22451566404465
 10
180.1779006596581
 20
15.08388702625629
 10
180.3508029999306
 20
15.13989551134096
 10
180.4645020202773
 20
15.12719951478499
 10
180.584015167224
 20
15.13448377051256
 10
180.6888491425072
 20
15.13878017056753
 10
180.7843084898612
 20
15.14330568258976
 10
180.8763823507032
 20
15.151492011462
 10
180.9476551782438
 20
15.14643850638112
 10
181.0544931705687
 20
15.18536425031676
 10
181.0226603598035
 20
15.1051712200588
 10
181.026616450393
 20
15.05562936846033
 10
181.0234502392013
 20
15.00557478039817
 10
181.0550791490587
 20
14.92128847612022
 10
180.9210133677692
 20
14.97425365495155
 10
180.8292322793201
 20
14.96540080890442
 10
180.7079729189603
 20
14.97570049965155
 10
180.5914113119772
 20
14.97748911767502
 10
180.4783375745879
 20
14.97787017109695
 10
180.3679246308471
 20
14.98415449472181
 10
180.2898124067841
 20
14.97189133255364
 10
180.1913625833643
 20
15.00453887616125
 10
180.2012355173561
 20
14.94769748054206
 10
180.1973923244404
 20
14.91392130557982
 10
180.1966789884268
 20
14.87119604709411
 10
180.1963369642975
 20
14.83401607262153
 10
180.1963834255345
 20
14.79487237370771
 10
180.1963649429927
 20
14.75716849497686
 10
180.1963703431806
 20
14.71944955232402
 10
180.1963697214201
 20
14.6899432474515
 10
180.1963698151545
 20
14.65873577699301
 10
180.1963704287921
 20
14.61414424908085
 10
180.1963671499336
 20
14.5596395650885
 10
180.1963759623482
 20
14.51505540201448
 10
180.1963359653415
 20
14.43117808585739
 10
180.1976024270254
 20
14.31737520677678
 10
180.1950274117843
 20
14.16830395933709
 10
180.206500938172
 20
14.06597203813906
 10
180.1823506222263
 20
13.93338903885832
 10
180.3332993946477
 20
13.97895732272021
 10
180.4428436671556
 20
13.96427012162349
 10
180.5733970473921
 20
13.96920435125062
 10
180.6990312209514
 20
13.97257705323362
 10
180.8188730625602
 20
13.97711497498773
 10
180.9391362611427
 20
13.99048536182004
 10
181.0222761663515
 20
13.98068712782598
 10
181.1456080421077
 20
14.04126214623318
 10
181.1244269203956
 20
13.98532460134022
 10
181.1235950270116
 20
13.95939249372345
 10
181.1218963707558
 20
13.93197256190939
 10
181.1217974888829
 20
13.89738195206384
 10
181.120365930133
 20
13.86050408220767
 10
181.1532804192191
 20
13.76846841021806
 10
180.9551306988108
 20
13.8413201597483
 10
180.830054829489
 20
13.81825726508607
 10
180.6673071295156
 20
13.82454021985786
 10
180.5129366450002
 20
13.82260943909927
 10
180.3566670436943
 20
13.82393762599268
 10
180.1970544465282
 20
13.82059872487863
 10
180.0540326342237
 20
13.83265795728239
 10
179.819714488163
 20
13.76952001976922
 10
179.9173810751197
 20
14.05620527466318
 10
179.9006868780058
 20
14.24988308142661
 10
179.9146296709684
 20
14.47848242880295
 10
179.9142987846632
 20
14.63384593955048
 10
179.9143078119263
 20
14.73966336444126
 10
179.9143055876316
 20
14.80205784124215
 10
179.9143065551888
 20
14.89220425248327
 10
179.9143065473261
 20
14.99621167157438
 10
179.9143053861101
 20
15.10022131375296
 10
179.9143090971502
 20
15.19036243688769
 10
179.9143011051052
 20
15.25276803097216
 10
179.9143334275017
 20
15.35868835961119
 10
179.9131440788319
 20
15.51626716544741
 10
179.9082216489256
 20
15.66528219822065
 10
179.9057788376618
 20
15.7392326039819
 97
        1
330
A8
 75
     1
 76
     2
 52
45.0
 41
0.1
 77
     0
 78
     1
 53
45.0
 43
0.0
 44
0.0
 45
-0.282842712474619
 46
0.0
 79
     0
 98
        1
 10
0.0
 20
0.0
  0
HATCH
  5
C6
330
48
100
AcDbEntity
  8
1
  6
Continuous
 62
     2
100
AcDbHatch
 10
0.0
 20
0.0
 30
0.0
210
0.0
220
0.0
230
1.0
  2
CUSTOM4
 70
     0
 71
     1
 91
        1
 92
        1
 93
        1
 72
     4
 94
        3
 73
     0
 74
     0
 95
       47
 96
       43
 40
0.0
 40
0.0
 40
0.0
 40
0.0
 40
0.2207912809957089
 40
0.4459404186302985
 40
0.4902387190459481
 40
0.5327473892722148
 40
0.5742260451226042
 40
0.6155432630560768
 40
0.6568164066316254
 40
0.6982511618781465
 40
0.7407663929317406
 40
0.785136674317631
 40
1.010288833836434
 40
1.231080507002274
 40
1.451765243652515
 40
1.676638205891798
 40
1.720461045359767
 40
1.830018144043632
 40
1.972442372353263
 40
2.114866600677633
 40
2.224423699395258
 40
2.268246538883499
 40
2.493628801207339
 40
2.715602830286739
 40
2.934211330706484
 40
3.14950236985547
 40
3.231387784851115
 40
3.318231873854264
 40
3.405143198198252
 40
3.486970301720688
 40
3.702258172494126
 40
3.920866283534345
 40
4.142839325932136
 40
4.368221903865606
 40
4.412044743360086
 40
4.521601842096102
 40
4.664026070452582
 40
4.80645029880929
 40
4.916007397546982
 40
4.959830237043306
 40
5.184703515847335
 40
5.405387250767723
 40
5.405387250767723
 40
5.405387250767723
 40
5.405387250767723
 10
182.6507427258646
 20
15.73406440953873
 10
182.6568139420003
 20
15.79758482501211
 10
182.6690762107244
 20
15.92587938689628
 10
182.5604706879412
 20
16.20166220174077
 10
182.6761985896603
 20
16.17188133432053
 10
182.7171842509015
 20
16.16765556262821
 10
182.7591205797518
 20
16.16310446389607
 10
182.800419662571
 20
16.16201982929485
 10
182.8417032115556
 20
16.16310338195227
 10
182.8836148270647
 20
16.16766112711343
 10
182.924598354902
 20
16.1718743020973
 10
183.0404922843489
 20
16.20177611317533
 10
182.9295652727457
 20
15.92339806609892
 10
182.9574856365266
 20
15.74283140824952
 10
182.940426734697
 20
15.50961042346472
 10
182.9414637282103
 20
15.34906622543145
 10
182.9414099399404
 20
15.22284817558722
 10
182.9414277372481
 20
15.12428963336241
 10
182.941418858108
 20
14.99280702442963
 10
182.9414263928033
 20
14.8613284496865
 10
182.9414129405128
 20
14.7627622269409
 10
182.9414531717492
 20
14.63639735624152
 10
182.9406746403818
 20
14.47482068822869
 10
182.9565958319266
 20
14.24361821892913
 10
182.9333468885408
 20
14.05874351972001
 10
183.0360183444367
 20
13.78935602770057
 10
182.8820238362837
 20
13.82660112685817
 10
182.8004129802832
 20
13.82137994680535
 10
182.7188192292582
 20
13.8266062037835
 10
182.5648513666843
 20
13.78937069885389
 10
182.6674183421918
 20
14.05875129862879
 10
182.6442045316089
 20
14.24361585325414
 10
182.6600444655139
 20
14.47482218565638
 10
182.6593296313428
 20
14.63639712308503
 10
182.6593664569907
 20
14.7627623121052
 10
182.6593549000271
 20
14.86132756635982
 10
182.6593575019214
 20
14.99281127417219
 10
182.659364853178
 20
15.124275480312
 10
182.6593442541352
 20
15.22287786275326
 10
182.6594082192029
 20
15.34896149354426
 10
182.658173394759
 20
15.51210091383772
 10
182.6532040396746
 20
15.6605418377755
 10
182.6507427258646
 20
15.73406440953873
 97
        1
330
A9
 75
     1
 76
     2
 52
45.0
 41
0.1
 77
     0
 78
     1
 53
45.0
 43
0.0
 44
0.0
 45
-0.282842712474619
 46
0.0
 79
     0
 98
        1
 10
0.0
 20
0.0
  0
HATCH
  5
C7
330
48
100
AcDbEntity
  8
1
  6
Continuous
 62
     2
100
AcDbHatch
 10
0.0
 20
0.0
 30
0.0
210
0.0
220
0.0
230
1.0
  2
CUSTOM5
 70
     0
 71
     1
 91
        1
 92
        1
 93
        1
 72
     4
 94
        3
 73
     0
 74
     0
 95
      118
 96
      114
 40
0.0
 40
0.0
 40
0.0
 40
0.0
 40
0.1054708162973424
 40
0.2466098270051938
 40
0.3965912874591456
 40
0.5285525069754212
 40
0.6156245055642757
 40
0.6431434105798084
 40
0.7036850037986971
 40
0.7642265984505566
 40
0.7917455052356053
 40
0.9287404319990796
 40
1.106572819088159
 40
1.287544879681153
 40
1.31757830803067
 40
1.399928030857307
 40
1.522968204800081
 40
1.675072986590702
 40
1.844616533180783
 40
2.019973001638844
 40
2.189516548880157
 40
2.341621331585497
 40
2.464661506320633
 40
2.547011229647197
 40
2.577044658168161
 40
2.603797890893231
 40
2.662655002908918
 40
2.72151211494973
 40
2.74826534770291
 40
2.774215307344985
 40
2.845959313407317
 40
2.954338556588517
 40
3.090194227585695
 40
3.24436751710066
 40
3.407699615844422
 40
3.57103171453957
 40
3.72520500392025
 40
3.861060674729751
 40
3.969439917716445
 40
4.041183923629118
 40
4.067133883213112
 40
4.31188674601228
 40
4.547897258335625
 40
4.764747083044094
 40
4.952749679951886
 40
5.045772974196032
 40
5.137862019645101
 40
5.33054316979312
 40
5.553448265244098
 40
5.795083855888279
 40
6.043293412177363
 40
6.285761695541309
 40
6.313902908752821
 40
6.384255941793411
 40
6.475714884766999
 40
6.567173827759033
 40
6.637526860839811
 40
6.665668074074174
 40
6.692018920328147
 40
6.749990782071212
 40
6.80796264379058
 40
6.834313490018051
 40
6.85639308424533
 40
6.913335195649953
 40
6.991194817302588
 40
7.07602694228385
 40
7.153886563725312
 40
7.210828674844866
 40
7.232908268931201
 40
7.258199334923722
 40
7.324875781592374
 40
7.41914248192503
 40
7.527204308841974
 40
7.635266135230557
 40
7.729532834168543
 40
7.796209279292865
 40
7.821500344594812
 40
7.84465298885091
 40
7.899863140541689
 40
7.965759128053884
 40
8.020969279771226
 40
8.044121924046692
 40
8.069356610160845
 40
8.109134395441618
 40
8.13223810019133
 40
8.193147867786696
 40
8.279261678876868
 40
8.377977512674082
 40
8.476693347146865
 40
8.56280716041192
 40
8.623716930826706
 40
8.646820636853658
 40
8.67198879377447
 40
8.73490918582841
 40
8.816705695189125
 40
8.898502204815724
 40
8.961422597378213
 40
8.986590754551326
 40
9.012941600733479
 40
9.070913462380561
 40
9.12888532408205
 40
9.155236170325372
 40
9.180404327929415
 40
9.243324721948516
 40
9.32512123421231
 40
9.406917746637992
 40
9.469838141978476
 40
9.49500628827125
 40
9.517811184379392
 40
9.572192090487391
 40
9.637098333281623
 40
9.691479239515822
 40
9.71428412564386
 40
9.71428412564386
 40
9.71428412564386
 40
9.71428412564386
 10
185.2874469028653
 20
15.2688916318772
 10
185.3090990569037
 20
15.24111869242812
 10
185.3597257109474
 20
15.17618054561236
 10
185.4349383202592
 20
15.06891060312898
 10
185.5248482274346
 20
14.95377438266626
 10
185.5709169676674
 20
14.85357045748318
 10
185.6655825294655
 20
14.78434006814943
 10
185.6204439320414
 20
14.73771639678273
 10
185.594704778579
 20
14.69660308866038
 10
185.5645196708012
 20
14.66065971727938
 10
185.5193684730561
 20
14.58579782596094
 10
185.4710504458563
 20
14.80782524253607
 10
185.3968539713072
 20
14.84510677337707
 10
185.2836047324605
 20
15.11610202130598
 10
185.288513357817
 20
15.00095328446228
 10
185.2868486556306
 20
14.92836675781626
 10
185.2876830076714
 20
14.80625588483985
 10
185.2873609540264
 20
14.65913800810459
 10
185.2875076912456
 20
14.49307063956556
 10
185.2872950092722
 20
14.32187554608601
 10
185.2879497252035
 20
14.15552828635497
 10
185.2859192461139
 20
14.00935173055692
 10
185.291346039993
 20
13.88471047474609
 10
185.2804930868708
 20
13.81718656540625
 10
185.2956739155555
 20
13.75549061417021
 10
185.2457895108133
 20
13.76727503897001
 10
185.2017150342521
 20
13.75943822779968
 10
185.1582371630201
 20
13.76760441372702
 10
185.1092346786488
 20
13.75538056738467
 10
185.1218731234825
 20
13.80960667249312
 10
185.1130182968449
 20
13.86936918907556
 10
185.1175058770314
 20
13.9792202904437
 10
185.1157960135991
 20
14.11029975405678
 10
185.1163550915986
 20
14.26198011444326
 10
185.1161928768694
 20
14.42211074929953
 10
185.1162269924674
 20
14.58236865674566
 10
185.1162514960128
 20
14.73370247520439
 10
185.1161453543224
 20
14.86582156338601
 10
185.1164299141932
 20
14.97294802533194
 10
185.1158675547567
 20
15.03808619579473
 10
185.1180765083689
 20
15.16618957858674
 10
185.0319435998603
 20
14.79097610391576
 10
184.9555140818501
 20
14.63918193123392
 10
184.8660040767833
 20
14.47766206446308
 10
184.7640413217327
 20
14.20471848820171
 10
184.7187976491039
 20
14.36717346596509
 10
184.6102355941671
 20
14.45605432058121
 10
184.7995791751753
 20
14.60549794961409
 10
184.85653405457
 20
14.79749136974927
 10
184.9717520993353
 20
15.02899622906756
 10
184.9940151630134
 20
15.21797259759062
 10
185.177190515214
 20
15.49454089325932
 10
185.0538033597553
 20
15.48698978832095
 10
184.9925684166834
 20
15.48856772366119
 10
184.9081999617065
 20
15.48882592573674
 10
184.8204235085966
 20
15.48544845751206
 10
184.7656768696123
 20
15.49394814982021
 10
184.7104703026025
 20
15.48048561049788
 10
184.7222823035537
 20
15.52931442126764
 10
184.7142496151795
 20
15.57269004896709
 10
184.7228186104679
 20
15.61509438309573
 10
184.7102943409158
 20
15.66267796552118
 10
184.7555101538736
 20
15.65267212995109
 10
184.8014815562725
 20
15.65894105174061
 10
184.877722204771
 20
15.65593561405872
 10
184.9561296131994
 20
15.65770448278541
 10
185.0323992648933
 20
15.6546479398166
 10
185.0783009459475
 20
15.66103971376176
 10
185.12317339654
 20
15.65093822978897
 10
185.1105552275633
 20
15.70157201581898
 10
185.1191936582707
 20
15.7550126188207
 10
185.1152361595443
 20
15.84863255131681
 10
185.1162325068335
 20
15.95112606688924
 10
185.1171927413073
 20
16.05353270248164
 10
185.1133211458005
 20
16.14735929609321
 10
185.1217789814364
 20
16.20036542840354
 10
185.1093075932835
 20
16.2521143565119
 10
185.154210638985
 20
16.23850747226758
 10
185.1955083836772
 20
16.24100480320586
 10
185.2595344281051
 20
16.23648060574488
 10
185.2986111148787
 20
16.2278100304331
 10
185.3476543498743
 20
16.23515102070686
 10
185.322508003059
 20
16.19602896051762
 10
185.2815901333723
 20
16.20563842455807
 10
185.2910109616604
 20
16.15540148169779
 10
185.2855647318746
 20
16.1038594563949
 10
185.2881699601804
 20
16.0195970758452
 10
185.2870102202153
 20
15.92559135583408
 10
185.2883591064231
 20
15.83196865395526
 10
185.2849970101508
 20
15.74679517552222
 10
185.2920959917769
 20
15.69716856072044
 10
185.2812569154545
 20
15.64993694969989
 10
185.3304010225246
 20
15.66201674936852
 10
185.3794877630147
 20
15.65447393363011
 10
185.4573714280642
 20
15.65686070361433
 10
185.5350365172896
 20
15.65899381905415
 10
185.5845393931356
 20
15.65193391922454
 10
185.634459475064
 20
15.66360151936214
 10
185.6223198516882
 20
15.61540235371393
 10
185.6305838229144
 20
15.57249219801237
 10
185.6223198650784
 20
15.52958201851385
 10
185.6344594549855
 20
15.48138288754865
 10
185.5845395158747
 20
15.49305034471512
 10
185.5350350651204
 20
15.48599202435047
 10
185.4573784382972
 20
15.48811665228604
 10
185.379464386576
 20
15.49053389365761
 10
185.3304500352717
 20
15.48291848194486
 10
185.2813246108943
 20
15.49507952557593
 10
185.2915559988571
 20
15.45073013424159
 10
185.2856677678053
 20
15.40925436202912
 10
185.2878788305569
 20
15.34915394315303
 10
185.2874109346146
 20
15.3022578276289
 10
185.2874386992913
 20
15.27650146418197
 10
185.2874469028653
 20
15.2688916318772
 97
        1
330
AA
 75
     1
 76
     2
 52
45.0
 41
0.1
 77
     0
 78
     1
 53
45.0
 43
0.0
 44
0.0
 45
-0.282842712474619
 46
0.0
 79
     0
 98
        1
 10
0.0
 20
0.0
  0
HATCH
  5
C8
330
48
100
AcDbEntity
  8
1
  6
Continuous
 62
     2
100
AcDbHatch
 10
0.0
 20
0.0
 30
0.0
210
0.0
220
0.0
230
1.0
  2
CUSTOM6
 70
     0
 71
     1
 91
        1
 92
        1
 93
        1
 72
     4
 94
        3
 73
     0
 74
     0
 95
       91
 96
       87
 40
0.0
 40
0.0
 40
0.0
 40
0.0
 40
0.0345987051695434
 40
0.1258134969461085
 40
0.2547723404888703
 40
0.4026032099153841
 40
0.5504340793416704
 40
0.679392922883608
 40
0.770607714657132
 40
0.8052064287780925
 40
1.124852390615277
 40
1.42740223630887
 40
1.706356627453508
 40
1.955541417875183
 40
2.169485938566325
 40
2.344350786664791
 40
2.480568411561921
 40
2.590440557428916
 40
2.649189927151116
 40
2.749320643306309
 40
2.912632739879998
 40
3.1477456560002
 40
3.244827496385133
 40
3.338490056946777
 40
3.583815413207201
 40
3.761423943238567
 40
3.886956104362744
 40
3.98585545188695
 40
4.091766255337862
 40
4.250186473812027
 40
4.42273431508465
 40
4.628285684838727
 40
4.872093227758571
 40
5.152549652145682
 40
5.464967135837665
 40
5.803201477852593
 40
6.160362988814073
 40
6.193449448276128
 40
6.284170385501782
 40
6.419718138764623
 40
6.587285046385873
 40
6.774063446723788
 40
6.967245678113742
 40
7.154024078817756
 40
7.321590987026114
 40
7.457138740890444
 40
7.54785967855618
 40
7.58094613818274
 40
7.60853308471479
 40
7.669224367077757
 40
7.729915649429969
 40
7.757502595950016
 40
7.790278062553498
 40
7.880146277430968
 40
8.014419963180401
 40
8.18041184239793
 40
8.3654346376794
 40
8.556801071622672
 40
8.741823866830785
 40
8.907815745916352
 40
9.042089431507478
 40
9.131957646249603
 40
9.16473311279718
 40
9.415425063140114
 40
9.667986180958588
 40
9.694169807462755
 40
9.756607686047714
 40
9.83113031532252
 40
9.893568193899984
 40
9.919751820398801
 40
9.950967964690621
 40
9.996421631210785
 40
10.22087981037468
 40
10.44341866197557
 40
10.47847970788869
 40
10.5709133743877
 40
10.7015954546125
 40
10.85140174170378
 40
11.00120802880501
 40
11.13189010907406
 40
11.22432377583031
 40
11.2593848093898
 40
11.28697175596168
 40
11.34766303835941
 40
11.40835432042091
 40
11.43594125892125
 40
11.43594125892125
 40
11.43594125892125
 40
11.43594125892125
 10
190.081811433329
 20
15.55242795125078
 10
190.0702785844942
 20
15.55242790287917
 10
190.0283409444999
 20
15.55242773704165
 10
189.9434129719027
 20
15.5524312580091
 10
189.8207688553129
 20
15.55240926435879
 10
189.6791206916994
 20
15.55250801177055
 10
189.537975369849
 20
15.55214686232421
 10
189.4141351317905
 20
15.5532188360909
 10
189.3317217825382
 20
15.55092249091269
 10
189.1727791229693
 20
15.5604856937342
 10
189.3503402353376
 20
15.19785394311371
 10
189.3379739205453
 20
14.95243127723116
 10
189.4064519473865
 20
14.66862501324836
 10
189.469302432097
 20
14.43250999939037
 10
189.5452253431729
 20
14.23326740396129
 10
189.6303189577016
 20
14.07745347451377
 10
189.7244607592936
 20
13.97657857781393
 10
189.8282648207727
 20
13.92465852638969
 10
189.9125872030774
 20
13.97606484379616
 10
189.9351322179452
 20
14.09144544037518
 10
189.9745730975371
 20
14.21885149702382
 10
189.9202919734942
 20
14.53622328086754
 10
190.0451218072474
 20
14.38982180140905
 10
190.2019291513604
 20
14.35795300331174
 10
190.0947720007058
 20
14.12421357767627
 10
190.0808711209868
 20
13.95972776583657
 10
190.0234709467226
 20
13.83130869122481
 10
189.9335020145008
 20
13.76018802352827
 10
189.8095274657878
 20
13.74432324142253
 10
189.663427319686
 20
13.77993797554172
 10
189.5243894320284
 20
13.90000570500277
 10
189.4102003962144
 20
14.07435682550321
 10
189.3146141301487
 20
14.2994660311124
 10
189.2318652572626
 20
14.56388246006442
 10
189.1807179256412
 20
14.88187933098544
 10
189.0770189207339
 20
15.15543728488912
 10
189.2042841208519
 20
15.56005818612869
 10
189.0357890623019
 20
15.55112367849679
 10
188.9511995787077
 20
15.55315961418365
 10
188.8189876387628
 20
15.55213937388407
 10
188.6560505094104
 20
15.5525323031843
 10
188.4733759170533
 20
15.5523569631337
 10
188.2847057373383
 20
15.55260105307469
 10
188.1014469020189
 20
15.55185657906237
 10
187.9404746832719
 20
15.55416360522427
 10
187.8029808335276
 20
15.54799804883663
 10
187.7289590372311
 20
15.56032838458212
 10
187.6613215186858
 20
15.54329323723557
 10
187.673237371927
 20
15.59524438447528
 10
187.6655677285694
 20
15.64071424966529
 10
187.6732592225116
 20
15.68614453703704
 10
187.6613141797762
 20
15.73802395984569
 10
187.7283588305868
 20
15.72119143490262
 10
187.8017375665677
 20
15.73335409092668
 10
187.9379128305273
 20
15.72727231074956
 10
188.0973811801513
 20
15.72954834315055
 10
188.2789173085837
 20
15.7288123399896
 10
188.465803486218
 20
15.72905954196131
 10
188.6468012316836
 20
15.72886400799251
 10
188.8080802578879
 20
15.72932234714837
 10
188.9393882124888
 20
15.72812673751204
 10
189.0225051322597
 20
15.73051347319741
 10
189.1556236547816
 20
15.72230605725462
 10
189.0645893502658
 20
15.97752868952654
 10
188.978963307442
 20
16.24164358328247
 10
189.0990589003454
 20
16.22904442969165
 10
189.1514264948544
 20
16.22694235763075
 10
189.2214497569715
 20
16.22535399889657
 10
189.2671922337817
 20
16.21602567538113
 10
189.3220812646933
 20
16.22545966915428
 10
189.2963574785682
 20
16.17733028655169
 10
189.1825397571452
 20
16.18266829744174
 10
189.3159346621137
 20
15.95449174576774
 10
189.1943658735471
 20
15.72156856595921
 10
189.3223188769413
 20
15.73087258884437
 10
189.4049048406461
 20
15.72801001754678
 10
189.5307214850824
 20
15.729234374123
 10
189.6741469838059
 20
15.72932431888963
 10
189.8157420951728
 20
15.72746163183851
 10
189.9459127249969
 20
15.73333075937161
 10
190.0193452286191
 20
15.72070340823201
 10
190.0891112922097
 20
15.73877563110411
 10
190.0775772605397
 20
15.68612850546325
 10
190.0833184346683
 20
15.64221317686548
 10
190.081661577091
 20
15.59089982676548
 10
190.0817757561671
 20
15.56158792021636
 10
190.081811433329
 20
15.55242795125078
 97
        1
330
AB
 75
     1
 76
     2
 52
45.0
 41
0.1
 77
     0
 78
     1
 53
45.0
 43
0.0
 44
0.0
 45
-0.282842712474619
 46
0.0
 79
     0
 98
        1
 10
0.0
 20
0.0
  0
HATCH
  5
C9
330
48
100
AcDbEntity
  8
1
  6
Continuous
 62
     2
100
AcDbHatch
 10
0.0
 20
0.0
 30
0.0
210
0.0
220
0.0
230
1.0
  2
CUSTOM7
 70
     0
 71
     1
 91
        1
 92
        1
 93
        1
 72
     4
 94
        3
 73
     0
 74
     0
 95
       75
 96
       71
 40
0.0
 40
0.0
 40
0.0
 40
0.0
 40
0.0342546099129691
 40
0.1245622414432346
 40
0.2522385480897536
 40
0.398599192294068
 40
0.5449598364980839
 40
0.6726361431438834
 40
0.7629437746736978
 40
0.797198393529799
 40
1.101723623449638
 40
1.408591244036586
 40
1.433332471690291
 40
1.487763172450088
 40
1.54219387308192
 40
1.566935100592469
 40
1.923523931821837
 40
2.271755704953637
 40
2.590579755100908
 40
2.858943305581195
 40
2.889120339309188
 40
2.918305855191169
 40
2.94136664553129
 40
2.996357760973179
 40
3.061992318140723
 40
3.116983433626918
 40
3.140044223997596
 40
3.41127312293657
 40
3.73244161974129
 40
3.761068217532988
 40
3.83778749963055
 40
3.948858699126187
 40
4.080541049104562
 40
4.219093782625945
 40
4.350776132722494
 40
4.461847332405828
 40
4.538566614678558
 40
4.567193212544804
 40
4.594907573999063
 40
4.66638145355763
 40
4.764111044011241
 40
4.870592538126044
 40
4.968322128642495
 40
5.039796008287208
 40
5.067510369784639
 40
5.094263603185853
 40
5.153120716668489
 40
5.211977830150936
 40
5.23873106355194
 40
5.272290535139208
 40
5.363380529445012
 40
5.497618415781718
 40
5.660621563453931
 40
5.838007341749632
 40
6.015393119911012
 40
6.178396267038609
 40
6.312634151842589
 40
6.403724143059579
 40
6.437283612672674
 40
6.46403684626129
 40
6.522893960004906
 40
6.581751071484174
 40
6.608504301591118
 40
6.637253941281266
 40
6.711397748903146
 40
6.81277805728373
 40
6.923237199249506
 40
7.024617507624122
 40
7.098761315207803
 40
7.127510946007753
 40
7.127510946007753
 40
7.127510946007753
 40
7.127510946007753
 10
188.4418622390565
 20
14.95849128473263
 10
188.4418622819707
 20
14.94707313408719
 10
188.441862448113
 20
14.90555257842628
 10
188.4418593081787
 20
14.8214692200377
 10
188.4418788279802
 20
14.70004497322327
 10
188.4417912187738
 20
14.55980494047446
 10
188.4421116235231
 20
14.42006556794575
 10
188.4411605909741
 20
14.29745038894928
 10
188.4431978595968
 20
14.21587074438041
 10
188.4349433178745
 20
14.06271267077697
 10
188.7430797940902
 20
14.2256023605472
 10
189.0350645173735
 20
14.39482938688002
 10
189.0408354448708
 20
14.25973235781911
 10
189.0455471719891
 20
14.21617221160445
 10
189.0482535411919
 20
14.17211249350546
 10
189.0672545672961
 20
14.02272590363132
 10
188.6583942247302
 20
14.08681172241262
 10
188.3793710348833
 20
13.97296341411018
 10
188.1018081587166
 20
13.87364095811134
 10
187.8099837184401
 20
13.91630687596368
 10
187.7869144678658
 20
13.81321679744536
 10
187.7537474383333
 20
13.78691091244472
 10
187.7480653962738
 20
13.83455309036304
 10
187.7284214559045
 20
13.87180336115072
 10
187.7095089485623
 20
13.93007387847565
 10
187.6942849867707
 20
13.97385201007806
 10
187.6477246372936
 20
14.08759421046314
 10
187.989089731245
 20
14.05576301120046
 10
188.267964936739
 20
14.02161435106478
 10
188.2617753034907
 20
14.16913976479652
 10
188.2630935452774
 20
14.24013150908832
 10
188.262483168995
 20
14.34719767958662
 10
188.2625871570725
 20
14.47398529785997
 10
188.2629987964057
 20
14.6084924349605
 10
188.261390784197
 20
14.73395549951183
 10
188.2659902567927
 20
14.84505246719117
 10
188.256418650221
 20
14.90761886800686
 10
188.2704001783692
 20
14.96595388295001
 10
188.2147384386705
 20
14.95289710582236
 10
188.1575655197822
 20
14.96136307749497
 10
188.0616048925648
 20
14.95729976080635
 10
187.9633767522822
 20
14.95970889852474
 10
187.867258245756
 20
14.95551600613386
 10
187.8104648525812
 20
14.96429346441162
 10
187.7550356873385
 20
14.95094936850121
 10
187.7670679427918
 20
15.00036910959256
 10
187.7592003173937
 20
15.04393988030395
 10
187.766629556383
 20
15.08830469118524
 10
187.7551930564144
 20
15.13902297763991
 10
187.8232102370134
 20
15.12162460757742
 10
187.8968496879747
 20
15.13417450237187
 10
188.0325064058211
 20
15.12799677011096
 10
188.1884909024526
 20
15.13029203093083
 10
188.3615926358144
 20
15.12940968262529
 10
188.5346942964182
 20
15.13029207142407
 10
188.6906789811218
 20
15.12799662955549
 10
188.8263351889797
 20
15.1341748626243
 10
188.8999756705654
 20
15.12162394218334
 10
188.9679914174724
 20
15.13902373012142
 10
188.9565590885923
 20
15.08830130414554
 10
188.9639539458297
 20
15.04397060811107
 10
188.9562039912272
 20
15.00028307550195
 10
188.9681203741877
 20
14.95063590098476
 10
188.9108170223618
 20
14.96461411338425
 10
188.8520145789773
 20
14.95539755673253
 10
188.75252936332
 20
14.95952268164928
 10
188.6494280098349
 20
14.95822760025886
 10
188.5537846354575
 20
14.9585407707764
 10
188.4857467971616
 20
14.95848776697144
 10
188.4514462213444
 20
14.95849051871655
 10
188.4418622390565
 20
14.95849128473263
 97
        1
330
AC
 75
     1
 76
     2
 52
45.0
 41
0.1
 77
     0
 78
     1
 53
45.0
 43
0.0
 44
0.0
 45
-0.282842712474619
 46
0.0
 79
     0
 98
        1
 10
0.0
 20
0.0
  0
HATCH
  5
CA
330
48
100
AcDbEntity
  8
1
  6
Continuous
 62
     2
100
AcDbHatch
 10
0.0
 20
0.0
 30
0.0
210
0.0
220
0.0
230
1.0
  2
CUSTOM8
 70
     0
 71
     1
 91
        1
 92
        1
 93
        1
 72
     4
 94
        3
 73
     0
 74
     0
 95
       15
 96
       11
 40
0.0
 40
0.0
 40
0.0
 40
0.0
 40
0.2785535985096844
 40
0.5215624748199034
 40
0.6076917376041083
 40
0.6938210001742013
 40
0.9405019146455473
 40
1.221691403489228
 40
1.300471877081169
 40
1.379252341684982
 40
1.379252341684982
 40
1.379252341684982
 40
1.379252341684982
 10
189.5681493631
 20
16.22930267330382
 10
189.6296017794179
 20
16.17691646592717
 10
189.7446649974114
 20
16.07882876798226
 10
190.0397348497245
 20
15.92889785897217
 10
189.9025147631857
 20
15.84343227515014
 10
189.8041227843778
 20
15.71085785201555
 10
189.7130033590651
 20
16.01616985781425
 10
189.3636839480655
 20
16.07967869465375
 10
189.511925837657
 20
16.17896509880879
 10
189.5494081874237
 20
16.21252348402384
 10
189.5681493631
 20
16.22930267330382
 97
        1
330
AD
 75
     1
 76
     2
 52
45.0
 41
0.1
 77
     0
 78
     1
 53
45.0
 43
0.0
 44
0.0
 45
-0.282842712474619
 46
0.0
 79
     0
 98
        1
 10
0.0
 20
0.0
  0
HATCH
  5
CB
330
48
100
AcDbEntity
  8
1
  6
Continuous
 62
     2
100
AcDbHatch
 10
0.0
 20
0.0
 30
0.0
210
0.0
220
0.0
230
1.0
  2
CUSTOM9
 70
     0
 71
     1
 91
        1
 92
        1
 93
        1
 72
     4
 94
        3
 73
     0
 74
     0
 95
       35
 96
       31
 40
0.0
 40
0.0
 40
0.0
 40
0.0
 40
0.0335231036620673
 40
0.0713218571712105
 40
0.427886668148671
 40
0.8116865841963743
 40
1.198190238000009
 40
1.561379546812685
 40
1.65998317462208
 40
1.759315573807254
 40
2.132719617231118
 40
2.525233363588845
 40
2.910815397779713
 40
3.265244364303341
 40
3.592606723582081
 40
3.964386154604006
 40
4.359942131737825
 40
4.758154118639285
 40
4.84384653869988
 40
4.936650065543272
 40
5.256616602537425
 40
5.581707404416136
 40
5.899719158308231
 40
6.198363494280818
 40
6.466301046615831
 40
6.493895311537153
 40
6.559697020196974
 40
6.638234543442578
 40
6.704036252154387
 40
6.731630508423192
 40
6.731630508423192
 40
6.731630508423192
 40
6.731630508423192
 10
191.973601056867
 20
16.23463843719135
 10
191.967600609779
 20
16.22480690542324
 10
191.9548344099157
 20
16.20388988579798
 10
191.7949362006558
 20
16.17127126532689
 10
192.2322025842336
 20
15.882066803367
 10
192.4345394828263
 20
15.6804113835844
 10
192.6819564267973
 20
15.43749387603274
 10
193.1831513624608
 20
15.36047662757778
 10
193.012556219897
 20
15.21876939174655
 10
192.93832994632
 20
15.0171036620911
 10
192.6131432248189
 20
15.36956287174724
 10
192.3277741670664
 20
15.53175212559562
 10
192.0337604077658
 20
15.7368713005305
 10
191.8084452691134
 20
16.21827488595455
 10
191.5993085055522
 20
15.75343046609225
 10
191.3207873674834
 20
15.5435095225291
 10
191.0371383177209
 20
15.37424456359989
 10
190.7078639527832
 20
15.00142360907935
 10
190.6277012318225
 20
15.19708014459006
 10
190.4759724909743
 20
15.32491104190589
 10
190.9083395826796
 20
15.40454031765936
 10
191.0962565329766
 20
15.60026634915473
 10
191.3468477420503
 20
15.81632996916755
 10
191.5714350470162
 20
15.98190992300058
 10
191.6259775409712
 20
16.26133964636828
 10
191.7494661029011
 20
16.24737950408078
 10
191.806027334452
 20
16.24521268867648
 10
191.8761870984945
 20
16.2404685988136
 10
191.9333414022106
 20
16.23709429350543
 10
191.964419032084
 20
16.2351985471112
 10
191.973601056867
 20
16.23463843719135
 97
        1
330
AE
 75
     1
 76
     2
 52
45.0
 41
0.1
 77
     0
 78
     1
 53
45.0
 43
0.0
 44
0.0
 45
-0.282842712474619
 46
0.0
 79
     0
 98
        1
 10
0.0
 20
0.0
  0
HATCH
  5
CC
330
48
100
AcDbEntity
  8
1
  6
Continuous
 62
     2
100
AcDbHatch
 10
0.0
 20
0.0
 30
0.0
210
0.0
220
0.0
230
1.0
  2
CUSTOM10
 70
     0
 71
     1
 91
        1
 92
        1
 93
        1
 72
     4
 94
        3
 73
     0
 74
     0
 95
       91
 96
       87
 40
0.0
 40
0.0
 40
0.0
 40
0.0
 40
0.0267532254356719
 40
0.0856103386464209
 40
0.144467452199678
 40
0.1712206856618728
 40
0.2039416005642749
 40
0.2955601971652697
 40
0.4362601844617131
 40
0.6162252844507463
 40
0.8256392189705195
 40
1.054685709844432
 40
1.293548478893553
 40
1.532411247938296
 40
1.761457738799561
 40
1.970871673298529
 40
2.150836773256725
 40
2.291536760495586
 40
2.383155356836665
 40
2.415876284101313
 40
2.442629517487959
 40
2.501486630949098
 40
2.560343744424254
 40
2.587096977826529
 40
2.617068194440956
 40
2.699247336756097
 40
2.822032643466382
 40
2.973822353257911
 40
3.143014704823353
 40
3.318007936879904
 40
3.487200288186766
 40
3.638989997548246
 40
3.761775303794745
 40
3.84395444575308
 40
3.873925662229776
 40
3.890812773500482
 40
3.907699884771632
 40
3.937960767857261
 40
3.980983618142348
 40
4.199085915228469
 40
4.439444339237263
 40
4.677588241260939
 40
5.050698317837882
 40
5.448212454763239
 40
5.855291218044736
 40
6.138575438885392
 40
6.417434507584179
 40
6.444551104393838
 40
6.504207617363117
 40
6.563864130314443
 40
6.590980727104013
 40
6.848609460381423
 40
7.109611990668385
 40
7.352910904446031
 40
7.557830220705399
 40
7.587518925913316
 40
7.652834077375734
 40
7.718149228845669
 40
7.747837934061971
 40
7.854880190300891
 40
7.976511257403415
 40
8.369487896592245
 40
8.757514959223595
 40
9.126072419331058
 40
9.460639380392063
 40
9.746695593035748
 40
9.777569943118543
 40
9.80705032093172
 40
9.830377336128855
 40
9.886003295435934
 40
9.95239556942985
 40
10.00802152870621
 40
10.03134854388213
 40
10.21356951009589
 40
10.42203479292866
 40
10.66154556731061
 40
10.91693789564301
 40
11.15832906556559
 40
11.18982674596614
 40
11.27286608520401
 40
11.3902665303334
 40
11.52484752840876
 40
11.65942852648432
 40
11.77682897161471
 40
11.85986831085665
 40
11.8913659823041
 40
11.8913659823041
 40
11.8913659823041
 40
11.8913659823041
 10
190.7027885008197
 20
14.70699600701771
 10
190.7028237765289
 20
14.71587847311984
 10
190.7029366710796
 20
14.74430237047346
 10
190.701298456849
 20
14.79409639169803
 10
190.7069750292911
 20
14.83657564478154
 10
190.6956928731707
 20
14.88730154856848
 10
190.7632296979033
 20
14.8701290074011
 10
190.8388029210701
 20
14.88290227165997
 10
190.9828357056002
 20
14.87629729457383
 10
191.1569419185427
 20
14.87888462206467
 10
191.3639599611005
 20
14.87800591955554
 10
191.5894688172378
 20
14.87828207920028
 10
191.8251162293406
 20
14.87818339658664
 10
192.0607640531349
 20
14.87828184412768
 10
192.2862717580627
 20
14.8780067819079
 10
192.4932934632806
 20
14.87888186270736
 10
192.6673888915289
 20
14.87630522678447
 10
192.8114492071986
 20
14.88288290449215
 10
192.8869691915293
 20
14.87016243405605
 10
192.9545776037031
 20
14.88726400191688
 10
192.9430840140676
 20
14.83674785802941
 10
192.9505104581734
 20
14.79253252226501
 10
192.9428838927986
 20
14.7486796650361
 10
192.9546489459426
 20
14.69878374479326
 10
192.8930788491983
 20
14.71393227712511
 10
192.8256791738673
 20
14.70310665350672
 10
192.7013004056222
 20
14.70852031626235
 10
192.5554428236572
 20
14.70649205390784
 10
192.3893576440086
 20
14.70715777578385
 10
192.2188412621725
 20
14.70689643521241
 10
192.051979085539
 20
14.70721553391093
 10
191.9087346827106
 20
14.70635302590761
 10
191.7773313869835
 20
14.70863300482987
 10
191.7239859134657
 20
14.70407704374201
 10
191.6485188456913
 20
14.70999914992876
 10
191.6769075779233
 20
14.70094169343353
 10
191.7033652409543
 20
14.69725912268928
 10
191.6633522907702
 20
14.66654271968273
 10
191.5713663691868
 20
14.67667591174639
 10
191.543939620707
 20
14.43032502247783
 10
191.4478793967235
 20
14.27499558764374
 10
191.1917277964473
 20
13.94525417931567
 10
191.7627537732762
 20
14.0843002221045
 10
192.0173656320517
 20
14.08291779973363
 10
192.6279647048617
 20
13.99790569242084
 10
192.3340698578083
 20
14.29685417558205
 10
192.013330428652
 20
14.44330856901775
 10
192.1313543360434
 20
14.50025540818287
 10
192.1724716466261
 20
14.52420099873349
 10
192.2156812394412
 20
14.5459975881123
 10
192.317457409445
 20
14.60928721253909
 10
192.4328867625248
 20
14.35147151408779
 10
192.6329591642277
 20
14.21616041113683
 10
192.7269077387229
 20
14.03792795138881
 10
192.9558829746391
 20
13.87997821027047
 10
192.8596031846708
 20
13.82915972576301
 10
192.8167959763779
 20
13.79881292523054
 10
192.7718243528779
 20
13.7746613028146
 10
192.7121720925214
 20
13.72552146747569
 10
192.6789731061325
 20
13.8599747567361
 10
192.5582013350797
 20
14.01594265286582
 10
192.1970976005979
 20
13.88569928059555
 10
191.8385061955541
 20
13.90224694409483
 10
191.4570920450079
 20
13.89331229351864
 10
191.1703455282891
 20
13.8288267167241
 10
190.8592055599717
 20
13.94230668192822
 10
190.8268737818789
 20
13.83122259927765
 10
190.7896178253317
 20
13.81196313850011
 10
190.7865737632754
 20
13.85874784087296
 10
190.7679892860608
 20
13.89806853919136
 10
190.7512436616778
 20
13.95765983478233
 10
190.7383730915753
 20
14.00201969871285
 10
190.7042327806429
 20
14.09106331120203
 10
190.9482714457753
 20
14.0218104294377
 10
191.1441394486672
 20
14.00030369057748
 10
191.2395426381277
 20
14.28226484478462
 10
191.2945135769598
 20
14.44363045421121
 10
191.5159619357156
 20
14.71391177589736
 10
191.3849239381216
 20
14.70548446853734
 10
191.3110026555854
 20
14.70779008496969
 10
191.1977459876244
 20
14.70671378321657
 10
191.0694251807485
 20
14.70707639076508
 10
190.9404252030416
 20
14.70697724466085
 10
190.8287840946292
 20
14.70699932712571
 10
190.7514663970027
 20
14.70699579189669
 10
190.7132876532011
 20
14.7069959584508
 10
190.7027885008197
 20
14.70699600701771
 97
        1
330
AF
 75
     1
 76
     2
 52
45.0
 41
0.1
 77
     0
 78
     1
 53
45.0
 43
0.0
 44
0.0
 45
-0.282842712474619
 46
0.0
 79
     0
 98
        1
 10
0.0
 20
0.0
  0
HATCH
  5
CD
330
48
100
AcDbEntity
  8
1
  6
Continuous
 62
     2
100
AcDbHatch
 10
0.0
 20
0.0
 30
0.0
210
0.0
220
0.0
230
1.0
  2
CUSTOM11
 70
     0
 71
     1
 91
        1
 92
        1
 93
        1
 72
     4
 94
        3
 73
     0
 74
     0
 95
      131
 96
      127
 40
0.0
 40
0.0
 40
0.0
 40
0.0
 40
0.019557702982617
 40
0.042649053746157
 40
0.2863607575856099
 40
0.5344948436188882
 40
0.7842238845572582
 40
0.8737315789466309
 40
0.9803832810311593
 40
1.092842274516908
 40
1.199761146656668
 40
1.289788768186394
 40
1.351573580786128
 40
1.370727117561372
 40
1.416400936017804
 40
1.470914848355948
 40
1.516588666791772
 40
1.535742203552854
 40
1.634216592293159
 40
1.760283341174952
 40
1.897966686682084
 40
2.031216387368934
 40
2.049689751137928
 40
2.101115601646863
 40
2.179502577739982
 40
2.278859318314096
 40
2.393194462258754
 40
2.516516648383867
 40
2.642834515405994
 40
2.766156701983498
 40
2.880491846754613
 40
2.979848588358653
 40
3.058235565443831
 40
3.109661416668985
 40
3.128134780704161
 40
3.146783742386477
 40
3.19125434331531
 40
3.244332157315912
 40
3.288802758225787
 40
3.307451719895058
 40
3.32771785384467
 40
3.38374775358003
 40
3.468388665924421
 40
3.574487837698726
 40
3.69489251572883
 40
3.822449946851967
 40
3.950007377920354
 40
4.070412055800446
 40
4.176511227367998
 40
4.261152139501444
 40
4.317182039076638
 40
4.337448172964557
 40
4.620011002696187
 40
4.885096638397412
 40
4.945373043518236
 40
5.014107710488588
 40
5.07048172765192
 40
5.319246955636398
 40
5.584812164505848
 40
5.859000912056701
 40
6.133746937541882
 40
6.401732212968715
 40
6.420736683995334
 40
6.472845717450928
 40
6.550702743893912
 40
6.646951193874121
 40
6.754234497930445
 40
6.865196086587251
 40
6.97247939035771
 40
7.0687278397719
 40
7.146584865450909
 40
7.198693898189139
 40
7.217698368905279
 40
7.234950401630759
 40
7.276089864269811
 40
7.32519180351593
 40
7.366331266090325
 40
7.383583298769678
 40
7.402779163492084
 40
7.453386443254487
 40
7.524934666445517
 40
7.606953361405856
 40
7.688972056429036
 40
7.760520279784287
 40
7.811127559734557
 40
7.830323424546179
 40
7.847844055299807
 40
7.894799345666846
 40
7.962779392744532
 40
8.043374293560575
 40
8.128174145149478
 40
8.208769044817279
 40
8.27674909037698
 40
8.323704379669538
 40
8.341225010056268
 40
8.358497614800445
 40
8.40167912668665
 40
8.45781509218568
 40
8.513951057728141
 40
8.557132569708068
 40
8.574405174505111
 40
8.602340668616494
 40
8.643455660540118
 40
8.663225271966786
 40
8.71534515656443
 40
8.789031889628765
 40
8.873502045520489
 40
8.957972194324107
 40
9.031658925567998
 40
9.083778811234682
 40
9.103548423003145
 40
9.119550083123682
 40
9.160817522379984
 40
9.21724442911035
 40
9.278724491644835
 40
9.33515139829562
 40
9.376418837357916
 40
9.392420497300703
 40
9.40119630273492
 40
9.417494229384394
 40
9.426270027749664
 40
9.440875075477697
 40
9.475702496998876
 40
9.517270709866038
 40
9.552098131994205
 40
9.566703169884413
 40
9.566703169884413
 40
9.566703169884413
 40
9.566703169884413
 10
194.6170254148479
 20
15.67015871511028
 10
194.6134345093371
 20
15.6645369070216
 10
194.6056039123625
 20
15.65227754419113
 10
194.5129968974548
 20
15.61601916040966
 10
194.4887622233247
 20
15.40148444212712
 10
194.3858709845939
 20
15.2219728450971
 10
194.1220492364306
 20
15.03615573798149
 10
194.2845471569181
 20
14.95959336566081
 10
194.3607225760838
 20
14.89856693195441
 10
194.4492171072758
 20
14.8351580454476
 10
194.5389930233111
 20
14.7752563421956
 10
194.5883817636047
 20
14.72102154849207
 10
194.6745708157382
 20
14.69286240541834
 10
194.641126067423
 20
14.65713309652813
 10
194.6214671166311
 20
14.62550387991907
 10
194.5919888217882
 20
14.58475872796067
 10
194.5688989446031
 20
14.55504663489645
 10
194.5380205968356
 20
14.50211422668495
 10
194.4729193365741
 20
14.62740334938901
 10
194.3796000122416
 20
14.68213900233937
 10
194.2950636285139
 20
14.73916423939339
 10
194.1722498125742
 20
14.89675287427525
 10
194.1764450847301
 20
14.82035806766837
 10
194.1751478652677
 20
14.77361280161297
 10
194.1758126448076
 20
14.69584785812602
 10
194.1755549986956
 20
14.59902068324424
 10
194.1756431239921
 20
14.4865027907881
 10
194.1756077302282
 20
14.36524085945701
 10
194.1756511758278
 20
14.24086897858962
 10
194.1755199942405
 20
14.11967683631337
 10
194.1759477562047
 20
14.00691148919744
 10
194.174667820231
 20
13.91082913768745
 10
194.1779759851044
 20
13.83113826468701
 10
194.1715197740086
 20
13.78815175788785
 10
194.1806208705556
 20
13.74955432372043
 10
194.1447910339935
 20
13.75810887724071
 10
194.1115223815253
 20
13.75342519985448
 10
194.0604562576041
 20
13.75351298759785
 10
194.0269723972814
 20
13.75794430283822
 10
193.9907585408754
 20
13.7496079384251
 10
194.0009782568666
 20
13.79145277179285
 10
193.9936487887774
 20
13.83778560820175
 10
193.9973633136103
 20
13.92374831106015
 10
193.9959480554897
 20
14.0260514270485
 10
193.9964105554639
 20
14.14453223931512
 10
193.9962773686231
 20
14.26957683153357
 10
193.9963015910045
 20
14.3947582810705
 10
193.9963354925551
 20
14.51286645379058
 10
193.9962060293133
 20
14.61628748709516
 10
193.9965507549082
 20
14.69932036153667
 10
193.9958698278691
 20
14.75143368521243
 10
193.9994586600623
 20
14.87912907821362
 10
193.7826171386437
 20
14.58048716819626
 10
193.6021354921952
 20
14.35263981511514
 10
193.5490322295612
 20
14.49373443289817
 10
193.5200429133149
 20
14.54325767560938
 10
193.4196648062823
 20
14.64641779790112
 10
193.7405127723261
 20
14.72695035023775
 10
193.868989700543
 20
14.91066283036435
 10
194.0906454325359
 20
15.11931995771761
 10
194.1770224894069
 20
15.29339211228344
 10
194.4549394229076
 20
15.56967051342513
 10
194.3346247839285
 20
15.56534559551113
 10
194.286319735135
 20
15.56614856202552
 10
194.2102377454905
 20
15.56574582146582
 10
194.1167010009751
 20
15.56590275611608
 10
194.0117594788557
 20
15.56582502576223
 10
193.9033887738718
 20
15.56595464378553
 10
193.7981454235897
 20
15.56554393490691
 10
193.7056237819413
 20
15.5668207367159
 10
193.6268130800707
 20
15.56340766534849
 10
193.5839674565378
 20
15.57023350036319
 10
193.5449499586516
 20
15.56065064201122
 10
193.5526365271863
 20
15.59420779565542
 10
193.5485464404312
 20
15.62523550322233
 10
193.5485531368814
 20
15.67236529270901
 10
193.5526239724912
 20
15.7034094164678
 10
193.5449495574582
 20
15.73701861635904
 10
193.5834819405495
 20
15.72748410420874
 10
193.6241228014479
 20
15.73397435498073
 10
193.6951471850463
 20
15.73100150650256
 10
193.7729318149634
 20
15.7317476139916
 10
193.8507292246474
 20
15.73247814044527
 10
193.9217232089908
 20
15.72954235514162
 10
193.9624279791821
 20
15.73595468772955
 10
194.000985348991
 20
15.72650524176006
 10
193.9927342754929
 20
15.76264692158786
 10
193.9982346669359
 20
15.80129837613229
 10
193.9955754206164
 20
15.86913528561841
 10
193.9965815471534
 20
15.94591641538741
 10
193.996017801832
 20
16.02849393582757
 10
193.9970714526593
 20
16.10517329229879
 10
193.9942675863131
 20
16.173319907767
 10
194.0000702721304
 20
16.21132399809347
 10
193.991565455116
 20
16.24758448077647
 10
194.0255610233125
 20
16.23755723771852
 10
194.05945756831
 20
16.24073266813706
 10
194.1126669060347
 20
16.23508965640609
 10
194.1660768574484
 20
16.23434774436426
 10
194.1995914649492
 20
16.22819223482981
 10
194.238808618304
 20
16.23346029773594
 10
194.2120263698492
 20
16.19253380793487
 10
194.1708111001724
 20
16.20371204538114
 10
194.1782641540874
 20
16.15867056192124
 10
194.1742227952183
 20
16.11412278028144
 10
194.1761714049641
 20
16.04223572621703
 10
194.1752364849758
 20
15.96168630588772
 10
194.176510719003
 20
15.88173995404996
 10
194.1732043793864
 20
15.80841837083184
 10
194.1802106179961
 20
15.7668864300257
 10
194.1701440380126
 20
15.72752418568115
 10
194.2029814803921
 20
15.73468063430983
 10
194.236457729648
 20
15.73027243137946
 10
194.2915053476019
 20
15.73217943347899
 10
194.3489502595314
 20
15.7318536640729
 10
194.4023026248309
 20
15.73106308733083
 10
194.4398540896639
 20
15.73313959118076
 10
194.4623172523237
 20
15.73022338167111
 10
194.4751678073731
 20
15.73572552644057
 10
194.485825568589
 20
15.73801118197791
 10
194.4986635650143
 20
15.74494972588052
 10
194.5145991033071
 20
15.72853046313672
 10
194.5410623920891
 20
15.71709122319449
 10
194.5726805253757
 20
15.6964468783519
 10
194.5987255892151
 20
15.68116869628295
 10
194.6128517723973
 20
15.67266976323184
 10
194.6170254148479
 20
15.67015871511028
 97
        1
330
B0
 75
     1
 76
     2
 52
45.0
 41
0.1
 77
     0
 78
     1
 53
45.0
 43
0.0
 44
0.0
 45
-0.282842712474619
 46
0.0
 79
     0
 98
        1
 10
0.0
 20
0.0
  0
HATCH
  5
CE
330
48
100
AcDbEntity
  8
1
  6
Continuous
 62
     2
100
AcDbHatch
 10
0.0
 20
0.0
 30
0.0
210
0.0
220
0.0
230
1.0
  2
CUSTOM12
 70
     0
 71
     1
 91
        1
 92
        1
 93
        1
 72
     4
 94
        3
 73
     0
 74
     0
 95
      124
 96
      120
 40
0.0
 40
0.0
 40
0.0
 40
0.0
 40
0.0278187229624226
 40
0.1011590162383985
 40
0.2048470170590239
 40
0.3237088716558961
 40
0.4425707262522
 40
0.5462587270699263
 40
0.6195990203312082
 40
0.647417752257866
 40
0.6750060736115224
 40
0.7357003855242759
 40
0.7963946998054492
 40
0.8239830245571784
 40
0.8540933811103162
 40
0.9373396629409274
 40
1.063094687343237
 40
1.220731268638075
 40
1.399622220914749
 40
1.589140358637762
 40
1.778658496423843
 40
1.957549448940539
 40
2.115186030873132
 40
2.240941056914465
 40
2.324187341760534
 40
2.354297700109384
 40
2.38188602467189
 40
2.442580338710479
 40
2.503274652750503
 40
2.53086297731461
 40
2.560983949278563
 40
2.640393784452908
 40
2.752662861759132
 40
2.88136156011812
 40
3.010060258455167
 40
3.122329335705371
 40
3.201739170817928
 40
3.231860142753317
 40
3.264298024030372
 40
3.352343701778243
 40
3.482095226868764
 40
3.639650650173022
 40
3.811108022565477
 40
3.982565394927982
 40
4.140120818152561
 40
4.269872343141269
 40
4.357918020802329
 40
4.390355902043958
 40
4.423256253992528
 40
4.50810453007302
 40
4.624121560636788
 40
4.750528176031517
 40
4.866545206601992
 40
4.951393482691949
 40
4.98429383464535
 40
5.011450833242267
 40
5.071196230152057
 40
5.130941627057136
 40
5.158098625648804
 40
5.190998977601466
 40
5.275847253689292
 40
5.391864284256754
 40
5.518270899648271
 40
5.634287930209282
 40
5.719136206287955
 40
5.752036558235871
 40
5.782130946282897
 40
5.86278390622907
 40
5.979550131774936
 40
6.11798431664034
 40
6.263641154587883
 40
6.402075339414087
 40
6.51884156490788
 40
6.599494524815461
 40
6.629588912848699
 40
6.654403028226275
 40
6.713575149488042
 40
6.784199939329388
 40
6.84337206049349
 40
6.868186175802707
 40
6.89624624320182
 40
6.939586233758158
 40
6.967846564564786
 40
7.043584251089724
 40
7.153234334451586
 40
7.283231855734339
 40
7.420011856035373
 40
7.550009376579725
 40
7.659659458835124
 40
7.735397144417121
 40
7.763657474851293
 40
7.79640972801095
 40
7.880876065096224
 40
7.99637085246561
 40
8.122208446418504
 40
8.237703224799098
 40
8.32216956201082
 40
8.354921815205806
 40
8.382078813307588
 40
8.441824209206898
 40
8.501569605240052
 40
8.528726603485632
 40
8.561478856695652
 40
8.645945193877703
 40
8.761439980865243
 40
8.887277580764385
 40
9.002772362000906
 40
9.087238696661098
 40
9.11999094923558
 40
9.152428830613278
 40
9.240474508638494
 40
9.370226034149441
 40
9.527781457984323
 40
9.699238830981312
 40
9.8706962039785
 40
10.02825162781392
 40
10.15800315332553
 40
10.24604883135108
 40
10.27848670378511
 40
10.27848670378511
 40
10.27848670378511
 40
10.27848670378511
 10
195.3821827564384
 20
14.01410517385757
 10
195.3914554737524
 20
14.01410498511274
 10
195.4251744536861
 20
14.01410430876714
 10
195.4934706812466
 20
14.01411807243305
 10
195.592014171158
 20
14.01403224219544
 10
195.7062066464812
 20
14.0144175561225
 10
195.8185894417072
 20
14.01300835897545
 10
195.9214376600118
 20
14.01719117422243
 10
195.980683987485
 20
14.00823089251983
 10
196.0371265937034
 20
14.0216443452606
 10
196.0246255586956
 20
13.97087198613361
 10
196.0329549635704
 20
13.92589320939067
 10
196.0248170841121
 20
13.88056752990488
 10
196.0370529214458
 20
13.82931932408465
 10
195.9747773490334
 20
13.84447955365276
 10
195.9060513026869
 20
13.83359750710742
 10
195.7782756749592
 20
13.83911304747972
 10
195.6262984511644
 20
13.83700851253698
 10
195.4502695972523
 20
13.83771002588473
 10
195.2644431934288
 20
13.83745237531292
 10
195.0786167437176
 20
13.83771005144602
 10
194.9025880142169
 20
13.83700841847731
 10
194.7506104154195
 20
13.83911332229988
 10
194.6228357664555
 20
13.8335968076764
 10
194.5541077836581
 20
13.84448077125942
 10
194.4918349042884
 20
13.82931786684209
 10
194.5040616290018
 20
13.88057510805171
 10
194.4960004462598
 20
13.92582473272425
 10
194.5040675809893
 20
13.97106357955323
 10
194.4918238487084
 20
14.02234176909958
 10
194.5525017120699
 20
14.00749577363134
 10
194.6162810745737
 20
14.01756448170735
 10
194.7277314353503
 20
14.01294644211999
 10
194.8497533443824
 20
14.01413328905469
 10
194.9719538137824
 20
14.01515863900635
 10
195.0829794287392
 20
14.01092475623402
 10
195.1476517413959
 20
14.02018584521739
 10
195.2091162810502
 20
14.00604423049682
 10
195.1930065601338
 20
14.07235527884516
 10
195.2042980327359
 20
14.14447790121976
 10
195.1987400822561
 20
14.27513760888285
 10
195.2008035061691
 20
14.42607323708241
 10
195.2000167127295
 20
14.59335873107885
 10
195.2007845215629
 20
14.76061110332302
 10
195.1988038785628
 20
14.91163289269912
 10
195.2041306156621
 20
15.04206069552994
 10
195.1933101388426
 20
15.11465442605898
 10
195.2090326429876
 20
15.18150469436797
 10
195.1432708132492
 20
15.16580512490823
 10
195.0756367830764
 20
15.17609243083994
 10
194.9615885293811
 20
15.1711378684712
 10
194.8451242674903
 20
15.17414128030474
 10
194.7306554121478
 20
15.16880303143388
 10
194.6640324657814
 20
15.18001268074824
 10
194.5990769715186
 20
15.1634913266501
 10
194.610798975871
 20
15.21473720477058
 10
194.6032830189122
 20
15.25950333784091
 10
194.6107989878836
 20
15.30426944897961
 10
194.5990769505348
 20
15.3555153612974
 10
194.6640326339201
 20
15.33899381766816
 10
194.7306533339821
 20
15.35020571373943
 10
194.8451352858065
 20
15.34485436710665
 10
194.9615454436963
 20
15.34791188771117
 10
195.0757660174641
 20
15.34278499010708
 10
195.1430150439228
 20
15.35345733355599
 10
195.2083325941439
 20
15.33742082669076
 10
195.1941391448553
 20
15.39949685750053
 10
195.2036059462996
 20
15.46586761628762
 10
195.1990269004085
 20
15.58239972741966
 10
195.2007696555948
 20
15.71426685022375
 10
195.1997551495393
 20
15.85615960150273
 10
195.2017191344373
 20
15.98769050702579
 10
195.1964668553852
 20
16.10524577283001
 10
195.2073408763474
 20
16.16947789001583
 10
195.1919536641855
 20
16.23108802545046
 10
195.2407591537801
 20
16.2170240738211
 10
195.2853995564727
 20
16.21954742075314
 10
195.3538643946744
 20
16.21512797401709
 10
195.3959106169103
 20
16.20613025544036
 10
195.4487544758776
 20
16.21411714866509
 10
195.4207035002013
 20
16.17113917611677
 10
195.3749142248595
 20
16.18259552043835
 10
195.3869539073265
 20
16.12173520005139
 10
195.3796086070643
 20
16.05769299468773
 10
195.3831195826162
 20
15.94909368863912
 10
195.3819806760175
 20
15.82494319144753
 10
195.3819174780263
 20
15.69189719829878
 10
195.3832872966869
 20
15.56797381249556
 10
195.3791638801314
 20
15.45868337849338
 10
195.3877763103564
 20
15.39608580094169
 10
195.3746757454403
 20
15.33740133296365
 10
195.4393884328198
 20
15.35362113810902
 10
195.5060405953157
 20
15.34270260383311
 10
195.6198779541103
 20
15.34793740173756
 10
195.7357259122098
 20
15.34485547516913
 10
195.8496924263281
 20
15.35018259812512
 10
195.91603410181
 20
15.33904208166543
 10
195.980718852548
 20
15.35546979593177
 10
195.9689820772724
 20
15.30425925210051
 10
195.9765168063041
 20
15.25950334121
 10
195.9689820992259
 20
15.21474739010027
 10
195.9807188140738
 20
15.1635369087104
 10
195.9160344075253
 20
15.17996427794218
 10
195.8496886430826
 20
15.16882784447269
 10
195.7357459487013
 20
15.17413115893119
 10
195.6197995623055
 20
15.17114764593543
 10
195.5062756882124
 20
15.17606892268392
 10
195.4389231318805
 20
15.16585087513518
 10
195.3734285122496
 20
15.18145996138815
 10
195.3891713619218
 20
15.1146385182741
 10
195.3783275998215
 20
15.04207057815878
 10
195.3836581629792
 20
14.91162247614416
 10
195.3817136151856
 20
14.76064558185225
 10
195.3823133683215
 20
14.59322243934158
 10
195.3821506559605
 20
14.42656176118371
 10
195.3821895488136
 20
14.27360142921636
 10
195.38218164131
 20
14.14849178985705
 10
195.3821828382745
 20
14.06507890991419
 10
195.3821827716209
 20
14.02491778281976
 10
195.3821827564384
 20
14.01410517385757
 97
        1
330
B1
 75
     1
 76
     2
 52
45.0
 41
0.1
 77
     0
 78
     1
 53
45.0
 43
0.0
 44
0.0
 45
-0.282842712474619
 46
0.0
 79
     0
 98
        1
 10
0.0
 20
0.0
  0
HATCH
  5
CF
330
48
100
AcDbEntity
  8
1
  6
Continuous
 62
     2
100
AcDbHatch
 10
0.0
 20
0.0
 30
0.0
210
0.0
220
0.0
230
1.0
  2
CUSTOM13
 70
     0
 71
     1
 91
        1
 92
        1
 93
        3
 72
     4
 94
        3
 73
     0
 74
     0
 95
       24
 96
       20
 40
0.0
 40
0.0
 40
0.0
 40
0.0
 40
0.2211075008753817
 40
0.4273218586245221
 40
0.508017467923948
 40
0.5914835907870395
 40
0.8143265690192707
 40
1.054651302686569
 40
1.295452694023166
 40
1.518109231328837
 40
1.540864321905425
 40
1.595126460622687
 40
1.659890947896002
 40
1.714153085187306
 40
1.736908174961607
 40
1.764951100735252
 40
1.801562291220815
 40
1.953914424543492
 40
2.126104167379549
 40
2.126104167379549
 40
2.126104167379549
 40
2.126104167379549
 10
185.937536955689
 20
15.58989295113015
 10
185.9112579081813
 20
15.53097628234373
 10
185.8604698894426
 20
15.41711139679257
 10
185.8131784839113
 20
15.14441958233116
 10
185.7043482802619
 20
15.24445482575454
 10
185.5514800279638
 20
15.27118593367332
 10
185.7686155181199
 20
15.48518135017632
 10
185.7838483674381
 20
15.70332117782488
 10
185.8906889492
 20
15.88451579066424
 10
185.830538094708
 20
16.16913226311404
 10
185.9334317395402
 20
16.14114089222451
 10
185.9779933468151
 20
16.132432516023
 10
186.0380842395397
 20
16.12139654183355
 10
186.0756619587438
 20
16.10767523055559
 10
186.1252466928606
 20
16.10756076160222
 10
186.0930158919326
 20
16.07306592398623
 10
186.0171802221882
 20
16.08404104537961
 10
186.0429447159693
 20
15.89858969582451
 10
186.005589676385
 20
15.8070231354959
 10
185.985770496161
 20
15.75844135397706
 72
     4
 94
        3
 73
     0
 74
     0
 95
       70
 96
       66
 40
0.0
 40
0.0
 40
0.0
 40
0.0
 40
0.0241731073021472
 40
0.0846058988987297
 40
0.1631685280353284
 40
0.2417311571789756
 40
0.3021639488292751
 40
0.3263370654895825
 40
0.3533118254249183
 40
0.4228783438922395
 40
0.5179999095313687
 40
0.6216398239466386
 40
0.716761389149999
 40
0.7863279069650148
 40
0.813302679176212
 40
0.8372943998771958
 40
0.894505426137287
 40
0.962789554196264
 40
1.020000580349074
 40
1.043992300975172
 40
1.071934345522908
 40
1.113121768773003
 40
1.145225199332327
 40
1.225483775412859
 40
1.329819923771566
 40
1.434156071994455
 40
1.514414647795872
 40
1.54651807820848
 40
1.578974764260253
 40
1.662678849314248
 40
1.777131373668497
 40
1.901833377474916
 40
2.016285900500734
 40
2.099989982528101
 40
2.13244666657046
 40
2.158782354486184
 40
2.216720867907973
 40
2.274659381334398
 40
2.30099506925633
 40
2.333451754066302
 40
2.417155836544011
 40
2.531608358985451
 40
2.656310362283974
 40
2.770762886389107
 40
2.8544669713403
 40
2.886923657364107
 40
2.91359797683354
 40
2.982389642875348
 40
3.076451716947216
 40
3.178937260458835
 40
3.272999334740244
 40
3.341791001059467
 40
3.368465320663781
 40
3.396976080739003
 40
3.472140811846239
 40
3.578408190308928
 40
3.700226892456365
 40
3.822045594634582
 40
3.928312973256689
 40
4.003477705315086
 40
4.031988456867151
 40
4.058324144797949
 40
4.116262658237111
 40
4.174201171400909
 40
4.200536849608842
 40
4.200536849608842
 40
4.200536849608842
 40
4.200536849608842
 10
185.985770496161
 20
15.75844135397706
 10
185.993825954468
 20
15.75844359811688
 10
186.0220200663242
 20
15.75845146032799
 10
186.0765534803674
 20
15.75830754828373
 10
186.1482891808604
 20
15.75909120499898
 10
186.2236240137063
 20
15.75627570463812
 10
186.2713052366439
 20
15.76298403400958
 10
186.3195071245617
 20
15.75197563692432
 10
186.3062571799875
 20
15.80546402997035
 10
186.3151093964538
 20
15.86049583543092
 10
186.3108698036287
 20
15.95419908726111
 10
186.313348348128
 20
16.04959482218533
 10
186.3090938706062
 20
16.14356821983388
 10
186.3179818665847
 20
16.19795062438013
 10
186.3046977409946
 20
16.25233997691461
 10
186.351411927711
 20
16.23842216335359
 10
186.3943254545738
 20
16.24103877374045
 10
186.4605443456686
 20
16.23648422450755
 10
186.5013342271799
 20
16.22778162134163
 10
186.5525145690819
 20
16.23531799890196
 10
186.5253720487201
 20
16.19349970223282
 10
186.4803096055707
 20
16.202849920726
 10
186.4942065045051
 20
16.13841207371837
 10
186.4858414431653
 20
16.07378219627399
 10
186.4903632178398
 20
15.97529141193888
 10
186.4854741311167
 20
15.87595932842571
 10
186.4950258992082
 20
15.81293115552969
 10
186.47997614552
 20
15.7496401149979
 10
186.5449159457208
 20
15.7651507294427
 10
186.6116246399497
 20
15.75499387697813
 10
186.7241435470827
 20
15.75988800099368
 10
186.8390235448954
 20
15.75691204732784
 10
186.9519871999747
 20
15.76221664184992
 10
187.0176267597679
 20
15.7510730647209
 10
187.0816276691054
 20
15.76744532319858
 10
187.070314288919
 20
15.71761689905276
 10
187.077533987151
 20
15.67416715212124
 10
187.070314261127
 20
15.63071745587446
 10
187.0816277175995
 20
15.58088895196877
 10
187.0176263598972
 20
15.59726166091363
 10
186.951992124046
 20
15.58611271661589
 10
186.8389974317332
 20
15.59144857206855
 10
186.7242456548643
 20
15.58834345663822
 10
186.6113183686861
 20
15.5936489468259
 10
186.5455220903584
 20
15.58257300019594
 10
186.4816097975358
 20
15.59887597847619
 10
186.4936015165126
 20
15.54423524395743
 10
186.4862104613005
 20
15.48854295047842
 10
186.4892684841983
 20
15.3964968914057
 10
186.4893422785682
 20
15.30179109873101
 10
186.4860313578359
 20
15.20952782902264
 10
186.4939505989904
 20
15.15435768736139
 10
186.4815076611617
 20
15.10058169100135
 10
186.5389116551632
 20
15.1145376886278
 10
186.5994708140383
 20
15.10511457884225
 10
186.7048680855081
 20
15.10942885928704
 10
186.8204294070622
 20
15.1083550461203
 10
186.9359688877797
 20
15.10725965900994
 10
187.0414181130841
 20
15.11162525770632
 10
187.1018680471804
 20
15.1020942603067
 10
187.159283773911
 20
15.11617289606379
 10
187.1477773876709
 20
15.06707153265682
 10
187.1537566781749
 20
15.02564658018648
 10
187.1520311050801
 20
14.97651677966694
 10
187.1521500122971
 20
14.94854428447607
 10
187.1521871691833
 20
14.93980288195949
 72
     4
 94
        3
 73
     0
 74
     0
 95
       62
 96
       58
 40
0.0
 40
0.0
 40
0.0
 40
0.0
 40
0.0598250028308485
 40
0.2024846486897331
 40
0.3727558389221031
 40
0.515415484793607
 40
0.5752404975785339
 40
0.9332326775487367
 40
1.290451762839499
 40
1.602077253145916
 40
1.699931634112196
 40
1.799359756425152
 40
2.270120149657151
 40
2.804661928461653
 40
2.882342287383367
 40
3.07654318571922
 40
3.329004354835688
 40
3.581465524568521
 40
3.775666424543807
 40
3.853346784558428
 40
3.899120679595174
 40
3.984129341792058
 40
4.029903236817407
 40
4.105797496059563
 40
4.295533144152524
 40
4.542189486611769
 40
4.788845828875719
 40
4.978581476410107
 40
5.05447573524435
 40
5.621734664339384
 40
6.130867242037394
 40
6.225249780948659
 40
6.318913039727384
 40
6.663579954559053
 40
7.047498900224868
 40
7.435230791575796
 40
7.498943906668208
 40
7.650875181210145
 40
7.832212509001627
 40
7.984143783697013
 40
8.04785689890314
 40
8.091554632732645
 40
8.172707566964304
 40
8.216405300768026
 40
8.28902178216091
 40
8.462184160757255
 40
8.668861838005421
 40
8.842024215263985
 40
8.91464069547518
 40
8.98988158086139
 40
9.155411528827303
 40
9.320941477744093
 40
9.39618235248735
 40
9.454709011143839
 40
9.583467660170859
 40
9.712226309013081
 40
9.770752957989563
 40
9.770752957989563
 40
9.770752957989563
 40
9.770752957989563
 10
187.1521871691833
 20
14.93980288195949
 10
187.1322348171623
 20
14.93980875568671
 10
187.0647037716466
 20
14.93982863806156
 10
186.9410612161788
 20
14.93949362520325
 10
186.7863180150056
 20
14.9410767375051
 10
186.669734948248
 20
14.93686078860495
 10
186.455094263424
 20
14.95215205331624
 10
186.8518948407229
 20
14.59198721286192
 10
186.8945656069268
 20
14.37510503397166
 10
187.3189162146612
 20
14.19325062511446
 10
187.1439821496075
 20
14.08985196568072
 10
187.0194523925082
 20
13.87831523212728
 10
186.7666277235945
 20
14.34806081001566
 10
186.4797602893626
 20
14.99511516984523
 10
186.490633592666
 20
14.68782672154695
 10
186.488289277796
 20
14.52288616971778
 10
186.4861096126411
 20
14.28879670711693
 10
186.4980774396346
 20
14.04498072421783
 10
186.4687984740631
 20
13.89855796860984
 10
186.511452262547
 20
13.75113490174537
 10
186.423981400564
 20
13.76685797306218
 10
186.3768527606745
 20
13.76694303543452
 10
186.2898973207714
 20
13.75109425482908
 10
186.3313474021724
 20
13.89527771422761
 10
186.3029875004286
 20
14.03855052698455
 10
186.31459737753
 20
14.27674947365264
 10
186.3124175648273
 20
14.50517235240346
 10
186.3103111127995
 20
14.66705729375995
 10
186.3208035438324
 20
14.98153709333752
 10
186.0128963252893
 20
14.29229470872436
 10
185.7055258267458
 20
13.81476750243054
 10
185.5851367066275
 20
14.03741112637428
 10
185.4074607910721
 20
14.15011034955561
 10
185.8853326362895
 20
14.32548143465458
 10
185.9353959057207
 20
14.56091929252033
 10
186.3583799621717
 20
14.95322989344606
 10
186.127675427354
 20
14.93655307029065
 10
186.0049685859341
 20
14.94269518948769
 10
185.8325483095662
 20
14.93312822699573
 10
185.721322469445
 20
14.95448818489665
 10
185.6025779627448
 20
14.92136265357419
 10
185.6183169706687
 20
15.00203900606883
 10
185.6178550933762
 20
15.04645414290853
 10
185.6027881889932
 20
15.12967081778532
 10
185.7372380935444
 20
15.09062651983881
 10
185.8619755545747
 20
15.11739729328421
 10
186.0628755237281
 20
15.10063949044051
 10
186.1921540949354
 20
15.12204225913003
 10
186.3328419928296
 20
15.08868778853419
 10
186.2980927452616
 20
15.22651875785067
 10
186.3222185666714
 20
15.34963257349482
 10
186.2967086182393
 20
15.47024055670335
 10
186.3333251146686
 20
15.60539865141494
 10
186.221141702777
 20
15.58094545781891
 10
186.1280356457138
 20
15.59307749842024
 10
186.0191547579821
 20
15.58957630069995
 10
185.9569697640965
 20
15.58981755951603
 10
185.9375369557247
 20
15.58989295124145
 97
        3
330
B3
330
B4
330
B2
 75
     1
 76
     2
 52
45.0
 41
0.1
 77
     0
 78
     1
 53
45.0
 43
0.0
 44
0.0
 45
-0.282842712474619
 46
0.0
 79
     0
 98
        1
 10
0.0
 20
0.0
  0
HATCH
  5
D0
330
48
100
AcDbEntity
  8
1
  6
Continuous
 62
     2
100
AcDbHatch
 10
0.0
 20
0.0
 30
0.0
210
0.0
220
0.0
230
1.0
  2
CUSTOM14
 70
     0
 71
     1
 91
        1
 92
        1
 93
        4
 72
     1
 10
192.4578138032672
 20
15.22875434022056
 11
191.1602971697032
 21
15.22875434022056
 72
     1
 10
191.1602971697032
 20
15.22875434022056
 11
191.1602971697032
 21
15.39722336795624
 72
     1
 10
191.1602971697032
 20
15.39722336795624
 11
192.4578138032672
 21
15.39722336795624
 72
     1
 10
192.4578138032672
 20
15.39722336795624
 11
192.4578138032672
 21
15.22875434022056
 97
        1
330
B5
 75
     1
 76
     2
 52
45.0
 41
0.1
 77
     0
 78
     1
 53
45.0
 43
0.0
 44
0.0
 45
-0.282842712474619
 46
0.0
 79
     0
 98
        1
 10
0.0
 20
0.0
  0
ENDBLK
  5
4A
330
48
100
AcDbEntity
  8
0
100
AcDbBlockEnd
  0
BLOCK
  5
4D
330
4B
100
AcDbEntity
  8
0
100
AcDbBlockBegin
  2
開示A4枠
 70
     0
 10
0.0
 20
0.0
 30
0.0
  3
開示A4枠
  1

  0
INSERT
  5
4C
330
4B
100
AcDbEntity
  8
1
100
AcDbBlockReference
  2
開示A4
 10
0.0
 20
0.0
 30
0.0
  0
ENDBLK
  5
4E
330
4B
100
AcDbEntity
  8
0
100
AcDbBlockEnd
  0
BLOCK
  5
50
330
4F
100
AcDbEntity
  8
0
100
AcDbBlockBegin
  2
T29-0-13X20
 70
     0
 10
116.3499770950075
 20
170.3566597695299
 30
0.0
  3
T29-0-13X20
  1

  0
LINE
  5
D1
330
4F
100
AcDbEntity
  8
1
  6
Continuous
 62
     2
100
AcDbLine
 10
81.53062807563906
 20
103.7551345896737
 30
0.0
 11
81.19768780888406
 21
114.408690719365
 31
0.0
  0
LINE
  5
D2
330
4F
100
AcDbEntity
  8
1
  6
Continuous
 62
     7
100
AcDbLine
 10
80.34862807563846
 20
103.7551345896737
 30
0.0
 11
100.8705419345655
 21
103.7551345896737
 31
0.0
  0
LINE
  5
D3
330
4F
100
AcDbEntity
  8
1
  6
Continuous
 62
     7
100
AcDbLine
 10
80.01568780888336
 20
114.408690719365
 30
0.0
 11
101.2341839797037
 21
114.408690719365
 31
0.0
  0
LINE
  5
D4
330
4F
100
AcDbEntity
  8
1
  6
Continuous
 62
     7
100
AcDbLine
 10
55.62805467806946
 20
147.3231345896739
 30
0.0
 11
85.62805467806945
 21
147.3231345896739
 31
0.0
  0
LINE
  5
D5
330
4F
100
AcDbEntity
  8
1
  6
Continuous
 62
     7
100
AcDbLine
 10
79.94804555771516
 20
116.5731345896739
 30
0.0
 11
101.3080637984238
 21
116.5731345896739
 31
0.0
  0
LINE
  5
D6
330
4F
100
AcDbEntity
  8
1
  6
Continuous
 62
     7
100
AcDbLine
 10
101.9301427346526
 20
125.0731345896739
 30
0.0
 11
93.93014273465255
 21
125.0731345896739
 31
0.0
  0
LINE
  5
D7
330
4F
100
AcDbEntity
  8
1
  6
Continuous
 62
     7
100
AcDbLine
 10
77.62805467806956
 20
119.0731345896739
 30
0.0
 11
86.62805467806945
 21
119.0731345896739
 31
0.0
  0
LINE
  5
D8
330
4F
100
AcDbEntity
  8
1
  6
Continuous
 62
     7
100
AcDbLine
 10
59.62805467806956
 20
127.573134589674
 30
0.0
 11
68.62805467806956
 21
127.573134589674
 31
0.0
  0
LINE
  5
D9
330
4F
100
AcDbEntity
  8
1
  6
Continuous
 62
     7
100
AcDbLine
 10
83.62805467806945
 20
133.5731345896739
 30
0.0
 11
75.62805467806956
 21
133.5731345896739
 31
0.0
  0
LINE
  5
DA
330
4F
100
AcDbEntity
  8
1
  6
Continuous
 62
     7
100
AcDbLine
 10
56.02805467806947
 20
143.5327263839005
 30
0.0
 11
85.22805467806947
 21
143.5327263839005
 31
0.0
  0
LINE
  5
DB
330
4F
100
AcDbEntity
  8
1
  6
Continuous
 62
     7
100
AcDbLine
 10
57.62805467806956
 20
147.5731345896739
 30
0.0
 11
83.62805467806945
 21
147.5731345896739
 31
0.0
  0
LINE
  5
DC
330
4F
100
AcDbEntity
  8
1
  6
Continuous
 62
     7
100
AcDbLine
 10
77.62805467806956
 20
117.7500032084639
 30
0.0
 11
77.62805467806956
 21
116.5731345896739
 31
0.0
  0
LINE
  5
DD
330
4F
100
AcDbEntity
  8
1
  6
Continuous
 62
     7
100
AcDbLine
 10
84.84577339737976
 20
133.0556041339671
 30
0.0
 11
101.801476599104
 21
125.8494302732343
 31
0.0
  0
LINE
  5
DE
330
4F
100
AcDbEntity
  8
1
  6
Continuous
 62
     7
100
AcDbLine
 10
59.45463275703496
 20
126.7968389061137
 30
0.0
 11
76.41033595875926
 21
119.5906650453808
 31
0.0
  0
LINE
  5
DF
330
4F
100
AcDbEntity
  8
1
  6
Continuous
 62
     7
100
AcDbLine
 10
80.01568780888336
 20
114.408690719365
 30
0.0
 11
79.94804555771516
 21
116.5731345896739
 31
0.0
  0
LINE
  5
E0
330
4F
100
AcDbEntity
  8
1
  6
Continuous
 62
     2
100
AcDbLine
 10
79.94804555771516
 20
116.5731345896739
 30
0.0
 11
81.19768780888406
 21
114.408690719365
 31
0.0
  0
LINE
  5
E1
330
4F
100
AcDbEntity
  8
1
  6
Continuous
 62
     7
100
AcDbLine
 10
79.97429686954686
 20
115.7331345896738
 30
0.0
 11
79.97429686954686
 21
115.7331345896683
 31
0.0
  0
LINE
  5
E2
330
4F
100
AcDbEntity
  8
1
  6
Continuous
 62
     7
100
AcDbLine
 10
79.97429686954686
 20
115.7331345896738
 30
0.0
 11
79.97429686954686
 21
115.7331345896683
 31
0.0
  0
LINE
  5
E3
330
4F
100
AcDbEntity
  8
1
  6
Continuous
 62
     7
100
AcDbLine
 10
80.34862807563846
 20
103.7551345896737
 30
0.0
 11
81.56756742157326
 21
102.5731345896739
 31
0.0
  0
LINE
  5
E4
330
4F
100
AcDbEntity
  8
1
  6
Continuous
 62
     2
100
AcDbLine
 10
81.56756742157326
 20
102.5731345896739
 30
0.0
 11
81.53062807563906
 21
103.7551345896737
 31
0.0
  0
LINE
  5
E5
330
4F
100
AcDbEntity
  8
1
  6
Continuous
 62
     7
100
AcDbLine
 10
79.97429686954686
 20
115.7331345896683
 30
0.0
 11
79.97429686954686
 21
115.7331345896738
 31
0.0
  0
LINE
  5
E6
330
4F
100
AcDbEntity
  8
1
  6
Continuous
 62
     7
100
AcDbLine
 10
79.97429686954686
 20
115.7331345896683
 30
0.0
 11
79.97429686954686
 21
115.7331345896738
 31
0.0
  0
LINE
  5
E7
330
4F
100
AcDbEntity
  8
1
  6
Continuous
 62
     7
100
AcDbLine
 10
79.97429686954686
 20
115.7331345896738
 30
0.0
 11
79.97429686954686
 21
115.7331345896683
 31
0.0
  0
LINE
  5
E8
330
4F
100
AcDbEntity
  8
1
  6
Continuous
 62
     7
100
AcDbLine
 10
79.97429686954686
 20
115.7331345896738
 30
0.0
 11
79.97429686954686
 21
115.7331345896683
 31
0.0
  0
LINE
  5
E9
330
4F
100
AcDbEntity
  8
1
  6
Continuous
 62
     7
100
AcDbLine
 10
80.34862807563846
 20
103.7551345896737
 30
0.0
 11
80.01568780888336
 21
114.408690719365
 31
0.0
  0
LINE
  5
EA
330
4F
100
AcDbEntity
  8
1
  6
Continuous
 62
     7
100
AcDbLine
 10
77.62805467806956
 20
116.5731345896739
 30
0.0
 11
79.94804555771516
 21
116.5731345896739
 31
0.0
  0
LINE
  5
EB
330
4F
100
AcDbEntity
  8
1
  6
Continuous
 62
     7
100
AcDbLine
 10
101.3080637984238
 20
116.5731345896739
 30
0.0
 11
103.6280546780695
 21
116.5731345896739
 31
0.0
  0
LINE
  5
EC
330
4F
100
AcDbEntity
  8
1
  6
Continuous
 62
     7
100
AcDbLine
 10
100.8705419345655
 20
103.7551345896737
 30
0.0
 11
99.68854193456565
 21
102.5731345896739
 31
0.0
  0
LINE
  5
ED
330
4F
100
AcDbEntity
  8
1
  6
Continuous
 62
     2
100
AcDbLine
 10
101.3080637984238
 20
116.5731345896739
 30
0.0
 11
100.0584215472551
 21
114.408690719365
 31
0.0
  0
LINE
  5
EE
330
4F
100
AcDbEntity
  8
1
  6
Continuous
 62
     2
100
AcDbLine
 10
100.0584215472551
 20
114.408690719365
 30
0.0
 11
99.68854193456565
 21
102.5731345896739
 31
0.0
  0
LINE
  5
EF
330
4F
100
AcDbEntity
  8
1
  6
Continuous
 62
     7
100
AcDbLine
 10
100.8705419345655
 20
103.7551345896737
 30
0.0
 11
101.3080637984238
 21
116.5731345896739
 31
0.0
  0
LINE
  5
F0
330
4F
100
AcDbEntity
  8
1
  6
Continuous
 62
     7
100
AcDbLine
 10
103.6280546780695
 20
116.5731345896739
 30
0.0
 11
103.6280546780695
 21
123.0884375178589
 31
0.0
  0
LINE
  5
F1
330
4F
100
AcDbEntity
  8
1
  6
Continuous
 62
     7
100
AcDbLine
 10
83.62805467806945
 20
141.573134589674
 30
0.0
 11
83.62805467806945
 21
134.896265970884
 31
0.0
  0
LINE
  5
F2
330
4F
100
AcDbEntity
  8
1
  6
Continuous
 62
     7
100
AcDbLine
 10
85.62805467806945
 20
147.3231345896739
 30
0.0
 11
85.62805467806945
 21
144.0226243324571
 31
0.0
  0
LINE
  5
F3
330
4F
100
AcDbEntity
  8
1
  6
Continuous
 62
     7
100
AcDbLine
 10
85.37805467806945
 20
147.5731345896739
 30
0.0
 11
85.62805467806945
 21
147.3231345896739
 31
0.0
  0
LINE
  5
F4
330
4F
100
AcDbEntity
  8
1
  6
Continuous
 62
     7
100
AcDbLine
 10
55.62805467806946
 20
147.3231345896739
 30
0.0
 11
55.87805467806956
 21
147.5731345896739
 31
0.0
  0
LINE
  5
F5
330
4F
100
AcDbEntity
  8
1
  6
Continuous
 62
     7
100
AcDbLine
 10
55.62805467806946
 20
147.3231345896739
 30
0.0
 11
55.62805467806956
 21
144.0226243324572
 31
0.0
  0
LINE
  5
F6
330
4F
100
AcDbEntity
  8
1
  6
Continuous
 62
     7
100
AcDbLine
 10
57.62805467806956
 20
147.5731345896739
 30
0.0
 11
55.87805467806956
 21
147.5731345896739
 31
0.0
  0
LINE
  5
F7
330
4F
100
AcDbEntity
  8
1
  6
Continuous
 62
     7
100
AcDbLine
 10
83.62805467806945
 20
147.5731345896739
 30
0.0
 11
85.37805467806945
 21
147.5731345896739
 31
0.0
  0
LINE
  5
F8
330
4F
100
AcDbEntity
  8
1
  6
Continuous
 62
     7
100
AcDbLine
 10
57.62805467806956
 20
141.5731345896739
 30
0.0
 11
57.62805467806956
 21
129.5578316614891
 31
0.0
  0
LINE
  5
F9
330
4F
100
AcDbEntity
  8
1
  6
Continuous
 62
     7
100
AcDbLine
 10
81.56756742157326
 20
102.5731345896739
 30
0.0
 11
99.68854193456565
 21
102.5731345896739
 31
0.0
  0
LINE
  5
FA
330
4F
100
AcDbEntity
  8
1
  6
Continuous
 62
     7
100
AcDbLine
 10
90.62805467806945
 20
210.5731345896739
 30
0.0
 11
78.11136945161736
 21
210.5731345896739
 31
0.0
  0
LINE
  5
FB
330
4F
100
AcDbEntity
  8
1
  6
Continuous
 62
     7
100
AcDbLine
 10
90.62805467806945
 20
184.5731345896739
 30
0.0
 11
78.11136945161736
 21
184.5731345896739
 31
0.0
  0
LINE
  5
FC
330
4F
100
AcDbEntity
  8
1
  6
Continuous
 62
     2
100
AcDbLine
 10
155.0739617765548
 20
103.7551345896737
 30
0.0
 11
154.7410215097998
 21
114.408690719365
 31
0.0
  0
LINE
  5
FD
330
4F
100
AcDbEntity
  8
1
  6
Continuous
 62
     7
100
AcDbLine
 10
153.8919617765542
 20
103.7551345896737
 30
0.0
 11
174.4138756354812
 21
103.7551345896737
 31
0.0
  0
LINE
  5
FE
330
4F
100
AcDbEntity
  8
1
  6
Continuous
 62
     7
100
AcDbLine
 10
153.5590215097991
 20
114.408690719365
 30
0.0
 11
174.7775176806194
 21
114.408690719365
 31
0.0
  0
LINE
  5
FF
330
4F
100
AcDbEntity
  8
1
  6
Continuous
 62
     7
100
AcDbLine
 10
149.1713883789852
 20
147.3231345896739
 30
0.0
 11
179.1713883789852
 21
147.3231345896739
 31
0.0
  0
LINE
  5
100
330
4F
100
AcDbEntity
  8
1
  6
Continuous
 62
     7
100
AcDbLine
 10
153.4913792586309
 20
116.5731345896739
 30
0.0
 11
174.8513974993395
 21
116.5731345896739
 31
0.0
  0
LINE
  5
101
330
4F
100
AcDbEntity
  8
1
  6
Continuous
 62
     7
100
AcDbLine
 10
149.5713883789852
 20
143.5327263839005
 30
0.0
 11
178.7713883789852
 21
143.5327263839005
 31
0.0
  0
LINE
  5
102
330
4F
100
AcDbEntity
  8
1
  6
Continuous
 62
     7
100
AcDbLine
 10
151.1713883789853
 20
147.5731345896739
 30
0.0
 11
177.1713883789852
 21
147.5731345896739
 31
0.0
  0
LINE
  5
103
330
4F
100
AcDbEntity
  8
1
  6
Continuous
 62
     7
100
AcDbLine
 10
151.1713883789853
 20
117.7500032084639
 30
0.0
 11
151.1713883789853
 21
116.5731345896739
 31
0.0
  0
LINE
  5
104
330
4F
100
AcDbEntity
  8
1
  6
Continuous
 62
     7
100
AcDbLine
 10
153.5590215097991
 20
114.408690719365
 30
0.0
 11
153.4913792586309
 21
116.5731345896739
 31
0.0
  0
LINE
  5
105
330
4F
100
AcDbEntity
  8
1
  6
Continuous
 62
     2
100
AcDbLine
 10
153.4913792586309
 20
116.5731345896739
 30
0.0
 11
154.7410215097998
 21
114.408690719365
 31
0.0
  0
LINE
  5
106
330
4F
100
AcDbEntity
  8
1
  6
Continuous
 62
     7
100
AcDbLine
 10
153.5176305704626
 20
115.7331345896738
 30
0.0
 11
153.5176305704626
 21
115.7331345896683
 31
0.0
  0
LINE
  5
107
330
4F
100
AcDbEntity
  8
1
  6
Continuous
 62
     7
100
AcDbLine
 10
153.5176305704626
 20
115.7331345896738
 30
0.0
 11
153.5176305704626
 21
115.7331345896683
 31
0.0
  0
LINE
  5
108
330
4F
100
AcDbEntity
  8
1
  6
Continuous
 62
     7
100
AcDbLine
 10
153.8919617765542
 20
103.7551345896737
 30
0.0
 11
155.110901122489
 21
102.5731345896739
 31
0.0
  0
LINE
  5
109
330
4F
100
AcDbEntity
  8
1
  6
Continuous
 62
     2
100
AcDbLine
 10
155.110901122489
 20
102.5731345896739
 30
0.0
 11
155.0739617765548
 21
103.7551345896737
 31
0.0
  0
LINE
  5
10A
330
4F
100
AcDbEntity
  8
1
  6
Continuous
 62
     7
100
AcDbLine
 10
153.5176305704626
 20
115.7331345896683
 30
0.0
 11
153.5176305704626
 21
115.7331345896738
 31
0.0
  0
LINE
  5
10B
330
4F
100
AcDbEntity
  8
1
  6
Continuous
 62
     7
100
AcDbLine
 10
153.5176305704626
 20
115.7331345896683
 30
0.0
 11
153.5176305704626
 21
115.7331345896738
 31
0.0
  0
LINE
  5
10C
330
4F
100
AcDbEntity
  8
1
  6
Continuous
 62
     7
100
AcDbLine
 10
153.5176305704626
 20
115.7331345896738
 30
0.0
 11
153.5176305704626
 21
115.7331345896683
 31
0.0
  0
LINE
  5
10D
330
4F
100
AcDbEntity
  8
1
  6
Continuous
 62
     7
100
AcDbLine
 10
153.5176305704626
 20
115.7331345896738
 30
0.0
 11
153.5176305704626
 21
115.7331345896683
 31
0.0
  0
LINE
  5
10E
330
4F
100
AcDbEntity
  8
1
  6
Continuous
 62
     7
100
AcDbLine
 10
153.8919617765542
 20
103.7551345896737
 30
0.0
 11
153.5590215097991
 21
114.408690719365
 31
0.0
  0
LINE
  5
10F
330
4F
100
AcDbEntity
  8
1
  6
Continuous
 62
     7
100
AcDbLine
 10
151.1713883789853
 20
116.5731345896739
 30
0.0
 11
153.4913792586309
 21
116.5731345896739
 31
0.0
  0
LINE
  5
110
330
4F
100
AcDbEntity
  8
1
  6
Continuous
 62
     7
100
AcDbLine
 10
174.8513974993395
 20
116.5731345896739
 30
0.0
 11
177.1713883789852
 21
116.5731345896739
 31
0.0
  0
LINE
  5
111
330
4F
100
AcDbEntity
  8
1
  6
Continuous
 62
     7
100
AcDbLine
 10
174.4138756354812
 20
103.7551345896737
 30
0.0
 11
173.2318756354814
 21
102.5731345896739
 31
0.0
  0
LINE
  5
112
330
4F
100
AcDbEntity
  8
1
  6
Continuous
 62
     2
100
AcDbLine
 10
174.8513974993395
 20
116.5731345896739
 30
0.0
 11
173.6017552481708
 21
114.408690719365
 31
0.0
  0
LINE
  5
113
330
4F
100
AcDbEntity
  8
1
  6
Continuous
 62
     2
100
AcDbLine
 10
173.6017552481708
 20
114.408690719365
 30
0.0
 11
173.2318756354814
 21
102.5731345896739
 31
0.0
  0
LINE
  5
114
330
4F
100
AcDbEntity
  8
1
  6
Continuous
 62
     7
100
AcDbLine
 10
174.4138756354812
 20
103.7551345896737
 30
0.0
 11
174.8513974993395
 21
116.5731345896739
 31
0.0
  0
LINE
  5
115
330
4F
100
AcDbEntity
  8
1
  6
Continuous
 62
     7
100
AcDbLine
 10
177.1713883789852
 20
116.5731345896739
 30
0.0
 11
177.1713883789852
 21
123.0884375178589
 31
0.0
  0
LINE
  5
116
330
4F
100
AcDbEntity
  8
1
  6
Continuous
 62
     7
100
AcDbLine
 10
177.1713883789852
 20
141.573134589674
 30
0.0
 11
177.1713883789852
 21
125.0731345896739
 31
0.0
  0
LINE
  5
117
330
4F
100
AcDbEntity
  8
1
  6
Continuous
 62
     7
100
AcDbLine
 10
179.1713883789852
 20
147.3231345896739
 30
0.0
 11
179.1713883789852
 21
144.0226243324571
 31
0.0
  0
LINE
  5
118
330
4F
100
AcDbEntity
  8
1
  6
Continuous
 62
     7
100
AcDbLine
 10
178.9213883789852
 20
147.5731345896739
 30
0.0
 11
179.1713883789852
 21
147.3231345896739
 31
0.0
  0
LINE
  5
119
330
4F
100
AcDbEntity
  8
1
  6
Continuous
 62
     7
100
AcDbLine
 10
149.1713883789852
 20
147.3231345896739
 30
0.0
 11
149.4213883789853
 21
147.5731345896739
 31
0.0
  0
LINE
  5
11A
330
4F
100
AcDbEntity
  8
1
  6
Continuous
 62
     7
100
AcDbLine
 10
149.1713883789852
 20
147.3231345896739
 30
0.0
 11
149.1713883789853
 21
144.0226243324572
 31
0.0
  0
LINE
  5
11B
330
4F
100
AcDbEntity
  8
1
  6
Continuous
 62
     7
100
AcDbLine
 10
151.1713883789853
 20
147.5731345896739
 30
0.0
 11
149.4213883789853
 21
147.5731345896739
 31
0.0
  0
LINE
  5
11C
330
4F
100
AcDbEntity
  8
1
  6
Continuous
 62
     7
100
AcDbLine
 10
177.1713883789852
 20
147.5731345896739
 30
0.0
 11
178.9213883789852
 21
147.5731345896739
 31
0.0
  0
LINE
  5
11D
330
4F
100
AcDbEntity
  8
1
  6
Continuous
 62
     7
100
AcDbLine
 10
151.1713883789853
 20
141.5731345896739
 30
0.0
 11
151.1713883789853
 21
125.0731345896739
 31
0.0
  0
LINE
  5
11E
330
4F
100
AcDbEntity
  8
1
  6
Continuous
 62
     7
100
AcDbLine
 10
155.110901122489
 20
102.5731345896739
 30
0.0
 11
173.2318756354814
 21
102.5731345896739
 31
0.0
  0
LINE
  5
11F
330
4F
100
AcDbEntity
  8
1
  6
Continuous
 62
     7
100
AcDbLine
 10
151.1713883789853
 20
125.0731345896739
 30
0.0
 11
177.1713883789852
 21
125.0731345896739
 31
0.0
  0
LINE
  5
120
330
4F
100
AcDbEntity
  8
1
  6
Continuous
 62
     7
100
AcDbLine
 10
177.1713883789852
 20
125.0731345896739
 30
0.0
 11
177.1713883789852
 21
123.0884375178589
 31
0.0
  0
LINE
  5
121
330
4F
100
AcDbEntity
  8
1
  6
Continuous
 62
     7
100
AcDbLine
 10
151.1713883789853
 20
125.0731345896739
 30
0.0
 11
151.1713883789853
 21
117.7500032084639
 31
0.0
  0
LINE
  5
122
330
4F
100
AcDbEntity
  8
1
  6
Continuous
 62
     7
100
AcDbLine
 10
175.4712001165894
 20
133.5731345896739
 30
0.0
 11
164.1713883789852
 21
133.5731345896739
 31
0.0
  0
LINE
  5
123
330
4F
100
AcDbEntity
  8
1
  6
Continuous
 62
     7
100
AcDbLine
 10
164.1713883789852
 20
133.5731345896739
 30
0.0
 11
152.871576641381
 21
133.5731345896739
 31
0.0
  0
LINE
  5
124
330
4F
100
AcDbEntity
  8
1
  6
DASH_CENTER
 62
     2
100
AcDbLine
 10
164.1713883789852
 20
150.5731345896739
 30
0.0
 11
164.1713883789852
 21
99.57313458967391
 31
0.0
  0
ARC
  5
125
330
4F
100
AcDbEntity
  8
1
  6
Continuous
 62
     7
100
AcDbCircle
 10
75.62805467806956
 20
117.7500032084639
 30
0.0
 40
2.0
100
AcDbArc
 50
0.0
 51
66.97450799147154
  0
ARC
  5
126
330
4F
100
AcDbEntity
  8
1
  6
Continuous
 62
     7
100
AcDbCircle
 10
100.6280546780695
 20
123.0884375178588
 30
0.0
 40
3.0
100
AcDbArc
 50
0.00000000000217
 51
66.97450799147354
  0
ARC
  5
127
330
4F
100
AcDbEntity
  8
1
  6
Continuous
 62
     7
100
AcDbCircle
 10
85.62805467806945
 20
134.896265970884
 30
0.0
 40
2.0
100
AcDbArc
 50
180.0
 51
246.9745079914718
  0
ARC
  5
128
330
4F
100
AcDbEntity
  8
1
  6
Continuous
 62
     7
100
AcDbCircle
 10
60.62805467806956
 20
129.5578316614891
 30
0.0
 40
3.0
100
AcDbArc
 50
180.0
 51
246.974507991471
  0
ARC
  5
129
330
4F
100
AcDbEntity
  8
1
  6
Continuous
 62
     7
100
AcDbCircle
 10
85.62805467806945
 20
141.573134589674
 30
0.0
 40
1.999999999999951
100
AcDbArc
 50
101.5369590328151
 51
180.0
  0
ARC
  5
12A
330
4F
100
AcDbEntity
  8
1
  6
Continuous
 62
     7
100
AcDbCircle
 10
70.62805467806946
 20
197.5731345896739
 30
0.0
 40
15.00000000000001
100
AcDbArc
 50
60.07356513338569
 51
90.0
  0
ARC
  5
12B
330
4F
100
AcDbEntity
  8
1
  6
Continuous
 62
     7
100
AcDbCircle
 10
70.62805467806946
 20
197.5731345896739
 30
0.0
 40
9.315500000000055
100
AcDbArc
 50
65.74746664172676
 51
90.0
  0
LWPOLYLINE
  5
12C
330
4F
100
AcDbEntity
  8
1
  6
Continuous
 62
     2
100
AcDbPolyline
 90
        2
 70
     1
 43
0.0
 10
70.62805467806946
 20
208.0706345896739
 42
1.0
 10
70.62805467806946
 20
187.0756345896739
 42
1.0
  0
LWPOLYLINE
  5
12D
330
4F
100
AcDbEntity
  8
1
  6
Continuous
 62
     7
100
AcDbPolyline
 90
        2
 70
     1
 43
0.0
 10
70.62805467806946
 20
208.8231345896739
 42
1.0
 10
70.62805467806946
 20
186.3231345896739
 42
1.0
  0
ARC
  5
12E
330
4F
100
AcDbEntity
  8
1
  6
Continuous
 62
     7
100
AcDbCircle
 10
70.62805467806946
 20
197.5731345896739
 30
0.0
 40
9.315499999999954
100
AcDbArc
 50
320.8723768678067
 51
39.1276231321937
  0
ARC
  5
12F
330
4F
100
AcDbEntity
  8
1
  6
Continuous
 62
     7
100
AcDbCircle
 10
70.62805467806946
 20
197.5731345896739
 30
0.0
 40
9.315500000000004
100
AcDbArc
 50
294.2525333582734
 51
320.8723768678067
  0
ARC
  5
130
330
4F
100
AcDbEntity
  8
1
  6
Continuous
 62
     7
100
AcDbCircle
 10
70.62805467806946
 20
197.5731345896739
 30
0.0
 40
9.315500000000007
100
AcDbArc
 50
39.1276231321937
 51
65.74746664172676
  0
ARC
  5
131
330
4F
100
AcDbEntity
  8
1
  6
Continuous
 62
     7
100
AcDbCircle
 10
70.62805467806946
 20
197.5731345896739
 30
0.0
 40
9.315499999999986
100
AcDbArc
 50
90.0
 51
294.2525333582734
  0
ARC
  5
132
330
4F
100
AcDbEntity
  8
1
  6
Continuous
 62
     7
100
AcDbCircle
 10
70.62805467806946
 20
197.5731345896739
 30
0.0
 40
15.0
100
AcDbArc
 50
90.0
 51
60.07356513338569
  0
ARC
  5
133
330
4F
100
AcDbEntity
  8
1
  6
Continuous
 62
     7
100
AcDbCircle
 10
90.62805467806945
 20
197.5731345896739
 30
0.0
 40
13.0
100
AcDbArc
 50
270.0
 51
90.0
  0
ARC
  5
134
330
4F
100
AcDbEntity
  8
1
  6
Continuous
 62
     7
100
AcDbCircle
 10
179.1713883789852
 20
141.573134589674
 30
0.0
 40
1.999999999999957
100
AcDbArc
 50
101.5369590328159
 51
180.0
  0
CIRCLE
  5
135
330
4F
100
AcDbEntity
  8
1
  6
Continuous
 62
     7
100
AcDbCircle
 10
70.62805467806946
 20
197.5731345896739
 30
0.0
 40
12.49999999999999
  0
CIRCLE
  5
136
330
4F
100
AcDbEntity
  8
1
  6
Continuous
 62
     7
100
AcDbCircle
 10
70.62805467806946
 20
197.5731345896739
 30
0.0
 40
12.99999999999999
  0
CIRCLE
  5
137
330
4F
100
AcDbEntity
  8
1
  6
Continuous
 62
     7
100
AcDbCircle
 10
70.62805467806946
 20
197.5731345896739
 30
0.0
 40
14.74999999999999
  0
ARC
  5
138
330
4F
100
AcDbEntity
  8
1
  6
Continuous
 62
     7
100
AcDbCircle
 10
56.12805467806946
 20
144.0226243324571
 30
0.0
 40
0.4999999999999005
100
AcDbArc
 50
179.999999999987
 51
258.4630409671852
  0
ARC
  5
139
330
4F
100
AcDbEntity
  8
1
  6
Continuous
 62
     7
100
AcDbCircle
 10
55.62805467806956
 20
141.5731345896739
 30
0.0
 40
2.0
100
AcDbArc
 50
0.0
 51
78.46304096718718
  0
ARC
  5
13A
330
4F
100
AcDbEntity
  8
1
  6
Continuous
 62
     7
100
AcDbCircle
 10
85.12805467806945
 20
144.0226243324572
 30
0.0
 40
0.500000000000084
100
AcDbArc
 50
281.5369590328162
 51
359.999999999987
  0
ARC
  5
13B
330
4F
100
AcDbEntity
  8
1
  6
Continuous
 62
     7
100
AcDbCircle
 10
149.6713883789852
 20
144.0226243324571
 30
0.0
 40
0.4999999999998863
100
AcDbArc
 50
179.999999999987
 51
258.4630409671844
  0
ARC
  5
13C
330
4F
100
AcDbEntity
  8
1
  6
Continuous
 62
     7
100
AcDbCircle
 10
149.1713883789853
 20
141.5731345896739
 30
0.0
 40
2.0
100
AcDbArc
 50
0.0
 51
78.46304096718778
  0
ARC
  5
13D
330
4F
100
AcDbEntity
  8
1
  6
Continuous
 62
     7
100
AcDbCircle
 10
178.6713883789852
 20
144.0226243324572
 30
0.0
 40
0.5000000000000783
100
AcDbArc
 50
281.536959032813
 51
359.999999999987
  0
MTEXT
  5
13F
330
4F
100
AcDbEntity
  8
1
 62
     7
100
AcDbMText
 10
70.59753745109016
 20
134.81943512025
 30
0.0
 40
5.0
 41
0.0
 71
     5
 72
     1
  1
13X20
  7
CONVERTER_12
 11
6.123031769111886E-17
 21
-1.0
 31
0.0
 73
     1
 44
1.32052821128451
  0
ENDBLK
  5
51
330
4F
100
AcDbEntity
  8
0
100
AcDbBlockEnd
  0
BLOCK
  5
161
330
159
100
AcDbEntity
  8
0
100
AcDbBlockBegin
  2
*D4
 70
     1
 10
0.0
 20
0.0
 30
0.0
  3
*D4
  1

  0
LINE
  5
15A
330
159
100
AcDbEntity
  8
0
  6
Continuous
 62
     2
100
AcDbLine
 10
77.62805467806959
 20
93.57313458967391
 30
0.0
 11
103.6280546780695
 21
93.57313458967391
 31
0.0
  0
LINE
  5
15B
330
159
100
AcDbEntity
  8
0
  6
Continuous
 62
     2
100
AcDbLine
 10
103.6280546780695
 20
116.5731345896739
 30
0.0
 11
103.6280546780695
 21
92.57313458967391
 31
0.0
  0
LINE
  5
15C
330
159
100
AcDbEntity
  8
0
  6
Continuous
 62
     2
100
AcDbLine
 10
77.62805467806959
 20
103.1134450377869
 30
0.0
 11
77.62805467806959
 21
92.57313458967391
 31
0.0
  0
LINE
  5
15D
330
159
100
AcDbEntity
  8
0
  6
Continuous
 62
     2
100
AcDbLine
 10
77.62805467806959
 20
116.5731345896739
 30
0.0
 11
77.62805467806959
 21
106.7669605098289
 31
0.0
  0
SOLID
  5
15E
330
159
100
AcDbEntity
  8
0
 62
     2
100
AcDbTrace
 10
81.12805467806959
 20
94.0339183312298
 30
0.0
 11
81.12805467806959
 21
93.11235084811803
 31
0.0
 12
77.62805467806959
 22
93.57313458967391
 32
0.0
 13
77.62805467806959
 23
93.57313458967391
 33
0.0
  0
SOLID
  5
15F
330
159
100
AcDbEntity
  8
0
 62
     2
100
AcDbTrace
 10
100.1280546780695
 20
93.11235084811803
 30
0.0
 11
100.1280546780695
 21
94.0339183312298
 31
0.0
 12
103.6280546780695
 22
93.57313458967391
 32
0.0
 13
103.6280546780695
 23
93.57313458967391
 33
0.0
  0
MTEXT
  5
160
330
159
100
AcDbEntity
  8
0
 62
     7
100
AcDbMText
 10
87.2644625951109
 20
94.57312763259759
 30
0.0
 40
3.5
 41
0.0
 71
     7
 72
     1
  1
\C7;{\Fgdt;n}\C7;26
  7
CONVERTER_13
 11
0.9999999999970619
 21
2.424068405545306E-6
 31
0.0
 73
     1
 44
0.60024009603842
  0
ENDBLK
  5
162
330
159
100
AcDbEntity
  8
0
100
AcDbBlockEnd
  0
BLOCK
  5
16D
330
165
100
AcDbEntity
  8
0
100
AcDbBlockBegin
  2
*D5
 70
     1
 10
0.0
 20
0.0
 30
0.0
  3
*D5
  1

  0
LINE
  5
166
330
165
100
AcDbEntity
  8
0
  6
Continuous
 62
     2
100
AcDbLine
 10
55.62805467806946
 20
158.5731345896739
 30
0.0
 11
85.62805467806946
 21
158.5731345896739
 31
0.0
  0
LINE
  5
167
330
165
100
AcDbEntity
  8
0
  6
Continuous
 62
     2
100
AcDbLine
 10
85.62805467806946
 20
147.3231345896739
 30
0.0
 11
85.62805467806946
 21
153.6857907823639
 31
0.0
  0
LINE
  5
168
330
165
100
AcDbEntity
  8
0
  6
Continuous
 62
     2
100
AcDbLine
 10
85.62805467806946
 20
156.5701451023969
 30
0.0
 11
85.62805467806946
 21
159.5731345896739
 31
0.0
  0
LINE
  5
169
330
165
100
AcDbEntity
  8
0
  6
Continuous
 62
     2
100
AcDbLine
 10
55.62805467806946
 20
147.3231345896739
 30
0.0
 11
55.62805467806946
 21
159.5731345896739
 31
0.0
  0
SOLID
  5
16A
330
165
100
AcDbEntity
  8
0
 62
     2
100
AcDbTrace
 10
59.12805467806946
 20
159.0339183312298
 30
0.0
 11
59.12805467806946
 21
158.112350848118
 31
0.0
 12
55.62805467806946
 22
158.5731345896739
 32
0.0
 13
55.62805467806946
 23
158.5731345896739
 33
0.0
  0
SOLID
  5
16B
330
165
100
AcDbEntity
  8
0
 62
     2
100
AcDbTrace
 10
82.12805467806946
 20
158.112350848118
 30
0.0
 11
82.12805467806946
 21
159.0339183312298
 31
0.0
 12
85.62805467806946
 22
158.5731345896739
 32
0.0
 13
85.62805467806946
 23
158.5731345896739
 33
0.0
  0
MTEXT
  5
16C
330
165
100
AcDbEntity
  8
0
 62
     7
100
AcDbMText
 10
67.07298292510889
 20
159.5731276325976
 30
0.0
 40
3.5
 41
0.0
 71
     7
 72
     1
  1
\C7;{\Fgdt;n}\C7;30
  7
CONVERTER_13
 11
0.9999999999970619
 21
2.424068405545306E-6
 31
0.0
 73
     1
 44
0.60024009603842
  0
ENDBLK
  5
16E
330
165
100
AcDbEntity
  8
0
100
AcDbBlockEnd
  0
BLOCK
  5
178
330
171
100
AcDbEntity
  8
0
100
AcDbBlockBegin
  2
*D6
 70
     1
 10
0.0
 20
0.0
 30
0.0
  3
*D6
  1

  0
LINE
  5
172
330
171
100
AcDbEntity
  8
0
  6
Continuous
 62
     2
100
AcDbLine
 10
112.6280546780695
 20
116.5731345896739
 30
0.0
 11
112.6280546780695
 21
102.5731345896739
 31
0.0
  0
LINE
  5
173
330
171
100
AcDbEntity
  8
0
  6
Continuous
 62
     2
100
AcDbLine
 10
99.6885419345657
 20
102.5731345896739
 30
0.0
 11
113.6280546780695
 21
102.5731345896739
 31
0.0
  0
LINE
  5
174
330
171
100
AcDbEntity
  8
0
  6
Continuous
 62
     2
100
AcDbLine
 10
103.6280546780695
 20
116.5731345896739
 30
0.0
 11
113.6280546780695
 21
116.5731345896739
 31
0.0
  0
SOLID
  5
175
330
171
100
AcDbEntity
  8
0
 62
     2
100
AcDbTrace
 10
113.0888384196254
 20
113.0731345896739
 30
0.0
 11
112.1672709365136
 21
113.0731345896739
 31
0.0
 12
112.6280546780695
 22
116.5731345896739
 32
0.0
 13
112.6280546780695
 23
116.5731345896739
 33
0.0
  0
SOLID
  5
176
330
171
100
AcDbEntity
  8
0
 62
     2
100
AcDbTrace
 10
112.1672709365136
 20
106.0731345896739
 30
0.0
 11
113.0888384196254
 21
106.0731345896739
 31
0.0
 12
112.6280546780695
 22
102.5731345896739
 32
0.0
 13
112.6280546780695
 23
102.5731345896739
 33
0.0
  0
MTEXT
  5
177
330
171
100
AcDbEntity
  8
0
 62
     7
100
AcDbMText
 10
111.6280546780695
 20
108.4777035286267
 30
0.0
 40
3.5
 41
0.0
 71
     7
 72
     1
  1
14
  7
CONVERTER_13
 11
0.0
 21
1.0
 31
0.0
 73
     1
 44
0.60024009603842
  0
ENDBLK
  5
179
330
171
100
AcDbEntity
  8
0
100
AcDbBlockEnd
  0
BLOCK
  5
183
330
17C
100
AcDbEntity
  8
0
100
AcDbBlockBegin
  2
*D7
 70
     1
 10
0.0
 20
0.0
 30
0.0
  3
*D7
  1

  0
LINE
  5
17D
330
17C
100
AcDbEntity
  8
0
  6
Continuous
 62
     2
100
AcDbLine
 10
120.6280546780695
 20
147.5731345896739
 30
0.0
 11
120.6280546780695
 21
102.5731345896739
 31
0.0
  0
LINE
  5
17E
330
17C
100
AcDbEntity
  8
0
  6
Continuous
 62
     2
100
AcDbLine
 10
99.6885419345657
 20
102.5731345896739
 30
0.0
 11
121.6280546780695
 21
102.5731345896739
 31
0.0
  0
LINE
  5
17F
330
17C
100
AcDbEntity
  8
0
  6
Continuous
 62
     2
100
AcDbLine
 10
85.3780546780695
 20
147.5731345896739
 30
0.0
 11
121.6280546780695
 21
147.5731345896739
 31
0.0
  0
SOLID
  5
180
330
17C
100
AcDbEntity
  8
0
 62
     2
100
AcDbTrace
 10
121.0888384196254
 20
144.0731345896739
 30
0.0
 11
120.1672709365136
 21
144.0731345896739
 31
0.0
 12
120.6280546780695
 22
147.5731345896739
 32
0.0
 13
120.6280546780695
 23
147.5731345896739
 33
0.0
  0
SOLID
  5
181
330
17C
100
AcDbEntity
  8
0
 62
     2
100
AcDbTrace
 10
120.1672709365136
 20
106.0731345896739
 30
0.0
 11
121.0888384196254
 21
106.0731345896739
 31
0.0
 12
120.6280546780695
 22
102.5731345896739
 32
0.0
 13
120.6280546780695
 23
102.5731345896739
 33
0.0
  0
MTEXT
  5
182
330
17C
100
AcDbEntity
  8
0
 62
     7
100
AcDbMText
 10
119.6280546780695
 20
121.4130236887797
 30
0.0
 40
3.5
 41
0.0
 71
     7
 72
     1
  1
45
  7
CONVERTER_13
 11
0.0
 21
1.0
 31
0.0
 73
     1
 44
0.60024009603842
  0
ENDBLK
  5
184
330
17C
100
AcDbEntity
  8
0
100
AcDbBlockEnd
  0
BLOCK
  5
18E
330
187
100
AcDbEntity
  8
0
100
AcDbBlockBegin
  2
*D8
 70
     1
 10
0.0
 20
0.0
 30
0.0
  3
*D8
  1

  0
LINE
  5
188
330
187
100
AcDbEntity
  8
1
  6
Continuous
 62
     2
100
AcDbLine
 10
70.62805467806946
 20
223.5731345896739
 30
0.0
 11
90.62805467806945
 21
223.5731345896739
 31
0.0
  0
LINE
  5
189
330
187
100
AcDbEntity
  8
1
  6
Continuous
 62
     2
100
AcDbLine
 10
90.62805467806945
 20
213.5731345896739
 30
0.0
 11
90.62805467806945
 21
224.5731345896739
 31
0.0
  0
LINE
  5
18A
330
187
100
AcDbEntity
  8
1
  6
Continuous
 62
     2
100
AcDbLine
 10
70.62805467806946
 20
215.5731345896739
 30
0.0
 11
70.62805467806946
 21
224.5731345896739
 31
0.0
  0
SOLID
  5
18B
330
187
100
AcDbEntity
  8
1
 62
     2
100
AcDbTrace
 10
74.12805467806946
 20
224.0339183312298
 30
0.0
 11
74.12805467806946
 21
223.112350848118
 31
0.0
 12
70.62805467806946
 22
223.5731345896739
 32
0.0
 13
70.62805467806946
 23
223.5731345896739
 33
0.0
  0
SOLID
  5
18C
330
187
100
AcDbEntity
  8
1
 62
     2
100
AcDbTrace
 10
87.12805467806945
 20
223.112350848118
 30
0.0
 11
87.12805467806945
 21
224.0339183312298
 31
0.0
 12
90.62805467806945
 22
223.5731345896739
 32
0.0
 13
90.62805467806945
 23
223.5731345896739
 33
0.0
  0
MTEXT
  5
18D
330
187
100
AcDbEntity
  8
1
 62
     7
100
AcDbMText
 10
77.95099557522096
 20
224.5731345896739
 30
0.0
 40
3.5
 41
0.0
 71
     7
 72
     1
  1
20
  7
CONVERTER_13
 11
0.9999999999970619
 21
2.424068405545306E-6
 31
0.0
 73
     1
 44
0.60024009603842
  0
ENDBLK
  5
18F
330
187
100
AcDbEntity
  8
0
100
AcDbBlockEnd
  0
ENDSEC
  0
SECTION
  2
ENTITIES
  0
INSERT
  5
52
330
1F
100
AcDbEntity
  8
0
100
AcDbBlockReference
  2
開示A4枠
 10
0.0
 20
0.0
 30
0.0
  0
INSERT
  5
53
330
1F
100
AcDbEntity
  8
0
100
AcDbBlockReference
  2
T29-0-13X20
 10
116.3499770950075
 20
170.3566597695299
 30
0.0
  0
LINE
  5
140
330
1F
100
AcDbEntity
  8
1
  6
DASH_CENTER
 62
     2
100
AcDbLine
 10
90.62805467806945
 20
121.6097983741687
 30
0.0
 11
90.62805467806945
 21
99.57313458967391
 31
0.0
  0
LINE
  5
141
330
1F
100
AcDbEntity
  8
1
  6
DASH_CENTER
 62
     2
100
AcDbLine
 10
70.62805467806946
 20
150.5731345896739
 30
0.0
 11
70.62805467806946
 21
128.5731345896739
 31
0.0
  0
LINE
  5
142
330
1F
100
AcDbEntity
  8
1
  6
DASH_CENTER
 62
     2
100
AcDbLine
 10
70.62805467806946
 20
215.5731345896739
 30
0.0
 11
70.62805467806946
 21
179.5731345896739
 31
0.0
  0
LINE
  5
143
330
1F
100
AcDbEntity
  8
1
  6
DASH_CENTER
 62
     2
100
AcDbLine
 10
52.62805467806943
 20
197.5731345896739
 30
0.0
 11
106.6280546780695
 21
197.5731345896739
 31
0.0
  0
LINE
  5
144
330
1F
100
AcDbEntity
  8
1
  6
DASH_CENTER
 62
     2
100
AcDbLine
 10
90.62805467806945
 20
213.5731345896739
 30
0.0
 11
90.62805467806945
 21
181.5731345896739
 31
0.0
  0
LINE
  5
145
330
1F
100
AcDbEntity
  8
1
  6
DASH_CENTER
 62
     2
100
AcDbLine
 10
164.1713883789852
 20
150.5731345896739
 30
0.0
 11
164.1713883789852
 21
99.57313458967391
 31
0.0
  0
SOLID
  5
146
330
1F
100
AcDbEntity
  8
1
 62
     2
100
AcDbTrace
 10
82.47650425223121
 20
150.5846153736974
 30
0.0
 11
83.27460510390769
 21
150.1238316321415
 31
0.0
 12
81.12555467806946
 22
147.3231345896739
 32
0.0
 13
81.12555467806946
 23
147.3231345896739
 33
0.0
  0
LEADER
  5
147
330
1F
100
AcDbEntity
  8
1
  6
Continuous
 62
     2
100
AcDbLeader
  3
Standard
 71
     0
 76
     3
 10
81.12555467806946
 20
147.3231345896739
 30
0.0
 10
93.98981872251096
 20
169.604693516628
 30
0.0
 10
108.2286585099585
 20
169.604693516628
 30
0.0
  0
SOLID
  5
148
330
1F
100
AcDbEntity
  8
1
 62
     2
100
AcDbTrace
 10
78.82491180010778
 20
106.0219119774012
 30
0.0
 11
78.02681094843132
 21
106.4826957189571
 31
0.0
 12
80.17586137426956
 22
109.2833927614247
 32
0.0
 13
80.17586137426956
 23
109.2833927614247
 33
0.0
  0
LEADER
  5
149
330
1F
100
AcDbEntity
  8
1
  6
Continuous
 62
     2
100
AcDbLeader
  3
Standard
 71
     0
 76
     3
 10
80.17586137426956
 20
109.2833927614247
 30
0.0
 10
70.52818932058106
 20
92.57313458967391
 30
0.0
 10
58.89563673925346
 20
92.57313458967391
 30
0.0
  0
MTEXT
  5
14B
330
1F
100
AcDbEntity
  8
1
 62
     7
100
AcDbMText
 10
157.5
 20
12.49999999999999
 30
0.0
 40
2.5
 41
0.0
 71
     5
 72
     1
  1
9
  7
CONVERTER_13
 73
     1
 44
0.7202881152461
  0
MTEXT
  5
14C
330
1F
100
AcDbEntity
  8
1
 62
     7
100
AcDbMText
 10
151.75
 20
12.49999999999999
 30
0.0
 40
2.5
 41
0.0
 71
     5
 72
     1
  1
03
  7
CONVERTER_13
 73
     1
 44
0.7202881152461
  0
MTEXT
  5
14D
330
1F
100
AcDbEntity
  8
1
 62
     7
100
AcDbMText
 10
140.5
 20
12.49999999999999
 30
0.0
 40
2.5
 41
0.0
 71
     5
 72
     1
  1
9
  7
CONVERTER_13
 73
     1
 44
0.7202881152461
  0
MTEXT
  5
14E
330
1F
100
AcDbEntity
  8
1
 62
     7
100
AcDbMText
 10
134.75
 20
12.49999999999999
 30
0.0
 40
2.5
 41
0.0
 71
     5
 72
     1
  1
03
  7
CONVERTER_13
 73
     1
 44
0.7202881152461
  0
MTEXT
  5
14F
330
1F
100
AcDbEntity
  8
1
 62
     7
100
AcDbMText
 10
123.5
 20
12.49999999999999
 30
0.0
 40
2.5
 41
0.0
 71
     5
 72
     1
  1
9
  7
CONVERTER_13
 73
     1
 44
0.7202881152461
  0
MTEXT
  5
150
330
1F
100
AcDbEntity
  8
1
 62
     7
100
AcDbMText
 10
117.75
 20
12.49999999999999
 30
0.0
 40
2.5
 41
0.0
 71
     5
 72
     1
  1
03
  7
CONVERTER_13
 73
     1
 44
0.7202881152461
  0
MTEXT
  5
151
330
1F
100
AcDbEntity
  8
1
 62
     7
100
AcDbMText
 10
100.75
 20
12.49999999999999
 30
0.0
 40
2.5
 41
0.0
 71
     5
 72
     1
  1
03
  7
CONVERTER_13
 73
     1
 44
0.7202881152461
  0
MTEXT
  5
152
330
1F
100
AcDbEntity
  8
1
 62
     7
100
AcDbMText
 10
106.5
 20
12.49999999999999
 30
0.0
 40
2.5
 41
0.0
 71
     5
 72
     1
  1
9
  7
CONVERTER_13
 73
     1
 44
0.7202881152461
  0
MTEXT
  5
153
330
1F
100
AcDbEntity
  8
0
 62
     7
100
AcDbMText
 10
102.0457576604356
 20
172.1410533298279
 30
0.0
 40
3.5
 41
0.0
 71
     5
 72
     1
  1
G1/2
  7
CONVERTER_13
 73
     1
 44
1.32052821128451
  0
MTEXT
  5
154
330
1F
100
AcDbEntity
  8
0
 62
     7
100
AcDbMText
 10
64.20877643905416
 20
95.0029669625311
 30
0.0
 40
3.5
 41
0.0
 71
     5
 72
     1
  1
R1/2
  7
CONVERTER_13
 73
     1
 44
1.32052821128451
  0
MTEXT
  5
155
330
1F
100
AcDbEntity
  8
1
 62
     7
100
AcDbMText
 10
93.74999999999997
 20
17.0
 30
0.0
 40
3.5
 41
0.0
 71
     5
 72
     1
  1
1
  7
CONVERTER_13
 73
     1
 44
0.7202881152461
  0
MTEXT
  5
156
330
1F
100
AcDbEntity
  8
1
 62
     7
100
AcDbMText
 10
56.99999999999996
 20
14.25
 30
0.0
 40
3.5
 41
0.0
 71
     5
 72
     1
  1
T29-13X20
  7
CONVERTER_13
 73
     1
 44
0.7202881152461
  0
MTEXT
  5
157
330
1F
100
AcDbEntity
  8
1
 62
     7
100
AcDbMText
 10
56.99999999999996
 20
22.75000000000001
 30
0.0
 40
3.5
 41
0.0
 71
     5
 72
     1
  1
偏心ザルボ
  7
CONVERTER_11
 73
     1
 44
0.54545454545455
  0
MTEXT
  5
158
330
1F
100
AcDbEntity
  8
1
 62
     7
100
AcDbMText
 10
85.24999999999997
 20
17.0
 30
0.0
 40
3.5
 41
0.0
 71
     5
 72
     1
  1
1
  7
CONVERTER_13
 73
     1
 44
0.7202881152461
  0
DIMENSION
  5
164
330
1F
100
AcDbEntity
  8
0
100
AcDbDimension
  2
*D4
 10
77.62805467806959
 20
93.57313458967391
 30
0.0
 11
90.65946259510247
 21
96.32313458967391
 31
0.0
 70
    32
  1
<>
 71
     5
 42
-1.0
 53
0.00013888888889
  3
ME10_DIM_10
100
AcDbAlignedDimension
 13
103.6280546780695
 23
116.5731345896739
 33
0.0
 14
77.62805467806956
 24
116.5731345896739
 34
0.0
100
AcDbRotatedDimension
  0
DIMENSION
  5
170
330
1F
100
AcDbEntity
  8
0
100
AcDbDimension
  2
*D5
 10
55.62805467806946
 20
158.5731345896739
 30
0.0
 11
70.46798292510046
 21
161.3231345896739
 31
0.0
 70
    32
  1
<>
 71
     5
 42
-1.0
 53
0.00013888888889
  3
ME10_DIM_11
100
AcDbAlignedDimension
 13
85.62805467806945
 23
147.3231345896739
 33
0.0
 14
55.62805467806946
 24
147.3231345896739
 34
0.0
100
AcDbRotatedDimension
  0
DIMENSION
  5
17B
330
1F
100
AcDbEntity
  8
0
100
AcDbDimension
  2
*D6
 10
112.6280546780695
 20
116.5731345896739
 30
0.0
 11
109.8780546780695
 21
110.5777035286267
 31
0.0
 70
    32
  1
<>
 71
     5
 42
-1.0
 53
90.0
  3
ME10_DIM_12
100
AcDbAlignedDimension
 13
99.68854193456565
 23
102.5731345896739
 33
0.0
 14
103.6280546780695
 24
116.5731345896739
 34
0.0
 50
90.0
100
AcDbRotatedDimension
  0
DIMENSION
  5
186
330
1F
100
AcDbEntity
  8
0
100
AcDbDimension
  2
*D7
 10
120.6280546780695
 20
147.5731345896739
 30
0.0
 11
117.8780546780695
 21
124.0380236887797
 31
0.0
 70
    32
  1
<>
 71
     5
 42
-1.0
 53
90.0
  3
ME10_DIM_13
100
AcDbAlignedDimension
 13
99.68854193456565
 23
102.5731345896739
 33
0.0
 14
85.37805467806945
 24
147.5731345896739
 34
0.0
 50
90.0
100
AcDbRotatedDimension
  0
DIMENSION
  5
191
330
1F
100
AcDbEntity
  8
1
100
AcDbDimension
  2
*D8
 10
70.62805467806946
 20
223.5731345896739
 30
0.0
 11
80.57599557522096
 21
226.3231345896739
 31
0.0
 70
    32
  1
<>
 71
     5
 42
-1.0
 53
0.00013888888889
  3
ME10_DIM_14
100
AcDbAlignedDimension
 13
90.62805467806945
 23
213.5731345896739
 33
0.0
 14
70.62805467806946
 24
215.5731345896739
 34
0.0
100
AcDbRotatedDimension
  0
ENDSEC
  0
SECTION
  2
OBJECTS
  0
DICTIONARY
  5
C
330
0
100
AcDbDictionary
281
     1
  3
ACAD_GROUP
350
D
  3
ACAD_LAYOUT
350
1A
  3
ACAD_MATERIAL
350
3B
  3
ACAD_MLEADERSTYLE
350
194
  3
ACAD_MLINESTYLE
350
17
  3
ACAD_PLOTSETTINGS
350
19
  3
ACAD_PLOTSTYLENAME
350
E
  3
ACAD_VISUALSTYLE
350
2A
  3
AcDbVariableDictionary
350
192
  0
DICTIONARY
  5
D
102
{ACAD_REACTORS
330
C
102
}
330
C
100
AcDbDictionary
281
     1
  0
DICTIONARY
  5
1A
102
{ACAD_REACTORS
330
C
102
}
330
C
100
AcDbDictionary
281
     1
  3
Layout1
350
1E
  3
Layout2
350
26
  3
Model
350
22
  0
DICTIONARY
  5
3B
102
{ACAD_REACTORS
330
C
102
}
330
C
100
AcDbDictionary
281
     1
  3
ByBlock
350
3D
  3
ByLayer
350
3C
  3
Global
350
3E
  0
DICTIONARY
  5
194
102
{ACAD_REACTORS
330
C
102
}
330
C
100
AcDbDictionary
281
     1
  0
DICTIONARY
  5
17
102
{ACAD_REACTORS
330
C
102
}
330
C
100
AcDbDictionary
281
     1
  3
Standard
350
18
  0
DICTIONARY
  5
19
102
{ACAD_REACTORS
330
C
102
}
330
C
100
AcDbDictionary
281
     1
  0
ACDBDICTIONARYWDFLT
  5
E
102
{ACAD_REACTORS
330
C
102
}
330
C
100
AcDbDictionary
281
     1
  3
Normal
350
F
100
AcDbDictionaryWithDefault
340
F
  0
DICTIONARY
  5
2A
102
{ACAD_REACTORS
330
C
102
}
330
C
100
AcDbDictionary
281
     1
  3
2dWireframe
350
2F
  3
3D Hidden
350
31
  3
3dWireframe
350
30
  3
Basic
350
32
  3
Brighten
350
36
  3
ColorChange
350
3A
  3
Conceptual
350
34
  3
Dim
350
35
  3
Facepattern
350
39
  3
Flat
350
2B
  3
FlatWithEdges
350
2C
  3
Gouraud
350
2D
  3
GouraudWithEdges
350
2E
  3
Linepattern
350
38
  3
Realistic
350
33
  3
Thicken
350
37
  0
DICTIONARY
  5
192
102
{ACAD_REACTORS
330
C
102
}
330
C
100
AcDbDictionary
281
     1
  3
DIMASSOC
350
195
  3
HIDETEXT
350
196
  0
LAYOUT
  5
1E
102
{ACAD_REACTORS
330
1A
102
}
330
1A
100
AcDbPlotSettings
  1

  2
none_device
  4

  6

 40
0.0
 41
0.0
 42
0.0
 43
0.0
 44
0.0
 45
0.0
 46
0.0
 47
0.0
 48
0.0
 49
0.0
140
0.0
141
0.0
142
1.0
143
1.0
 70
   688
 72
     0
 73
     0
 74
     5
  7

 75
    16
147
1.0
148
0.0
149
0.0
100
AcDbLayout
  1
Layout1
 70
     1
 71
     1
 10
0.0
 20
0.0
 11
12.0
 21
9.0
 12
0.0
 22
0.0
 32
0.0
 14
1.00000000000000E+20
 24
1.00000000000000E+20
 34
1.00000000000000E+20
 15
-1.00000000000000E+20
 25
-1.00000000000000E+20
 35
-1.00000000000000E+20
146
0.0
 13
0.0
 23
0.0
 33
0.0
 16
1.0
 26
0.0
 36
0.0
 17
0.0
 27
1.0
 37
0.0
 76
     0
330
1B
  0
LAYOUT
  5
26
102
{ACAD_REACTORS
330
1A
102
}
330
1A
100
AcDbPlotSettings
  1

  2
none_device
  4

  6

 40
0.0
 41
0.0
 42
0.0
 43
0.0
 44
0.0
 45
0.0
 46
0.0
 47
0.0
 48
0.0
 49
0.0
140
0.0
141
0.0
142
1.0
143
1.0
 70
   688
 72
     0
 73
     0
 74
     5
  7

 75
    16
147
1.0
148
0.0
149
0.0
100
AcDbLayout
  1
Layout2
 70
     1
 71
     2
 10
0.0
 20
0.0
 11
0.0
 21
0.0
 12
0.0
 22
0.0
 32
0.0
 14
0.0
 24
0.0
 34
0.0
 15
0.0
 25
0.0
 35
0.0
146
0.0
 13
0.0
 23
0.0
 33
0.0
 16
1.0
 26
0.0
 36
0.0
 17
0.0
 27
1.0
 37
0.0
 76
     0
330
23
  0
LAYOUT
  5
22
102
{ACAD_REACTORS
330
1A
102
}
330
1A
100
AcDbPlotSettings
  1

  2
none_device
  4

  6

 40
0.0
 41
0.0
 42
0.0
 43
0.0
 44
0.0
 45
0.0
 46
0.0
 47
0.0
 48
0.0
 49
0.0
140
0.0
141
0.0
142
1.0
143
1.0
 70
  1712
 72
     0
 73
     0
 74
     0
  7

 75
     0
147
1.0
148
0.0
149
0.0
100
AcDbLayout
  1
Model
 70
     1
 71
     0
 10
0.0
 20
0.0
 11
12.0
 21
9.0
 12
0.0
 22
0.0
 32
0.0
 14
0.0
 24
0.0
 34
0.0
 15
210.0
 25
297.0
 35
0.0
146
0.0
 13
0.0
 23
0.0
 33
0.0
 16
1.0
 26
0.0
 36
0.0
 17
0.0
 27
1.0
 37
0.0
 76
     0
330
1F
331
29
  0
MATERIAL
  5
3D
102
{ACAD_REACTORS
330
3B
102
}
102
{ACAD_XDICTIONARY
360
1B9
102
}
330
3B
100
AcDbMaterial
  1
ByBlock
  0
MATERIAL
  5
3C
102
{ACAD_REACTORS
330
3B
102
}
102
{ACAD_XDICTIONARY
360
1B7
102
}
330
3B
100
AcDbMaterial
  1
ByLayer
  0
MATERIAL
  5
3E
102
{ACAD_REACTORS
330
3B
102
}
102
{ACAD_XDICTIONARY
360
1BB
102
}
330
3B
100
AcDbMaterial
  1
Global
  0
MLINESTYLE
  5
18
102
{ACAD_REACTORS
330
17
102
}
330
17
100
AcDbMlineStyle
  2
Standard
 70
     0
  3

 62
   256
 51
90.0
 52
90.0
 71
     2
 49
0.5
 62
   256
  6
BYLAYER
 49
-0.5
 62
   256
  6
BYLAYER
  0
ACDBPLACEHOLDER
  5
F
102
{ACAD_REACTORS
330
E
102
}
330
E
  0
VISUALSTYLE
  5
2F
102
{ACAD_REACTORS
330
2A
102
}
102
{ACAD_XDICTIONARY
360
19F
102
}
330
2A
100
AcDbVisualStyle
  2
2dWireframe
 70
     4
 71
     0
 72
     2
 73
     0
 90
        0
 40
-0.6
 41
-30.0
 62
     5
 63
     7
 74
     1
 91
        4
 64
     7
 65
   257
 75
     1
175
     1
 42
1.0
 92
        0
 66
   257
 43
1.0
 76
     1
 77
     6
 78
     2
 67
     7
 79
     5
170
     0
171
     0
290
     0
174
     0
 93
        1
 44
0.0
173
     0
291
     0
 45
0.0
1001
ACAD
1000
AcDbSavedByObjectVersion
1070
     0
  0
VISUALSTYLE
  5
31
102
{ACAD_REACTORS
330
2A
102
}
102
{ACAD_XDICTIONARY
360
1A3
102
}
330
2A
100
AcDbVisualStyle
  2
3D Hidden
 70
     6
 71
     1
 72
     2
 73
     2
 90
        0
 40
-0.6
 41
-30.0
 62
     5
 63
     7
 74
     2
 91
        2
 64
     7
 65
   257
 75
     2
175
     1
 42
40.0
 92
        0
 66
   257
 43
1.0
 76
     1
 77
     6
 78
     2
 67
     7
 79
     3
170
     0
171
     0
290
     0
174
     0
 93
        1
 44
0.0
173
     0
291
     0
 45
0.0
1001
ACAD
1000
AcDbSavedByObjectVersion
1070
     0
  0
VISUALSTYLE
  5
30
102
{ACAD_REACTORS
330
2A
102
}
102
{ACAD_XDICTIONARY
360
1A1
102
}
330
2A
100
AcDbVisualStyle
  2
3dWireframe
 70
     5
 71
     0
 72
     2
 73
     0
 90
        0
 40
-0.6
 41
-30.0
 62
     5
 63
     7
 74
     1
 91
        4
 64
     7
 65
   257
 75
     1
175
     1
 42
1.0
 92
        0
 66
   257
 43
1.0
 76
     1
 77
     6
 78
     2
 67
     7
 79
     5
170
     0
171
     0
290
     0
174
     0
 93
        1
 44
0.0
173
     0
291
     0
 45
0.0
1001
ACAD
1000
AcDbSavedByObjectVersion
1070
     0
  0
VISUALSTYLE
  5
32
102
{ACAD_REACTORS
330
2A
102
}
102
{ACAD_XDICTIONARY
360
1A5
102
}
330
2A
100
AcDbVisualStyle
  2
Basic
 70
     7
 71
     1
 72
     0
 73
     1
 90
        0
 40
-0.6
 41
-30.0
 62
     5
 63
     7
 74
     0
 91
        4
 64
     7
 65
   257
 75
     1
175
     1
 42
1.0
 92
        8
 66
     7
 43
1.0
 76
     1
 77
     6
 78
     2
 67
     7
 79
     5
170
     0
171
     0
290
     0
174
     0
 93
        1
 44
0.0
173
     0
291
     1
 45
0.0
1001
ACAD
1000
AcDbSavedByObjectVersion
1070
     0
  0
VISUALSTYLE
  5
36
102
{ACAD_REACTORS
330
2A
102
}
102
{ACAD_XDICTIONARY
360
1AD
102
}
330
2A
100
AcDbVisualStyle
  2
Brighten
 70
    12
 71
     2
 72
     2
 73
     0
 90
        0
 40
-0.6
 41
-30.0
 62
     5
 63
     7
 74
     1
 91
        4
 64
     7
 65
   257
 75
     1
175
     1
 42
1.0
 92
        8
 66
     7
 43
1.0
 76
     1
 77
     6
 78
     2
 67
     7
 79
     5
170
     0
171
     0
290
     0
174
     0
 93
        1
 44
50.0
173
     0
291
     1
 45
0.0
1001
ACAD
1000
AcDbSavedByObjectVersion
1070
     0
  0
VISUALSTYLE
  5
3A
102
{ACAD_REACTORS
330
2A
102
}
102
{ACAD_XDICTIONARY
360
1B5
102
}
330
2A
100
AcDbVisualStyle
  2
ColorChange
 70
    16
 71
     2
 72
     2
 73
     3
 90
        0
 40
-0.6
 41
-30.0
 62
     5
 63
     8
 74
     1
 91
        4
 64
     7
 65
   257
 75
     1
175
     1
 42
1.0
 92
        8
 66
     8
 43
1.0
 76
     1
 77
     6
 78
     2
 67
     7
 79
     5
170
     0
171
     0
290
     0
174
     0
 93
        1
 44
0.0
173
     0
291
     1
 45
0.0
1001
ACAD
1000
AcDbSavedByObjectVersion
1070
     0
  0
VISUALSTYLE
  5
34
102
{ACAD_REACTORS
330
2A
102
}
102
{ACAD_XDICTIONARY
360
1A9
102
}
330
2A
100
AcDbVisualStyle
  2
Conceptual
 70
     9
 71
     3
 72
     2
 73
     0
 90
        0
 40
-0.6
 41
-30.0
 62
     5
 63
     7
 74
     2
 91
        2
 64
     7
 65
   257
 75
     1
175
     1
 42
40.0
 92
        8
 66
     7
 43
1.0
 76
     1
 77
     6
 78
     2
 67
     7
 79
     3
170
     0
171
     0
290
     0
174
     0
 93
        1
 44
0.0
173
     0
291
     0
 45
0.0
1001
ACAD
1000
AcDbSavedByObjectVersion
1070
     0
  0
VISUALSTYLE
  5
35
102
{ACAD_REACTORS
330
2A
102
}
102
{ACAD_XDICTIONARY
360
1AB
102
}
330
2A
100
AcDbVisualStyle
  2
Dim
 70
    11
 71
     2
 72
     2
 73
     0
 90
        0
 40
-0.6
 41
-30.0
 62
     5
 63
     7
 74
     1
 91
        4
 64
     7
 65
   257
 75
     1
175
     1
 42
1.0
 92
        8
 66
     7
 43
1.0
 76
     1
 77
     6
 78
     2
 67
     7
 79
     5
170
     0
171
     0
290
     0
174
     0
 93
        1
 44
-50.0
173
     0
291
     1
 45
0.0
1001
ACAD
1000
AcDbSavedByObjectVersion
1070
     0
  0
VISUALSTYLE
  5
39
102
{ACAD_REACTORS
330
2A
102
}
102
{ACAD_XDICTIONARY
360
1B3
102
}
330
2A
100
AcDbVisualStyle
  2
Facepattern
 70
    15
 71
     2
 72
     2
 73
     0
 90
        0
 40
-0.6
 41
-30.0
 62
     5
 63
     7
 74
     1
 91
        4
 64
     7
 65
   257
 75
     1
175
     1
 42
1.0
 92
        8
 66
     7
 43
1.0
 76
     1
 77
     6
 78
     2
 67
     7
 79
     5
170
     0
171
     0
290
     0
174
     0
 93
        1
 44
0.0
173
     0
291
     1
 45
0.0
1001
ACAD
1000
AcDbSavedByObjectVersion
1070
     0
  0
VISUALSTYLE
  5
2B
102
{ACAD_REACTORS
330
2A
102
}
102
{ACAD_XDICTIONARY
360
197
102
}
330
2A
100
AcDbVisualStyle
  2
Flat
 70
     0
 71
     2
 72
     1
 73
     1
 90
        2
 40
-0.6
 41
30.0
 62
     5
 63
     7
 74
     0
 91
        4
 64
     7
 65
   257
 75
     1
175
     1
 42
1.0
 92
        8
 66
     7
 43
1.0
 76
     1
 77
     6
 78
     2
 67
     7
 79
     5
170
     0
171
     0
290
     0
174
     0
 93
       13
 44
0.0
173
     0
291
     1
 45
0.0
1001
ACAD
1000
AcDbSavedByObjectVersion
1070
     0
  0
VISUALSTYLE
  5
2C
102
{ACAD_REACTORS
330
2A
102
}
102
{ACAD_XDICTIONARY
360
199
102
}
330
2A
100
AcDbVisualStyle
  2
FlatWithEdges
 70
     1
 71
     2
 72
     1
 73
     1
 90
        2
 40
-0.6
 41
30.0
 62
     5
 63
     7
 74
     1
 91
        4
 64
     7
 65
   257
 75
     1
175
     1
 42
1.0
 92
        0
 66
   257
 43
1.0
 76
     1
 77
     6
 78
     2
 67
     7
 79
     5
170
     0
171
     0
290
     0
174
     0
 93
       13
 44
0.0
173
     0
291
     1
 45
0.0
1001
ACAD
1000
AcDbSavedByObjectVersion
1070
     0
  0
VISUALSTYLE
  5
2D
102
{ACAD_REACTORS
330
2A
102
}
102
{ACAD_XDICTIONARY
360
19B
102
}
330
2A
100
AcDbVisualStyle
  2
Gouraud
 70
     2
 71
     2
 72
     2
 73
     1
 90
        2
 40
-0.6
 41
30.0
 62
     5
 63
     7
 74
     0
 91
        4
 64
     7
 65
   257
 75
     1
175
     1
 42
1.0
 92
        0
 66
     7
 43
1.0
 76
     1
 77
     6
 78
     2
 67
     7
 79
     5
170
     0
171
     0
290
     0
174
     0
 93
       13
 44
0.0
173
     0
291
     1
 45
0.0
1001
ACAD
1000
AcDbSavedByObjectVersion
1070
     0
  0
VISUALSTYLE
  5
2E
102
{ACAD_REACTORS
330
2A
102
}
102
{ACAD_XDICTIONARY
360
19D
102
}
330
2A
100
AcDbVisualStyle
  2
GouraudWithEdges
 70
     3
 71
     2
 72
     2
 73
     1
 90
        2
 40
-0.6
 41
30.0
 62
     5
 63
     7
 74
     1
 91
        4
 64
     7
 65
   257
 75
     1
175
     1
 42
1.0
 92
        0
 66
   257
 43
1.0
 76
     1
 77
     6
 78
     2
 67
     7
 79
     5
170
     0
171
     0
290
     0
174
     0
 93
       13
 44
0.0
173
     0
291
     1
 45
0.0
1001
ACAD
1000
AcDbSavedByObjectVersion
1070
     0
  0
VISUALSTYLE
  5
38
102
{ACAD_REACTORS
330
2A
102
}
102
{ACAD_XDICTIONARY
360
1B1
102
}
330
2A
100
AcDbVisualStyle
  2
Linepattern
 70
    14
 71
     2
 72
     2
 73
     0
 90
        0
 40
-0.6
 41
-30.0
 62
     5
 63
     7
 74
     1
 91
        4
 64
     7
 65
   257
 75
     7
175
     7
 42
1.0
 92
        8
 66
     7
 43
1.0
 76
     1
 77
     6
 78
     2
 67
     7
 79
     5
170
     0
171
     0
290
     0
174
     0
 93
        1
 44
0.0
173
     0
291
     1
 45
0.0
1001
ACAD
1000
AcDbSavedByObjectVersion
1070
     0
  0
VISUALSTYLE
  5
33
102
{ACAD_REACTORS
330
2A
102
}
102
{ACAD_XDICTIONARY
360
1A7
102
}
330
2A
100
AcDbVisualStyle
  2
Realistic
 70
     8
 71
     2
 72
     2
 73
     0
 90
        0
 40
-0.6
 41
-30.0
 62
     5
 63
     7
 74
     1
 91
        0
 64
     7
 65
   257
 75
     1
175
     1
 42
1.0
 92
        8
 66
     8
 43
1.0
 76
     1
 77
     6
 78
     2
 67
     7
 79
     5
170
     0
171
     0
290
     0
174
     0
 93
       13
 44
0.0
173
     0
291
     0
 45
0.0
1001
ACAD
1000
AcDbSavedByObjectVersion
1070
     0
  0
VISUALSTYLE
  5
37
102
{ACAD_REACTORS
330
2A
102
}
102
{ACAD_XDICTIONARY
360
1AF
102
}
330
2A
100
AcDbVisualStyle
  2
Thicken
 70
    13
 71
     2
 72
     2
 73
     0
 90
        0
 40
-0.6
 41
-30.0
 62
     5
 63
     7
 74
     1
 91
        4
 64
     7
 65
   257
 75
     1
175
     1
 42
1.0
 92
       12
 66
     7
 43
1.0
 76
     1
 77
     6
 78
     2
 67
     7
 79
     5
170
     0
171
     0
290
     0
174
     0
 93
        1
 44
0.0
173
     0
291
     1
 45
0.0
1001
ACAD
1000
AcDbSavedByObjectVersion
1070
     0
  0
DICTIONARYVAR
  5
195
102
{ACAD_REACTORS
330
192
102
}
330
192
100
DictionaryVariables
280
     0
  1
2
  0
DICTIONARYVAR
  5
196
102
{ACAD_REACTORS
330
192
102
}
330
192
100
DictionaryVariables
280
     0
  1
1
  0
DICTIONARY
  5
1B9
330
3D
100
AcDbDictionary
280
     1
281
     1
  3
ACAD_XREC_ROUNDTRIP
360
1BA
  0
DICTIONARY
  5
1B7
330
3C
100
AcDbDictionary
280
     1
281
     1
  3
ACAD_XREC_ROUNDTRIP
360
1B8
  0
DICTIONARY
  5
1BB
330
3E
100
AcDbDictionary
280
     1
281
     1
  3
ACAD_XREC_ROUNDTRIP
360
1BC
  0
DICTIONARY
  5
19F
330
2F
100
AcDbDictionary
280
     1
281
     1
  3
ACAD_XREC_ROUNDTRIP
360
1A0
  0
DICTIONARY
  5
1A3
330
31
100
AcDbDictionary
280
     1
281
     1
  3
ACAD_XREC_ROUNDTRIP
360
1A4
  0
DICTIONARY
  5
1A1
330
30
100
AcDbDictionary
280
     1
281
     1
  3
ACAD_XREC_ROUNDTRIP
360
1A2
  0
DICTIONARY
  5
1A5
330
32
100
AcDbDictionary
280
     1
281
     1
  3
ACAD_XREC_ROUNDTRIP
360
1A6
  0
DICTIONARY
  5
1AD
330
36
100
AcDbDictionary
280
     1
281
     1
  3
ACAD_XREC_ROUNDTRIP
360
1AE
  0
DICTIONARY
  5
1B5
330
3A
100
AcDbDictionary
280
     1
281
     1
  3
ACAD_XREC_ROUNDTRIP
360
1B6
  0
DICTIONARY
  5
1A9
330
34
100
AcDbDictionary
280
     1
281
     1
  3
ACAD_XREC_ROUNDTRIP
360
1AA
  0
DICTIONARY
  5
1AB
330
35
100
AcDbDictionary
280
     1
281
     1
  3
ACAD_XREC_ROUNDTRIP
360
1AC
  0
DICTIONARY
  5
1B3
330
39
100
AcDbDictionary
280
     1
281
     1
  3
ACAD_XREC_ROUNDTRIP
360
1B4
  0
DICTIONARY
  5
197
330
2B
100
AcDbDictionary
280
     1
281
     1
  3
ACAD_XREC_ROUNDTRIP
360
198
  0
DICTIONARY
  5
199
330
2C
100
AcDbDictionary
280
     1
281
     1
  3
ACAD_XREC_ROUNDTRIP
360
19A
  0
DICTIONARY
  5
19B
330
2D
100
AcDbDictionary
280
     1
281
     1
  3
ACAD_XREC_ROUNDTRIP
360
19C
  0
DICTIONARY
  5
19D
330
2E
100
AcDbDictionary
280
     1
281
     1
  3
ACAD_XREC_ROUNDTRIP
360
19E
  0
DICTIONARY
  5
1B1
330
38
100
AcDbDictionary
280
     1
281
     1
  3
ACAD_XREC_ROUNDTRIP
360
1B2
  0
DICTIONARY
  5
1A7
330
33
100
AcDbDictionary
280
     1
281
     1
  3
ACAD_XREC_ROUNDTRIP
360
1A8
  0
DICTIONARY
  5
1AF
330
37
100
AcDbDictionary
280
     1
281
     1
  3
ACAD_XREC_ROUNDTRIP
360
1B0
  0
XRECORD
  5
1BA
102
{ACAD_REACTORS
330
1B9
102
}
330
1B9
100
AcDbXrecord
280
     1
102
MATERIAL
148
0.0
149
0.0
149
0.0
 93
        0
 94
      127
282
     0
 72
     1
 77
     1
171
     1
175
     1
179
     1
273
     0
  0
XRECORD
  5
1B8
102
{ACAD_REACTORS
330
1B7
102
}
330
1B7
100
AcDbXrecord
280
     1
102
MATERIAL
148
0.0
149
0.0
149
0.0
 93
        0
 94
      127
282
     0
 72
     1
 77
     1
171
     1
175
     1
179
     1
273
     0
  0
XRECORD
  5
1BC
102
{ACAD_REACTORS
330
1BB
102
}
330
1BB
100
AcDbXrecord
280
     1
102
MATERIAL
148
0.0
149
0.0
149
0.0
 93
        0
 94
      127
282
     0
 72
     1
 77
     1
171
     1
175
     1
179
     1
273
     0
  0
XRECORD
  5
1A0
102
{ACAD_REACTORS
330
19F
102
}
330
19F
100
AcDbXrecord
280
     1
102
RTVSPropertyOp0
 70
     1
102
RTVSPropertyOp1
 70
     1
102
RTVSPropertyOp2
 70
     1
102
RTVSPropertyOp3
 70
     1
102
RTVSPropertyOp4
 70
     1
102
RTVSPropertyOp5
 70
     1
102
RTVSPropertyOp6
 70
     1
102
RTVSPropertyOp7
 70
     1
102
RTVSPropertyOp8
 70
     1
102
RTVSPropertyOp9
 70
     1
102
RTVSPropertyOp10
 70
     1
102
RTVSPropertyOp11
 70
     1
102
RTVSPropertyOp12
 70
     1
102
RTVSPropertyOp13
 70
     1
102
RTVSPropertyOp14
 70
     1
102
RTVSPropertyOp15
 70
     1
102
RTVSPropertyOp16
 70
     1
102
RTVSPropertyOp17
 70
     1
102
RTVSPropertyOp18
 70
     1
102
RTVSPropertyOp19
 70
     1
102
RTVSPropertyOp20
 70
     1
102
RTVSPropertyOp21
 70
     1
102
RTVSPropertyOp22
 70
     1
102
RTVSPropertyOp23
 70
     1
102
RTVSPropertyOp24
 70
     1
102
RTVSPropertyOp25
 70
     1
102
RTVSPropertyOp26
 70
     1
102
RTVSPropertyOp27
 70
     1
102
RTVSPropertyOp28
 70
     1
102
RTVSPropertyOp29
 70
     1
102
RTVSPropertyOp30
 70
     1
102
RTVSPropertyOp31
 70
     1
102
RTVSPropertyOp32
 70
     1
  0
XRECORD
  5
1A4
102
{ACAD_REACTORS
330
1A3
102
}
330
1A3
100
AcDbXrecord
280
     1
102
RTVSPropertyOp0
 70
     1
102
RTVSPropertyOp1
 70
     1
102
RTVSPropertyOp2
 70
     1
102
RTVSPropertyOp3
 70
     1
102
RTVSPropertyOp4
 70
     1
102
RTVSPropertyOp5
 70
     1
102
RTVSPropertyOp6
 70
     1
102
RTVSPropertyOp7
 70
     1
102
RTVSPropertyOp8
 70
     1
102
RTVSPropertyOp9
 70
     1
102
RTVSPropertyOp10
 70
     1
102
RTVSPropertyOp11
 70
     1
102
RTVSPropertyOp12
 70
     1
102
RTVSPropertyOp13
 70
     1
102
RTVSPropertyOp14
 70
     1
102
RTVSPropertyOp15
 70
     1
102
RTVSPropertyOp16
 70
     1
102
RTVSPropertyOp17
 70
     1
102
RTVSPropertyOp18
 70
     1
102
RTVSPropertyOp19
 70
     1
102
RTVSPropertyOp20
 70
     1
102
RTVSPropertyOp21
 70
     1
102
RTVSPropertyOp22
 70
     1
102
RTVSPropertyOp23
 70
     1
102
RTVSPropertyOp24
 70
     1
102
RTVSPropertyOp25
 70
     1
102
RTVSPropertyOp26
 70
     1
102
RTVSPropertyOp27
 70
     1
102
RTVSPropertyOp28
 70
     1
102
RTVSPropertyOp29
 70
     1
102
RTVSPropertyOp30
 70
     1
102
RTVSPropertyOp31
 70
     1
102
RTVSPropertyOp32
 70
     1
  0
XRECORD
  5
1A2
102
{ACAD_REACTORS
330
1A1
102
}
330
1A1
100
AcDbXrecord
280
     1
102
RTVSPropertyOp0
 70
     1
102
RTVSPropertyOp1
 70
     1
102
RTVSPropertyOp2
 70
     1
102
RTVSPropertyOp3
 70
     1
102
RTVSPropertyOp4
 70
     1
102
RTVSPropertyOp5
 70
     1
102
RTVSPropertyOp6
 70
     1
102
RTVSPropertyOp7
 70
     1
102
RTVSPropertyOp8
 70
     1
102
RTVSPropertyOp9
 70
     1
102
RTVSPropertyOp10
 70
     1
102
RTVSPropertyOp11
 70
     1
102
RTVSPropertyOp12
 70
     1
102
RTVSPropertyOp13
 70
     1
102
RTVSPropertyOp14
 70
     1
102
RTVSPropertyOp15
 70
     1
102
RTVSPropertyOp16
 70
     1
102
RTVSPropertyOp17
 70
     1
102
RTVSPropertyOp18
 70
     1
102
RTVSPropertyOp19
 70
     1
102
RTVSPropertyOp20
 70
     1
102
RTVSPropertyOp21
 70
     1
102
RTVSPropertyOp22
 70
     1
102
RTVSPropertyOp23
 70
     1
102
RTVSPropertyOp24
 70
     1
102
RTVSPropertyOp25
 70
     1
102
RTVSPropertyOp26
 70
     1
102
RTVSPropertyOp27
 70
     1
102
RTVSPropertyOp28
 70
     1
102
RTVSPropertyOp29
 70
     1
102
RTVSPropertyOp30
 70
     1
102
RTVSPropertyOp31
 70
     1
102
RTVSPropertyOp32
 70
     1
  0
XRECORD
  5
1A6
102
{ACAD_REACTORS
330
1A5
102
}
330
1A5
100
AcDbXrecord
280
     1
102
RTVSPropertyOp0
 70
     1
102
RTVSPropertyOp1
 70
     1
102
RTVSPropertyOp2
 70
     1
102
RTVSPropertyOp3
 70
     1
102
RTVSPropertyOp4
 70
     1
102
RTVSPropertyOp5
 70
     1
102
RTVSPropertyOp6
 70
     1
102
RTVSPropertyOp7
 70
     1
102
RTVSPropertyOp8
 70
     1
102
RTVSPropertyOp9
 70
     1
102
RTVSPropertyOp10
 70
     1
102
RTVSPropertyOp11
 70
     1
102
RTVSPropertyOp12
 70
     1
102
RTVSPropertyOp13
 70
     1
102
RTVSPropertyOp14
 70
     1
102
RTVSPropertyOp15
 70
     1
102
RTVSPropertyOp16
 70
     1
102
RTVSPropertyOp17
 70
     1
102
RTVSPropertyOp18
 70
     1
102
RTVSPropertyOp19
 70
     1
102
RTVSPropertyOp20
 70
     1
102
RTVSPropertyOp21
 70
     1
102
RTVSPropertyOp22
 70
     1
102
RTVSPropertyOp23
 70
     1
102
RTVSPropertyOp24
 70
     1
102
RTVSPropertyOp25
 70
     1
102
RTVSPropertyOp26
 70
     1
102
RTVSPropertyOp27
 70
     1
102
RTVSPropertyOp28
 70
     1
102
RTVSPropertyOp29
 70
     1
102
RTVSPropertyOp30
 70
     1
102
RTVSPropertyOp31
 70
     1
102
RTVSPropertyOp32
 70
     1
  0
XRECORD
  5
1AE
102
{ACAD_REACTORS
330
1AD
102
}
330
1AD
100
AcDbXrecord
280
     1
102
RTVSPropertyOp0
 70
     1
102
RTVSPropertyOp1
 70
     1
102
RTVSPropertyOp2
 70
     1
102
RTVSPropertyOp3
 70
     1
102
RTVSPropertyOp4
 70
     1
102
RTVSPropertyOp5
 70
     1
102
RTVSPropertyOp6
 70
     1
102
RTVSPropertyOp7
 70
     1
102
RTVSPropertyOp8
 70
     1
102
RTVSPropertyOp9
 70
     1
102
RTVSPropertyOp10
 70
     1
102
RTVSPropertyOp11
 70
     1
102
RTVSPropertyOp12
 70
     1
102
RTVSPropertyOp13
 70
     1
102
RTVSPropertyOp14
 70
     1
102
RTVSPropertyOp15
 70
     1
102
RTVSPropertyOp16
 70
     1
102
RTVSPropertyOp17
 70
     1
102
RTVSPropertyOp18
 70
     1
102
RTVSPropertyOp19
 70
     1
102
RTVSPropertyOp20
 70
     1
102
RTVSPropertyOp21
 70
     1
102
RTVSPropertyOp22
 70
     1
102
RTVSPropertyOp23
 70
     1
102
RTVSPropertyOp24
 70
     1
102
RTVSPropertyOp25
 70
     1
102
RTVSPropertyOp26
 70
     1
102
RTVSPropertyOp27
 70
     1
102
RTVSPropertyOp28
 70
     1
102
RTVSPropertyOp29
 70
     1
102
RTVSPropertyOp30
 70
     1
102
RTVSPropertyOp31
 70
     1
102
RTVSPropertyOp32
 70
     1
  0
XRECORD
  5
1B6
102
{ACAD_REACTORS
330
1B5
102
}
330
1B5
100
AcDbXrecord
280
     1
102
RTVSPropertyOp0
 70
     1
102
RTVSPropertyOp1
 70
     1
102
RTVSPropertyOp2
 70
     1
102
RTVSPropertyOp3
 70
     1
102
RTVSPropertyOp4
 70
     1
102
RTVSPropertyOp5
 70
     1
102
RTVSPropertyOp6
 70
     1
102
RTVSPropertyOp7
 70
     1
102
RTVSPropertyOp8
 70
     1
102
RTVSPropertyOp9
 70
     1
102
RTVSPropertyOp10
 70
     1
102
RTVSPropertyOp11
 70
     1
102
RTVSPropertyOp12
 70
     1
102
RTVSPropertyOp13
 70
     1
102
RTVSPropertyOp14
 70
     1
102
RTVSPropertyOp15
 70
     1
102
RTVSPropertyOp16
 70
     1
102
RTVSPropertyOp17
 70
     1
102
RTVSPropertyOp18
 70
     1
102
RTVSPropertyOp19
 70
     1
102
RTVSPropertyOp20
 70
     1
102
RTVSPropertyOp21
 70
     1
102
RTVSPropertyOp22
 70
     1
102
RTVSPropertyOp23
 70
     1
102
RTVSPropertyOp24
 70
     1
102
RTVSPropertyOp25
 70
     1
102
RTVSPropertyOp26
 70
     1
102
RTVSPropertyOp27
 70
     1
102
RTVSPropertyOp28
 70
     1
102
RTVSPropertyOp29
 70
     1
102
RTVSPropertyOp30
 70
     1
102
RTVSPropertyOp31
 70
     1
102
RTVSPropertyOp32
 70
     1
  0
XRECORD
  5
1AA
102
{ACAD_REACTORS
330
1A9
102
}
330
1A9
100
AcDbXrecord
280
     1
102
RTVSPropertyOp0
 70
     1
102
RTVSPropertyOp1
 70
     1
102
RTVSPropertyOp2
 70
     1
102
RTVSPropertyOp3
 70
     1
102
RTVSPropertyOp4
 70
     1
102
RTVSPropertyOp5
 70
     1
102
RTVSPropertyOp6
 70
     1
102
RTVSPropertyOp7
 70
     1
102
RTVSPropertyOp8
 70
     1
102
RTVSPropertyOp9
 70
     1
102
RTVSPropertyOp10
 70
     1
102
RTVSPropertyOp11
 70
     1
102
RTVSPropertyOp12
 70
     1
102
RTVSPropertyOp13
 70
     1
102
RTVSPropertyOp14
 70
     1
102
RTVSPropertyOp15
 70
     1
102
RTVSPropertyOp16
 70
     1
102
RTVSPropertyOp17
 70
     1
102
RTVSPropertyOp18
 70
     1
102
RTVSPropertyOp19
 70
     1
102
RTVSPropertyOp20
 70
     1
102
RTVSPropertyOp21
 70
     1
102
RTVSPropertyOp22
 70
     1
102
RTVSPropertyOp23
 70
     1
102
RTVSPropertyOp24
 70
     1
102
RTVSPropertyOp25
 70
     1
102
RTVSPropertyOp26
 70
     1
102
RTVSPropertyOp27
 70
     1
102
RTVSPropertyOp28
 70
     1
102
RTVSPropertyOp29
 70
     1
102
RTVSPropertyOp30
 70
     1
102
RTVSPropertyOp31
 70
     1
102
RTVSPropertyOp32
 70
     1
  0
XRECORD
  5
1AC
102
{ACAD_REACTORS
330
1AB
102
}
330
1AB
100
AcDbXrecord
280
     1
102
RTVSPropertyOp0
 70
     1
102
RTVSPropertyOp1
 70
     1
102
RTVSPropertyOp2
 70
     1
102
RTVSPropertyOp3
 70
     1
102
RTVSPropertyOp4
 70
     1
102
RTVSPropertyOp5
 70
     1
102
RTVSPropertyOp6
 70
     1
102
RTVSPropertyOp7
 70
     1
102
RTVSPropertyOp8
 70
     1
102
RTVSPropertyOp9
 70
     1
102
RTVSPropertyOp10
 70
     1
102
RTVSPropertyOp11
 70
     1
102
RTVSPropertyOp12
 70
     1
102
RTVSPropertyOp13
 70
     1
102
RTVSPropertyOp14
 70
     1
102
RTVSPropertyOp15
 70
     1
102
RTVSPropertyOp16
 70
     1
102
RTVSPropertyOp17
 70
     1
102
RTVSPropertyOp18
 70
     1
102
RTVSPropertyOp19
 70
     1
102
RTVSPropertyOp20
 70
     1
102
RTVSPropertyOp21
 70
     1
102
RTVSPropertyOp22
 70
     1
102
RTVSPropertyOp23
 70
     1
102
RTVSPropertyOp24
 70
     1
102
RTVSPropertyOp25
 70
     1
102
RTVSPropertyOp26
 70
     1
102
RTVSPropertyOp27
 70
     1
102
RTVSPropertyOp28
 70
     1
102
RTVSPropertyOp29
 70
     1
102
RTVSPropertyOp30
 70
     1
102
RTVSPropertyOp31
 70
     1
102
RTVSPropertyOp32
 70
     1
  0
XRECORD
  5
1B4
102
{ACAD_REACTORS
330
1B3
102
}
330
1B3
100
AcDbXrecord
280
     1
102
RTVSPropertyOp0
 70
     1
102
RTVSPropertyOp1
 70
     1
102
RTVSPropertyOp2
 70
     1
102
RTVSPropertyOp3
 70
     1
102
RTVSPropertyOp4
 70
     1
102
RTVSPropertyOp5
 70
     1
102
RTVSPropertyOp6
 70
     1
102
RTVSPropertyOp7
 70
     1
102
RTVSPropertyOp8
 70
     1
102
RTVSPropertyOp9
 70
     1
102
RTVSPropertyOp10
 70
     1
102
RTVSPropertyOp11
 70
     1
102
RTVSPropertyOp12
 70
     1
102
RTVSPropertyOp13
 70
     1
102
RTVSPropertyOp14
 70
     1
102
RTVSPropertyOp15
 70
     1
102
RTVSPropertyOp16
 70
     1
102
RTVSPropertyOp17
 70
     1
102
RTVSPropertyOp18
 70
     1
102
RTVSPropertyOp19
 70
     1
102
RTVSPropertyOp20
 70
     1
102
RTVSPropertyOp21
 70
     1
102
RTVSPropertyOp22
 70
     1
102
RTVSPropertyOp23
 70
     1
102
RTVSPropertyOp24
 70
     1
102
RTVSPropertyOp25
 70
     1
102
RTVSPropertyOp26
 70
     1
102
RTVSPropertyOp27
 70
     1
102
RTVSPropertyOp28
 70
     1
102
RTVSPropertyOp29
 70
     1
102
RTVSPropertyOp30
 70
     1
102
RTVSPropertyOp31
 70
     1
102
RTVSPropertyOp32
 70
     1
  0
XRECORD
  5
198
102
{ACAD_REACTORS
330
197
102
}
330
197
100
AcDbXrecord
280
     1
102
RTVSPropertyOp0
 70
     1
102
RTVSPropertyOp1
 70
     1
102
RTVSPropertyOp2
 70
     1
102
RTVSPropertyOp3
 70
     1
102
RTVSPropertyOp4
 70
     1
102
RTVSPropertyOp5
 70
     1
102
RTVSPropertyOp6
 70
     1
102
RTVSPropertyOp7
 70
     1
102
RTVSPropertyOp8
 70
     1
102
RTVSPropertyOp9
 70
     1
102
RTVSPropertyOp10
 70
     1
102
RTVSPropertyOp11
 70
     1
102
RTVSPropertyOp12
 70
     1
102
RTVSPropertyOp13
 70
     1
102
RTVSPropertyOp14
 70
     1
102
RTVSPropertyOp15
 70
     1
102
RTVSPropertyOp16
 70
     1
102
RTVSPropertyOp17
 70
     1
102
RTVSPropertyOp18
 70
     1
102
RTVSPropertyOp19
 70
     1
102
RTVSPropertyOp20
 70
     1
102
RTVSPropertyOp21
 70
     1
102
RTVSPropertyOp22
 70
     1
102
RTVSPropertyOp23
 70
     1
102
RTVSPropertyOp24
 70
     1
102
RTVSPropertyOp25
 70
     1
102
RTVSPropertyOp26
 70
     1
102
RTVSPropertyOp27
 70
     1
102
RTVSPropertyOp28
 70
     1
102
RTVSPropertyOp29
 70
     1
102
RTVSPropertyOp30
 70
     1
102
RTVSPropertyOp31
 70
     1
102
RTVSPropertyOp32
 70
     1
  0
XRECORD
  5
19A
102
{ACAD_REACTORS
330
199
102
}
330
199
100
AcDbXrecord
280
     1
102
RTVSPropertyOp0
 70
     1
102
RTVSPropertyOp1
 70
     1
102
RTVSPropertyOp2
 70
     1
102
RTVSPropertyOp3
 70
     1
102
RTVSPropertyOp4
 70
     1
102
RTVSPropertyOp5
 70
     1
102
RTVSPropertyOp6
 70
     1
102
RTVSPropertyOp7
 70
     1
102
RTVSPropertyOp8
 70
     1
102
RTVSPropertyOp9
 70
     1
102
RTVSPropertyOp10
 70
     1
102
RTVSPropertyOp11
 70
     1
102
RTVSPropertyOp12
 70
     1
102
RTVSPropertyOp13
 70
     1
102
RTVSPropertyOp14
 70
     1
102
RTVSPropertyOp15
 70
     1
102
RTVSPropertyOp16
 70
     1
102
RTVSPropertyOp17
 70
     1
102
RTVSPropertyOp18
 70
     1
102
RTVSPropertyOp19
 70
     1
102
RTVSPropertyOp20
 70
     1
102
RTVSPropertyOp21
 70
     1
102
RTVSPropertyOp22
 70
     1
102
RTVSPropertyOp23
 70
     1
102
RTVSPropertyOp24
 70
     1
102
RTVSPropertyOp25
 70
     1
102
RTVSPropertyOp26
 70
     1
102
RTVSPropertyOp27
 70
     1
102
RTVSPropertyOp28
 70
     1
102
RTVSPropertyOp29
 70
     1
102
RTVSPropertyOp30
 70
     1
102
RTVSPropertyOp31
 70
     1
102
RTVSPropertyOp32
 70
     1
  0
XRECORD
  5
19C
102
{ACAD_REACTORS
330
19B
102
}
330
19B
100
AcDbXrecord
280
     1
102
RTVSPropertyOp0
 70
     1
102
RTVSPropertyOp1
 70
     1
102
RTVSPropertyOp2
 70
     1
102
RTVSPropertyOp3
 70
     1
102
RTVSPropertyOp4
 70
     1
102
RTVSPropertyOp5
 70
     1
102
RTVSPropertyOp6
 70
     1
102
RTVSPropertyOp7
 70
     1
102
RTVSPropertyOp8
 70
     1
102
RTVSPropertyOp9
 70
     1
102
RTVSPropertyOp10
 70
     1
102
RTVSPropertyOp11
 70
     1
102
RTVSPropertyOp12
 70
     1
102
RTVSPropertyOp13
 70
     1
102
RTVSPropertyOp14
 70
     1
102
RTVSPropertyOp15
 70
     1
102
RTVSPropertyOp16
 70
     1
102
RTVSPropertyOp17
 70
     1
102
RTVSPropertyOp18
 70
     1
102
RTVSPropertyOp19
 70
     1
102
RTVSPropertyOp20
 70
     1
102
RTVSPropertyOp21
 70
     1
102
RTVSPropertyOp22
 70
     1
102
RTVSPropertyOp23
 70
     1
102
RTVSPropertyOp24
 70
     1
102
RTVSPropertyOp25
 70
     1
102
RTVSPropertyOp26
 70
     1
102
RTVSPropertyOp27
 70
     1
102
RTVSPropertyOp28
 70
     1
102
RTVSPropertyOp29
 70
     1
102
RTVSPropertyOp30
 70
     1
102
RTVSPropertyOp31
 70
     1
102
RTVSPropertyOp32
 70
     1
  0
XRECORD
  5
19E
102
{ACAD_REACTORS
330
19D
102
}
330
19D
100
AcDbXrecord
280
     1
102
RTVSPropertyOp0
 70
     1
102
RTVSPropertyOp1
 70
     1
102
RTVSPropertyOp2
 70
     1
102
RTVSPropertyOp3
 70
     1
102
RTVSPropertyOp4
 70
     1
102
RTVSPropertyOp5
 70
     1
102
RTVSPropertyOp6
 70
     1
102
RTVSPropertyOp7
 70
     1
102
RTVSPropertyOp8
 70
     1
102
RTVSPropertyOp9
 70
     1
102
RTVSPropertyOp10
 70
     1
102
RTVSPropertyOp11
 70
     1
102
RTVSPropertyOp12
 70
     1
102
RTVSPropertyOp13
 70
     1
102
RTVSPropertyOp14
 70
     1
102
RTVSPropertyOp15
 70
     1
102
RTVSPropertyOp16
 70
     1
102
RTVSPropertyOp17
 70
     1
102
RTVSPropertyOp18
 70
     1
102
RTVSPropertyOp19
 70
     1
102
RTVSPropertyOp20
 70
     1
102
RTVSPropertyOp21
 70
     1
102
RTVSPropertyOp22
 70
     1
102
RTVSPropertyOp23
 70
     1
102
RTVSPropertyOp24
 70
     1
102
RTVSPropertyOp25
 70
     1
102
RTVSPropertyOp26
 70
     1
102
RTVSPropertyOp27
 70
     1
102
RTVSPropertyOp28
 70
     1
102
RTVSPropertyOp29
 70
     1
102
RTVSPropertyOp30
 70
     1
102
RTVSPropertyOp31
 70
     1
102
RTVSPropertyOp32
 70
     1
  0
XRECORD
  5
1B2
102
{ACAD_REACTORS
330
1B1
102
}
330
1B1
100
AcDbXrecord
280
     1
102
RTVSPropertyOp0
 70
     1
102
RTVSPropertyOp1
 70
     1
102
RTVSPropertyOp2
 70
     1
102
RTVSPropertyOp3
 70
     1
102
RTVSPropertyOp4
 70
     1
102
RTVSPropertyOp5
 70
     1
102
RTVSPropertyOp6
 70
     1
102
RTVSPropertyOp7
 70
     1
102
RTVSPropertyOp8
 70
     1
102
RTVSPropertyOp9
 70
     1
102
RTVSPropertyOp10
 70
     1
102
RTVSPropertyOp11
 70
     1
102
RTVSPropertyOp12
 70
     1
102
RTVSPropertyOp13
 70
     1
102
RTVSPropertyOp14
 70
     1
102
RTVSPropertyOp15
 70
     1
102
RTVSPropertyOp16
 70
     1
102
RTVSPropertyOp17
 70
     1
102
RTVSPropertyOp18
 70
     1
102
RTVSPropertyOp19
 70
     1
102
RTVSPropertyOp20
 70
     1
102
RTVSPropertyOp21
 70
     1
102
RTVSPropertyOp22
 70
     1
102
RTVSPropertyOp23
 70
     1
102
RTVSPropertyOp24
 70
     1
102
RTVSPropertyOp25
 70
     1
102
RTVSPropertyOp26
 70
     1
102
RTVSPropertyOp27
 70
     1
102
RTVSPropertyOp28
 70
     1
102
RTVSPropertyOp29
 70
     1
102
RTVSPropertyOp30
 70
     1
102
RTVSPropertyOp31
 70
     1
102
RTVSPropertyOp32
 70
     1
  0
XRECORD
  5
1A8
102
{ACAD_REACTORS
330
1A7
102
}
330
1A7
100
AcDbXrecord
280
     1
102
RTVSPropertyOp0
 70
     1
102
RTVSPropertyOp1
 70
     1
102
RTVSPropertyOp2
 70
     1
102
RTVSPropertyOp3
 70
     1
102
RTVSPropertyOp4
 70
     1
102
RTVSPropertyOp5
 70
     1
102
RTVSPropertyOp6
 70
     1
102
RTVSPropertyOp7
 70
     1
102
RTVSPropertyOp8
 70
     1
102
RTVSPropertyOp9
 70
     1
102
RTVSPropertyOp10
 70
     1
102
RTVSPropertyOp11
 70
     1
102
RTVSPropertyOp12
 70
     1
102
RTVSPropertyOp13
 70
     1
102
RTVSPropertyOp14
 70
     1
102
RTVSPropertyOp15
 70
     1
102
RTVSPropertyOp16
 70
     1
102
RTVSPropertyOp17
 70
     1
102
RTVSPropertyOp18
 70
     1
102
RTVSPropertyOp19
 70
     1
102
RTVSPropertyOp20
 70
     1
102
RTVSPropertyOp21
 70
     1
102
RTVSPropertyOp22
 70
     1
102
RTVSPropertyOp23
 70
     1
102
RTVSPropertyOp24
 70
     1
102
RTVSPropertyOp25
 70
     1
102
RTVSPropertyOp26
 70
     1
102
RTVSPropertyOp27
 70
     1
102
RTVSPropertyOp28
 70
     1
102
RTVSPropertyOp29
 70
     1
102
RTVSPropertyOp30
 70
     1
102
RTVSPropertyOp31
 70
     1
102
RTVSPropertyOp32
 70
     1
  0
XRECORD
  5
1B0
102
{ACAD_REACTORS
330
1AF
102
}
330
1AF
100
AcDbXrecord
280
     1
102
RTVSPropertyOp0
 70
     1
102
RTVSPropertyOp1
 70
     1
102
RTVSPropertyOp2
 70
     1
102
RTVSPropertyOp3
 70
     1
102
RTVSPropertyOp4
 70
     1
102
RTVSPropertyOp5
 70
     1
102
RTVSPropertyOp6
 70
     1
102
RTVSPropertyOp7
 70
     1
102
RTVSPropertyOp8
 70
     1
102
RTVSPropertyOp9
 70
     1
102
RTVSPropertyOp10
 70
     1
102
RTVSPropertyOp11
 70
     1
102
RTVSPropertyOp12
 70
     1
102
RTVSPropertyOp13
 70
     1
102
RTVSPropertyOp14
 70
     1
102
RTVSPropertyOp15
 70
     1
102
RTVSPropertyOp16
 70
     1
102
RTVSPropertyOp17
 70
     1
102
RTVSPropertyOp18
 70
     1
102
RTVSPropertyOp19
 70
     1
102
RTVSPropertyOp20
 70
     1
102
RTVSPropertyOp21
 70
     1
102
RTVSPropertyOp22
 70
     1
102
RTVSPropertyOp23
 70
     1
102
RTVSPropertyOp24
 70
     1
102
RTVSPropertyOp25
 70
     1
102
RTVSPropertyOp26
 70
     1
102
RTVSPropertyOp27
 70
     1
102
RTVSPropertyOp28
 70
     1
102
RTVSPropertyOp29
 70
     1
102
RTVSPropertyOp30
 70
     1
102
RTVSPropertyOp31
 70
     1
102
RTVSPropertyOp32
 70
     1
  0
ENDSEC
  0
EOF
