  0
SECTION
  2
HEADER
  9
$ACADVER
  1
AC1015
  9
$ACADMAINTVER
 70
     6
  9
$DWGCODEPAGE
  3
ANSI_932
  9
$INSBASE
 10
0.0
 20
0.0
 30
0.0
  9
$EXTMIN
 10
0.0
 20
0.0
 30
0.0
  9
$EXTMAX
 10
210.0
 20
297.0
 30
0.0
  9
$LIMMIN
 10
0.0
 20
0.0
  9
$LIMMAX
 10
12.0
 20
9.0
  9
$ORTHOMODE
 70
     0
  9
$REGENMODE
 70
     1
  9
$FILLMODE
 70
     1
  9
$QTEXTMODE
 70
     0
  9
$MIRRTEXT
 70
     1
  9
$LTSCALE
 40
1.0
  9
$ATTMODE
 70
     1
  9
$TEXTSIZE
 40
0.2
  9
$TRACEWID
 40
0.05
  9
$TEXTSTYLE
  7
Standard
  9
$CLAYER
  8
0
  9
$CELTYPE
  6
ByLayer
  9
$CECOLOR
 62
   256
  9
$CELTSCALE
 40
1.0
  9
$DISPSILH
 70
     0
  9
$DIMSCALE
 40
1.0
  9
$DIMASZ
 40
0.18
  9
$DIMEXO
 40
0.0625
  9
$DIMDLI
 40
0.38
  9
$DIMRND
 40
0.0
  9
$DIMDLE
 40
0.0
  9
$DIMEXE
 40
0.18
  9
$DIMTP
 40
0.0
  9
$DIMTM
 40
0.0
  9
$DIMTXT
 40
0.18
  9
$DIMCEN
 40
0.09
  9
$DIMTSZ
 40
0.0
  9
$DIMTOL
 70
     0
  9
$DIMLIM
 70
     0
  9
$DIMTIH
 70
     1
  9
$DIMTOH
 70
     1
  9
$DIMSE1
 70
     0
  9
$DIMSE2
 70
     0
  9
$DIMTAD
 70
     0
  9
$DIMZIN
 70
     0
  9
$DIMBLK
  1

  9
$DIMASO
 70
     1
  9
$DIMSHO
 70
     1
  9
$DIMPOST
  1

  9
$DIMAPOST
  1

  9
$DIMALT
 70
     0
  9
$DIMALTD
 70
     2
  9
$DIMALTF
 40
25.4
  9
$DIMLFAC
 40
1.0
  9
$DIMTOFL
 70
     0
  9
$DIMTVP
 40
0.0
  9
$DIMTIX
 70
     0
  9
$DIMSOXD
 70
     0
  9
$DIMSAH
 70
     0
  9
$DIMBLK1
  1

  9
$DIMBLK2
  1

  9
$DIMSTYLE
  2
Standard
  9
$DIMCLRD
 70
     0
  9
$DIMCLRE
 70
     0
  9
$DIMCLRT
 70
     0
  9
$DIMTFAC
 40
1.0
  9
$DIMGAP
 40
0.09
  9
$DIMJUST
 70
     0
  9
$DIMSD1
 70
     0
  9
$DIMSD2
 70
     0
  9
$DIMTOLJ
 70
     1
  9
$DIMTZIN
 70
     0
  9
$DIMALTZ
 70
     0
  9
$DIMALTTZ
 70
     0
  9
$DIMUPT
 70
     0
  9
$DIMDEC
 70
     4
  9
$DIMTDEC
 70
     4
  9
$DIMALTU
 70
     2
  9
$DIMALTTD
 70
     2
  9
$DIMTXSTY
  7
Standard
  9
$DIMAUNIT
 70
     0
  9
$DIMADEC
 70
     0
  9
$DIMALTRND
 40
0.0
  9
$DIMAZIN
 70
     0
  9
$DIMDSEP
 70
    46
  9
$DIMATFIT
 70
     3
  9
$DIMFRAC
 70
     0
  9
$DIMLDRBLK
  1

  9
$DIMLUNIT
 70
     2
  9
$DIMLWD
 70
    -2
  9
$DIMLWE
 70
    -2
  9
$DIMTMOVE
 70
     0
  9
$LUNITS
 70
     2
  9
$LUPREC
 70
     4
  9
$SKETCHINC
 40
0.1
  9
$FILLETRAD
 40
0.5
  9
$AUNITS
 70
     0
  9
$AUPREC
 70
     0
  9
$MENU
  1
.
  9
$ELEVATION
 40
0.0
  9
$PELEVATION
 40
0.0
  9
$THICKNESS
 40
0.0
  9
$LIMCHECK
 70
     0
  9
$CHAMFERA
 40
0.5
  9
$CHAMFERB
 40
0.5
  9
$CHAMFERC
 40
1.0
  9
$CHAMFERD
 40
0.0
  9
$SKPOLY
 70
     0
  9
$TDCREATE
 40
2460416.607892118
  9
$TDUCREATE
 40
2460416.232892118
  9
$TDUPDATE
 40
2460416.607895555
  9
$TDUUPDATE
 40
2460416.232895555
  9
$TDINDWG
 40
0.0000000116
  9
$TDUSRTIMER
 40
0.0000000116
  9
$USRTIMER
 70
     1
  9
$ANGBASE
 50
0.0
  9
$ANGDIR
 70
     0
  9
$PDMODE
 70
     0
  9
$PDSIZE
 40
0.0
  9
$PLINEWID
 40
0.0
  9
$SPLFRAME
 70
     0
  9
$SPLINETYPE
 70
     6
  9
$SPLINESEGS
 70
     8
  9
$HANDSEED
  5
1BE
  9
$SURFTAB1
 70
     6
  9
$SURFTAB2
 70
     6
  9
$SURFTYPE
 70
     6
  9
$SURFU
 70
     6
  9
$SURFV
 70
     6
  9
$UCSBASE
  2

  9
$UCSNAME
  2

  9
$UCSORG
 10
0.0
 20
0.0
 30
0.0
  9
$UCSXDIR
 10
1.0
 20
0.0
 30
0.0
  9
$UCSYDIR
 10
0.0
 20
1.0
 30
0.0
  9
$UCSORTHOREF
  2

  9
$UCSORTHOVIEW
 70
     0
  9
$UCSORGTOP
 10
0.0
 20
0.0
 30
0.0
  9
$UCSORGBOTTOM
 10
0.0
 20
0.0
 30
0.0
  9
$UCSORGLEFT
 10
0.0
 20
0.0
 30
0.0
  9
$UCSORGRIGHT
 10
0.0
 20
0.0
 30
0.0
  9
$UCSORGFRONT
 10
0.0
 20
0.0
 30
0.0
  9
$UCSORGBACK
 10
0.0
 20
0.0
 30
0.0
  9
$PUCSBASE
  2

  9
$PUCSNAME
  2

  9
$PUCSORG
 10
0.0
 20
0.0
 30
0.0
  9
$PUCSXDIR
 10
1.0
 20
0.0
 30
0.0
  9
$PUCSYDIR
 10
0.0
 20
1.0
 30
0.0
  9
$PUCSORTHOREF
  2

  9
$PUCSORTHOVIEW
 70
     0
  9
$PUCSORGTOP
 10
0.0
 20
0.0
 30
0.0
  9
$PUCSORGBOTTOM
 10
0.0
 20
0.0
 30
0.0
  9
$PUCSORGLEFT
 10
0.0
 20
0.0
 30
0.0
  9
$PUCSORGRIGHT
 10
0.0
 20
0.0
 30
0.0
  9
$PUCSORGFRONT
 10
0.0
 20
0.0
 30
0.0
  9
$PUCSORGBACK
 10
0.0
 20
0.0
 30
0.0
  9
$USERI1
 70
     0
  9
$USERI2
 70
     0
  9
$USERI3
 70
     0
  9
$USERI4
 70
     0
  9
$USERI5
 70
     0
  9
$USERR1
 40
18.1
  9
$USERR2
 40
0.0
  9
$USERR3
 40
0.0
  9
$USERR4
 40
0.0
  9
$USERR5
 40
0.0
  9
$WORLDVIEW
 70
     1
  9
$SHADEDGE
 70
     3
  9
$SHADEDIF
 70
    70
  9
$TILEMODE
 70
     1
  9
$MAXACTVP
 70
    64
  9
$PINSBASE
 10
0.0
 20
0.0
 30
0.0
  9
$PLIMCHECK
 70
     0
  9
$PEXTMIN
 10
1.00000000000000E+20
 20
1.00000000000000E+20
 30
1.00000000000000E+20
  9
$PEXTMAX
 10
-1.00000000000000E+20
 20
-1.00000000000000E+20
 30
-1.00000000000000E+20
  9
$PLIMMIN
 10
0.0
 20
0.0
  9
$PLIMMAX
 10
12.0
 20
9.0
  9
$UNITMODE
 70
     0
  9
$VISRETAIN
 70
     1
  9
$PLINEGEN
 70
     0
  9
$PSLTSCALE
 70
     1
  9
$TREEDEPTH
 70
  3020
  9
$CMLSTYLE
  2
Standard
  9
$CMLJUST
 70
     0
  9
$CMLSCALE
 40
1.0
  9
$PROXYGRAPHICS
 70
     1
  9
$MEASUREMENT
 70
     1
  9
$CELWEIGHT
370
    -1
  9
$ENDCAPS
280
     0
  9
$JOINSTYLE
280
     0
  9
$LWDISPLAY
290
     0
  9
$INSUNITS
 70
     4
  9
$HYPERLINKBASE
  1

  9
$STYLESHEET
  1

  9
$XEDIT
290
     1
  9
$CEPSNTYPE
380
     0
  9
$PSTYLEMODE
290
     1
  9
$FINGERPRINTGUID
  2
{9D89D904-3CDB-49C7-B950-35A78A0DF940}
  9
$VERSIONGUID
  2
{FAEB1C32-E019-11D5-929B-00C0DF256EC4}
  9
$EXTNAMES
290
     1
  9
$PSVPSCALE
 40
0.0
  9
$OLESTARTUP
290
     0
  0
ENDSEC
  0
SECTION
  2
CLASSES
  0
CLASS
  1
ACDBDICTIONARYWDFLT
  2
AcDbDictionaryWithDefault
  3
ObjectDBX Classes
 90
        0
280
     0
281
     0
  0
CLASS
  1
VISUALSTYLE
  2
AcDbVisualStyle
  3
ObjectDBX Classes
 90
     4095
280
     0
281
     0
  0
CLASS
  1
MATERIAL
  2
AcDbMaterial
  3
ObjectDBX Classes
 90
     1153
280
     0
281
     0
  0
CLASS
  1
DICTIONARYVAR
  2
AcDbDictionaryVar
  3
ObjectDBX Classes
 90
        0
280
     0
281
     0
  0
CLASS
  1
ACDBPLACEHOLDER
  2
AcDbPlaceHolder
  3
ObjectDBX Classes
 90
        0
280
     0
281
     0
  0
CLASS
  1
LAYOUT
  2
AcDbLayout
  3
ObjectDBX Classes
 90
        0
280
     0
281
     0
  0
ENDSEC
  0
SECTION
  2
TABLES
  0
TABLE
  2
VPORT
  5
8
330
0
100
AcDbSymbolTable
 70
     1
  0
VPORT
  5
29
330
8
100
AcDbSymbolTableRecord
100
AcDbViewportTableRecord
  2
*Active
 70
     0
 10
0.0
 20
0.0
 11
1.0
 21
1.0
 12
105.0
 22
148.5
 13
0.0
 23
0.0
 14
0.5
 24
0.5
 15
0.5
 25
0.5
 16
0.0
 26
0.0
 36
1.0
 17
0.0
 27
0.0
 37
0.0
 40
326.7
 41
1.60267857142857
 42
50.0
 43
0.0
 44
0.0
 50
0.0
 51
0.0
 71
     0
 72
   100
 73
     1
 74
     3
 75
     0
 76
     0
 77
     0
 78
     0
281
     0
 65
     1
110
0.0
120
0.0
130
0.0
111
1.0
121
0.0
131
0.0
112
0.0
122
1.0
132
0.0
 79
     0
146
0.0
  0
ENDTAB
  0
TABLE
  2
LTYPE
  5
5
330
0
100
AcDbSymbolTable
 70
     8
  0
LTYPE
  5
14
330
5
100
AcDbSymbolTableRecord
100
AcDbLinetypeTableRecord
  2
ByBlock
 70
     0
  3

 72
    65
 73
     0
 40
0.0
  0
LTYPE
  5
15
330
5
100
AcDbSymbolTableRecord
100
AcDbLinetypeTableRecord
  2
ByLayer
 70
     0
  3

 72
    65
 73
     0
 40
0.0
  0
LTYPE
  5
16
330
5
100
AcDbSymbolTableRecord
100
AcDbLinetypeTableRecord
  2
Continuous
 70
     0
  3
Solid line
 72
    65
 73
     0
 40
0.0
  0
LTYPE
  5
3F
330
5
100
AcDbSymbolTableRecord
100
AcDbLinetypeTableRecord
  2
DASHED
 70
     0
  3
Dashed
 72
    65
 73
     2
 40
15.0
 49
7.0
 74
     0
 49
-8.0
 74
     0
  0
LTYPE
  5
40
330
5
100
AcDbSymbolTableRecord
100
AcDbLinetypeTableRecord
  2
DOTTED
 70
     0
  3
Dotted
 72
    65
 73
     2
 40
1.0
 49
0.0
 74
     0
 49
-1.0
 74
     0
  0
LTYPE
  5
41
330
5
100
AcDbSymbolTableRecord
100
AcDbLinetypeTableRecord
  2
DOT_CENTER
 70
     0
  3
Dot_Center
 72
    65
 73
     4
 40
14.0
 49
12.0
 74
     0
 49
-1.0
 74
     0
 49
0.0
 74
     0
 49
-1.0
 74
     0
  0
LTYPE
  5
42
330
5
100
AcDbSymbolTableRecord
100
AcDbLinetypeTableRecord
  2
LONG_DASHED
 70
     0
  3
Long_Dashed
 72
    65
 73
     2
 40
15.0
 49
10.0
 74
     0
 49
-5.0
 74
     0
  0
LTYPE
  5
43
330
5
100
AcDbSymbolTableRecord
100
AcDbLinetypeTableRecord
  2
DASH_CENTER
 70
     0
  3
Dash_Center
 72
    65
 73
     4
 40
14.0
 49
11.0
 74
     0
 49
-1.0
 74
     0
 49
1.0
 74
     0
 49
-1.0
 74
     0
  0
LTYPE
  5
44
330
5
100
AcDbSymbolTableRecord
100
AcDbLinetypeTableRecord
  2
PHANTOM
 70
     0
  3
Phantom
 72
    65
 73
     6
 40
13.0
 49
10.0
 74
     0
 49
-1.0
 74
     0
 49
0.0
 74
     0
 49
-1.0
 74
     0
 49
0.0
 74
     0
 49
-1.0
 74
     0
  0
LTYPE
  5
45
330
5
100
AcDbSymbolTableRecord
100
AcDbLinetypeTableRecord
  2
CENTER_DASH_DASH
 70
     0
  3
Center_Dash_Dash
 72
    65
 73
     6
 40
14.0
 49
9.0
 74
     0
 49
-1.0
 74
     0
 49
1.0
 74
     0
 49
-1.0
 74
     0
 49
1.0
 74
     0
 49
-1.0
 74
     0
  0
ENDTAB
  0
TABLE
  2
LAYER
  5
2
330
0
100
AcDbSymbolTable
 70
     3
  0
LAYER
  5
10
330
2
100
AcDbSymbolTableRecord
100
AcDbLayerTableRecord
  2
0
 70
     0
 62
     7
  6
Continuous
370
    -3
390
F
  0
LAYER
  5
46
330
2
100
AcDbSymbolTableRecord
100
AcDbLayerTableRecord
  2
1
 70
     0
 62
     7
  6
Continuous
370
    -3
390
F
  0
LAYER
  5
47
330
2
100
AcDbSymbolTableRecord
100
AcDbLayerTableRecord
  2
_U_30EC_U_30A4_U_30E4_U_30FC_1
 70
     0
 62
     7
  6
Continuous
370
    -3
390
F
  0
ENDTAB
  0
TABLE
  2
STYLE
  5
3
330
0
100
AcDbSymbolTable
 70
     4
  0
STYLE
  5
11
330
3
100
AcDbSymbolTableRecord
100
AcDbTextStyleTableRecord
  2
Standard
 70
     0
 40
0.0
 41
1.0
 50
0.0
 71
     0
 42
0.2
  3
txt
  4

  0
STYLE
  5
B6
330
3
100
AcDbSymbolTableRecord
100
AcDbTextStyleTableRecord
  2
CONVERTER_11
 70
     0
 40
0.0
 41
0.89
 50
0.0
 71
     0
 42
0.2
  3
MS Mincho.ttf
  4

1001
ACAD
1000
MS Mincho
1071
    32785
  0
STYLE
  5
13F
330
3
100
AcDbSymbolTableRecord
100
AcDbTextStyleTableRecord
  2
CONVERTER_12
 70
     0
 40
0.0
 41
0.779
 50
0.0
 71
     0
 42
0.2
  3
complex.shx
  4

  0
STYLE
  5
14B
330
3
100
AcDbSymbolTableRecord
100
AcDbTextStyleTableRecord
  2
CONVERTER_13
 70
     0
 40
0.0
 41
0.9
 50
0.0
 71
     0
 42
0.2
  3
txt.shx
  4

  0
ENDTAB
  0
TABLE
  2
VIEW
  5
6
330
0
100
AcDbSymbolTable
 70
     0
  0
ENDTAB
  0
TABLE
  2
UCS
  5
7
330
0
100
AcDbSymbolTable
 70
     0
  0
ENDTAB
  0
TABLE
  2
APPID
  5
9
330
0
100
AcDbSymbolTable
 70
     1
  0
APPID
  5
12
330
9
100
AcDbSymbolTableRecord
100
AcDbRegAppTableRecord
  2
ACAD
 70
     0
  0
ENDTAB
  0
TABLE
  2
DIMSTYLE
  5
A
330
0
100
AcDbSymbolTable
 70
     6
100
AcDbDimStyleTable
  0
DIMSTYLE
105
27
330
A
100
AcDbSymbolTableRecord
100
AcDbDimStyleTableRecord
  2
Standard
 70
     0
178
     0
340
11
  0
DIMSTYLE
105
164
102
{ACAD_REACTORS
330
165
102
}
330
A
100
AcDbSymbolTableRecord
100
AcDbDimStyleTableRecord
  2
ME10_DIM_10
 70
     0
  3
{\Fgdt;n}<>
 41
3.5
 42
0.0
 44
1.0
 73
     0
 74
     0
 77
     1
 78
     8
140
3.5
147
1.0
172
     1
173
     1
174
     1
175
     1
176
     2
177
     2
271
     2
178
     7
271
     2
340
14B
  0
DIMSTYLE
105
170
102
{ACAD_REACTORS
330
171
102
}
330
A
100
AcDbSymbolTableRecord
100
AcDbDimStyleTableRecord
  2
ME10_DIM_11
 70
     0
  3
{\Fgdt;n}<>
 41
3.5
 42
0.0
 44
1.0
 73
     0
 74
     0
 77
     1
 78
     8
140
3.5
147
1.0
172
     1
173
     1
174
     1
175
     1
176
     2
177
     2
271
     2
178
     7
271
     2
340
14B
  0
DIMSTYLE
105
17B
102
{ACAD_REACTORS
330
17C
102
}
330
A
100
AcDbSymbolTableRecord
100
AcDbDimStyleTableRecord
  2
ME10_DIM_12
 70
     0
 41
3.5
 42
0.0
 44
1.0
 73
     0
 74
     0
 77
     1
 78
     8
140
3.5
147
1.0
172
     1
173
     1
174
     1
175
     1
176
     2
177
     2
271
     2
178
     7
271
     2
340
14B
  0
DIMSTYLE
105
186
102
{ACAD_REACTORS
330
187
102
}
330
A
100
AcDbSymbolTableRecord
100
AcDbDimStyleTableRecord
  2
ME10_DIM_13
 70
     0
 41
3.5
 42
0.0
 44
1.0
 73
     0
 74
     0
 77
     1
 78
     8
140
3.5
147
1.0
172
     1
173
     1
174
     1
175
     1
176
     2
177
     2
271
     2
178
     7
271
     2
340
14B
  0
DIMSTYLE
105
191
102
{ACAD_REACTORS
330
192
102
}
330
A
100
AcDbSymbolTableRecord
100
AcDbDimStyleTableRecord
  2
ME10_DIM_14
 70
     0
 41
3.5
 42
0.0
 44
1.0
 73
     0
 74
     0
 77
     1
 78
     8
140
3.5
147
1.0
172
     1
173
     1
174
     1
175
     1
176
     2
177
     2
271
     2
178
     7
271
     2
340
14B
  0
ENDTAB
  0
TABLE
  2
BLOCK_RECORD
  5
1
330
0
100
AcDbSymbolTable
 70
     9
  0
BLOCK_RECORD
  5
1F
330
1
100
AcDbSymbolTableRecord
100
AcDbBlockTableRecord
  2
*Model_Space
340
22
  0
BLOCK_RECORD
  5
1B
330
1
100
AcDbSymbolTableRecord
100
AcDbBlockTableRecord
  2
*Paper_Space
340
1E
  0
BLOCK_RECORD
  5
23
330
1
100
AcDbSymbolTableRecord
100
AcDbBlockTableRecord
  2
*Paper_Space0
340
26
  0
BLOCK_RECORD
  5
48
330
1
100
AcDbSymbolTableRecord
100
AcDbBlockTableRecord
  2
開示A4
340
0
102
{BLKREFS
331
4C
102
}
  0
BLOCK_RECORD
  5
4B
330
1
100
AcDbSymbolTableRecord
100
AcDbBlockTableRecord
  2
開示A4枠
340
0
102
{BLKREFS
331
52
102
}
  0
BLOCK_RECORD
  5
4F
330
1
100
AcDbSymbolTableRecord
100
AcDbBlockTableRecord
  2
T29-0-13X25
340
0
102
{BLKREFS
331
53
102
}
  0
BLOCK_RECORD
  5
15A
330
1
100
AcDbSymbolTableRecord
100
AcDbBlockTableRecord
  2
*D4
340
0
  0
BLOCK_RECORD
  5
166
330
1
100
AcDbSymbolTableRecord
100
AcDbBlockTableRecord
  2
*D5
340
0
  0
BLOCK_RECORD
  5
172
330
1
100
AcDbSymbolTableRecord
100
AcDbBlockTableRecord
  2
*D6
340
0
  0
BLOCK_RECORD
  5
17D
330
1
100
AcDbSymbolTableRecord
100
AcDbBlockTableRecord
  2
*D7
340
0
  0
BLOCK_RECORD
  5
188
330
1
100
AcDbSymbolTableRecord
100
AcDbBlockTableRecord
  2
*D8
340
0
  0
ENDTAB
  0
ENDSEC
  0
SECTION
  2
BLOCKS
  0
BLOCK
  5
20
330
1F
100
AcDbEntity
  8
0
100
AcDbBlockBegin
  2
*Model_Space
 70
     0
 10
0.0
 20
0.0
 30
0.0
  3
*Model_Space
  1

  0
ENDBLK
  5
21
330
1F
100
AcDbEntity
  8
0
100
AcDbBlockEnd
  0
BLOCK
  5
1C
330
1B
100
AcDbEntity
 67
     1
  8
0
100
AcDbBlockBegin
  2
*Paper_Space
 70
     0
 10
0.0
 20
0.0
 30
0.0
  3
*Paper_Space
  1

  0
ENDBLK
  5
1D
330
1B
100
AcDbEntity
 67
     1
  8
0
100
AcDbBlockEnd
  0
BLOCK
  5
24
330
23
100
AcDbEntity
  8
0
100
AcDbBlockBegin
  2
*Paper_Space0
 70
     0
 10
0.0
 20
0.0
 30
0.0
  3
*Paper_Space0
  1

  0
ENDBLK
  5
25
330
23
100
AcDbEntity
  8
0
100
AcDbBlockEnd
  0
BLOCK
  5
49
330
48
100
AcDbEntity
  8
0
100
AcDbBlockBegin
  2
開示A4
 70
     0
 10
0.0
 20
0.0
 30
0.0
  3
開示A4
  1

  0
POINT
  5
54
330
48
100
AcDbEntity
  8
1
 62
     4
100
AcDbPoint
 10
33.99999999999997
 20
33.99999999999999
 30
0.0
  0
POINT
  5
55
330
48
100
AcDbEntity
  8
1
 62
     4
100
AcDbPoint
 10
56.99999999999997
 20
12.25
 30
0.0
  0
POINT
  5
56
330
48
100
AcDbEntity
  8
1
 62
     4
100
AcDbPoint
 10
56.99999999999997
 20
20.75
 30
0.0
  0
POINT
  5
57
330
48
100
AcDbEntity
  8
1
 62
     4
100
AcDbPoint
 10
56.99999999999997
 20
24.75
 30
0.0
  0
POINT
  5
58
330
48
100
AcDbEntity
  8
1
 62
     4
100
AcDbPoint
 10
56.99999999999997
 20
16.25
 30
0.0
  0
POINT
  5
59
330
48
100
AcDbEntity
  8
1
 62
     4
100
AcDbPoint
 10
157.5
 20
19.0
 30
0.0
  0
POINT
  5
5A
330
48
100
AcDbEntity
  8
1
 62
     4
100
AcDbPoint
 10
47.49999999999997
 20
282.0000000000003
 30
0.0
  0
POINT
  5
5B
330
48
100
AcDbEntity
  8
1
 62
     4
100
AcDbPoint
 10
56.99999999999997
 20
22.75
 30
0.0
  0
POINT
  5
5C
330
48
100
AcDbEntity
  8
1
 62
     4
100
AcDbPoint
 10
56.99999999999997
 20
14.25
 30
0.0
  0
POINT
  5
5D
330
48
100
AcDbEntity
  8
1
 62
     4
100
AcDbPoint
 10
157.5
 20
12.5
 30
0.0
  0
POINT
  5
5E
330
48
100
AcDbEntity
  8
1
 62
     4
100
AcDbPoint
 10
163.25
 20
12.5
 30
0.0
  0
POINT
  5
5F
330
48
100
AcDbEntity
  8
1
 62
     4
100
AcDbPoint
 10
151.75
 20
12.5
 30
0.0
  0
POINT
  5
60
330
48
100
AcDbEntity
  8
1
 62
     4
100
AcDbPoint
 10
134.75
 20
12.5
 30
0.0
  0
POINT
  5
61
330
48
100
AcDbEntity
  8
1
 62
     4
100
AcDbPoint
 10
146.25
 20
12.5
 30
0.0
  0
POINT
  5
62
330
48
100
AcDbEntity
  8
1
 62
     4
100
AcDbPoint
 10
140.5
 20
12.5
 30
0.0
  0
POINT
  5
63
330
48
100
AcDbEntity
  8
1
 62
     4
100
AcDbPoint
 10
140.5
 20
19.0
 30
0.0
  0
POINT
  5
64
330
48
100
AcDbEntity
  8
1
 62
     4
100
AcDbPoint
 10
117.75
 20
12.5
 30
0.0
  0
POINT
  5
65
330
48
100
AcDbEntity
  8
1
 62
     4
100
AcDbPoint
 10
129.25
 20
12.5
 30
0.0
  0
POINT
  5
66
330
48
100
AcDbEntity
  8
1
 62
     4
100
AcDbPoint
 10
123.5
 20
12.5
 30
0.0
  0
POINT
  5
67
330
48
100
AcDbEntity
  8
1
 62
     4
100
AcDbPoint
 10
123.5
 20
19.0
 30
0.0
  0
POINT
  5
68
330
48
100
AcDbEntity
  8
1
 62
     4
100
AcDbPoint
 10
100.75
 20
12.5
 30
0.0
  0
POINT
  5
69
330
48
100
AcDbEntity
  8
1
 62
     4
100
AcDbPoint
 10
112.25
 20
12.5
 30
0.0
  0
POINT
  5
6A
330
48
100
AcDbEntity
  8
1
 62
     4
100
AcDbPoint
 10
106.5
 20
12.5
 30
0.0
  0
POINT
  5
6B
330
48
100
AcDbEntity
  8
1
 62
     4
100
AcDbPoint
 10
106.5
 20
19.0
 30
0.0
  0
POINT
  5
6C
330
48
100
AcDbEntity
  8
1
 62
     4
100
AcDbPoint
 10
85.24999999999997
 20
17.0
 30
0.0
  0
POINT
  5
6D
330
48
100
AcDbEntity
  8
1
 62
     4
100
AcDbPoint
 10
93.74999999999997
 20
17.0
 30
0.0
  0
POINT
  5
6E
330
48
100
AcDbEntity
  8
1
 62
     4
100
AcDbPoint
 10
183.0
 20
15.0
 30
0.0
  0
LINE
  5
6F
330
48
100
AcDbEntity
  8
1
  6
Continuous
 62
     2
100
AcDbLine
 10
80.99999999999997
 20
27.0
 30
0.0
 11
80.99999999999997
 21
10.0
 31
0.0
  0
LINE
  5
70
330
48
100
AcDbEntity
  8
1
  6
DOT_CENTER
 62
     2
100
AcDbLine
 10
187.0
 20
26.5
 30
0.0
 11
187.0
 21
20.5
 31
0.0
  0
LINE
  5
71
330
48
100
AcDbEntity
  8
1
  6
DOT_CENTER
 62
     2
100
AcDbLine
 10
184.0
 20
23.5
 30
0.0
 11
197.0
 21
23.5
 31
0.0
  0
LINE
  5
72
330
48
100
AcDbEntity
  8
1
  6
Continuous
 62
     7
100
AcDbLine
 10
196.0
 20
21.5
 30
0.0
 11
191.0
 21
22.3
 31
0.0
  0
LINE
  5
73
330
48
100
AcDbEntity
  8
1
  6
Continuous
 62
     7
100
AcDbLine
 10
196.0
 20
25.5
 30
0.0
 11
196.0
 21
21.5
 31
0.0
  0
LINE
  5
74
330
48
100
AcDbEntity
  8
1
  6
Continuous
 62
     7
100
AcDbLine
 10
191.0
 20
24.69999999999999
 30
0.0
 11
196.0
 21
25.5
 31
0.0
  0
LINE
  5
75
330
48
100
AcDbEntity
  8
1
  6
Continuous
 62
     7
100
AcDbLine
 10
191.0
 20
24.69999999999999
 30
0.0
 11
191.0
 21
22.3
 31
0.0
  0
LINE
  5
76
330
48
100
AcDbEntity
  8
1
  6
Continuous
 62
     2
100
AcDbLine
 10
32.99999999999997
 20
27.0
 30
0.0
 11
32.99999999999997
 21
10.0
 31
0.0
  0
LINE
  5
77
330
48
100
AcDbEntity
  8
1
  6
Continuous
 62
     2
100
AcDbLine
 10
24.99999999999998
 20
18.5
 30
0.0
 11
80.99999999999997
 21
18.5
 31
0.0
  0
LINE
  5
78
330
48
100
AcDbEntity
  8
1
  6
Continuous
 62
     7
100
AcDbLine
 10
200.0
 20
287.0000000000003
 30
0.0
 11
105.0
 21
287.0000000000003
 31
0.0
  0
LINE
  5
79
330
48
100
AcDbEntity
  8
1
  6
Continuous
 62
     7
100
AcDbLine
 10
200.0
 20
10.0
 30
0.0
 11
200.0
 21
148.5
 31
0.0
  0
LINE
  5
7A
330
48
100
AcDbEntity
  8
1
  6
Continuous
 62
     7
100
AcDbLine
 10
24.99999999999998
 20
10.0
 30
0.0
 11
105.0
 21
10.0
 31
0.0
  0
LINE
  5
7B
330
48
100
AcDbEntity
  8
1
  6
PHANTOM
 62
     4
100
AcDbLine
 10
0.0
 20
297.0
 30
0.0
 11
0.0
 21
0.0
 31
0.0
  0
LINE
  5
7C
330
48
100
AcDbEntity
  8
1
  6
PHANTOM
 62
     4
100
AcDbLine
 10
210.0
 20
297.0
 30
0.0
 11
0.0
 21
297.0
 31
0.0
  0
LINE
  5
7D
330
48
100
AcDbEntity
  8
1
  6
PHANTOM
 62
     4
100
AcDbLine
 10
210.0
 20
0.0
 30
0.0
 11
210.0
 21
297.0
 31
0.0
  0
LINE
  5
7E
330
48
100
AcDbEntity
  8
1
  6
PHANTOM
 62
     4
100
AcDbLine
 10
0.0
 20
0.0
 30
0.0
 11
210.0
 21
0.0
 31
0.0
  0
LINE
  5
7F
330
48
100
AcDbEntity
  8
1
  6
Continuous
 62
     7
100
AcDbLine
 10
24.99999999999998
 20
40.99999999999999
 30
0.0
 11
200.0
 21
40.99999999999999
 31
0.0
  0
LINE
  5
80
330
48
100
AcDbEntity
  8
1
  6
Continuous
 62
     7
100
AcDbLine
 10
200.0
 20
27.0
 30
0.0
 11
24.99999999999998
 21
27.0
 31
0.0
  0
LINE
  5
81
330
48
100
AcDbEntity
  8
1
  6
Continuous
 62
     2
100
AcDbLine
 10
32.99999999999997
 20
40.99999999999999
 30
0.0
 11
32.99999999999997
 21
27.0
 31
0.0
  0
LINE
  5
82
330
48
100
AcDbEntity
  8
1
  6
Continuous
 62
     2
100
AcDbLine
 10
54.99999999999997
 20
287.0000000000003
 30
0.0
 11
54.99999999999997
 21
277.0000000000003
 31
0.0
  0
LINE
  5
83
330
48
100
AcDbEntity
  8
1
  6
Continuous
 62
     2
100
AcDbLine
 10
39.99999999999997
 20
287.0000000000003
 30
0.0
 11
39.99999999999997
 21
277.0000000000003
 31
0.0
  0
LINE
  5
84
330
48
100
AcDbEntity
  8
1
  6
Continuous
 62
     7
100
AcDbLine
 10
24.99999999999998
 20
10.0
 30
0.0
 11
24.99999999999998
 21
148.5
 31
0.0
  0
LINE
  5
85
330
48
100
AcDbEntity
  8
1
  6
Continuous
 62
     2
100
AcDbLine
 10
54.99999999999997
 20
277.0000000000003
 30
0.0
 11
24.99999999999998
 21
277.0000000000003
 31
0.0
  0
LINE
  5
86
330
48
100
AcDbEntity
  8
1
  6
Continuous
 62
     2
100
AcDbLine
 10
166.0
 20
27.0
 30
0.0
 11
166.0
 21
10.0
 31
0.0
  0
LINE
  5
87
330
48
100
AcDbEntity
  8
1
  6
Continuous
 62
     2
100
AcDbLine
 10
132.0
 20
27.0
 30
0.0
 11
132.0
 21
10.0
 31
0.0
  0
LINE
  5
88
330
48
100
AcDbEntity
  8
1
  6
Continuous
 62
     2
100
AcDbLine
 10
149.0
 20
27.0
 30
0.0
 11
149.0
 21
10.0
 31
0.0
  0
LINE
  5
89
330
48
100
AcDbEntity
  8
1
  6
Continuous
 62
     2
100
AcDbLine
 10
115.0
 20
27.0
 30
0.0
 11
115.0
 21
10.0
 31
0.0
  0
LINE
  5
8A
330
48
100
AcDbEntity
  8
1
  6
Continuous
 62
     2
100
AcDbLine
 10
97.99999999999997
 20
27.0
 30
0.0
 11
97.99999999999997
 21
10.0
 31
0.0
  0
LINE
  5
8B
330
48
100
AcDbEntity
  8
1
  6
Continuous
 62
     2
100
AcDbLine
 10
166.0
 20
20.0
 30
0.0
 11
200.0
 21
20.0
 31
0.0
  0
LINE
  5
8C
330
48
100
AcDbEntity
  8
1
  6
Continuous
 62
     2
100
AcDbLine
 10
105.0
 20
287.0000000000003
 30
0.0
 11
105.0
 21
292.0000000000003
 31
0.0
  0
LINE
  5
8D
330
48
100
AcDbEntity
  8
1
  6
Continuous
 62
     7
100
AcDbLine
 10
105.0
 20
287.0000000000003
 30
0.0
 11
24.99999999999998
 21
287.0000000000003
 31
0.0
  0
LINE
  5
8E
330
48
100
AcDbEntity
  8
1
  6
Continuous
 62
     2
100
AcDbLine
 10
24.99999999999998
 20
148.5
 30
0.0
 11
19.99999999999998
 21
148.5
 31
0.0
  0
LINE
  5
8F
330
48
100
AcDbEntity
  8
1
  6
Continuous
 62
     7
100
AcDbLine
 10
24.99999999999998
 20
148.5
 30
0.0
 11
24.99999999999998
 21
287.0000000000003
 31
0.0
  0
LINE
  5
90
330
48
100
AcDbEntity
  8
1
  6
Continuous
 62
     2
100
AcDbLine
 10
200.0
 20
148.5
 30
0.0
 11
205.0
 21
148.5
 31
0.0
  0
LINE
  5
91
330
48
100
AcDbEntity
  8
1
  6
Continuous
 62
     7
100
AcDbLine
 10
200.0
 20
148.5
 30
0.0
 11
200.0
 21
287.0000000000003
 31
0.0
  0
LINE
  5
92
330
48
100
AcDbEntity
  8
1
  6
Continuous
 62
     2
100
AcDbLine
 10
105.0
 20
10.0
 30
0.0
 11
105.0
 21
5.0
 31
0.0
  0
LINE
  5
93
330
48
100
AcDbEntity
  8
1
  6
Continuous
 62
     7
100
AcDbLine
 10
105.0
 20
10.0
 30
0.0
 11
200.0
 21
10.0
 31
0.0
  0
CIRCLE
  5
98
330
48
100
AcDbEntity
  8
1
  6
DOT_CENTER
 62
     7
100
AcDbCircle
 10
89.49999999999997
 20
18.0
 30
0.0
 40
0.0999999999999943
  0
CIRCLE
  5
99
330
48
100
AcDbEntity
  8
1
  6
DOT_CENTER
 62
     7
100
AcDbCircle
 10
89.49999999999997
 20
16.0
 30
0.0
 40
0.0999999999999943
  0
CIRCLE
  5
9A
330
48
100
AcDbEntity
  8
1
  6
Continuous
 62
     7
100
AcDbCircle
 10
187.0
 20
23.5
 30
0.0
 40
2.0
  0
CIRCLE
  5
9B
330
48
100
AcDbEntity
  8
1
  6
Continuous
 62
     7
100
AcDbCircle
 10
187.0
 20
23.5
 30
0.0
 40
1.200000000000188
  0
CIRCLE
  5
9C
330
48
100
AcDbEntity
  8
1
  6
Continuous
 62
     7
100
AcDbCircle
 10
154.5
 20
12.5
 30
0.0
 40
0.3000000000000966
  0
CIRCLE
  5
9D
330
48
100
AcDbEntity
  8
1
  6
Continuous
 62
     7
100
AcDbCircle
 10
160.5
 20
12.5
 30
0.0
 40
0.3000000000000966
  0
CIRCLE
  5
9E
330
48
100
AcDbEntity
  8
1
  6
Continuous
 62
     7
100
AcDbCircle
 10
143.5
 20
12.5
 30
0.0
 40
0.3000000000000966
  0
CIRCLE
  5
9F
330
48
100
AcDbEntity
  8
1
  6
Continuous
 62
     7
100
AcDbCircle
 10
137.5
 20
12.5
 30
0.0
 40
0.3000000000000966
  0
CIRCLE
  5
A0
330
48
100
AcDbEntity
  8
1
  6
Continuous
 62
     7
100
AcDbCircle
 10
126.5
 20
12.5
 30
0.0
 40
0.2999999999999972
  0
CIRCLE
  5
A1
330
48
100
AcDbEntity
  8
1
  6
Continuous
 62
     7
100
AcDbCircle
 10
120.5
 20
12.5
 30
0.0
 40
0.2999999999999972
  0
CIRCLE
  5
A2
330
48
100
AcDbEntity
  8
1
  6
Continuous
 62
     7
100
AcDbCircle
 10
109.5
 20
12.5
 30
0.0
 40
0.2999999999999972
  0
CIRCLE
  5
A3
330
48
100
AcDbEntity
  8
1
  6
Continuous
 62
     7
100
AcDbCircle
 10
103.5
 20
12.5
 30
0.0
 40
0.2999999999999972
  0
SPLINE
  5
A4
102
{ACAD_REACTORS
330
C2
102
}
330
48
100
AcDbEntity
  8
_U_30EC_U_30A4_U_30E4_U_30FC_1
  6
Continuous
 62
     2
100
AcDbSpline
210
0.0
220
0.0
230
1.0
 70
    11
 71
     3
 72
    99
 73
    95
 74
    93
 42
0.000000001
 43
0.0000000001
 44
0.00000001
 40
0.0
 40
0.0
 40
0.0
 40
0.0
 40
0.079641717227247
 40
0.1621768542355659
 40
0.2486489160957121
 40
0.34049696685241
 40
0.4381912511164181
 40
0.5434463660244512
 40
0.6518115192846852
 40
0.7530190937886367
 40
0.8492196919725025
 40
0.9419290312997803
 40
1.034249663569999
 40
1.129078600620175
 40
1.226697027573232
 40
1.32722042542168
 40
1.470572134938019
 40
1.595489863371179
 40
1.719934125348426
 40
1.850576620127468
 40
1.989059629987348
 40
2.13413905422696
 40
2.28069800720722
 40
2.424529739039432
 40
2.565929576985849
 40
2.708239260773593
 40
2.861717887443718
 40
3.045168540347354
 40
3.183798301138612
 40
3.314813961455499
 40
3.442083470447349
 40
3.569912708372994
 40
3.702177512509396
 40
3.842307559659652
 40
3.992872223246018
 40
4.156750662218349
 40
4.31098186110757
 40
4.445859909322608
 40
4.572393936131605
 40
4.701656719782069
 40
4.768279086008579
 40
4.835960697898505
 40
4.912788918729456
 40
5.006285208481657
 40
5.026909478751733
 40
5.047533749021298
 40
5.101808031471325
 40
5.162325165538645
 40
5.226919745995963
 40
5.294231806596823
 40
5.364544852554962
 40
5.438319055467948
 40
5.517877651324281
 40
5.607647714861677
 40
5.700449642544521
 40
5.788251142364243
 40
5.872714706039841
 40
5.955167292575421
 40
6.037192395190462
 40
6.120669181469141
 40
6.206848616686413
 40
6.296680855416875
 40
6.442558392872646
 40
6.568190371608345
 40
6.692904567360443
 40
6.824220446557189
 40
6.963121850329437
 40
7.107843738851234
 40
7.253431663907369
 40
7.395187468036846
 40
7.53314075323783
 40
7.670550457175394
 40
7.816236511769378
 40
7.987691657359329
 40
8.142277421969371
 40
8.29366261541511
 40
8.44296246087938
 40
8.591598316185365
 40
8.7436789923619
 40
8.903725323699307
 40
9.076307008890627
 40
9.265578604680625
 40
9.459203795360857
 40
9.61761981027367
 40
9.75360967136204
 40
9.87487330000414
 40
9.954520184977804
 40
10.02416413719244
 40
10.09769764405448
 40
10.18909955924975
 40
10.20974586420136
 40
10.23039218263382
 40
10.30057101881265
 40
10.37632012987551
 40
10.37632012987551
 40
10.37632012987551
 40
10.37632012987551
 10
170.1465954835851
 20
14.1379566321599
 30
0.0
 10
170.1632217851219
 20
14.11720608845311
 30
0.0
 10
170.1970784206578
 20
14.07495111711906
 30
0.0
 10
170.2599822541035
 20
14.02029811392069
 30
0.0
 10
170.3332500940393
 20
13.97299025121055
 30
0.0
 10
170.4175969238636
 20
13.93527231437938
 30
0.0
 10
170.513224061546
 20
13.91040619731952
 30
0.0
 10
170.6171853775346
 20
13.90309559345932
 30
0.0
 10
170.7224020220405
 20
13.91142322794054
 30
0.0
 10
170.8206626371334
 20
13.94149179651525
 30
0.0
 10
170.9058986427548
 20
13.98848822971875
 30
0.0
 10
170.9779220206103
 20
14.04952991250857
 30
0.0
 10
171.0350917709096
 20
14.12412969578584
 30
0.0
 10
171.076786874744
 20
14.21002464660168
 30
0.0
 10
171.1026952846292
 20
14.30485850432212
 30
0.0
 10
171.1118037332653
 20
14.41854979038367
 30
0.0
 10
171.0986864796488
 20
14.54332587770777
 30
0.0
 10
171.0325330334415
 20
14.660147191719
 30
0.0
 10
170.9369370919569
 20
14.74512539577373
 30
0.0
 10
170.8249681022369
 20
14.81416684459164
 30
0.0
 10
170.6993659583269
 20
14.8720414204589
 30
0.0
 10
170.5656691620857
 20
14.92373723284339
 30
0.0
 10
170.4313122818831
 20
14.97899092397179
 30
0.0
 10
170.3051983986877
 20
15.04939770641649
 30
0.0
 10
170.1926579987535
 20
15.13785540731246
 30
0.0
 10
170.0969963064458
 20
15.24981067868474
 30
0.0
 10
170.0334157151825
 20
15.39949910101383
 30
0.0
 10
170.0200706505016
 20
15.5593279438514
 30
0.0
 10
170.0320510987448
 20
15.71048405306842
 30
0.0
 10
170.0712298928841
 20
15.83809244591539
 30
0.0
 10
170.135498775091
 20
15.95080874030845
 30
0.0
 10
170.2238204999741
 20
16.04648609268686
 30
0.0
 10
170.3338091207628
 20
16.12354214985754
 30
0.0
 10
170.4632284401265
 20
16.1815139693628
 30
0.0
 10
170.6111838967793
 20
16.21739177588819
 30
0.0
 10
170.7682069455487
 20
16.22746719050561
 30
0.0
 10
170.917494046643
 20
16.21863637762588
 30
0.0
 10
171.0596253614169
 20
16.19074899340356
 30
0.0
 10
171.1595922609625
 20
16.13413314701136
 30
0.0
 10
171.3125074736186
 20
16.0867460210551
 30
0.0
 10
171.2455131717169
 20
16.00197553001187
 30
0.0
 10
171.229647912027
 20
15.93438901873484
 30
0.0
 10
171.1978750531298
 20
15.86926092793191
 30
0.0
 10
171.2150202209571
 20
15.76723453256954
 30
0.0
 10
171.1666427208232
 20
15.77493211681904
 30
0.0
 10
171.1315789440765
 20
15.76806771724808
 30
0.0
 10
171.1296697985719
 20
15.83263831158198
 30
0.0
 10
171.0985692931989
 20
15.87825639621393
 30
0.0
 10
171.0664551628456
 20
15.93561036628455
 30
0.0
 10
171.0208038475168
 20
15.98540462692555
 30
0.0
 10
170.9658508218387
 20
16.02994813718995
 30
0.0
 10
170.9010841173008
 20
16.06763988836549
 30
0.0
 10
170.8232377310597
 20
16.0928337579135
 30
0.0
 10
170.7355160553352
 20
16.09931230998107
 30
0.0
 10
170.6452903277807
 20
16.09235709285607
 30
0.0
 10
170.5594594694064
 20
16.06909190460928
 30
0.0
 10
170.4828343638596
 20
16.03131644107541
 30
0.0
 10
170.4165265636201
 20
15.98051641089575
 30
0.0
 10
170.3622560536964
 20
15.91731143407208
 30
0.0
 10
170.3224925345459
 20
15.84276455710366
 30
0.0
 10
170.2976775510587
 20
15.75917313997766
 30
0.0
 10
170.2892124262869
 20
15.65192948382285
 30
0.0
 10
170.3019697987103
 20
15.52965457267561
 30
0.0
 10
170.3681548409272
 20
15.41149724291212
 30
0.0
 10
170.4640977399833
 20
15.32606325709532
 30
0.0
 10
170.5757914963182
 20
15.25583362306726
 30
0.0
 10
170.7010863668702
 20
15.19659162305305
 30
0.0
 10
170.8349823941447
 20
15.14616708086129
 30
0.0
 10
170.968993033315
 20
15.09322516984381
 30
0.0
 10
171.0950885316916
 20
15.02750170625179
 30
0.0
 10
171.2076216638417
 20
14.94480352537315
 30
0.0
 10
171.3031370284233
 20
14.83996006310075
 30
0.0
 10
171.3672706486963
 20
14.69937117251567
 30
0.0
 10
171.3811103725278
 20
14.54065409451592
 30
0.0
 10
171.367395471223
 20
14.38153155217875
 30
0.0
 10
171.3244739153984
 20
14.23483828819211
 30
0.0
 10
171.2545906329065
 20
14.10119796587145
 30
0.0
 10
171.157459221383
 20
13.98532387699288
 30
0.0
 10
171.0347806023658
 20
13.89089981770088
 30
0.0
 10
170.8874408413168
 20
13.82179270651982
 30
0.0
 10
170.7177132497125
 20
13.77953210858854
 30
0.0
 10
170.5317404979597
 20
13.76781736230405
 30
0.0
 10
170.3528955926183
 20
13.77809486683438
 30
0.0
 10
170.1881733753743
 20
13.81966573769152
 30
0.0
 10
170.0834410841056
 20
13.88797642883942
 30
0.0
 10
169.9350960790367
 20
13.93675219032109
 30
0.0
 10
169.9980378194729
 20
14.02976591290843
 30
0.0
 10
170.0072274430059
 20
14.1029653624828
 30
0.0
 10
170.0303711301232
 20
14.16936294501345
 30
0.0
 10
170.0034588335317
 20
14.26974809527581
 30
0.0
 10
170.0521338956339
 20
14.26234033517379
 30
0.0
 10
170.0916530580697
 20
14.26894063620895
 30
0.0
 10
170.0996204944702
 20
14.19078703218932
 30
0.0
 10
170.1305436967923
 20
14.15600927375855
 30
0.0
 10
170.1465954835851
 20
14.1379566321599
 30
0.0
 11
170.1465954835851
 21
14.1379566321599
 31
0.0
 11
170.1982038075864
 21
14.07729869814737
 31
0.0
 11
170.2601105501335
 21
14.0227129516332
 31
0.0
 11
170.3327764009802
 21
13.97583980928386
 31
0.0
 11
170.4166468655843
 21
13.9383990627654
 31
0.0
 11
170.511221073241
 21
13.91390636311878
 31
0.0
 11
170.6161603327165
 21
13.90575829888469
 31
0.0
 11
170.7240739497552
 21
13.91564048638222
 31
0.0
 11
170.8208419941616
 21
13.94528704887479
 31
0.0
 11
170.9050776083319
 21
13.99175118948819
 31
0.0
 11
170.9756144207686
 21
14.05191413218149
 31
0.0
 11
171.031944210998
 21
14.12505819466318
 31
0.0
 11
171.0736690016004
 21
14.21021434047519
 31
0.0
 11
171.0994680808032
 21
14.30436190989613
 31
0.0
 11
171.1080824729446
 21
14.40451552098219
 31
0.0
 11
171.0878517703357
 21
14.54643250879399
 31
0.0
 11
171.0272522666732
 21
14.65566684036389
 31
0.0
 11
170.9364971286286
 21
14.74081306430097
 31
0.0
 11
170.826010188474
 21
14.81052746532519
 31
0.0
 11
170.7008523531254
 21
14.86979854169923
 31
0.0
 11
170.5662951950998
 21
14.92404253474119
 31
0.0
 11
170.4316884277007
 21
14.98201274306002
 31
0.0
 11
170.3065802017259
 21
15.05297399304229
 31
0.0
 11
170.196027609828
 21
15.14113315968692
 31
0.0
 11
170.1053381235265
 21
15.25080295132619
 31
0.0
 11
170.0447055469484
 21
15.39179720476318
 31
0.0
 11
170.0245079172553
 21
15.57413260402309
 31
0.0
 11
170.0374030471347
 21
15.71216131926638
 31
0.0
 11
170.0761016659391
 21
15.8373312845129
 31
0.0
 11
170.1393141731506
 21
15.94779262129085
 31
0.0
 11
170.2257499954545
 21
16.0419688539062
 31
0.0
 11
170.3336492808962
 21
16.1184654077065
 31
0.0
 11
170.4613526283329
 21
16.1761567010949
 31
0.0
 11
170.6075393259923
 21
16.21220066809972
 31
0.0
 11
170.770976856545
 21
16.22421385386059
 31
0.0
 11
170.9248918431289
 21
16.21434269066863
 31
0.0
 11
171.0564887242607
 21
16.18477329831499
 31
0.0
 11
171.172563634494
 21
16.13439993895253
 31
0.0
 11
171.2800792741123
 21
16.06264163167879
 31
0.0
 11
171.2516994050445
 21
16.00236624106887
 31
0.0
 11
171.2284855254284
 21
15.93879017337649
 31
0.0
 11
171.2078381040801
 21
15.86478841992269
 31
0.0
 11
171.1871840681487
 21
15.77360197897329
 31
0.0
 11
171.1665597978415
 21
15.77360197897329
 31
0.0
 11
171.1459355275343
 21
15.77360197897329
 31
0.0
 11
171.1256706495791
 21
15.82395108486346
 31
0.0
 11
171.0994658759421
 21
15.87850045116929
 31
0.0
 11
171.0650468924451
 21
15.93316116296114
 31
0.0
 11
171.0203554612937
 21
15.98349593725409
 31
0.0
 11
170.9657333359511
 21
16.02777175321529
 31
0.0
 11
170.9016722004327
 21
16.06436142334499
 31
0.0
 11
170.8259682961141
 21
16.08882545979724
 31
0.0
 11
170.7365722046449
 21
16.09701100667019
 31
0.0
 11
170.6440937174207
 21
16.08926973931102
 31
0.0
 11
170.5594072091645
 21
16.0660900344557
 31
0.0
 11
170.483702448884
 21
16.02863495634008
 31
0.0
 11
170.4183754766516
 21
15.97832774281099
 31
0.0
 11
170.3650487887665
 21
15.91600293379878
 31
0.0
 11
170.3254809233902
 21
15.8424994789561
 31
0.0
 11
170.3009523754711
 21
15.75988443557393
 31
0.0
 11
170.2927954104108
 21
15.6704232984435
 31
0.0
 11
170.3130095765617
 21
15.52595308146577
 31
0.0
 11
170.373625616682
 21
15.41591177072939
 31
0.0
 11
170.4643479320758
 21
15.33033670130634
 31
0.0
 11
170.5748676948813
 21
15.25941954854629
 31
0.0
 11
170.7000089937719
 21
15.1991430555058
 31
0.0
 11
170.8345826882553
 21
15.1459044791302
 31
0.0
 11
170.9691729191968
 21
15.09039489581074
 31
0.0
 11
171.0942976816298
 21
15.02377281249409
 31
0.0
 11
171.204800907977
 21
14.94118863716749
 31
0.0
 11
171.2955397598289
 21
14.83800003476269
 31
0.0
 11
171.3561557999489
 21
14.70552315979584
 31
0.0
 11
171.3763699660998
 21
14.53526378483839
 31
0.0
 11
171.3621839747998
 21
14.38133030397411
 31
0.0
 11
171.3196087009193
 21
14.23605531269099
 31
0.0
 11
171.2499752884265
 21
14.10398854189068
 31
0.0
 11
171.1544992078714
 21
13.99007218775249
 31
0.0
 11
171.0341060772624
 21
13.89715272597016
 31
0.0
 11
170.8896160201846
 21
13.8283235766818
 31
0.0
 11
170.7223519532714
 21
13.78581275203967
 31
0.0
 11
170.5336103348227
 21
13.7716586461404
 31
0.0
 11
170.3405031726388
 21
13.78581275203967
 31
0.0
 11
170.1878975900911
 21
13.8283235766818
 31
0.0
 11
170.0661897942203
 21
13.88899033013892
 31
0.0
 11
169.9660261826364
 21
13.95734322942739
 31
0.0
 11
169.9922320587039
 21
14.03255545163077
 31
0.0
 11
170.0090121537618
 21
14.10014767383609
 31
0.0
 11
170.0206196447852
 21
14.17275926235963
 31
0.0
 11
170.0313606254139
 21
14.2635278821286
 31
0.0
 11
170.0520069443315
 21
14.2635278821286
 31
0.0
 11
170.0726532632492
 21
14.2635278821286
 31
0.0
 11
170.1048916391629
 21
14.20119204881086
 31
0.0
 11
170.1465954835851
 21
14.1379566321599
 31
0.0
  0
SPLINE
  5
A5
102
{ACAD_REACTORS
330
C3
102
}
330
48
100
AcDbEntity
  8
_U_30EC_U_30A4_U_30E4_U_30FC_1
  6
Continuous
 62
     2
100
AcDbSpline
210
0.0
220
0.0
230
1.0
 70
    11
 71
     3
 72
    57
 73
    53
 74
    51
 42
0.000000001
 43
0.0000000001
 44
0.00000001
 40
0.0
 40
0.0
 40
0.0
 40
0.0
 40
0.047163208280866
 40
0.0914861054632134
 40
0.135776251970237
 40
0.1826527001610665
 40
0.2295203288572573
 40
0.2737751972220743
 40
0.3181310461543041
 40
0.3652607198398472
 40
0.4571007286314065
 40
0.5671851029165085
 40
0.6894623283868088
 40
0.8181758272545763
 40
0.951008722927372
 40
1.085852229674064
 40
1.218126164475331
 40
1.343545131142391
 40
1.454537202956807
 40
1.567187607530816
 40
1.680710966642406
 40
1.794226869736713
 40
1.900009184247598
 40
2.004085860447877
 40
2.108162674451736
 40
2.214000150155309
 40
2.49603857735217
 40
2.762350745479282
 40
2.997275353279438
 40
3.185110082137746
 40
3.246407890063916
 40
3.312607550212702
 40
3.378877742711575
 40
3.440140399651457
 40
4.100501696006459
 40
4.754913085563561
 40
5.411331693423904
 40
6.077890432568676
 40
6.110575292670955
 40
6.143260152775735
 40
6.367989363395095
 40
6.610525374951471
 40
6.863389136467257
 40
7.119380025547508
 40
7.376036605091047
 40
7.631164770966247
 40
7.876722425456392
 40
8.104953735855897
 40
8.312916685924288
 40
8.497730294941222
 40
8.651018984313774
 40
8.764738853624518
 40
8.764738853624518
 40
8.764738853624518
 40
8.764738853624518
 10
174.7922649500513
 20
13.81626739612929
 30
0.0
 10
174.7766616726931
 20
13.8182623107908
 30
0.0
 10
174.7463947960302
 20
13.82213201360301
 30
0.0
 10
174.7010994202252
 20
13.82341984967264
 30
0.0
 10
174.6559553129349
 20
13.82308683554049
 30
0.0
 10
174.60990171234
 20
13.82314658674222
 30
0.0
 10
174.5640496172097
 20
13.82325813649999
 30
0.0
 10
174.5183711648164
 20
13.82277833456587
 30
0.0
 10
174.4750811541608
 20
13.82461109618723
 30
0.0
 10
174.4039947951513
 20
13.80049556814658
 30
0.0
 10
174.4057477261442
 20
13.92184693977255
 30
0.0
 10
174.3586196370569
 20
14.00726239751231
 30
0.0
 10
174.3191478251763
 20
14.12486929345137
 30
0.0
 10
174.2706635532645
 20
14.24232752540438
 30
0.0
 10
174.2201017402522
 20
14.3640593576151
 30
0.0
 10
174.1718634610477
 20
14.49075967862468
 30
0.0
 10
174.1135232947595
 20
14.59933687784956
 30
0.0
 10
174.0980892667261
 20
14.75620657134413
 30
0.0
 10
173.9566586330636
 20
14.72373446548326
 30
0.0
 10
173.8508397414903
 20
14.73512888682179
 30
0.0
 10
173.7358569725222
 20
14.73392591514614
 30
0.0
 10
173.6253142252141
 20
14.73506945347404
 30
0.0
 10
173.5176583522783
 20
14.73418350037524
 30
0.0
 10
173.4121322529242
 20
14.73416602390518
 30
0.0
 10
173.3109192682013
 20
14.72714032472419
 30
0.0
 10
173.1266804827753
 20
14.7513585985987
 30
0.0
 10
173.1157393685411
 20
14.44741691121889
 30
0.0
 10
173.0087691634751
 20
14.22353177253393
 30
0.0
 10
172.9098148604347
 20
14.03895314292499
 30
0.0
 10
172.9225090524008
 20
13.79530204804209
 30
0.0
 10
172.8050091716397
 20
13.825080467532
 30
0.0
 10
172.7422055868311
 20
13.82258089509599
 30
0.0
 10
172.67858720934
 20
13.82344075102807
 30
0.0
 10
172.3946014194074
 20
13.78098039941946
 30
0.0
 10
173.0251638499382
 20
14.50081952444788
 30
0.0
 10
173.1087645289071
 20
15.01276539435732
 30
0.0
 10
173.4929252789338
 20
15.53353743550042
 30
0.0
 10
173.4777208288567
 20
16.23519626253214
 30
0.0
 10
173.7239265722696
 20
16.22345633081253
 30
0.0
 10
173.8256346157562
 20
16.23225004452771
 30
0.0
 10
173.8249752035818
 20
15.98059650730347
 30
0.0
 10
173.9428317155828
 20
15.7981802073396
 30
0.0
 10
174.0315515260484
 20
15.55563740662868
 30
0.0
 10
174.1322292485259
 20
15.32340030530129
 30
0.0
 10
174.2311142712243
 20
15.08674644566914
 30
0.0
 10
174.3299676990668
 20
14.8546173917009
 30
0.0
 10
174.4256166390926
 20
14.63122222788791
 30
0.0
 10
174.5159904573271
 20
14.42272549049313
 30
0.0
 10
174.598994456819
 20
14.23308448529322
 30
0.0
 10
174.6726088582799
 20
14.066631060681
 30
0.0
 10
174.7342815895546
 20
13.929176996261
 30
0.0
 10
174.7749458885604
 20
13.84999239430036
 30
0.0
 10
174.7922649500513
 20
13.81626739612929
 30
0.0
 11
174.7922649500513
 21
13.81626739612929
 31
0.0
 11
174.7453878317448
 21
13.82145433189186
 31
0.0
 11
174.7010975896125
 21
13.8231553822386
 31
0.0
 11
174.6568074431729
 21
13.8231553822386
 31
0.0
 11
174.6099309947159
 21
13.8231553822386
 31
0.0
 11
174.5630633657033
 21
13.8231553822386
 31
0.0
 11
174.5188084970408
 21
13.8231553822386
 31
0.0
 11
174.4744852776854
 21
13.82145433189186
 31
0.0
 11
174.4276419021443
 21
13.81626739612929
 31
0.0
 11
174.3992532136326
 21
13.90360966173244
 31
0.0
 11
174.3622721815898
 21
14.0072965627482
 31
0.0
 11
174.3188386236701
 21
14.12159987001128
 31
0.0
 11
174.2711055866936
 21
14.24113531268969
 31
0.0
 11
174.2208160133237
 21
14.36408057307564
 31
0.0
 11
174.1696467003932
 21
14.48883822929449
 31
0.0
 11
174.1197531801326
 21
14.61134141502776
 31
0.0
 11
174.0733119111841
 21
14.7278451736792
 31
0.0
 11
173.9623611907589
 21
14.73087465284509
 31
0.0
 11
173.8497309225089
 21
14.7330045486779
 31
0.0
 11
173.7362152069449
 21
14.73432195319138
 31
0.0
 11
173.6227000476801
 21
14.73473315978849
 31
0.0
 11
173.5169185312816
 21
14.73432195319138
 31
0.0
 11
173.4128501919225
 21
14.7330045486779
 31
0.0
 11
173.3087951724045
 21
14.73087465284509
 31
0.0
 11
173.2030010615596
 21
14.7278451736792
 31
0.0
 11
173.0980914750139
 21
14.46604437513351
 31
0.0
 11
173.0034868690332
 21
14.2171023265846
 31
0.0
 11
172.9252231210298
 21
13.99559756969556
 31
0.0
 11
172.8693431224555
 21
13.81626739612929
 31
0.0
 11
172.8082651639442
 21
13.82145433189186
 31
0.0
 11
172.742087361813
 21
13.8231553822386
 31
0.0
 11
172.6758390041282
 21
13.82145433189186
 31
0.0
 11
172.6147963233938
 21
13.81626739612929
 31
0.0
 11
172.889968495193
 21
14.41656508695142
 31
0.0
 11
173.158294573417
 21
15.0134364236078
 31
0.0
 11
173.4240277350405
 21
15.61366245644379
 31
0.0
 11
173.6914740737033
 21
16.22421385386059
 31
0.0
 11
173.7241589339806
 21
16.22421385386059
 31
0.0
 11
173.7568437942579
 21
16.22421385386059
 31
0.0
 11
173.8428300681057
 21
16.01658539037084
 31
0.0
 11
173.9357285813609
 21
15.7925461456352
 31
0.0
 11
174.0328714521463
 21
15.55908663180469
 31
0.0
 11
174.1317936458031
 21
15.32298128464149
 31
0.0
 11
174.2315341249927
 21
15.08649780379783
 31
0.0
 11
174.3313071129353
 21
14.85168781253709
 31
0.0
 11
174.4280608257449
 21
14.62599492196849
 31
0.0
 11
174.5188084970408
 21
14.4165805209792
 31
0.0
 11
174.6022150834546
 21
14.22607611130458
 31
0.0
 11
174.6770293263377
 21
14.0570823266247
 31
0.0
 11
174.7410729186603
 21
13.9178133770067
 31
0.0
 11
174.7922649500513
 21
13.81626739612929
 31
0.0
  0
SPLINE
  5
A6
102
{ACAD_REACTORS
330
C3
102
}
330
48
100
AcDbEntity
  8
_U_30EC_U_30A4_U_30E4_U_30FC_1
  6
Continuous
 62
     2
100
AcDbSpline
210
0.0
220
0.0
230
1.0
 70
    11
 71
     3
 72
    25
 73
    21
 74
    19
 42
0.000000001
 43
0.0000000001
 44
0.00000001
 40
0.0
 40
0.0
 40
0.0
 40
0.0
 40
0.0911479969064535
 40
0.1858117896203809
 40
0.2804128399734203
 40
0.3715889190713655
 40
0.4679080494217853
 40
0.5642683809229228
 40
0.6605683222644134
 40
0.7569653015809398
 40
0.8561348172521849
 40
1.09261596510418
 40
1.374867658141755
 40
1.611348812011435
 40
1.710518328425092
 40
1.809403163726396
 40
2.045205463293911
 40
2.326646917621948
 40
2.562449217190413
 40
2.661334043833716
 40
2.661334043833716
 40
2.661334043833716
 40
2.661334043833716
 10
173.26837005672
 20
14.8861453819729
 30
0.0
 10
173.2987525917924
 20
14.88598079714554
 30
0.0
 10
173.3606895889112
 20
14.88564528689922
 30
0.0
 10
173.4541356960331
 20
14.88269055452001
 30
0.0
 10
173.5475095236358
 20
14.87977752877152
 30
0.0
 10
173.6417760753477
 20
14.87894201643415
 30
0.0
 10
173.7354964790967
 20
14.87996644658046
 30
0.0
 10
173.8352040303204
 20
14.8791697747097
 30
0.0
 10
173.9188949546314
 20
14.88921410235218
 30
0.0
 10
174.0637996315044
 20
14.86234617674162
 30
0.0
 10
173.9396132444801
 20
15.03665530280046
 30
0.0
 10
173.8965867286282
 20
15.19651711006089
 30
0.0
 10
173.780892214221
 20
15.45518458550208
 30
0.0
 10
173.7017565431258
 20
15.59231052861856
 30
0.0
 10
173.6431576621816
 20
15.8093703313407
 30
0.0
 10
173.586480393944
 20
15.59266134213421
 30
0.0
 10
173.5052809900477
 20
15.45327012438234
 30
0.0
 10
173.4063701281489
 20
15.20406969370189
 30
0.0
 10
173.325362509426
 20
15.01925830226072
 30
0.0
 10
173.2813683325839
 20
14.91650446856114
 30
0.0
 10
173.26837005672
 20
14.8861453819729
 30
0.0
 11
173.26837005672
 21
14.8861453819729
 31
0.0
 11
173.3595137737821
 21
14.8852612326676
 31
0.0
 11
173.4541428297581
 21
14.882696979196
 31
0.0
 11
173.5487082179706
 21
14.88009965280778
 31
0.0
 11
173.6398803250196
 21
14.87924857641909
 31
0.0
 11
173.7361985777706
 21
14.8796597830162
 31
0.0
 11
173.8325499034377
 21
14.8809771875297
 31
0.0
 11
173.9288262638286
 21
14.88310818579311
 31
0.0
 11
174.0251753846343
 21
14.8861453819729
 31
0.0
 11
173.9854633323141
 21
14.97701642195018
 31
0.0
 11
173.8907653613968
 21
15.19370890189598
 31
0.0
 11
173.7777387509471
 21
15.45234186183131
 31
0.0
 11
173.6830407800298
 21
15.66903434177711
 31
0.0
 11
173.6433287277096
 21
15.75990538175439
 31
0.0
 11
173.6043330259267
 21
15.66903434177711
 31
0.0
 11
173.5113432755213
 21
15.45234186183131
 31
0.0
 11
173.4003555089083
 21
15.19370890189599
 31
0.0
 11
173.3073657585029
 21
14.97701642195018
 31
0.0
 11
173.26837005672
 21
14.8861453819729
 31
0.0
  0
SPLINE
  5
A7
102
{ACAD_REACTORS
330
C4
102
}
330
48
100
AcDbEntity
  8
_U_30EC_U_30A4_U_30E4_U_30FC_1
  6
Continuous
 62
     2
100
AcDbSpline
210
0.0
220
0.0
230
1.0
 70
    11
 71
     3
 72
    95
 73
    91
 74
    89
 42
0.000000001
 43
0.0000000001
 44
0.00000001
 40
0.0
 40
0.0
 40
0.0
 40
0.0
 40
0.6550406656910964
 40
1.308087289031837
 40
1.420803739835672
 40
1.566130759770711
 40
1.757067341888358
 40
2.00651354502634
 40
2.087328263121431
 40
2.185328872295543
 40
2.294612454748286
 40
2.408936380534705
 40
2.52680276779846
 40
2.646360524615512
 40
2.762535723971487
 40
2.87005734287005
 40
2.966883448431541
 40
3.050803243518229
 40
3.115818222436515
 40
3.156030057150133
 40
3.213914225080118
 40
3.276689026450518
 40
3.342960320981238
 40
3.404230667150542
 40
3.453822809493347
 40
3.53249982718844
 40
3.634775188507124
 40
3.754909333008097
 40
3.889736761660639
 40
4.035769602175239
 40
4.187256681197609
 40
4.338733685675985
 40
4.488478734676091
 40
4.634708317831524
 40
4.771493189921276
 40
4.89268657156118
 40
5.199775528944411
 40
5.460353566929645
 40
5.667603142345468
 40
5.814722905404434
 40
5.828990806219732
 40
5.855488336304429
 40
5.869756237118761
 40
6.189796507762745
 40
6.531890469872954
 40
6.883053637016944
 40
7.230512024911397
 40
7.56696665676454
 40
7.885203559707309
 40
8.172887439719146
 40
8.418011594062737
 40
8.443926721190659
 40
8.510760470613144
 40
8.602145393795652
 40
8.70171404164709
 40
8.79309896507532
 40
8.85993271505789
 40
8.885847842603539
 40
9.242301256612755
 40
9.589275455016748
 40
9.921808543164122
 40
10.23479624298462
 40
10.29968150889172
 40
10.35323493887761
 40
10.40154625355145
 40
10.46482922477829
 40
10.55973900668407
 40
10.69239545985618
 40
10.84920353475676
 40
11.01626328594786
 40
11.18672024367446
 40
11.35372582577215
 40
11.50257442292428
 40
11.61866495023297
 40
11.71329869152879
 40
11.8251105057391
 40
11.9446488084572
 40
12.06929242642511
 40
12.1970729043518
 40
12.32562632860533
 40
12.45034565331284
 40
12.56646595170332
 40
12.67099007414638
 40
12.7607762593679
 40
12.82703233506699
 40
12.87429132785999
 40
12.89831990323338
 40
12.92234847860026
 40
13.53984767410334
 40
14.18294284359381
 40
14.18294284359381
 40
14.18294284359381
 40
14.18294284359381
 10
177.3067935648021
 20
14.70898038201729
 30
0.0
 10
177.1752019758551
 20
14.82265058603236
 30
0.0
 10
176.9124193802728
 20
15.04964496316161
 30
0.0
 10
176.3997393441024
 20
15.89214462956284
 30
0.0
 10
176.4106654595362
 20
15.5342337757702
 30
0.0
 10
176.4041226527991
 20
15.39267392272134
 30
0.0
 10
176.4028026631773
 20
15.19421305299281
 30
0.0
 10
176.4018117602537
 20
15.02150296045984
 30
0.0
 10
176.4024101751975
 20
14.87865373257581
 30
0.0
 10
176.4038994301883
 20
14.78265005413358
 30
0.0
 10
176.4055683588473
 20
14.67545503263141
 30
0.0
 10
176.4071934954617
 20
14.56164211517582
 30
0.0
 10
176.4092429501687
 20
14.44441572604589
 30
0.0
 10
176.4123165501927
 20
14.3265641123297
 30
0.0
 10
176.4156339697043
 20
14.2122808732062
 30
0.0
 10
176.419360534028
 20
14.10521401867277
 30
0.0
 10
176.4217338161424
 20
14.01007408766921
 30
0.0
 10
176.4278718888357
 20
13.92558557205694
 30
0.0
 10
176.4239784495948
 20
13.8692308729814
 30
0.0
 10
176.4455230443078
 20
13.79825022472355
 30
0.0
 10
176.3680940058618
 20
13.82902677604485
 30
0.0
 10
176.3116353240191
 20
13.82011242517609
 30
0.0
 10
176.2540495896807
 20
13.82896218398276
 30
0.0
 10
176.1690163478472
 20
13.79738225225945
 30
0.0
 10
176.2009714146383
 20
13.88095155992191
 30
0.0
 10
176.1990705282539
 20
13.94882608968312
 30
0.0
 10
176.2107960047301
 20
14.05233256764417
 30
0.0
 10
176.2164241052999
 20
14.17002125616694
 30
0.0
 10
176.2237902178942
 20
14.30388609164424
 30
0.0
 10
176.2320759701611
 20
14.44764152872634
 30
0.0
 10
176.2398851897428
 20
14.59714022843449
 30
0.0
 10
176.2457571222657
 20
14.74792549402081
 30
0.0
 10
176.2503667817969
 20
14.89699943878439
 30
0.0
 10
176.2542632117541
 20
15.04122913163022
 30
0.0
 10
176.2570715126564
 20
15.17583905213017
 30
0.0
 10
176.2576698755024
 20
15.36469614347356
 30
0.0
 10
176.2616023867151
 20
15.58975494313154
 30
0.0
 10
176.2442175378499
 20
15.86367091125709
 30
0.0
 10
176.2850417342582
 20
16.02787112098596
 30
0.0
 10
176.1995153256003
 20
16.22749661465095
 30
0.0
 10
176.2660558907688
 20
16.22385458403975
 30
0.0
 10
176.283872427323
 20
16.22413447160851
 30
0.0
 10
176.4056801797506
 20
16.22632927398612
 30
0.0
 10
176.5080770335461
 20
15.94675118721512
 30
0.0
 10
176.7580021509356
 20
15.74563008535999
 30
0.0
 10
176.987003533111
 20
15.47792614987914
 30
0.0
 10
177.2245151213109
 20
15.22646413862374
 30
0.0
 10
177.4486090740772
 20
14.98969974061363
 30
0.0
 10
177.675071628301
 20
14.7321869258308
 30
0.0
 10
177.8325687886514
 20
14.61649335056921
 30
0.0
 10
178.0472129612675
 20
14.27997152538795
 30
0.0
 10
178.0422645974619
 20
14.40464754091604
 30
0.0
 10
178.0433931602547
 20
14.46327691935738
 30
0.0
 10
178.0428877841517
 20
14.55043662371978
 30
0.0
 10
178.0430475158114
 20
14.64416143182872
 30
0.0
 10
178.0430054891319
 20
14.73018971297035
 30
0.0
 10
178.0430202040374
 20
14.79153891945495
 30
0.0
 10
178.0429706255984
 20
14.94135231520992
 30
0.0
 10
178.0458811522811
 20
15.17989612510106
 30
0.0
 10
178.0259521041161
 20
15.54486509868702
 30
0.0
 10
178.0750433936248
 20
15.80799631993415
 30
0.0
 10
177.917795150918
 20
16.2192890494775
 30
0.0
 10
178.0762112872421
 20
16.16398282551749
 30
0.0
 10
178.1311680478628
 20
16.16199686500178
 30
0.0
 10
178.182788776674
 20
16.16264778248253
 30
0.0
 10
178.2713198965366
 20
16.20369527738246
 30
0.0
 10
178.2204898303169
 20
16.05696326622992
 30
0.0
 10
178.2313389930283
 20
15.95019971954435
 30
0.0
 10
178.2166036994847
 20
15.79085705414113
 30
0.0
 10
178.2099976446204
 20
15.62853061652874
 30
0.0
 10
178.2014961399914
 20
15.45992521892395
 30
0.0
 10
178.19432272022
 20
15.29814814703542
 30
0.0
 10
178.1889063215389
 20
15.15422331457933
 30
0.0
 10
178.1871713967648
 20
15.03437493466926
 30
0.0
 10
178.1875440672319
 20
14.92686101590515
 30
0.0
 10
178.1873656126263
 20
14.81820024645586
 30
0.0
 10
178.1877010863139
 20
14.69953570165531
 30
0.0
 10
178.1890040622184
 20
14.57555163512741
 30
0.0
 10
178.1908887351574
 20
14.44858294171105
 30
0.0
 10
178.1925004454851
 20
14.32153861551032
 30
0.0
 10
178.194140313743
 20
14.19854884492178
 30
0.0
 10
178.1962570745751
 20
14.08300931383759
 30
0.0
 10
178.1963848422364
 20
13.98090903955837
 30
0.0
 10
178.2006514396554
 20
13.89009848838156
 30
0.0
 10
178.190844008529
 20
13.83213621208784
 30
0.0
 10
178.211847477169
 20
13.76517130132028
 30
0.0
 10
178.1725639739898
 20
13.77291153966686
 30
0.0
 10
177.9595307117746
 20
13.75755254145194
 30
0.0
 10
177.7636297943187
 20
14.31403058094467
 30
0.0
 10
177.4611197631544
 20
14.57556035348513
 30
0.0
 10
177.3067935648021
 20
14.70898038201729
 30
0.0
 11
177.3067935648021
 21
14.70898038201729
 31
0.0
 11
176.8595529338511
 21
15.18757635411979
 31
0.0
 11
176.4124049070644
 21
15.66352649288969
 31
0.0
 11
176.4089664262494
 21
15.55086249986235
 31
0.0
 11
176.40556101835
 21
15.40557538184309
 31
0.0
 11
176.4029636920274
 21
15.21465645827968
 31
0.0
 11
176.4021126156603
 21
14.96521170139759
 31
0.0
 11
176.402523923029
 21
14.88439802954282
 31
0.0
 11
176.4038420329818
 21
14.7864062847756
 31
0.0
 11
176.4055192267718
 21
14.67713557299737
 31
0.0
 11
176.4072367127518
 21
14.5628245487204
 31
0.0
 11
176.4094007838773
 21
14.44497802965266
 31
0.0
 11
176.4124049070644
 21
14.32545802100199
 31
0.0
 11
176.4158359733138
 21
14.20933349846156
 31
0.0
 11
176.4192928929998
 21
14.1018674655023
 31
0.0
 11
176.4227085253088
 21
14.00510162351265
 31
0.0
 11
176.4261896983793
 21
13.92125406276969
 31
0.0
 11
176.4296006184313
 21
13.85632862007759
 31
0.0
 11
176.4330776843149
 21
13.81626739612929
 31
0.0
 11
176.3754263821571
 21
13.82145433189186
 31
0.0
 11
176.3126746318309
 21
13.8231553822386
 31
0.0
 11
176.2464251717157
 21
13.82145433189186
 31
0.0
 11
176.1853747739675
 21
13.81626739612929
 31
0.0
 11
176.1926772737813
 21
13.8653189412559
 31
0.0
 11
176.2008793569054
 21
13.9435672572086
 31
0.0
 11
176.2090098822349
 21
14.04551893253028
 31
0.0
 11
176.2163406441397
 21
14.16542920159749
 31
0.0
 11
176.2236358280422
 21
14.30005912343891
 31
0.0
 11
176.2318444255597
 21
14.44586107652749
 31
0.0
 11
176.2395504149466
 21
14.59715203135075
 31
0.0
 11
176.2455763002093
 21
14.7485091320074
 31
0.0
 11
176.2503046247416
 21
14.89817951391436
 31
0.0
 11
176.254192897212
 21
15.04435739582219
 31
0.0
 11
176.2567527408965
 21
15.18111831592699
 31
0.0
 11
176.2576324804575
 21
15.3023085068689
 31
0.0
 11
176.257192610677
 21
15.60939715262543
 31
0.0
 11
176.2559126888348
 21
15.86997204839369
 31
0.0
 11
176.2528658717893
 21
16.07719922716124
 31
0.0
 11
176.2473049112763
 21
16.22421385386059
 31
0.0
 11
176.2615728121469
 21
16.22421385386059
 31
0.0
 11
176.2880703423352
 21
16.22421385386059
 31
0.0
 11
176.3023382432058
 21
16.22421385386059
 31
0.0
 11
176.5194743650277
 21
15.98910179662773
 31
0.0
 11
176.7512744123079
 21
15.73751281231559
 31
0.0
 11
176.9894816018839
 21
15.47949555543568
 31
0.0
 11
177.2260074557521
 21
15.22497079855489
 31
0.0
 11
177.4555698717706
 21
14.97899759549138
 31
0.0
 11
177.6731797360103
 21
14.7467893403411
 31
0.0
 11
177.8713724913707
 21
14.53826680567101
 31
0.0
 11
178.0430143099087
 21
14.3632669793259
 31
0.0
 11
178.0430143099087
 21
14.38918210687044
 31
0.0
 11
178.0430143099087
 21
14.45601585685372
 31
0.0
 11
178.0430143099087
 21
14.54740078030025
 31
0.0
 11
178.0430143099087
 21
14.64696942823454
 31
0.0
 11
178.0430143099087
 21
14.73835435168107
 31
0.0
 11
178.0430143099087
 21
14.80518810166435
 31
0.0
 11
178.0430143099087
 21
14.83110322920889
 31
0.0
 11
178.041723363761
 21
15.18755430550867
 31
0.0
 11
178.0378461155958
 21
15.53450684014419
 31
0.0
 11
178.0296197790002
 21
15.86693815950552
 31
0.0
 11
178.0154535467228
 21
16.17960510387179
 31
0.0
 11
178.0790351249618
 21
16.16666367158335
 31
0.0
 11
178.1324170159611
 21
16.16238072887609
 31
0.0
 11
178.1805381084833
 21
16.16666367158335
 31
0.0
 11
178.2424836798198
 21
16.17960510387179
 31
0.0
 11
178.2351216487575
 21
16.08498128445103
 31
0.0
 11
178.2269790968818
 21
15.95257496503969
 31
0.0
 11
178.2183705364004
 21
15.79600336785656
 31
0.0
 11
178.2097547223215
 21
15.62916593734269
 31
0.0
 11
178.2016187850289
 21
15.45890325509362
 31
0.0
 11
178.1942501393836
 21
15.292060312427
 31
0.0
 11
178.1891406931522
 21
15.14329943572812
 31
0.0
 11
178.1874503478904
 21
15.027221215271
 31
0.0
 11
178.1874503478904
 21
14.93258747397519
 31
0.0
 11
178.1874503478904
 21
14.82077565976709
 31
0.0
 11
178.1878461204497
 21
14.70123801222749
 31
0.0
 11
178.1890819450708
 21
14.5766005209392
 31
0.0
 11
178.1908392193317
 21
14.44883212687392
 31
0.0
 11
178.1925303477608
 21
14.32028982655879
 31
0.0
 11
178.1942876220214
 21
14.19558288214555
 31
0.0
 11
178.1959787504505
 21
14.07947489606349
 31
0.0
 11
178.1972884379173
 21
13.97495896727019
 31
0.0
 11
178.1976985420736
 21
13.88517371555649
 31
0.0
 11
178.1976985420736
 21
13.81891763918416
 31
0.0
 11
178.1976985420736
 21
13.7716586461404
 31
0.0
 11
178.1736699662977
 21
13.7716586461404
 31
0.0
 11
178.1496413905218
 21
13.7716586461404
 31
0.0
 11
177.7410729200423
 21
14.23466735262192
 31
0.0
 11
177.3067935648021
 21
14.70898038201729
 31
0.0
  0
SPLINE
  5
A8
102
{ACAD_REACTORS
330
C5
102
}
330
48
100
AcDbEntity
  8
_U_30EC_U_30A4_U_30E4_U_30FC_1
  6
Continuous
 62
     2
100
AcDbSpline
210
0.0
220
0.0
230
1.0
 70
    11
 71
     3
 72
   110
 73
   106
 74
   104
 42
0.000000001
 43
0.0000000001
 44
0.00000001
 40
0.0
 40
0.0
 40
0.0
 40
0.0
 40
0.2203406257277684
 40
0.4407808782838195
 40
0.5952494494614609
 40
0.7488431659393198
 40
0.90235818313086
 40
1.056801968670415
 40
1.21073644909983
 40
1.363041386539707
 40
1.51531572968308
 40
1.669377239148088
 40
1.721611652756582
 40
1.773199502942896
 40
1.824933793209979
 40
1.877110426487934
 40
1.982682281206724
 40
2.07878166708759
 40
2.172809640822281
 40
2.271937807378878
 40
2.378349933379358
 40
2.494131557736547
 40
2.62668168394368
 40
2.783145050796108
 40
2.890701232940931
 40
2.993130312454787
 40
3.099869730691815
 40
3.220237816691307
 40
3.352695482737573
 40
3.481732806389805
 40
3.593499473690364
 40
3.674323013331831
 40
3.817951711952724
 40
3.946167120793693
 40
4.061405053453407
 40
4.166480796003019
 40
4.262478775059111
 40
4.350736673551012
 40
4.433071991253898
 40
4.511216293814503
 40
4.564262454117829
 40
4.618474415571475
 40
4.6701284887541
 40
4.722296879126297
 40
4.819540945314167
 40
4.931194984128022
 40
5.049996040257638
 40
5.168643755415212
 40
5.283970811762424
 40
5.39226078491025
 40
5.486512254876296
 40
5.559178233949639
 40
5.591425852853291
 40
5.626215969637684
 40
5.667155838674223
 40
5.717449290214074
 40
5.738402360944687
 40
5.784499116553653
 40
5.830595872164623
 40
5.851548942897481
 40
5.873019280661594
 40
5.924217778408136
 40
5.985325662817512
 40
6.036524160567523
 40
6.057994498334051
 40
6.236847789607299
 40
6.381409928945494
 40
6.493190424178486
 40
6.574067534230253
 40
6.691018086205376
 40
6.814881554220265
 40
6.944307823240218
 40
7.07126671606584
 40
7.193488604461686
 40
7.309042773127996
 40
7.414007203170565
 40
7.505140441886292
 40
7.531150360599431
 40
7.55922164532203
 40
7.58720221892067
 40
7.612569159498901
 40
7.662550809480751
 40
7.702878875763859
 40
7.857328205230673
 40
8.010799568088318
 40
8.165256399657268
 40
8.322232698713607
 40
8.479564855016266
 40
8.635216230290412
 40
8.790882550925387
 40
8.948305154946896
 40
9.16827183903258
 40
9.38735898098682
 40
9.608047961033096
 40
9.832914234792321
 40
9.858338694962654
 40
9.925366817229657
 40
10.02013071422723
 40
10.12876249858961
 40
10.23739428295211
 40
10.33215817995152
 40
10.39918630222355
 40
10.42461076239744
 40
10.64992019336905
 40
10.87188524531147
 40
10.87188524531147
 40
10.87188524531147
 40
10.87188524531147
 10
179.9057788376619
 20
15.73923260398189
 30
0.0
 10
179.9092864933541
 20
15.80616462073803
 30
0.0
 10
179.9163033987662
 20
15.94005891915857
 30
0.0
 10
179.8198027599074
 20
16.22548554971468
 30
0.0
 10
180.0510134726109
 20
16.16284386190284
 30
0.0
 10
180.1919290057157
 20
16.17001554055982
 30
0.0
 10
180.3490417757589
 20
16.16235883078246
 30
0.0
 10
180.5025913427288
 20
16.16252752283042
 30
0.0
 10
180.6545104935081
 20
16.16182040535434
 30
0.0
 10
180.8142214813232
 20
16.1721015835163
 30
0.0
 10
180.9408972601118
 20
16.15496511080751
 30
0.0
 10
181.1370821122081
 20
16.22727260107148
 30
0.0
 10
181.1034395279079
 20
16.12640699080119
 30
0.0
 10
181.1052011317184
 20
16.07619253947673
 30
0.0
 10
181.102734207346
 20
16.02712335586471
 30
0.0
 10
181.1347076966011
 20
15.94063490847003
 30
0.0
 10
181.0010399903256
 20
15.98997438608338
 30
0.0
 10
180.9172208688057
 20
15.98430634314172
 30
0.0
 10
180.8173861139324
 20
15.99465516706297
 30
0.0
 10
180.7186576720146
 20
16.00086450411086
 30
0.0
 10
180.6121532771111
 20
16.0069776381678
 30
0.0
 10
180.4910511698059
 20
16.01588883484592
 30
0.0
 10
180.3703381502453
 20
16.00521605912382
 30
0.0
 10
180.1812553843437
 20
16.06468503080364
 30
0.0
 10
180.2129028505311
 20
15.90558320077541
 30
0.0
 10
180.1995563316834
 20
15.80839128339906
 30
0.0
 10
180.197495842645
 20
15.69634065110104
 30
0.0
 10
180.1958188044672
 20
15.57699685629351
 30
0.0
 10
180.1973336794234
 20
15.45032592155112
 30
0.0
 10
180.1956582478669
 20
15.32301588016119
 30
0.0
 10
180.2058844271659
 20
15.22451566404468
 30
0.0
 10
180.1779006596583
 20
15.08388702625639
 30
0.0
 10
180.3508029999306
 20
15.13989551134094
 30
0.0
 10
180.4645020202771
 20
15.127199514785
 30
0.0
 10
180.5840151672239
 20
15.13448377051257
 30
0.0
 10
180.6888491425072
 20
15.1387801705676
 30
0.0
 10
180.7843084898612
 20
15.14330568258974
 30
0.0
 10
180.8763823507031
 20
15.15149201146203
 30
0.0
 10
180.947655178244
 20
15.14643850638113
 30
0.0
 10
181.0544931705685
 20
15.18536425031681
 30
0.0
 10
181.0226603598036
 20
15.10517122005882
 30
0.0
 10
181.0266164503931
 20
15.05562936846035
 30
0.0
 10
181.0234502392013
 20
15.00557478039818
 30
0.0
 10
181.0550791490585
 20
14.9212884761202
 30
0.0
 10
180.9210133677691
 20
14.97425365495157
 30
0.0
 10
180.8292322793201
 20
14.96540080890436
 30
0.0
 10
180.7079729189603
 20
14.9757004996516
 30
0.0
 10
180.5914113119771
 20
14.97748911767499
 30
0.0
 10
180.4783375745879
 20
14.97787017109695
 30
0.0
 10
180.3679246308471
 20
14.98415449472183
 30
0.0
 10
180.2898124067841
 20
14.97189133255363
 30
0.0
 10
180.1913625833645
 20
15.00453887616126
 30
0.0
 10
180.2012355173562
 20
14.94769748054207
 30
0.0
 10
180.1973923244402
 20
14.91392130557987
 30
0.0
 10
180.1966789884269
 20
14.87119604709411
 30
0.0
 10
180.1963369642976
 20
14.83401607262152
 30
0.0
 10
180.1963834255346
 20
14.79487237370768
 30
0.0
 10
180.1963649429927
 20
14.75716849497683
 30
0.0
 10
180.1963703431808
 20
14.71944955232401
 30
0.0
 10
180.1963697214201
 20
14.68994324745147
 30
0.0
 10
180.1963698151547
 20
14.65873577699299
 30
0.0
 10
180.1963704287922
 20
14.61414424908083
 30
0.0
 10
180.1963671499338
 20
14.5596395650885
 30
0.0
 10
180.1963759623482
 20
14.51505540201446
 30
0.0
 10
180.1963359653417
 20
14.43117808585739
 30
0.0
 10
180.1976024270257
 20
14.31737520677677
 30
0.0
 10
180.1950274117841
 20
14.16830395933708
 30
0.0
 10
180.206500938172
 20
14.06597203813906
 30
0.0
 10
180.1823506222263
 20
13.93338903885837
 30
0.0
 10
180.3332993946476
 20
13.97895732272026
 30
0.0
 10
180.4428436671556
 20
13.96427012162355
 30
0.0
 10
180.573397047392
 20
13.96920435125065
 30
0.0
 10
180.6990312209514
 20
13.97257705323356
 30
0.0
 10
180.8188730625601
 20
13.97711497498778
 30
0.0
 10
180.9391362611426
 20
13.99048536182001
 30
0.0
 10
181.0222761663516
 20
13.98068712782595
 30
0.0
 10
181.1456080421074
 20
14.04126214623317
 30
0.0
 10
181.1244269203957
 20
13.98532460134017
 30
0.0
 10
181.1235950270116
 20
13.95939249372344
 30
0.0
 10
181.1218963707558
 20
13.93197256190936
 30
0.0
 10
181.1217974888829
 20
13.89738195206383
 30
0.0
 10
181.120365930133
 20
13.86050408220767
 30
0.0
 10
181.1532804192189
 20
13.76846841021808
 30
0.0
 10
180.9551306988107
 20
13.84132015974834
 30
0.0
 10
180.8300548294891
 20
13.81825726508603
 30
0.0
 10
180.6673071295156
 20
13.82454021985784
 30
0.0
 10
180.5129366450001
 20
13.82260943909923
 30
0.0
 10
180.3566670436944
 20
13.82393762599266
 30
0.0
 10
180.1970544465282
 20
13.82059872487859
 30
0.0
 10
180.0540326342237
 20
13.83265795728243
 30
0.0
 10
179.8197144881629
 20
13.76952001976922
 30
0.0
 10
179.9173810751196
 20
14.05620527466318
 30
0.0
 10
179.900686878006
 20
14.2498830814266
 30
0.0
 10
179.9146296709685
 20
14.47848242880297
 30
0.0
 10
179.9142987846631
 20
14.63384593955051
 30
0.0
 10
179.9143078119264
 20
14.7396633644413
 30
0.0
 10
179.9143055876315
 20
14.80205784124217
 30
0.0
 10
179.9143065551889
 20
14.89220425248329
 30
0.0
 10
179.9143065473261
 20
14.99621167157439
 30
0.0
 10
179.9143053861102
 20
15.10022131375298
 30
0.0
 10
179.9143090971502
 20
15.19036243688768
 30
0.0
 10
179.9143011051052
 20
15.25276803097215
 30
0.0
 10
179.9143334275017
 20
15.35868835961118
 30
0.0
 10
179.9131440788321
 20
15.51626716544741
 30
0.0
 10
179.9082216489257
 20
15.66528219822064
 30
0.0
 10
179.9057788376619
 20
15.73923260398189
 30
0.0
 11
179.9057788376619
 21
15.73923260398189
 31
0.0
 11
179.896691822374
 21
15.95938578101016
 31
0.0
 11
179.8868249573134
 21
16.17960510387179
 31
0.0
 11
180.04115751414
 21
16.17312391463727
 31
0.0
 11
180.1946500189047
 21
16.16754892331919
 31
0.0
 11
180.3481160653367
 21
16.1636716750563
 31
0.0
 11
180.502554455494
 21
16.16238072887609
 31
0.0
 11
180.6564835227473
 21
16.1636716750563
 31
0.0
 11
180.80873910046
 21
16.16754892331919
 31
0.0
 11
180.9609113551074
 21
16.17312391463727
 31
0.0
 11
181.1148364762484
 21
16.17960510387179
 31
0.0
 11
181.1070811703125
 21
16.12794961777357
 31
0.0
 11
181.1044991623592
 21
16.0764264233421
 31
0.0
 11
181.1070811703125
 21
16.02475660564663
 31
0.0
 11
181.1148364762484
 21
15.97315954836789
 31
0.0
 11
181.0094874054411
 21
15.98001446156059
 31
0.0
 11
180.913637570006
 21
15.9869355205866
 31
0.0
 11
180.8198593171903
 21
15.99378381919599
 31
0.0
 11
180.7209679915882
 21
16.0006321178054
 31
0.0
 11
180.6147532199924
 21
16.00710999974827
 31
0.0
 11
180.4991060528038
 21
16.01268829835799
 31
0.0
 11
180.3666126447258
 21
16.01656554662088
 31
0.0
 11
180.2101546018423
 21
16.01785649280109
 31
0.0
 11
180.2062663293721
 21
15.91037061609187
 31
0.0
 11
180.20153800484
 21
15.80805072896469
 31
0.0
 11
180.197660756675
 21
15.70138175329687
 31
0.0
 11
180.1963698105273
 21
15.5810205901325
 31
0.0
 11
180.1967799146837
 21
15.44856355891567
 31
0.0
 11
180.1980896021502
 21
15.31953288186459
 31
0.0
 11
180.199407457705
 21
15.2077739843231
 31
0.0
 11
180.1998191153661
 21
15.1269514930239
 31
0.0
 11
180.3434452935875
 21
15.12780256941251
 31
0.0
 11
180.4716343930758
 21
15.13039989580079
 31
0.0
 11
180.5868078221796
 21
15.13425509545256
 31
0.0
 11
180.691775631222
 21
15.13901649302079
 31
0.0
 11
180.7876346289422
 21
15.14418027774175
 31
0.0
 11
180.8757413374193
 21
15.14934406246269
 31
0.0
 11
180.9578881438496
 21
15.15491243919742
 31
0.0
 11
181.0357692335571
 21
15.1613208680153
 31
0.0
 11
181.0280180445186
 21
15.10884407115341
 31
0.0
 11
181.0254328449318
 21
15.05469378470859
 31
0.0
 11
181.0280180445186
 21
15.00310444444365
 31
0.0
 11
181.0357692335571
 21
14.9515151041788
 31
0.0
 11
180.9389813454014
 21
14.96092324653756
 31
0.0
 11
180.8275950722015
 21
14.96865128473009
 31
0.0
 11
180.7089261429373
 21
14.97425273438147
 31
0.0
 11
180.5903167449213
 21
14.9772678819501
 31
0.0
 11
180.4750025117521
 21
14.97898767361639
 31
0.0
 11
180.36672619507
 21
14.98070746528259
 31
0.0
 11
180.2724839317708
 21
14.98202486979617
 31
0.0
 11
180.1998191153661
 21
14.9824360763933
 31
0.0
 11
180.199407457705
 21
14.95019108508193
 31
0.0
 11
180.1980896021502
 21
14.91542593752119
 31
0.0
 11
180.1967799146836
 21
14.87450702260086
 31
0.0
 11
180.1963698105273
 21
14.82421524309949
 31
0.0
 11
180.1963698105273
 21
14.80326217235819
 31
0.0
 11
180.1963698105273
 21
14.75716541672734
 31
0.0
 11
180.1963698105273
 21
14.71106866109649
 31
0.0
 11
180.1963698105273
 21
14.69011559035519
 31
0.0
 11
180.1963698105273
 21
14.66864525258278
 31
0.0
 11
180.1963698105273
 21
14.61744675481782
 31
0.0
 11
180.1963698105273
 21
14.55633887038866
 31
0.0
 11
180.1963698105273
 21
14.5051403726237
 31
0.0
 11
180.1963698105273
 21
14.48367003485129
 31
0.0
 11
180.1967799146837
 21
14.30481721371547
 31
0.0
 11
180.1980896021502
 21
14.16026100715439
 31
0.0
 11
180.2002868589709
 21
14.0485021096129
 31
0.0
 11
180.2032586986985
 21
13.9676796183137
 31
0.0
 11
180.3202092517448
 21
13.9676796183137
 31
0.0
 11
180.4440727208746
 21
13.9676796183137
 31
0.0
 11
180.5734925526422
 21
13.96897056449391
 31
0.0
 11
180.7003922282244
 21
13.9728478127568
 31
0.0
 11
180.8224658067973
 21
13.97886708358867
 31
0.0
 11
180.9377587499464
 21
13.98663260442
 31
0.0
 11
181.0421754573518
 21
13.997341614834
 31
0.0
 11
181.1320599255448
 21
14.01237656274689
 31
0.0
 11
181.1264254031191
 21
13.98698427976713
 31
0.0
 11
181.1234433285423
 21
13.95907184053799
 31
0.0
 11
181.12213398812
 21
13.93112191867001
 31
0.0
 11
181.1217235369195
 21
13.90575829888469
 31
0.0
 11
181.1243087365064
 21
13.85584355063325
 31
0.0
 11
181.1320599255448
 21
13.81626739612929
 31
0.0
 11
180.9776977178344
 21
13.82145433189186
 31
0.0
 11
180.8242357818765
 21
13.8231553822386
 31
0.0
 11
180.6697789496483
 21
13.8231553822386
 31
0.0
 11
180.5128026496768
 21
13.8231553822386
 31
0.0
 11
180.3554704921536
 21
13.8231553822386
 31
0.0
 11
180.1998191153661
 21
13.8231553822386
 31
0.0
 11
180.0441620874242
 21
13.82145433189186
 31
0.0
 11
179.8868249573134
 21
13.81626739612929
 31
0.0
 11
179.896691822374
 21
14.03601267385211
 31
0.0
 11
179.9057788376619
 21
14.25491128490849
 31
0.0
 11
179.9121721518401
 21
14.47550763902004
 31
0.0
 11
179.9143063455009
 21
14.70036378479719
 31
0.0
 11
179.9143063455009
 21
14.72578824496878
 31
0.0
 11
179.9143063455009
 21
14.79281636723935
 31
0.0
 11
179.9143063455009
 21
14.88758026424256
 31
0.0
 11
179.9143063455009
 21
14.99621204861209
 31
0.0
 11
179.9143063455009
 21
15.10484383298163
 31
0.0
 11
179.9143063455009
 21
15.19960772998484
 31
0.0
 11
179.9143063455009
 21
15.2666358522554
 31
0.0
 11
179.9143063455009
 21
15.292060312427
 31
0.0
 11
179.9121721518401
 21
15.51735963528736
 31
0.0
 11
179.9057788376619
 21
15.73923260398189
 31
0.0
  0
SPLINE
  5
A9
102
{ACAD_REACTORS
330
C6
102
}
330
48
100
AcDbEntity
  8
_U_30EC_U_30A4_U_30E4_U_30FC_1
  6
Continuous
 62
     2
100
AcDbSpline
210
0.0
220
0.0
230
1.0
 70
    11
 71
     3
 72
    47
 73
    43
 74
    41
 42
0.000000001
 43
0.0000000001
 44
0.00000001
 40
0.0
 40
0.0
 40
0.0
 40
0.0
 40
0.2207912809957319
 40
0.4459404186303344
 40
0.4902387190459855
 40
0.5327473892722587
 40
0.5742260451226145
 40
0.6155432630561999
 40
0.6568164066316342
 40
0.6982511618780933
 40
0.7407663929317503
 40
0.7851366743175578
 40
1.010288833836374
 40
1.231080507002237
 40
1.451765243652412
 40
1.6766382058917
 40
1.720461045359671
 40
1.830018144043531
 40
1.972442372353162
 40
2.114866600677528
 40
2.224423699395149
 40
2.26824653888339
 40
2.493628801207231
 40
2.715602830286661
 40
2.934211330706416
 40
3.149502369855378
 40
3.231387784850938
 40
3.318231873853973
 40
3.405143198198045
 40
3.486970301720481
 40
3.702258172493894
 40
3.920866283534124
 40
4.142839325931947
 40
4.368221903865419
 40
4.412044743359899
 40
4.521601842095909
 40
4.664026070452388
 40
4.806450298809097
 40
4.916007397546786
 40
4.959830237043108
 40
5.184703515847144
 40
5.405387250767468
 40
5.405387250767468
 40
5.405387250767468
 40
5.405387250767468
 10
182.6507427258645
 20
15.73406440953869
 30
0.0
 10
182.6568139420002
 20
15.79758482501208
 30
0.0
 10
182.6690762107242
 20
15.92587938689626
 30
0.0
 10
182.5604706879412
 20
16.20166220174076
 30
0.0
 10
182.6761985896604
 20
16.17188133432055
 30
0.0
 10
182.7171842509016
 20
16.16765556262811
 30
0.0
 10
182.7591205797519
 20
16.16310446389608
 30
0.0
 10
182.800419662571
 20
16.16201982929487
 30
0.0
 10
182.8417032115556
 20
16.16310338195229
 30
0.0
 10
182.8836148270647
 20
16.16766112711334
 30
0.0
 10
182.9245983549019
 20
16.17187430209729
 30
0.0
 10
183.0404922843488
 20
16.20177611317532
 30
0.0
 10
182.9295652727457
 20
15.92339806609888
 30
0.0
 10
182.9574856365266
 20
15.74283140824951
 30
0.0
 10
182.940426734697
 20
15.50961042346472
 30
0.0
 10
182.9414637282102
 20
15.34906622543148
 30
0.0
 10
182.9414099399405
 20
15.22284817558724
 30
0.0
 10
182.941427737248
 20
15.12428963336243
 30
0.0
 10
182.9414188581081
 20
14.99280702442966
 30
0.0
 10
182.9414263928033
 20
14.86132844968652
 30
0.0
 10
182.9414129405129
 20
14.76276222694093
 30
0.0
 10
182.9414531717492
 20
14.63639735624154
 30
0.0
 10
182.9406746403818
 20
14.47482068822872
 30
0.0
 10
182.9565958319266
 20
14.24361821892914
 30
0.0
 10
182.9333468885408
 20
14.05874351972003
 30
0.0
 10
183.0360183444366
 20
13.78935602770058
 30
0.0
 10
182.8820238362837
 20
13.82660112685819
 30
0.0
 10
182.8004129802833
 20
13.8213799468053
 30
0.0
 10
182.7188192292583
 20
13.82660620378353
 30
0.0
 10
182.5648513666842
 20
13.78937069885388
 30
0.0
 10
182.6674183421918
 20
14.0587512986288
 30
0.0
 10
182.6442045316088
 20
14.24361585325415
 30
0.0
 10
182.6600444655139
 20
14.47482218565639
 30
0.0
 10
182.6593296313429
 20
14.63639712308506
 30
0.0
 10
182.6593664569907
 20
14.76276231210523
 30
0.0
 10
182.6593549000272
 20
14.86132756635985
 30
0.0
 10
182.6593575019214
 20
14.99281127417221
 30
0.0
 10
182.659364853178
 20
15.12427548031202
 30
0.0
 10
182.6593442541351
 20
15.22287786275327
 30
0.0
 10
182.6594082192029
 20
15.34896149354429
 30
0.0
 10
182.658173394759
 20
15.51210091383772
 30
0.0
 10
182.6532040396746
 20
15.66054183777548
 30
0.0
 10
182.6507427258645
 20
15.73406440953869
 30
0.0
 11
182.6507427258645
 21
15.73406440953869
 31
0.0
 11
182.6417328200379
 21
15.95467178795575
 31
0.0
 11
182.6318769706146
 21
16.17960510387179
 31
0.0
 11
182.6756985840801
 21
16.17312391463727
 31
0.0
 11
182.7178400934215
 21
16.16754892331919
 31
0.0
 11
182.7591371409791
 21
16.1636716750563
 31
0.0
 11
182.8004341885366
 21
16.16238072887609
 31
0.0
 11
182.8416871388731
 21
16.1636716750563
 31
0.0
 11
182.8829400892097
 21
16.16754892331919
 31
0.0
 11
182.9250882131343
 21
16.17312391463727
 31
0.0
 11
182.9689825870145
 21
16.17960510387179
 31
0.0
 11
182.9590577693891
 21
15.95467178795575
 31
0.0
 11
182.950038420831
 21
15.73406440953869
 31
0.0
 11
182.9435638463435
 21
15.51347467001056
 31
0.0
 11
182.9414218238286
 21
15.28861190965009
 31
0.0
 11
182.9414218238286
 21
15.24478907015487
 31
0.0
 11
182.9414218238286
 21
15.13523197141684
 31
0.0
 11
182.9414218238286
 21
14.99280774305739
 31
0.0
 11
182.9414218238286
 21
14.85038351469795
 31
0.0
 11
182.9414218238286
 21
14.74082641595992
 31
0.0
 11
182.9414218238286
 21
14.6970035764647
 31
0.0
 11
182.9435638463435
 21
14.47163149318768
 31
0.0
 11
182.950038420831
 21
14.24975190990979
 31
0.0
 11
182.9590577693892
 21
14.03132954885328
 31
0.0
 11
182.9689825870145
 21
13.81626739612929
 31
0.0
 11
182.8872616168771
 21
13.82145433189186
 31
0.0
 11
182.8004341885366
 21
13.8231553822386
 31
0.0
 11
182.7135395119339
 21
13.82145433189186
 31
0.0
 11
182.6318769706146
 21
13.81626739612929
 31
0.0
 11
182.6417328200379
 21
14.03132954885328
 31
0.0
 11
182.6507427258645
 21
14.24975190990979
 31
0.0
 11
182.6571833838798
 21
14.47163149318768
 31
0.0
 11
182.6593583588024
 21
14.6970035764647
 31
0.0
 11
182.6593583588024
 21
14.74082641595991
 31
0.0
 11
182.6593583588024
 21
14.85038351469795
 31
0.0
 11
182.6593583588024
 21
14.99280774305739
 31
0.0
 11
182.6593583588024
 21
15.13523197141684
 31
0.0
 11
182.6593583588024
 21
15.24478907015488
 31
0.0
 11
182.6593583588024
 21
15.28861190965009
 31
0.0
 11
182.6571833838799
 21
15.51347467001056
 31
0.0
 11
182.6507427258645
 21
15.73406440953869
 31
0.0
  0
SPLINE
  5
AA
102
{ACAD_REACTORS
330
C7
102
}
330
48
100
AcDbEntity
  8
_U_30EC_U_30A4_U_30E4_U_30FC_1
  6
Continuous
 62
     2
100
AcDbSpline
210
0.0
220
0.0
230
1.0
 70
    11
 71
     3
 72
   118
 73
   114
 74
   112
 42
0.000000001
 43
0.0000000001
 44
0.00000001
 40
0.0
 40
0.0
 40
0.0
 40
0.0
 40
0.1054708162973396
 40
0.2466098270052106
 40
0.3965912874591624
 40
0.5285525069754572
 40
0.6156245055642768
 40
0.6431434105798066
 40
0.7036850037986896
 40
0.7642265984505433
 40
0.7917455052355905
 40
0.9287404319990399
 40
1.10657281908807
 40
1.287544879681105
 40
1.317578308030622
 40
1.399928030857259
 40
1.522968204800035
 40
1.675072986590656
 40
1.844616533180735
 40
2.019973001638798
 40
2.18951654888011
 40
2.341621331585449
 40
2.464661506320583
 40
2.547011229647149
 40
2.577044658168113
 40
2.603797890893183
 40
2.66265500290887
 40
2.721512114949682
 40
2.748265347702862
 40
2.774215307344939
 40
2.845959313407274
 40
2.954338556588478
 40
3.090194227585663
 40
3.244367517100638
 40
3.407699615844404
 40
3.57103171453956
 40
3.725205003920246
 40
3.861060674729755
 40
3.969439917716453
 40
4.041183923629129
 40
4.067133883213124
 40
4.311886746012338
 40
4.547897258335701
 40
4.764747083044154
 40
4.952749679951941
 40
5.045772974196116
 40
5.137862019645147
 40
5.330543169793173
 40
5.553448265244162
 40
5.795083855888358
 40
6.043293412177435
 40
6.285761695541384
 40
6.313902908752868
 40
6.384255941793458
 40
6.475714884767046
 40
6.567173827759109
 40
6.637526860839887
 40
6.66566807407425
 40
6.69201892032821
 40
6.749990782071253
 40
6.807962643790593
 40
6.834313490018055
 40
6.856393084245334
 40
6.913335195649958
 40
6.991194817302621
 40
7.076026942283883
 40
7.153886563725373
 40
7.210828674844955
 40
7.232908268931291
 40
7.258199334923815
 40
7.32487578159247
 40
7.41914248192514
 40
7.527204308842093
 40
7.635266135230684
 40
7.729532834168681
 40
7.79620927929301
 40
7.82150034459496
 40
7.844652988851031
 40
7.899863140541811
 40
7.965759128053978
 40
8.020969279771263
 40
8.04412192404673
 40
8.069356610160801
 40
8.109134395441593
 40
8.132238100191309
 40
8.193147867786674
 40
8.279261678876853
 40
8.377977512674072
 40
8.476693347146863
 40
8.56280716041192
 40
8.62371693082671
 40
8.646820636853663
 40
8.671988793774476
 40
8.734909185828416
 40
8.81670569518913
 40
8.89850220481573
 40
8.961422597378219
 40
8.986590754551331
 40
9.012941600733475
 40
9.070913462380531
 40
9.128885324081997
 40
9.155236170325306
 40
9.180404327929349
 40
9.24332472194845
 40
9.325121234212244
 40
9.406917746637927
 40
9.46983814197841
 40
9.495006288271185
 40
9.51781118437933
 40
9.572192090487341
 40
9.637098333281584
 40
9.691479239515793
 40
9.714284125643836
 40
9.714284125643836
 40
9.714284125643836
 40
9.714284125643836
 10
185.2874469028653
 20
15.2688916318772
 30
0.0
 10
185.3090990569038
 20
15.24111869242812
 30
0.0
 10
185.3597257109473
 20
15.17618054561236
 30
0.0
 10
185.4349383202591
 20
15.06891060312898
 30
0.0
 10
185.5248482274347
 20
14.95377438266625
 30
0.0
 10
185.5709169676674
 20
14.8535704574832
 30
0.0
 10
185.6655825294656
 20
14.78434006814943
 30
0.0
 10
185.6204439320413
 20
14.73771639678273
 30
0.0
 10
185.5947047785791
 20
14.6966030886604
 30
0.0
 10
185.5645196708012
 20
14.6606597172794
 30
0.0
 10
185.5193684730561
 20
14.58579782596097
 30
0.0
 10
185.4710504458563
 20
14.80782524253603
 30
0.0
 10
185.3968539713073
 20
14.84510677337708
 30
0.0
 10
185.2836047324607
 20
15.11610202130599
 30
0.0
 10
185.2885133578169
 20
15.00095328446226
 30
0.0
 10
185.2868486556306
 20
14.92836675781624
 30
0.0
 10
185.2876830076713
 20
14.80625588483983
 30
0.0
 10
185.2873609540264
 20
14.65913800810457
 30
0.0
 10
185.2875076912456
 20
14.49307063956554
 30
0.0
 10
185.2872950092722
 20
14.32187554608599
 30
0.0
 10
185.2879497252034
 20
14.15552828635495
 30
0.0
 10
185.2859192461139
 20
14.0093517305569
 30
0.0
 10
185.291346039993
 20
13.88471047474608
 30
0.0
 10
185.2804930868708
 20
13.81718656540623
 30
0.0
 10
185.2956739155555
 20
13.7554906141702
 30
0.0
 10
185.2457895108134
 20
13.76727503896998
 30
0.0
 10
185.2017150342522
 20
13.75943822779966
 30
0.0
 10
185.15823716302
 20
13.767604413727
 30
0.0
 10
185.1092346786489
 20
13.75538056738465
 30
0.0
 10
185.1218731234825
 20
13.8096066724931
 30
0.0
 10
185.113018296845
 20
13.86936918907555
 30
0.0
 10
185.1175058770314
 20
13.97922029044368
 30
0.0
 10
185.1157960135991
 20
14.11029975405677
 30
0.0
 10
185.1163550915986
 20
14.26198011444327
 30
0.0
 10
185.1161928768693
 20
14.42211074929953
 30
0.0
 10
185.1162269924675
 20
14.58236865674568
 30
0.0
 10
185.1162514960126
 20
14.73370247520441
 30
0.0
 10
185.1161453543225
 20
14.86582156338604
 30
0.0
 10
185.1164299141931
 20
14.97294802533196
 30
0.0
 10
185.1158675547568
 20
15.03808619579478
 30
0.0
 10
185.1180765083688
 20
15.1661895785868
 30
0.0
 10
185.0319435998603
 20
14.79097610391578
 30
0.0
 10
184.95551408185
 20
14.63918193123393
 30
0.0
 10
184.8660040767834
 20
14.47766206446304
 30
0.0
 10
184.7640413217327
 20
14.2047184882017
 30
0.0
 10
184.7187976491039
 20
14.36717346596507
 30
0.0
 10
184.6102355941672
 20
14.4560543205812
 30
0.0
 10
184.7995791751753
 20
14.60549794961408
 30
0.0
 10
184.85653405457
 20
14.79749136974927
 30
0.0
 10
184.9717520993352
 20
15.02899622906757
 30
0.0
 10
184.9940151630133
 20
15.21797259759065
 30
0.0
 10
185.1771905152139
 20
15.49454089325934
 30
0.0
 10
185.0538033597552
 20
15.48698978832099
 30
0.0
 10
184.9925684166834
 20
15.48856772366123
 30
0.0
 10
184.9081999617064
 20
15.48882592573677
 30
0.0
 10
184.8204235085966
 20
15.48544845751211
 30
0.0
 10
184.7656768696122
 20
15.49394814982025
 30
0.0
 10
184.7104703026025
 20
15.48048561049793
 30
0.0
 10
184.7222823035536
 20
15.52931442126766
 30
0.0
 10
184.7142496151793
 20
15.57269004896709
 30
0.0
 10
184.7228186104678
 20
15.61509438309572
 30
0.0
 10
184.7102943409157
 20
15.66267796552115
 30
0.0
 10
184.7555101538735
 20
15.65267212995106
 30
0.0
 10
184.8014815562723
 20
15.65894105174058
 30
0.0
 10
184.877722204771
 20
15.65593561405869
 30
0.0
 10
184.9561296131993
 20
15.65770448278538
 30
0.0
 10
185.0323992648932
 20
15.65464793981657
 30
0.0
 10
185.0783009459474
 20
15.66103971376174
 30
0.0
 10
185.12317339654
 20
15.65093822978893
 30
0.0
 10
185.1105552275634
 20
15.70157201581896
 30
0.0
 10
185.1191936582707
 20
15.75501261882068
 30
0.0
 10
185.1152361595443
 20
15.8486325513168
 30
0.0
 10
185.1162325068335
 20
15.95112606688924
 30
0.0
 10
185.1171927413073
 20
16.05353270248164
 30
0.0
 10
185.1133211458005
 20
16.14735929609324
 30
0.0
 10
185.1217789814365
 20
16.20036542840356
 30
0.0
 10
185.1093075932835
 20
16.25211435651192
 30
0.0
 10
185.154210638985
 20
16.2385074722676
 30
0.0
 10
185.1955083836772
 20
16.24100480320587
 30
0.0
 10
185.2595344281051
 20
16.23648060574488
 30
0.0
 10
185.2986111148786
 20
16.22781003043307
 30
0.0
 10
185.3476543498742
 20
16.23515102070685
 30
0.0
 10
185.3225080030591
 20
16.19602896051754
 30
0.0
 10
185.2815901333723
 20
16.2056384245581
 30
0.0
 10
185.2910109616604
 20
16.15540148169778
 30
0.0
 10
185.2855647318746
 20
16.10385945639489
 30
0.0
 10
185.2881699601803
 20
16.01959707584519
 30
0.0
 10
185.2870102202154
 20
15.92559135583406
 30
0.0
 10
185.2883591064231
 20
15.83196865395523
 30
0.0
 10
185.2849970101509
 20
15.7467951755222
 30
0.0
 10
185.2920959917769
 20
15.69716856072042
 30
0.0
 10
185.2812569154545
 20
15.64993694969986
 30
0.0
 10
185.3304010225246
 20
15.66201674936849
 30
0.0
 10
185.3794877630146
 20
15.65447393363008
 30
0.0
 10
185.4573714280642
 20
15.6568607036143
 30
0.0
 10
185.5350365172896
 20
15.65899381905411
 30
0.0
 10
185.5845393931356
 20
15.65193391922451
 30
0.0
 10
185.6344594750639
 20
15.66360151936211
 30
0.0
 10
185.6223198516882
 20
15.61540235371392
 30
0.0
 10
185.6305838229144
 20
15.57249219801236
 30
0.0
 10
185.6223198650785
 20
15.52958201851388
 30
0.0
 10
185.6344594549855
 20
15.48138288754869
 30
0.0
 10
185.5845395158747
 20
15.49305034471516
 30
0.0
 10
185.5350350651203
 20
15.48599202435051
 30
0.0
 10
185.4573784382972
 20
15.48811665228608
 30
0.0
 10
185.3794643865761
 20
15.49053389365766
 30
0.0
 10
185.3304500352716
 20
15.4829184819449
 30
0.0
 10
185.2813246108943
 20
15.49507952557597
 30
0.0
 10
185.291555998857
 20
15.45073013424162
 30
0.0
 10
185.2856677678054
 20
15.40925436202915
 30
0.0
 10
185.2878788305568
 20
15.34915394315305
 30
0.0
 10
185.2874109346146
 20
15.3022578276289
 30
0.0
 10
185.2874386992913
 20
15.27650146418197
 30
0.0
 10
185.2874469028653
 20
15.2688916318772
 30
0.0
 11
185.2874469028653
 21
15.2688916318772
 31
0.0
 11
185.3516977534484
 21
15.18524999634257
 31
0.0
 11
185.4348258835499
 21
15.07118889748221
 31
0.0
 11
185.5216831568896
 21
14.94891767195723
 31
0.0
 11
185.5971214371873
 21
14.84064565642876
 31
0.0
 11
185.6459925881627
 21
14.7685821875579
 31
0.0
 11
185.6296821285094
 21
14.74641782124399
 31
0.0
 11
185.593799117272
 21
14.6976562153534
 31
0.0
 11
185.5579161060346
 21
14.64889460946281
 31
0.0
 11
185.5416056463813
 21
14.6267302431489
 31
0.0
 11
185.4763067109446
 21
14.74716139023812
 31
0.0
 11
185.3848434243235
 21
14.89966983670203
 31
0.0
 11
185.2874469028653
 21
15.05219788193139
 31
0.0
 11
185.2874469028653
 21
15.0221644532825
 31
0.0
 11
185.2874469028653
 21
14.9398147295678
 31
0.0
 11
185.2874469028653
 21
14.81677455413525
 31
0.0
 11
185.2874469028653
 21
14.6646697703328
 31
0.0
 11
185.2874469028653
 21
14.49512622150842
 31
0.0
 11
185.2874469028653
 21
14.31976975101006
 31
0.0
 11
185.2874469028653
 21
14.15022620218568
 31
0.0
 11
185.2874469028653
 21
13.99812141838323
 31
0.0
 11
185.2874469028653
 21
13.87508124295068
 31
0.0
 11
185.2874469028653
 21
13.79273151923598
 31
0.0
 11
185.2874469028653
 21
13.76269809058709
 31
0.0
 11
185.2606936700409
 21
13.76269809058709
 31
0.0
 11
185.2018365578272
 21
13.76269809058709
 31
0.0
 11
185.1429794456134
 21
13.76269809058709
 31
0.0
 11
185.116226212789
 21
13.76269809058709
 31
0.0
 11
185.116226212789
 21
13.78864805031247
 31
0.0
 11
185.116226212789
 21
13.86039205661205
 31
0.0
 11
185.116226212789
 21
13.968771300171
 31
0.0
 11
185.116226212789
 21
14.10462697167446
 31
0.0
 11
185.116226212789
 21
14.25880026180761
 31
0.0
 11
185.116226212789
 21
14.42213236125559
 31
0.0
 11
185.116226212789
 21
14.58546446070357
 31
0.0
 11
185.116226212789
 21
14.73963775083672
 31
0.0
 11
185.116226212789
 21
14.87549342234018
 31
0.0
 11
185.116226212789
 21
14.98387266589913
 31
0.0
 11
185.116226212789
 21
15.05561667219871
 31
0.0
 11
185.116226212789
 21
15.08156663192409
 31
0.0
 11
185.0379865861721
 21
14.84965603302373
 31
0.0
 11
184.9497110789304
 21
14.63077616328677
 31
0.0
 11
184.8544106930046
 21
14.43598991333545
 31
0.0
 11
184.7550964303357
 21
14.276360173792
 31
0.0
 11
184.7109198342406
 21
14.35822446196599
 31
0.0
 11
184.6588057383481
 21
14.43414885430809
 31
0.0
 11
184.7627302590299
 21
14.59640087926756
 31
0.0
 11
184.8629319864735
 21
14.79551465421781
 31
0.0
 11
184.9550446607902
 21
15.01890447916198
 31
0.0
 11
185.0347020220912
 21
15.25398465410323
 31
0.0
 11
185.097537810488
 21
15.4881694790447
 31
0.0
 11
185.0693965972142
 21
15.4881694790447
 31
0.0
 11
184.9990435640297
 21
15.4881694790447
 31
0.0
 11
184.9075846208898
 21
15.4881694790447
 31
0.0
 11
184.8161256777499
 21
15.4881694790447
 31
0.0
 11
184.7457726445654
 21
15.4881694790447
 31
0.0
 11
184.7176314312916
 21
15.4881694790447
 31
0.0
 11
184.7176314312916
 21
15.51452032539226
 31
0.0
 11
184.7176314312916
 21
15.57249218735689
 31
0.0
 11
184.7176314312916
 21
15.63046404932153
 31
0.0
 11
184.7176314312916
 21
15.65681489566909
 31
0.0
 11
184.739711025602
 21
15.65681489566909
 31
0.0
 11
184.7966531372444
 21
15.65681489566909
 31
0.0
 11
184.8745127592862
 21
15.65681489566909
 31
0.0
 11
184.9593448847944
 21
15.65681489566909
 31
0.0
 11
185.0372045068361
 21
15.65681489566909
 31
0.0
 11
185.0941466184786
 21
15.65681489566909
 31
0.0
 11
185.116226212789
 21
15.65681489566909
 31
0.0
 11
185.116226212789
 21
15.6821059617435
 31
0.0
 11
185.116226212789
 21
15.74878240866695
 31
0.0
 11
185.116226212789
 21
15.84304910948976
 31
0.0
 11
185.116226212789
 21
15.95111093726224
 31
0.0
 11
185.116226212789
 21
16.05917276503473
 31
0.0
 11
185.116226212789
 21
16.15343946585754
 31
0.0
 11
185.116226212789
 21
16.22011591278099
 31
0.0
 11
185.116226212789
 21
16.2454069788554
 31
0.0
 11
185.1393181988665
 21
16.24373213107803
 31
0.0
 11
185.1943837041284
 21
16.23973826330123
 31
0.0
 11
185.2601070491184
 21
16.23497138885796
 31
0.0
 11
185.3151725543802
 21
16.23097752108116
 31
0.0
 11
185.3382645404578
 21
16.22930267330379
 31
0.0
 11
185.3249012644362
 21
16.20789677921189
 31
0.0
 11
185.2874469028653
 21
16.19450114553469
 31
0.0
 11
185.2874469028653
 21
16.17139743948578
 31
0.0
 11
185.2874469028653
 21
16.11048766899319
 31
0.0
 11
185.2874469028653
 21
16.02437385553815
 31
0.0
 11
185.2874469028653
 21
15.92565802060189
 31
0.0
 11
185.2874469028653
 21
15.82694218566563
 31
0.0
 11
185.2874469028653
 21
15.74082837221059
 31
0.0
 11
185.2874469028653
 21
15.679918601718
 31
0.0
 11
185.2874469028653
 21
15.65681489566909
 31
0.0
 11
185.3126150604809
 21
15.65681489566909
 31
0.0
 11
185.3755354545199
 21
15.65681489566909
 31
0.0
 11
185.4573319667706
 21
15.65681489566909
 31
0.0
 11
185.5391284790213
 21
15.65681489566909
 31
0.0
 11
185.6020488730603
 21
15.65681489566909
 31
0.0
 11
185.6272170306759
 21
15.65681489566909
 31
0.0
 11
185.6272170306759
 21
15.63046404932153
 31
0.0
 11
185.6272170306759
 21
15.57249218735689
 31
0.0
 11
185.6272170306759
 21
15.51452032539226
 31
0.0
 11
185.6272170306759
 21
15.4881694790447
 31
0.0
 11
185.6020488730603
 21
15.4881694790447
 31
0.0
 11
185.5391284790213
 21
15.4881694790447
 31
0.0
 11
185.4573319667706
 21
15.4881694790447
 31
0.0
 11
185.3755354545199
 21
15.4881694790447
 31
0.0
 11
185.3126150604809
 21
15.4881694790447
 31
0.0
 11
185.2874469028653
 21
15.4881694790447
 31
0.0
 11
185.2874469028653
 21
15.46536458293928
 31
0.0
 11
185.2874469028653
 21
15.41098367684174
 31
0.0
 11
185.2874469028653
 21
15.34607743408016
 31
0.0
 11
185.2874469028653
 21
15.29169652798262
 31
0.0
 11
185.2874469028653
 21
15.2688916318772
 31
0.0
  0
SPLINE
  5
AB
102
{ACAD_REACTORS
330
C8
102
}
330
48
100
AcDbEntity
  8
_U_30EC_U_30A4_U_30E4_U_30FC_1
  6
Continuous
 62
     2
100
AcDbSpline
210
0.0
220
0.0
230
1.0
 70
    11
 71
     3
 72
    91
 73
    87
 74
    85
 42
0.000000001
 43
0.0000000001
 44
0.00000001
 40
0.0
 40
0.0
 40
0.0
 40
0.0
 40
0.0345987051695718
 40
0.1258134969461085
 40
0.2547723404888703
 40
0.4026032099153556
 40
0.550434079341642
 40
0.6793929228835227
 40
0.7706077146570467
 40
0.8052064287780072
 40
1.124852390615191
 40
1.427402236308785
 40
1.706356627453432
 40
1.955541417875118
 40
2.169485938566273
 40
2.344350786664735
 40
2.480568411561889
 40
2.590440557428912
 40
2.649189927151066
 40
2.74932064330627
 40
2.912632739879975
 40
3.147745656000171
 40
3.244827496385044
 40
3.338490056946636
 40
3.583815413207045
 40
3.7614239432384
 40
3.886956104362548
 40
3.985855451886754
 40
4.091766255337639
 40
4.250186473811832
 40
4.422734315084477
 40
4.628285684838556
 40
4.872093227758376
 40
5.152549652145494
 40
5.464967135837475
 40
5.803201477852396
 40
6.160362988813869
 40
6.193449448275924
 40
6.284170385501579
 40
6.419718138764448
 40
6.587285046385698
 40
6.774063446723613
 40
6.967245678113596
 40
7.154024078817582
 40
7.321590987025967
 40
7.457138740890326
 40
7.547859678556062
 40
7.580946138182622
 40
7.608533084714674
 40
7.669224367077648
 40
7.729915649429866
 40
7.757502595949918
 40
7.790278062553371
 40
7.880146277430869
 40
8.014419963180332
 40
8.180411842397833
 40
8.365434637679302
 40
8.556801071622603
 40
8.741823866830716
 40
8.907815745916226
 40
9.04208943150738
 40
9.131957646249505
 40
9.164733112797082
 40
9.415425063139992
 40
9.667986180958438
 40
9.694169807462606
 40
9.756607686047564
 40
9.83113031532237
 40
9.893568193899835
 40
9.919751820398652
 40
9.950967964690495
 40
9.99642163121059
 40
10.22087981037451
 40
10.44341866197539
 40
10.47847970788852
 40
10.5709133743875
 40
10.70159545461224
 40
10.85140174170352
 40
11.00120802880466
 40
11.13189010907372
 40
11.22432377582997
 40
11.25938480938943
 40
11.28697175596131
 40
11.34766303835905
 40
11.40835432042056
 40
11.4359412589209
 40
11.4359412589209
 40
11.4359412589209
 40
11.4359412589209
 10
190.0818114333289
 20
15.55242795125079
 30
0.0
 10
190.070278584494
 20
15.55242790287917
 30
0.0
 10
190.0283409444999
 20
15.55242773704167
 30
0.0
 10
189.9434129719025
 20
15.5524312580091
 30
0.0
 10
189.8207688553129
 20
15.55240926435881
 30
0.0
 10
189.6791206916993
 20
15.55250801177056
 30
0.0
 10
189.537975369849
 20
15.55214686232423
 30
0.0
 10
189.4141351317905
 20
15.5532188360909
 30
0.0
 10
189.3317217825382
 20
15.5509224909127
 30
0.0
 10
189.1727791229695
 20
15.56048569373421
 30
0.0
 10
189.3503402353376
 20
15.19785394311372
 30
0.0
 10
189.3379739205453
 20
14.95243127723115
 30
0.0
 10
189.4064519473865
 20
14.66862501324836
 30
0.0
 10
189.469302432097
 20
14.43250999939035
 30
0.0
 10
189.5452253431728
 20
14.23326740396129
 30
0.0
 10
189.6303189577017
 20
14.07745347451371
 30
0.0
 10
189.7244607592935
 20
13.9765785778139
 30
0.0
 10
189.8282648207727
 20
13.92465852638962
 30
0.0
 10
189.9125872030774
 20
13.97606484379614
 30
0.0
 10
189.9351322179451
 20
14.09144544037514
 30
0.0
 10
189.9745730975371
 20
14.21885149702378
 30
0.0
 10
189.9202919734942
 20
14.5362232808675
 30
0.0
 10
190.0451218072473
 20
14.38982180140906
 30
0.0
 10
190.2019291513603
 20
14.35795300331171
 30
0.0
 10
190.0947720007057
 20
14.12421357767628
 30
0.0
 10
190.0808711209867
 20
13.9597277658366
 30
0.0
 10
190.0234709467226
 20
13.83130869122482
 30
0.0
 10
189.9335020145008
 20
13.7601880235283
 30
0.0
 10
189.8095274657878
 20
13.74432324142255
 30
0.0
 10
189.663427319686
 20
13.77993797554174
 30
0.0
 10
189.5243894320284
 20
13.90000570500279
 30
0.0
 10
189.4102003962144
 20
14.07435682550322
 30
0.0
 10
189.3146141301486
 20
14.29946603111244
 30
0.0
 10
189.2318652572626
 20
14.56388246006444
 30
0.0
 10
189.1807179256412
 20
14.88187933098545
 30
0.0
 10
189.0770189207338
 20
15.15543728488914
 30
0.0
 10
189.2042841208521
 20
15.56005818612869
 30
0.0
 10
189.0357890623018
 20
15.5511236784968
 30
0.0
 10
188.9511995787077
 20
15.55315961418365
 30
0.0
 10
188.8189876387627
 20
15.55213937388408
 30
0.0
 10
188.6560505094104
 20
15.55253230318431
 30
0.0
 10
188.4733759170532
 20
15.5523569631337
 30
0.0
 10
188.2847057373383
 20
15.5526010530747
 30
0.0
 10
188.1014469020189
 20
15.55185657906238
 30
0.0
 10
187.9404746832718
 20
15.55416360522428
 30
0.0
 10
187.8029808335276
 20
15.54799804883664
 30
0.0
 10
187.728959037231
 20
15.56032838458213
 30
0.0
 10
187.6613215186856
 20
15.54329323723558
 30
0.0
 10
187.6732373719269
 20
15.59524438447529
 30
0.0
 10
187.6655677285693
 20
15.6407142496653
 30
0.0
 10
187.6732592225115
 20
15.68614453703707
 30
0.0
 10
187.6613141797762
 20
15.73802395984571
 30
0.0
 10
187.7283588305866
 20
15.72119143490265
 30
0.0
 10
187.8017375665677
 20
15.73335409092672
 30
0.0
 10
187.9379128305271
 20
15.72727231074959
 30
0.0
 10
188.0973811801513
 20
15.7295483431506
 30
0.0
 10
188.2789173085836
 20
15.72881233998963
 30
0.0
 10
188.4658034862179
 20
15.72905954196135
 30
0.0
 10
188.6468012316836
 20
15.72886400799255
 30
0.0
 10
188.8080802578878
 20
15.7293223471484
 30
0.0
 10
188.9393882124887
 20
15.72812673751207
 30
0.0
 10
189.0225051322597
 20
15.73051347319744
 30
0.0
 10
189.1556236547813
 20
15.72230605725464
 30
0.0
 10
189.0645893502657
 20
15.97752868952654
 30
0.0
 10
188.9789633074421
 20
16.24164358328246
 30
0.0
 10
189.0990589003454
 20
16.22904442969163
 30
0.0
 10
189.1514264948544
 20
16.22694235763075
 30
0.0
 10
189.2214497569715
 20
16.22535399889656
 30
0.0
 10
189.2671922337818
 20
16.21602567538114
 30
0.0
 10
189.3220812646933
 20
16.22545966915427
 30
0.0
 10
189.2963574785681
 20
16.17733028655173
 30
0.0
 10
189.1825397571451
 20
16.18266829744179
 30
0.0
 10
189.3159346621138
 20
15.95449174576775
 30
0.0
 10
189.1943658735473
 20
15.72156856595925
 30
0.0
 10
189.3223188769414
 20
15.7308725888444
 30
0.0
 10
189.4049048406462
 20
15.72801001754682
 30
0.0
 10
189.5307214850825
 20
15.72923437412303
 30
0.0
 10
189.6741469838059
 20
15.72932431888965
 30
0.0
 10
189.8157420951729
 20
15.72746163183854
 30
0.0
 10
189.9459127249967
 20
15.73333075937164
 30
0.0
 10
190.0193452286191
 20
15.72070340823205
 30
0.0
 10
190.0891112922096
 20
15.73877563110413
 30
0.0
 10
190.0775772605396
 20
15.68612850546327
 30
0.0
 10
190.0833184346682
 20
15.64221317686549
 30
0.0
 10
190.0816615770911
 20
15.59089982676551
 30
0.0
 10
190.0817757561669
 20
15.56158792021636
 30
0.0
 10
190.0818114333289
 20
15.55242795125079
 30
0.0
 11
190.0818114333289
 21
15.55242795125079
 31
0.0
 11
190.0472127192051
 21
15.55242795125079
 31
0.0
 11
189.9559979274241
 21
15.55242795125079
 31
0.0
 11
189.8270390838717
 21
15.55242795125079
 31
0.0
 11
189.6792082144336
 21
15.55242795125079
 31
0.0
 11
189.5313773449955
 21
15.55242795125079
 31
0.0
 11
189.4024185014431
 21
15.55242795125079
 31
0.0
 11
189.3112037096621
 21
15.55242795125079
 31
0.0
 11
189.2766049955383
 21
15.55242795125079
 31
0.0
 11
189.3083140497694
 21
15.23435864930123
 31
0.0
 11
189.3527866656866
 21
14.93509522788082
 31
0.0
 11
189.409238911832
 21
14.66191269512577
 31
0.0
 11
189.4768868567478
 21
14.42208605917227
 31
0.0
 11
189.5549465689761
 21
14.22289032815653
 31
0.0
 11
189.6426341170591
 21
14.07160051021475
 31
0.0
 11
189.7391655695388
 21
13.97549161348314
 31
0.0
 11
189.8437569949575
 21
13.94183864609789
 31
0.0
 11
189.8943077302786
 21
13.97177376978832
 31
0.0
 11
189.9310588991551
 21
14.06491619815044
 31
0.0
 11
189.9562640977528
 21
14.22627151712052
 31
0.0
 11
189.9721769222368
 21
14.46084531263479
 31
0.0
 11
190.0494082682583
 21
14.40202182306618
 31
0.0
 11
190.1327184184385
 21
14.3592188543269
 31
0.0
 11
190.1066365811217
 21
14.11528388661011
 31
0.0
 11
190.0673317805105
 21
13.94207902887564
 31
0.0
 11
190.0105702596765
 21
13.83011272445919
 31
0.0
 11
189.932118261691
 21
13.76989341669648
 31
0.0
 11
189.8277420296256
 21
13.75192954892319
 31
0.0
 11
189.6738595065097
 21
13.78957440012363
 31
0.0
 11
189.5388902376747
 21
13.89707348877405
 31
0.0
 11
189.4221739916163
 21
14.06627361744811
 31
0.0
 11
189.32305053683
 21
14.28902158871945
 31
0.0
 11
189.2408596418113
 21
14.55716420516174
 31
0.0
 11
189.1749410750559
 21
14.86254826934862
 31
0.0
 11
189.1246346050593
 21
15.19702058385376
 31
0.0
 11
189.0892800003171
 21
15.55242795125079
 31
0.0
 11
189.0561935405844
 21
15.55242795125079
 31
0.0
 11
188.9654726026075
 21
15.55242795125079
 31
0.0
 11
188.8299248482185
 21
15.55242795125079
 31
0.0
 11
188.6623579392495
 21
15.55242795125079
 31
0.0
 11
188.4755795375324
 21
15.55242795125079
 31
0.0
 11
188.2823973048992
 21
15.55242795125079
 31
0.0
 11
188.0956189031822
 21
15.55242795125079
 31
0.0
 11
187.9280519942131
 21
15.55242795125079
 31
0.0
 11
187.7925042398241
 21
15.55242795125079
 31
0.0
 11
187.7017833018473
 21
15.55242795125079
 31
0.0
 11
187.6686968421145
 21
15.55242795125079
 31
0.0
 11
187.6686968421145
 21
15.58001489785848
 31
0.0
 11
187.6686968421145
 21
15.64070618039539
 31
0.0
 11
187.6686968421145
 21
15.7013974629323
 31
0.0
 11
187.6686968421145
 21
15.72898440953999
 31
0.0
 11
187.7014723087631
 21
15.72898440953999
 31
0.0
 11
187.7913405237673
 21
15.72898440953999
 31
0.0
 11
187.9256142097148
 21
15.72898440953999
 31
0.0
 11
188.0916060891932
 21
15.72898440953999
 31
0.0
 11
188.2766288847901
 21
15.72898440953999
 31
0.0
 11
188.4679953190932
 21
15.72898440953999
 31
0.0
 11
188.6530181146902
 21
15.72898440953999
 31
0.0
 11
188.8190099941685
 21
15.72898440953999
 31
0.0
 11
188.953283680116
 21
15.72898440953999
 31
0.0
 11
189.0431518951202
 21
15.72898440953999
 31
0.0
 11
189.0759273617688
 21
15.72898440953999
 31
0.0
 11
189.0659183950103
 21
15.97947647544958
 31
0.0
 11
189.0599112510663
 21
16.23196614552529
 31
0.0
 11
189.0860575870659
 21
16.2305692160812
 31
0.0
 11
189.1484065421419
 21
16.2272380766376
 31
0.0
 11
189.2228230369099
 21
16.22326220052749
 31
0.0
 11
189.2851719919859
 21
16.21993106108389
 31
0.0
 11
189.3113183279855
 21
16.2185341316398
 31
0.0
 11
189.298293111304
 21
16.19016528616079
 31
0.0
 11
189.2551649266405
 21
16.17581274276169
 31
0.0
 11
189.2574991961822
 21
15.95136670115109
 31
0.0
 11
189.2658452735904
 21
15.72898440953999
 31
0.0
 11
189.3009063195167
 21
15.72898440953999
 31
0.0
 11
189.3933399860495
 21
15.72898440953999
 31
0.0
 11
189.5240220663202
 21
15.72898440953999
 31
0.0
 11
189.6738283534597
 21
15.72898440953999
 31
0.0
 11
189.8236346405991
 21
15.72898440953999
 31
0.0
 11
189.9543167208698
 21
15.72898440953999
 31
0.0
 11
190.0467503874027
 21
15.72898440953999
 31
0.0
 11
190.0818114333289
 21
15.72898440953999
 31
0.0
 11
190.0818114333289
 21
15.7013974629323
 31
0.0
 11
190.0818114333289
 21
15.64070618039539
 31
0.0
 11
190.0818114333289
 21
15.58001489785848
 31
0.0
 11
190.0818114333289
 21
15.55242795125079
 31
0.0
  0
SPLINE
  5
AC
102
{ACAD_REACTORS
330
C9
102
}
330
48
100
AcDbEntity
  8
_U_30EC_U_30A4_U_30E4_U_30FC_1
  6
Continuous
 62
     2
100
AcDbSpline
210
0.0
220
0.0
230
1.0
 70
    11
 71
     3
 72
    75
 73
    71
 74
    69
 42
0.000000001
 43
0.0000000001
 44
0.00000001
 40
0.0
 40
0.0
 40
0.0
 40
0.0
 40
0.0342546099129709
 40
0.1245622414432364
 40
0.2522385480897536
 40
0.3985991922940662
 40
0.5449598364980821
 40
0.6726361431438834
 40
0.7629437746736942
 40
0.7971983935297973
 40
1.101723623449736
 40
1.408591244036759
 40
1.433332471690456
 40
1.487763172450232
 40
1.542193873082044
 40
1.566935100592581
 40
1.923523931821897
 40
2.271755704953669
 40
2.590579755100911
 40
2.858943305581202
 40
2.889120339309143
 40
2.918305855191138
 40
2.941366645531256
 40
2.996357760973122
 40
3.061992318140653
 40
3.116983433626806
 40
3.14004422399749
 40
3.411273122936389
 40
3.732441619740995
 40
3.761068217532695
 40
3.837787499630262
 40
3.948858699125906
 40
4.080541049104291
 40
4.219093782625682
 40
4.350776132722243
 40
4.461847332405582
 40
4.538566614678319
 40
4.567193212544567
 40
4.594907573998825
 40
4.666381453557364
 40
4.764111044010975
 40
4.870592538125778
 40
4.968322128642229
 40
5.039796008286914
 40
5.067510369784373
 40
5.094263603185589
 40
5.153120716668227
 40
5.211977830150679
 40
5.238731063551685
 40
5.272290535138924
 40
5.363380529444785
 40
5.497618415781463
 40
5.660621563453705
 40
5.838007341749406
 40
6.015393119910757
 40
6.178396267038383
 40
6.312634151842334
 40
6.403724143059324
 40
6.437283612672419
 40
6.464036846261037
 40
6.522893960004656
 40
6.581751071483928
 40
6.608504301590874
 40
6.637253941281021
 40
6.711397748902873
 40
6.812778057283485
 40
6.923237199249262
 40
7.024617507623906
 40
7.098761315207558
 40
7.127510946007509
 40
7.127510946007509
 40
7.127510946007509
 40
7.127510946007509
 10
188.4418622390564
 20
14.95849128473269
 30
0.0
 10
188.4418622819707
 20
14.94707313408725
 30
0.0
 10
188.4418624481128
 20
14.90555257842633
 30
0.0
 10
188.4418593081786
 20
14.82146922003776
 30
0.0
 10
188.4418788279801
 20
14.70004497322333
 30
0.0
 10
188.4417912187737
 20
14.55980494047452
 30
0.0
 10
188.442111623523
 20
14.42006556794581
 30
0.0
 10
188.441160590974
 20
14.29745038894933
 30
0.0
 10
188.4431978595967
 20
14.21587074438048
 30
0.0
 10
188.4349433178746
 20
14.062712670777
 30
0.0
 10
188.7430797940901
 20
14.2256023605472
 30
0.0
 10
189.0350645173736
 20
14.39482938688
 30
0.0
 10
189.0408354448709
 20
14.25973235781909
 30
0.0
 10
189.0455471719891
 20
14.21617221160443
 30
0.0
 10
189.0482535411917
 20
14.17211249350545
 30
0.0
 10
189.0672545672961
 20
14.02272590363136
 30
0.0
 10
188.6583942247301
 20
14.0868117224126
 30
0.0
 10
188.3793710348832
 20
13.97296341411018
 30
0.0
 10
188.1018081587167
 20
13.87364095811138
 30
0.0
 10
187.80998371844
 20
13.91630687596362
 30
0.0
 10
187.7869144678658
 20
13.8132167974454
 30
0.0
 10
187.7537474383333
 20
13.78691091244473
 30
0.0
 10
187.7480653962738
 20
13.83455309036305
 30
0.0
 10
187.7284214559045
 20
13.87180336115073
 30
0.0
 10
187.7095089485623
 20
13.93007387847561
 30
0.0
 10
187.6942849867709
 20
13.97385201007806
 30
0.0
 10
187.6477246372934
 20
14.08759421046303
 30
0.0
 10
187.9890897312453
 20
14.05576301120054
 30
0.0
 10
188.2679649367386
 20
14.02161435106481
 30
0.0
 10
188.2617753034907
 20
14.16913976479652
 30
0.0
 10
188.2630935452774
 20
14.24013150908833
 30
0.0
 10
188.2624831689948
 20
14.34719767958663
 30
0.0
 10
188.2625871570725
 20
14.47398529786
 30
0.0
 10
188.2629987964055
 20
14.60849243496053
 30
0.0
 10
188.2613907841969
 20
14.73395549951188
 30
0.0
 10
188.2659902567924
 20
14.84505246719121
 30
0.0
 10
188.2564186502211
 20
14.90761886800694
 30
0.0
 10
188.2704001783691
 20
14.96595388295006
 30
0.0
 10
188.2147384386704
 20
14.95289710582242
 30
0.0
 10
188.1575655197821
 20
14.96136307749503
 30
0.0
 10
188.0616048925648
 20
14.95729976080641
 30
0.0
 10
187.963376752282
 20
14.95970889852479
 30
0.0
 10
187.8672582457561
 20
14.95551600613393
 30
0.0
 10
187.8104648525811
 20
14.96429346441167
 30
0.0
 10
187.7550356873384
 20
14.95094936850126
 30
0.0
 10
187.7670679427917
 20
15.00036910959261
 30
0.0
 10
187.7592003173937
 20
15.04393988030401
 30
0.0
 10
187.766629556383
 20
15.08830469118531
 30
0.0
 10
187.7551930564143
 20
15.13902297763997
 30
0.0
 10
187.8232102370133
 20
15.12162460757749
 30
0.0
 10
187.8968496879747
 20
15.13417450237194
 30
0.0
 10
188.0325064058211
 20
15.12799677011104
 30
0.0
 10
188.1884909024525
 20
15.1302920309309
 30
0.0
 10
188.3615926358143
 20
15.12940968262536
 30
0.0
 10
188.5346942964182
 20
15.13029207142414
 30
0.0
 10
188.6906789811216
 20
15.12799662955556
 30
0.0
 10
188.8263351889798
 20
15.13417486262438
 30
0.0
 10
188.8999756705651
 20
15.1216239421834
 30
0.0
 10
188.9679914174724
 20
15.13902373012149
 30
0.0
 10
188.9565590885922
 20
15.08830130414561
 30
0.0
 10
188.9639539458298
 20
15.04397060811114
 30
0.0
 10
188.9562039912271
 20
15.00028307550201
 30
0.0
 10
188.9681203741876
 20
14.95063590098481
 30
0.0
 10
188.9108170223617
 20
14.9646141133843
 30
0.0
 10
188.8520145789772
 20
14.95539755673259
 30
0.0
 10
188.7525293633199
 20
14.95952268164934
 30
0.0
 10
188.649428009835
 20
14.95822760025893
 30
0.0
 10
188.5537846354573
 20
14.95854077077645
 30
0.0
 10
188.4857467971617
 20
14.95848776697149
 30
0.0
 10
188.4514462213443
 20
14.95849051871661
 30
0.0
 10
188.4418622390564
 20
14.95849128473269
 30
0.0
 11
188.4418622390564
 21
14.95849128473269
 31
0.0
 11
188.4418622390564
 21
14.92423666587189
 31
0.0
 11
188.4418622390564
 21
14.8339290343298
 31
0.0
 11
188.4418622390564
 21
14.70625272766684
 31
0.0
 11
188.4418622390564
 21
14.55989208344345
 31
0.0
 11
188.4418622390564
 21
14.41353143922005
 31
0.0
 11
188.4418622390564
 21
14.28585513255709
 31
0.0
 11
188.4418622390564
 21
14.19554750101499
 31
0.0
 11
188.4418622390564
 21
14.1612928821542
 31
0.0
 11
188.7391932644568
 21
14.2270947571377
 31
0.0
 11
189.0384623627246
 21
14.29496038212069
 31
0.0
 11
189.0405487124978
 21
14.27030727882825
 31
0.0
 11
189.0451386819987
 21
14.21607045158489
 31
0.0
 11
189.0497286514996
 21
14.16183362434153
 31
0.0
 11
189.0518150012728
 21
14.13718052104909
 31
0.0
 11
188.705639688924
 21
14.05163370140898
 31
0.0
 11
188.3669653138838
 21
13.97060877629901
 31
0.0
 11
188.0563731516688
 21
13.89862764024929
 31
0.0
 11
187.7944444777955
 21
13.84021218778989
 31
0.0
 11
187.7817515029292
 21
13.81283442738017
 31
0.0
 11
187.7569794787513
 21
13.79740260446739
 31
0.0
 11
187.7491867589501
 21
13.8191068339064
 31
0.0
 11
187.7306041194242
 21
13.87086307333788
 31
0.0
 11
187.70842483999
 21
13.93263664943351
 31
0.0
 11
187.6898422004641
 21
13.98439288886499
 31
0.0
 11
187.6820494806629
 21
14.006097118304
 31
0.0
 11
187.9482776335932
 21
14.05794001759667
 31
0.0
 11
188.2626334936289
 21
14.1237396877191
 31
0.0
 11
188.2626334936289
 21
14.15236628569625
 31
0.0
 11
188.2626334936289
 21
14.229085568275
 31
0.0
 11
188.2626334936289
 21
14.34015676842633
 31
0.0
 11
188.2626334936289
 21
14.4718391191212
 31
0.0
 11
188.2626334936289
 21
14.61039185333059
 31
0.0
 11
188.2626334936289
 21
14.74207420402546
 31
0.0
 11
188.2626334936289
 21
14.85314540417679
 31
0.0
 11
188.2626334936289
 21
14.92986468675554
 31
0.0
 11
188.2626334936289
 21
14.95849128473269
 31
0.0
 11
188.2349191321108
 21
14.95849128473269
 31
0.0
 11
188.1634452524063
 21
14.95849128473269
 31
0.0
 11
188.06571566179
 21
14.95849128473269
 31
0.0
 11
187.9592341675364
 21
14.95849128473269
 31
0.0
 11
187.8615045769201
 21
14.95849128473269
 31
0.0
 11
187.7900306972156
 21
14.95849128473269
 31
0.0
 11
187.7623163356975
 21
14.95849128473269
 31
0.0
 11
187.7623163356975
 21
14.98524451823294
 31
0.0
 11
187.7623163356975
 21
15.04410163193349
 31
0.0
 11
187.7623163356975
 21
15.10295874563405
 31
0.0
 11
187.7623163356975
 21
15.1297119791343
 31
0.0
 11
187.7958758072874
 21
15.1297119791343
 31
0.0
 11
187.8869658016031
 21
15.1297119791343
 31
0.0
 11
188.0212036879629
 21
15.1297119791343
 31
0.0
 11
188.1842068356856
 21
15.1297119791343
 31
0.0
 11
188.3615926140897
 21
15.1297119791343
 31
0.0
 11
188.5389783924938
 21
15.1297119791343
 31
0.0
 11
188.7019815402164
 21
15.1297119791343
 31
0.0
 11
188.8362194265763
 21
15.1297119791343
 31
0.0
 11
188.9273094208918
 21
15.1297119791343
 31
0.0
 11
188.9608688924818
 21
15.1297119791343
 31
0.0
 11
188.9608688924818
 21
15.10295874563405
 31
0.0
 11
188.9608688924818
 21
15.0441016319335
 31
0.0
 11
188.9608688924818
 21
14.98524451823294
 31
0.0
 11
188.9608688924818
 21
14.95849128473269
 31
0.0
 11
188.9321192527877
 21
14.95849128473269
 31
0.0
 11
188.8579754451555
 21
14.95849128473269
 31
0.0
 11
188.7565951367604
 21
14.95849128473269
 31
0.0
 11
188.6461359947778
 21
14.95849128473269
 31
0.0
 11
188.5447556863827
 21
14.95849128473269
 31
0.0
 11
188.4706118787505
 21
14.95849128473269
 31
0.0
 11
188.4418622390564
 21
14.95849128473269
 31
0.0
  0
SPLINE
  5
AD
102
{ACAD_REACTORS
330
CA
102
}
330
48
100
AcDbEntity
  8
_U_30EC_U_30A4_U_30E4_U_30FC_1
  6
Continuous
 62
     2
100
AcDbSpline
210
0.0
220
0.0
230
1.0
 70
    11
 71
     3
 72
    15
 73
    11
 74
     9
 42
0.000000001
 43
0.0000000001
 44
0.00000001
 40
0.0
 40
0.0
 40
0.0
 40
0.0
 40
0.2785535985097254
 40
0.5215624748198444
 40
0.607691737604031
 40
0.6938210001741274
 40
0.9405019146455037
 40
1.221691403489131
 40
1.30047187708105
 40
1.379252341684817
 40
1.379252341684817
 40
1.379252341684817
 40
1.379252341684817
 10
189.5681493630999
 20
16.22930267330379
 30
0.0
 10
189.6296017794178
 20
16.17691646592716
 30
0.0
 10
189.7446649974115
 20
16.07882876798231
 30
0.0
 10
190.0397348497244
 20
15.92889785897226
 30
0.0
 10
189.9025147631857
 20
15.84343227515017
 30
0.0
 10
189.8041227843779
 20
15.71085785201552
 30
0.0
 10
189.713003359065
 20
16.01616985781419
 30
0.0
 10
189.3636839480655
 20
16.07967869465372
 30
0.0
 10
189.511925837657
 20
16.17896509880875
 30
0.0
 10
189.5494081874236
 20
16.2125234840238
 30
0.0
 10
189.5681493630999
 20
16.22930267330379
 30
0.0
 11
189.5681493630999
 21
16.22930267330379
 31
0.0
 11
189.7919222440597
 21
16.06341774278974
 31
0.0
 11
189.9695046306383
 21
15.8975328122757
 31
0.0
 11
189.9066308127979
 21
15.83866743034594
 31
0.0
 11
189.8437569949575
 21
15.77980204841619
 31
0.0
 11
189.6688535117725
 21
15.95375677059489
 31
0.0
 11
189.447825685614
 21
16.127579201107
 31
0.0
 11
189.507987524357
 21
16.17844093720539
 31
0.0
 11
189.5681493630999
 21
16.22930267330379
 31
0.0
  0
SPLINE
  5
AE
102
{ACAD_REACTORS
330
CB
102
}
330
48
100
AcDbEntity
  8
_U_30EC_U_30A4_U_30E4_U_30FC_1
  6
Continuous
 62
     2
100
AcDbSpline
210
0.0
220
0.0
230
1.0
 70
    11
 71
     3
 72
    35
 73
    31
 74
    29
 42
0.000000001
 43
0.0000000001
 44
0.00000001
 40
0.0
 40
0.0
 40
0.0
 40
0.0
 40
0.0335231036619709
 40
0.0713218571712091
 40
0.4278866681487081
 40
0.8116865841964248
 40
1.198190238000086
 40
1.561379546812746
 40
1.659983174622161
 40
1.759315573807272
 40
2.132719617231123
 40
2.525233363588818
 40
2.910815397779684
 40
3.265244364303271
 40
3.592606723582051
 40
3.96438615460405
 40
4.359942131737852
 40
4.758154118639381
 40
4.84384653869995
 40
4.936650065543326
 40
5.256616602537477
 40
5.581707404416179
 40
5.899719158308268
 40
6.19836349428085
 40
6.466301046615883
 40
6.493895311537205
 40
6.559697020196999
 40
6.638234543442575
 40
6.704036252154329
 40
6.731630508423136
 40
6.731630508423136
 40
6.731630508423136
 40
6.731630508423136
 10
191.9736010568669
 20
16.23463843719129
 30
0.0
 10
191.9676006097789
 20
16.22480690542319
 30
0.0
 10
191.9548344099157
 20
16.2038898857979
 30
0.0
 10
191.7949362006553
 20
16.1712712653272
 30
0.0
 10
192.2322025842337
 20
15.88206680336691
 30
0.0
 10
192.4345394828262
 20
15.68041138358446
 30
0.0
 10
192.6819564267974
 20
15.43749387603281
 30
0.0
 10
193.1831513624607
 20
15.36047662757771
 30
0.0
 10
193.012556219897
 20
15.21876939174662
 30
0.0
 10
192.9383299463201
 20
15.01710366209114
 30
0.0
 10
192.6131432248188
 20
15.36956287174729
 30
0.0
 10
192.3277741670665
 20
15.53175212559566
 30
0.0
 10
192.0337604077658
 20
15.7368713005305
 30
0.0
 10
191.8084452691136
 20
16.2182748859546
 30
0.0
 10
191.5993085055522
 20
15.75343046609225
 30
0.0
 10
191.3207873674834
 20
15.54350952252916
 30
0.0
 10
191.037138317721
 20
15.37424456359986
 30
0.0
 10
190.7078639527831
 20
15.00142360907935
 30
0.0
 10
190.6277012318224
 20
15.19708014459006
 30
0.0
 10
190.4759724909744
 20
15.32491104190597
 30
0.0
 10
190.9083395826795
 20
15.40454031765936
 30
0.0
 10
191.0962565329766
 20
15.60026634915475
 30
0.0
 10
191.3468477420504
 20
15.81632996916756
 30
0.0
 10
191.5714350470161
 20
15.98190992300057
 30
0.0
 10
191.6259775409713
 20
16.26133964636832
 30
0.0
 10
191.7494661029011
 20
16.24737950408079
 30
0.0
 10
191.806027334452
 20
16.24521268867646
 30
0.0
 10
191.8761870984945
 20
16.24046859881359
 30
0.0
 10
191.9333414022105
 20
16.23709429350536
 30
0.0
 10
191.9644190320839
 20
16.23519854711115
 30
0.0
 10
191.9736010568669
 20
16.23463843719129
 30
0.0
 11
191.9736010568669
 21
16.23463843719129
 31
0.0
 11
191.9525319069885
 21
16.20856374969783
 31
0.0
 11
191.9174464559425
 21
16.19450114553469
 31
0.0
 11
192.1512374769095
 21
15.92527961131385
 31
0.0
 11
192.4414585957567
 21
15.67413407969263
 31
0.0
 11
192.7612797483685
 21
15.45710987618787
 31
0.0
 11
193.083870870629
 21
15.29025232631639
 31
0.0
 11
193.0213299868076
 21
15.21402035584931
 31
0.0
 11
192.9688035818975
 21
15.1297119791343
 31
0.0
 11
192.6436279095814
 21
15.31326404831584
 31
0.0
 11
192.3237227768437
 21
15.5407013974343
 31
0.0
 11
192.0354200158609
 21
15.79673855123312
 31
0.0
 11
191.8050514588096
 21
16.0660900344557
 31
0.0
 11
191.5995531719516
 21
15.81126348721039
 31
0.0
 11
191.3288301341535
 21
15.55645182277758
 31
0.0
 11
191.0119538423247
 21
15.31969466354857
 31
0.0
 11
190.6679957933741
 21
15.11903163191469
 31
0.0
 11
190.6218855341338
 21
15.19126067703554
 31
0.0
 11
190.5636970460348
 21
15.2635558679897
 31
0.0
 11
190.8433040489016
 21
15.41911456961747
 31
0.0
 11
191.1093004621155
 21
15.60601009790406
 31
0.0
 11
191.3499997459747
 21
15.81384496285209
 31
0.0
 11
191.5537153607774
 21
16.03222167446416
 31
0.0
 11
191.7087607668218
 21
16.25074274274289
 31
0.0
 11
191.7363041569865
 21
16.24906789496552
 31
0.0
 11
191.8019845489177
 21
16.24507402718872
 31
0.0
 11
191.880377274771
 21
16.24030715274545
 31
0.0
 11
191.9460576667022
 21
16.23631328496866
 31
0.0
 11
191.9736010568669
 21
16.23463843719129
 31
0.0
  0
SPLINE
  5
AF
102
{ACAD_REACTORS
330
CC
102
}
330
48
100
AcDbEntity
  8
_U_30EC_U_30A4_U_30E4_U_30FC_1
  6
Continuous
 62
     2
100
AcDbSpline
210
0.0
220
0.0
230
1.0
 70
    11
 71
     3
 72
    91
 73
    87
 74
    85
 42
0.000000001
 43
0.0000000001
 44
0.00000001
 40
0.0
 40
0.0
 40
0.0
 40
0.0
 40
0.0267532254356808
 40
0.0856103386464457
 40
0.1444674521997225
 40
0.1712206856619225
 40
0.2039416005643247
 40
0.2955601971653194
 40
0.4362601844617628
 40
0.616225284450796
 40
0.8256392189705408
 40
1.054685709844482
 40
1.293548478893602
 40
1.532411247938374
 40
1.761457738799639
 40
1.970871673298608
 40
2.150836773256803
 40
2.291536760495664
 40
2.383155356836771
 40
2.415876284101391
 40
2.442629517488045
 40
2.501486630949201
 40
2.560343744424373
 40
2.587096977826657
 40
2.617068194441084
 40
2.699247336756225
 40
2.822032643466538
 40
2.973822353258067
 40
3.14301470482351
 40
3.318007936880089
 40
3.487200288186922
 40
3.638989997548403
 40
3.761775303794901
 40
3.843954445753236
 40
3.873925662229932
 40
3.890812773500628
 40
3.907699884771796
 40
3.93796076785742
 40
3.980983618142456
 40
4.199085915228579
 40
4.439444339237378
 40
4.677588241260999
 40
5.050698317837913
 40
5.448212454763242
 40
5.85529121804471
 40
6.138575438885386
 40
6.417434507584162
 40
6.444551104393823
 40
6.504207617363102
 40
6.563864130314431
 40
6.590980727104
 40
6.848609460381394
 40
7.109611990668357
 40
7.352910904446017
 40
7.557830220705375
 40
7.587518925913288
 40
7.652834077375698
 40
7.718149228845625
 40
7.747837934061925
 40
7.854880190300866
 40
7.976511257403361
 40
8.369487896592105
 40
8.757514959223426
 40
9.126072419330917
 40
9.46063938039198
 40
9.746695593035719
 40
9.777569943118488
 40
9.807050320931491
 40
9.83037733612862
 40
9.886003295435696
 40
9.952395569429607
 40
10.00802152870597
 40
10.03134854388189
 40
10.2135695100956
 40
10.42203479292842
 40
10.66154556731037
 40
10.91693789564277
 40
11.15832906556536
 40
11.18982674596594
 40
11.27286608520378
 40
11.3902665303332
 40
11.52484752840857
 40
11.65942852648419
 40
11.77682897161454
 40
11.85986831085654
 40
11.89136598230399
 40
11.89136598230399
 40
11.89136598230399
 40
11.89136598230399
 10
190.7027885008196
 20
14.70699600701769
 30
0.0
 10
190.7028237765288
 20
14.71587847311983
 30
0.0
 10
190.7029366710796
 20
14.74430237047345
 30
0.0
 10
190.7012984568489
 20
14.79409639169804
 30
0.0
 10
190.7069750292911
 20
14.83657564478156
 30
0.0
 10
190.6956928731706
 20
14.88730154856851
 30
0.0
 10
190.7632296979032
 20
14.87012900740113
 30
0.0
 10
190.83880292107
 20
14.88290227165999
 30
0.0
 10
190.9828357056001
 20
14.87629729457386
 30
0.0
 10
191.1569419185426
 20
14.8788846220647
 30
0.0
 10
191.3639599611004
 20
14.87800591955557
 30
0.0
 10
191.5894688172378
 20
14.87828207920032
 30
0.0
 10
191.8251162293406
 20
14.87818339658666
 30
0.0
 10
192.0607640531348
 20
14.87828184412772
 30
0.0
 10
192.2862717580626
 20
14.87800678190792
 30
0.0
 10
192.4932934632805
 20
14.87888186270739
 30
0.0
 10
192.6673888915288
 20
14.87630522678451
 30
0.0
 10
192.8114492071986
 20
14.88288290449217
 30
0.0
 10
192.8869691915293
 20
14.87016243405609
 30
0.0
 10
192.9545776037029
 20
14.8872640019169
 30
0.0
 10
192.9430840140676
 20
14.83674785802943
 30
0.0
 10
192.9505104581733
 20
14.79253252226502
 30
0.0
 10
192.9428838927986
 20
14.74867966503608
 30
0.0
 10
192.9546489459425
 20
14.69878374479325
 30
0.0
 10
192.8930788491982
 20
14.71393227712508
 30
0.0
 10
192.8256791738672
 20
14.70310665350671
 30
0.0
 10
192.7013004056221
 20
14.70852031626233
 30
0.0
 10
192.555442823657
 20
14.70649205390782
 30
0.0
 10
192.3893576440085
 20
14.70715777578384
 30
0.0
 10
192.2188412621724
 20
14.70689643521239
 30
0.0
 10
192.0519790855388
 20
14.7072155339109
 30
0.0
 10
191.9087346827105
 20
14.70635302590759
 30
0.0
 10
191.7773313869834
 20
14.70863300482985
 30
0.0
 10
191.7239859134656
 20
14.704077043742
 30
0.0
 10
191.6485188456912
 20
14.70999914992873
 30
0.0
 10
191.6769075779232
 20
14.70094169343353
 30
0.0
 10
191.7033652409542
 20
14.69725912268935
 30
0.0
 10
191.6633522907702
 20
14.66654271968274
 30
0.0
 10
191.5713663691867
 20
14.67667591174632
 30
0.0
 10
191.5439396207071
 20
14.43032502247783
 30
0.0
 10
191.4478793967235
 20
14.27499558764375
 30
0.0
 10
191.1917277964474
 20
13.94525417931566
 30
0.0
 10
191.7627537732763
 20
14.08430022210449
 30
0.0
 10
192.0173656320517
 20
14.08291779973365
 30
0.0
 10
192.6279647048617
 20
13.9979056924208
 30
0.0
 10
192.3340698578083
 20
14.29685417558205
 30
0.0
 10
192.013330428652
 20
14.44330856901772
 30
0.0
 10
192.1313543360434
 20
14.50025540818286
 30
0.0
 10
192.1724716466262
 20
14.52420099873348
 30
0.0
 10
192.2156812394412
 20
14.54599758811229
 30
0.0
 10
192.3174574094449
 20
14.60928721253907
 30
0.0
 10
192.4328867625248
 20
14.35147151408776
 30
0.0
 10
192.6329591642277
 20
14.2161604111368
 30
0.0
 10
192.7269077387228
 20
14.03792795138881
 30
0.0
 10
192.9558829746392
 20
13.87997821027047
 30
0.0
 10
192.8596031846708
 20
13.82915972576301
 30
0.0
 10
192.8167959763779
 20
13.79881292523057
 30
0.0
 10
192.7718243528778
 20
13.77466130281462
 30
0.0
 10
192.7121720925214
 20
13.72552146747574
 30
0.0
 10
192.6789731061324
 20
13.8599747567361
 30
0.0
 10
192.5582013350796
 20
14.01594265286574
 30
0.0
 10
192.1970976005978
 20
13.88569928059553
 30
0.0
 10
191.8385061955541
 20
13.9022469440948
 30
0.0
 10
191.457092045008
 20
13.89331229351863
 30
0.0
 10
191.1703455282891
 20
13.82882671672402
 30
0.0
 10
190.8592055599713
 20
13.94230668192834
 30
0.0
 10
190.8268737818788
 20
13.83122259927769
 30
0.0
 10
190.7896178253318
 20
13.81196313850019
 30
0.0
 10
190.7865737632755
 20
13.85874784087301
 30
0.0
 10
190.7679892860608
 20
13.89806853919137
 30
0.0
 10
190.7512436616778
 20
13.95765983478235
 30
0.0
 10
190.7383730915753
 20
14.00201969871283
 30
0.0
 10
190.7042327806428
 20
14.09106331120201
 30
0.0
 10
190.9482714457754
 20
14.02181042943769
 30
0.0
 10
191.1441394486671
 20
14.0003036905774
 30
0.0
 10
191.2395426381277
 20
14.28226484478462
 30
0.0
 10
191.2945135769596
 20
14.44363045421122
 30
0.0
 10
191.5159619357156
 20
14.71391177589734
 30
0.0
 10
191.3849239381216
 20
14.70548446853732
 30
0.0
 10
191.3110026555854
 20
14.70779008496967
 30
0.0
 10
191.1977459876244
 20
14.70671378321655
 30
0.0
 10
191.0694251807484
 20
14.70707639076507
 30
0.0
 10
190.9404252030415
 20
14.70697724466083
 30
0.0
 10
190.828784094629
 20
14.70699932712569
 30
0.0
 10
190.7514663970026
 20
14.70699579189667
 30
0.0
 10
190.713287653201
 20
14.70699595845078
 30
0.0
 10
190.7027885008196
 20
14.70699600701769
 30
0.0
 11
190.7027885008196
 21
14.70699600701769
 31
0.0
 11
190.7027885008196
 21
14.73374924051796
 31
0.0
 11
190.7027885008196
 21
14.79260635421854
 31
0.0
 11
190.7027885008196
 21
14.85146346791912
 31
0.0
 11
190.7027885008196
 21
14.87821670141939
 31
0.0
 11
190.7355094280989
 21
14.87821670141939
 31
0.0
 11
190.8271280244809
 21
14.87821670141939
 31
0.0
 11
190.9678280117818
 21
14.87821670141939
 31
0.0
 11
191.1477931118179
 21
14.87821670141939
 31
0.0
 11
191.3572070464054
 21
14.87821670141939
 31
0.0
 11
191.5862535373604
 21
14.87821670141939
 31
0.0
 11
191.8251163064992
 21
14.87821670141939
 31
0.0
 11
192.0639790756381
 21
14.87821670141939
 31
0.0
 11
192.2930255665931
 21
14.87821670141939
 31
0.0
 11
192.5024395011806
 21
14.87821670141939
 31
0.0
 11
192.6824046012167
 21
14.87821670141939
 31
0.0
 11
192.8231045885176
 21
14.87821670141939
 31
0.0
 11
192.9147231848996
 21
14.87821670141939
 31
0.0
 11
192.9474441121789
 21
14.87821670141939
 31
0.0
 11
192.9474441121789
 21
14.85146346791912
 31
0.0
 11
192.9474441121789
 21
14.79260635421854
 31
0.0
 11
192.9474441121789
 21
14.73374924051796
 31
0.0
 11
192.9474441121789
 21
14.70699600701769
 31
0.0
 11
192.9174728954758
 21
14.70699600701769
 31
0.0
 11
192.8352937529027
 21
14.70699600701769
 31
0.0
 11
192.7125084457639
 21
14.70699600701769
 31
0.0
 11
192.5607187353642
 21
14.70699600701769
 31
0.0
 11
192.3915263830077
 21
14.70699600701769
 31
0.0
 11
192.2165331499991
 21
14.70699600701769
 31
0.0
 11
192.0473407976426
 21
14.70699600701769
 31
0.0
 11
191.8955510872428
 21
14.70699600701769
 31
0.0
 11
191.7727657801042
 21
14.70699600701769
 31
0.0
 11
191.690586637531
 21
14.70699600701769
 31
0.0
 11
191.6606154208279
 21
14.70699600701769
 31
0.0
 11
191.6766359412525
 21
14.70165583340794
 31
0.0
 11
191.6926564616771
 21
14.69631565979819
 31
0.0
 11
191.670615568142
 21
14.67558114591444
 31
0.0
 11
191.6284861855363
 21
14.66685871536109
 31
0.0
 11
191.5365235541378
 21
14.46909247312656
 31
0.0
 11
191.4279078521764
 21
14.25467511978507
 31
0.0
 11
191.3127500824808
 21
14.04622559051619
 31
0.0
 11
191.6857366675021
 21
14.05582441253028
 31
0.0
 11
192.0830700036151
 21
14.06781232404994
 31
0.0
 11
192.4899342191145
 21
14.08102711828529
 31
0.0
 11
192.2983119496979
 21
14.28966761302481
 31
0.0
 11
192.0966752013699
 21
14.48229420151829
 31
0.0
 11
192.120494779475
 21
14.49525327269562
 31
0.0
 11
192.1728978513062
 21
14.52376322928574
 31
0.0
 11
192.2253009231374
 21
14.55227318587587
 31
0.0
 11
192.2491205012425
 21
14.5652322570532
 31
0.0
 11
192.4387101558627
 21
14.39079508370266
 31
0.0
 11
192.6200310940435
 21
14.20305846374089
 31
0.0
 11
192.7777729231147
 21
14.01782380992435
 31
0.0
 11
192.8966252504058
 21
13.85089253500949
 31
0.0
 11
192.8715408217923
 21
13.8350120228607
 31
0.0
 11
192.8163550788425
 21
13.80007489613335
 31
0.0
 11
192.7611693358928
 21
13.765137769406
 31
0.0
 11
192.7360849072793
 21
13.7492572572572
 31
0.0
 11
192.6775518151612
 21
13.83887824681812
 31
0.0
 11
192.6050015078457
 21
13.93650288221029
 31
0.0
 11
192.2125412924095
 21
13.91636286943756
 31
0.0
 11
191.8249474069561
 21
13.8980330299977
 31
0.0
 11
191.4567378976213
 21
13.88202178722393
 31
0.0
 11
191.1224308105412
 21
13.86883756444946
 31
0.0
 11
190.8365441918518
 21
13.8589887850075
 31
0.0
 11
190.821186232174
 21
13.83220523466695
 31
0.0
 11
190.7937434290547
 21
13.82143559057249
 31
0.0
 11
190.786792719232
 21
13.84370299445581
 31
0.0
 11
190.7702179496549
 21
13.89680218833141
 31
0.0
 11
190.7504351601596
 21
13.96017864553778
 31
0.0
 11
190.7338603905825
 21
14.01327783941338
 31
0.0
 11
190.7269096807598
 21
14.0355452432967
 31
0.0
 11
190.9091199859153
 21
14.03751638912951
 31
0.0
 11
191.1174975848588
 21
14.04356211829469
 31
0.0
 11
191.2303203127216
 21
14.25483550301553
 31
0.0
 11
191.3407936722035
 21
14.48509813155879
 31
0.0
 11
191.4358254265627
 21
14.70699600701769
 31
0.0
 11
191.4043277461597
 21
14.70699600701769
 31
0.0
 11
191.3212884069153
 21
14.70699600701769
 31
0.0
 11
191.2038879617768
 21
14.70699600701769
 31
0.0
 11
191.0693069636912
 21
14.70699600701769
 31
0.0
 11
190.9347259656055
 21
14.70699600701769
 31
0.0
 11
190.817325520467
 21
14.70699600701769
 31
0.0
 11
190.7342861812226
 21
14.70699600701769
 31
0.0
 11
190.7027885008196
 21
14.70699600701769
 31
0.0
  0
SPLINE
  5
B0
102
{ACAD_REACTORS
330
CD
102
}
330
48
100
AcDbEntity
  8
_U_30EC_U_30A4_U_30E4_U_30FC_1
  6
Continuous
 62
     2
100
AcDbSpline
210
0.0
220
0.0
230
1.0
 70
    11
 71
     3
 72
   131
 73
   127
 74
   125
 42
0.000000001
 43
0.0000000001
 44
0.00000001
 40
0.0
 40
0.0
 40
0.0
 40
0.0
 40
0.0195577029826505
 40
0.0426490537462313
 40
0.2863607575857597
 40
0.5344948436190277
 40
0.7842238845574117
 40
0.8737315789468496
 40
0.9803832810313972
 40
1.092842274517141
 40
1.199761146656897
 40
1.289788768186594
 40
1.351573580786255
 40
1.370727117561488
 40
1.416400936017916
 40
1.470914848356077
 40
1.516588666791885
 40
1.535742203552971
 40
1.634216592293304
 40
1.760283341175106
 40
1.897966686682232
 40
2.031216387369073
 40
2.049689751138069
 40
2.101115601647007
 40
2.179502577740128
 40
2.278859318314247
 40
2.393194462258908
 40
2.516516648384029
 40
2.642834515406161
 40
2.76615670198367
 40
2.880491846754789
 40
2.979848588358835
 40
3.058235565444015
 40
3.109661416669172
 40
3.128134780704349
 40
3.146783742386666
 40
3.191254343315526
 40
3.244332157316185
 40
3.288802758226089
 40
3.307451719895332
 40
3.327717853844943
 40
3.383747753580308
 40
3.468388665924702
 40
3.574487837699011
 40
3.694892515729118
 40
3.82244994685226
 40
3.950007377920653
 40
4.070412055800748
 40
4.176511227368307
 40
4.261152139501753
 40
4.317182039076949
 40
4.337448172964869
 40
4.620011002696481
 40
4.885096638397761
 40
4.945373043518598
 40
5.014107710488921
 40
5.070481727652328
 40
5.319246955636838
 40
5.584812164506325
 40
5.859000912057182
 40
6.133746937542377
 40
6.401732212969235
 40
6.420736683995854
 40
6.472845717451448
 40
6.550702743894433
 40
6.646951193874641
 40
6.754234497930965
 40
6.865196086587772
 40
6.97247939035823
 40
7.06872783977242
 40
7.146584865451429
 40
7.198693898189659
 40
7.2176983689058
 40
7.234950401631278
 40
7.276089864270317
 40
7.325191803516423
 40
7.366331266090808
 40
7.383583298770158
 40
7.402779163492535
 40
7.453386443254966
 40
7.524934666445968
 40
7.606953361406307
 40
7.688972056429459
 40
7.76052027978471
 40
7.811127559734952
 40
7.830323424546573
 40
7.847844055300199
 40
7.894799345667239
 40
7.962779392744921
 40
8.043374293560962
 40
8.128174145149861
 40
8.20876904481766
 40
8.276749090377356
 40
8.323704379669914
 40
8.341225010056645
 40
8.358497614800793
 40
8.401679126686998
 40
8.457815092186056
 40
8.51395105772846
 40
8.557132569708417
 40
8.57440517450546
 40
8.602340668616787
 40
8.643455660540386
 40
8.663225271967054
 40
8.715345156564691
 40
8.789031889629012
 40
8.87350204552073
 40
8.957972194324341
 40
9.031658925568221
 40
9.083778811234902
 40
9.103548423003362
 40
9.119550083123928
 40
9.160817522380201
 40
9.217244429110595
 40
9.278724491645109
 40
9.335151398295894
 40
9.376418837358218
 40
9.392420497301005
 40
9.401196302735244
 40
9.41749422938468
 40
9.426270027749974
 40
9.44087507547798
 40
9.475702496999176
 40
9.517270709866331
 40
9.552098131994493
 40
9.566703169884697
 40
9.566703169884697
 40
9.566703169884697
 40
9.566703169884697
 10
194.617025414848
 20
15.67015871511029
 30
0.0
 10
194.6134345093371
 20
15.66453690702161
 30
0.0
 10
194.6056039123626
 20
15.65227754419114
 30
0.0
 10
194.5129968974544
 20
15.6160191604098
 30
0.0
 10
194.4887622233248
 20
15.40148444212713
 30
0.0
 10
194.3858709845939
 20
15.22197284509709
 30
0.0
 10
194.1220492364305
 20
15.03615573798145
 30
0.0
 10
194.284547156918
 20
14.95959336566083
 30
0.0
 10
194.3607225760838
 20
14.89856693195444
 30
0.0
 10
194.4492171072759
 20
14.83515804544762
 30
0.0
 10
194.5389930233111
 20
14.77525634219563
 30
0.0
 10
194.5883817636046
 20
14.72102154849212
 30
0.0
 10
194.6745708157382
 20
14.69286240541839
 30
0.0
 10
194.6411260674229
 20
14.65713309652816
 30
0.0
 10
194.6214671166311
 20
14.62550387991909
 30
0.0
 10
194.5919888217882
 20
14.5847587279607
 30
0.0
 10
194.568898944603
 20
14.55504663489643
 30
0.0
 10
194.5380205968358
 20
14.50211422668493
 30
0.0
 10
194.4729193365739
 20
14.62740334938903
 30
0.0
 10
194.3796000122417
 20
14.68213900233941
 30
0.0
 10
194.2950636285139
 20
14.73916423939342
 30
0.0
 10
194.1722498125743
 20
14.89675287427526
 30
0.0
 10
194.1764450847301
 20
14.82035806766838
 30
0.0
 10
194.1751478652677
 20
14.77361280161298
 30
0.0
 10
194.1758126448077
 20
14.69584785812603
 30
0.0
 10
194.1755549986956
 20
14.59902068324423
 30
0.0
 10
194.1756431239922
 20
14.4865027907881
 30
0.0
 10
194.1756077302281
 20
14.36524085945699
 30
0.0
 10
194.1756511758278
 20
14.2408689785896
 30
0.0
 10
194.1755199942405
 20
14.11967683631335
 30
0.0
 10
194.1759477562046
 20
14.00691148919741
 30
0.0
 10
194.174667820231
 20
13.91082913768742
 30
0.0
 10
194.1779759851043
 20
13.83113826468697
 30
0.0
 10
194.1715197740087
 20
13.78815175788782
 30
0.0
 10
194.1806208705555
 20
13.74955432372039
 30
0.0
 10
194.1447910339935
 20
13.75810887724068
 30
0.0
 10
194.1115223815252
 20
13.75342519985444
 30
0.0
 10
194.0604562576041
 20
13.75351298759782
 30
0.0
 10
194.0269723972812
 20
13.75794430283818
 30
0.0
 10
193.9907585408754
 20
13.74960793842506
 30
0.0
 10
194.0009782568665
 20
13.79145277179282
 30
0.0
 10
193.9936487887774
 20
13.83778560820171
 30
0.0
 10
193.9973633136102
 20
13.92374831106012
 30
0.0
 10
193.9959480554897
 20
14.02605142704847
 30
0.0
 10
193.9964105554638
 20
14.1445322393151
 30
0.0
 10
193.996277368623
 20
14.26957683153354
 30
0.0
 10
193.9963015910045
 20
14.39475828107049
 30
0.0
 10
193.9963354925551
 20
14.51286645379057
 30
0.0
 10
193.9962060293132
 20
14.61628748709515
 30
0.0
 10
193.996550754908
 20
14.69932036153666
 30
0.0
 10
193.9958698278691
 20
14.75143368521243
 30
0.0
 10
193.999458660062
 20
14.87912907821359
 30
0.0
 10
193.7826171386438
 20
14.58048716819621
 30
0.0
 10
193.602135492195
 20
14.35263981511511
 30
0.0
 10
193.5490322295612
 20
14.49373443289814
 30
0.0
 10
193.5200429133148
 20
14.54325767560944
 30
0.0
 10
193.419664806282
 20
14.64641779790109
 30
0.0
 10
193.7405127723261
 20
14.72695035023779
 30
0.0
 10
193.868989700543
 20
14.91066283036434
 30
0.0
 10
194.0906454325358
 20
15.11931995771762
 30
0.0
 10
194.1770224894069
 20
15.29339211228348
 30
0.0
 10
194.4549394229075
 20
15.56967051342517
 30
0.0
 10
194.3346247839285
 20
15.56534559551119
 30
0.0
 10
194.286319735135
 20
15.56614856202557
 30
0.0
 10
194.2102377454905
 20
15.5657458214659
 30
0.0
 10
194.1167010009751
 20
15.56590275611614
 30
0.0
 10
194.0117594788557
 20
15.56582502576229
 30
0.0
 10
193.9033887738718
 20
15.56595464378559
 30
0.0
 10
193.7981454235897
 20
15.56554393490697
 30
0.0
 10
193.7056237819413
 20
15.56682073671596
 30
0.0
 10
193.6268130800707
 20
15.56340766534855
 30
0.0
 10
193.5839674565379
 20
15.57023350036324
 30
0.0
 10
193.5449499586516
 20
15.56065064201129
 30
0.0
 10
193.5526365271863
 20
15.59420779565547
 30
0.0
 10
193.5485464404312
 20
15.62523550322238
 30
0.0
 10
193.5485531368814
 20
15.67236529270904
 30
0.0
 10
193.5526239724911
 20
15.70340941646783
 30
0.0
 10
193.5449495574582
 20
15.73701861635905
 30
0.0
 10
193.5834819405495
 20
15.72748410420876
 30
0.0
 10
193.624122801448
 20
15.73397435498075
 30
0.0
 10
193.6951471850463
 20
15.73100150650257
 30
0.0
 10
193.7729318149633
 20
15.73174761399161
 30
0.0
 10
193.8507292246474
 20
15.73247814044529
 30
0.0
 10
193.9217232089907
 20
15.72954235514164
 30
0.0
 10
193.962427979182
 20
15.73595468772956
 30
0.0
 10
194.0009853489909
 20
15.72650524176008
 30
0.0
 10
193.9927342754927
 20
15.76264692158788
 30
0.0
 10
193.9982346669358
 20
15.8012983761323
 30
0.0
 10
193.9955754206163
 20
15.86913528561842
 30
0.0
 10
193.9965815471533
 20
15.94591641538742
 30
0.0
 10
193.9960178018319
 20
16.02849393582758
 30
0.0
 10
193.9970714526592
 20
16.10517329229879
 30
0.0
 10
193.9942675863131
 20
16.173319907767
 30
0.0
 10
194.0000702721303
 20
16.21132399809346
 30
0.0
 10
193.9915654551159
 20
16.24758448077646
 30
0.0
 10
194.0255610233125
 20
16.23755723771852
 30
0.0
 10
194.0594575683099
 20
16.24073266813706
 30
0.0
 10
194.1126669060346
 20
16.23508965640608
 30
0.0
 10
194.1660768574482
 20
16.23434774436424
 30
0.0
 10
194.1995914649491
 20
16.22819223482978
 30
0.0
 10
194.2388086183039
 20
16.23346029773591
 30
0.0
 10
194.2120263698492
 20
16.19253380793484
 30
0.0
 10
194.1708111001724
 20
16.2037120453811
 30
0.0
 10
194.1782641540873
 20
16.15867056192121
 30
0.0
 10
194.1742227952184
 20
16.11412278028142
 30
0.0
 10
194.176171404964
 20
16.04223572621702
 30
0.0
 10
194.1752364849758
 20
15.96168630588771
 30
0.0
 10
194.176510719003
 20
15.88173995404996
 30
0.0
 10
194.1732043793864
 20
15.80841837083186
 30
0.0
 10
194.1802106179961
 20
15.76688643002571
 30
0.0
 10
194.1701440380126
 20
15.72752418568116
 30
0.0
 10
194.2029814803921
 20
15.73468063430985
 30
0.0
 10
194.236457729648
 20
15.73027243137948
 30
0.0
 10
194.2915053476019
 20
15.73217943347901
 30
0.0
 10
194.3489502595315
 20
15.73185366407292
 30
0.0
 10
194.4023026248311
 20
15.73106308733087
 30
0.0
 10
194.4398540896638
 20
15.73313959118076
 30
0.0
 10
194.4623172523238
 20
15.73022338167115
 30
0.0
 10
194.4751678073732
 20
15.73572552644055
 30
0.0
 10
194.485825568589
 20
15.7380111819779
 30
0.0
 10
194.4986635650144
 20
15.74494972588047
 30
0.0
 10
194.5145991033072
 20
15.72853046313668
 30
0.0
 10
194.5410623920892
 20
15.71709122319447
 30
0.0
 10
194.5726805253759
 20
15.6964468783519
 30
0.0
 10
194.5987255892153
 20
15.68116869628295
 30
0.0
 10
194.6128517723974
 20
15.67266976323185
 30
0.0
 10
194.617025414848
 20
15.67015871511029
 30
0.0
 11
194.617025414848
 21
15.67015871511029
 31
0.0
 11
194.6049990002244
 21
15.65473571164189
 31
0.0
 11
194.5848961795565
 21
15.64337406233919
 31
0.0
 11
194.4778986355813
 21
15.42440620231159
 31
0.0
 11
194.3477039934324
 21
15.21317201512161
 31
0.0
 11
194.1996540366071
 21
15.0120605902748
 31
0.0
 11
194.2734958253735
 21
14.9614738493538
 31
0.0
 11
194.36056643118
 21
14.89988411653741
 31
0.0
 11
194.4518003750405
 21
14.83413160594428
 31
0.0
 11
194.5381321779688
 21
14.77105653169307
 31
0.0
 11
194.6104963609787
 21
14.71749910790246
 31
0.0
 11
194.6598274450843
 21
14.6802995486911
 31
0.0
 11
194.6486940702213
 21
14.66471410869499
 31
0.0
 11
194.6221452532403
 21
14.62754882870427
 31
0.0
 11
194.5904579555533
 21
14.58319026871534
 31
0.0
 11
194.5639091385723
 21
14.54602498872461
 31
0.0
 11
194.5527757637093
 21
14.5304395487285
 31
0.0
 11
194.4807013362948
 21
14.59754008690619
 31
0.0
 11
194.3852856985382
 21
14.67993354174672
 31
0.0
 11
194.279326415217
 21
14.76785017366919
 31
0.0
 11
194.175621051109
 21
14.85152024309269
 31
0.0
 11
194.175621051109
 21
14.83304687900865
 31
0.0
 11
194.175621051109
 21
14.78162102763957
 31
0.0
 11
194.175621051109
 21
14.70323405031
 31
0.0
 11
194.175621051109
 21
14.60387730834449
 31
0.0
 11
194.175621051109
 21
14.48954216306761
 31
0.0
 11
194.175621051109
 21
14.36621997580389
 31
0.0
 11
194.175621051109
 21
14.23990210787789
 31
0.0
 11
194.175621051109
 21
14.11657992061417
 31
0.0
 11
194.175621051109
 21
14.00224477533729
 31
0.0
 11
194.175621051109
 21
13.90288803337178
 31
0.0
 11
194.175621051109
 21
13.82450105604221
 31
0.0
 11
194.175621051109
 21
13.77307520467313
 31
0.0
 11
194.175621051109
 21
13.75460184058909
 31
0.0
 11
194.1569720893626
 21
13.75460184058909
 31
0.0
 11
194.1125014882749
 21
13.75460184058909
 31
0.0
 11
194.0594236740736
 21
13.75460184058909
 31
0.0
 11
194.0149530729859
 21
13.75460184058909
 31
0.0
 11
193.9963041112395
 21
13.75460184058909
 31
0.0
 11
193.9963041112395
 21
13.77486797460216
 31
0.0
 11
193.9963041112395
 21
13.83089787452064
 31
0.0
 11
193.9963041112395
 21
13.91553878716345
 31
0.0
 11
193.9963041112395
 21
14.02163795934951
 31
0.0
 11
193.9963041112395
 21
14.14204263789773
 31
0.0
 11
193.9963041112395
 21
14.26960006962704
 31
0.0
 11
193.9963041112395
 21
14.39715750135635
 31
0.0
 11
193.9963041112395
 21
14.51756217990457
 31
0.0
 11
193.9963041112395
 21
14.62366135209063
 31
0.0
 11
193.9963041112395
 21
14.70830226473344
 31
0.0
 11
193.9963041112395
 21
14.76433216465192
 31
0.0
 11
193.9963041112395
 21
14.78459829866499
 31
0.0
 11
193.7883272849481
 21
14.59331998274056
 31
0.0
 11
193.5763486358425
 21
14.43414885430809
 31
0.0
 11
193.5495629014482
 21
14.48814671952095
 31
0.0
 11
193.5138765415024
 21
14.54689140572028
 31
0.0
 11
193.4799697494124
 21
14.59192871537979
 31
0.0
 11
193.6830287742319
 21
14.73563387201054
 31
0.0
 11
193.881853195826
 21
14.91168423529988
 31
0.0
 11
194.0677041444178
 21
15.1132751452495
 31
0.0
 11
194.2318427502303
 21
15.33360194186111
 31
0.0
 11
194.3655301434865
 21
15.5658599651364
 31
0.0
 11
194.3465256724482
 21
15.5658599651364
 31
0.0
 11
194.2944166389563
 21
15.5658599651364
 31
0.0
 11
194.2165596124448
 21
15.5658599651364
 31
0.0
 11
194.1203111623479
 21
15.5658599651364
 31
0.0
 11
194.0130278580997
 21
15.5658599651364
 31
0.0
 11
193.9020662691345
 21
15.5658599651364
 31
0.0
 11
193.7947829648864
 21
15.5658599651364
 31
0.0
 11
193.6985345147895
 21
15.5658599651364
 31
0.0
 11
193.620677488278
 21
15.5658599651364
 31
0.0
 11
193.568568454786
 21
15.5658599651364
 31
0.0
 11
193.5495639837478
 21
15.5658599651364
 31
0.0
 11
193.5495639837478
 21
15.58311199790987
 31
0.0
 11
193.5495639837478
 21
15.62425146067736
 31
0.0
 11
193.5495639837478
 21
15.67335340010953
 31
0.0
 11
193.5495639837478
 21
15.71449286287702
 31
0.0
 11
193.5495639837478
 21
15.73174489565049
 31
0.0
 11
193.5687598486009
 21
15.73174489565049
 31
0.0
 11
193.6193671286684
 21
15.73174489565049
 31
0.0
 11
193.690915352212
 21
15.73174489565049
 31
0.0
 11
193.7729340474937
 21
15.73174489565049
 31
0.0
 11
193.8549527427753
 21
15.73174489565049
 31
0.0
 11
193.9265009663189
 21
15.73174489565049
 31
0.0
 11
193.9771082463864
 21
15.73174489565049
 31
0.0
 11
193.9963041112395
 21
15.73174489565049
 31
0.0
 11
193.9963041112395
 21
15.74926552655222
 31
0.0
 11
193.9963041112395
 21
15.79622081736885
 31
0.0
 11
193.9963041112395
 21
15.86420086526756
 31
0.0
 11
193.9963041112395
 21
15.94479576741551
 31
0.0
 11
193.9963041112395
 21
16.02959562097988
 31
0.0
 11
193.9963041112395
 21
16.11019052312783
 31
0.0
 11
193.9963041112395
 21
16.17817057102654
 31
0.0
 11
193.9963041112395
 21
16.22512586184317
 31
0.0
 11
193.9963041112395
 21
16.2426464927449
 31
0.0
 11
194.0135484112111
 21
16.24165806167519
 31
0.0
 11
194.0566591611401
 21
16.23918698400091
 31
0.0
 11
194.1127031360477
 21
16.23597458302434
 31
0.0
 11
194.1687471109553
 21
16.23276218204778
 31
0.0
 11
194.2118578608843
 21
16.2302911043735
 31
0.0
 11
194.2291021608559
 21
16.22930267330379
 31
0.0
 11
194.2143774674852
 21
16.20556293372638
 31
0.0
 11
194.175621051109
 21
16.19183767331309
 31
0.0
 11
194.175621051109
 21
16.1720680617729
 31
0.0
 11
194.175621051109
 21
16.11994817680331
 31
0.0
 11
194.175621051109
 21
16.04626144288078
 31
0.0
 11
194.175621051109
 21
15.96179128448179
 31
0.0
 11
194.175621051109
 21
15.8773211260828
 31
0.0
 11
194.175621051109
 21
15.80363439216027
 31
0.0
 11
194.175621051109
 21
15.75151450719068
 31
0.0
 11
194.175621051109
 21
15.73174489565049
 31
0.0
 11
194.1916227112936
 21
15.73174489565049
 31
0.0
 11
194.232890150717
 21
15.73174489565049
 31
0.0
 11
194.2893170576837
 21
15.73174489565049
 31
0.0
 11
194.3507971204982
 21
15.73174489565049
 31
0.0
 11
194.4072240274649
 21
15.73174489565049
 31
0.0
 11
194.4484914668883
 21
15.73174489565049
 31
0.0
 11
194.4644931270729
 21
15.73174489565049
 31
0.0
 11
194.4728206422926
 21
15.73451387455922
 31
0.0
 11
194.4882860277004
 21
15.73965626396116
 31
0.0
 11
194.4966135429201
 21
15.7424252428699
 31
0.0
 11
194.5091363776006
 21
15.7349095239829
 31
0.0
 11
194.5389985218387
 21
15.71698742509852
 31
0.0
 11
194.5746404359294
 21
15.69559653288167
 31
0.0
 11
194.6045025801675
 21
15.67767443399729
 31
0.0
 11
194.617025414848
 21
15.67015871511029
 31
0.0
  0
SPLINE
  5
B1
102
{ACAD_REACTORS
330
CE
102
}
330
48
100
AcDbEntity
  8
_U_30EC_U_30A4_U_30E4_U_30FC_1
  6
Continuous
 62
     2
100
AcDbSpline
210
0.0
220
0.0
230
1.0
 70
    11
 71
     3
 72
   124
 73
   120
 74
   118
 42
0.000000001
 43
0.0000000001
 44
0.00000001
 40
0.0
 40
0.0
 40
0.0
 40
0.0
 40
0.027818722962451
 40
0.1011590162384269
 40
0.2048470170590239
 40
0.3237088716559245
 40
0.4425707262522
 40
0.5462587270699547
 40
0.6195990203311798
 40
0.647417752257866
 40
0.6750060736115224
 40
0.7357003855242705
 40
0.7963946998054403
 40
0.8239830245571678
 40
0.8540933811102771
 40
0.9373396629409452
 40
1.063094687343226
 40
1.220731268638064
 40
1.399622220914739
 40
1.589140358637723
 40
1.778658496423889
 40
1.9575494489405
 40
2.11518603087315
 40
2.240941056914454
 40
2.324187341760523
 40
2.354297700109373
 40
2.381886024671879
 40
2.442580338710463
 40
2.503274652750481
 40
2.530862977314588
 40
2.560983949278541
 40
2.640393784452887
 40
2.75266286175911
 40
2.881361560118127
 40
3.010060258455174
 40
3.122329335705321
 40
3.201739170817935
 40
3.231860142753296
 40
3.26429802403035
 40
3.352343701778218
 40
3.482095226868737
 40
3.639650650172995
 40
3.811108022565446
 40
3.982565394927948
 40
4.140120818152524
 40
4.269872343141231
 40
4.35791802080229
 40
4.390355902043917
 40
4.423256253992487
 40
4.508104530073008
 40
4.624121560636776
 40
4.750528176031533
 40
4.866545206601979
 40
4.951393482691937
 40
4.984293834645338
 40
5.011450833242253
 40
5.071196230152039
 40
5.130941627057115
 40
5.158098625648781
 40
5.190998977601471
 40
5.275847253689297
 40
5.391864284256731
 40
5.518270899648276
 40
5.634287930209315
 40
5.719136206287989
 40
5.752036558235877
 40
5.782130946282904
 40
5.862783906229079
 40
5.979550131774952
 40
6.117984316640363
 40
6.263641154587913
 40
6.402075339414124
 40
6.518841564907924
 40
6.599494524815509
 40
6.629588912848747
 40
6.654403028226324
 40
6.713575149488091
 40
6.784199939329409
 40
6.843372060493512
 40
6.868186175802758
 40
6.896246243201823
 40
6.939586233758241
 40
6.967846564564868
 40
7.043584251089803
 40
7.153234334451656
 40
7.2832318557344
 40
7.420011856035425
 40
7.55000937657977
 40
7.659659458835164
 40
7.735397144417155
 40
7.763657474851326
 40
7.796409728010983
 40
7.880876065096257
 40
7.996370852465643
 40
8.122208446418538
 40
8.237703224799132
 40
8.322169562010826
 40
8.35492181520584
 40
8.38207881330762
 40
8.441824209206928
 40
8.501569605240077
 40
8.528726603485655
 40
8.561478856695704
 40
8.645945193877754
 40
8.761439980865266
 40
8.887277580764408
 40
9.002772362000929
 40
9.08723869666115
 40
9.119990949235603
 40
9.152428830613301
 40
9.240474508638515
 40
9.37022603414946
 40
9.527781457984343
 40
9.699238830981326
 40
9.87069620397851
 40
10.02825162781393
 40
10.15800315332554
 40
10.24604883135109
 40
10.27848670378511
 40
10.27848670378511
 40
10.27848670378511
 40
10.27848670378511
 10
195.3821827564383
 20
14.01410517385759
 30
0.0
 10
195.3914554737523
 20
14.01410498511276
 30
0.0
 10
195.4251744536861
 20
14.01410430876716
 30
0.0
 10
195.4934706812465
 20
14.01411807243307
 30
0.0
 10
195.592014171158
 20
14.01403224219547
 30
0.0
 10
195.7062066464812
 20
14.01441755612253
 30
0.0
 10
195.818589441707
 20
14.01300835897547
 30
0.0
 10
195.9214376600118
 20
14.01719117422245
 30
0.0
 10
195.9806839874849
 20
14.00823089251985
 30
0.0
 10
196.0371265937033
 20
14.02164434526063
 30
0.0
 10
196.0246255586955
 20
13.97087198613363
 30
0.0
 10
196.0329549635703
 20
13.92589320939069
 30
0.0
 10
196.024817084112
 20
13.88056752990491
 30
0.0
 10
196.0370529214456
 20
13.82931932408469
 30
0.0
 10
195.9747773490334
 20
13.8444795536528
 30
0.0
 10
195.9060513026868
 20
13.83359750710746
 30
0.0
 10
195.7782756749592
 20
13.83911304747975
 30
0.0
 10
195.6262984511643
 20
13.83700851253701
 30
0.0
 10
195.4502695972523
 20
13.83771002588476
 30
0.0
 10
195.2644431934287
 20
13.83745237531295
 30
0.0
 10
195.0786167437175
 20
13.83771005144606
 30
0.0
 10
194.9025880142168
 20
13.83700841847734
 30
0.0
 10
194.7506104154195
 20
13.83911332229992
 30
0.0
 10
194.6228357664554
 20
13.83359680767643
 30
0.0
 10
194.554107783658
 20
13.84448077125945
 30
0.0
 10
194.4918349042883
 20
13.82931786684212
 30
0.0
 10
194.5040616290017
 20
13.88057510805174
 30
0.0
 10
194.4960004462597
 20
13.92582473272428
 30
0.0
 10
194.5040675809892
 20
13.97106357955325
 30
0.0
 10
194.4918238487083
 20
14.0223417690996
 30
0.0
 10
194.5525017120698
 20
14.00749577363137
 30
0.0
 10
194.6162810745736
 20
14.01756448170737
 30
0.0
 10
194.7277314353502
 20
14.01294644212001
 30
0.0
 10
194.8497533443824
 20
14.01413328905471
 30
0.0
 10
194.9719538137823
 20
14.01515863900637
 30
0.0
 10
195.0829794287392
 20
14.01092475623403
 30
0.0
 10
195.1476517413959
 20
14.02018584521741
 30
0.0
 10
195.2091162810501
 20
14.00604423049684
 30
0.0
 10
195.1930065601337
 20
14.07235527884519
 30
0.0
 10
195.2042980327358
 20
14.14447790121977
 30
0.0
 10
195.198740082256
 20
14.27513760888287
 30
0.0
 10
195.2008035061691
 20
14.42607323708242
 30
0.0
 10
195.2000167127295
 20
14.59335873107886
 30
0.0
 10
195.2007845215627
 20
14.76061110332302
 30
0.0
 10
195.1988038785628
 20
14.91163289269914
 30
0.0
 10
195.2041306156621
 20
15.04206069552994
 30
0.0
 10
195.1933101388424
 20
15.11465442605898
 30
0.0
 10
195.2090326429876
 20
15.18150469436797
 30
0.0
 10
195.143270813249
 20
15.16580512490822
 30
0.0
 10
195.0756367830763
 20
15.17609243083995
 30
0.0
 10
194.9615885293809
 20
15.1711378684712
 30
0.0
 10
194.8451242674902
 20
15.17414128030474
 30
0.0
 10
194.7306554121477
 20
15.16880303143387
 30
0.0
 10
194.6640324657812
 20
15.18001268074823
 30
0.0
 10
194.5990769715186
 20
15.1634913266501
 30
0.0
 10
194.6107989758707
 20
15.21473720477058
 30
0.0
 10
194.6032830189121
 20
15.2595033378409
 30
0.0
 10
194.6107989878835
 20
15.30426944897961
 30
0.0
 10
194.5990769505346
 20
15.3555153612974
 30
0.0
 10
194.66403263392
 20
15.33899381766814
 30
0.0
 10
194.7306533339821
 20
15.35020571373943
 30
0.0
 10
194.8451352858063
 20
15.34485436710663
 30
0.0
 10
194.9615454436962
 20
15.34791188771116
 30
0.0
 10
195.0757660174641
 20
15.34278499010707
 30
0.0
 10
195.1430150439226
 20
15.35345733355597
 30
0.0
 10
195.2083325941438
 20
15.33742082669076
 30
0.0
 10
195.1941391448552
 20
15.39949685750053
 30
0.0
 10
195.2036059462995
 20
15.46586761628762
 30
0.0
 10
195.1990269004085
 20
15.58239972741966
 30
0.0
 10
195.2007696555948
 20
15.71426685022376
 30
0.0
 10
195.1997551495392
 20
15.85615960150274
 30
0.0
 10
195.2017191344372
 20
15.98769050702581
 30
0.0
 10
195.1964668553851
 20
16.10524577283004
 30
0.0
 10
195.2073408763475
 20
16.16947789001586
 30
0.0
 10
195.1919536641853
 20
16.23108802545049
 30
0.0
 10
195.24075915378
 20
16.21702407382113
 30
0.0
 10
195.2853995564725
 20
16.21954742075316
 30
0.0
 10
195.3538643946742
 20
16.2151279740171
 30
0.0
 10
195.3959106169103
 20
16.20613025544036
 30
0.0
 10
195.4487544758775
 20
16.2141171486651
 30
0.0
 10
195.4207035002014
 20
16.17113917611677
 30
0.0
 10
195.3749142248594
 20
16.18259552043831
 30
0.0
 10
195.3869539073265
 20
16.12173520005133
 30
0.0
 10
195.379608607064
 20
16.05769299468768
 30
0.0
 10
195.3831195826162
 20
15.94909368863907
 30
0.0
 10
195.3819806760173
 20
15.82494319144748
 30
0.0
 10
195.3819174780263
 20
15.69189719829876
 30
0.0
 10
195.3832872966868
 20
15.56797381249553
 30
0.0
 10
195.3791638801313
 20
15.45868337849337
 30
0.0
 10
195.3877763103564
 20
15.39608580094169
 30
0.0
 10
195.3746757454402
 20
15.33740133296364
 30
0.0
 10
195.4393884328198
 20
15.35362113810901
 30
0.0
 10
195.5060405953156
 20
15.34270260383311
 30
0.0
 10
195.6198779541103
 20
15.34793740173754
 30
0.0
 10
195.7357259122097
 20
15.34485547516912
 30
0.0
 10
195.849692426328
 20
15.35018259812511
 30
0.0
 10
195.91603410181
 20
15.33904208166542
 30
0.0
 10
195.9807188525479
 20
15.35546979593177
 30
0.0
 10
195.9689820772723
 20
15.3042592521005
 30
0.0
 10
195.976516806304
 20
15.25950334120999
 30
0.0
 10
195.9689820992258
 20
15.21474739010026
 30
0.0
 10
195.9807188140736
 20
15.16353690871039
 30
0.0
 10
195.9160344075252
 20
15.17996427794219
 30
0.0
 10
195.8496886430824
 20
15.16882784447268
 30
0.0
 10
195.7357459487012
 20
15.17413115893119
 30
0.0
 10
195.6197995623054
 20
15.17114764593543
 30
0.0
 10
195.5062756882123
 20
15.17606892268392
 30
0.0
 10
195.4389231318804
 20
15.16585087513518
 30
0.0
 10
195.3734285122495
 20
15.18145996138815
 30
0.0
 10
195.3891713619218
 20
15.1146385182741
 30
0.0
 10
195.3783275998212
 20
15.04207057815877
 30
0.0
 10
195.3836581629792
 20
14.91162247614416
 30
0.0
 10
195.3817136151855
 20
14.76064558185226
 30
0.0
 10
195.3823133683215
 20
14.59322243934158
 30
0.0
 10
195.3821506559604
 20
14.42656176118373
 30
0.0
 10
195.3821895488136
 20
14.27360142921637
 30
0.0
 10
195.3821816413098
 20
14.14849178985707
 30
0.0
 10
195.3821828382745
 20
14.06507890991422
 30
0.0
 10
195.3821827716207
 20
14.02491778281978
 30
0.0
 10
195.3821827564383
 20
14.01410517385759
 30
0.0
 11
195.3821827564383
 21
14.01410517385759
 31
0.0
 11
195.4100014883675
 21
14.01410517385759
 31
0.0
 11
195.4833417816353
 21
14.01410517385759
 31
0.0
 11
195.5870297824622
 21
14.01410517385759
 31
0.0
 11
195.7058916370687
 21
14.01410517385759
 31
0.0
 11
195.8247534916751
 21
14.01410517385759
 31
0.0
 11
195.928441492502
 21
14.01410517385759
 31
0.0
 11
196.0017817857698
 21
14.01410517385759
 31
0.0
 11
196.029600517699
 21
14.01410517385759
 31
0.0
 11
196.029600517699
 21
13.98651684921172
 31
0.0
 11
196.029600517699
 21
13.92582253499079
 31
0.0
 11
196.029600517699
 21
13.86512822076987
 31
0.0
 11
196.029600517699
 21
13.837539896124
 31
0.0
 11
195.9994901593494
 21
13.837539896124
 31
0.0
 11
195.9162438745004
 21
13.837539896124
 31
0.0
 11
195.7904888484521
 21
13.837539896124
 31
0.0
 11
195.6328522665041
 21
13.837539896124
 31
0.0
 11
195.4539613139564
 21
13.837539896124
 31
0.0
 11
195.2644431761089
 21
13.837539896124
 31
0.0
 11
195.0749250382613
 21
13.837539896124
 31
0.0
 11
194.8960340857136
 21
13.837539896124
 31
0.0
 11
194.7383975037656
 21
13.837539896124
 31
0.0
 11
194.6126424777172
 21
13.837539896124
 31
0.0
 11
194.5293961928683
 21
13.837539896124
 31
0.0
 11
194.4992858345187
 21
13.837539896124
 31
0.0
 11
194.4992858345187
 21
13.86512822076987
 31
0.0
 11
194.4992858345187
 21
13.92582253499079
 31
0.0
 11
194.4992858345187
 21
13.98651684921172
 31
0.0
 11
194.4992858345187
 21
14.01410517385759
 31
0.0
 11
194.5294068064947
 21
14.01410517385759
 31
0.0
 11
194.608816641704
 21
14.01410517385759
 31
0.0
 11
194.721085719069
 21
14.01410517385759
 31
0.0
 11
194.8497844175118
 21
14.01410517385759
 31
0.0
 11
194.9784831159545
 21
14.01410517385759
 31
0.0
 11
195.0907521933195
 21
14.01410517385759
 31
0.0
 11
195.1701620285289
 21
14.01410517385759
 31
0.0
 11
195.2002830005048
 21
14.01410517385759
 31
0.0
 11
195.2002830005048
 21
14.04654305523837
 31
0.0
 11
195.2002830005048
 21
14.13458873327192
 31
0.0
 11
195.2002830005048
 21
14.26434025879504
 31
0.0
 11
195.2002830005048
 21
14.42189568264455
 31
0.0
 11
195.2002830005048
 21
14.59335305565724
 31
0.0
 11
195.2002830005048
 21
14.76481042866994
 31
0.0
 11
195.2002830005048
 21
14.92236585251944
 31
0.0
 11
195.2002830005048
 21
15.05211737804256
 31
0.0
 11
195.2002830005048
 21
15.14016305607611
 31
0.0
 11
195.2002830005048
 21
15.17260093745689
 31
0.0
 11
195.1673826485529
 21
15.17260093745689
 31
0.0
 11
195.0825343724662
 21
15.17260093745689
 31
0.0
 11
194.9665173418988
 21
15.17260093745689
 31
0.0
 11
194.8401107265044
 21
15.17260093745689
 31
0.0
 11
194.724093695937
 21
15.17260093745689
 31
0.0
 11
194.6392454198503
 21
15.17260093745689
 31
0.0
 11
194.6063450678984
 21
15.17260093745689
 31
0.0
 11
194.6063450678984
 21
15.19975793614801
 31
0.0
 11
194.6063450678984
 21
15.25950333326849
 31
0.0
 11
194.6063450678984
 21
15.31924873038897
 31
0.0
 11
194.6063450678984
 21
15.34640572908009
 31
0.0
 11
194.6392454198504
 21
15.34640572908009
 31
0.0
 11
194.724093695937
 21
15.34640572908009
 31
0.0
 11
194.8401107265044
 21
15.34640572908009
 31
0.0
 11
194.9665173418988
 21
15.34640572908009
 31
0.0
 11
195.0825343724662
 21
15.34640572908009
 31
0.0
 11
195.1673826485529
 21
15.34640572908009
 31
0.0
 11
195.2002830005048
 21
15.34640572908009
 31
0.0
 11
195.2002830005048
 21
15.37650011731369
 31
0.0
 11
195.2002830005048
 21
15.45715307777973
 31
0.0
 11
195.2002830005048
 21
15.57391930412609
 31
0.0
 11
195.2002830005048
 21
15.71235349000063
 31
0.0
 11
195.2002830005048
 21
15.85801032905125
 31
0.0
 11
195.2002830005048
 21
15.99644451492579
 31
0.0
 11
195.2002830005048
 21
16.11321074127216
 31
0.0
 11
195.2002830005048
 21
16.1938637017382
 31
0.0
 11
195.2002830005048
 21
16.22395808997179
 31
0.0
 11
195.2250405288618
 21
16.22228324219444
 31
0.0
 11
195.2840777118669
 21
16.21828937441767
 31
0.0
 11
195.3545414464214
 21
16.21352249997442
 31
0.0
 11
195.4135786294265
 21
16.20952863219765
 31
0.0
 11
195.4383361577835
 21
16.20785378442029
 31
0.0
 11
195.423306722403
 21
16.18415814206512
 31
0.0
 11
195.3821827564383
 21
16.17047697887399
 31
0.0
 11
195.3821827564383
 21
16.14221664794827
 31
0.0
 11
195.3821827564383
 21
16.06647896106735
 31
0.0
 11
195.3821827564383
 21
15.95682887707557
 31
0.0
 11
195.3821827564383
 21
15.82683135481727
 31
0.0
 11
195.3821827564383
 21
15.6900513531368
 31
0.0
 11
195.3821827564383
 21
15.56005383087851
 31
0.0
 11
195.3821827564383
 21
15.45040374688673
 31
0.0
 11
195.3821827564383
 21
15.37466606000581
 31
0.0
 11
195.3821827564383
 21
15.34640572908009
 31
0.0
 11
195.4149350096115
 21
15.34640572908009
 31
0.0
 11
195.4994013467422
 21
15.34640572908009
 31
0.0
 11
195.6148961342476
 21
15.34640572908009
 31
0.0
 11
195.7407337385445
 21
15.34640572908009
 31
0.0
 11
195.8562285260498
 21
15.34640572908009
 31
0.0
 11
195.9406948631806
 21
15.34640572908009
 31
0.0
 11
195.9734471163538
 21
15.34640572908009
 31
0.0
 11
195.9734471163538
 21
15.31924873038897
 31
0.0
 11
195.9734471163538
 21
15.25950333326849
 31
0.0
 11
195.9734471163538
 21
15.19975793614801
 31
0.0
 11
195.9734471163538
 21
15.17260093745689
 31
0.0
 11
195.9406948631806
 21
15.17260093745689
 31
0.0
 11
195.8562285260498
 21
15.17260093745689
 31
0.0
 11
195.7407337385445
 21
15.17260093745689
 31
0.0
 11
195.6148961342476
 21
15.17260093745689
 31
0.0
 11
195.4994013467422
 21
15.17260093745689
 31
0.0
 11
195.4149350096114
 21
15.17260093745689
 31
0.0
 11
195.3821827564383
 21
15.17260093745689
 31
0.0
 11
195.3821827564383
 21
15.14016305607611
 31
0.0
 11
195.3821827564383
 21
15.05211737804256
 31
0.0
 11
195.3821827564383
 21
14.92236585251944
 31
0.0
 11
195.3821827564383
 21
14.76481042866994
 31
0.0
 11
195.3821827564383
 21
14.59335305565724
 31
0.0
 11
195.3821827564383
 21
14.42189568264454
 31
0.0
 11
195.3821827564383
 21
14.26434025879504
 31
0.0
 11
195.3821827564383
 21
14.13458873327192
 31
0.0
 11
195.3821827564383
 21
14.04654305523837
 31
0.0
 11
195.3821827564383
 21
14.01410517385759
 31
0.0
  0
SPLINE
  5
B2
102
{ACAD_REACTORS
330
CF
102
}
330
48
100
AcDbEntity
  8
_U_30EC_U_30A4_U_30E4_U_30FC_1
  6
Continuous
 62
     2
100
AcDbSpline
210
0.0
220
0.0
230
1.0
 70
     8
 71
     3
 72
    62
 73
    58
 74
    56
 42
0.000000001
 43
0.0000000001
 44
0.00000001
 40
0.0
 40
0.0
 40
0.0
 40
0.0
 40
0.0598250028308485
 40
0.2024846486897331
 40
0.3727558389221031
 40
0.515415484793607
 40
0.5752404975785339
 40
0.9332326775487232
 40
1.290451762839464
 40
1.602077253145848
 40
1.699931634112088
 40
1.79935975642496
 40
2.270120149657088
 40
2.804661928461472
 40
2.882342287383184
 40
3.076543185719037
 40
3.3290043548355
 40
3.581465524568331
 40
3.775666424543615
 40
3.853346784558236
 40
3.89912067959501
 40
3.984129341792037
 40
4.029903236817414
 40
4.105797496059574
 40
4.295533144152548
 40
4.542189486611806
 40
4.788845828875773
 40
4.978581476410169
 40
5.054475735244417
 40
5.621734664339479
 40
6.130867242037503
 40
6.22524978094875
 40
6.318913039727459
 40
6.663579954559105
 40
7.047498900224967
 40
7.43523079157587
 40
7.498943906668282
 40
7.650875181210276
 40
7.832212509001787
 40
7.984143783697172
 40
8.0478568989033
 40
8.091554632732814
 40
8.172707566964485
 40
8.216405300768216
 40
8.2890217821611
 40
8.462184160757474
 40
8.668861838005554
 40
8.842024215264146
 40
8.914640695475342
 40
8.989881580861553
 40
9.155411528827475
 40
9.320941477744274
 40
9.39618235248753
 40
9.454709011144077
 40
9.583467660171012
 40
9.71222630901329
 40
9.770752957989744
 40
9.770752957989744
 40
9.770752957989744
 40
9.770752957989744
 10
187.1521871691833
 20
14.93980288195949
 30
0.0
 10
187.1322348171623
 20
14.93980875568671
 30
0.0
 10
187.0647037716466
 20
14.93982863806156
 30
0.0
 10
186.9410612161788
 20
14.93949362520325
 30
0.0
 10
186.7863180150056
 20
14.94107673750511
 30
0.0
 10
186.669734948248
 20
14.93686078860494
 30
0.0
 10
186.455094263424
 20
14.95215205331625
 30
0.0
 10
186.8518948407228
 20
14.59198721286192
 30
0.0
 10
186.8945656069268
 20
14.37510503397164
 30
0.0
 10
187.318916214661
 20
14.19325062511455
 30
0.0
 10
187.1439821496075
 20
14.0898519656807
 30
0.0
 10
187.0194523925085
 20
13.87831523212721
 30
0.0
 10
186.7666277235942
 20
14.34806081001554
 30
0.0
 10
186.4797602893627
 20
14.99511516984518
 30
0.0
 10
186.4906335926661
 20
14.68782672154692
 30
0.0
 10
186.488289277796
 20
14.52288616971776
 30
0.0
 10
186.4861096126412
 20
14.28879670711691
 30
0.0
 10
186.4980774396348
 20
14.0449807242178
 30
0.0
 10
186.4687984740632
 20
13.89855796860981
 30
0.0
 10
186.511452262547
 20
13.75113490174535
 30
0.0
 10
186.423981400564
 20
13.76685797306217
 30
0.0
 10
186.3768527606745
 20
13.76694303543452
 30
0.0
 10
186.2898973207712
 20
13.75109425482905
 30
0.0
 10
186.3313474021722
 20
13.8952777142276
 30
0.0
 10
186.3029875004286
 20
14.03855052698454
 30
0.0
 10
186.31459737753
 20
14.27674947365266
 30
0.0
 10
186.3124175648272
 20
14.50517235240348
 30
0.0
 10
186.3103111127993
 20
14.66705729375998
 30
0.0
 10
186.3208035438324
 20
14.98153709333758
 30
0.0
 10
186.0128963252893
 20
14.29229470872441
 30
0.0
 10
185.7055258267455
 20
13.81476750243038
 30
0.0
 10
185.5851367066275
 20
14.03741112637431
 30
0.0
 10
185.4074607910721
 20
14.15011034955556
 30
0.0
 10
185.8853326362894
 20
14.32548143465467
 30
0.0
 10
185.9353959057208
 20
14.56091929252028
 30
0.0
 10
186.3583799621717
 20
14.95322989344605
 30
0.0
 10
186.127675427354
 20
14.93655307029065
 30
0.0
 10
186.0049685859341
 20
14.9426951894877
 30
0.0
 10
185.8325483095662
 20
14.93312822699573
 30
0.0
 10
185.7213224694449
 20
14.95448818489665
 30
0.0
 10
185.6025779627448
 20
14.92136265357419
 30
0.0
 10
185.6183169706685
 20
15.00203900606883
 30
0.0
 10
185.6178550933763
 20
15.04645414290855
 30
0.0
 10
185.6027881889931
 20
15.12967081778535
 30
0.0
 10
185.7372380935443
 20
15.09062651983885
 30
0.0
 10
185.8619755545747
 20
15.11739729328424
 30
0.0
 10
186.062875523728
 20
15.10063949044054
 30
0.0
 10
186.1921540949353
 20
15.12204225913005
 30
0.0
 10
186.3328419928295
 20
15.08868778853423
 30
0.0
 10
186.2980927452614
 20
15.2265187578507
 30
0.0
 10
186.3222185666713
 20
15.34963257349485
 30
0.0
 10
186.2967086182392
 20
15.4702405567034
 30
0.0
 10
186.3333251146685
 20
15.60539865141501
 30
0.0
 10
186.2211417027769
 20
15.58094545781896
 30
0.0
 10
186.1280356457136
 20
15.59307749842028
 30
0.0
 10
186.0191547579819
 20
15.5895763007
 30
0.0
 10
185.9569697640964
 20
15.58981755951609
 30
0.0
 10
185.9375369557246
 20
15.5898929512415
 30
0.0
 11
187.1521871691833
 21
14.93980288195949
 31
0.0
 11
187.0923621563982
 21
14.93980288195949
 31
0.0
 11
186.949702510526
 21
14.93980288195949
 31
0.0
 11
186.7794313202913
 21
14.93980288195949
 31
0.0
 11
186.6367716744191
 21
14.93980288195949
 31
0.0
 11
186.576946661634
 21
14.93980288195949
 31
0.0
 11
186.7679960754842
 21
14.6370512796689
 31
0.0
 11
186.994127278563
 21
14.36051890576685
 31
0.0
 11
187.2244526173371
 21
14.1506125349346
 31
0.0
 11
187.1521596330704
 21
14.08466403668715
 31
0.0
 11
187.0879364402644
 21
14.0087605905256
 31
0.0
 11
186.7732818215558
 21
14.35891458349364
 31
0.0
 11
186.4886640249977
 21
14.81138295143599
 31
0.0
 11
186.4886640249977
 21
14.73370259137311
 31
0.0
 11
186.4886640249977
 21
14.53950169121591
 31
0.0
 11
186.4886640249977
 21
14.28704052101154
 31
0.0
 11
186.4886640249977
 21
14.03457935080717
 31
0.0
 11
186.4886640249977
 21
13.84037845064997
 31
0.0
 11
186.4886640249977
 21
13.76269809058709
 31
0.0
 11
186.4428901295606
 21
13.76269809058709
 31
0.0
 11
186.3578814666058
 21
13.76269809058709
 31
0.0
 11
186.3121075711687
 21
13.76269809058709
 31
0.0
 11
186.3121075711687
 21
13.83859234982738
 31
0.0
 11
186.3121075711687
 21
14.0283279979281
 31
0.0
 11
186.3121075711687
 21
14.27498434045904
 31
0.0
 11
186.3121075711687
 21
14.52164068298998
 31
0.0
 11
186.3121075711687
 21
14.7113763310907
 31
0.0
 11
186.3121075711687
 21
14.78727059033099
 31
0.0
 11
185.9987626399266
 21
14.31440946197692
 31
0.0
 11
185.6352328662148
 21
13.95795177109379
 31
0.0
 11
185.5773927461628
 21
14.03253450545024
 31
0.0
 11
185.5094852305341
 21
14.0970432293924
 31
0.0
 11
185.7750721898319
 21
14.31672219795891
 31
0.0
 11
186.0233764972061
 21
14.60953395971698
 31
0.0
 11
186.226498280526
 21
14.93980288195949
 31
0.0
 11
186.1627851652721
 21
14.93980288195949
 31
0.0
 11
186.0108538904359
 21
14.93980288195949
 31
0.0
 11
185.8295165624055
 21
14.93980288195949
 31
0.0
 11
185.6775852875693
 21
14.93980288195949
 31
0.0
 11
185.6138721723154
 21
14.93980288195949
 31
0.0
 11
185.6138721723154
 21
14.98350061600208
 31
0.0
 11
185.6138721723154
 21
15.0646535506526
 31
0.0
 11
185.6138721723154
 21
15.10835128469519
 31
0.0
 11
185.6864886537961
 21
15.10835128469519
 31
0.0
 11
185.8596510327118
 21
15.10835128469519
 31
0.0
 11
186.0663287107723
 21
15.10835128469519
 31
0.0
 11
186.239491089688
 21
15.10835128469519
 31
0.0
 11
186.3121075711687
 21
15.10835128469519
 31
0.0
 11
186.3121075711687
 21
15.18359217009305
 31
0.0
 11
186.3121075711687
 21
15.34912211796835
 31
0.0
 11
186.3121075711687
 21
15.51465206584364
 31
0.0
 11
186.3121075711687
 21
15.5898929512415
 31
0.0
 11
186.2535809125055
 21
15.5898929512415
 31
0.0
 11
186.1248222634467
 21
15.5898929512415
 31
0.0
 11
185.9960636143877
 21
15.5898929512415
 31
0.0
 11
185.9375369557246
 21
15.5898929512415
 31
0.0
  0
SPLINE
  5
B3
102
{ACAD_REACTORS
330
CF
102
}
330
48
100
AcDbEntity
  8
_U_30EC_U_30A4_U_30E4_U_30FC_1
  6
Continuous
 62
     2
100
AcDbSpline
210
0.0
220
0.0
230
1.0
 70
     8
 71
     3
 72
    70
 73
    66
 74
    64
 42
0.000000001
 43
0.0000000001
 44
0.00000001
 40
0.0
 40
0.0
 40
0.0
 40
0.0
 40
0.0241731073021472
 40
0.0846058988986729
 40
0.1631685280352999
 40
0.2417311571788903
 40
0.3021639488291898
 40
0.3263370654894688
 40
0.3533118254248028
 40
0.4228783438921241
 40
0.517999909531255
 40
0.6216398239465232
 40
0.7167613891498835
 40
0.7863279069648993
 40
0.8133026791760966
 40
0.8372943998770809
 40
0.8945054261372012
 40
0.962789554196208
 40
1.020000580349075
 40
1.043992300975174
 40
1.071934345522946
 40
1.113121768772884
 40
1.145225199332201
 40
1.225483775412722
 40
1.329819923771416
 40
1.434156071994288
 40
1.514414647795697
 40
1.546518078208298
 40
1.5789747642601
 40
1.662678849314038
 40
1.777131373668258
 40
1.901833377474649
 40
2.016285900500411
 40
2.099989982527749
 40
2.132446666570108
 40
2.15878235448583
 40
2.216720867907612
 40
2.274659381334026
 40
2.300995069255958
 40
2.33345175406593
 40
2.417155836543583
 40
2.531608358985022
 40
2.656310362283517
 40
2.770762886388621
 40
2.854466971339758
 40
2.886923657363564
 40
2.913597976833
 40
2.982389642874808
 40
3.076451716946681
 40
3.178937260458304
 40
3.272999334739716
 40
3.341791001058946
 40
3.368465320663259
 40
3.39697608073848
 40
3.472140811845688
 40
3.578408190308377
 40
3.700226892455785
 40
3.822045594634002
 40
3.928312973256081
 40
4.003477705314478
 40
4.031988456866544
 40
4.058324144797347
 40
4.116262658236519
 40
4.174201171400326
 40
4.200536849608265
 40
4.200536849608265
 40
4.200536849608265
 40
4.200536849608265
 10
185.985770496161
 20
15.75844135397709
 30
0.0
 10
185.993825954468
 20
15.75844359811691
 30
0.0
 10
186.0220200663241
 20
15.75845146032802
 30
0.0
 10
186.0765534803674
 20
15.75830754828376
 30
0.0
 10
186.1482891808604
 20
15.75909120499902
 30
0.0
 10
186.2236240137062
 20
15.75627570463815
 30
0.0
 10
186.2713052366439
 20
15.76298403400962
 30
0.0
 10
186.3195071245615
 20
15.75197563692436
 30
0.0
 10
186.3062571799874
 20
15.80546402997038
 30
0.0
 10
186.3151093964538
 20
15.86049583543095
 30
0.0
 10
186.3108698036285
 20
15.95419908726113
 30
0.0
 10
186.313348348128
 20
16.04959482218536
 30
0.0
 10
186.309093870606
 20
16.14356821983391
 30
0.0
 10
186.3179818665846
 20
16.19795062438016
 30
0.0
 10
186.3046977409946
 20
16.25233997691465
 30
0.0
 10
186.3514119277108
 20
16.2384221633536
 30
0.0
 10
186.3943254545737
 20
16.24103877374046
 30
0.0
 10
186.4605443456686
 20
16.23648422450754
 30
0.0
 10
186.5013342271798
 20
16.22778162134161
 30
0.0
 10
186.552514569082
 20
16.23531799890191
 30
0.0
 10
186.52537204872
 20
16.1934997022329
 30
0.0
 10
186.4803096055708
 20
16.20284992072589
 30
0.0
 10
186.494206504505
 20
16.13841207371835
 30
0.0
 10
186.4858414431656
 20
16.07378219627398
 30
0.0
 10
186.4903632178399
 20
15.97529141193888
 30
0.0
 10
186.4854741311168
 20
15.87595932842572
 30
0.0
 10
186.4950258992083
 20
15.81293115552972
 30
0.0
 10
186.4799761455201
 20
15.74964011499792
 30
0.0
 10
186.544915945721
 20
15.76515072944273
 30
0.0
 10
186.6116246399498
 20
15.75499387697816
 30
0.0
 10
186.7241435470828
 20
15.75988800099372
 30
0.0
 10
186.8390235448954
 20
15.75691204732788
 30
0.0
 10
186.9519871999747
 20
15.76221664184995
 30
0.0
 10
187.0176267597677
 20
15.75107306472092
 30
0.0
 10
187.0816276691053
 20
15.76744532319861
 30
0.0
 10
187.0703142889189
 20
15.71761689905279
 30
0.0
 10
187.077533987151
 20
15.67416715212128
 30
0.0
 10
187.0703142611269
 20
15.6307174558745
 30
0.0
 10
187.0816277175994
 20
15.58088895196883
 30
0.0
 10
187.0176263598972
 20
15.59726166091368
 30
0.0
 10
186.9519921240459
 20
15.58611271661594
 30
0.0
 10
186.838997431733
 20
15.5914485720686
 30
0.0
 10
186.7242456548643
 20
15.58834345663828
 30
0.0
 10
186.6113183686861
 20
15.59364894682594
 30
0.0
 10
186.5455220903585
 20
15.58257300019599
 30
0.0
 10
186.4816097975359
 20
15.59887597847624
 30
0.0
 10
186.4936015165127
 20
15.54423524395747
 30
0.0
 10
186.4862104613006
 20
15.48854295047847
 30
0.0
 10
186.4892684841984
 20
15.39649689140575
 30
0.0
 10
186.4893422785684
 20
15.30179109873104
 30
0.0
 10
186.486031357836
 20
15.20952782902268
 30
0.0
 10
186.4939505989905
 20
15.15435768736142
 30
0.0
 10
186.4815076611617
 20
15.10058169100138
 30
0.0
 10
186.5389116551633
 20
15.11453768862783
 30
0.0
 10
186.5994708140383
 20
15.10511457884228
 30
0.0
 10
186.7048680855081
 20
15.10942885928707
 30
0.0
 10
186.8204294070623
 20
15.10835504612033
 30
0.0
 10
186.9359688877797
 20
15.10725965900997
 30
0.0
 10
187.0414181130841
 20
15.11162525770634
 30
0.0
 10
187.1018680471804
 20
15.10209426030673
 30
0.0
 10
187.159283773911
 20
15.11617289606382
 30
0.0
 10
187.1477773876709
 20
15.06707153265684
 30
0.0
 10
187.1537566781749
 20
15.0256465801865
 30
0.0
 10
187.1520311050802
 20
14.97651677966695
 30
0.0
 10
187.1521500122971
 20
14.94854428447607
 30
0.0
 10
187.1521871691833
 20
14.93980288195949
 30
0.0
 11
185.985770496161
 21
15.75844135397709
 31
0.0
 11
186.0099436128282
 21
15.75844135397709
 31
0.0
 11
186.0703764044963
 21
15.75844135397709
 31
0.0
 11
186.1489390336649
 21
15.75844135397709
 31
0.0
 11
186.2275016628334
 21
15.75844135397709
 31
0.0
 11
186.2879344545015
 21
15.75844135397709
 31
0.0
 11
186.3121075711687
 21
15.75844135397709
 31
0.0
 11
186.3121075711687
 21
15.78541612620067
 31
0.0
 11
186.3121075711687
 21
15.85498264404043
 31
0.0
 11
186.3121075711687
 21
15.95010420924989
 31
0.0
 11
186.3121075711687
 21
16.0537441235826
 31
0.0
 11
186.3121075711687
 21
16.14886568879206
 31
0.0
 11
186.3121075711687
 21
16.21843220663182
 31
0.0
 11
186.3121075711687
 21
16.2454069788554
 31
0.0
 11
186.3360407604892
 21
16.24373213107803
 31
0.0
 11
186.3931122119458
 21
16.23973826330123
 31
0.0
 11
186.4612297507811
 21
16.23497138885795
 31
0.0
 11
186.5183012022377
 21
16.23097752108116
 31
0.0
 11
186.5422343915582
 21
16.22930267330379
 31
0.0
 11
186.5274972731229
 21
16.20556293372638
 31
0.0
 11
186.4886640249977
 21
16.19183767331309
 31
0.0
 11
186.4886640249977
 21
16.15973424225116
 31
0.0
 11
186.4886640249977
 21
16.07947566459635
 31
0.0
 11
186.4886640249977
 21
15.97513951364509
 31
0.0
 11
186.4886640249977
 21
15.87080336269383
 31
0.0
 11
186.4886640249977
 21
15.79054478503901
 31
0.0
 11
186.4886640249977
 21
15.75844135397709
 31
0.0
 11
186.5211207110825
 21
15.75844135397709
 31
0.0
 11
186.6048247962486
 21
15.75844135397709
 31
0.0
 11
186.7192773208635
 21
15.75844135397709
 31
0.0
 11
186.8439793252946
 21
15.75844135397709
 31
0.0
 11
186.9584318499095
 21
15.75844135397709
 31
0.0
 11
187.0421359350756
 21
15.75844135397709
 31
0.0
 11
187.0745926211604
 21
15.75844135397709
 31
0.0
 11
187.0745926211604
 21
15.73210566604965
 31
0.0
 11
187.0745926211604
 21
15.67416715260929
 31
0.0
 11
187.0745926211604
 21
15.61622863916894
 31
0.0
 11
187.0745926211604
 21
15.5898929512415
 31
0.0
 11
187.0421359350756
 21
15.5898929512415
 31
0.0
 11
186.9584318499095
 21
15.5898929512415
 31
0.0
 11
186.8439793252946
 21
15.5898929512415
 31
0.0
 11
186.7192773208635
 21
15.5898929512415
 31
0.0
 11
186.6048247962486
 21
15.5898929512415
 31
0.0
 11
186.5211207110825
 21
15.5898929512415
 31
0.0
 11
186.4886640249977
 21
15.5898929512415
 31
0.0
 11
186.4886640249977
 21
15.56321863152028
 31
0.0
 11
186.4886640249977
 21
15.4944269648708
 31
0.0
 11
186.4886640249977
 21
15.40036489006438
 31
0.0
 11
186.4886640249977
 21
15.29787934587231
 31
0.0
 11
186.4886640249977
 21
15.20381727106589
 31
0.0
 11
186.4886640249977
 21
15.13502560441641
 31
0.0
 11
186.4886640249977
 21
15.10835128469519
 31
0.0
 11
186.5171747850994
 21
15.10835128469519
 31
0.0
 11
186.5923395162767
 21
15.10835128469519
 31
0.0
 11
186.6986068948377
 21
15.10835128469519
 31
0.0
 11
186.8204255970905
 21
15.10835128469519
 31
0.0
 11
186.9422442993433
 21
15.10835128469519
 31
0.0
 11
187.0485116779043
 21
15.10835128469519
 31
0.0
 11
187.1236764090816
 21
15.10835128469519
 31
0.0
 11
187.1521871691833
 21
15.10835128469519
 31
0.0
 11
187.1521871691833
 21
15.08201559676774
 31
0.0
 11
187.1521871691833
 21
15.02407708332734
 31
0.0
 11
187.1521871691833
 21
14.96613856988695
 31
0.0
 11
187.1521871691833
 21
14.93980288195949
 31
0.0
  0
SPLINE
  5
B4
102
{ACAD_REACTORS
330
CF
102
}
330
48
100
AcDbEntity
  8
_U_30EC_U_30A4_U_30E4_U_30FC_1
  6
Continuous
 62
     2
100
AcDbSpline
210
0.0
220
0.0
230
1.0
 70
     8
 71
     3
 72
    24
 73
    20
 74
    18
 42
0.000000001
 43
0.0000000001
 44
0.00000001
 40
0.0
 40
0.0
 40
0.0
 40
0.0
 40
0.2211075008753987
 40
0.4273218586245978
 40
0.5080174679240084
 40
0.5914835907871041
 40
0.8143265690194024
 40
1.054651302686707
 40
1.295452694023282
 40
1.51810923132888
 40
1.540864321905494
 40
1.595126460622752
 40
1.659890947896062
 40
1.714153085187417
 40
1.736908174961716
 40
1.764951100735388
 40
1.801562291221029
 40
1.953914424543698
 40
2.126104167379742
 40
2.126104167379742
 40
2.126104167379742
 40
2.126104167379742
 10
185.9375369556889
 20
15.5898929511302
 30
0.0
 10
185.9112579081811
 20
15.53097628234378
 30
0.0
 10
185.8604698894425
 20
15.4171113967926
 30
0.0
 10
185.8131784839112
 20
15.1444195823311
 30
0.0
 10
185.7043482802617
 20
15.24445482575453
 30
0.0
 10
185.5514800279637
 20
15.27118593367333
 30
0.0
 10
185.76861551812
 20
15.4851813501763
 30
0.0
 10
185.7838483674381
 20
15.7033211778249
 30
0.0
 10
185.8906889492001
 20
15.88451579066425
 30
0.0
 10
185.8305380947078
 20
16.16913226311395
 30
0.0
 10
185.9334317395402
 20
16.14114089222448
 30
0.0
 10
185.9779933468149
 20
16.13243251602297
 30
0.0
 10
186.0380842395397
 20
16.12139654183355
 30
0.0
 10
186.0756619587438
 20
16.1076752305556
 30
0.0
 10
186.1252466928605
 20
16.10756076160226
 30
0.0
 10
186.0930158919326
 20
16.07306592398618
 30
0.0
 10
186.0171802221881
 20
16.08404104537976
 30
0.0
 10
186.0429447159693
 20
15.8985896958245
 30
0.0
 10
186.005589676385
 20
15.80702313549592
 30
0.0
 10
185.985770496161
 20
15.75844135397709
 30
0.0
 11
185.9375369556889
 21
15.5898929511302
 31
0.0
 11
185.8616471328552
 21
15.38221708318562
 31
0.0
 11
185.7717402238433
 21
15.19663392356189
 31
0.0
 11
185.701149392311
 21
15.2357327256355
 31
0.0
 11
185.6245525192651
 21
15.2688916318772
 31
0.0
 11
185.7214026947456
 21
15.4695880120354
 31
0.0
 11
185.7994641467472
 21
15.69688163177026
 31
0.0
 11
185.8589716929721
 21
15.93021436608691
 31
0.0
 11
185.9001601511226
 21
16.1490280899905
 31
0.0
 11
185.9224183822214
 21
16.14429889221391
 31
0.0
 11
185.975495702534
 21
16.13302157443897
 31
0.0
 11
186.0388460525844
 21
16.11956154999792
 31
0.0
 11
186.091923372897
 21
16.10828423222298
 31
0.0
 11
186.1141816039958
 21
16.10355503444639
 31
0.0
 11
186.0964097157461
 21
16.08186250841009
 31
0.0
 11
186.0606122998071
 21
16.07418628445369
 31
0.0
 11
186.028195330148
 21
15.92532288171316
 31
0.0
 11
185.985770496161
 21
15.75844135397709
 31
0.0
  0
LWPOLYLINE
  5
B5
102
{ACAD_REACTORS
330
D0
102
}
330
48
100
AcDbEntity
  8
_U_30EC_U_30A4_U_30E4_U_30FC_1
  6
Continuous
 62
     2
100
AcDbPolyline
 90
        5
 70
     1
 43
0.0
 10
191.1602971697032
 20
15.39722336795629
 10
192.4578138032672
 20
15.39722336795629
 10
192.4578138032672
 20
15.22875434022059
 10
191.1602971697032
 20
15.22875434022059
 10
191.1602971697032
 20
15.39722336795629
  0
MTEXT
  5
B7
330
48
100
AcDbEntity
  8
1
 62
   250
100
AcDbMText
 10
24.99999999999998
 20
5.0
 30
0.0
 40
3.5
 41
0.0
 71
     4
 72
     1
  1
備考欄の文字列 原点位置=4
  7
CONVERTER_11
 73
     1
 44
0.54545454545455
  0
MTEXT
  5
B8
330
48
100
AcDbEntity
  8
1
 62
     2
100
AcDbMText
 10
89.49999999999997
 20
24.0
 30
0.0
 40
3.5
 41
0.0
 71
     5
 72
     1
  1
尺度
  7
CONVERTER_11
 73
     1
 44
0.54545454545455
  0
MTEXT
  5
B9
330
48
100
AcDbEntity
  8
1
 62
     2
100
AcDbMText
 10
135.5
 20
25.0
 30
0.0
 40
3.0
 41
0.0
 71
     5
 72
     1
  1
製図
  7
CONVERTER_11
 73
     1
 44
0.59090909090909
  0
MTEXT
  5
BA
330
48
100
AcDbEntity
  8
1
 62
     2
100
AcDbMText
 10
152.5
 20
25.0
 30
0.0
 40
3.0
 41
0.0
 71
     5
 72
     1
  1
設計
  7
CONVERTER_11
 73
     1
 44
0.59090909090909
  0
MTEXT
  5
BB
330
48
100
AcDbEntity
  8
1
 62
     2
100
AcDbMText
 10
118.5
 20
25.0
 30
0.0
 40
3.0
 41
0.0
 71
     5
 72
     1
  1
検図
  7
CONVERTER_11
 73
     1
 44
0.59090909090909
  0
MTEXT
  5
BC
330
48
100
AcDbEntity
  8
1
 62
     2
100
AcDbMText
 10
175.0
 20
23.5
 30
0.0
 40
3.5
 41
0.0
 71
     5
 72
     1
  1
第三角法
  7
CONVERTER_11
 73
     1
 44
0.54545454545455
  0
MTEXT
  5
BD
330
48
100
AcDbEntity
  8
1
 62
     2
100
AcDbMText
 10
101.5
 20
25.0
 30
0.0
 40
3.0
 41
0.0
 71
     5
 72
     1
  1
承認
  7
CONVERTER_11
 73
     1
 44
0.59090909090909
  0
MTEXT
  5
BE
330
48
100
AcDbEntity
  8
1
 62
     2
100
AcDbMText
 10
28.99999999999997
 20
14.25
 30
0.0
 40
3.5
 41
0.0
 71
     5
 72
     1
  1
品番
  7
CONVERTER_11
 73
     1
 44
0.72727272727273
  0
MTEXT
  5
BF
330
48
100
AcDbEntity
  8
1
 62
     2
100
AcDbMText
 10
28.99999999999997
 20
22.75
 30
0.0
 40
3.5
 41
0.0
 71
     5
 72
     1
  1
品名
  7
CONVERTER_11
 73
     1
 44
0.72727272727273
  0
MTEXT
  5
C0
330
48
100
AcDbEntity
  8
1
 62
     2
100
AcDbMText
 10
28.99999999999997
 20
33.99999999999999
 30
0.0
 40
3.5
 41
0.0
 71
     5
 72
     1
  1
備考
  7
CONVERTER_11
 73
     1
 44
0.45454545454545
  0
MTEXT
  5
C1
330
48
100
AcDbEntity
  8
1
 62
     2
100
AcDbMText
 10
32.49999999999997
 20
282.0000000000003
 30
0.0
 40
5.0
 41
0.0
 71
     5
 72
     1
  1
図番
  7
CONVERTER_11
 73
     1
 44
0.45454545454545
  0
HATCH
  5
C2
330
48
100
AcDbEntity
  8
1
  6
Continuous
 62
     2
100
AcDbHatch
 10
0.0
 20
0.0
 30
0.0
210
0.0
220
0.0
230
1.0
  2
CUSTOM0
 70
     0
 71
     1
 91
        1
 92
        1
 93
        1
 72
     4
 94
        3
 73
     0
 74
     0
 95
       99
 96
       95
 40
0.0
 40
0.0
 40
0.0
 40
0.0
 40
0.079641717227247
 40
0.1621768542355659
 40
0.2486489160957121
 40
0.34049696685241
 40
0.4381912511164181
 40
0.5434463660244512
 40
0.6518115192846852
 40
0.7530190937886367
 40
0.8492196919725025
 40
0.9419290312997803
 40
1.034249663569999
 40
1.129078600620175
 40
1.226697027573232
 40
1.32722042542168
 40
1.470572134938019
 40
1.595489863371179
 40
1.719934125348426
 40
1.850576620127468
 40
1.989059629987348
 40
2.13413905422696
 40
2.28069800720722
 40
2.424529739039432
 40
2.565929576985849
 40
2.708239260773593
 40
2.861717887443718
 40
3.045168540347354
 40
3.183798301138612
 40
3.314813961455499
 40
3.442083470447349
 40
3.569912708372994
 40
3.702177512509396
 40
3.842307559659652
 40
3.992872223246018
 40
4.156750662218349
 40
4.31098186110757
 40
4.445859909322608
 40
4.572393936131605
 40
4.701656719782069
 40
4.768279086008579
 40
4.835960697898505
 40
4.912788918729456
 40
5.006285208481657
 40
5.026909478751733
 40
5.047533749021298
 40
5.101808031471325
 40
5.162325165538645
 40
5.226919745995963
 40
5.294231806596823
 40
5.364544852554962
 40
5.438319055467948
 40
5.517877651324281
 40
5.607647714861677
 40
5.700449642544521
 40
5.788251142364243
 40
5.872714706039841
 40
5.955167292575421
 40
6.037192395190462
 40
6.120669181469141
 40
6.206848616686413
 40
6.296680855416875
 40
6.442558392872646
 40
6.568190371608345
 40
6.692904567360443
 40
6.824220446557189
 40
6.963121850329437
 40
7.107843738851234
 40
7.253431663907369
 40
7.395187468036846
 40
7.53314075323783
 40
7.670550457175394
 40
7.816236511769378
 40
7.987691657359329
 40
8.142277421969371
 40
8.29366261541511
 40
8.44296246087938
 40
8.591598316185365
 40
8.7436789923619
 40
8.903725323699307
 40
9.076307008890627
 40
9.265578604680625
 40
9.459203795360857
 40
9.61761981027367
 40
9.75360967136204
 40
9.87487330000414
 40
9.954520184977804
 40
10.02416413719244
 40
10.09769764405448
 40
10.18909955924975
 40
10.20974586420136
 40
10.23039218263382
 40
10.30057101881265
 40
10.37632012987551
 40
10.37632012987551
 40
10.37632012987551
 40
10.37632012987551
 10
170.1465954835851
 20
14.1379566321599
 10
170.1632217851219
 20
14.11720608845311
 10
170.1970784206578
 20
14.07495111711906
 10
170.2599822541035
 20
14.02029811392069
 10
170.3332500940393
 20
13.97299025121055
 10
170.4175969238636
 20
13.93527231437938
 10
170.513224061546
 20
13.91040619731952
 10
170.6171853775346
 20
13.90309559345932
 10
170.7224020220405
 20
13.91142322794054
 10
170.8206626371334
 20
13.94149179651525
 10
170.9058986427548
 20
13.98848822971875
 10
170.9779220206103
 20
14.04952991250857
 10
171.0350917709096
 20
14.12412969578584
 10
171.076786874744
 20
14.21002464660168
 10
171.1026952846292
 20
14.30485850432212
 10
171.1118037332653
 20
14.41854979038367
 10
171.0986864796488
 20
14.54332587770777
 10
171.0325330334415
 20
14.660147191719
 10
170.9369370919569
 20
14.74512539577373
 10
170.8249681022369
 20
14.81416684459164
 10
170.6993659583269
 20
14.8720414204589
 10
170.5656691620857
 20
14.92373723284339
 10
170.4313122818831
 20
14.97899092397179
 10
170.3051983986877
 20
15.04939770641649
 10
170.1926579987535
 20
15.13785540731246
 10
170.0969963064458
 20
15.24981067868474
 10
170.0334157151825
 20
15.39949910101383
 10
170.0200706505016
 20
15.5593279438514
 10
170.0320510987448
 20
15.71048405306842
 10
170.0712298928841
 20
15.83809244591539
 10
170.135498775091
 20
15.95080874030845
 10
170.2238204999741
 20
16.04648609268686
 10
170.3338091207628
 20
16.12354214985754
 10
170.4632284401265
 20
16.1815139693628
 10
170.6111838967793
 20
16.21739177588819
 10
170.7682069455487
 20
16.22746719050561
 10
170.917494046643
 20
16.21863637762588
 10
171.0596253614169
 20
16.19074899340356
 10
171.1595922609625
 20
16.13413314701136
 10
171.3125074736186
 20
16.0867460210551
 10
171.2455131717169
 20
16.00197553001187
 10
171.229647912027
 20
15.93438901873484
 10
171.1978750531298
 20
15.86926092793191
 10
171.2150202209571
 20
15.76723453256954
 10
171.1666427208232
 20
15.77493211681904
 10
171.1315789440765
 20
15.76806771724808
 10
171.1296697985719
 20
15.83263831158198
 10
171.0985692931989
 20
15.87825639621393
 10
171.0664551628456
 20
15.93561036628455
 10
171.0208038475168
 20
15.98540462692555
 10
170.9658508218387
 20
16.02994813718995
 10
170.9010841173008
 20
16.06763988836549
 10
170.8232377310597
 20
16.0928337579135
 10
170.7355160553352
 20
16.09931230998107
 10
170.6452903277807
 20
16.09235709285607
 10
170.5594594694064
 20
16.06909190460928
 10
170.4828343638596
 20
16.03131644107541
 10
170.4165265636201
 20
15.98051641089575
 10
170.3622560536964
 20
15.91731143407208
 10
170.3224925345459
 20
15.84276455710366
 10
170.2976775510587
 20
15.75917313997766
 10
170.2892124262869
 20
15.65192948382285
 10
170.3019697987103
 20
15.52965457267561
 10
170.3681548409272
 20
15.41149724291212
 10
170.4640977399833
 20
15.32606325709532
 10
170.5757914963182
 20
15.25583362306726
 10
170.7010863668702
 20
15.19659162305305
 10
170.8349823941447
 20
15.14616708086129
 10
170.968993033315
 20
15.09322516984381
 10
171.0950885316916
 20
15.02750170625179
 10
171.2076216638417
 20
14.94480352537315
 10
171.3031370284233
 20
14.83996006310075
 10
171.3672706486963
 20
14.69937117251567
 10
171.3811103725278
 20
14.54065409451592
 10
171.367395471223
 20
14.38153155217875
 10
171.3244739153984
 20
14.23483828819211
 10
171.2545906329065
 20
14.10119796587145
 10
171.157459221383
 20
13.98532387699288
 10
171.0347806023658
 20
13.89089981770088
 10
170.8874408413168
 20
13.82179270651982
 10
170.7177132497125
 20
13.77953210858854
 10
170.5317404979597
 20
13.76781736230405
 10
170.3528955926183
 20
13.77809486683438
 10
170.1881733753743
 20
13.81966573769152
 10
170.0834410841056
 20
13.88797642883942
 10
169.9350960790367
 20
13.93675219032109
 10
169.9980378194729
 20
14.02976591290843
 10
170.0072274430059
 20
14.1029653624828
 10
170.0303711301232
 20
14.16936294501345
 10
170.0034588335317
 20
14.26974809527581
 10
170.0521338956339
 20
14.26234033517379
 10
170.0916530580697
 20
14.26894063620895
 10
170.0996204944702
 20
14.19078703218932
 10
170.1305436967923
 20
14.15600927375855
 10
170.1465954835851
 20
14.1379566321599
 97
        1
330
A4
 75
     1
 76
     2
 52
45.0
 41
0.1
 77
     0
 78
     1
 53
45.0
 43
0.0
 44
0.0
 45
-0.282842712474619
 46
0.0
 79
     0
 98
        1
 10
0.0
 20
0.0
  0
HATCH
  5
C3
330
48
100
AcDbEntity
  8
1
  6
Continuous
 62
     2
100
AcDbHatch
 10
0.0
 20
0.0
 30
0.0
210
0.0
220
0.0
230
1.0
  2
CUSTOM1
 70
     0
 71
     1
 91
        2
 92
        1
 93
        1
 72
     4
 94
        3
 73
     0
 74
     0
 95
       57
 96
       53
 40
0.0
 40
0.0
 40
0.0
 40
0.0
 40
0.047163208280866
 40
0.0914861054632134
 40
0.135776251970237
 40
0.1826527001610665
 40
0.2295203288572573
 40
0.2737751972220743
 40
0.3181310461543041
 40
0.3652607198398472
 40
0.4571007286314065
 40
0.5671851029165085
 40
0.6894623283868088
 40
0.8181758272545763
 40
0.951008722927372
 40
1.085852229674064
 40
1.218126164475331
 40
1.343545131142391
 40
1.454537202956807
 40
1.567187607530816
 40
1.680710966642406
 40
1.794226869736713
 40
1.900009184247598
 40
2.004085860447877
 40
2.108162674451736
 40
2.214000150155309
 40
2.49603857735217
 40
2.762350745479282
 40
2.997275353279438
 40
3.185110082137746
 40
3.246407890063916
 40
3.312607550212702
 40
3.378877742711575
 40
3.440140399651457
 40
4.100501696006459
 40
4.754913085563561
 40
5.411331693423904
 40
6.077890432568676
 40
6.110575292670955
 40
6.143260152775735
 40
6.367989363395095
 40
6.610525374951471
 40
6.863389136467257
 40
7.119380025547508
 40
7.376036605091047
 40
7.631164770966247
 40
7.876722425456392
 40
8.104953735855897
 40
8.312916685924288
 40
8.497730294941222
 40
8.651018984313774
 40
8.764738853624518
 40
8.764738853624518
 40
8.764738853624518
 40
8.764738853624518
 10
174.7922649500513
 20
13.81626739612929
 10
174.7766616726931
 20
13.8182623107908
 10
174.7463947960302
 20
13.82213201360301
 10
174.7010994202252
 20
13.82341984967264
 10
174.6559553129349
 20
13.82308683554049
 10
174.60990171234
 20
13.82314658674222
 10
174.5640496172097
 20
13.82325813649999
 10
174.5183711648164
 20
13.82277833456587
 10
174.4750811541608
 20
13.82461109618723
 10
174.4039947951513
 20
13.80049556814658
 10
174.4057477261442
 20
13.92184693977255
 10
174.3586196370569
 20
14.00726239751231
 10
174.3191478251763
 20
14.12486929345137
 10
174.2706635532645
 20
14.24232752540438
 10
174.2201017402522
 20
14.3640593576151
 10
174.1718634610477
 20
14.49075967862468
 10
174.1135232947595
 20
14.59933687784956
 10
174.0980892667261
 20
14.75620657134413
 10
173.9566586330636
 20
14.72373446548326
 10
173.8508397414903
 20
14.73512888682179
 10
173.7358569725222
 20
14.73392591514614
 10
173.6253142252141
 20
14.73506945347404
 10
173.5176583522783
 20
14.73418350037524
 10
173.4121322529242
 20
14.73416602390518
 10
173.3109192682013
 20
14.72714032472419
 10
173.1266804827753
 20
14.7513585985987
 10
173.1157393685411
 20
14.44741691121889
 10
173.0087691634751
 20
14.22353177253393
 10
172.9098148604347
 20
14.03895314292499
 10
172.9225090524008
 20
13.79530204804209
 10
172.8050091716397
 20
13.825080467532
 10
172.7422055868311
 20
13.82258089509599
 10
172.67858720934
 20
13.82344075102807
 10
172.3946014194074
 20
13.78098039941946
 10
173.0251638499382
 20
14.50081952444788
 10
173.1087645289071
 20
15.01276539435732
 10
173.4929252789338
 20
15.53353743550042
 10
173.4777208288567
 20
16.23519626253214
 10
173.7239265722696
 20
16.22345633081253
 10
173.8256346157562
 20
16.23225004452771
 10
173.8249752035818
 20
15.98059650730347
 10
173.9428317155828
 20
15.7981802073396
 10
174.0315515260484
 20
15.55563740662868
 10
174.1322292485259
 20
15.32340030530129
 10
174.2311142712243
 20
15.08674644566914
 10
174.3299676990668
 20
14.8546173917009
 10
174.4256166390926
 20
14.63122222788791
 10
174.5159904573271
 20
14.42272549049313
 10
174.598994456819
 20
14.23308448529322
 10
174.6726088582799
 20
14.066631060681
 10
174.7342815895546
 20
13.929176996261
 10
174.7749458885604
 20
13.84999239430036
 10
174.7922649500513
 20
13.81626739612929
 97
        1
330
A5
 92
       16
 93
        1
 72
     4
 94
        3
 73
     0
 74
     0
 95
       25
 96
       21
 40
0.0
 40
0.0
 40
0.0
 40
0.0
 40
0.0911479969064535
 40
0.1858117896203809
 40
0.2804128399734203
 40
0.3715889190713655
 40
0.4679080494217853
 40
0.5642683809229228
 40
0.6605683222644134
 40
0.7569653015809398
 40
0.8561348172521849
 40
1.09261596510418
 40
1.374867658141755
 40
1.611348812011435
 40
1.710518328425092
 40
1.809403163726396
 40
2.045205463293911
 40
2.326646917621948
 40
2.562449217190413
 40
2.661334043833716
 40
2.661334043833716
 40
2.661334043833716
 40
2.661334043833716
 10
173.26837005672
 20
14.8861453819729
 10
173.2987525917924
 20
14.88598079714554
 10
173.3606895889112
 20
14.88564528689922
 10
173.4541356960331
 20
14.88269055452001
 10
173.5475095236358
 20
14.87977752877152
 10
173.6417760753477
 20
14.87894201643415
 10
173.7354964790967
 20
14.87996644658046
 10
173.8352040303204
 20
14.8791697747097
 10
173.9188949546314
 20
14.88921410235218
 10
174.0637996315044
 20
14.86234617674162
 10
173.9396132444801
 20
15.03665530280046
 10
173.8965867286282
 20
15.19651711006089
 10
173.780892214221
 20
15.45518458550208
 10
173.7017565431258
 20
15.59231052861856
 10
173.6431576621816
 20
15.8093703313407
 10
173.586480393944
 20
15.59266134213421
 10
173.5052809900477
 20
15.45327012438234
 10
173.4063701281489
 20
15.20406969370189
 10
173.325362509426
 20
15.01925830226072
 10
173.2813683325839
 20
14.91650446856114
 10
173.26837005672
 20
14.8861453819729
 97
        1
330
A6
 75
     1
 76
     2
 52
45.0
 41
0.1
 77
     0
 78
     1
 53
45.0
 43
0.0
 44
0.0
 45
-0.282842712474619
 46
0.0
 79
     0
 98
        1
 10
0.0
 20
0.0
  0
HATCH
  5
C4
330
48
100
AcDbEntity
  8
1
  6
Continuous
 62
     2
100
AcDbHatch
 10
0.0
 20
0.0
 30
0.0
210
0.0
220
0.0
230
1.0
  2
CUSTOM2
 70
     0
 71
     1
 91
        1
 92
        1
 93
        1
 72
     4
 94
        3
 73
     0
 74
     0
 95
       95
 96
       91
 40
0.0
 40
0.0
 40
0.0
 40
0.0
 40
0.6550406656910964
 40
1.308087289031837
 40
1.420803739835672
 40
1.566130759770711
 40
1.757067341888358
 40
2.00651354502634
 40
2.087328263121431
 40
2.185328872295543
 40
2.294612454748286
 40
2.408936380534705
 40
2.52680276779846
 40
2.646360524615512
 40
2.762535723971487
 40
2.87005734287005
 40
2.966883448431541
 40
3.050803243518229
 40
3.115818222436515
 40
3.156030057150133
 40
3.213914225080118
 40
3.276689026450518
 40
3.342960320981238
 40
3.404230667150542
 40
3.453822809493347
 40
3.53249982718844
 40
3.634775188507124
 40
3.754909333008097
 40
3.889736761660639
 40
4.035769602175239
 40
4.187256681197609
 40
4.338733685675985
 40
4.488478734676091
 40
4.634708317831524
 40
4.771493189921276
 40
4.89268657156118
 40
5.199775528944411
 40
5.460353566929645
 40
5.667603142345468
 40
5.814722905404434
 40
5.828990806219732
 40
5.855488336304429
 40
5.869756237118761
 40
6.189796507762745
 40
6.531890469872954
 40
6.883053637016944
 40
7.230512024911397
 40
7.56696665676454
 40
7.885203559707309
 40
8.172887439719146
 40
8.418011594062737
 40
8.443926721190659
 40
8.510760470613144
 40
8.602145393795652
 40
8.70171404164709
 40
8.79309896507532
 40
8.85993271505789
 40
8.885847842603539
 40
9.242301256612755
 40
9.589275455016748
 40
9.921808543164122
 40
10.23479624298462
 40
10.29968150889172
 40
10.35323493887761
 40
10.40154625355145
 40
10.46482922477829
 40
10.55973900668407
 40
10.69239545985618
 40
10.84920353475676
 40
11.01626328594786
 40
11.18672024367446
 40
11.35372582577215
 40
11.50257442292428
 40
11.61866495023297
 40
11.71329869152879
 40
11.8251105057391
 40
11.9446488084572
 40
12.06929242642511
 40
12.1970729043518
 40
12.32562632860533
 40
12.45034565331284
 40
12.56646595170332
 40
12.67099007414638
 40
12.7607762593679
 40
12.82703233506699
 40
12.87429132785999
 40
12.89831990323338
 40
12.92234847860026
 40
13.53984767410334
 40
14.18294284359381
 40
14.18294284359381
 40
14.18294284359381
 40
14.18294284359381
 10
177.3067935648021
 20
14.70898038201729
 10
177.1752019758551
 20
14.82265058603236
 10
176.9124193802728
 20
15.04964496316161
 10
176.3997393441024
 20
15.89214462956284
 10
176.4106654595362
 20
15.5342337757702
 10
176.4041226527991
 20
15.39267392272134
 10
176.4028026631773
 20
15.19421305299281
 10
176.4018117602537
 20
15.02150296045984
 10
176.4024101751975
 20
14.87865373257581
 10
176.4038994301883
 20
14.78265005413358
 10
176.4055683588473
 20
14.67545503263141
 10
176.4071934954617
 20
14.56164211517582
 10
176.4092429501687
 20
14.44441572604589
 10
176.4123165501927
 20
14.3265641123297
 10
176.4156339697043
 20
14.2122808732062
 10
176.419360534028
 20
14.10521401867277
 10
176.4217338161424
 20
14.01007408766921
 10
176.4278718888357
 20
13.92558557205694
 10
176.4239784495948
 20
13.8692308729814
 10
176.4455230443078
 20
13.79825022472355
 10
176.3680940058618
 20
13.82902677604485
 10
176.3116353240191
 20
13.82011242517609
 10
176.2540495896807
 20
13.82896218398276
 10
176.1690163478472
 20
13.79738225225945
 10
176.2009714146383
 20
13.88095155992191
 10
176.1990705282539
 20
13.94882608968312
 10
176.2107960047301
 20
14.05233256764417
 10
176.2164241052999
 20
14.17002125616694
 10
176.2237902178942
 20
14.30388609164424
 10
176.2320759701611
 20
14.44764152872634
 10
176.2398851897428
 20
14.59714022843449
 10
176.2457571222657
 20
14.74792549402081
 10
176.2503667817969
 20
14.89699943878439
 10
176.2542632117541
 20
15.04122913163022
 10
176.2570715126564
 20
15.17583905213017
 10
176.2576698755024
 20
15.36469614347356
 10
176.2616023867151
 20
15.58975494313154
 10
176.2442175378499
 20
15.86367091125709
 10
176.2850417342582
 20
16.02787112098596
 10
176.1995153256003
 20
16.22749661465095
 10
176.2660558907688
 20
16.22385458403975
 10
176.283872427323
 20
16.22413447160851
 10
176.4056801797506
 20
16.22632927398612
 10
176.5080770335461
 20
15.94675118721512
 10
176.7580021509356
 20
15.74563008535999
 10
176.987003533111
 20
15.47792614987914
 10
177.2245151213109
 20
15.22646413862374
 10
177.4486090740772
 20
14.98969974061363
 10
177.675071628301
 20
14.7321869258308
 10
177.8325687886514
 20
14.61649335056921
 10
178.0472129612675
 20
14.27997152538795
 10
178.0422645974619
 20
14.40464754091604
 10
178.0433931602547
 20
14.46327691935738
 10
178.0428877841517
 20
14.55043662371978
 10
178.0430475158114
 20
14.64416143182872
 10
178.0430054891319
 20
14.73018971297035
 10
178.0430202040374
 20
14.79153891945495
 10
178.0429706255984
 20
14.94135231520992
 10
178.0458811522811
 20
15.17989612510106
 10
178.0259521041161
 20
15.54486509868702
 10
178.0750433936248
 20
15.80799631993415
 10
177.917795150918
 20
16.2192890494775
 10
178.0762112872421
 20
16.16398282551749
 10
178.1311680478628
 20
16.16199686500178
 10
178.182788776674
 20
16.16264778248253
 10
178.2713198965366
 20
16.20369527738246
 10
178.2204898303169
 20
16.05696326622992
 10
178.2313389930283
 20
15.95019971954435
 10
178.2166036994847
 20
15.79085705414113
 10
178.2099976446204
 20
15.62853061652874
 10
178.2014961399914
 20
15.45992521892395
 10
178.19432272022
 20
15.29814814703542
 10
178.1889063215389
 20
15.15422331457933
 10
178.1871713967648
 20
15.03437493466926
 10
178.1875440672319
 20
14.92686101590515
 10
178.1873656126263
 20
14.81820024645586
 10
178.1877010863139
 20
14.69953570165531
 10
178.1890040622184
 20
14.57555163512741
 10
178.1908887351574
 20
14.44858294171105
 10
178.1925004454851
 20
14.32153861551032
 10
178.194140313743
 20
14.19854884492178
 10
178.1962570745751
 20
14.08300931383759
 10
178.1963848422364
 20
13.98090903955837
 10
178.2006514396554
 20
13.89009848838156
 10
178.190844008529
 20
13.83213621208784
 10
178.211847477169
 20
13.76517130132028
 10
178.1725639739898
 20
13.77291153966686
 10
177.9595307117746
 20
13.75755254145194
 10
177.7636297943187
 20
14.31403058094467
 10
177.4611197631544
 20
14.57556035348513
 10
177.3067935648021
 20
14.70898038201729
 97
        1
330
A7
 75
     1
 76
     2
 52
45.0
 41
0.1
 77
     0
 78
     1
 53
45.0
 43
0.0
 44
0.0
 45
-0.282842712474619
 46
0.0
 79
     0
 98
        1
 10
0.0
 20
0.0
  0
HATCH
  5
C5
330
48
100
AcDbEntity
  8
1
  6
Continuous
 62
     2
100
AcDbHatch
 10
0.0
 20
0.0
 30
0.0
210
0.0
220
0.0
230
1.0
  2
CUSTOM3
 70
     0
 71
     1
 91
        1
 92
        1
 93
        1
 72
     4
 94
        3
 73
     0
 74
     0
 95
      110
 96
      106
 40
0.0
 40
0.0
 40
0.0
 40
0.0
 40
0.2203406257277684
 40
0.4407808782838195
 40
0.5952494494614609
 40
0.7488431659393198
 40
0.90235818313086
 40
1.056801968670415
 40
1.21073644909983
 40
1.363041386539707
 40
1.51531572968308
 40
1.669377239148088
 40
1.721611652756582
 40
1.773199502942896
 40
1.824933793209979
 40
1.877110426487934
 40
1.982682281206724
 40
2.07878166708759
 40
2.172809640822281
 40
2.271937807378878
 40
2.378349933379358
 40
2.494131557736547
 40
2.62668168394368
 40
2.783145050796108
 40
2.890701232940931
 40
2.993130312454787
 40
3.099869730691815
 40
3.220237816691307
 40
3.352695482737573
 40
3.481732806389805
 40
3.593499473690364
 40
3.674323013331831
 40
3.817951711952724
 40
3.946167120793693
 40
4.061405053453407
 40
4.166480796003019
 40
4.262478775059111
 40
4.350736673551012
 40
4.433071991253898
 40
4.511216293814503
 40
4.564262454117829
 40
4.618474415571475
 40
4.6701284887541
 40
4.722296879126297
 40
4.819540945314167
 40
4.931194984128022
 40
5.049996040257638
 40
5.168643755415212
 40
5.283970811762424
 40
5.39226078491025
 40
5.486512254876296
 40
5.559178233949639
 40
5.591425852853291
 40
5.626215969637684
 40
5.667155838674223
 40
5.717449290214074
 40
5.738402360944687
 40
5.784499116553653
 40
5.830595872164623
 40
5.851548942897481
 40
5.873019280661594
 40
5.924217778408136
 40
5.985325662817512
 40
6.036524160567523
 40
6.057994498334051
 40
6.236847789607299
 40
6.381409928945494
 40
6.493190424178486
 40
6.574067534230253
 40
6.691018086205376
 40
6.814881554220265
 40
6.944307823240218
 40
7.07126671606584
 40
7.193488604461686
 40
7.309042773127996
 40
7.414007203170565
 40
7.505140441886292
 40
7.531150360599431
 40
7.55922164532203
 40
7.58720221892067
 40
7.612569159498901
 40
7.662550809480751
 40
7.702878875763859
 40
7.857328205230673
 40
8.010799568088318
 40
8.165256399657268
 40
8.322232698713607
 40
8.479564855016266
 40
8.635216230290412
 40
8.790882550925387
 40
8.948305154946896
 40
9.16827183903258
 40
9.38735898098682
 40
9.608047961033096
 40
9.832914234792321
 40
9.858338694962654
 40
9.925366817229657
 40
10.02013071422723
 40
10.12876249858961
 40
10.23739428295211
 40
10.33215817995152
 40
10.39918630222355
 40
10.42461076239744
 40
10.64992019336905
 40
10.87188524531147
 40
10.87188524531147
 40
10.87188524531147
 40
10.87188524531147
 10
179.9057788376619
 20
15.73923260398189
 10
179.9092864933541
 20
15.80616462073803
 10
179.9163033987662
 20
15.94005891915857
 10
179.8198027599074
 20
16.22548554971468
 10
180.0510134726109
 20
16.16284386190284
 10
180.1919290057157
 20
16.17001554055982
 10
180.3490417757589
 20
16.16235883078246
 10
180.5025913427288
 20
16.16252752283042
 10
180.6545104935081
 20
16.16182040535434
 10
180.8142214813232
 20
16.1721015835163
 10
180.9408972601118
 20
16.15496511080751
 10
181.1370821122081
 20
16.22727260107148
 10
181.1034395279079
 20
16.12640699080119
 10
181.1052011317184
 20
16.07619253947673
 10
181.102734207346
 20
16.02712335586471
 10
181.1347076966011
 20
15.94063490847003
 10
181.0010399903256
 20
15.98997438608338
 10
180.9172208688057
 20
15.98430634314172
 10
180.8173861139324
 20
15.99465516706297
 10
180.7186576720146
 20
16.00086450411086
 10
180.6121532771111
 20
16.0069776381678
 10
180.4910511698059
 20
16.01588883484592
 10
180.3703381502453
 20
16.00521605912382
 10
180.1812553843437
 20
16.06468503080364
 10
180.2129028505311
 20
15.90558320077541
 10
180.1995563316834
 20
15.80839128339906
 10
180.197495842645
 20
15.69634065110104
 10
180.1958188044672
 20
15.57699685629351
 10
180.1973336794234
 20
15.45032592155112
 10
180.1956582478669
 20
15.32301588016119
 10
180.2058844271659
 20
15.22451566404468
 10
180.1779006596583
 20
15.08388702625639
 10
180.3508029999306
 20
15.13989551134094
 10
180.4645020202771
 20
15.127199514785
 10
180.5840151672239
 20
15.13448377051257
 10
180.6888491425072
 20
15.1387801705676
 10
180.7843084898612
 20
15.14330568258974
 10
180.8763823507031
 20
15.15149201146203
 10
180.947655178244
 20
15.14643850638113
 10
181.0544931705685
 20
15.18536425031681
 10
181.0226603598036
 20
15.10517122005882
 10
181.0266164503931
 20
15.05562936846035
 10
181.0234502392013
 20
15.00557478039818
 10
181.0550791490585
 20
14.9212884761202
 10
180.9210133677691
 20
14.97425365495157
 10
180.8292322793201
 20
14.96540080890436
 10
180.7079729189603
 20
14.9757004996516
 10
180.5914113119771
 20
14.97748911767499
 10
180.4783375745879
 20
14.97787017109695
 10
180.3679246308471
 20
14.98415449472183
 10
180.2898124067841
 20
14.97189133255363
 10
180.1913625833645
 20
15.00453887616126
 10
180.2012355173562
 20
14.94769748054207
 10
180.1973923244402
 20
14.91392130557987
 10
180.1966789884269
 20
14.87119604709411
 10
180.1963369642976
 20
14.83401607262152
 10
180.1963834255346
 20
14.79487237370768
 10
180.1963649429927
 20
14.75716849497683
 10
180.1963703431808
 20
14.71944955232401
 10
180.1963697214201
 20
14.68994324745147
 10
180.1963698151547
 20
14.65873577699299
 10
180.1963704287922
 20
14.61414424908083
 10
180.1963671499338
 20
14.5596395650885
 10
180.1963759623482
 20
14.51505540201446
 10
180.1963359653417
 20
14.43117808585739
 10
180.1976024270257
 20
14.31737520677677
 10
180.1950274117841
 20
14.16830395933708
 10
180.206500938172
 20
14.06597203813906
 10
180.1823506222263
 20
13.93338903885837
 10
180.3332993946476
 20
13.97895732272026
 10
180.4428436671556
 20
13.96427012162355
 10
180.573397047392
 20
13.96920435125065
 10
180.6990312209514
 20
13.97257705323356
 10
180.8188730625601
 20
13.97711497498778
 10
180.9391362611426
 20
13.99048536182001
 10
181.0222761663516
 20
13.98068712782595
 10
181.1456080421074
 20
14.04126214623317
 10
181.1244269203957
 20
13.98532460134017
 10
181.1235950270116
 20
13.95939249372344
 10
181.1218963707558
 20
13.93197256190936
 10
181.1217974888829
 20
13.89738195206383
 10
181.120365930133
 20
13.86050408220767
 10
181.1532804192189
 20
13.76846841021808
 10
180.9551306988107
 20
13.84132015974834
 10
180.8300548294891
 20
13.81825726508603
 10
180.6673071295156
 20
13.82454021985784
 10
180.5129366450001
 20
13.82260943909923
 10
180.3566670436944
 20
13.82393762599266
 10
180.1970544465282
 20
13.82059872487859
 10
180.0540326342237
 20
13.83265795728243
 10
179.8197144881629
 20
13.76952001976922
 10
179.9173810751196
 20
14.05620527466318
 10
179.900686878006
 20
14.2498830814266
 10
179.9146296709685
 20
14.47848242880297
 10
179.9142987846631
 20
14.63384593955051
 10
179.9143078119264
 20
14.7396633644413
 10
179.9143055876315
 20
14.80205784124217
 10
179.9143065551889
 20
14.89220425248329
 10
179.9143065473261
 20
14.99621167157439
 10
179.9143053861102
 20
15.10022131375298
 10
179.9143090971502
 20
15.19036243688768
 10
179.9143011051052
 20
15.25276803097215
 10
179.9143334275017
 20
15.35868835961118
 10
179.9131440788321
 20
15.51626716544741
 10
179.9082216489257
 20
15.66528219822064
 10
179.9057788376619
 20
15.73923260398189
 97
        1
330
A8
 75
     1
 76
     2
 52
45.0
 41
0.1
 77
     0
 78
     1
 53
45.0
 43
0.0
 44
0.0
 45
-0.282842712474619
 46
0.0
 79
     0
 98
        1
 10
0.0
 20
0.0
  0
HATCH
  5
C6
330
48
100
AcDbEntity
  8
1
  6
Continuous
 62
     2
100
AcDbHatch
 10
0.0
 20
0.0
 30
0.0
210
0.0
220
0.0
230
1.0
  2
CUSTOM4
 70
     0
 71
     1
 91
        1
 92
        1
 93
        1
 72
     4
 94
        3
 73
     0
 74
     0
 95
       47
 96
       43
 40
0.0
 40
0.0
 40
0.0
 40
0.0
 40
0.2207912809957319
 40
0.4459404186303344
 40
0.4902387190459855
 40
0.5327473892722587
 40
0.5742260451226145
 40
0.6155432630561999
 40
0.6568164066316342
 40
0.6982511618780933
 40
0.7407663929317503
 40
0.7851366743175578
 40
1.010288833836374
 40
1.231080507002237
 40
1.451765243652412
 40
1.6766382058917
 40
1.720461045359671
 40
1.830018144043531
 40
1.972442372353162
 40
2.114866600677528
 40
2.224423699395149
 40
2.26824653888339
 40
2.493628801207231
 40
2.715602830286661
 40
2.934211330706416
 40
3.149502369855378
 40
3.231387784850938
 40
3.318231873853973
 40
3.405143198198045
 40
3.486970301720481
 40
3.702258172493894
 40
3.920866283534124
 40
4.142839325931947
 40
4.368221903865419
 40
4.412044743359899
 40
4.521601842095909
 40
4.664026070452388
 40
4.806450298809097
 40
4.916007397546786
 40
4.959830237043108
 40
5.184703515847144
 40
5.405387250767468
 40
5.405387250767468
 40
5.405387250767468
 40
5.405387250767468
 10
182.6507427258645
 20
15.73406440953869
 10
182.6568139420002
 20
15.79758482501208
 10
182.6690762107242
 20
15.92587938689626
 10
182.5604706879412
 20
16.20166220174076
 10
182.6761985896604
 20
16.17188133432055
 10
182.7171842509016
 20
16.16765556262811
 10
182.7591205797519
 20
16.16310446389608
 10
182.800419662571
 20
16.16201982929487
 10
182.8417032115556
 20
16.16310338195229
 10
182.8836148270647
 20
16.16766112711334
 10
182.9245983549019
 20
16.17187430209729
 10
183.0404922843488
 20
16.20177611317532
 10
182.9295652727457
 20
15.92339806609888
 10
182.9574856365266
 20
15.74283140824951
 10
182.940426734697
 20
15.50961042346472
 10
182.9414637282102
 20
15.34906622543148
 10
182.9414099399405
 20
15.22284817558724
 10
182.941427737248
 20
15.12428963336243
 10
182.9414188581081
 20
14.99280702442966
 10
182.9414263928033
 20
14.86132844968652
 10
182.9414129405129
 20
14.76276222694093
 10
182.9414531717492
 20
14.63639735624154
 10
182.9406746403818
 20
14.47482068822872
 10
182.9565958319266
 20
14.24361821892914
 10
182.9333468885408
 20
14.05874351972003
 10
183.0360183444366
 20
13.78935602770058
 10
182.8820238362837
 20
13.82660112685819
 10
182.8004129802833
 20
13.8213799468053
 10
182.7188192292583
 20
13.82660620378353
 10
182.5648513666842
 20
13.78937069885388
 10
182.6674183421918
 20
14.0587512986288
 10
182.6442045316088
 20
14.24361585325415
 10
182.6600444655139
 20
14.47482218565639
 10
182.6593296313429
 20
14.63639712308506
 10
182.6593664569907
 20
14.76276231210523
 10
182.6593549000272
 20
14.86132756635985
 10
182.6593575019214
 20
14.99281127417221
 10
182.659364853178
 20
15.12427548031202
 10
182.6593442541351
 20
15.22287786275327
 10
182.6594082192029
 20
15.34896149354429
 10
182.658173394759
 20
15.51210091383772
 10
182.6532040396746
 20
15.66054183777548
 10
182.6507427258645
 20
15.73406440953869
 97
        1
330
A9
 75
     1
 76
     2
 52
45.0
 41
0.1
 77
     0
 78
     1
 53
45.0
 43
0.0
 44
0.0
 45
-0.282842712474619
 46
0.0
 79
     0
 98
        1
 10
0.0
 20
0.0
  0
HATCH
  5
C7
330
48
100
AcDbEntity
  8
1
  6
Continuous
 62
     2
100
AcDbHatch
 10
0.0
 20
0.0
 30
0.0
210
0.0
220
0.0
230
1.0
  2
CUSTOM5
 70
     0
 71
     1
 91
        1
 92
        1
 93
        1
 72
     4
 94
        3
 73
     0
 74
     0
 95
      118
 96
      114
 40
0.0
 40
0.0
 40
0.0
 40
0.0
 40
0.1054708162973396
 40
0.2466098270052106
 40
0.3965912874591624
 40
0.5285525069754572
 40
0.6156245055642768
 40
0.6431434105798066
 40
0.7036850037986896
 40
0.7642265984505433
 40
0.7917455052355905
 40
0.9287404319990399
 40
1.10657281908807
 40
1.287544879681105
 40
1.317578308030622
 40
1.399928030857259
 40
1.522968204800035
 40
1.675072986590656
 40
1.844616533180735
 40
2.019973001638798
 40
2.18951654888011
 40
2.341621331585449
 40
2.464661506320583
 40
2.547011229647149
 40
2.577044658168113
 40
2.603797890893183
 40
2.66265500290887
 40
2.721512114949682
 40
2.748265347702862
 40
2.774215307344939
 40
2.845959313407274
 40
2.954338556588478
 40
3.090194227585663
 40
3.244367517100638
 40
3.407699615844404
 40
3.57103171453956
 40
3.725205003920246
 40
3.861060674729755
 40
3.969439917716453
 40
4.041183923629129
 40
4.067133883213124
 40
4.311886746012338
 40
4.547897258335701
 40
4.764747083044154
 40
4.952749679951941
 40
5.045772974196116
 40
5.137862019645147
 40
5.330543169793173
 40
5.553448265244162
 40
5.795083855888358
 40
6.043293412177435
 40
6.285761695541384
 40
6.313902908752868
 40
6.384255941793458
 40
6.475714884767046
 40
6.567173827759109
 40
6.637526860839887
 40
6.66566807407425
 40
6.69201892032821
 40
6.749990782071253
 40
6.807962643790593
 40
6.834313490018055
 40
6.856393084245334
 40
6.913335195649958
 40
6.991194817302621
 40
7.076026942283883
 40
7.153886563725373
 40
7.210828674844955
 40
7.232908268931291
 40
7.258199334923815
 40
7.32487578159247
 40
7.41914248192514
 40
7.527204308842093
 40
7.635266135230684
 40
7.729532834168681
 40
7.79620927929301
 40
7.82150034459496
 40
7.844652988851031
 40
7.899863140541811
 40
7.965759128053978
 40
8.020969279771263
 40
8.04412192404673
 40
8.069356610160801
 40
8.109134395441593
 40
8.132238100191309
 40
8.193147867786674
 40
8.279261678876853
 40
8.377977512674072
 40
8.476693347146863
 40
8.56280716041192
 40
8.62371693082671
 40
8.646820636853663
 40
8.671988793774476
 40
8.734909185828416
 40
8.81670569518913
 40
8.89850220481573
 40
8.961422597378219
 40
8.986590754551331
 40
9.012941600733475
 40
9.070913462380531
 40
9.128885324081997
 40
9.155236170325306
 40
9.180404327929349
 40
9.24332472194845
 40
9.325121234212244
 40
9.406917746637927
 40
9.46983814197841
 40
9.495006288271185
 40
9.51781118437933
 40
9.572192090487341
 40
9.637098333281584
 40
9.691479239515793
 40
9.714284125643836
 40
9.714284125643836
 40
9.714284125643836
 40
9.714284125643836
 10
185.2874469028653
 20
15.2688916318772
 10
185.3090990569038
 20
15.24111869242812
 10
185.3597257109473
 20
15.17618054561236
 10
185.4349383202591
 20
15.06891060312898
 10
185.5248482274347
 20
14.95377438266625
 10
185.5709169676674
 20
14.8535704574832
 10
185.6655825294656
 20
14.78434006814943
 10
185.6204439320413
 20
14.73771639678273
 10
185.5947047785791
 20
14.6966030886604
 10
185.5645196708012
 20
14.6606597172794
 10
185.5193684730561
 20
14.58579782596097
 10
185.4710504458563
 20
14.80782524253603
 10
185.3968539713073
 20
14.84510677337708
 10
185.2836047324607
 20
15.11610202130599
 10
185.2885133578169
 20
15.00095328446226
 10
185.2868486556306
 20
14.92836675781624
 10
185.2876830076713
 20
14.80625588483983
 10
185.2873609540264
 20
14.65913800810457
 10
185.2875076912456
 20
14.49307063956554
 10
185.2872950092722
 20
14.32187554608599
 10
185.2879497252034
 20
14.15552828635495
 10
185.2859192461139
 20
14.0093517305569
 10
185.291346039993
 20
13.88471047474608
 10
185.2804930868708
 20
13.81718656540623
 10
185.2956739155555
 20
13.7554906141702
 10
185.2457895108134
 20
13.76727503896998
 10
185.2017150342522
 20
13.75943822779966
 10
185.15823716302
 20
13.767604413727
 10
185.1092346786489
 20
13.75538056738465
 10
185.1218731234825
 20
13.8096066724931
 10
185.113018296845
 20
13.86936918907555
 10
185.1175058770314
 20
13.97922029044368
 10
185.1157960135991
 20
14.11029975405677
 10
185.1163550915986
 20
14.26198011444327
 10
185.1161928768693
 20
14.42211074929953
 10
185.1162269924675
 20
14.58236865674568
 10
185.1162514960126
 20
14.73370247520441
 10
185.1161453543225
 20
14.86582156338604
 10
185.1164299141931
 20
14.97294802533196
 10
185.1158675547568
 20
15.03808619579478
 10
185.1180765083688
 20
15.1661895785868
 10
185.0319435998603
 20
14.79097610391578
 10
184.95551408185
 20
14.63918193123393
 10
184.8660040767834
 20
14.47766206446304
 10
184.7640413217327
 20
14.2047184882017
 10
184.7187976491039
 20
14.36717346596507
 10
184.6102355941672
 20
14.4560543205812
 10
184.7995791751753
 20
14.60549794961408
 10
184.85653405457
 20
14.79749136974927
 10
184.9717520993352
 20
15.02899622906757
 10
184.9940151630133
 20
15.21797259759065
 10
185.1771905152139
 20
15.49454089325934
 10
185.0538033597552
 20
15.48698978832099
 10
184.9925684166834
 20
15.48856772366123
 10
184.9081999617064
 20
15.48882592573677
 10
184.8204235085966
 20
15.48544845751211
 10
184.7656768696122
 20
15.49394814982025
 10
184.7104703026025
 20
15.48048561049793
 10
184.7222823035536
 20
15.52931442126766
 10
184.7142496151793
 20
15.57269004896709
 10
184.7228186104678
 20
15.61509438309572
 10
184.7102943409157
 20
15.66267796552115
 10
184.7555101538735
 20
15.65267212995106
 10
184.8014815562723
 20
15.65894105174058
 10
184.877722204771
 20
15.65593561405869
 10
184.9561296131993
 20
15.65770448278538
 10
185.0323992648932
 20
15.65464793981657
 10
185.0783009459474
 20
15.66103971376174
 10
185.12317339654
 20
15.65093822978893
 10
185.1105552275634
 20
15.70157201581896
 10
185.1191936582707
 20
15.75501261882068
 10
185.1152361595443
 20
15.8486325513168
 10
185.1162325068335
 20
15.95112606688924
 10
185.1171927413073
 20
16.05353270248164
 10
185.1133211458005
 20
16.14735929609324
 10
185.1217789814365
 20
16.20036542840356
 10
185.1093075932835
 20
16.25211435651192
 10
185.154210638985
 20
16.2385074722676
 10
185.1955083836772
 20
16.24100480320587
 10
185.2595344281051
 20
16.23648060574488
 10
185.2986111148786
 20
16.22781003043307
 10
185.3476543498742
 20
16.23515102070685
 10
185.3225080030591
 20
16.19602896051754
 10
185.2815901333723
 20
16.2056384245581
 10
185.2910109616604
 20
16.15540148169778
 10
185.2855647318746
 20
16.10385945639489
 10
185.2881699601803
 20
16.01959707584519
 10
185.2870102202154
 20
15.92559135583406
 10
185.2883591064231
 20
15.83196865395523
 10
185.2849970101509
 20
15.7467951755222
 10
185.2920959917769
 20
15.69716856072042
 10
185.2812569154545
 20
15.64993694969986
 10
185.3304010225246
 20
15.66201674936849
 10
185.3794877630146
 20
15.65447393363008
 10
185.4573714280642
 20
15.6568607036143
 10
185.5350365172896
 20
15.65899381905411
 10
185.5845393931356
 20
15.65193391922451
 10
185.6344594750639
 20
15.66360151936211
 10
185.6223198516882
 20
15.61540235371392
 10
185.6305838229144
 20
15.57249219801236
 10
185.6223198650785
 20
15.52958201851388
 10
185.6344594549855
 20
15.48138288754869
 10
185.5845395158747
 20
15.49305034471516
 10
185.5350350651203
 20
15.48599202435051
 10
185.4573784382972
 20
15.48811665228608
 10
185.3794643865761
 20
15.49053389365766
 10
185.3304500352716
 20
15.4829184819449
 10
185.2813246108943
 20
15.49507952557597
 10
185.291555998857
 20
15.45073013424162
 10
185.2856677678054
 20
15.40925436202915
 10
185.2878788305568
 20
15.34915394315305
 10
185.2874109346146
 20
15.3022578276289
 10
185.2874386992913
 20
15.27650146418197
 10
185.2874469028653
 20
15.2688916318772
 97
        1
330
AA
 75
     1
 76
     2
 52
45.0
 41
0.1
 77
     0
 78
     1
 53
45.0
 43
0.0
 44
0.0
 45
-0.282842712474619
 46
0.0
 79
     0
 98
        1
 10
0.0
 20
0.0
  0
HATCH
  5
C8
330
48
100
AcDbEntity
  8
1
  6
Continuous
 62
     2
100
AcDbHatch
 10
0.0
 20
0.0
 30
0.0
210
0.0
220
0.0
230
1.0
  2
CUSTOM6
 70
     0
 71
     1
 91
        1
 92
        1
 93
        1
 72
     4
 94
        3
 73
     0
 74
     0
 95
       91
 96
       87
 40
0.0
 40
0.0
 40
0.0
 40
0.0
 40
0.0345987051695718
 40
0.1258134969461085
 40
0.2547723404888703
 40
0.4026032099153556
 40
0.550434079341642
 40
0.6793929228835227
 40
0.7706077146570467
 40
0.8052064287780072
 40
1.124852390615191
 40
1.427402236308785
 40
1.706356627453432
 40
1.955541417875118
 40
2.169485938566273
 40
2.344350786664735
 40
2.480568411561889
 40
2.590440557428912
 40
2.649189927151066
 40
2.74932064330627
 40
2.912632739879975
 40
3.147745656000171
 40
3.244827496385044
 40
3.338490056946636
 40
3.583815413207045
 40
3.7614239432384
 40
3.886956104362548
 40
3.985855451886754
 40
4.091766255337639
 40
4.250186473811832
 40
4.422734315084477
 40
4.628285684838556
 40
4.872093227758376
 40
5.152549652145494
 40
5.464967135837475
 40
5.803201477852396
 40
6.160362988813869
 40
6.193449448275924
 40
6.284170385501579
 40
6.419718138764448
 40
6.587285046385698
 40
6.774063446723613
 40
6.967245678113596
 40
7.154024078817582
 40
7.321590987025967
 40
7.457138740890326
 40
7.547859678556062
 40
7.580946138182622
 40
7.608533084714674
 40
7.669224367077648
 40
7.729915649429866
 40
7.757502595949918
 40
7.790278062553371
 40
7.880146277430869
 40
8.014419963180332
 40
8.180411842397833
 40
8.365434637679302
 40
8.556801071622603
 40
8.741823866830716
 40
8.907815745916226
 40
9.04208943150738
 40
9.131957646249505
 40
9.164733112797082
 40
9.415425063139992
 40
9.667986180958438
 40
9.694169807462606
 40
9.756607686047564
 40
9.83113031532237
 40
9.893568193899835
 40
9.919751820398652
 40
9.950967964690495
 40
9.99642163121059
 40
10.22087981037451
 40
10.44341866197539
 40
10.47847970788852
 40
10.5709133743875
 40
10.70159545461224
 40
10.85140174170352
 40
11.00120802880466
 40
11.13189010907372
 40
11.22432377582997
 40
11.25938480938943
 40
11.28697175596131
 40
11.34766303835905
 40
11.40835432042056
 40
11.4359412589209
 40
11.4359412589209
 40
11.4359412589209
 40
11.4359412589209
 10
190.0818114333289
 20
15.55242795125079
 10
190.070278584494
 20
15.55242790287917
 10
190.0283409444999
 20
15.55242773704167
 10
189.9434129719025
 20
15.5524312580091
 10
189.8207688553129
 20
15.55240926435881
 10
189.6791206916993
 20
15.55250801177056
 10
189.537975369849
 20
15.55214686232423
 10
189.4141351317905
 20
15.5532188360909
 10
189.3317217825382
 20
15.5509224909127
 10
189.1727791229695
 20
15.56048569373421
 10
189.3503402353376
 20
15.19785394311372
 10
189.3379739205453
 20
14.95243127723115
 10
189.4064519473865
 20
14.66862501324836
 10
189.469302432097
 20
14.43250999939035
 10
189.5452253431728
 20
14.23326740396129
 10
189.6303189577017
 20
14.07745347451371
 10
189.7244607592935
 20
13.9765785778139
 10
189.8282648207727
 20
13.92465852638962
 10
189.9125872030774
 20
13.97606484379614
 10
189.9351322179451
 20
14.09144544037514
 10
189.9745730975371
 20
14.21885149702378
 10
189.9202919734942
 20
14.5362232808675
 10
190.0451218072473
 20
14.38982180140906
 10
190.2019291513603
 20
14.35795300331171
 10
190.0947720007057
 20
14.12421357767628
 10
190.0808711209867
 20
13.9597277658366
 10
190.0234709467226
 20
13.83130869122482
 10
189.9335020145008
 20
13.7601880235283
 10
189.8095274657878
 20
13.74432324142255
 10
189.663427319686
 20
13.77993797554174
 10
189.5243894320284
 20
13.90000570500279
 10
189.4102003962144
 20
14.07435682550322
 10
189.3146141301486
 20
14.29946603111244
 10
189.2318652572626
 20
14.56388246006444
 10
189.1807179256412
 20
14.88187933098545
 10
189.0770189207338
 20
15.15543728488914
 10
189.2042841208521
 20
15.56005818612869
 10
189.0357890623018
 20
15.5511236784968
 10
188.9511995787077
 20
15.55315961418365
 10
188.8189876387627
 20
15.55213937388408
 10
188.6560505094104
 20
15.55253230318431
 10
188.4733759170532
 20
15.5523569631337
 10
188.2847057373383
 20
15.5526010530747
 10
188.1014469020189
 20
15.55185657906238
 10
187.9404746832718
 20
15.55416360522428
 10
187.8029808335276
 20
15.54799804883664
 10
187.728959037231
 20
15.56032838458213
 10
187.6613215186856
 20
15.54329323723558
 10
187.6732373719269
 20
15.59524438447529
 10
187.6655677285693
 20
15.6407142496653
 10
187.6732592225115
 20
15.68614453703707
 10
187.6613141797762
 20
15.73802395984571
 10
187.7283588305866
 20
15.72119143490265
 10
187.8017375665677
 20
15.73335409092672
 10
187.9379128305271
 20
15.72727231074959
 10
188.0973811801513
 20
15.7295483431506
 10
188.2789173085836
 20
15.72881233998963
 10
188.4658034862179
 20
15.72905954196135
 10
188.6468012316836
 20
15.72886400799255
 10
188.8080802578878
 20
15.7293223471484
 10
188.9393882124887
 20
15.72812673751207
 10
189.0225051322597
 20
15.73051347319744
 10
189.1556236547813
 20
15.72230605725464
 10
189.0645893502657
 20
15.97752868952654
 10
188.9789633074421
 20
16.24164358328246
 10
189.0990589003454
 20
16.22904442969163
 10
189.1514264948544
 20
16.22694235763075
 10
189.2214497569715
 20
16.22535399889656
 10
189.2671922337818
 20
16.21602567538114
 10
189.3220812646933
 20
16.22545966915427
 10
189.2963574785681
 20
16.17733028655173
 10
189.1825397571451
 20
16.18266829744179
 10
189.3159346621138
 20
15.95449174576775
 10
189.1943658735473
 20
15.72156856595925
 10
189.3223188769414
 20
15.7308725888444
 10
189.4049048406462
 20
15.72801001754682
 10
189.5307214850825
 20
15.72923437412303
 10
189.6741469838059
 20
15.72932431888965
 10
189.8157420951729
 20
15.72746163183854
 10
189.9459127249967
 20
15.73333075937164
 10
190.0193452286191
 20
15.72070340823205
 10
190.0891112922096
 20
15.73877563110413
 10
190.0775772605396
 20
15.68612850546327
 10
190.0833184346682
 20
15.64221317686549
 10
190.0816615770911
 20
15.59089982676551
 10
190.0817757561669
 20
15.56158792021636
 10
190.0818114333289
 20
15.55242795125079
 97
        1
330
AB
 75
     1
 76
     2
 52
45.0
 41
0.1
 77
     0
 78
     1
 53
45.0
 43
0.0
 44
0.0
 45
-0.282842712474619
 46
0.0
 79
     0
 98
        1
 10
0.0
 20
0.0
  0
HATCH
  5
C9
330
48
100
AcDbEntity
  8
1
  6
Continuous
 62
     2
100
AcDbHatch
 10
0.0
 20
0.0
 30
0.0
210
0.0
220
0.0
230
1.0
  2
CUSTOM7
 70
     0
 71
     1
 91
        1
 92
        1
 93
        1
 72
     4
 94
        3
 73
     0
 74
     0
 95
       75
 96
       71
 40
0.0
 40
0.0
 40
0.0
 40
0.0
 40
0.0342546099129709
 40
0.1245622414432364
 40
0.2522385480897536
 40
0.3985991922940662
 40
0.5449598364980821
 40
0.6726361431438834
 40
0.7629437746736942
 40
0.7971983935297973
 40
1.101723623449736
 40
1.408591244036759
 40
1.433332471690456
 40
1.487763172450232
 40
1.542193873082044
 40
1.566935100592581
 40
1.923523931821897
 40
2.271755704953669
 40
2.590579755100911
 40
2.858943305581202
 40
2.889120339309143
 40
2.918305855191138
 40
2.941366645531256
 40
2.996357760973122
 40
3.061992318140653
 40
3.116983433626806
 40
3.14004422399749
 40
3.411273122936389
 40
3.732441619740995
 40
3.761068217532695
 40
3.837787499630262
 40
3.948858699125906
 40
4.080541049104291
 40
4.219093782625682
 40
4.350776132722243
 40
4.461847332405582
 40
4.538566614678319
 40
4.567193212544567
 40
4.594907573998825
 40
4.666381453557364
 40
4.764111044010975
 40
4.870592538125778
 40
4.968322128642229
 40
5.039796008286914
 40
5.067510369784373
 40
5.094263603185589
 40
5.153120716668227
 40
5.211977830150679
 40
5.238731063551685
 40
5.272290535138924
 40
5.363380529444785
 40
5.497618415781463
 40
5.660621563453705
 40
5.838007341749406
 40
6.015393119910757
 40
6.178396267038383
 40
6.312634151842334
 40
6.403724143059324
 40
6.437283612672419
 40
6.464036846261037
 40
6.522893960004656
 40
6.581751071483928
 40
6.608504301590874
 40
6.637253941281021
 40
6.711397748902873
 40
6.812778057283485
 40
6.923237199249262
 40
7.024617507623906
 40
7.098761315207558
 40
7.127510946007509
 40
7.127510946007509
 40
7.127510946007509
 40
7.127510946007509
 10
188.4418622390564
 20
14.95849128473269
 10
188.4418622819707
 20
14.94707313408725
 10
188.4418624481128
 20
14.90555257842633
 10
188.4418593081786
 20
14.82146922003776
 10
188.4418788279801
 20
14.70004497322333
 10
188.4417912187737
 20
14.55980494047452
 10
188.442111623523
 20
14.42006556794581
 10
188.441160590974
 20
14.29745038894933
 10
188.4431978595967
 20
14.21587074438048
 10
188.4349433178746
 20
14.062712670777
 10
188.7430797940901
 20
14.2256023605472
 10
189.0350645173736
 20
14.39482938688
 10
189.0408354448709
 20
14.25973235781909
 10
189.0455471719891
 20
14.21617221160443
 10
189.0482535411917
 20
14.17211249350545
 10
189.0672545672961
 20
14.02272590363136
 10
188.6583942247301
 20
14.0868117224126
 10
188.3793710348832
 20
13.97296341411018
 10
188.1018081587167
 20
13.87364095811138
 10
187.80998371844
 20
13.91630687596362
 10
187.7869144678658
 20
13.8132167974454
 10
187.7537474383333
 20
13.78691091244473
 10
187.7480653962738
 20
13.83455309036305
 10
187.7284214559045
 20
13.87180336115073
 10
187.7095089485623
 20
13.93007387847561
 10
187.6942849867709
 20
13.97385201007806
 10
187.6477246372934
 20
14.08759421046303
 10
187.9890897312453
 20
14.05576301120054
 10
188.2679649367386
 20
14.02161435106481
 10
188.2617753034907
 20
14.16913976479652
 10
188.2630935452774
 20
14.24013150908833
 10
188.2624831689948
 20
14.34719767958663
 10
188.2625871570725
 20
14.47398529786
 10
188.2629987964055
 20
14.60849243496053
 10
188.2613907841969
 20
14.73395549951188
 10
188.2659902567924
 20
14.84505246719121
 10
188.2564186502211
 20
14.90761886800694
 10
188.2704001783691
 20
14.96595388295006
 10
188.2147384386704
 20
14.95289710582242
 10
188.1575655197821
 20
14.96136307749503
 10
188.0616048925648
 20
14.95729976080641
 10
187.963376752282
 20
14.95970889852479
 10
187.8672582457561
 20
14.95551600613393
 10
187.8104648525811
 20
14.96429346441167
 10
187.7550356873384
 20
14.95094936850126
 10
187.7670679427917
 20
15.00036910959261
 10
187.7592003173937
 20
15.04393988030401
 10
187.766629556383
 20
15.08830469118531
 10
187.7551930564143
 20
15.13902297763997
 10
187.8232102370133
 20
15.12162460757749
 10
187.8968496879747
 20
15.13417450237194
 10
188.0325064058211
 20
15.12799677011104
 10
188.1884909024525
 20
15.1302920309309
 10
188.3615926358143
 20
15.12940968262536
 10
188.5346942964182
 20
15.13029207142414
 10
188.6906789811216
 20
15.12799662955556
 10
188.8263351889798
 20
15.13417486262438
 10
188.8999756705651
 20
15.1216239421834
 10
188.9679914174724
 20
15.13902373012149
 10
188.9565590885922
 20
15.08830130414561
 10
188.9639539458298
 20
15.04397060811114
 10
188.9562039912271
 20
15.00028307550201
 10
188.9681203741876
 20
14.95063590098481
 10
188.9108170223617
 20
14.9646141133843
 10
188.8520145789772
 20
14.95539755673259
 10
188.7525293633199
 20
14.95952268164934
 10
188.649428009835
 20
14.95822760025893
 10
188.5537846354573
 20
14.95854077077645
 10
188.4857467971617
 20
14.95848776697149
 10
188.4514462213443
 20
14.95849051871661
 10
188.4418622390564
 20
14.95849128473269
 97
        1
330
AC
 75
     1
 76
     2
 52
45.0
 41
0.1
 77
     0
 78
     1
 53
45.0
 43
0.0
 44
0.0
 45
-0.282842712474619
 46
0.0
 79
     0
 98
        1
 10
0.0
 20
0.0
  0
HATCH
  5
CA
330
48
100
AcDbEntity
  8
1
  6
Continuous
 62
     2
100
AcDbHatch
 10
0.0
 20
0.0
 30
0.0
210
0.0
220
0.0
230
1.0
  2
CUSTOM8
 70
     0
 71
     1
 91
        1
 92
        1
 93
        1
 72
     4
 94
        3
 73
     0
 74
     0
 95
       15
 96
       11
 40
0.0
 40
0.0
 40
0.0
 40
0.0
 40
0.2785535985097254
 40
0.5215624748198444
 40
0.607691737604031
 40
0.6938210001741274
 40
0.9405019146455037
 40
1.221691403489131
 40
1.30047187708105
 40
1.379252341684817
 40
1.379252341684817
 40
1.379252341684817
 40
1.379252341684817
 10
189.5681493630999
 20
16.22930267330379
 10
189.6296017794178
 20
16.17691646592716
 10
189.7446649974115
 20
16.07882876798231
 10
190.0397348497244
 20
15.92889785897226
 10
189.9025147631857
 20
15.84343227515017
 10
189.8041227843779
 20
15.71085785201552
 10
189.713003359065
 20
16.01616985781419
 10
189.3636839480655
 20
16.07967869465372
 10
189.511925837657
 20
16.17896509880875
 10
189.5494081874236
 20
16.2125234840238
 10
189.5681493630999
 20
16.22930267330379
 97
        1
330
AD
 75
     1
 76
     2
 52
45.0
 41
0.1
 77
     0
 78
     1
 53
45.0
 43
0.0
 44
0.0
 45
-0.282842712474619
 46
0.0
 79
     0
 98
        1
 10
0.0
 20
0.0
  0
HATCH
  5
CB
330
48
100
AcDbEntity
  8
1
  6
Continuous
 62
     2
100
AcDbHatch
 10
0.0
 20
0.0
 30
0.0
210
0.0
220
0.0
230
1.0
  2
CUSTOM9
 70
     0
 71
     1
 91
        1
 92
        1
 93
        1
 72
     4
 94
        3
 73
     0
 74
     0
 95
       35
 96
       31
 40
0.0
 40
0.0
 40
0.0
 40
0.0
 40
0.0335231036619709
 40
0.0713218571712091
 40
0.4278866681487081
 40
0.8116865841964248
 40
1.198190238000086
 40
1.561379546812746
 40
1.659983174622161
 40
1.759315573807272
 40
2.132719617231123
 40
2.525233363588818
 40
2.910815397779684
 40
3.265244364303271
 40
3.592606723582051
 40
3.96438615460405
 40
4.359942131737852
 40
4.758154118639381
 40
4.84384653869995
 40
4.936650065543326
 40
5.256616602537477
 40
5.581707404416179
 40
5.899719158308268
 40
6.19836349428085
 40
6.466301046615883
 40
6.493895311537205
 40
6.559697020196999
 40
6.638234543442575
 40
6.704036252154329
 40
6.731630508423136
 40
6.731630508423136
 40
6.731630508423136
 40
6.731630508423136
 10
191.9736010568669
 20
16.23463843719129
 10
191.9676006097789
 20
16.22480690542319
 10
191.9548344099157
 20
16.2038898857979
 10
191.7949362006553
 20
16.1712712653272
 10
192.2322025842337
 20
15.88206680336691
 10
192.4345394828262
 20
15.68041138358446
 10
192.6819564267974
 20
15.43749387603281
 10
193.1831513624607
 20
15.36047662757771
 10
193.012556219897
 20
15.21876939174662
 10
192.9383299463201
 20
15.01710366209114
 10
192.6131432248188
 20
15.36956287174729
 10
192.3277741670665
 20
15.53175212559566
 10
192.0337604077658
 20
15.7368713005305
 10
191.8084452691136
 20
16.2182748859546
 10
191.5993085055522
 20
15.75343046609225
 10
191.3207873674834
 20
15.54350952252916
 10
191.037138317721
 20
15.37424456359986
 10
190.7078639527831
 20
15.00142360907935
 10
190.6277012318224
 20
15.19708014459006
 10
190.4759724909744
 20
15.32491104190597
 10
190.9083395826795
 20
15.40454031765936
 10
191.0962565329766
 20
15.60026634915475
 10
191.3468477420504
 20
15.81632996916756
 10
191.5714350470161
 20
15.98190992300057
 10
191.6259775409713
 20
16.26133964636832
 10
191.7494661029011
 20
16.24737950408079
 10
191.806027334452
 20
16.24521268867646
 10
191.8761870984945
 20
16.24046859881359
 10
191.9333414022105
 20
16.23709429350536
 10
191.9644190320839
 20
16.23519854711115
 10
191.9736010568669
 20
16.23463843719129
 97
        1
330
AE
 75
     1
 76
     2
 52
45.0
 41
0.1
 77
     0
 78
     1
 53
45.0
 43
0.0
 44
0.0
 45
-0.282842712474619
 46
0.0
 79
     0
 98
        1
 10
0.0
 20
0.0
  0
HATCH
  5
CC
330
48
100
AcDbEntity
  8
1
  6
Continuous
 62
     2
100
AcDbHatch
 10
0.0
 20
0.0
 30
0.0
210
0.0
220
0.0
230
1.0
  2
CUSTOM10
 70
     0
 71
     1
 91
        1
 92
        1
 93
        1
 72
     4
 94
        3
 73
     0
 74
     0
 95
       91
 96
       87
 40
0.0
 40
0.0
 40
0.0
 40
0.0
 40
0.0267532254356808
 40
0.0856103386464457
 40
0.1444674521997225
 40
0.1712206856619225
 40
0.2039416005643247
 40
0.2955601971653194
 40
0.4362601844617628
 40
0.616225284450796
 40
0.8256392189705408
 40
1.054685709844482
 40
1.293548478893602
 40
1.532411247938374
 40
1.761457738799639
 40
1.970871673298608
 40
2.150836773256803
 40
2.291536760495664
 40
2.383155356836771
 40
2.415876284101391
 40
2.442629517488045
 40
2.501486630949201
 40
2.560343744424373
 40
2.587096977826657
 40
2.617068194441084
 40
2.699247336756225
 40
2.822032643466538
 40
2.973822353258067
 40
3.14301470482351
 40
3.318007936880089
 40
3.487200288186922
 40
3.638989997548403
 40
3.761775303794901
 40
3.843954445753236
 40
3.873925662229932
 40
3.890812773500628
 40
3.907699884771796
 40
3.93796076785742
 40
3.980983618142456
 40
4.199085915228579
 40
4.439444339237378
 40
4.677588241260999
 40
5.050698317837913
 40
5.448212454763242
 40
5.85529121804471
 40
6.138575438885386
 40
6.417434507584162
 40
6.444551104393823
 40
6.504207617363102
 40
6.563864130314431
 40
6.590980727104
 40
6.848609460381394
 40
7.109611990668357
 40
7.352910904446017
 40
7.557830220705375
 40
7.587518925913288
 40
7.652834077375698
 40
7.718149228845625
 40
7.747837934061925
 40
7.854880190300866
 40
7.976511257403361
 40
8.369487896592105
 40
8.757514959223426
 40
9.126072419330917
 40
9.46063938039198
 40
9.746695593035719
 40
9.777569943118488
 40
9.807050320931491
 40
9.83037733612862
 40
9.886003295435696
 40
9.952395569429607
 40
10.00802152870597
 40
10.03134854388189
 40
10.2135695100956
 40
10.42203479292842
 40
10.66154556731037
 40
10.91693789564277
 40
11.15832906556536
 40
11.18982674596594
 40
11.27286608520378
 40
11.3902665303332
 40
11.52484752840857
 40
11.65942852648419
 40
11.77682897161454
 40
11.85986831085654
 40
11.89136598230399
 40
11.89136598230399
 40
11.89136598230399
 40
11.89136598230399
 10
190.7027885008196
 20
14.70699600701769
 10
190.7028237765288
 20
14.71587847311983
 10
190.7029366710796
 20
14.74430237047345
 10
190.7012984568489
 20
14.79409639169804
 10
190.7069750292911
 20
14.83657564478156
 10
190.6956928731706
 20
14.88730154856851
 10
190.7632296979032
 20
14.87012900740113
 10
190.83880292107
 20
14.88290227165999
 10
190.9828357056001
 20
14.87629729457386
 10
191.1569419185426
 20
14.8788846220647
 10
191.3639599611004
 20
14.87800591955557
 10
191.5894688172378
 20
14.87828207920032
 10
191.8251162293406
 20
14.87818339658666
 10
192.0607640531348
 20
14.87828184412772
 10
192.2862717580626
 20
14.87800678190792
 10
192.4932934632805
 20
14.87888186270739
 10
192.6673888915288
 20
14.87630522678451
 10
192.8114492071986
 20
14.88288290449217
 10
192.8869691915293
 20
14.87016243405609
 10
192.9545776037029
 20
14.8872640019169
 10
192.9430840140676
 20
14.83674785802943
 10
192.9505104581733
 20
14.79253252226502
 10
192.9428838927986
 20
14.74867966503608
 10
192.9546489459425
 20
14.69878374479325
 10
192.8930788491982
 20
14.71393227712508
 10
192.8256791738672
 20
14.70310665350671
 10
192.7013004056221
 20
14.70852031626233
 10
192.555442823657
 20
14.70649205390782
 10
192.3893576440085
 20
14.70715777578384
 10
192.2188412621724
 20
14.70689643521239
 10
192.0519790855388
 20
14.7072155339109
 10
191.9087346827105
 20
14.70635302590759
 10
191.7773313869834
 20
14.70863300482985
 10
191.7239859134656
 20
14.704077043742
 10
191.6485188456912
 20
14.70999914992873
 10
191.6769075779232
 20
14.70094169343353
 10
191.7033652409542
 20
14.69725912268935
 10
191.6633522907702
 20
14.66654271968274
 10
191.5713663691867
 20
14.67667591174632
 10
191.5439396207071
 20
14.43032502247783
 10
191.4478793967235
 20
14.27499558764375
 10
191.1917277964474
 20
13.94525417931566
 10
191.7627537732763
 20
14.08430022210449
 10
192.0173656320517
 20
14.08291779973365
 10
192.6279647048617
 20
13.9979056924208
 10
192.3340698578083
 20
14.29685417558205
 10
192.013330428652
 20
14.44330856901772
 10
192.1313543360434
 20
14.50025540818286
 10
192.1724716466262
 20
14.52420099873348
 10
192.2156812394412
 20
14.54599758811229
 10
192.3174574094449
 20
14.60928721253907
 10
192.4328867625248
 20
14.35147151408776
 10
192.6329591642277
 20
14.2161604111368
 10
192.7269077387228
 20
14.03792795138881
 10
192.9558829746392
 20
13.87997821027047
 10
192.8596031846708
 20
13.82915972576301
 10
192.8167959763779
 20
13.79881292523057
 10
192.7718243528778
 20
13.77466130281462
 10
192.7121720925214
 20
13.72552146747574
 10
192.6789731061324
 20
13.8599747567361
 10
192.5582013350796
 20
14.01594265286574
 10
192.1970976005978
 20
13.88569928059553
 10
191.8385061955541
 20
13.9022469440948
 10
191.457092045008
 20
13.89331229351863
 10
191.1703455282891
 20
13.82882671672402
 10
190.8592055599713
 20
13.94230668192834
 10
190.8268737818788
 20
13.83122259927769
 10
190.7896178253318
 20
13.81196313850019
 10
190.7865737632755
 20
13.85874784087301
 10
190.7679892860608
 20
13.89806853919137
 10
190.7512436616778
 20
13.95765983478235
 10
190.7383730915753
 20
14.00201969871283
 10
190.7042327806428
 20
14.09106331120201
 10
190.9482714457754
 20
14.02181042943769
 10
191.1441394486671
 20
14.0003036905774
 10
191.2395426381277
 20
14.28226484478462
 10
191.2945135769596
 20
14.44363045421122
 10
191.5159619357156
 20
14.71391177589734
 10
191.3849239381216
 20
14.70548446853732
 10
191.3110026555854
 20
14.70779008496967
 10
191.1977459876244
 20
14.70671378321655
 10
191.0694251807484
 20
14.70707639076507
 10
190.9404252030415
 20
14.70697724466083
 10
190.828784094629
 20
14.70699932712569
 10
190.7514663970026
 20
14.70699579189667
 10
190.713287653201
 20
14.70699595845078
 10
190.7027885008196
 20
14.70699600701769
 97
        1
330
AF
 75
     1
 76
     2
 52
45.0
 41
0.1
 77
     0
 78
     1
 53
45.0
 43
0.0
 44
0.0
 45
-0.282842712474619
 46
0.0
 79
     0
 98
        1
 10
0.0
 20
0.0
  0
HATCH
  5
CD
330
48
100
AcDbEntity
  8
1
  6
Continuous
 62
     2
100
AcDbHatch
 10
0.0
 20
0.0
 30
0.0
210
0.0
220
0.0
230
1.0
  2
CUSTOM11
 70
     0
 71
     1
 91
        1
 92
        1
 93
        1
 72
     4
 94
        3
 73
     0
 74
     0
 95
      131
 96
      127
 40
0.0
 40
0.0
 40
0.0
 40
0.0
 40
0.0195577029826505
 40
0.0426490537462313
 40
0.2863607575857597
 40
0.5344948436190277
 40
0.7842238845574117
 40
0.8737315789468496
 40
0.9803832810313972
 40
1.092842274517141
 40
1.199761146656897
 40
1.289788768186594
 40
1.351573580786255
 40
1.370727117561488
 40
1.416400936017916
 40
1.470914848356077
 40
1.516588666791885
 40
1.535742203552971
 40
1.634216592293304
 40
1.760283341175106
 40
1.897966686682232
 40
2.031216387369073
 40
2.049689751138069
 40
2.101115601647007
 40
2.179502577740128
 40
2.278859318314247
 40
2.393194462258908
 40
2.516516648384029
 40
2.642834515406161
 40
2.76615670198367
 40
2.880491846754789
 40
2.979848588358835
 40
3.058235565444015
 40
3.109661416669172
 40
3.128134780704349
 40
3.146783742386666
 40
3.191254343315526
 40
3.244332157316185
 40
3.288802758226089
 40
3.307451719895332
 40
3.327717853844943
 40
3.383747753580308
 40
3.468388665924702
 40
3.574487837699011
 40
3.694892515729118
 40
3.82244994685226
 40
3.950007377920653
 40
4.070412055800748
 40
4.176511227368307
 40
4.261152139501753
 40
4.317182039076949
 40
4.337448172964869
 40
4.620011002696481
 40
4.885096638397761
 40
4.945373043518598
 40
5.014107710488921
 40
5.070481727652328
 40
5.319246955636838
 40
5.584812164506325
 40
5.859000912057182
 40
6.133746937542377
 40
6.401732212969235
 40
6.420736683995854
 40
6.472845717451448
 40
6.550702743894433
 40
6.646951193874641
 40
6.754234497930965
 40
6.865196086587772
 40
6.97247939035823
 40
7.06872783977242
 40
7.146584865451429
 40
7.198693898189659
 40
7.2176983689058
 40
7.234950401631278
 40
7.276089864270317
 40
7.325191803516423
 40
7.366331266090808
 40
7.383583298770158
 40
7.402779163492535
 40
7.453386443254966
 40
7.524934666445968
 40
7.606953361406307
 40
7.688972056429459
 40
7.76052027978471
 40
7.811127559734952
 40
7.830323424546573
 40
7.847844055300199
 40
7.894799345667239
 40
7.962779392744921
 40
8.043374293560962
 40
8.128174145149861
 40
8.20876904481766
 40
8.276749090377356
 40
8.323704379669914
 40
8.341225010056645
 40
8.358497614800793
 40
8.401679126686998
 40
8.457815092186056
 40
8.51395105772846
 40
8.557132569708417
 40
8.57440517450546
 40
8.602340668616787
 40
8.643455660540386
 40
8.663225271967054
 40
8.715345156564691
 40
8.789031889629012
 40
8.87350204552073
 40
8.957972194324341
 40
9.031658925568221
 40
9.083778811234902
 40
9.103548423003362
 40
9.119550083123928
 40
9.160817522380201
 40
9.217244429110595
 40
9.278724491645109
 40
9.335151398295894
 40
9.376418837358218
 40
9.392420497301005
 40
9.401196302735244
 40
9.41749422938468
 40
9.426270027749974
 40
9.44087507547798
 40
9.475702496999176
 40
9.517270709866331
 40
9.552098131994493
 40
9.566703169884697
 40
9.566703169884697
 40
9.566703169884697
 40
9.566703169884697
 10
194.617025414848
 20
15.67015871511029
 10
194.6134345093371
 20
15.66453690702161
 10
194.6056039123626
 20
15.65227754419114
 10
194.5129968974544
 20
15.6160191604098
 10
194.4887622233248
 20
15.40148444212713
 10
194.3858709845939
 20
15.22197284509709
 10
194.1220492364305
 20
15.03615573798145
 10
194.284547156918
 20
14.95959336566083
 10
194.3607225760838
 20
14.89856693195444
 10
194.4492171072759
 20
14.83515804544762
 10
194.5389930233111
 20
14.77525634219563
 10
194.5883817636046
 20
14.72102154849212
 10
194.6745708157382
 20
14.69286240541839
 10
194.6411260674229
 20
14.65713309652816
 10
194.6214671166311
 20
14.62550387991909
 10
194.5919888217882
 20
14.5847587279607
 10
194.568898944603
 20
14.55504663489643
 10
194.5380205968358
 20
14.50211422668493
 10
194.4729193365739
 20
14.62740334938903
 10
194.3796000122417
 20
14.68213900233941
 10
194.2950636285139
 20
14.73916423939342
 10
194.1722498125743
 20
14.89675287427526
 10
194.1764450847301
 20
14.82035806766838
 10
194.1751478652677
 20
14.77361280161298
 10
194.1758126448077
 20
14.69584785812603
 10
194.1755549986956
 20
14.59902068324423
 10
194.1756431239922
 20
14.4865027907881
 10
194.1756077302281
 20
14.36524085945699
 10
194.1756511758278
 20
14.2408689785896
 10
194.1755199942405
 20
14.11967683631335
 10
194.1759477562046
 20
14.00691148919741
 10
194.174667820231
 20
13.91082913768742
 10
194.1779759851043
 20
13.83113826468697
 10
194.1715197740087
 20
13.78815175788782
 10
194.1806208705555
 20
13.74955432372039
 10
194.1447910339935
 20
13.75810887724068
 10
194.1115223815252
 20
13.75342519985444
 10
194.0604562576041
 20
13.75351298759782
 10
194.0269723972812
 20
13.75794430283818
 10
193.9907585408754
 20
13.74960793842506
 10
194.0009782568665
 20
13.79145277179282
 10
193.9936487887774
 20
13.83778560820171
 10
193.9973633136102
 20
13.92374831106012
 10
193.9959480554897
 20
14.02605142704847
 10
193.9964105554638
 20
14.1445322393151
 10
193.996277368623
 20
14.26957683153354
 10
193.9963015910045
 20
14.39475828107049
 10
193.9963354925551
 20
14.51286645379057
 10
193.9962060293132
 20
14.61628748709515
 10
193.996550754908
 20
14.69932036153666
 10
193.9958698278691
 20
14.75143368521243
 10
193.999458660062
 20
14.87912907821359
 10
193.7826171386438
 20
14.58048716819621
 10
193.602135492195
 20
14.35263981511511
 10
193.5490322295612
 20
14.49373443289814
 10
193.5200429133148
 20
14.54325767560944
 10
193.419664806282
 20
14.64641779790109
 10
193.7405127723261
 20
14.72695035023779
 10
193.868989700543
 20
14.91066283036434
 10
194.0906454325358
 20
15.11931995771762
 10
194.1770224894069
 20
15.29339211228348
 10
194.4549394229075
 20
15.56967051342517
 10
194.3346247839285
 20
15.56534559551119
 10
194.286319735135
 20
15.56614856202557
 10
194.2102377454905
 20
15.5657458214659
 10
194.1167010009751
 20
15.56590275611614
 10
194.0117594788557
 20
15.56582502576229
 10
193.9033887738718
 20
15.56595464378559
 10
193.7981454235897
 20
15.56554393490697
 10
193.7056237819413
 20
15.56682073671596
 10
193.6268130800707
 20
15.56340766534855
 10
193.5839674565379
 20
15.57023350036324
 10
193.5449499586516
 20
15.56065064201129
 10
193.5526365271863
 20
15.59420779565547
 10
193.5485464404312
 20
15.62523550322238
 10
193.5485531368814
 20
15.67236529270904
 10
193.5526239724911
 20
15.70340941646783
 10
193.5449495574582
 20
15.73701861635905
 10
193.5834819405495
 20
15.72748410420876
 10
193.624122801448
 20
15.73397435498075
 10
193.6951471850463
 20
15.73100150650257
 10
193.7729318149633
 20
15.73174761399161
 10
193.8507292246474
 20
15.73247814044529
 10
193.9217232089907
 20
15.72954235514164
 10
193.962427979182
 20
15.73595468772956
 10
194.0009853489909
 20
15.72650524176008
 10
193.9927342754927
 20
15.76264692158788
 10
193.9982346669358
 20
15.8012983761323
 10
193.9955754206163
 20
15.86913528561842
 10
193.9965815471533
 20
15.94591641538742
 10
193.9960178018319
 20
16.02849393582758
 10
193.9970714526592
 20
16.10517329229879
 10
193.9942675863131
 20
16.173319907767
 10
194.0000702721303
 20
16.21132399809346
 10
193.9915654551159
 20
16.24758448077646
 10
194.0255610233125
 20
16.23755723771852
 10
194.0594575683099
 20
16.24073266813706
 10
194.1126669060346
 20
16.23508965640608
 10
194.1660768574482
 20
16.23434774436424
 10
194.1995914649491
 20
16.22819223482978
 10
194.2388086183039
 20
16.23346029773591
 10
194.2120263698492
 20
16.19253380793484
 10
194.1708111001724
 20
16.2037120453811
 10
194.1782641540873
 20
16.15867056192121
 10
194.1742227952184
 20
16.11412278028142
 10
194.176171404964
 20
16.04223572621702
 10
194.1752364849758
 20
15.96168630588771
 10
194.176510719003
 20
15.88173995404996
 10
194.1732043793864
 20
15.80841837083186
 10
194.1802106179961
 20
15.76688643002571
 10
194.1701440380126
 20
15.72752418568116
 10
194.2029814803921
 20
15.73468063430985
 10
194.236457729648
 20
15.73027243137948
 10
194.2915053476019
 20
15.73217943347901
 10
194.3489502595315
 20
15.73185366407292
 10
194.4023026248311
 20
15.73106308733087
 10
194.4398540896638
 20
15.73313959118076
 10
194.4623172523238
 20
15.73022338167115
 10
194.4751678073732
 20
15.73572552644055
 10
194.485825568589
 20
15.7380111819779
 10
194.4986635650144
 20
15.74494972588047
 10
194.5145991033072
 20
15.72853046313668
 10
194.5410623920892
 20
15.71709122319447
 10
194.5726805253759
 20
15.6964468783519
 10
194.5987255892153
 20
15.68116869628295
 10
194.6128517723974
 20
15.67266976323185
 10
194.617025414848
 20
15.67015871511029
 97
        1
330
B0
 75
     1
 76
     2
 52
45.0
 41
0.1
 77
     0
 78
     1
 53
45.0
 43
0.0
 44
0.0
 45
-0.282842712474619
 46
0.0
 79
     0
 98
        1
 10
0.0
 20
0.0
  0
HATCH
  5
CE
330
48
100
AcDbEntity
  8
1
  6
Continuous
 62
     2
100
AcDbHatch
 10
0.0
 20
0.0
 30
0.0
210
0.0
220
0.0
230
1.0
  2
CUSTOM12
 70
     0
 71
     1
 91
        1
 92
        1
 93
        1
 72
     4
 94
        3
 73
     0
 74
     0
 95
      124
 96
      120
 40
0.0
 40
0.0
 40
0.0
 40
0.0
 40
0.027818722962451
 40
0.1011590162384269
 40
0.2048470170590239
 40
0.3237088716559245
 40
0.4425707262522
 40
0.5462587270699547
 40
0.6195990203311798
 40
0.647417752257866
 40
0.6750060736115224
 40
0.7357003855242705
 40
0.7963946998054403
 40
0.8239830245571678
 40
0.8540933811102771
 40
0.9373396629409452
 40
1.063094687343226
 40
1.220731268638064
 40
1.399622220914739
 40
1.589140358637723
 40
1.778658496423889
 40
1.9575494489405
 40
2.11518603087315
 40
2.240941056914454
 40
2.324187341760523
 40
2.354297700109373
 40
2.381886024671879
 40
2.442580338710463
 40
2.503274652750481
 40
2.530862977314588
 40
2.560983949278541
 40
2.640393784452887
 40
2.75266286175911
 40
2.881361560118127
 40
3.010060258455174
 40
3.122329335705321
 40
3.201739170817935
 40
3.231860142753296
 40
3.26429802403035
 40
3.352343701778218
 40
3.482095226868737
 40
3.639650650172995
 40
3.811108022565446
 40
3.982565394927948
 40
4.140120818152524
 40
4.269872343141231
 40
4.35791802080229
 40
4.390355902043917
 40
4.423256253992487
 40
4.508104530073008
 40
4.624121560636776
 40
4.750528176031533
 40
4.866545206601979
 40
4.951393482691937
 40
4.984293834645338
 40
5.011450833242253
 40
5.071196230152039
 40
5.130941627057115
 40
5.158098625648781
 40
5.190998977601471
 40
5.275847253689297
 40
5.391864284256731
 40
5.518270899648276
 40
5.634287930209315
 40
5.719136206287989
 40
5.752036558235877
 40
5.782130946282904
 40
5.862783906229079
 40
5.979550131774952
 40
6.117984316640363
 40
6.263641154587913
 40
6.402075339414124
 40
6.518841564907924
 40
6.599494524815509
 40
6.629588912848747
 40
6.654403028226324
 40
6.713575149488091
 40
6.784199939329409
 40
6.843372060493512
 40
6.868186175802758
 40
6.896246243201823
 40
6.939586233758241
 40
6.967846564564868
 40
7.043584251089803
 40
7.153234334451656
 40
7.2832318557344
 40
7.420011856035425
 40
7.55000937657977
 40
7.659659458835164
 40
7.735397144417155
 40
7.763657474851326
 40
7.796409728010983
 40
7.880876065096257
 40
7.996370852465643
 40
8.122208446418538
 40
8.237703224799132
 40
8.322169562010826
 40
8.35492181520584
 40
8.38207881330762
 40
8.441824209206928
 40
8.501569605240077
 40
8.528726603485655
 40
8.561478856695704
 40
8.645945193877754
 40
8.761439980865266
 40
8.887277580764408
 40
9.002772362000929
 40
9.08723869666115
 40
9.119990949235603
 40
9.152428830613301
 40
9.240474508638515
 40
9.37022603414946
 40
9.527781457984343
 40
9.699238830981326
 40
9.87069620397851
 40
10.02825162781393
 40
10.15800315332554
 40
10.24604883135109
 40
10.27848670378511
 40
10.27848670378511
 40
10.27848670378511
 40
10.27848670378511
 10
195.3821827564383
 20
14.01410517385759
 10
195.3914554737523
 20
14.01410498511276
 10
195.4251744536861
 20
14.01410430876716
 10
195.4934706812465
 20
14.01411807243307
 10
195.592014171158
 20
14.01403224219547
 10
195.7062066464812
 20
14.01441755612253
 10
195.818589441707
 20
14.01300835897547
 10
195.9214376600118
 20
14.01719117422245
 10
195.9806839874849
 20
14.00823089251985
 10
196.0371265937033
 20
14.02164434526063
 10
196.0246255586955
 20
13.97087198613363
 10
196.0329549635703
 20
13.92589320939069
 10
196.024817084112
 20
13.88056752990491
 10
196.0370529214456
 20
13.82931932408469
 10
195.9747773490334
 20
13.8444795536528
 10
195.9060513026868
 20
13.83359750710746
 10
195.7782756749592
 20
13.83911304747975
 10
195.6262984511643
 20
13.83700851253701
 10
195.4502695972523
 20
13.83771002588476
 10
195.2644431934287
 20
13.83745237531295
 10
195.0786167437175
 20
13.83771005144606
 10
194.9025880142168
 20
13.83700841847734
 10
194.7506104154195
 20
13.83911332229992
 10
194.6228357664554
 20
13.83359680767643
 10
194.554107783658
 20
13.84448077125945
 10
194.4918349042883
 20
13.82931786684212
 10
194.5040616290017
 20
13.88057510805174
 10
194.4960004462597
 20
13.92582473272428
 10
194.5040675809892
 20
13.97106357955325
 10
194.4918238487083
 20
14.0223417690996
 10
194.5525017120698
 20
14.00749577363137
 10
194.6162810745736
 20
14.01756448170737
 10
194.7277314353502
 20
14.01294644212001
 10
194.8497533443824
 20
14.01413328905471
 10
194.9719538137823
 20
14.01515863900637
 10
195.0829794287392
 20
14.01092475623403
 10
195.1476517413959
 20
14.02018584521741
 10
195.2091162810501
 20
14.00604423049684
 10
195.1930065601337
 20
14.07235527884519
 10
195.2042980327358
 20
14.14447790121977
 10
195.198740082256
 20
14.27513760888287
 10
195.2008035061691
 20
14.42607323708242
 10
195.2000167127295
 20
14.59335873107886
 10
195.2007845215627
 20
14.76061110332302
 10
195.1988038785628
 20
14.91163289269914
 10
195.2041306156621
 20
15.04206069552994
 10
195.1933101388424
 20
15.11465442605898
 10
195.2090326429876
 20
15.18150469436797
 10
195.143270813249
 20
15.16580512490822
 10
195.0756367830763
 20
15.17609243083995
 10
194.9615885293809
 20
15.1711378684712
 10
194.8451242674902
 20
15.17414128030474
 10
194.7306554121477
 20
15.16880303143387
 10
194.6640324657812
 20
15.18001268074823
 10
194.5990769715186
 20
15.1634913266501
 10
194.6107989758707
 20
15.21473720477058
 10
194.6032830189121
 20
15.2595033378409
 10
194.6107989878835
 20
15.30426944897961
 10
194.5990769505346
 20
15.3555153612974
 10
194.66403263392
 20
15.33899381766814
 10
194.7306533339821
 20
15.35020571373943
 10
194.8451352858063
 20
15.34485436710663
 10
194.9615454436962
 20
15.34791188771116
 10
195.0757660174641
 20
15.34278499010707
 10
195.1430150439226
 20
15.35345733355597
 10
195.2083325941438
 20
15.33742082669076
 10
195.1941391448552
 20
15.39949685750053
 10
195.2036059462995
 20
15.46586761628762
 10
195.1990269004085
 20
15.58239972741966
 10
195.2007696555948
 20
15.71426685022376
 10
195.1997551495392
 20
15.85615960150274
 10
195.2017191344372
 20
15.98769050702581
 10
195.1964668553851
 20
16.10524577283004
 10
195.2073408763475
 20
16.16947789001586
 10
195.1919536641853
 20
16.23108802545049
 10
195.24075915378
 20
16.21702407382113
 10
195.2853995564725
 20
16.21954742075316
 10
195.3538643946742
 20
16.2151279740171
 10
195.3959106169103
 20
16.20613025544036
 10
195.4487544758775
 20
16.2141171486651
 10
195.4207035002014
 20
16.17113917611677
 10
195.3749142248594
 20
16.18259552043831
 10
195.3869539073265
 20
16.12173520005133
 10
195.379608607064
 20
16.05769299468768
 10
195.3831195826162
 20
15.94909368863907
 10
195.3819806760173
 20
15.82494319144748
 10
195.3819174780263
 20
15.69189719829876
 10
195.3832872966868
 20
15.56797381249553
 10
195.3791638801313
 20
15.45868337849337
 10
195.3877763103564
 20
15.39608580094169
 10
195.3746757454402
 20
15.33740133296364
 10
195.4393884328198
 20
15.35362113810901
 10
195.5060405953156
 20
15.34270260383311
 10
195.6198779541103
 20
15.34793740173754
 10
195.7357259122097
 20
15.34485547516912
 10
195.849692426328
 20
15.35018259812511
 10
195.91603410181
 20
15.33904208166542
 10
195.9807188525479
 20
15.35546979593177
 10
195.9689820772723
 20
15.3042592521005
 10
195.976516806304
 20
15.25950334120999
 10
195.9689820992258
 20
15.21474739010026
 10
195.9807188140736
 20
15.16353690871039
 10
195.9160344075252
 20
15.17996427794219
 10
195.8496886430824
 20
15.16882784447268
 10
195.7357459487012
 20
15.17413115893119
 10
195.6197995623054
 20
15.17114764593543
 10
195.5062756882123
 20
15.17606892268392
 10
195.4389231318804
 20
15.16585087513518
 10
195.3734285122495
 20
15.18145996138815
 10
195.3891713619218
 20
15.1146385182741
 10
195.3783275998212
 20
15.04207057815877
 10
195.3836581629792
 20
14.91162247614416
 10
195.3817136151855
 20
14.76064558185226
 10
195.3823133683215
 20
14.59322243934158
 10
195.3821506559604
 20
14.42656176118373
 10
195.3821895488136
 20
14.27360142921637
 10
195.3821816413098
 20
14.14849178985707
 10
195.3821828382745
 20
14.06507890991422
 10
195.3821827716207
 20
14.02491778281978
 10
195.3821827564383
 20
14.01410517385759
 97
        1
330
B1
 75
     1
 76
     2
 52
45.0
 41
0.1
 77
     0
 78
     1
 53
45.0
 43
0.0
 44
0.0
 45
-0.282842712474619
 46
0.0
 79
     0
 98
        1
 10
0.0
 20
0.0
  0
HATCH
  5
CF
330
48
100
AcDbEntity
  8
1
  6
Continuous
 62
     2
100
AcDbHatch
 10
0.0
 20
0.0
 30
0.0
210
0.0
220
0.0
230
1.0
  2
CUSTOM13
 70
     0
 71
     1
 91
        1
 92
        1
 93
        3
 72
     4
 94
        3
 73
     0
 74
     0
 95
       24
 96
       20
 40
0.0
 40
0.0
 40
0.0
 40
0.0
 40
0.2211075008753987
 40
0.4273218586245978
 40
0.5080174679240084
 40
0.5914835907871041
 40
0.8143265690194024
 40
1.054651302686707
 40
1.295452694023282
 40
1.51810923132888
 40
1.540864321905494
 40
1.595126460622752
 40
1.659890947896062
 40
1.714153085187417
 40
1.736908174961716
 40
1.764951100735388
 40
1.801562291221029
 40
1.953914424543698
 40
2.126104167379742
 40
2.126104167379742
 40
2.126104167379742
 40
2.126104167379742
 10
185.9375369556889
 20
15.5898929511302
 10
185.9112579081811
 20
15.53097628234378
 10
185.8604698894425
 20
15.4171113967926
 10
185.8131784839112
 20
15.1444195823311
 10
185.7043482802617
 20
15.24445482575453
 10
185.5514800279637
 20
15.27118593367333
 10
185.76861551812
 20
15.4851813501763
 10
185.7838483674381
 20
15.7033211778249
 10
185.8906889492001
 20
15.88451579066425
 10
185.8305380947078
 20
16.16913226311395
 10
185.9334317395402
 20
16.14114089222448
 10
185.9779933468149
 20
16.13243251602297
 10
186.0380842395397
 20
16.12139654183355
 10
186.0756619587438
 20
16.1076752305556
 10
186.1252466928605
 20
16.10756076160226
 10
186.0930158919326
 20
16.07306592398618
 10
186.0171802221881
 20
16.08404104537976
 10
186.0429447159693
 20
15.8985896958245
 10
186.005589676385
 20
15.80702313549592
 10
185.985770496161
 20
15.75844135397709
 72
     4
 94
        3
 73
     0
 74
     0
 95
       70
 96
       66
 40
0.0
 40
0.0
 40
0.0
 40
0.0
 40
0.0241731073021472
 40
0.0846058988986729
 40
0.1631685280352999
 40
0.2417311571788903
 40
0.3021639488291898
 40
0.3263370654894688
 40
0.3533118254248028
 40
0.4228783438921241
 40
0.517999909531255
 40
0.6216398239465232
 40
0.7167613891498835
 40
0.7863279069648993
 40
0.8133026791760966
 40
0.8372943998770809
 40
0.8945054261372012
 40
0.962789554196208
 40
1.020000580349075
 40
1.043992300975174
 40
1.071934345522946
 40
1.113121768772884
 40
1.145225199332201
 40
1.225483775412722
 40
1.329819923771416
 40
1.434156071994288
 40
1.514414647795697
 40
1.546518078208298
 40
1.5789747642601
 40
1.662678849314038
 40
1.777131373668258
 40
1.901833377474649
 40
2.016285900500411
 40
2.099989982527749
 40
2.132446666570108
 40
2.15878235448583
 40
2.216720867907612
 40
2.274659381334026
 40
2.300995069255958
 40
2.33345175406593
 40
2.417155836543583
 40
2.531608358985022
 40
2.656310362283517
 40
2.770762886388621
 40
2.854466971339758
 40
2.886923657363564
 40
2.913597976833
 40
2.982389642874808
 40
3.076451716946681
 40
3.178937260458304
 40
3.272999334739716
 40
3.341791001058946
 40
3.368465320663259
 40
3.39697608073848
 40
3.472140811845688
 40
3.578408190308377
 40
3.700226892455785
 40
3.822045594634002
 40
3.928312973256081
 40
4.003477705314478
 40
4.031988456866544
 40
4.058324144797347
 40
4.116262658236519
 40
4.174201171400326
 40
4.200536849608265
 40
4.200536849608265
 40
4.200536849608265
 40
4.200536849608265
 10
185.985770496161
 20
15.75844135397709
 10
185.993825954468
 20
15.75844359811691
 10
186.0220200663241
 20
15.75845146032802
 10
186.0765534803674
 20
15.75830754828376
 10
186.1482891808604
 20
15.75909120499902
 10
186.2236240137062
 20
15.75627570463815
 10
186.2713052366439
 20
15.76298403400962
 10
186.3195071245615
 20
15.75197563692436
 10
186.3062571799874
 20
15.80546402997038
 10
186.3151093964538
 20
15.86049583543095
 10
186.3108698036285
 20
15.95419908726113
 10
186.313348348128
 20
16.04959482218536
 10
186.309093870606
 20
16.14356821983391
 10
186.3179818665846
 20
16.19795062438016
 10
186.3046977409946
 20
16.25233997691465
 10
186.3514119277108
 20
16.2384221633536
 10
186.3943254545737
 20
16.24103877374046
 10
186.4605443456686
 20
16.23648422450754
 10
186.5013342271798
 20
16.22778162134161
 10
186.552514569082
 20
16.23531799890191
 10
186.52537204872
 20
16.1934997022329
 10
186.4803096055708
 20
16.20284992072589
 10
186.494206504505
 20
16.13841207371835
 10
186.4858414431656
 20
16.07378219627398
 10
186.4903632178399
 20
15.97529141193888
 10
186.4854741311168
 20
15.87595932842572
 10
186.4950258992083
 20
15.81293115552972
 10
186.4799761455201
 20
15.74964011499792
 10
186.544915945721
 20
15.76515072944273
 10
186.6116246399498
 20
15.75499387697816
 10
186.7241435470828
 20
15.75988800099372
 10
186.8390235448954
 20
15.75691204732788
 10
186.9519871999747
 20
15.76221664184995
 10
187.0176267597677
 20
15.75107306472092
 10
187.0816276691053
 20
15.76744532319861
 10
187.0703142889189
 20
15.71761689905279
 10
187.077533987151
 20
15.67416715212128
 10
187.0703142611269
 20
15.6307174558745
 10
187.0816277175994
 20
15.58088895196883
 10
187.0176263598972
 20
15.59726166091368
 10
186.9519921240459
 20
15.58611271661594
 10
186.838997431733
 20
15.5914485720686
 10
186.7242456548643
 20
15.58834345663828
 10
186.6113183686861
 20
15.59364894682594
 10
186.5455220903585
 20
15.58257300019599
 10
186.4816097975359
 20
15.59887597847624
 10
186.4936015165127
 20
15.54423524395747
 10
186.4862104613006
 20
15.48854295047847
 10
186.4892684841984
 20
15.39649689140575
 10
186.4893422785684
 20
15.30179109873104
 10
186.486031357836
 20
15.20952782902268
 10
186.4939505989905
 20
15.15435768736142
 10
186.4815076611617
 20
15.10058169100138
 10
186.5389116551633
 20
15.11453768862783
 10
186.5994708140383
 20
15.10511457884228
 10
186.7048680855081
 20
15.10942885928707
 10
186.8204294070623
 20
15.10835504612033
 10
186.9359688877797
 20
15.10725965900997
 10
187.0414181130841
 20
15.11162525770634
 10
187.1018680471804
 20
15.10209426030673
 10
187.159283773911
 20
15.11617289606382
 10
187.1477773876709
 20
15.06707153265684
 10
187.1537566781749
 20
15.0256465801865
 10
187.1520311050802
 20
14.97651677966695
 10
187.1521500122971
 20
14.94854428447607
 10
187.1521871691833
 20
14.93980288195949
 72
     4
 94
        3
 73
     0
 74
     0
 95
       62
 96
       58
 40
0.0
 40
0.0
 40
0.0
 40
0.0
 40
0.0598250028308485
 40
0.2024846486897331
 40
0.3727558389221031
 40
0.515415484793607
 40
0.5752404975785339
 40
0.9332326775487232
 40
1.290451762839464
 40
1.602077253145848
 40
1.699931634112088
 40
1.79935975642496
 40
2.270120149657088
 40
2.804661928461472
 40
2.882342287383184
 40
3.076543185719037
 40
3.3290043548355
 40
3.581465524568331
 40
3.775666424543615
 40
3.853346784558236
 40
3.89912067959501
 40
3.984129341792037
 40
4.029903236817414
 40
4.105797496059574
 40
4.295533144152548
 40
4.542189486611806
 40
4.788845828875773
 40
4.978581476410169
 40
5.054475735244417
 40
5.621734664339479
 40
6.130867242037503
 40
6.22524978094875
 40
6.318913039727459
 40
6.663579954559105
 40
7.047498900224967
 40
7.43523079157587
 40
7.498943906668282
 40
7.650875181210276
 40
7.832212509001787
 40
7.984143783697172
 40
8.0478568989033
 40
8.091554632732814
 40
8.172707566964485
 40
8.216405300768216
 40
8.2890217821611
 40
8.462184160757474
 40
8.668861838005554
 40
8.842024215264146
 40
8.914640695475342
 40
8.989881580861553
 40
9.155411528827475
 40
9.320941477744274
 40
9.39618235248753
 40
9.454709011144077
 40
9.583467660171012
 40
9.71222630901329
 40
9.770752957989744
 40
9.770752957989744
 40
9.770752957989744
 40
9.770752957989744
 10
187.1521871691833
 20
14.93980288195949
 10
187.1322348171623
 20
14.93980875568671
 10
187.0647037716466
 20
14.93982863806156
 10
186.9410612161788
 20
14.93949362520325
 10
186.7863180150056
 20
14.94107673750511
 10
186.669734948248
 20
14.93686078860494
 10
186.455094263424
 20
14.95215205331625
 10
186.8518948407228
 20
14.59198721286192
 10
186.8945656069268
 20
14.37510503397164
 10
187.318916214661
 20
14.19325062511455
 10
187.1439821496075
 20
14.0898519656807
 10
187.0194523925085
 20
13.87831523212721
 10
186.7666277235942
 20
14.34806081001554
 10
186.4797602893627
 20
14.99511516984518
 10
186.4906335926661
 20
14.68782672154692
 10
186.488289277796
 20
14.52288616971776
 10
186.4861096126412
 20
14.28879670711691
 10
186.4980774396348
 20
14.0449807242178
 10
186.4687984740632
 20
13.89855796860981
 10
186.511452262547
 20
13.75113490174535
 10
186.423981400564
 20
13.76685797306217
 10
186.3768527606745
 20
13.76694303543452
 10
186.2898973207712
 20
13.75109425482905
 10
186.3313474021722
 20
13.8952777142276
 10
186.3029875004286
 20
14.03855052698454
 10
186.31459737753
 20
14.27674947365266
 10
186.3124175648272
 20
14.50517235240348
 10
186.3103111127993
 20
14.66705729375998
 10
186.3208035438324
 20
14.98153709333758
 10
186.0128963252893
 20
14.29229470872441
 10
185.7055258267455
 20
13.81476750243038
 10
185.5851367066275
 20
14.03741112637431
 10
185.4074607910721
 20
14.15011034955556
 10
185.8853326362894
 20
14.32548143465467
 10
185.9353959057208
 20
14.56091929252028
 10
186.3583799621717
 20
14.95322989344605
 10
186.127675427354
 20
14.93655307029065
 10
186.0049685859341
 20
14.9426951894877
 10
185.8325483095662
 20
14.93312822699573
 10
185.7213224694449
 20
14.95448818489665
 10
185.6025779627448
 20
14.92136265357419
 10
185.6183169706685
 20
15.00203900606883
 10
185.6178550933763
 20
15.04645414290855
 10
185.6027881889931
 20
15.12967081778535
 10
185.7372380935443
 20
15.09062651983885
 10
185.8619755545747
 20
15.11739729328424
 10
186.062875523728
 20
15.10063949044054
 10
186.1921540949353
 20
15.12204225913005
 10
186.3328419928295
 20
15.08868778853423
 10
186.2980927452614
 20
15.2265187578507
 10
186.3222185666713
 20
15.34963257349485
 10
186.2967086182392
 20
15.4702405567034
 10
186.3333251146685
 20
15.60539865141501
 10
186.2211417027769
 20
15.58094545781896
 10
186.1280356457136
 20
15.59307749842028
 10
186.0191547579819
 20
15.5895763007
 10
185.9569697640964
 20
15.58981755951609
 10
185.9375369557246
 20
15.5898929512415
 97
        3
330
B3
330
B4
330
B2
 75
     1
 76
     2
 52
45.0
 41
0.1
 77
     0
 78
     1
 53
45.0
 43
0.0
 44
0.0
 45
-0.282842712474619
 46
0.0
 79
     0
 98
        1
 10
0.0
 20
0.0
  0
HATCH
  5
D0
330
48
100
AcDbEntity
  8
1
  6
Continuous
 62
     2
100
AcDbHatch
 10
0.0
 20
0.0
 30
0.0
210
0.0
220
0.0
230
1.0
  2
CUSTOM14
 70
     0
 71
     1
 91
        1
 92
        1
 93
        4
 72
     1
 10
192.4578138032672
 20
15.22875434022059
 11
191.1602971697032
 21
15.22875434022059
 72
     1
 10
191.1602971697032
 20
15.22875434022059
 11
191.1602971697032
 21
15.39722336795629
 72
     1
 10
191.1602971697032
 20
15.39722336795629
 11
192.4578138032672
 21
15.39722336795629
 72
     1
 10
192.4578138032672
 20
15.39722336795629
 11
192.4578138032672
 21
15.22875434022059
 97
        1
330
B5
 75
     1
 76
     2
 52
45.0
 41
0.1
 77
     0
 78
     1
 53
45.0
 43
0.0
 44
0.0
 45
-0.282842712474619
 46
0.0
 79
     0
 98
        1
 10
0.0
 20
0.0
  0
ENDBLK
  5
4A
330
48
100
AcDbEntity
  8
0
100
AcDbBlockEnd
  0
BLOCK
  5
4D
330
4B
100
AcDbEntity
  8
0
100
AcDbBlockBegin
  2
開示A4枠
 70
     0
 10
0.0
 20
0.0
 30
0.0
  3
開示A4枠
  1

  0
INSERT
  5
4C
330
4B
100
AcDbEntity
  8
1
100
AcDbBlockReference
  2
開示A4
 10
0.0
 20
0.0
 30
0.0
  0
ENDBLK
  5
4E
330
4B
100
AcDbEntity
  8
0
100
AcDbBlockEnd
  0
BLOCK
  5
50
330
4F
100
AcDbEntity
  8
0
100
AcDbBlockBegin
  2
T29-0-13X25
 70
     0
 10
110.0999213873602
 20
156.779109632648
 30
0.0
  3
T29-0-13X25
  1

  0
LINE
  5
D1
330
4F
100
AcDbEntity
  8
1
  6
Continuous
 62
     7
100
AcDbLine
 10
162.1220520957992
 20
130.4328573347662
 30
0.0
 11
150.822240358195
 21
130.4328573347662
 31
0.0
  0
LINE
  5
D2
330
4F
100
AcDbEntity
  8
1
  6
Continuous
 62
     7
100
AcDbLine
 10
173.4218638334034
 20
130.4328573347662
 30
0.0
 11
162.1220520957992
 21
130.4328573347662
 31
0.0
  0
LINE
  5
D3
330
4F
100
AcDbEntity
  8
1
  6
Continuous
 62
     7
100
AcDbLine
 10
149.1220520957992
 20
121.9328573347662
 30
0.0
 11
149.1220520957992
 21
112.5004179865245
 31
0.0
  0
LINE
  5
D4
330
4F
100
AcDbEntity
  8
1
  6
Continuous
 62
     7
100
AcDbLine
 10
175.1220520957992
 20
121.9328573347662
 30
0.0
 11
175.1220520957992
 21
119.7841983124036
 31
0.0
  0
LINE
  5
D5
330
4F
100
AcDbEntity
  8
1
  6
Continuous
 62
     7
100
AcDbLine
 10
149.1220520957992
 20
121.9328573347662
 30
0.0
 11
175.1220520957992
 21
121.9328573347662
 31
0.0
  0
LINE
  5
D6
330
4F
100
AcDbEntity
  8
1
  6
Continuous
 62
     7
100
AcDbLine
 10
149.1220520957992
 20
136.4328573347662
 30
0.0
 11
149.1220520957992
 21
121.9328573347662
 31
0.0
  0
LINE
  5
D7
330
4F
100
AcDbEntity
  8
1
  6
Continuous
 62
     7
100
AcDbLine
 10
147.3720520957992
 20
142.4328573347662
 30
0.0
 11
176.8720520957992
 21
142.4328573347662
 31
0.0
  0
LINE
  5
D8
330
4F
100
AcDbEntity
  8
1
  6
Continuous
 62
     7
100
AcDbLine
 10
147.1220520957992
 20
142.1828573347662
 30
0.0
 11
147.1220520957992
 21
138.8823470775494
 31
0.0
  0
LINE
  5
D9
330
4F
100
AcDbEntity
  8
1
  6
Continuous
 62
     7
100
AcDbLine
 10
147.1220520957992
 20
142.1828573347662
 30
0.0
 11
147.3720520957992
 21
142.4328573347662
 31
0.0
  0
LINE
  5
DA
330
4F
100
AcDbEntity
  8
1
  6
Continuous
 62
     7
100
AcDbLine
 10
176.8720520957992
 20
142.4328573347662
 30
0.0
 11
177.1220520957992
 21
142.1828573347662
 31
0.0
  0
LINE
  5
DB
330
4F
100
AcDbEntity
  8
1
  6
Continuous
 62
     7
100
AcDbLine
 10
177.1220520957992
 20
142.1828573347662
 30
0.0
 11
177.1220520957992
 21
138.8823470775495
 31
0.0
  0
LINE
  5
DC
330
4F
100
AcDbEntity
  8
1
  6
Continuous
 62
     7
100
AcDbLine
 10
175.1220520957992
 20
136.4328573347663
 30
0.0
 11
175.1220520957992
 21
121.9328573347662
 31
0.0
  0
LINE
  5
DD
330
4F
100
AcDbEntity
  8
1
  6
Continuous
 62
     7
100
AcDbLine
 10
175.1220520957992
 20
111.4328573347662
 30
0.0
 11
175.1220520957992
 21
119.7841983124036
 31
0.0
  0
LINE
  5
DE
330
4F
100
AcDbEntity
  8
1
  6
Continuous
 62
     7
100
AcDbLine
 10
172.7344189649855
 20
109.2684134644573
 30
0.0
 11
172.402670351505
 21
98.65298833397578
 31
0.0
  0
LINE
  5
DF
330
4F
100
AcDbEntity
  8
1
  6
Continuous
 62
     7
100
AcDbLine
 10
171.5524189649847
 20
109.2684134644573
 30
0.0
 11
172.7344189649855
 21
109.2684134644573
 31
0.0
  0
LINE
  5
E0
330
4F
100
AcDbEntity
  8
1
  6
Continuous
 62
     2
100
AcDbLine
 10
171.5524189649847
 20
109.2684134644573
 30
0.0
 11
171.1825393522954
 21
97.43285733476618
 31
0.0
  0
LINE
  5
E1
330
4F
100
AcDbEntity
  8
1
  6
Continuous
 62
     2
100
AcDbLine
 10
172.8020612161535
 20
111.4328573347662
 30
0.0
 11
171.5524189649847
 21
109.2684134644573
 31
0.0
  0
LINE
  5
E2
330
4F
100
AcDbEntity
  8
1
  6
Continuous
 62
     7
100
AcDbLine
 10
172.402670351505
 20
98.65298833397578
 30
0.0
 11
171.1825393522954
 21
97.43285733476618
 31
0.0
  0
LINE
  5
E3
330
4F
100
AcDbEntity
  8
1
  6
Continuous
 62
     7
100
AcDbLine
 10
172.8020612161535
 20
111.4328573347662
 30
0.0
 11
172.7344189649855
 21
109.2684134644573
 31
0.0
  0
LINE
  5
E4
330
4F
100
AcDbEntity
  8
1
  6
Continuous
 62
     7
100
AcDbLine
 10
172.8020612161535
 20
111.4328573347662
 30
0.0
 11
175.1220520957992
 21
111.4328573347662
 31
0.0
  0
LINE
  5
E5
330
4F
100
AcDbEntity
  8
1
  6
Continuous
 62
     7
100
AcDbLine
 10
149.1220520957992
 20
111.4328573347662
 30
0.0
 11
151.442042975445
 21
111.4328573347662
 31
0.0
  0
LINE
  5
E6
330
4F
100
AcDbEntity
  8
1
  6
Continuous
 62
     7
100
AcDbLine
 10
151.8426254933681
 20
98.61485733476609
 30
0.0
 11
153.0246254933688
 21
98.61485733476609
 31
0.0
  0
LINE
  5
E7
330
4F
100
AcDbEntity
  8
1
  6
Continuous
 62
     7
100
AcDbLine
 10
151.8426254933681
 20
98.61485733476609
 30
0.0
 11
151.5096852266129
 21
109.2684134644573
 31
0.0
  0
LINE
  5
E8
330
4F
100
AcDbEntity
  8
1
  6
Continuous
 62
     7
100
AcDbLine
 10
151.4682942872766
 20
110.5928573347661
 30
0.0
 11
151.4682942872766
 21
110.5928573347606
 31
0.0
  0
LINE
  5
E9
330
4F
100
AcDbEntity
  8
1
  6
Continuous
 62
     7
100
AcDbLine
 10
151.4682942872766
 20
110.5928573347661
 30
0.0
 11
151.4682942872766
 21
110.5928573347606
 31
0.0
  0
LINE
  5
EA
330
4F
100
AcDbEntity
  8
1
  6
Continuous
 62
     7
100
AcDbLine
 10
151.4682942872766
 20
110.5928573347606
 30
0.0
 11
151.4682942872766
 21
110.5928573347661
 31
0.0
  0
LINE
  5
EB
330
4F
100
AcDbEntity
  8
1
  6
Continuous
 62
     7
100
AcDbLine
 10
151.4682942872766
 20
110.5928573347606
 30
0.0
 11
151.4682942872766
 21
110.5928573347661
 31
0.0
  0
LINE
  5
EC
330
4F
100
AcDbEntity
  8
1
  6
Continuous
 62
     2
100
AcDbLine
 10
153.0615648393029
 20
97.4328573347663
 30
0.0
 11
152.6916852266136
 21
109.2684134644573
 31
0.0
  0
LINE
  5
ED
330
4F
100
AcDbEntity
  8
1
  6
Continuous
 62
     7
100
AcDbLine
 10
151.8426254933681
 20
98.61485733476609
 30
0.0
 11
153.0615648393029
 21
97.4328573347663
 31
0.0
  0
LINE
  5
EE
330
4F
100
AcDbEntity
  8
1
  6
Continuous
 62
     7
100
AcDbLine
 10
151.4682942872766
 20
110.5928573347661
 30
0.0
 11
151.4682942872766
 21
110.5928573347606
 31
0.0
  0
LINE
  5
EF
330
4F
100
AcDbEntity
  8
1
  6
Continuous
 62
     7
100
AcDbLine
 10
151.4682942872766
 20
110.5928573347661
 30
0.0
 11
151.4682942872766
 21
110.5928573347606
 31
0.0
  0
LINE
  5
F0
330
4F
100
AcDbEntity
  8
1
  6
Continuous
 62
     2
100
AcDbLine
 10
151.442042975445
 20
111.4328573347662
 30
0.0
 11
152.6916852266136
 21
109.2684134644573
 31
0.0
  0
LINE
  5
F1
330
4F
100
AcDbEntity
  8
1
  6
Continuous
 62
     7
100
AcDbLine
 10
152.6916852266136
 20
109.2684134644573
 30
0.0
 11
151.5096852266129
 21
109.2684134644573
 31
0.0
  0
LINE
  5
F2
330
4F
100
AcDbEntity
  8
1
  6
Continuous
 62
     7
100
AcDbLine
 10
151.5096852266129
 20
109.2684134644573
 30
0.0
 11
151.442042975445
 21
111.4328573347662
 31
0.0
  0
LINE
  5
F3
330
4F
100
AcDbEntity
  8
1
  6
Continuous
 62
     7
100
AcDbLine
 10
153.0615648393029
 20
97.4328573347663
 30
0.0
 11
171.1825393522954
 21
97.43285733476618
 31
0.0
  0
LINE
  5
F4
330
4F
100
AcDbEntity
  8
1
  6
Continuous
 62
     7
100
AcDbLine
 10
149.1220520957992
 20
112.5004179865245
 30
0.0
 11
149.1220520957992
 21
111.4328573347662
 31
0.0
  0
LINE
  5
F5
330
4F
100
AcDbEntity
  8
1
  6
Continuous
 62
     7
100
AcDbLine
 10
147.1220520957992
 20
142.1828573347662
 30
0.0
 11
177.1220520957992
 21
142.1828573347662
 31
0.0
  0
LINE
  5
F6
330
4F
100
AcDbEntity
  8
1
  6
Continuous
 62
     7
100
AcDbLine
 10
147.5220520957992
 20
138.3924491289928
 30
0.0
 11
176.7220520957992
 21
138.3924491289928
 31
0.0
  0
LINE
  5
F7
330
4F
100
AcDbEntity
  8
1
  6
Continuous
 62
     7
100
AcDbLine
 10
151.442042975445
 20
111.4328573347662
 30
0.0
 11
172.8020612161535
 21
111.4328573347662
 31
0.0
  0
LINE
  5
F8
330
4F
100
AcDbEntity
  8
1
  6
Continuous
 62
     7
100
AcDbLine
 10
152.6916852266136
 20
109.2684134644573
 30
0.0
 11
171.5524189649847
 21
109.2684134644573
 31
0.0
  0
LINE
  5
F9
330
4F
100
AcDbEntity
  8
1
  6
Continuous
 62
     7
100
AcDbLine
 10
153.0246254933688
 20
98.61485733476609
 30
0.0
 11
172.402670351505
 21
98.614857334766
 31
0.0
  0
LINE
  5
FA
330
4F
100
AcDbEntity
  8
1
  6
Continuous
 62
     7
100
AcDbLine
 10
89.00263228246146
 20
184.4328573347662
 30
0.0
 11
71.48594705600937
 21
184.4328573347662
 31
0.0
  0
LINE
  5
FB
330
4F
100
AcDbEntity
  8
1
  6
Continuous
 62
     7
100
AcDbLine
 10
89.00263228246146
 20
210.4328573347662
 30
0.0
 11
71.48594705600937
 21
210.4328573347662
 31
0.0
  0
LINE
  5
FC
330
4F
100
AcDbEntity
  8
1
  6
Continuous
 62
     7
100
AcDbLine
 10
51.00263228246146
 20
136.4328573347662
 30
0.0
 11
51.00263228246146
 21
124.5815163571289
 31
0.0
  0
LINE
  5
FD
330
4F
100
AcDbEntity
  8
1
  6
Continuous
 62
     7
100
AcDbLine
 10
49.25263228246146
 20
142.4328573347662
 30
0.0
 11
78.75263228246146
 21
142.4328573347662
 31
0.0
  0
LINE
  5
FE
330
4F
100
AcDbEntity
  8
1
  6
Continuous
 62
     7
100
AcDbLine
 10
49.00263228246146
 20
142.1828573347662
 30
0.0
 11
49.00263228246146
 21
138.8823470775494
 31
0.0
  0
LINE
  5
FF
330
4F
100
AcDbEntity
  8
1
  6
Continuous
 62
     7
100
AcDbLine
 10
49.00263228246146
 20
142.1828573347662
 30
0.0
 11
49.25263228246146
 21
142.4328573347662
 31
0.0
  0
LINE
  5
100
330
4F
100
AcDbEntity
  8
1
  6
Continuous
 62
     7
100
AcDbLine
 10
78.75263228246146
 20
142.4328573347662
 30
0.0
 11
79.00263228246146
 21
142.1828573347662
 31
0.0
  0
LINE
  5
101
330
4F
100
AcDbEntity
  8
1
  6
Continuous
 62
     7
100
AcDbLine
 10
79.00263228246146
 20
142.1828573347662
 30
0.0
 11
79.00263228246146
 21
138.8823470775495
 31
0.0
  0
LINE
  5
102
330
4F
100
AcDbEntity
  8
1
  6
Continuous
 62
     7
100
AcDbLine
 10
77.00263228246146
 20
136.4328573347663
 30
0.0
 11
77.00263228246146
 21
131.865296683008
 31
0.0
  0
LINE
  5
103
330
4F
100
AcDbEntity
  8
1
  6
Continuous
 62
     7
100
AcDbLine
 10
102.0026322824615
 20
111.4328573347662
 30
0.0
 11
102.0026322824615
 21
119.7841983124036
 31
0.0
  0
LINE
  5
104
330
4F
100
AcDbEntity
  8
1
  6
Continuous
 62
     7
100
AcDbLine
 10
99.61499915164777
 20
109.2684134644573
 30
0.0
 11
99.28325053816727
 21
98.65298833397578
 31
0.0
  0
LINE
  5
105
330
4F
100
AcDbEntity
  8
1
  6
Continuous
 62
     7
100
AcDbLine
 10
98.43299915164695
 20
109.2684134644573
 30
0.0
 11
99.61499915164777
 21
109.2684134644573
 31
0.0
  0
LINE
  5
106
330
4F
100
AcDbEntity
  8
1
  6
Continuous
 62
     2
100
AcDbLine
 10
98.43299915164695
 20
109.2684134644573
 30
0.0
 11
98.06311953895766
 21
97.43285733476618
 31
0.0
  0
LINE
  5
107
330
4F
100
AcDbEntity
  8
1
  6
Continuous
 62
     2
100
AcDbLine
 10
99.68264140281576
 20
111.4328573347662
 30
0.0
 11
98.43299915164695
 21
109.2684134644573
 31
0.0
  0
LINE
  5
108
330
4F
100
AcDbEntity
  8
1
  6
Continuous
 62
     7
100
AcDbLine
 10
99.28325053816727
 20
98.65298833397578
 30
0.0
 11
98.06311953895766
 21
97.43285733476618
 31
0.0
  0
LINE
  5
109
330
4F
100
AcDbEntity
  8
1
  6
Continuous
 62
     7
100
AcDbLine
 10
99.68264140281576
 20
111.4328573347662
 30
0.0
 11
99.61499915164777
 21
109.2684134644573
 31
0.0
  0
LINE
  5
10A
330
4F
100
AcDbEntity
  8
1
  6
Continuous
 62
     7
100
AcDbLine
 10
99.68264140281576
 20
111.4328573347662
 30
0.0
 11
102.0026322824615
 21
111.4328573347662
 31
0.0
  0
LINE
  5
10B
330
4F
100
AcDbEntity
  8
1
  6
Continuous
 62
     7
100
AcDbLine
 10
76.00263228246146
 20
111.4328573347662
 30
0.0
 11
78.32262316210726
 21
111.4328573347662
 31
0.0
  0
LINE
  5
10C
330
4F
100
AcDbEntity
  8
1
  6
Continuous
 62
     7
100
AcDbLine
 10
78.72320568003026
 20
98.61485733476609
 30
0.0
 11
79.90520568003096
 21
98.61485733476609
 31
0.0
  0
LINE
  5
10D
330
4F
100
AcDbEntity
  8
1
  6
Continuous
 62
     7
100
AcDbLine
 10
78.72320568003026
 20
98.61485733476609
 30
0.0
 11
78.39026541327517
 21
109.2684134644573
 31
0.0
  0
LINE
  5
10E
330
4F
100
AcDbEntity
  8
1
  6
Continuous
 62
     7
100
AcDbLine
 10
78.34887447393886
 20
110.5928573347661
 30
0.0
 11
78.34887447393886
 21
110.5928573347606
 31
0.0
  0
LINE
  5
10F
330
4F
100
AcDbEntity
  8
1
  6
Continuous
 62
     7
100
AcDbLine
 10
78.34887447393886
 20
110.5928573347661
 30
0.0
 11
78.34887447393886
 21
110.5928573347606
 31
0.0
  0
LINE
  5
110
330
4F
100
AcDbEntity
  8
1
  6
Continuous
 62
     7
100
AcDbLine
 10
78.34887447393886
 20
110.5928573347606
 30
0.0
 11
78.34887447393886
 21
110.5928573347661
 31
0.0
  0
LINE
  5
111
330
4F
100
AcDbEntity
  8
1
  6
Continuous
 62
     7
100
AcDbLine
 10
78.34887447393886
 20
110.5928573347606
 30
0.0
 11
78.34887447393886
 21
110.5928573347661
 31
0.0
  0
LINE
  5
112
330
4F
100
AcDbEntity
  8
1
  6
Continuous
 62
     2
100
AcDbLine
 10
79.94214502596516
 20
97.4328573347663
 30
0.0
 11
79.57226541327587
 21
109.2684134644573
 31
0.0
  0
LINE
  5
113
330
4F
100
AcDbEntity
  8
1
  6
Continuous
 62
     7
100
AcDbLine
 10
78.72320568003026
 20
98.61485733476609
 30
0.0
 11
79.94214502596516
 21
97.4328573347663
 31
0.0
  0
LINE
  5
114
330
4F
100
AcDbEntity
  8
1
  6
Continuous
 62
     7
100
AcDbLine
 10
78.34887447393886
 20
110.5928573347661
 30
0.0
 11
78.34887447393886
 21
110.5928573347606
 31
0.0
  0
LINE
  5
115
330
4F
100
AcDbEntity
  8
1
  6
Continuous
 62
     7
100
AcDbLine
 10
78.34887447393886
 20
110.5928573347661
 30
0.0
 11
78.34887447393886
 21
110.5928573347606
 31
0.0
  0
LINE
  5
116
330
4F
100
AcDbEntity
  8
1
  6
Continuous
 62
     2
100
AcDbLine
 10
78.32262316210726
 20
111.4328573347662
 30
0.0
 11
79.57226541327587
 21
109.2684134644573
 31
0.0
  0
LINE
  5
117
330
4F
100
AcDbEntity
  8
1
  6
Continuous
 62
     7
100
AcDbLine
 10
79.57226541327587
 20
109.2684134644573
 30
0.0
 11
78.39026541327517
 21
109.2684134644573
 31
0.0
  0
LINE
  5
118
330
4F
100
AcDbEntity
  8
1
  6
Continuous
 62
     7
100
AcDbLine
 10
78.39026541327517
 20
109.2684134644573
 30
0.0
 11
78.32262316210726
 21
111.4328573347662
 31
0.0
  0
LINE
  5
119
330
4F
100
AcDbEntity
  8
1
  6
Continuous
 62
     7
100
AcDbLine
 10
79.94214502596516
 20
97.4328573347663
 30
0.0
 11
98.06311953895766
 21
97.43285733476618
 31
0.0
  0
LINE
  5
11A
330
4F
100
AcDbEntity
  8
1
  6
Continuous
 62
     7
100
AcDbLine
 10
78.35882681598406
 20
129.9717511933686
 30
0.0
 11
99.96834048217755
 21
122.6245165468628
 31
0.0
  0
LINE
  5
11B
330
4F
100
AcDbEntity
  8
1
  6
Continuous
 62
     7
100
AcDbLine
 10
76.00263228246146
 20
112.5004179865245
 30
0.0
 11
76.00263228246146
 21
111.4328573347662
 31
0.0
  0
LINE
  5
11C
330
4F
100
AcDbEntity
  8
1
  6
Continuous
 62
     7
100
AcDbLine
 10
53.03692408274534
 20
121.7411981226697
 30
0.0
 11
74.64643774893887
 21
114.3939634761639
 31
0.0
  0
LINE
  5
11D
330
4F
100
AcDbEntity
  8
1
  6
Continuous
 62
     7
100
AcDbLine
 10
49.00263228246146
 20
142.1828573347662
 30
0.0
 11
79.00263228246146
 21
142.1828573347662
 31
0.0
  0
LINE
  5
11E
330
4F
100
AcDbEntity
  8
1
  6
Continuous
 62
     7
100
AcDbLine
 10
49.40263228246147
 20
138.3924491289928
 30
0.0
 11
78.60263228246147
 21
138.3924491289928
 31
0.0
  0
LINE
  5
11F
330
4F
100
AcDbEntity
  8
1
  6
Continuous
 62
     7
100
AcDbLine
 10
78.32262316210726
 20
111.4328573347662
 30
0.0
 11
99.68264140281576
 21
111.4328573347662
 31
0.0
  0
LINE
  5
120
330
4F
100
AcDbEntity
  8
1
  6
Continuous
 62
     7
100
AcDbLine
 10
79.57226541327587
 20
109.2684134644573
 30
0.0
 11
98.43299915164695
 21
109.2684134644573
 31
0.0
  0
LINE
  5
121
330
4F
100
AcDbEntity
  8
1
  6
Continuous
 62
     7
100
AcDbLine
 10
79.90520568003096
 20
98.61485733476609
 30
0.0
 11
99.28325053816727
 21
98.614857334766
 31
0.0
  0
LINE
  5
122
330
4F
100
AcDbEntity
  8
1
  6
Continuous
 62
     7
100
AcDbLine
 10
67.91905216229787
 20
130.4328573347662
 30
0.0
 11
76.00263228246146
 21
130.4328573347662
 31
0.0
  0
LINE
  5
123
330
4F
100
AcDbEntity
  8
1
  6
Continuous
 62
     7
100
AcDbLine
 10
53.55040755703286
 20
122.4328573347663
 30
0.0
 11
62.55040755703286
 21
122.4328573347663
 31
0.0
  0
LINE
  5
124
330
4F
100
AcDbEntity
  8
1
  6
Continuous
 62
     7
100
AcDbLine
 10
78.55040755703287
 20
113.5928573347663
 30
0.0
 11
87.55040755703287
 21
113.5928573347663
 31
0.0
  0
LINE
  5
125
330
4F
100
AcDbEntity
  8
1
  6
Continuous
 62
     7
100
AcDbLine
 10
92.91905216229787
 20
121.9328573347662
 30
0.0
 11
100.2377354326115
 21
121.9328573347662
 31
0.0
  0
ARC
  5
126
330
4F
100
AcDbEntity
  8
1
  6
Continuous
 62
     7
100
AcDbCircle
 10
177.1220520957992
 20
136.4328573347663
 30
0.0
 40
1.999999999999957
100
AcDbArc
 50
101.5369590328159
 51
180.0
  0
ARC
  5
127
330
4F
100
AcDbEntity
  8
1
  6
Continuous
 62
     7
100
AcDbCircle
 10
89.00263228246146
 20
197.4328573347662
 30
0.0
 40
13.0
100
AcDbArc
 50
270.0
 51
90.0
  0
ARC
  5
128
330
4F
100
AcDbEntity
  8
1
  6
Continuous
 62
     7
100
AcDbCircle
 10
64.00263228246146
 20
197.4328573347662
 30
0.0
 40
15.0
100
AcDbArc
 50
90.0
 51
60.07356513338569
  0
ARC
  5
129
330
4F
100
AcDbEntity
  8
1
  6
Continuous
 62
     7
100
AcDbCircle
 10
64.00263228246146
 20
197.4328573347662
 30
0.0
 40
9.3155000000001
100
AcDbArc
 50
90.0
 51
294.2525333582734
  0
ARC
  5
12A
330
4F
100
AcDbEntity
  8
1
  6
Continuous
 62
     7
100
AcDbCircle
 10
64.00263228246146
 20
197.4328573347662
 30
0.0
 40
9.315500000000018
100
AcDbArc
 50
39.12762313219364
 51
65.74746664172685
  0
ARC
  5
12B
330
4F
100
AcDbEntity
  8
1
  6
Continuous
 62
     7
100
AcDbCircle
 10
64.00263228246146
 20
197.4328573347662
 30
0.0
 40
9.315499999999977
100
AcDbArc
 50
294.2525333582734
 51
320.8723768678068
  0
ARC
  5
12C
330
4F
100
AcDbEntity
  8
1
  6
Continuous
 62
     7
100
AcDbCircle
 10
64.00263228246146
 20
197.4328573347662
 30
0.0
 40
9.315499999999965
100
AcDbArc
 50
320.8723768678068
 51
39.12762313219364
  0
LWPOLYLINE
  5
12D
330
4F
100
AcDbEntity
  8
1
  6
Continuous
 62
     7
100
AcDbPolyline
 90
        2
 70
     1
 43
0.0
 10
64.00263228246146
 20
208.6828573347662
 42
1.0
 10
64.00263228246146
 20
186.1828573347662
 42
1.0
  0
LWPOLYLINE
  5
12E
330
4F
100
AcDbEntity
  8
1
  6
Continuous
 62
     2
100
AcDbPolyline
 90
        2
 70
     1
 43
0.0
 10
64.00263228246146
 20
207.9303573347662
 42
1.0
 10
64.00263228246146
 20
186.9353573347662
 42
1.0
  0
ARC
  5
12F
330
4F
100
AcDbEntity
  8
1
  6
Continuous
 62
     7
100
AcDbCircle
 10
64.00263228246146
 20
197.4328573347662
 30
0.0
 40
9.315500000000082
100
AcDbArc
 50
65.74746664172685
 51
90.0
  0
ARC
  5
130
330
4F
100
AcDbEntity
  8
1
  6
Continuous
 62
     7
100
AcDbCircle
 10
64.00263228246146
 20
197.4328573347662
 30
0.0
 40
15.00000000000001
100
AcDbArc
 50
60.07356513338569
 51
90.0
  0
ARC
  5
131
330
4F
100
AcDbEntity
  8
1
  6
Continuous
 62
     7
100
AcDbCircle
 10
79.00263228246146
 20
136.4328573347663
 30
0.0
 40
1.999999999999954
100
AcDbArc
 50
101.5369590328155
 51
180.0
  0
ARC
  5
132
330
4F
100
AcDbEntity
  8
1
  6
Continuous
 62
     7
100
AcDbCircle
 10
54.00263228246146
 20
124.5815163571289
 30
0.0
 40
3.0
100
AcDbArc
 50
180.0
 51
251.2219667775545
  0
ARC
  5
133
330
4F
100
AcDbEntity
  8
1
  6
Continuous
 62
     7
100
AcDbCircle
 10
79.00263228246146
 20
131.865296683008
 30
0.0
 40
2.0
100
AcDbArc
 50
180.0
 51
251.2219667775545
  0
ARC
  5
134
330
4F
100
AcDbEntity
  8
1
  6
Continuous
 62
     7
100
AcDbCircle
 10
99.00263228246146
 20
119.7841983124036
 30
0.0
 40
3.000000000000043
100
AcDbArc
 50
0.0
 51
71.22196677755508
  0
ARC
  5
135
330
4F
100
AcDbEntity
  8
1
  6
Continuous
 62
     7
100
AcDbCircle
 10
74.00263228246146
 20
112.5004179865245
 30
0.0
 40
2.0
100
AcDbArc
 50
0.0
 51
71.22196677755434
  0
CIRCLE
  5
136
330
4F
100
AcDbEntity
  8
1
  6
Continuous
 62
     7
100
AcDbCircle
 10
64.00263228246146
 20
197.4328573347662
 30
0.0
 40
14.75
  0
CIRCLE
  5
137
330
4F
100
AcDbEntity
  8
1
  6
Continuous
 62
     7
100
AcDbCircle
 10
64.00263228246146
 20
197.4328573347662
 30
0.0
 40
13.0
  0
CIRCLE
  5
138
330
4F
100
AcDbEntity
  8
1
  6
Continuous
 62
     7
100
AcDbCircle
 10
64.00263228246146
 20
197.4328573347662
 30
0.0
 40
12.5
  0
ARC
  5
139
330
4F
100
AcDbEntity
  8
1
  6
Continuous
 62
     7
100
AcDbCircle
 10
176.6220520957992
 20
138.8823470775495
 30
0.0
 40
0.5000000000000505
100
AcDbArc
 50
281.5369590328137
 51
0.0
  0
ARC
  5
13A
330
4F
100
AcDbEntity
  8
1
  6
Continuous
 62
     7
100
AcDbCircle
 10
147.1220520957992
 20
136.4328573347662
 30
0.0
 40
2.0
100
AcDbArc
 50
0.0
 51
78.46304096718475
  0
ARC
  5
13B
330
4F
100
AcDbEntity
  8
1
  6
Continuous
 62
     7
100
AcDbCircle
 10
147.6220520957992
 20
138.8823470775494
 30
0.0
 40
0.5
100
AcDbArc
 50
180.0
 51
258.4630409671844
  0
ARC
  5
13C
330
4F
100
AcDbEntity
  8
1
  6
Continuous
 62
     7
100
AcDbCircle
 10
78.50263228246146
 20
138.8823470775495
 30
0.0
 40
0.5000000000000533
100
AcDbArc
 50
281.5369590328152
 51
0.0
  0
ARC
  5
13D
330
4F
100
AcDbEntity
  8
1
  6
Continuous
 62
     7
100
AcDbCircle
 10
49.00263228246146
 20
136.4328573347662
 30
0.0
 40
2.0
100
AcDbArc
 50
0.0
 51
78.46304096718475
  0
ARC
  5
13E
330
4F
100
AcDbEntity
  8
1
  6
Continuous
 62
     7
100
AcDbCircle
 10
49.50263228246146
 20
138.8823470775494
 30
0.0
 40
0.5
100
AcDbArc
 50
180.0
 51
258.4630409671844
  0
MTEXT
  5
140
330
4F
100
AcDbEntity
  8
1
 62
     7
100
AcDbMText
 10
63.97211505548216
 20
130.2675537520525
 30
0.0
 40
5.0
 41
0.0
 71
     5
 72
     1
  1
13X25
  7
CONVERTER_12
 11
6.123031769111886E-17
 21
-1.0
 31
0.0
 73
     1
 44
1.32052821128451
  0
ENDBLK
  5
51
330
4F
100
AcDbEntity
  8
0
100
AcDbBlockEnd
  0
BLOCK
  5
162
330
15A
100
AcDbEntity
  8
0
100
AcDbBlockBegin
  2
*D4
 70
     1
 10
0.0
 20
0.0
 30
0.0
  3
*D4
  1

  0
LINE
  5
15B
330
15A
100
AcDbEntity
  8
0
  6
Continuous
 62
     2
100
AcDbLine
 10
76.00263228246146
 20
88.43285733476618
 30
0.0
 11
102.0026322824615
 21
88.43285733476618
 31
0.0
  0
LINE
  5
15C
330
15A
100
AcDbEntity
  8
0
  6
Continuous
 62
     2
100
AcDbLine
 10
102.0026322824615
 20
111.4328573347662
 30
0.0
 11
102.0026322824615
 21
87.43285733476618
 31
0.0
  0
LINE
  5
15D
330
15A
100
AcDbEntity
  8
0
  6
Continuous
 62
     2
100
AcDbLine
 10
76.00263228246146
 20
99.18784923447399
 30
0.0
 11
76.00263228246146
 21
87.43285733476618
 31
0.0
  0
LINE
  5
15E
330
15A
100
AcDbEntity
  8
0
  6
Continuous
 62
     2
100
AcDbLine
 10
76.00263228246146
 20
111.4328573347662
 30
0.0
 11
76.00263228246146
 21
99.925428405709
 31
0.0
  0
SOLID
  5
15F
330
15A
100
AcDbEntity
  8
0
 62
     2
100
AcDbTrace
 10
79.50263228246146
 20
88.89364107632207
 30
0.0
 11
79.50263228246146
 21
87.9720735932103
 31
0.0
 12
76.00263228246146
 22
88.43285733476618
 32
0.0
 13
76.00263228246146
 23
88.43285733476618
 33
0.0
  0
SOLID
  5
160
330
15A
100
AcDbEntity
  8
0
 62
     2
100
AcDbTrace
 10
98.50263228246146
 20
87.9720735932103
 30
0.0
 11
98.50263228246146
 21
88.89364107632207
 31
0.0
 12
102.0026322824615
 22
88.43285733476618
 32
0.0
 13
102.0026322824615
 23
88.43285733476618
 33
0.0
  0
MTEXT
  5
161
330
15A
100
AcDbEntity
  8
0
 62
     7
100
AcDbMText
 10
86.2206223984629
 20
89.43285037768986
 30
0.0
 40
3.5
 41
0.0
 71
     7
 72
     1
  1
\C7;{\Fgdt;n}\C7;26
  7
CONVERTER_13
 11
0.9999999999970619
 21
2.424068405545306E-6
 31
0.0
 73
     1
 44
0.60024009603842
  0
ENDBLK
  5
163
330
15A
100
AcDbEntity
  8
0
100
AcDbBlockEnd
  0
BLOCK
  5
16E
330
166
100
AcDbEntity
  8
0
100
AcDbBlockBegin
  2
*D5
 70
     1
 10
0.0
 20
0.0
 30
0.0
  3
*D5
  1

  0
LINE
  5
167
330
166
100
AcDbEntity
  8
0
  6
Continuous
 62
     2
100
AcDbLine
 10
49.00263228246146
 20
153.4328573347662
 30
0.0
 11
79.00263228246146
 21
153.4328573347662
 31
0.0
  0
LINE
  5
168
330
166
100
AcDbEntity
  8
0
  6
Continuous
 62
     2
100
AcDbLine
 10
79.00263228246146
 20
142.1828573347662
 30
0.0
 11
79.00263228246146
 21
149.632231263601
 31
0.0
  0
LINE
  5
169
330
166
100
AcDbEntity
  8
0
  6
Continuous
 62
     2
100
AcDbLine
 10
79.00263228246146
 20
150.944181839963
 30
0.0
 11
79.00263228246146
 21
154.4328573347662
 31
0.0
  0
LINE
  5
16A
330
166
100
AcDbEntity
  8
0
  6
Continuous
 62
     2
100
AcDbLine
 10
49.00263228246146
 20
142.1828573347662
 30
0.0
 11
49.00263228246146
 21
154.4328573347662
 31
0.0
  0
SOLID
  5
16B
330
166
100
AcDbEntity
  8
0
 62
     2
100
AcDbTrace
 10
52.50263228246146
 20
153.8936410763221
 30
0.0
 11
52.50263228246146
 21
152.9720735932103
 31
0.0
 12
49.00263228246146
 22
153.4328573347662
 32
0.0
 13
49.00263228246146
 23
153.4328573347662
 33
0.0
  0
SOLID
  5
16C
330
166
100
AcDbEntity
  8
0
 62
     2
100
AcDbTrace
 10
75.50263228246146
 20
152.9720735932103
 30
0.0
 11
75.50263228246146
 21
153.8936410763221
 31
0.0
 12
79.00263228246146
 22
153.4328573347662
 32
0.0
 13
79.00263228246146
 23
153.4328573347662
 33
0.0
  0
MTEXT
  5
16D
330
166
100
AcDbEntity
  8
0
 62
     7
100
AcDbMText
 10
60.46151935838489
 20
154.4328503776899
 30
0.0
 40
3.5
 41
0.0
 71
     7
 72
     1
  1
\C7;{\Fgdt;n}\C7;30
  7
CONVERTER_13
 11
0.9999999999970619
 21
2.424068405545306E-6
 31
0.0
 73
     1
 44
0.60024009603842
  0
ENDBLK
  5
16F
330
166
100
AcDbEntity
  8
0
100
AcDbBlockEnd
  0
BLOCK
  5
179
330
172
100
AcDbEntity
  8
0
100
AcDbBlockBegin
  2
*D6
 70
     1
 10
0.0
 20
0.0
 30
0.0
  3
*D6
  1

  0
LINE
  5
173
330
172
100
AcDbEntity
  8
0
  6
Continuous
 62
     2
100
AcDbLine
 10
111.0026322824615
 20
111.4328573347662
 30
0.0
 11
111.0026322824615
 21
97.43285733476618
 31
0.0
  0
LINE
  5
174
330
172
100
AcDbEntity
  8
0
  6
Continuous
 62
     2
100
AcDbLine
 10
98.06311953895771
 20
97.43285733476618
 30
0.0
 11
112.0026322824615
 21
97.43285733476618
 31
0.0
  0
LINE
  5
175
330
172
100
AcDbEntity
  8
0
  6
Continuous
 62
     2
100
AcDbLine
 10
102.0026322824615
 20
111.4328573347662
 30
0.0
 11
112.0026322824615
 21
111.4328573347662
 31
0.0
  0
SOLID
  5
176
330
172
100
AcDbEntity
  8
0
 62
     2
100
AcDbTrace
 10
111.4634160240174
 20
107.9328573347662
 30
0.0
 11
110.5418485409056
 21
107.9328573347662
 31
0.0
 12
111.0026322824615
 22
111.4328573347662
 32
0.0
 13
111.0026322824615
 23
111.4328573347662
 33
0.0
  0
SOLID
  5
177
330
172
100
AcDbEntity
  8
0
 62
     2
100
AcDbTrace
 10
110.5418485409056
 20
100.9328573347662
 30
0.0
 11
111.4634160240174
 21
100.9328573347662
 31
0.0
 12
111.0026322824615
 22
97.43285733476618
 32
0.0
 13
111.0026322824615
 23
97.43285733476618
 33
0.0
  0
MTEXT
  5
178
330
172
100
AcDbEntity
  8
0
 62
     7
100
AcDbMText
 10
110.0026322824615
 20
102.454742809735
 30
0.0
 40
3.5
 41
0.0
 71
     7
 72
     1
  1
14
  7
CONVERTER_13
 11
0.0
 21
1.0
 31
0.0
 73
     1
 44
0.60024009603842
  0
ENDBLK
  5
17A
330
172
100
AcDbEntity
  8
0
100
AcDbBlockEnd
  0
BLOCK
  5
184
330
17D
100
AcDbEntity
  8
0
100
AcDbBlockBegin
  2
*D7
 70
     1
 10
0.0
 20
0.0
 30
0.0
  3
*D7
  1

  0
LINE
  5
17E
330
17D
100
AcDbEntity
  8
0
  6
Continuous
 62
     2
100
AcDbLine
 10
119.0026322824615
 20
142.4328573347662
 30
0.0
 11
119.0026322824615
 21
97.4328573347662
 31
0.0
  0
LINE
  5
17F
330
17D
100
AcDbEntity
  8
0
  6
Continuous
 62
     2
100
AcDbLine
 10
98.06311953895771
 20
97.4328573347662
 30
0.0
 11
120.0026322824615
 21
97.4328573347662
 31
0.0
  0
LINE
  5
180
330
17D
100
AcDbEntity
  8
0
  6
Continuous
 62
     2
100
AcDbLine
 10
78.7526322824615
 20
142.4328573347662
 30
0.0
 11
120.0026322824615
 21
142.4328573347662
 31
0.0
  0
SOLID
  5
181
330
17D
100
AcDbEntity
  8
0
 62
     2
100
AcDbTrace
 10
119.4634160240174
 20
138.9328573347662
 30
0.0
 11
118.5418485409056
 21
138.9328573347662
 31
0.0
 12
119.0026322824615
 22
142.4328573347662
 32
0.0
 13
119.0026322824615
 23
142.4328573347662
 33
0.0
  0
SOLID
  5
182
330
17D
100
AcDbEntity
  8
0
 62
     2
100
AcDbTrace
 10
118.5418485409056
 20
100.9328573347662
 30
0.0
 11
119.4634160240174
 21
100.9328573347662
 31
0.0
 12
119.0026322824615
 22
97.4328573347662
 32
0.0
 13
119.0026322824615
 23
97.4328573347662
 33
0.0
  0
MTEXT
  5
183
330
17D
100
AcDbEntity
  8
0
 62
     7
100
AcDbMText
 10
118.0026322824615
 20
118.167335023308
 30
0.0
 40
3.5
 41
0.0
 71
     7
 72
     1
  1
45
  7
CONVERTER_13
 11
0.0
 21
1.0
 31
0.0
 73
     1
 44
0.60024009603842
  0
ENDBLK
  5
185
330
17D
100
AcDbEntity
  8
0
100
AcDbBlockEnd
  0
BLOCK
  5
18F
330
188
100
AcDbEntity
  8
0
100
AcDbBlockBegin
  2
*D8
 70
     1
 10
0.0
 20
0.0
 30
0.0
  3
*D8
  1

  0
LINE
  5
189
330
188
100
AcDbEntity
  8
1
  6
Continuous
 62
     2
100
AcDbLine
 10
64.00263228246146
 20
223.4328573347662
 30
0.0
 11
89.00263228246146
 21
223.4328573347662
 31
0.0
  0
LINE
  5
18A
330
188
100
AcDbEntity
  8
1
  6
Continuous
 62
     2
100
AcDbLine
 10
89.00263228246146
 20
213.7530567422461
 30
0.0
 11
89.00263228246146
 21
224.4328573347662
 31
0.0
  0
LINE
  5
18B
330
188
100
AcDbEntity
  8
1
  6
Continuous
 62
     2
100
AcDbLine
 10
64.00263228246146
 20
215.4328573347662
 30
0.0
 11
64.00263228246146
 21
224.4328573347662
 31
0.0
  0
SOLID
  5
18C
330
188
100
AcDbEntity
  8
1
 62
     2
100
AcDbTrace
 10
67.50263228246146
 20
223.8936410763221
 30
0.0
 11
67.50263228246146
 21
222.9720735932103
 31
0.0
 12
64.00263228246146
 22
223.4328573347662
 32
0.0
 13
64.00263228246146
 23
223.4328573347662
 33
0.0
  0
SOLID
  5
18D
330
188
100
AcDbEntity
  8
1
 62
     2
100
AcDbTrace
 10
85.50263228246146
 20
222.9720735932103
 30
0.0
 11
85.50263228246146
 21
223.8936410763221
 31
0.0
 12
89.00263228246146
 22
223.4328573347662
 32
0.0
 13
89.00263228246146
 23
223.4328573347662
 33
0.0
  0
MTEXT
  5
18E
330
188
100
AcDbEntity
  8
1
 62
     7
100
AcDbMText
 10
73.51050884955707
 20
224.4328573347662
 30
0.0
 40
3.5
 41
0.0
 71
     7
 72
     1
  1
25
  7
CONVERTER_13
 11
0.9999999999970619
 21
2.424068405545306E-6
 31
0.0
 73
     1
 44
0.60024009603842
  0
ENDBLK
  5
190
330
188
100
AcDbEntity
  8
0
100
AcDbBlockEnd
  0
ENDSEC
  0
SECTION
  2
ENTITIES
  0
INSERT
  5
52
330
1F
100
AcDbEntity
  8
0
100
AcDbBlockReference
  2
開示A4枠
 10
0.0
 20
0.0
 30
0.0
  0
INSERT
  5
53
330
1F
100
AcDbEntity
  8
0
100
AcDbBlockReference
  2
T29-0-13X25
 10
110.0999213873602
 20
156.779109632648
 30
0.0
  0
LINE
  5
141
330
1F
100
AcDbEntity
  8
1
  6
DASH_CENTER
 62
     2
100
AcDbLine
 10
162.1220520957992
 20
145.4328573347662
 30
0.0
 11
162.1220520957992
 21
94.4328573347663
 31
0.0
  0
LINE
  5
142
330
1F
100
AcDbEntity
  8
1
  6
DASH_CENTER
 62
     2
100
AcDbLine
 10
46.00263228246146
 20
197.4328573347662
 30
0.0
 11
105.0026322824615
 21
197.4328573347663
 31
0.0
  0
LINE
  5
143
330
1F
100
AcDbEntity
  8
1
  6
DASH_CENTER
 62
     2
100
AcDbLine
 10
89.00263228246146
 20
213.7530567422461
 30
0.0
 11
89.00263228246146
 21
181.0138138651592
 31
0.0
  0
LINE
  5
144
330
1F
100
AcDbEntity
  8
1
  6
DASH_CENTER
 62
     2
100
AcDbLine
 10
64.00263228246146
 20
215.4328573347662
 30
0.0
 11
64.00263228246146
 21
179.4328573347662
 31
0.0
  0
LINE
  5
145
330
1F
100
AcDbEntity
  8
1
  6
DASH_CENTER
 62
     2
100
AcDbLine
 10
89.00263228246146
 20
116.469521119261
 30
0.0
 11
89.00263228246146
 21
94.4328573347663
 31
0.0
  0
LINE
  5
146
330
1F
100
AcDbEntity
  8
1
  6
DASH_CENTER
 62
     2
100
AcDbLine
 10
64.00263228246146
 20
145.4328573347662
 30
0.0
 11
64.00263228246146
 21
123.4328573347662
 31
0.0
  0
SOLID
  5
147
330
1F
100
AcDbEntity
  8
0
 62
     2
100
AcDbTrace
 10
77.19948940449969
 20
100.8816347224935
 30
0.0
 11
76.40138855282322
 21
101.3424184640494
 31
0.0
 12
78.55043897866146
 22
104.143115506517
 32
0.0
 13
78.55043897866146
 23
104.143115506517
 33
0.0
  0
LEADER
  5
148
330
1F
100
AcDbEntity
  8
0
  6
Continuous
 62
     2
100
AcDbLeader
  3
Standard
 71
     0
 76
     3
 10
78.55043897866146
 20
104.143115506517
 30
0.0
 10
68.76809394689786
 20
87.1995968943334
 30
0.0
 10
57.84460263329977
 20
87.1995968943334
 30
0.0
  0
SOLID
  5
149
330
1F
100
AcDbEntity
  8
0
 62
     2
100
AcDbTrace
 10
75.6972028891122
 20
145.6943381187897
 30
0.0
 11
76.49530374078869
 21
145.2335543772338
 31
0.0
 12
74.34625331495046
 22
142.4328573347662
 32
0.0
 13
74.34625331495046
 23
142.4328573347662
 33
0.0
  0
LEADER
  5
14A
330
1F
100
AcDbEntity
  8
0
  6
Continuous
 62
     2
100
AcDbLeader
  3
Standard
 71
     0
 76
     3
 10
74.34625331495046
 20
142.4328573347662
 30
0.0
 10
85.72408265998736
 20
162.1398358402183
 30
0.0
 10
98.76110521882646
 20
162.1398358402183
 30
0.0
  0
MTEXT
  5
14C
330
1F
100
AcDbEntity
  8
1
 62
     7
100
AcDbMText
 10
157.5
 20
12.5
 30
0.0
 40
2.5
 41
0.0
 71
     5
 72
     1
  1
9
  7
CONVERTER_13
 73
     1
 44
0.7202881152461
  0
MTEXT
  5
14D
330
1F
100
AcDbEntity
  8
1
 62
     7
100
AcDbMText
 10
151.75
 20
12.5
 30
0.0
 40
2.5
 41
0.0
 71
     5
 72
     1
  1
03
  7
CONVERTER_13
 73
     1
 44
0.7202881152461
  0
MTEXT
  5
14E
330
1F
100
AcDbEntity
  8
1
 62
     7
100
AcDbMText
 10
140.5
 20
12.5
 30
0.0
 40
2.5
 41
0.0
 71
     5
 72
     1
  1
9
  7
CONVERTER_13
 73
     1
 44
0.7202881152461
  0
MTEXT
  5
14F
330
1F
100
AcDbEntity
  8
1
 62
     7
100
AcDbMText
 10
134.75
 20
12.5
 30
0.0
 40
2.5
 41
0.0
 71
     5
 72
     1
  1
03
  7
CONVERTER_13
 73
     1
 44
0.7202881152461
  0
MTEXT
  5
150
330
1F
100
AcDbEntity
  8
1
 62
     7
100
AcDbMText
 10
123.5
 20
12.5
 30
0.0
 40
2.5
 41
0.0
 71
     5
 72
     1
  1
9
  7
CONVERTER_13
 73
     1
 44
0.7202881152461
  0
MTEXT
  5
151
330
1F
100
AcDbEntity
  8
1
 62
     7
100
AcDbMText
 10
117.75
 20
12.5
 30
0.0
 40
2.5
 41
0.0
 71
     5
 72
     1
  1
03
  7
CONVERTER_13
 73
     1
 44
0.7202881152461
  0
MTEXT
  5
152
330
1F
100
AcDbEntity
  8
1
 62
     7
100
AcDbMText
 10
100.75
 20
12.5
 30
0.0
 40
2.5
 41
0.0
 71
     5
 72
     1
  1
03
  7
CONVERTER_13
 73
     1
 44
0.7202881152461
  0
MTEXT
  5
153
330
1F
100
AcDbEntity
  8
1
 62
     7
100
AcDbMText
 10
106.5
 20
12.5
 30
0.0
 40
2.5
 41
0.0
 71
     5
 72
     1
  1
9
  7
CONVERTER_13
 73
     1
 44
0.7202881152461
  0
MTEXT
  5
154
330
1F
100
AcDbEntity
  8
0
 62
     7
100
AcDbMText
 10
93.14786504297658
 20
164.2603549302321
 30
0.0
 40
3.5
 41
0.0
 71
     5
 72
     1
  1
G1/2
  7
CONVERTER_13
 73
     1
 44
1.32052821128451
  0
MTEXT
  5
155
330
1F
100
AcDbEntity
  8
0
 62
     7
100
AcDbMText
 10
63.78422927569737
 20
89.57406380238838
 30
0.0
 40
3.5
 41
0.0
 71
     5
 72
     1
  1
R1/2
  7
CONVERTER_13
 73
     1
 44
1.32052821128451
  0
MTEXT
  5
156
330
1F
100
AcDbEntity
  8
1
 62
     7
100
AcDbMText
 10
93.74999999999997
 20
17.0
 30
0.0
 40
3.5
 41
0.0
 71
     5
 72
     1
  1
1
  7
CONVERTER_13
 73
     1
 44
0.7202881152461
  0
MTEXT
  5
157
330
1F
100
AcDbEntity
  8
1
 62
     7
100
AcDbMText
 10
57.0
 20
14.25
 30
0.0
 40
3.5
 41
0.0
 71
     5
 72
     1
  1
T29-13X25
  7
CONVERTER_13
 73
     1
 44
0.7202881152461
  0
MTEXT
  5
158
330
1F
100
AcDbEntity
  8
1
 62
     7
100
AcDbMText
 10
57.0
 20
22.75
 30
0.0
 40
3.5
 41
0.0
 71
     5
 72
     1
  1
偏心ザルボ
  7
CONVERTER_11
 73
     1
 44
0.54545454545455
  0
MTEXT
  5
159
330
1F
100
AcDbEntity
  8
1
 62
     7
100
AcDbMText
 10
85.24999999999997
 20
17.0
 30
0.0
 40
3.5
 41
0.0
 71
     5
 72
     1
  1
1
  7
CONVERTER_13
 73
     1
 44
0.7202881152461
  0
DIMENSION
  5
165
330
1F
100
AcDbEntity
  8
0
100
AcDbDimension
  2
*D4
 10
76.00263228246146
 20
88.43285733476618
 30
0.0
 11
89.61562239845446
 21
91.18285733476618
 31
0.0
 70
    32
  1
<>
 71
     5
 42
-1.0
 53
0.00013888888889
  3
ME10_DIM_10
100
AcDbAlignedDimension
 13
102.0026322824615
 23
111.4328573347662
 33
0.0
 14
76.00263228246146
 24
111.4328573347662
 34
0.0
100
AcDbRotatedDimension
  0
DIMENSION
  5
171
330
1F
100
AcDbEntity
  8
0
100
AcDbDimension
  2
*D5
 10
49.00263228246146
 20
153.4328573347662
 30
0.0
 11
63.85651935837646
 21
156.1828573347662
 31
0.0
 70
    33
  1
<>
 71
     5
 42
-1.0
 53
0.00013888888889
  3
ME10_DIM_11
100
AcDbAlignedDimension
 13
79.00263228246146
 23
142.1828573347662
 33
0.0
 14
49.00263228246146
 24
142.1828573347662
 34
0.0
  0
DIMENSION
  5
17C
330
1F
100
AcDbEntity
  8
0
100
AcDbDimension
  2
*D6
 10
111.0026322824615
 20
111.4328573347662
 30
0.0
 11
108.2526322824615
 21
104.554742809735
 31
0.0
 70
    32
  1
<>
 71
     5
 42
-1.0
 53
90.0
  3
ME10_DIM_12
100
AcDbAlignedDimension
 13
98.06311953895766
 23
97.43285733476618
 33
0.0
 14
102.0026322824615
 24
111.4328573347662
 34
0.0
 50
90.0
100
AcDbRotatedDimension
  0
DIMENSION
  5
187
330
1F
100
AcDbEntity
  8
0
100
AcDbDimension
  2
*D7
 10
119.0026322824615
 20
142.4328573347662
 30
0.0
 11
116.2526322824615
 21
120.792335023308
 31
0.0
 70
    32
  1
<>
 71
     5
 42
-1.0
 53
90.0
  3
ME10_DIM_13
100
AcDbAlignedDimension
 13
98.06311953895766
 23
97.43285733476618
 33
0.0
 14
78.75263228246146
 24
142.4328573347662
 34
0.0
 50
90.0
100
AcDbRotatedDimension
  0
DIMENSION
  5
192
330
1F
100
AcDbEntity
  8
1
100
AcDbDimension
  2
*D8
 10
64.00263228246146
 20
223.4328573347662
 30
0.0
 11
76.13550884955707
 21
226.1828573347662
 31
0.0
 70
    32
  1
<>
 71
     5
 42
-1.0
 53
0.00013888888889
  3
ME10_DIM_14
100
AcDbAlignedDimension
 13
89.00263228246146
 23
213.7530567422461
 33
0.0
 14
64.00263228246146
 24
215.4328573347662
 34
0.0
100
AcDbRotatedDimension
  0
ENDSEC
  0
SECTION
  2
OBJECTS
  0
DICTIONARY
  5
C
330
0
100
AcDbDictionary
281
     1
  3
ACAD_GROUP
350
D
  3
ACAD_LAYOUT
350
1A
  3
ACAD_MATERIAL
350
3B
  3
ACAD_MLEADERSTYLE
350
195
  3
ACAD_MLINESTYLE
350
17
  3
ACAD_PLOTSETTINGS
350
19
  3
ACAD_PLOTSTYLENAME
350
E
  3
ACAD_VISUALSTYLE
350
2A
  3
AcDbVariableDictionary
350
193
  0
DICTIONARY
  5
D
102
{ACAD_REACTORS
330
C
102
}
330
C
100
AcDbDictionary
281
     1
  0
DICTIONARY
  5
1A
102
{ACAD_REACTORS
330
C
102
}
330
C
100
AcDbDictionary
281
     1
  3
Layout1
350
1E
  3
Layout2
350
26
  3
Model
350
22
  0
DICTIONARY
  5
3B
102
{ACAD_REACTORS
330
C
102
}
330
C
100
AcDbDictionary
281
     1
  3
ByBlock
350
3D
  3
ByLayer
350
3C
  3
Global
350
3E
  0
DICTIONARY
  5
195
102
{ACAD_REACTORS
330
C
102
}
330
C
100
AcDbDictionary
281
     1
  0
DICTIONARY
  5
17
102
{ACAD_REACTORS
330
C
102
}
330
C
100
AcDbDictionary
281
     1
  3
Standard
350
18
  0
DICTIONARY
  5
19
102
{ACAD_REACTORS
330
C
102
}
330
C
100
AcDbDictionary
281
     1
  0
ACDBDICTIONARYWDFLT
  5
E
102
{ACAD_REACTORS
330
C
102
}
330
C
100
AcDbDictionary
281
     1
  3
Normal
350
F
100
AcDbDictionaryWithDefault
340
F
  0
DICTIONARY
  5
2A
102
{ACAD_REACTORS
330
C
102
}
330
C
100
AcDbDictionary
281
     1
  3
2dWireframe
350
2F
  3
3D Hidden
350
31
  3
3dWireframe
350
30
  3
Basic
350
32
  3
Brighten
350
36
  3
ColorChange
350
3A
  3
Conceptual
350
34
  3
Dim
350
35
  3
Facepattern
350
39
  3
Flat
350
2B
  3
FlatWithEdges
350
2C
  3
Gouraud
350
2D
  3
GouraudWithEdges
350
2E
  3
Linepattern
350
38
  3
Realistic
350
33
  3
Thicken
350
37
  0
DICTIONARY
  5
193
102
{ACAD_REACTORS
330
C
102
}
330
C
100
AcDbDictionary
281
     1
  3
DIMASSOC
350
196
  3
HIDETEXT
350
197
  0
LAYOUT
  5
1E
102
{ACAD_REACTORS
330
1A
102
}
330
1A
100
AcDbPlotSettings
  1

  2
none_device
  4

  6

 40
0.0
 41
0.0
 42
0.0
 43
0.0
 44
0.0
 45
0.0
 46
0.0
 47
0.0
 48
0.0
 49
0.0
140
0.0
141
0.0
142
1.0
143
1.0
 70
   688
 72
     0
 73
     0
 74
     5
  7

 75
    16
147
1.0
148
0.0
149
0.0
100
AcDbLayout
  1
Layout1
 70
     1
 71
     1
 10
0.0
 20
0.0
 11
12.0
 21
9.0
 12
0.0
 22
0.0
 32
0.0
 14
1.00000000000000E+20
 24
1.00000000000000E+20
 34
1.00000000000000E+20
 15
-1.00000000000000E+20
 25
-1.00000000000000E+20
 35
-1.00000000000000E+20
146
0.0
 13
0.0
 23
0.0
 33
0.0
 16
1.0
 26
0.0
 36
0.0
 17
0.0
 27
1.0
 37
0.0
 76
     0
330
1B
  0
LAYOUT
  5
26
102
{ACAD_REACTORS
330
1A
102
}
330
1A
100
AcDbPlotSettings
  1

  2
none_device
  4

  6

 40
0.0
 41
0.0
 42
0.0
 43
0.0
 44
0.0
 45
0.0
 46
0.0
 47
0.0
 48
0.0
 49
0.0
140
0.0
141
0.0
142
1.0
143
1.0
 70
   688
 72
     0
 73
     0
 74
     5
  7

 75
    16
147
1.0
148
0.0
149
0.0
100
AcDbLayout
  1
Layout2
 70
     1
 71
     2
 10
0.0
 20
0.0
 11
0.0
 21
0.0
 12
0.0
 22
0.0
 32
0.0
 14
0.0
 24
0.0
 34
0.0
 15
0.0
 25
0.0
 35
0.0
146
0.0
 13
0.0
 23
0.0
 33
0.0
 16
1.0
 26
0.0
 36
0.0
 17
0.0
 27
1.0
 37
0.0
 76
     0
330
23
  0
LAYOUT
  5
22
102
{ACAD_REACTORS
330
1A
102
}
330
1A
100
AcDbPlotSettings
  1

  2
none_device
  4

  6

 40
0.0
 41
0.0
 42
0.0
 43
0.0
 44
0.0
 45
0.0
 46
0.0
 47
0.0
 48
0.0
 49
0.0
140
0.0
141
0.0
142
1.0
143
1.0
 70
  1712
 72
     0
 73
     0
 74
     0
  7

 75
     0
147
1.0
148
0.0
149
0.0
100
AcDbLayout
  1
Model
 70
     1
 71
     0
 10
0.0
 20
0.0
 11
12.0
 21
9.0
 12
0.0
 22
0.0
 32
0.0
 14
0.0
 24
0.0
 34
0.0
 15
210.0
 25
297.0
 35
0.0
146
0.0
 13
0.0
 23
0.0
 33
0.0
 16
1.0
 26
0.0
 36
0.0
 17
0.0
 27
1.0
 37
0.0
 76
     0
330
1F
331
29
  0
MATERIAL
  5
3D
102
{ACAD_REACTORS
330
3B
102
}
102
{ACAD_XDICTIONARY
360
1BA
102
}
330
3B
100
AcDbMaterial
  1
ByBlock
  0
MATERIAL
  5
3C
102
{ACAD_REACTORS
330
3B
102
}
102
{ACAD_XDICTIONARY
360
1B8
102
}
330
3B
100
AcDbMaterial
  1
ByLayer
  0
MATERIAL
  5
3E
102
{ACAD_REACTORS
330
3B
102
}
102
{ACAD_XDICTIONARY
360
1BC
102
}
330
3B
100
AcDbMaterial
  1
Global
  0
MLINESTYLE
  5
18
102
{ACAD_REACTORS
330
17
102
}
330
17
100
AcDbMlineStyle
  2
Standard
 70
     0
  3

 62
   256
 51
90.0
 52
90.0
 71
     2
 49
0.5
 62
   256
  6
BYLAYER
 49
-0.5
 62
   256
  6
BYLAYER
  0
ACDBPLACEHOLDER
  5
F
102
{ACAD_REACTORS
330
E
102
}
330
E
  0
VISUALSTYLE
  5
2F
102
{ACAD_REACTORS
330
2A
102
}
102
{ACAD_XDICTIONARY
360
1A0
102
}
330
2A
100
AcDbVisualStyle
  2
2dWireframe
 70
     4
 71
     0
 72
     2
 73
     0
 90
        0
 40
-0.6
 41
-30.0
 62
     5
 63
     7
 74
     1
 91
        4
 64
     7
 65
   257
 75
     1
175
     1
 42
1.0
 92
        0
 66
   257
 43
1.0
 76
     1
 77
     6
 78
     2
 67
     7
 79
     5
170
     0
171
     0
290
     0
174
     0
 93
        1
 44
0.0
173
     0
291
     0
 45
0.0
1001
ACAD
1000
AcDbSavedByObjectVersion
1070
     0
  0
VISUALSTYLE
  5
31
102
{ACAD_REACTORS
330
2A
102
}
102
{ACAD_XDICTIONARY
360
1A4
102
}
330
2A
100
AcDbVisualStyle
  2
3D Hidden
 70
     6
 71
     1
 72
     2
 73
     2
 90
        0
 40
-0.6
 41
-30.0
 62
     5
 63
     7
 74
     2
 91
        2
 64
     7
 65
   257
 75
     2
175
     1
 42
40.0
 92
        0
 66
   257
 43
1.0
 76
     1
 77
     6
 78
     2
 67
     7
 79
     3
170
     0
171
     0
290
     0
174
     0
 93
        1
 44
0.0
173
     0
291
     0
 45
0.0
1001
ACAD
1000
AcDbSavedByObjectVersion
1070
     0
  0
VISUALSTYLE
  5
30
102
{ACAD_REACTORS
330
2A
102
}
102
{ACAD_XDICTIONARY
360
1A2
102
}
330
2A
100
AcDbVisualStyle
  2
3dWireframe
 70
     5
 71
     0
 72
     2
 73
     0
 90
        0
 40
-0.6
 41
-30.0
 62
     5
 63
     7
 74
     1
 91
        4
 64
     7
 65
   257
 75
     1
175
     1
 42
1.0
 92
        0
 66
   257
 43
1.0
 76
     1
 77
     6
 78
     2
 67
     7
 79
     5
170
     0
171
     0
290
     0
174
     0
 93
        1
 44
0.0
173
     0
291
     0
 45
0.0
1001
ACAD
1000
AcDbSavedByObjectVersion
1070
     0
  0
VISUALSTYLE
  5
32
102
{ACAD_REACTORS
330
2A
102
}
102
{ACAD_XDICTIONARY
360
1A6
102
}
330
2A
100
AcDbVisualStyle
  2
Basic
 70
     7
 71
     1
 72
     0
 73
     1
 90
        0
 40
-0.6
 41
-30.0
 62
     5
 63
     7
 74
     0
 91
        4
 64
     7
 65
   257
 75
     1
175
     1
 42
1.0
 92
        8
 66
     7
 43
1.0
 76
     1
 77
     6
 78
     2
 67
     7
 79
     5
170
     0
171
     0
290
     0
174
     0
 93
        1
 44
0.0
173
     0
291
     1
 45
0.0
1001
ACAD
1000
AcDbSavedByObjectVersion
1070
     0
  0
VISUALSTYLE
  5
36
102
{ACAD_REACTORS
330
2A
102
}
102
{ACAD_XDICTIONARY
360
1AE
102
}
330
2A
100
AcDbVisualStyle
  2
Brighten
 70
    12
 71
     2
 72
     2
 73
     0
 90
        0
 40
-0.6
 41
-30.0
 62
     5
 63
     7
 74
     1
 91
        4
 64
     7
 65
   257
 75
     1
175
     1
 42
1.0
 92
        8
 66
     7
 43
1.0
 76
     1
 77
     6
 78
     2
 67
     7
 79
     5
170
     0
171
     0
290
     0
174
     0
 93
        1
 44
50.0
173
     0
291
     1
 45
0.0
1001
ACAD
1000
AcDbSavedByObjectVersion
1070
     0
  0
VISUALSTYLE
  5
3A
102
{ACAD_REACTORS
330
2A
102
}
102
{ACAD_XDICTIONARY
360
1B6
102
}
330
2A
100
AcDbVisualStyle
  2
ColorChange
 70
    16
 71
     2
 72
     2
 73
     3
 90
        0
 40
-0.6
 41
-30.0
 62
     5
 63
     8
 74
     1
 91
        4
 64
     7
 65
   257
 75
     1
175
     1
 42
1.0
 92
        8
 66
     8
 43
1.0
 76
     1
 77
     6
 78
     2
 67
     7
 79
     5
170
     0
171
     0
290
     0
174
     0
 93
        1
 44
0.0
173
     0
291
     1
 45
0.0
1001
ACAD
1000
AcDbSavedByObjectVersion
1070
     0
  0
VISUALSTYLE
  5
34
102
{ACAD_REACTORS
330
2A
102
}
102
{ACAD_XDICTIONARY
360
1AA
102
}
330
2A
100
AcDbVisualStyle
  2
Conceptual
 70
     9
 71
     3
 72
     2
 73
     0
 90
        0
 40
-0.6
 41
-30.0
 62
     5
 63
     7
 74
     2
 91
        2
 64
     7
 65
   257
 75
     1
175
     1
 42
40.0
 92
        8
 66
     7
 43
1.0
 76
     1
 77
     6
 78
     2
 67
     7
 79
     3
170
     0
171
     0
290
     0
174
     0
 93
        1
 44
0.0
173
     0
291
     0
 45
0.0
1001
ACAD
1000
AcDbSavedByObjectVersion
1070
     0
  0
VISUALSTYLE
  5
35
102
{ACAD_REACTORS
330
2A
102
}
102
{ACAD_XDICTIONARY
360
1AC
102
}
330
2A
100
AcDbVisualStyle
  2
Dim
 70
    11
 71
     2
 72
     2
 73
     0
 90
        0
 40
-0.6
 41
-30.0
 62
     5
 63
     7
 74
     1
 91
        4
 64
     7
 65
   257
 75
     1
175
     1
 42
1.0
 92
        8
 66
     7
 43
1.0
 76
     1
 77
     6
 78
     2
 67
     7
 79
     5
170
     0
171
     0
290
     0
174
     0
 93
        1
 44
-50.0
173
     0
291
     1
 45
0.0
1001
ACAD
1000
AcDbSavedByObjectVersion
1070
     0
  0
VISUALSTYLE
  5
39
102
{ACAD_REACTORS
330
2A
102
}
102
{ACAD_XDICTIONARY
360
1B4
102
}
330
2A
100
AcDbVisualStyle
  2
Facepattern
 70
    15
 71
     2
 72
     2
 73
     0
 90
        0
 40
-0.6
 41
-30.0
 62
     5
 63
     7
 74
     1
 91
        4
 64
     7
 65
   257
 75
     1
175
     1
 42
1.0
 92
        8
 66
     7
 43
1.0
 76
     1
 77
     6
 78
     2
 67
     7
 79
     5
170
     0
171
     0
290
     0
174
     0
 93
        1
 44
0.0
173
     0
291
     1
 45
0.0
1001
ACAD
1000
AcDbSavedByObjectVersion
1070
     0
  0
VISUALSTYLE
  5
2B
102
{ACAD_REACTORS
330
2A
102
}
102
{ACAD_XDICTIONARY
360
198
102
}
330
2A
100
AcDbVisualStyle
  2
Flat
 70
     0
 71
     2
 72
     1
 73
     1
 90
        2
 40
-0.6
 41
30.0
 62
     5
 63
     7
 74
     0
 91
        4
 64
     7
 65
   257
 75
     1
175
     1
 42
1.0
 92
        8
 66
     7
 43
1.0
 76
     1
 77
     6
 78
     2
 67
     7
 79
     5
170
     0
171
     0
290
     0
174
     0
 93
       13
 44
0.0
173
     0
291
     1
 45
0.0
1001
ACAD
1000
AcDbSavedByObjectVersion
1070
     0
  0
VISUALSTYLE
  5
2C
102
{ACAD_REACTORS
330
2A
102
}
102
{ACAD_XDICTIONARY
360
19A
102
}
330
2A
100
AcDbVisualStyle
  2
FlatWithEdges
 70
     1
 71
     2
 72
     1
 73
     1
 90
        2
 40
-0.6
 41
30.0
 62
     5
 63
     7
 74
     1
 91
        4
 64
     7
 65
   257
 75
     1
175
     1
 42
1.0
 92
        0
 66
   257
 43
1.0
 76
     1
 77
     6
 78
     2
 67
     7
 79
     5
170
     0
171
     0
290
     0
174
     0
 93
       13
 44
0.0
173
     0
291
     1
 45
0.0
1001
ACAD
1000
AcDbSavedByObjectVersion
1070
     0
  0
VISUALSTYLE
  5
2D
102
{ACAD_REACTORS
330
2A
102
}
102
{ACAD_XDICTIONARY
360
19C
102
}
330
2A
100
AcDbVisualStyle
  2
Gouraud
 70
     2
 71
     2
 72
     2
 73
     1
 90
        2
 40
-0.6
 41
30.0
 62
     5
 63
     7
 74
     0
 91
        4
 64
     7
 65
   257
 75
     1
175
     1
 42
1.0
 92
        0
 66
     7
 43
1.0
 76
     1
 77
     6
 78
     2
 67
     7
 79
     5
170
     0
171
     0
290
     0
174
     0
 93
       13
 44
0.0
173
     0
291
     1
 45
0.0
1001
ACAD
1000
AcDbSavedByObjectVersion
1070
     0
  0
VISUALSTYLE
  5
2E
102
{ACAD_REACTORS
330
2A
102
}
102
{ACAD_XDICTIONARY
360
19E
102
}
330
2A
100
AcDbVisualStyle
  2
GouraudWithEdges
 70
     3
 71
     2
 72
     2
 73
     1
 90
        2
 40
-0.6
 41
30.0
 62
     5
 63
     7
 74
     1
 91
        4
 64
     7
 65
   257
 75
     1
175
     1
 42
1.0
 92
        0
 66
   257
 43
1.0
 76
     1
 77
     6
 78
     2
 67
     7
 79
     5
170
     0
171
     0
290
     0
174
     0
 93
       13
 44
0.0
173
     0
291
     1
 45
0.0
1001
ACAD
1000
AcDbSavedByObjectVersion
1070
     0
  0
VISUALSTYLE
  5
38
102
{ACAD_REACTORS
330
2A
102
}
102
{ACAD_XDICTIONARY
360
1B2
102
}
330
2A
100
AcDbVisualStyle
  2
Linepattern
 70
    14
 71
     2
 72
     2
 73
     0
 90
        0
 40
-0.6
 41
-30.0
 62
     5
 63
     7
 74
     1
 91
        4
 64
     7
 65
   257
 75
     7
175
     7
 42
1.0
 92
        8
 66
     7
 43
1.0
 76
     1
 77
     6
 78
     2
 67
     7
 79
     5
170
     0
171
     0
290
     0
174
     0
 93
        1
 44
0.0
173
     0
291
     1
 45
0.0
1001
ACAD
1000
AcDbSavedByObjectVersion
1070
     0
  0
VISUALSTYLE
  5
33
102
{ACAD_REACTORS
330
2A
102
}
102
{ACAD_XDICTIONARY
360
1A8
102
}
330
2A
100
AcDbVisualStyle
  2
Realistic
 70
     8
 71
     2
 72
     2
 73
     0
 90
        0
 40
-0.6
 41
-30.0
 62
     5
 63
     7
 74
     1
 91
        0
 64
     7
 65
   257
 75
     1
175
     1
 42
1.0
 92
        8
 66
     8
 43
1.0
 76
     1
 77
     6
 78
     2
 67
     7
 79
     5
170
     0
171
     0
290
     0
174
     0
 93
       13
 44
0.0
173
     0
291
     0
 45
0.0
1001
ACAD
1000
AcDbSavedByObjectVersion
1070
     0
  0
VISUALSTYLE
  5
37
102
{ACAD_REACTORS
330
2A
102
}
102
{ACAD_XDICTIONARY
360
1B0
102
}
330
2A
100
AcDbVisualStyle
  2
Thicken
 70
    13
 71
     2
 72
     2
 73
     0
 90
        0
 40
-0.6
 41
-30.0
 62
     5
 63
     7
 74
     1
 91
        4
 64
     7
 65
   257
 75
     1
175
     1
 42
1.0
 92
       12
 66
     7
 43
1.0
 76
     1
 77
     6
 78
     2
 67
     7
 79
     5
170
     0
171
     0
290
     0
174
     0
 93
        1
 44
0.0
173
     0
291
     1
 45
0.0
1001
ACAD
1000
AcDbSavedByObjectVersion
1070
     0
  0
DICTIONARYVAR
  5
196
102
{ACAD_REACTORS
330
193
102
}
330
193
100
DictionaryVariables
280
     0
  1
2
  0
DICTIONARYVAR
  5
197
102
{ACAD_REACTORS
330
193
102
}
330
193
100
DictionaryVariables
280
     0
  1
1
  0
DICTIONARY
  5
1BA
330
3D
100
AcDbDictionary
280
     1
281
     1
  3
ACAD_XREC_ROUNDTRIP
360
1BB
  0
DICTIONARY
  5
1B8
330
3C
100
AcDbDictionary
280
     1
281
     1
  3
ACAD_XREC_ROUNDTRIP
360
1B9
  0
DICTIONARY
  5
1BC
330
3E
100
AcDbDictionary
280
     1
281
     1
  3
ACAD_XREC_ROUNDTRIP
360
1BD
  0
DICTIONARY
  5
1A0
330
2F
100
AcDbDictionary
280
     1
281
     1
  3
ACAD_XREC_ROUNDTRIP
360
1A1
  0
DICTIONARY
  5
1A4
330
31
100
AcDbDictionary
280
     1
281
     1
  3
ACAD_XREC_ROUNDTRIP
360
1A5
  0
DICTIONARY
  5
1A2
330
30
100
AcDbDictionary
280
     1
281
     1
  3
ACAD_XREC_ROUNDTRIP
360
1A3
  0
DICTIONARY
  5
1A6
330
32
100
AcDbDictionary
280
     1
281
     1
  3
ACAD_XREC_ROUNDTRIP
360
1A7
  0
DICTIONARY
  5
1AE
330
36
100
AcDbDictionary
280
     1
281
     1
  3
ACAD_XREC_ROUNDTRIP
360
1AF
  0
DICTIONARY
  5
1B6
330
3A
100
AcDbDictionary
280
     1
281
     1
  3
ACAD_XREC_ROUNDTRIP
360
1B7
  0
DICTIONARY
  5
1AA
330
34
100
AcDbDictionary
280
     1
281
     1
  3
ACAD_XREC_ROUNDTRIP
360
1AB
  0
DICTIONARY
  5
1AC
330
35
100
AcDbDictionary
280
     1
281
     1
  3
ACAD_XREC_ROUNDTRIP
360
1AD
  0
DICTIONARY
  5
1B4
330
39
100
AcDbDictionary
280
     1
281
     1
  3
ACAD_XREC_ROUNDTRIP
360
1B5
  0
DICTIONARY
  5
198
330
2B
100
AcDbDictionary
280
     1
281
     1
  3
ACAD_XREC_ROUNDTRIP
360
199
  0
DICTIONARY
  5
19A
330
2C
100
AcDbDictionary
280
     1
281
     1
  3
ACAD_XREC_ROUNDTRIP
360
19B
  0
DICTIONARY
  5
19C
330
2D
100
AcDbDictionary
280
     1
281
     1
  3
ACAD_XREC_ROUNDTRIP
360
19D
  0
DICTIONARY
  5
19E
330
2E
100
AcDbDictionary
280
     1
281
     1
  3
ACAD_XREC_ROUNDTRIP
360
19F
  0
DICTIONARY
  5
1B2
330
38
100
AcDbDictionary
280
     1
281
     1
  3
ACAD_XREC_ROUNDTRIP
360
1B3
  0
DICTIONARY
  5
1A8
330
33
100
AcDbDictionary
280
     1
281
     1
  3
ACAD_XREC_ROUNDTRIP
360
1A9
  0
DICTIONARY
  5
1B0
330
37
100
AcDbDictionary
280
     1
281
     1
  3
ACAD_XREC_ROUNDTRIP
360
1B1
  0
XRECORD
  5
1BB
102
{ACAD_REACTORS
330
1BA
102
}
330
1BA
100
AcDbXrecord
280
     1
102
MATERIAL
148
0.0
149
0.0
149
0.0
 93
        0
 94
      127
282
     0
 72
     1
 77
     1
171
     1
175
     1
179
     1
273
     0
  0
XRECORD
  5
1B9
102
{ACAD_REACTORS
330
1B8
102
}
330
1B8
100
AcDbXrecord
280
     1
102
MATERIAL
148
0.0
149
0.0
149
0.0
 93
        0
 94
      127
282
     0
 72
     1
 77
     1
171
     1
175
     1
179
     1
273
     0
  0
XRECORD
  5
1BD
102
{ACAD_REACTORS
330
1BC
102
}
330
1BC
100
AcDbXrecord
280
     1
102
MATERIAL
148
0.0
149
0.0
149
0.0
 93
        0
 94
      127
282
     0
 72
     1
 77
     1
171
     1
175
     1
179
     1
273
     0
  0
XRECORD
  5
1A1
102
{ACAD_REACTORS
330
1A0
102
}
330
1A0
100
AcDbXrecord
280
     1
102
RTVSPropertyOp0
 70
     1
102
RTVSPropertyOp1
 70
     1
102
RTVSPropertyOp2
 70
     1
102
RTVSPropertyOp3
 70
     1
102
RTVSPropertyOp4
 70
     1
102
RTVSPropertyOp5
 70
     1
102
RTVSPropertyOp6
 70
     1
102
RTVSPropertyOp7
 70
     1
102
RTVSPropertyOp8
 70
     1
102
RTVSPropertyOp9
 70
     1
102
RTVSPropertyOp10
 70
     1
102
RTVSPropertyOp11
 70
     1
102
RTVSPropertyOp12
 70
     1
102
RTVSPropertyOp13
 70
     1
102
RTVSPropertyOp14
 70
     1
102
RTVSPropertyOp15
 70
     1
102
RTVSPropertyOp16
 70
     1
102
RTVSPropertyOp17
 70
     1
102
RTVSPropertyOp18
 70
     1
102
RTVSPropertyOp19
 70
     1
102
RTVSPropertyOp20
 70
     1
102
RTVSPropertyOp21
 70
     1
102
RTVSPropertyOp22
 70
     1
102
RTVSPropertyOp23
 70
     1
102
RTVSPropertyOp24
 70
     1
102
RTVSPropertyOp25
 70
     1
102
RTVSPropertyOp26
 70
     1
102
RTVSPropertyOp27
 70
     1
102
RTVSPropertyOp28
 70
     1
102
RTVSPropertyOp29
 70
     1
102
RTVSPropertyOp30
 70
     1
102
RTVSPropertyOp31
 70
     1
102
RTVSPropertyOp32
 70
     1
  0
XRECORD
  5
1A5
102
{ACAD_REACTORS
330
1A4
102
}
330
1A4
100
AcDbXrecord
280
     1
102
RTVSPropertyOp0
 70
     1
102
RTVSPropertyOp1
 70
     1
102
RTVSPropertyOp2
 70
     1
102
RTVSPropertyOp3
 70
     1
102
RTVSPropertyOp4
 70
     1
102
RTVSPropertyOp5
 70
     1
102
RTVSPropertyOp6
 70
     1
102
RTVSPropertyOp7
 70
     1
102
RTVSPropertyOp8
 70
     1
102
RTVSPropertyOp9
 70
     1
102
RTVSPropertyOp10
 70
     1
102
RTVSPropertyOp11
 70
     1
102
RTVSPropertyOp12
 70
     1
102
RTVSPropertyOp13
 70
     1
102
RTVSPropertyOp14
 70
     1
102
RTVSPropertyOp15
 70
     1
102
RTVSPropertyOp16
 70
     1
102
RTVSPropertyOp17
 70
     1
102
RTVSPropertyOp18
 70
     1
102
RTVSPropertyOp19
 70
     1
102
RTVSPropertyOp20
 70
     1
102
RTVSPropertyOp21
 70
     1
102
RTVSPropertyOp22
 70
     1
102
RTVSPropertyOp23
 70
     1
102
RTVSPropertyOp24
 70
     1
102
RTVSPropertyOp25
 70
     1
102
RTVSPropertyOp26
 70
     1
102
RTVSPropertyOp27
 70
     1
102
RTVSPropertyOp28
 70
     1
102
RTVSPropertyOp29
 70
     1
102
RTVSPropertyOp30
 70
     1
102
RTVSPropertyOp31
 70
     1
102
RTVSPropertyOp32
 70
     1
  0
XRECORD
  5
1A3
102
{ACAD_REACTORS
330
1A2
102
}
330
1A2
100
AcDbXrecord
280
     1
102
RTVSPropertyOp0
 70
     1
102
RTVSPropertyOp1
 70
     1
102
RTVSPropertyOp2
 70
     1
102
RTVSPropertyOp3
 70
     1
102
RTVSPropertyOp4
 70
     1
102
RTVSPropertyOp5
 70
     1
102
RTVSPropertyOp6
 70
     1
102
RTVSPropertyOp7
 70
     1
102
RTVSPropertyOp8
 70
     1
102
RTVSPropertyOp9
 70
     1
102
RTVSPropertyOp10
 70
     1
102
RTVSPropertyOp11
 70
     1
102
RTVSPropertyOp12
 70
     1
102
RTVSPropertyOp13
 70
     1
102
RTVSPropertyOp14
 70
     1
102
RTVSPropertyOp15
 70
     1
102
RTVSPropertyOp16
 70
     1
102
RTVSPropertyOp17
 70
     1
102
RTVSPropertyOp18
 70
     1
102
RTVSPropertyOp19
 70
     1
102
RTVSPropertyOp20
 70
     1
102
RTVSPropertyOp21
 70
     1
102
RTVSPropertyOp22
 70
     1
102
RTVSPropertyOp23
 70
     1
102
RTVSPropertyOp24
 70
     1
102
RTVSPropertyOp25
 70
     1
102
RTVSPropertyOp26
 70
     1
102
RTVSPropertyOp27
 70
     1
102
RTVSPropertyOp28
 70
     1
102
RTVSPropertyOp29
 70
     1
102
RTVSPropertyOp30
 70
     1
102
RTVSPropertyOp31
 70
     1
102
RTVSPropertyOp32
 70
     1
  0
XRECORD
  5
1A7
102
{ACAD_REACTORS
330
1A6
102
}
330
1A6
100
AcDbXrecord
280
     1
102
RTVSPropertyOp0
 70
     1
102
RTVSPropertyOp1
 70
     1
102
RTVSPropertyOp2
 70
     1
102
RTVSPropertyOp3
 70
     1
102
RTVSPropertyOp4
 70
     1
102
RTVSPropertyOp5
 70
     1
102
RTVSPropertyOp6
 70
     1
102
RTVSPropertyOp7
 70
     1
102
RTVSPropertyOp8
 70
     1
102
RTVSPropertyOp9
 70
     1
102
RTVSPropertyOp10
 70
     1
102
RTVSPropertyOp11
 70
     1
102
RTVSPropertyOp12
 70
     1
102
RTVSPropertyOp13
 70
     1
102
RTVSPropertyOp14
 70
     1
102
RTVSPropertyOp15
 70
     1
102
RTVSPropertyOp16
 70
     1
102
RTVSPropertyOp17
 70
     1
102
RTVSPropertyOp18
 70
     1
102
RTVSPropertyOp19
 70
     1
102
RTVSPropertyOp20
 70
     1
102
RTVSPropertyOp21
 70
     1
102
RTVSPropertyOp22
 70
     1
102
RTVSPropertyOp23
 70
     1
102
RTVSPropertyOp24
 70
     1
102
RTVSPropertyOp25
 70
     1
102
RTVSPropertyOp26
 70
     1
102
RTVSPropertyOp27
 70
     1
102
RTVSPropertyOp28
 70
     1
102
RTVSPropertyOp29
 70
     1
102
RTVSPropertyOp30
 70
     1
102
RTVSPropertyOp31
 70
     1
102
RTVSPropertyOp32
 70
     1
  0
XRECORD
  5
1AF
102
{ACAD_REACTORS
330
1AE
102
}
330
1AE
100
AcDbXrecord
280
     1
102
RTVSPropertyOp0
 70
     1
102
RTVSPropertyOp1
 70
     1
102
RTVSPropertyOp2
 70
     1
102
RTVSPropertyOp3
 70
     1
102
RTVSPropertyOp4
 70
     1
102
RTVSPropertyOp5
 70
     1
102
RTVSPropertyOp6
 70
     1
102
RTVSPropertyOp7
 70
     1
102
RTVSPropertyOp8
 70
     1
102
RTVSPropertyOp9
 70
     1
102
RTVSPropertyOp10
 70
     1
102
RTVSPropertyOp11
 70
     1
102
RTVSPropertyOp12
 70
     1
102
RTVSPropertyOp13
 70
     1
102
RTVSPropertyOp14
 70
     1
102
RTVSPropertyOp15
 70
     1
102
RTVSPropertyOp16
 70
     1
102
RTVSPropertyOp17
 70
     1
102
RTVSPropertyOp18
 70
     1
102
RTVSPropertyOp19
 70
     1
102
RTVSPropertyOp20
 70
     1
102
RTVSPropertyOp21
 70
     1
102
RTVSPropertyOp22
 70
     1
102
RTVSPropertyOp23
 70
     1
102
RTVSPropertyOp24
 70
     1
102
RTVSPropertyOp25
 70
     1
102
RTVSPropertyOp26
 70
     1
102
RTVSPropertyOp27
 70
     1
102
RTVSPropertyOp28
 70
     1
102
RTVSPropertyOp29
 70
     1
102
RTVSPropertyOp30
 70
     1
102
RTVSPropertyOp31
 70
     1
102
RTVSPropertyOp32
 70
     1
  0
XRECORD
  5
1B7
102
{ACAD_REACTORS
330
1B6
102
}
330
1B6
100
AcDbXrecord
280
     1
102
RTVSPropertyOp0
 70
     1
102
RTVSPropertyOp1
 70
     1
102
RTVSPropertyOp2
 70
     1
102
RTVSPropertyOp3
 70
     1
102
RTVSPropertyOp4
 70
     1
102
RTVSPropertyOp5
 70
     1
102
RTVSPropertyOp6
 70
     1
102
RTVSPropertyOp7
 70
     1
102
RTVSPropertyOp8
 70
     1
102
RTVSPropertyOp9
 70
     1
102
RTVSPropertyOp10
 70
     1
102
RTVSPropertyOp11
 70
     1
102
RTVSPropertyOp12
 70
     1
102
RTVSPropertyOp13
 70
     1
102
RTVSPropertyOp14
 70
     1
102
RTVSPropertyOp15
 70
     1
102
RTVSPropertyOp16
 70
     1
102
RTVSPropertyOp17
 70
     1
102
RTVSPropertyOp18
 70
     1
102
RTVSPropertyOp19
 70
     1
102
RTVSPropertyOp20
 70
     1
102
RTVSPropertyOp21
 70
     1
102
RTVSPropertyOp22
 70
     1
102
RTVSPropertyOp23
 70
     1
102
RTVSPropertyOp24
 70
     1
102
RTVSPropertyOp25
 70
     1
102
RTVSPropertyOp26
 70
     1
102
RTVSPropertyOp27
 70
     1
102
RTVSPropertyOp28
 70
     1
102
RTVSPropertyOp29
 70
     1
102
RTVSPropertyOp30
 70
     1
102
RTVSPropertyOp31
 70
     1
102
RTVSPropertyOp32
 70
     1
  0
XRECORD
  5
1AB
102
{ACAD_REACTORS
330
1AA
102
}
330
1AA
100
AcDbXrecord
280
     1
102
RTVSPropertyOp0
 70
     1
102
RTVSPropertyOp1
 70
     1
102
RTVSPropertyOp2
 70
     1
102
RTVSPropertyOp3
 70
     1
102
RTVSPropertyOp4
 70
     1
102
RTVSPropertyOp5
 70
     1
102
RTVSPropertyOp6
 70
     1
102
RTVSPropertyOp7
 70
     1
102
RTVSPropertyOp8
 70
     1
102
RTVSPropertyOp9
 70
     1
102
RTVSPropertyOp10
 70
     1
102
RTVSPropertyOp11
 70
     1
102
RTVSPropertyOp12
 70
     1
102
RTVSPropertyOp13
 70
     1
102
RTVSPropertyOp14
 70
     1
102
RTVSPropertyOp15
 70
     1
102
RTVSPropertyOp16
 70
     1
102
RTVSPropertyOp17
 70
     1
102
RTVSPropertyOp18
 70
     1
102
RTVSPropertyOp19
 70
     1
102
RTVSPropertyOp20
 70
     1
102
RTVSPropertyOp21
 70
     1
102
RTVSPropertyOp22
 70
     1
102
RTVSPropertyOp23
 70
     1
102
RTVSPropertyOp24
 70
     1
102
RTVSPropertyOp25
 70
     1
102
RTVSPropertyOp26
 70
     1
102
RTVSPropertyOp27
 70
     1
102
RTVSPropertyOp28
 70
     1
102
RTVSPropertyOp29
 70
     1
102
RTVSPropertyOp30
 70
     1
102
RTVSPropertyOp31
 70
     1
102
RTVSPropertyOp32
 70
     1
  0
XRECORD
  5
1AD
102
{ACAD_REACTORS
330
1AC
102
}
330
1AC
100
AcDbXrecord
280
     1
102
RTVSPropertyOp0
 70
     1
102
RTVSPropertyOp1
 70
     1
102
RTVSPropertyOp2
 70
     1
102
RTVSPropertyOp3
 70
     1
102
RTVSPropertyOp4
 70
     1
102
RTVSPropertyOp5
 70
     1
102
RTVSPropertyOp6
 70
     1
102
RTVSPropertyOp7
 70
     1
102
RTVSPropertyOp8
 70
     1
102
RTVSPropertyOp9
 70
     1
102
RTVSPropertyOp10
 70
     1
102
RTVSPropertyOp11
 70
     1
102
RTVSPropertyOp12
 70
     1
102
RTVSPropertyOp13
 70
     1
102
RTVSPropertyOp14
 70
     1
102
RTVSPropertyOp15
 70
     1
102
RTVSPropertyOp16
 70
     1
102
RTVSPropertyOp17
 70
     1
102
RTVSPropertyOp18
 70
     1
102
RTVSPropertyOp19
 70
     1
102
RTVSPropertyOp20
 70
     1
102
RTVSPropertyOp21
 70
     1
102
RTVSPropertyOp22
 70
     1
102
RTVSPropertyOp23
 70
     1
102
RTVSPropertyOp24
 70
     1
102
RTVSPropertyOp25
 70
     1
102
RTVSPropertyOp26
 70
     1
102
RTVSPropertyOp27
 70
     1
102
RTVSPropertyOp28
 70
     1
102
RTVSPropertyOp29
 70
     1
102
RTVSPropertyOp30
 70
     1
102
RTVSPropertyOp31
 70
     1
102
RTVSPropertyOp32
 70
     1
  0
XRECORD
  5
1B5
102
{ACAD_REACTORS
330
1B4
102
}
330
1B4
100
AcDbXrecord
280
     1
102
RTVSPropertyOp0
 70
     1
102
RTVSPropertyOp1
 70
     1
102
RTVSPropertyOp2
 70
     1
102
RTVSPropertyOp3
 70
     1
102
RTVSPropertyOp4
 70
     1
102
RTVSPropertyOp5
 70
     1
102
RTVSPropertyOp6
 70
     1
102
RTVSPropertyOp7
 70
     1
102
RTVSPropertyOp8
 70
     1
102
RTVSPropertyOp9
 70
     1
102
RTVSPropertyOp10
 70
     1
102
RTVSPropertyOp11
 70
     1
102
RTVSPropertyOp12
 70
     1
102
RTVSPropertyOp13
 70
     1
102
RTVSPropertyOp14
 70
     1
102
RTVSPropertyOp15
 70
     1
102
RTVSPropertyOp16
 70
     1
102
RTVSPropertyOp17
 70
     1
102
RTVSPropertyOp18
 70
     1
102
RTVSPropertyOp19
 70
     1
102
RTVSPropertyOp20
 70
     1
102
RTVSPropertyOp21
 70
     1
102
RTVSPropertyOp22
 70
     1
102
RTVSPropertyOp23
 70
     1
102
RTVSPropertyOp24
 70
     1
102
RTVSPropertyOp25
 70
     1
102
RTVSPropertyOp26
 70
     1
102
RTVSPropertyOp27
 70
     1
102
RTVSPropertyOp28
 70
     1
102
RTVSPropertyOp29
 70
     1
102
RTVSPropertyOp30
 70
     1
102
RTVSPropertyOp31
 70
     1
102
RTVSPropertyOp32
 70
     1
  0
XRECORD
  5
199
102
{ACAD_REACTORS
330
198
102
}
330
198
100
AcDbXrecord
280
     1
102
RTVSPropertyOp0
 70
     1
102
RTVSPropertyOp1
 70
     1
102
RTVSPropertyOp2
 70
     1
102
RTVSPropertyOp3
 70
     1
102
RTVSPropertyOp4
 70
     1
102
RTVSPropertyOp5
 70
     1
102
RTVSPropertyOp6
 70
     1
102
RTVSPropertyOp7
 70
     1
102
RTVSPropertyOp8
 70
     1
102
RTVSPropertyOp9
 70
     1
102
RTVSPropertyOp10
 70
     1
102
RTVSPropertyOp11
 70
     1
102
RTVSPropertyOp12
 70
     1
102
RTVSPropertyOp13
 70
     1
102
RTVSPropertyOp14
 70
     1
102
RTVSPropertyOp15
 70
     1
102
RTVSPropertyOp16
 70
     1
102
RTVSPropertyOp17
 70
     1
102
RTVSPropertyOp18
 70
     1
102
RTVSPropertyOp19
 70
     1
102
RTVSPropertyOp20
 70
     1
102
RTVSPropertyOp21
 70
     1
102
RTVSPropertyOp22
 70
     1
102
RTVSPropertyOp23
 70
     1
102
RTVSPropertyOp24
 70
     1
102
RTVSPropertyOp25
 70
     1
102
RTVSPropertyOp26
 70
     1
102
RTVSPropertyOp27
 70
     1
102
RTVSPropertyOp28
 70
     1
102
RTVSPropertyOp29
 70
     1
102
RTVSPropertyOp30
 70
     1
102
RTVSPropertyOp31
 70
     1
102
RTVSPropertyOp32
 70
     1
  0
XRECORD
  5
19B
102
{ACAD_REACTORS
330
19A
102
}
330
19A
100
AcDbXrecord
280
     1
102
RTVSPropertyOp0
 70
     1
102
RTVSPropertyOp1
 70
     1
102
RTVSPropertyOp2
 70
     1
102
RTVSPropertyOp3
 70
     1
102
RTVSPropertyOp4
 70
     1
102
RTVSPropertyOp5
 70
     1
102
RTVSPropertyOp6
 70
     1
102
RTVSPropertyOp7
 70
     1
102
RTVSPropertyOp8
 70
     1
102
RTVSPropertyOp9
 70
     1
102
RTVSPropertyOp10
 70
     1
102
RTVSPropertyOp11
 70
     1
102
RTVSPropertyOp12
 70
     1
102
RTVSPropertyOp13
 70
     1
102
RTVSPropertyOp14
 70
     1
102
RTVSPropertyOp15
 70
     1
102
RTVSPropertyOp16
 70
     1
102
RTVSPropertyOp17
 70
     1
102
RTVSPropertyOp18
 70
     1
102
RTVSPropertyOp19
 70
     1
102
RTVSPropertyOp20
 70
     1
102
RTVSPropertyOp21
 70
     1
102
RTVSPropertyOp22
 70
     1
102
RTVSPropertyOp23
 70
     1
102
RTVSPropertyOp24
 70
     1
102
RTVSPropertyOp25
 70
     1
102
RTVSPropertyOp26
 70
     1
102
RTVSPropertyOp27
 70
     1
102
RTVSPropertyOp28
 70
     1
102
RTVSPropertyOp29
 70
     1
102
RTVSPropertyOp30
 70
     1
102
RTVSPropertyOp31
 70
     1
102
RTVSPropertyOp32
 70
     1
  0
XRECORD
  5
19D
102
{ACAD_REACTORS
330
19C
102
}
330
19C
100
AcDbXrecord
280
     1
102
RTVSPropertyOp0
 70
     1
102
RTVSPropertyOp1
 70
     1
102
RTVSPropertyOp2
 70
     1
102
RTVSPropertyOp3
 70
     1
102
RTVSPropertyOp4
 70
     1
102
RTVSPropertyOp5
 70
     1
102
RTVSPropertyOp6
 70
     1
102
RTVSPropertyOp7
 70
     1
102
RTVSPropertyOp8
 70
     1
102
RTVSPropertyOp9
 70
     1
102
RTVSPropertyOp10
 70
     1
102
RTVSPropertyOp11
 70
     1
102
RTVSPropertyOp12
 70
     1
102
RTVSPropertyOp13
 70
     1
102
RTVSPropertyOp14
 70
     1
102
RTVSPropertyOp15
 70
     1
102
RTVSPropertyOp16
 70
     1
102
RTVSPropertyOp17
 70
     1
102
RTVSPropertyOp18
 70
     1
102
RTVSPropertyOp19
 70
     1
102
RTVSPropertyOp20
 70
     1
102
RTVSPropertyOp21
 70
     1
102
RTVSPropertyOp22
 70
     1
102
RTVSPropertyOp23
 70
     1
102
RTVSPropertyOp24
 70
     1
102
RTVSPropertyOp25
 70
     1
102
RTVSPropertyOp26
 70
     1
102
RTVSPropertyOp27
 70
     1
102
RTVSPropertyOp28
 70
     1
102
RTVSPropertyOp29
 70
     1
102
RTVSPropertyOp30
 70
     1
102
RTVSPropertyOp31
 70
     1
102
RTVSPropertyOp32
 70
     1
  0
XRECORD
  5
19F
102
{ACAD_REACTORS
330
19E
102
}
330
19E
100
AcDbXrecord
280
     1
102
RTVSPropertyOp0
 70
     1
102
RTVSPropertyOp1
 70
     1
102
RTVSPropertyOp2
 70
     1
102
RTVSPropertyOp3
 70
     1
102
RTVSPropertyOp4
 70
     1
102
RTVSPropertyOp5
 70
     1
102
RTVSPropertyOp6
 70
     1
102
RTVSPropertyOp7
 70
     1
102
RTVSPropertyOp8
 70
     1
102
RTVSPropertyOp9
 70
     1
102
RTVSPropertyOp10
 70
     1
102
RTVSPropertyOp11
 70
     1
102
RTVSPropertyOp12
 70
     1
102
RTVSPropertyOp13
 70
     1
102
RTVSPropertyOp14
 70
     1
102
RTVSPropertyOp15
 70
     1
102
RTVSPropertyOp16
 70
     1
102
RTVSPropertyOp17
 70
     1
102
RTVSPropertyOp18
 70
     1
102
RTVSPropertyOp19
 70
     1
102
RTVSPropertyOp20
 70
     1
102
RTVSPropertyOp21
 70
     1
102
RTVSPropertyOp22
 70
     1
102
RTVSPropertyOp23
 70
     1
102
RTVSPropertyOp24
 70
     1
102
RTVSPropertyOp25
 70
     1
102
RTVSPropertyOp26
 70
     1
102
RTVSPropertyOp27
 70
     1
102
RTVSPropertyOp28
 70
     1
102
RTVSPropertyOp29
 70
     1
102
RTVSPropertyOp30
 70
     1
102
RTVSPropertyOp31
 70
     1
102
RTVSPropertyOp32
 70
     1
  0
XRECORD
  5
1B3
102
{ACAD_REACTORS
330
1B2
102
}
330
1B2
100
AcDbXrecord
280
     1
102
RTVSPropertyOp0
 70
     1
102
RTVSPropertyOp1
 70
     1
102
RTVSPropertyOp2
 70
     1
102
RTVSPropertyOp3
 70
     1
102
RTVSPropertyOp4
 70
     1
102
RTVSPropertyOp5
 70
     1
102
RTVSPropertyOp6
 70
     1
102
RTVSPropertyOp7
 70
     1
102
RTVSPropertyOp8
 70
     1
102
RTVSPropertyOp9
 70
     1
102
RTVSPropertyOp10
 70
     1
102
RTVSPropertyOp11
 70
     1
102
RTVSPropertyOp12
 70
     1
102
RTVSPropertyOp13
 70
     1
102
RTVSPropertyOp14
 70
     1
102
RTVSPropertyOp15
 70
     1
102
RTVSPropertyOp16
 70
     1
102
RTVSPropertyOp17
 70
     1
102
RTVSPropertyOp18
 70
     1
102
RTVSPropertyOp19
 70
     1
102
RTVSPropertyOp20
 70
     1
102
RTVSPropertyOp21
 70
     1
102
RTVSPropertyOp22
 70
     1
102
RTVSPropertyOp23
 70
     1
102
RTVSPropertyOp24
 70
     1
102
RTVSPropertyOp25
 70
     1
102
RTVSPropertyOp26
 70
     1
102
RTVSPropertyOp27
 70
     1
102
RTVSPropertyOp28
 70
     1
102
RTVSPropertyOp29
 70
     1
102
RTVSPropertyOp30
 70
     1
102
RTVSPropertyOp31
 70
     1
102
RTVSPropertyOp32
 70
     1
  0
XRECORD
  5
1A9
102
{ACAD_REACTORS
330
1A8
102
}
330
1A8
100
AcDbXrecord
280
     1
102
RTVSPropertyOp0
 70
     1
102
RTVSPropertyOp1
 70
     1
102
RTVSPropertyOp2
 70
     1
102
RTVSPropertyOp3
 70
     1
102
RTVSPropertyOp4
 70
     1
102
RTVSPropertyOp5
 70
     1
102
RTVSPropertyOp6
 70
     1
102
RTVSPropertyOp7
 70
     1
102
RTVSPropertyOp8
 70
     1
102
RTVSPropertyOp9
 70
     1
102
RTVSPropertyOp10
 70
     1
102
RTVSPropertyOp11
 70
     1
102
RTVSPropertyOp12
 70
     1
102
RTVSPropertyOp13
 70
     1
102
RTVSPropertyOp14
 70
     1
102
RTVSPropertyOp15
 70
     1
102
RTVSPropertyOp16
 70
     1
102
RTVSPropertyOp17
 70
     1
102
RTVSPropertyOp18
 70
     1
102
RTVSPropertyOp19
 70
     1
102
RTVSPropertyOp20
 70
     1
102
RTVSPropertyOp21
 70
     1
102
RTVSPropertyOp22
 70
     1
102
RTVSPropertyOp23
 70
     1
102
RTVSPropertyOp24
 70
     1
102
RTVSPropertyOp25
 70
     1
102
RTVSPropertyOp26
 70
     1
102
RTVSPropertyOp27
 70
     1
102
RTVSPropertyOp28
 70
     1
102
RTVSPropertyOp29
 70
     1
102
RTVSPropertyOp30
 70
     1
102
RTVSPropertyOp31
 70
     1
102
RTVSPropertyOp32
 70
     1
  0
XRECORD
  5
1B1
102
{ACAD_REACTORS
330
1B0
102
}
330
1B0
100
AcDbXrecord
280
     1
102
RTVSPropertyOp0
 70
     1
102
RTVSPropertyOp1
 70
     1
102
RTVSPropertyOp2
 70
     1
102
RTVSPropertyOp3
 70
     1
102
RTVSPropertyOp4
 70
     1
102
RTVSPropertyOp5
 70
     1
102
RTVSPropertyOp6
 70
     1
102
RTVSPropertyOp7
 70
     1
102
RTVSPropertyOp8
 70
     1
102
RTVSPropertyOp9
 70
     1
102
RTVSPropertyOp10
 70
     1
102
RTVSPropertyOp11
 70
     1
102
RTVSPropertyOp12
 70
     1
102
RTVSPropertyOp13
 70
     1
102
RTVSPropertyOp14
 70
     1
102
RTVSPropertyOp15
 70
     1
102
RTVSPropertyOp16
 70
     1
102
RTVSPropertyOp17
 70
     1
102
RTVSPropertyOp18
 70
     1
102
RTVSPropertyOp19
 70
     1
102
RTVSPropertyOp20
 70
     1
102
RTVSPropertyOp21
 70
     1
102
RTVSPropertyOp22
 70
     1
102
RTVSPropertyOp23
 70
     1
102
RTVSPropertyOp24
 70
     1
102
RTVSPropertyOp25
 70
     1
102
RTVSPropertyOp26
 70
     1
102
RTVSPropertyOp27
 70
     1
102
RTVSPropertyOp28
 70
     1
102
RTVSPropertyOp29
 70
     1
102
RTVSPropertyOp30
 70
     1
102
RTVSPropertyOp31
 70
     1
102
RTVSPropertyOp32
 70
     1
  0
ENDSEC
  0
EOF
