  0
SECTION
  2
HEADER
  9
$ACADVER
  1
AC1015
  9
$ACADMAINTVER
 70
     6
  9
$DWGCODEPAGE
  3
ANSI_932
  9
$INSBASE
 10
0.0
 20
0.0
 30
0.0
  9
$EXTMIN
 10
0.0
 20
0.00000000000001
 30
0.0
  9
$EXTMAX
 10
210.0000000000001
 20
297.0
 30
0.0
  9
$LIMMIN
 10
0.0
 20
0.0
  9
$LIMMAX
 10
12.0
 20
9.0
  9
$ORTHOMODE
 70
     0
  9
$REGENMODE
 70
     1
  9
$FILLMODE
 70
     1
  9
$QTEXTMODE
 70
     0
  9
$MIRRTEXT
 70
     1
  9
$LTSCALE
 40
1.0
  9
$ATTMODE
 70
     1
  9
$TEXTSIZE
 40
0.2
  9
$TRACEWID
 40
0.05
  9
$TEXTSTYLE
  7
Standard
  9
$CLAYER
  8
0
  9
$CELTYPE
  6
ByLayer
  9
$CECOLOR
 62
   256
  9
$CELTSCALE
 40
1.0
  9
$DISPSILH
 70
     0
  9
$DIMSCALE
 40
1.0
  9
$DIMASZ
 40
0.18
  9
$DIMEXO
 40
0.0625
  9
$DIMDLI
 40
0.38
  9
$DIMRND
 40
0.0
  9
$DIMDLE
 40
0.0
  9
$DIMEXE
 40
0.18
  9
$DIMTP
 40
0.0
  9
$DIMTM
 40
0.0
  9
$DIMTXT
 40
0.18
  9
$DIMCEN
 40
0.09
  9
$DIMTSZ
 40
0.0
  9
$DIMTOL
 70
     0
  9
$DIMLIM
 70
     0
  9
$DIMTIH
 70
     1
  9
$DIMTOH
 70
     1
  9
$DIMSE1
 70
     0
  9
$DIMSE2
 70
     0
  9
$DIMTAD
 70
     0
  9
$DIMZIN
 70
     0
  9
$DIMBLK
  1

  9
$DIMASO
 70
     1
  9
$DIMSHO
 70
     1
  9
$DIMPOST
  1

  9
$DIMAPOST
  1

  9
$DIMALT
 70
     0
  9
$DIMALTD
 70
     2
  9
$DIMALTF
 40
25.4
  9
$DIMLFAC
 40
1.0
  9
$DIMTOFL
 70
     0
  9
$DIMTVP
 40
0.0
  9
$DIMTIX
 70
     0
  9
$DIMSOXD
 70
     0
  9
$DIMSAH
 70
     0
  9
$DIMBLK1
  1

  9
$DIMBLK2
  1

  9
$DIMSTYLE
  2
Standard
  9
$DIMCLRD
 70
     0
  9
$DIMCLRE
 70
     0
  9
$DIMCLRT
 70
     0
  9
$DIMTFAC
 40
1.0
  9
$DIMGAP
 40
0.09
  9
$DIMJUST
 70
     0
  9
$DIMSD1
 70
     0
  9
$DIMSD2
 70
     0
  9
$DIMTOLJ
 70
     1
  9
$DIMTZIN
 70
     0
  9
$DIMALTZ
 70
     0
  9
$DIMALTTZ
 70
     0
  9
$DIMUPT
 70
     0
  9
$DIMDEC
 70
     4
  9
$DIMTDEC
 70
     4
  9
$DIMALTU
 70
     2
  9
$DIMALTTD
 70
     2
  9
$DIMTXSTY
  7
Standard
  9
$DIMAUNIT
 70
     0
  9
$DIMADEC
 70
     0
  9
$DIMALTRND
 40
0.0
  9
$DIMAZIN
 70
     0
  9
$DIMDSEP
 70
    46
  9
$DIMATFIT
 70
     3
  9
$DIMFRAC
 70
     0
  9
$DIMLDRBLK
  1

  9
$DIMLUNIT
 70
     2
  9
$DIMLWD
 70
    -2
  9
$DIMLWE
 70
    -2
  9
$DIMTMOVE
 70
     0
  9
$LUNITS
 70
     2
  9
$LUPREC
 70
     4
  9
$SKETCHINC
 40
0.1
  9
$FILLETRAD
 40
0.5
  9
$AUNITS
 70
     0
  9
$AUPREC
 70
     0
  9
$MENU
  1
.
  9
$ELEVATION
 40
0.0
  9
$PELEVATION
 40
0.0
  9
$THICKNESS
 40
0.0
  9
$LIMCHECK
 70
     0
  9
$CHAMFERA
 40
0.5
  9
$CHAMFERB
 40
0.5
  9
$CHAMFERC
 40
1.0
  9
$CHAMFERD
 40
0.0
  9
$SKPOLY
 70
     0
  9
$TDCREATE
 40
2459732.592755995
  9
$TDUCREATE
 40
2459732.217755995
  9
$TDUPDATE
 40
2459732.592757442
  9
$TDUUPDATE
 40
2459732.217757442
  9
$TDINDWG
 40
0.0000000116
  9
$TDUSRTIMER
 40
0.0000000116
  9
$USRTIMER
 70
     1
  9
$ANGBASE
 50
0.0
  9
$ANGDIR
 70
     0
  9
$PDMODE
 70
     0
  9
$PDSIZE
 40
0.0
  9
$PLINEWID
 40
0.0
  9
$SPLFRAME
 70
     0
  9
$SPLINETYPE
 70
     6
  9
$SPLINESEGS
 70
     8
  9
$HANDSEED
  5
1D2
  9
$SURFTAB1
 70
     6
  9
$SURFTAB2
 70
     6
  9
$SURFTYPE
 70
     6
  9
$SURFU
 70
     6
  9
$SURFV
 70
     6
  9
$UCSBASE
  2

  9
$UCSNAME
  2

  9
$UCSORG
 10
0.0
 20
0.0
 30
0.0
  9
$UCSXDIR
 10
1.0
 20
0.0
 30
0.0
  9
$UCSYDIR
 10
0.0
 20
1.0
 30
0.0
  9
$UCSORTHOREF
  2

  9
$UCSORTHOVIEW
 70
     0
  9
$UCSORGTOP
 10
0.0
 20
0.0
 30
0.0
  9
$UCSORGBOTTOM
 10
0.0
 20
0.0
 30
0.0
  9
$UCSORGLEFT
 10
0.0
 20
0.0
 30
0.0
  9
$UCSORGRIGHT
 10
0.0
 20
0.0
 30
0.0
  9
$UCSORGFRONT
 10
0.0
 20
0.0
 30
0.0
  9
$UCSORGBACK
 10
0.0
 20
0.0
 30
0.0
  9
$PUCSBASE
  2

  9
$PUCSNAME
  2

  9
$PUCSORG
 10
0.0
 20
0.0
 30
0.0
  9
$PUCSXDIR
 10
1.0
 20
0.0
 30
0.0
  9
$PUCSYDIR
 10
0.0
 20
1.0
 30
0.0
  9
$PUCSORTHOREF
  2

  9
$PUCSORTHOVIEW
 70
     0
  9
$PUCSORGTOP
 10
0.0
 20
0.0
 30
0.0
  9
$PUCSORGBOTTOM
 10
0.0
 20
0.0
 30
0.0
  9
$PUCSORGLEFT
 10
0.0
 20
0.0
 30
0.0
  9
$PUCSORGRIGHT
 10
0.0
 20
0.0
 30
0.0
  9
$PUCSORGFRONT
 10
0.0
 20
0.0
 30
0.0
  9
$PUCSORGBACK
 10
0.0
 20
0.0
 30
0.0
  9
$USERI1
 70
     0
  9
$USERI2
 70
     0
  9
$USERI3
 70
     0
  9
$USERI4
 70
     0
  9
$USERI5
 70
     0
  9
$USERR1
 40
18.1
  9
$USERR2
 40
0.0
  9
$USERR3
 40
0.0
  9
$USERR4
 40
0.0
  9
$USERR5
 40
0.0
  9
$WORLDVIEW
 70
     1
  9
$SHADEDGE
 70
     3
  9
$SHADEDIF
 70
    70
  9
$TILEMODE
 70
     1
  9
$MAXACTVP
 70
    64
  9
$PINSBASE
 10
0.0
 20
0.0
 30
0.0
  9
$PLIMCHECK
 70
     0
  9
$PEXTMIN
 10
1.00000000000000E+20
 20
1.00000000000000E+20
 30
1.00000000000000E+20
  9
$PEXTMAX
 10
-1.00000000000000E+20
 20
-1.00000000000000E+20
 30
-1.00000000000000E+20
  9
$PLIMMIN
 10
0.0
 20
0.0
  9
$PLIMMAX
 10
12.0
 20
9.0
  9
$UNITMODE
 70
     0
  9
$VISRETAIN
 70
     1
  9
$PLINEGEN
 70
     0
  9
$PSLTSCALE
 70
     1
  9
$TREEDEPTH
 70
  3020
  9
$CMLSTYLE
  2
Standard
  9
$CMLJUST
 70
     0
  9
$CMLSCALE
 40
1.0
  9
$PROXYGRAPHICS
 70
     1
  9
$MEASUREMENT
 70
     1
  9
$CELWEIGHT
370
    -1
  9
$ENDCAPS
280
     0
  9
$JOINSTYLE
280
     0
  9
$LWDISPLAY
290
     0
  9
$INSUNITS
 70
     4
  9
$HYPERLINKBASE
  1

  9
$STYLESHEET
  1

  9
$XEDIT
290
     1
  9
$CEPSNTYPE
380
     0
  9
$PSTYLEMODE
290
     1
  9
$FINGERPRINTGUID
  2
{6C9B39D8-ED29-4E4C-98E0-B13BD837BE80}
  9
$VERSIONGUID
  2
{FAEB1C32-E019-11D5-929B-00C0DF256EC4}
  9
$EXTNAMES
290
     1
  9
$PSVPSCALE
 40
0.0
  9
$OLESTARTUP
290
     0
  0
ENDSEC
  0
SECTION
  2
CLASSES
  0
CLASS
  1
ACDBDICTIONARYWDFLT
  2
AcDbDictionaryWithDefault
  3
ObjectDBX Classes
 90
        0
280
     0
281
     0
  0
CLASS
  1
VISUALSTYLE
  2
AcDbVisualStyle
  3
ObjectDBX Classes
 90
     4095
280
     0
281
     0
  0
CLASS
  1
MATERIAL
  2
AcDbMaterial
  3
ObjectDBX Classes
 90
     1153
280
     0
281
     0
  0
CLASS
  1
DICTIONARYVAR
  2
AcDbDictionaryVar
  3
ObjectDBX Classes
 90
        0
280
     0
281
     0
  0
CLASS
  1
ACDBPLACEHOLDER
  2
AcDbPlaceHolder
  3
ObjectDBX Classes
 90
        0
280
     0
281
     0
  0
CLASS
  1
LAYOUT
  2
AcDbLayout
  3
ObjectDBX Classes
 90
        0
280
     0
281
     0
  0
ENDSEC
  0
SECTION
  2
TABLES
  0
TABLE
  2
VPORT
  5
8
330
0
100
AcDbSymbolTable
 70
     1
  0
VPORT
  5
29
330
8
100
AcDbSymbolTableRecord
100
AcDbViewportTableRecord
  2
*Active
 70
     0
 10
0.0
 20
0.0
 11
1.0
 21
1.0
 12
105.0000000000001
 22
148.5
 13
0.0
 23
0.0
 14
0.5
 24
0.5
 15
0.5
 25
0.5
 16
0.0
 26
0.0
 36
1.0
 17
0.0
 27
0.0
 37
0.0
 40
326.7
 41
1.60267857142857
 42
50.0
 43
0.0
 44
0.0
 50
0.0
 51
0.0
 71
     0
 72
   100
 73
     1
 74
     3
 75
     0
 76
     0
 77
     0
 78
     0
281
     0
 65
     1
110
0.0
120
0.0
130
0.0
111
1.0
121
0.0
131
0.0
112
0.0
122
1.0
132
0.0
 79
     0
146
0.0
  0
ENDTAB
  0
TABLE
  2
LTYPE
  5
5
330
0
100
AcDbSymbolTable
 70
     8
  0
LTYPE
  5
14
330
5
100
AcDbSymbolTableRecord
100
AcDbLinetypeTableRecord
  2
ByBlock
 70
     0
  3

 72
    65
 73
     0
 40
0.0
  0
LTYPE
  5
15
330
5
100
AcDbSymbolTableRecord
100
AcDbLinetypeTableRecord
  2
ByLayer
 70
     0
  3

 72
    65
 73
     0
 40
0.0
  0
LTYPE
  5
16
330
5
100
AcDbSymbolTableRecord
100
AcDbLinetypeTableRecord
  2
Continuous
 70
     0
  3
Solid line
 72
    65
 73
     0
 40
0.0
  0
LTYPE
  5
3F
330
5
100
AcDbSymbolTableRecord
100
AcDbLinetypeTableRecord
  2
DASHED
 70
     0
  3
Dashed
 72
    65
 73
     2
 40
15.0
 49
7.0
 74
     0
 49
-8.0
 74
     0
  0
LTYPE
  5
40
330
5
100
AcDbSymbolTableRecord
100
AcDbLinetypeTableRecord
  2
DOTTED
 70
     0
  3
Dotted
 72
    65
 73
     2
 40
1.0
 49
0.0
 74
     0
 49
-1.0
 74
     0
  0
LTYPE
  5
41
330
5
100
AcDbSymbolTableRecord
100
AcDbLinetypeTableRecord
  2
DOT_CENTER
 70
     0
  3
Dot_Center
 72
    65
 73
     4
 40
14.0
 49
12.0
 74
     0
 49
-1.0
 74
     0
 49
0.0
 74
     0
 49
-1.0
 74
     0
  0
LTYPE
  5
42
330
5
100
AcDbSymbolTableRecord
100
AcDbLinetypeTableRecord
  2
LONG_DASHED
 70
     0
  3
Long_Dashed
 72
    65
 73
     2
 40
15.0
 49
10.0
 74
     0
 49
-5.0
 74
     0
  0
LTYPE
  5
43
330
5
100
AcDbSymbolTableRecord
100
AcDbLinetypeTableRecord
  2
DASH_CENTER
 70
     0
  3
Dash_Center
 72
    65
 73
     4
 40
14.0
 49
11.0
 74
     0
 49
-1.0
 74
     0
 49
1.0
 74
     0
 49
-1.0
 74
     0
  0
LTYPE
  5
44
330
5
100
AcDbSymbolTableRecord
100
AcDbLinetypeTableRecord
  2
PHANTOM
 70
     0
  3
Phantom
 72
    65
 73
     6
 40
13.0
 49
10.0
 74
     0
 49
-1.0
 74
     0
 49
0.0
 74
     0
 49
-1.0
 74
     0
 49
0.0
 74
     0
 49
-1.0
 74
     0
  0
LTYPE
  5
45
330
5
100
AcDbSymbolTableRecord
100
AcDbLinetypeTableRecord
  2
CENTER_DASH_DASH
 70
     0
  3
Center_Dash_Dash
 72
    65
 73
     6
 40
14.0
 49
9.0
 74
     0
 49
-1.0
 74
     0
 49
1.0
 74
     0
 49
-1.0
 74
     0
 49
1.0
 74
     0
 49
-1.0
 74
     0
  0
ENDTAB
  0
TABLE
  2
LAYER
  5
2
330
0
100
AcDbSymbolTable
 70
     3
  0
LAYER
  5
10
330
2
100
AcDbSymbolTableRecord
100
AcDbLayerTableRecord
  2
0
 70
     0
 62
     7
  6
Continuous
370
    -3
390
F
  0
LAYER
  5
46
330
2
100
AcDbSymbolTableRecord
100
AcDbLayerTableRecord
  2
1
 70
     0
 62
     7
  6
Continuous
370
    -3
390
F
  0
LAYER
  5
47
330
2
100
AcDbSymbolTableRecord
100
AcDbLayerTableRecord
  2
_U_30EC_U_30A4_U_30E4_U_30FC_1
 70
     0
 62
     7
  6
Continuous
370
    -3
390
F
  0
ENDTAB
  0
TABLE
  2
STYLE
  5
3
330
0
100
AcDbSymbolTable
 70
     4
  0
STYLE
  5
11
330
3
100
AcDbSymbolTableRecord
100
AcDbTextStyleTableRecord
  2
Standard
 70
     0
 40
0.0
 41
1.0
 50
0.0
 71
     0
 42
0.2
  3
txt
  4

  0
STYLE
  5
B6
330
3
100
AcDbSymbolTableRecord
100
AcDbTextStyleTableRecord
  2
CONVERTER_11
 70
     0
 40
0.0
 41
0.89
 50
0.0
 71
     0
 42
0.2
  3
MS Mincho.ttf
  4

1001
ACAD
1000
MS Mincho
1071
    32785
  0
STYLE
  5
13B
330
3
100
AcDbSymbolTableRecord
100
AcDbTextStyleTableRecord
  2
CONVERTER_12
 70
     0
 40
0.0
 41
0.9
 50
0.0
 71
     0
 42
0.2
  3
txt.shx
  4

  0
STYLE
  5
146
330
3
100
AcDbSymbolTableRecord
100
AcDbTextStyleTableRecord
  2
CONVERTER_13
 70
     0
 40
0.0
 41
0.95
 50
0.0
 71
     0
 42
0.2
  3
complex.shx
  4

  0
ENDTAB
  0
TABLE
  2
VIEW
  5
6
330
0
100
AcDbSymbolTable
 70
     0
  0
ENDTAB
  0
TABLE
  2
UCS
  5
7
330
0
100
AcDbSymbolTable
 70
     0
  0
ENDTAB
  0
TABLE
  2
APPID
  5
9
330
0
100
AcDbSymbolTable
 70
     1
  0
APPID
  5
12
330
9
100
AcDbSymbolTableRecord
100
AcDbRegAppTableRecord
  2
ACAD
 70
     0
  0
ENDTAB
  0
TABLE
  2
DIMSTYLE
  5
A
330
0
100
AcDbSymbolTable
 70
     9
100
AcDbDimStyleTable
  0
DIMSTYLE
105
27
330
A
100
AcDbSymbolTableRecord
100
AcDbDimStyleTableRecord
  2
Standard
 70
     0
178
     0
340
11
  0
DIMSTYLE
105
158
102
{ACAD_REACTORS
330
159
102
}
330
A
100
AcDbSymbolTableRecord
100
AcDbDimStyleTableRecord
  2
ME10_DIM_10
 70
     0
 41
3.5
 42
0.0
 44
2.0
 73
     0
 74
     0
 77
     1
 78
     8
140
3.0
147
2.0
172
     1
173
     1
174
     1
175
     1
176
     2
177
     2
271
     2
178
     7
271
     2
340
13B
  0
DIMSTYLE
105
163
102
{ACAD_REACTORS
330
164
102
}
330
A
100
AcDbSymbolTableRecord
100
AcDbDimStyleTableRecord
  2
ME10_DIM_11
 70
     0
 41
3.5
 42
0.0
 44
2.0
 73
     0
 74
     0
 77
     1
 78
     8
140
3.0
147
2.0
172
     1
173
     1
174
     1
175
     1
176
     2
177
     2
271
     2
178
     7
271
     2
340
13B
  0
DIMSTYLE
105
16E
102
{ACAD_REACTORS
330
16F
102
}
330
A
100
AcDbSymbolTableRecord
100
AcDbDimStyleTableRecord
  2
ME10_DIM_12
 70
     0
 41
3.5
 42
0.0
 44
2.0
 73
     0
 74
     0
 77
     1
 78
     8
140
3.0
147
2.0
172
     1
173
     1
174
     1
175
     1
176
     2
177
     2
271
     2
178
     7
271
     2
340
13B
  0
DIMSTYLE
105
179
102
{ACAD_REACTORS
330
17A
102
}
330
A
100
AcDbSymbolTableRecord
100
AcDbDimStyleTableRecord
  2
ME10_DIM_13
 70
     0
 41
3.5
 42
0.0
 44
2.0
 73
     0
 74
     0
 77
     1
 78
     8
140
3.0
147
2.0
172
     1
173
     1
174
     1
175
     1
176
     2
177
     2
271
     2
178
     7
271
     2
340
13B
  0
DIMSTYLE
105
184
102
{ACAD_REACTORS
330
185
102
}
330
A
100
AcDbSymbolTableRecord
100
AcDbDimStyleTableRecord
  2
ME10_DIM_14
 70
     0
 41
3.5
 42
0.0
 44
2.0
 73
     0
 74
     0
 77
     1
 78
     8
140
3.0
147
2.0
172
     1
173
     1
174
     1
175
     1
176
     2
177
     2
271
     2
178
     7
271
     2
340
13B
  0
DIMSTYLE
105
18F
102
{ACAD_REACTORS
330
190
102
}
330
A
100
AcDbSymbolTableRecord
100
AcDbDimStyleTableRecord
  2
ME10_DIM_15
 70
     0
 41
3.5
 42
0.0
 44
2.0
 73
     0
 74
     0
 77
     1
 78
     8
140
3.0
147
2.0
172
     1
173
     1
174
     1
175
     1
176
     2
177
     2
271
     2
178
     7
271
     2
340
13B
  0
DIMSTYLE
105
19A
102
{ACAD_REACTORS
330
19B
102
}
330
A
100
AcDbSymbolTableRecord
100
AcDbDimStyleTableRecord
  2
ME10_DIM_16
 70
     0
 41
3.5
 42
0.0
 44
2.0
 73
     0
 74
     0
 77
     1
 78
     8
140
3.0
147
2.0
172
     1
173
     1
174
     1
175
     1
176
     2
177
     2
271
     2
178
     7
271
     2
340
13B
  0
DIMSTYLE
105
1A5
102
{ACAD_REACTORS
330
1A6
102
}
330
A
100
AcDbSymbolTableRecord
100
AcDbDimStyleTableRecord
  2
ME10_DIM_17
 70
     0
 41
3.5
 42
0.0
 44
2.0
 73
     0
 74
     0
 77
     1
 78
     8
140
3.0
147
2.0
172
     1
173
     1
174
     1
175
     1
176
     2
177
     2
271
     2
178
     7
271
     2
340
13B
  0
ENDTAB
  0
TABLE
  2
BLOCK_RECORD
  5
1
330
0
100
AcDbSymbolTable
 70
    12
  0
BLOCK_RECORD
  5
1F
330
1
100
AcDbSymbolTableRecord
100
AcDbBlockTableRecord
  2
*Model_Space
340
22
  0
BLOCK_RECORD
  5
1B
330
1
100
AcDbSymbolTableRecord
100
AcDbBlockTableRecord
  2
*Paper_Space
340
1E
  0
BLOCK_RECORD
  5
23
330
1
100
AcDbSymbolTableRecord
100
AcDbBlockTableRecord
  2
*Paper_Space0
340
26
  0
BLOCK_RECORD
  5
48
330
1
100
AcDbSymbolTableRecord
100
AcDbBlockTableRecord
  2
開示A4
340
0
102
{BLKREFS
331
4C
102
}
  0
BLOCK_RECORD
  5
4B
330
1
100
AcDbSymbolTableRecord
100
AcDbBlockTableRecord
  2
開示A4枠
340
0
102
{BLKREFS
331
52
102
}
  0
BLOCK_RECORD
  5
4F
330
1
100
AcDbSymbolTableRecord
100
AcDbBlockTableRecord
  2
T521-0
340
0
102
{BLKREFS
331
53
102
}
  0
BLOCK_RECORD
  5
14F
330
1
100
AcDbSymbolTableRecord
100
AcDbBlockTableRecord
  2
*D4
340
0
  0
BLOCK_RECORD
  5
15A
330
1
100
AcDbSymbolTableRecord
100
AcDbBlockTableRecord
  2
*D5
340
0
  0
BLOCK_RECORD
  5
165
330
1
100
AcDbSymbolTableRecord
100
AcDbBlockTableRecord
  2
*D6
340
0
  0
BLOCK_RECORD
  5
170
330
1
100
AcDbSymbolTableRecord
100
AcDbBlockTableRecord
  2
*D7
340
0
  0
BLOCK_RECORD
  5
17B
330
1
100
AcDbSymbolTableRecord
100
AcDbBlockTableRecord
  2
*D8
340
0
  0
BLOCK_RECORD
  5
186
330
1
100
AcDbSymbolTableRecord
100
AcDbBlockTableRecord
  2
*D9
340
0
  0
BLOCK_RECORD
  5
191
330
1
100
AcDbSymbolTableRecord
100
AcDbBlockTableRecord
  2
*D10
340
0
  0
BLOCK_RECORD
  5
19C
330
1
100
AcDbSymbolTableRecord
100
AcDbBlockTableRecord
  2
*D11
340
0
  0
ENDTAB
  0
ENDSEC
  0
SECTION
  2
BLOCKS
  0
BLOCK
  5
20
330
1F
100
AcDbEntity
  8
0
100
AcDbBlockBegin
  2
*Model_Space
 70
     0
 10
0.0
 20
0.0
 30
0.0
  3
*Model_Space
  1

  0
ENDBLK
  5
21
330
1F
100
AcDbEntity
  8
0
100
AcDbBlockEnd
  0
BLOCK
  5
1C
330
1B
100
AcDbEntity
 67
     1
  8
0
100
AcDbBlockBegin
  2
*Paper_Space
 70
     0
 10
0.0
 20
0.0
 30
0.0
  3
*Paper_Space
  1

  0
ENDBLK
  5
1D
330
1B
100
AcDbEntity
 67
     1
  8
0
100
AcDbBlockEnd
  0
BLOCK
  5
24
330
23
100
AcDbEntity
  8
0
100
AcDbBlockBegin
  2
*Paper_Space0
 70
     0
 10
0.0
 20
0.0
 30
0.0
  3
*Paper_Space0
  1

  0
ENDBLK
  5
25
330
23
100
AcDbEntity
  8
0
100
AcDbBlockEnd
  0
BLOCK
  5
49
330
48
100
AcDbEntity
  8
0
100
AcDbBlockBegin
  2
開示A4
 70
     0
 10
0.0
 20
0.00000000000001
 30
0.0
  3
開示A4
  1

  0
POINT
  5
54
330
48
100
AcDbEntity
  8
1
 62
     4
100
AcDbPoint
 10
34.0
 20
34.00000000000001
 30
0.0
  0
POINT
  5
55
330
48
100
AcDbEntity
  8
1
 62
     4
100
AcDbPoint
 10
57.00000000000006
 20
12.25000000000001
 30
0.0
  0
POINT
  5
56
330
48
100
AcDbEntity
  8
1
 62
     4
100
AcDbPoint
 10
57.00000000000006
 20
20.75000000000001
 30
0.0
  0
POINT
  5
57
330
48
100
AcDbEntity
  8
1
 62
     4
100
AcDbPoint
 10
57.00000000000006
 20
24.75000000000001
 30
0.0
  0
POINT
  5
58
330
48
100
AcDbEntity
  8
1
 62
     4
100
AcDbPoint
 10
57.00000000000006
 20
16.25000000000001
 30
0.0
  0
POINT
  5
59
330
48
100
AcDbEntity
  8
1
 62
     4
100
AcDbPoint
 10
157.5000000000001
 20
19.00000000000001
 30
0.0
  0
POINT
  5
5A
330
48
100
AcDbEntity
  8
1
 62
     4
100
AcDbPoint
 10
47.5
 20
282.0000000000003
 30
0.0
  0
POINT
  5
5B
330
48
100
AcDbEntity
  8
1
 62
     4
100
AcDbPoint
 10
57.00000000000006
 20
22.75000000000001
 30
0.0
  0
POINT
  5
5C
330
48
100
AcDbEntity
  8
1
 62
     4
100
AcDbPoint
 10
57.00000000000006
 20
14.25000000000001
 30
0.0
  0
POINT
  5
5D
330
48
100
AcDbEntity
  8
1
 62
     4
100
AcDbPoint
 10
157.5000000000001
 20
12.50000000000001
 30
0.0
  0
POINT
  5
5E
330
48
100
AcDbEntity
  8
1
 62
     4
100
AcDbPoint
 10
163.2500000000001
 20
12.50000000000001
 30
0.0
  0
POINT
  5
5F
330
48
100
AcDbEntity
  8
1
 62
     4
100
AcDbPoint
 10
151.7500000000001
 20
12.50000000000001
 30
0.0
  0
POINT
  5
60
330
48
100
AcDbEntity
  8
1
 62
     4
100
AcDbPoint
 10
134.7500000000001
 20
12.50000000000001
 30
0.0
  0
POINT
  5
61
330
48
100
AcDbEntity
  8
1
 62
     4
100
AcDbPoint
 10
146.2500000000001
 20
12.50000000000001
 30
0.0
  0
POINT
  5
62
330
48
100
AcDbEntity
  8
1
 62
     4
100
AcDbPoint
 10
140.5000000000001
 20
12.50000000000001
 30
0.0
  0
POINT
  5
63
330
48
100
AcDbEntity
  8
1
 62
     4
100
AcDbPoint
 10
140.5000000000001
 20
19.00000000000001
 30
0.0
  0
POINT
  5
64
330
48
100
AcDbEntity
  8
1
 62
     4
100
AcDbPoint
 10
117.7500000000001
 20
12.50000000000001
 30
0.0
  0
POINT
  5
65
330
48
100
AcDbEntity
  8
1
 62
     4
100
AcDbPoint
 10
129.2500000000001
 20
12.50000000000001
 30
0.0
  0
POINT
  5
66
330
48
100
AcDbEntity
  8
1
 62
     4
100
AcDbPoint
 10
123.5000000000001
 20
12.50000000000001
 30
0.0
  0
POINT
  5
67
330
48
100
AcDbEntity
  8
1
 62
     4
100
AcDbPoint
 10
123.5000000000001
 20
19.00000000000001
 30
0.0
  0
POINT
  5
68
330
48
100
AcDbEntity
  8
1
 62
     4
100
AcDbPoint
 10
100.7500000000001
 20
12.50000000000001
 30
0.0
  0
POINT
  5
69
330
48
100
AcDbEntity
  8
1
 62
     4
100
AcDbPoint
 10
112.2500000000001
 20
12.50000000000001
 30
0.0
  0
POINT
  5
6A
330
48
100
AcDbEntity
  8
1
 62
     4
100
AcDbPoint
 10
106.5000000000001
 20
12.50000000000001
 30
0.0
  0
POINT
  5
6B
330
48
100
AcDbEntity
  8
1
 62
     4
100
AcDbPoint
 10
106.5000000000001
 20
19.00000000000001
 30
0.0
  0
POINT
  5
6C
330
48
100
AcDbEntity
  8
1
 62
     4
100
AcDbPoint
 10
85.25000000000006
 20
17.00000000000001
 30
0.0
  0
POINT
  5
6D
330
48
100
AcDbEntity
  8
1
 62
     4
100
AcDbPoint
 10
93.75000000000006
 20
17.00000000000001
 30
0.0
  0
POINT
  5
6E
330
48
100
AcDbEntity
  8
1
 62
     4
100
AcDbPoint
 10
183.0000000000001
 20
15.00000000000001
 30
0.0
  0
LINE
  5
6F
330
48
100
AcDbEntity
  8
1
  6
Continuous
 62
     2
100
AcDbLine
 10
81.00000000000006
 20
27.00000000000001
 30
0.0
 11
81.00000000000006
 21
10.00000000000001
 31
0.0
  0
LINE
  5
70
330
48
100
AcDbEntity
  8
1
  6
DOT_CENTER
 62
     2
100
AcDbLine
 10
187.0000000000001
 20
26.50000000000001
 30
0.0
 11
187.0000000000001
 21
20.50000000000001
 31
0.0
  0
LINE
  5
71
330
48
100
AcDbEntity
  8
1
  6
DOT_CENTER
 62
     2
100
AcDbLine
 10
184.0000000000001
 20
23.50000000000001
 30
0.0
 11
197.0000000000001
 21
23.50000000000001
 31
0.0
  0
LINE
  5
72
330
48
100
AcDbEntity
  8
1
  6
Continuous
 62
     7
100
AcDbLine
 10
196.0000000000001
 20
21.50000000000001
 30
0.0
 11
191.0000000000001
 21
22.30000000000001
 31
0.0
  0
LINE
  5
73
330
48
100
AcDbEntity
  8
1
  6
Continuous
 62
     7
100
AcDbLine
 10
196.0000000000001
 20
25.50000000000001
 30
0.0
 11
196.0000000000001
 21
21.50000000000001
 31
0.0
  0
LINE
  5
74
330
48
100
AcDbEntity
  8
1
  6
Continuous
 62
     7
100
AcDbLine
 10
191.0000000000001
 20
24.70000000000002
 30
0.0
 11
196.0000000000001
 21
25.50000000000001
 31
0.0
  0
LINE
  5
75
330
48
100
AcDbEntity
  8
1
  6
Continuous
 62
     7
100
AcDbLine
 10
191.0000000000001
 20
24.70000000000002
 30
0.0
 11
191.0000000000001
 21
22.30000000000001
 31
0.0
  0
LINE
  5
76
330
48
100
AcDbEntity
  8
1
  6
Continuous
 62
     2
100
AcDbLine
 10
33.0
 20
27.00000000000001
 30
0.0
 11
33.0
 21
10.00000000000001
 31
0.0
  0
LINE
  5
77
330
48
100
AcDbEntity
  8
1
  6
Continuous
 62
     2
100
AcDbLine
 10
25.0
 20
18.50000000000001
 30
0.0
 11
81.00000000000006
 21
18.50000000000001
 31
0.0
  0
LINE
  5
78
330
48
100
AcDbEntity
  8
1
  6
Continuous
 62
     7
100
AcDbLine
 10
200.0000000000001
 20
287.0000000000003
 30
0.0
 11
105.0000000000001
 21
287.0000000000003
 31
0.0
  0
LINE
  5
79
330
48
100
AcDbEntity
  8
1
  6
Continuous
 62
     7
100
AcDbLine
 10
200.0000000000001
 20
10.00000000000001
 30
0.0
 11
200.0000000000001
 21
148.5
 31
0.0
  0
LINE
  5
7A
330
48
100
AcDbEntity
  8
1
  6
Continuous
 62
     7
100
AcDbLine
 10
25.0
 20
10.00000000000001
 30
0.0
 11
105.0000000000001
 21
10.00000000000001
 31
0.0
  0
LINE
  5
7B
330
48
100
AcDbEntity
  8
1
  6
PHANTOM
 62
     4
100
AcDbLine
 10
0.0
 20
297.0
 30
0.0
 11
0.0
 21
0.00000000000001
 31
0.0
  0
LINE
  5
7C
330
48
100
AcDbEntity
  8
1
  6
PHANTOM
 62
     4
100
AcDbLine
 10
210.0000000000001
 20
297.0
 30
0.0
 11
0.0
 21
297.0
 31
0.0
  0
LINE
  5
7D
330
48
100
AcDbEntity
  8
1
  6
PHANTOM
 62
     4
100
AcDbLine
 10
210.0000000000001
 20
0.00000000000001
 30
0.0
 11
210.0000000000001
 21
297.0
 31
0.0
  0
LINE
  5
7E
330
48
100
AcDbEntity
  8
1
  6
PHANTOM
 62
     4
100
AcDbLine
 10
0.0
 20
0.00000000000001
 30
0.0
 11
210.0000000000001
 21
0.00000000000001
 31
0.0
  0
LINE
  5
7F
330
48
100
AcDbEntity
  8
1
  6
Continuous
 62
     7
100
AcDbLine
 10
25.0
 20
41.00000000000003
 30
0.0
 11
200.0000000000001
 21
41.00000000000003
 31
0.0
  0
LINE
  5
80
330
48
100
AcDbEntity
  8
1
  6
Continuous
 62
     7
100
AcDbLine
 10
200.0000000000001
 20
27.00000000000001
 30
0.0
 11
25.0
 21
27.00000000000001
 31
0.0
  0
LINE
  5
81
330
48
100
AcDbEntity
  8
1
  6
Continuous
 62
     2
100
AcDbLine
 10
33.0
 20
41.00000000000003
 30
0.0
 11
33.0
 21
27.00000000000001
 31
0.0
  0
LINE
  5
82
330
48
100
AcDbEntity
  8
1
  6
Continuous
 62
     2
100
AcDbLine
 10
55.00000000000006
 20
287.0000000000003
 30
0.0
 11
55.00000000000006
 21
277.0000000000003
 31
0.0
  0
LINE
  5
83
330
48
100
AcDbEntity
  8
1
  6
Continuous
 62
     2
100
AcDbLine
 10
40.0
 20
287.0000000000003
 30
0.0
 11
40.0
 21
277.0000000000003
 31
0.0
  0
LINE
  5
84
330
48
100
AcDbEntity
  8
1
  6
Continuous
 62
     7
100
AcDbLine
 10
25.0
 20
10.00000000000001
 30
0.0
 11
25.0
 21
148.5
 31
0.0
  0
LINE
  5
85
330
48
100
AcDbEntity
  8
1
  6
Continuous
 62
     2
100
AcDbLine
 10
55.00000000000006
 20
277.0000000000003
 30
0.0
 11
25.0
 21
277.0000000000003
 31
0.0
  0
LINE
  5
86
330
48
100
AcDbEntity
  8
1
  6
Continuous
 62
     2
100
AcDbLine
 10
166.0000000000001
 20
27.00000000000001
 30
0.0
 11
166.0000000000001
 21
10.00000000000001
 31
0.0
  0
LINE
  5
87
330
48
100
AcDbEntity
  8
1
  6
Continuous
 62
     2
100
AcDbLine
 10
132.0000000000001
 20
27.00000000000001
 30
0.0
 11
132.0000000000001
 21
10.00000000000001
 31
0.0
  0
LINE
  5
88
330
48
100
AcDbEntity
  8
1
  6
Continuous
 62
     2
100
AcDbLine
 10
149.0000000000001
 20
27.00000000000001
 30
0.0
 11
149.0000000000001
 21
10.00000000000001
 31
0.0
  0
LINE
  5
89
330
48
100
AcDbEntity
  8
1
  6
Continuous
 62
     2
100
AcDbLine
 10
115.0000000000001
 20
27.00000000000001
 30
0.0
 11
115.0000000000001
 21
10.00000000000001
 31
0.0
  0
LINE
  5
8A
330
48
100
AcDbEntity
  8
1
  6
Continuous
 62
     2
100
AcDbLine
 10
98.00000000000006
 20
27.00000000000001
 30
0.0
 11
98.00000000000006
 21
10.00000000000001
 31
0.0
  0
LINE
  5
8B
330
48
100
AcDbEntity
  8
1
  6
Continuous
 62
     2
100
AcDbLine
 10
166.0000000000001
 20
20.00000000000001
 30
0.0
 11
200.0000000000001
 21
20.00000000000001
 31
0.0
  0
LINE
  5
8C
330
48
100
AcDbEntity
  8
1
  6
Continuous
 62
     2
100
AcDbLine
 10
105.0000000000001
 20
287.0000000000003
 30
0.0
 11
105.0000000000001
 21
292.0000000000003
 31
0.0
  0
LINE
  5
8D
330
48
100
AcDbEntity
  8
1
  6
Continuous
 62
     7
100
AcDbLine
 10
105.0000000000001
 20
287.0000000000003
 30
0.0
 11
25.0
 21
287.0000000000003
 31
0.0
  0
LINE
  5
8E
330
48
100
AcDbEntity
  8
1
  6
Continuous
 62
     2
100
AcDbLine
 10
25.0
 20
148.5
 30
0.0
 11
20.0
 21
148.5
 31
0.0
  0
LINE
  5
8F
330
48
100
AcDbEntity
  8
1
  6
Continuous
 62
     7
100
AcDbLine
 10
25.0
 20
148.5
 30
0.0
 11
25.0
 21
287.0000000000003
 31
0.0
  0
LINE
  5
90
330
48
100
AcDbEntity
  8
1
  6
Continuous
 62
     2
100
AcDbLine
 10
200.0000000000001
 20
148.5
 30
0.0
 11
205.0000000000001
 21
148.5
 31
0.0
  0
LINE
  5
91
330
48
100
AcDbEntity
  8
1
  6
Continuous
 62
     7
100
AcDbLine
 10
200.0000000000001
 20
148.5
 30
0.0
 11
200.0000000000001
 21
287.0000000000003
 31
0.0
  0
LINE
  5
92
330
48
100
AcDbEntity
  8
1
  6
Continuous
 62
     2
100
AcDbLine
 10
105.0000000000001
 20
10.00000000000001
 30
0.0
 11
105.0000000000001
 21
5.00000000000001
 31
0.0
  0
LINE
  5
93
330
48
100
AcDbEntity
  8
1
  6
Continuous
 62
     7
100
AcDbLine
 10
105.0000000000001
 20
10.00000000000001
 30
0.0
 11
200.0000000000001
 21
10.00000000000001
 31
0.0
  0
CIRCLE
  5
98
330
48
100
AcDbEntity
  8
1
  6
DOT_CENTER
 62
     7
100
AcDbCircle
 10
89.50000000000006
 20
18.00000000000001
 30
0.0
 40
0.0999999999999943
  0
CIRCLE
  5
99
330
48
100
AcDbEntity
  8
1
  6
DOT_CENTER
 62
     7
100
AcDbCircle
 10
89.50000000000006
 20
16.00000000000001
 30
0.0
 40
0.0999999999999943
  0
CIRCLE
  5
9A
330
48
100
AcDbEntity
  8
1
  6
Continuous
 62
     7
100
AcDbCircle
 10
187.0000000000001
 20
23.50000000000001
 30
0.0
 40
2.0
  0
CIRCLE
  5
9B
330
48
100
AcDbEntity
  8
1
  6
Continuous
 62
     7
100
AcDbCircle
 10
187.0000000000001
 20
23.50000000000001
 30
0.0
 40
1.200000000000074
  0
CIRCLE
  5
9C
330
48
100
AcDbEntity
  8
1
  6
Continuous
 62
     7
100
AcDbCircle
 10
154.5000000000001
 20
12.50000000000001
 30
0.0
 40
0.2999999999998977
  0
CIRCLE
  5
9D
330
48
100
AcDbEntity
  8
1
  6
Continuous
 62
     7
100
AcDbCircle
 10
160.5000000000001
 20
12.50000000000001
 30
0.0
 40
0.2999999999998977
  0
CIRCLE
  5
9E
330
48
100
AcDbEntity
  8
1
  6
Continuous
 62
     7
100
AcDbCircle
 10
143.5000000000001
 20
12.50000000000001
 30
0.0
 40
0.2999999999998977
  0
CIRCLE
  5
9F
330
48
100
AcDbEntity
  8
1
  6
Continuous
 62
     7
100
AcDbCircle
 10
137.5000000000001
 20
12.50000000000001
 30
0.0
 40
0.2999999999998977
  0
CIRCLE
  5
A0
330
48
100
AcDbEntity
  8
1
  6
Continuous
 62
     7
100
AcDbCircle
 10
126.5000000000001
 20
12.50000000000001
 30
0.0
 40
0.2999999999998977
  0
CIRCLE
  5
A1
330
48
100
AcDbEntity
  8
1
  6
Continuous
 62
     7
100
AcDbCircle
 10
120.5000000000001
 20
12.50000000000001
 30
0.0
 40
0.2999999999998977
  0
CIRCLE
  5
A2
330
48
100
AcDbEntity
  8
1
  6
Continuous
 62
     7
100
AcDbCircle
 10
109.5000000000001
 20
12.50000000000001
 30
0.0
 40
0.2999999999998977
  0
CIRCLE
  5
A3
330
48
100
AcDbEntity
  8
1
  6
Continuous
 62
     7
100
AcDbCircle
 10
103.5000000000001
 20
12.50000000000001
 30
0.0
 40
0.2999999999998977
  0
SPLINE
  5
A4
102
{ACAD_REACTORS
330
C2
102
}
330
48
100
AcDbEntity
  8
_U_30EC_U_30A4_U_30E4_U_30FC_1
  6
Continuous
 62
     2
100
AcDbSpline
210
0.0
220
0.0
230
1.0
 70
    11
 71
     3
 72
    99
 73
    95
 74
    93
 42
0.000000001
 43
0.0000000001
 44
0.00000001
 40
0.0
 40
0.0
 40
0.0
 40
0.0
 40
0.0796417172272362
 40
0.1621768542356203
 40
0.2486489160957695
 40
0.3404969668524003
 40
0.4381912511164426
 40
0.5434463660245286
 40
0.6518115192847056
 40
0.7530190937886305
 40
0.8492196919725195
 40
0.9419290312998441
 40
1.03424966357004
 40
1.129078600620197
 40
1.226697027573254
 40
1.32722042542171
 40
1.470572134938012
 40
1.59548986337128
 40
1.719934125348402
 40
1.850576620127493
 40
1.989059629987322
 40
2.134139054226881
 40
2.280698007207214
 40
2.424529739039457
 40
2.565929576985824
 40
2.708239260773557
 40
2.861717887443612
 40
3.045168540347324
 40
3.183798301138575
 40
3.314813961455458
 40
3.442083470447308
 40
3.569912708372882
 40
3.702177512509333
 40
3.842307559659544
 40
3.992872223245854
 40
4.156750662218355
 40
4.310981861107491
 40
4.445859909322584
 40
4.572393936131531
 40
4.701656719781897
 40
4.768279086008409
 40
4.835960697898323
 40
4.912788918729257
 40
5.006285208481429
 40
5.026909478751562
 40
5.047533749021183
 40
5.10180803147123
 40
5.162325165538527
 40
5.22691974599586
 40
5.294231806596625
 40
5.364544852554809
 40
5.438319055467918
 40
5.517877651324197
 40
5.607647714861565
 40
5.70044964254441
 40
5.788251142364134
 40
5.872714706039778
 40
5.955167292575306
 40
6.037192395190348
 40
6.120669181469043
 40
6.206848616686279
 40
6.296680855416744
 40
6.442558392872535
 40
6.568190371608186
 40
6.692904567360262
 40
6.824220446557104
 40
6.963121850329327
 40
7.107843738850995
 40
7.25343166390718
 40
7.395187468036604
 40
7.53314075323768
 40
7.670550457175167
 40
7.816236511769201
 40
7.987691657359136
 40
8.142277421969197
 40
8.293662615414895
 40
8.442962460879192
 40
8.591598316185257
 40
8.743678992361701
 40
8.903725323699057
 40
9.076307008890405
 40
9.265578604680545
 40
9.459203795360636
 40
9.617619810273396
 40
9.753609671361822
 40
9.87487330000404
 40
9.954520184977719
 40
10.02416413719239
 40
10.09769764405438
 40
10.18909955924968
 40
10.2097458642013
 40
10.23039218263372
 40
10.30057101881252
 40
10.37632012987538
 40
10.37632012987538
 40
10.37632012987538
 40
10.37632012987538
 10
170.1465954835851
 20
14.13795663215991
 30
0.0
 10
170.1632217851219
 20
14.11720608845312
 30
0.0
 10
170.1970784206578
 20
14.07495111711905
 30
0.0
 10
170.2599822541037
 20
14.02029811392076
 30
0.0
 10
170.3332500940394
 20
13.97299025121051
 30
0.0
 10
170.4175969238636
 20
13.93527231437939
 30
0.0
 10
170.513224061546
 20
13.91040619731948
 30
0.0
 10
170.6171853775346
 20
13.90309559345937
 30
0.0
 10
170.7224020220406
 20
13.91142322794056
 30
0.0
 10
170.8206626371333
 20
13.94149179651529
 30
0.0
 10
170.9058986427549
 20
13.98848822971878
 30
0.0
 10
170.9779220206103
 20
14.04952991250858
 30
0.0
 10
171.0350917709096
 20
14.12412969578585
 30
0.0
 10
171.0767868747441
 20
14.21002464660173
 30
0.0
 10
171.1026952846291
 20
14.30485850432215
 30
0.0
 10
171.1118037332655
 20
14.41854979038369
 30
0.0
 10
171.0986864796487
 20
14.54332587770782
 30
0.0
 10
171.0325330334415
 20
14.66014719171893
 30
0.0
 10
170.9369370919569
 20
14.74512539577384
 30
0.0
 10
170.8249681022369
 20
14.81416684459163
 30
0.0
 10
170.6993659583269
 20
14.87204142045894
 30
0.0
 10
170.5656691620858
 20
14.92373723284345
 30
0.0
 10
170.4313122818831
 20
14.97899092397178
 30
0.0
 10
170.3051983986878
 20
15.04939770641651
 30
0.0
 10
170.1926579987535
 20
15.13785540731249
 30
0.0
 10
170.0969963064458
 20
15.24981067868475
 30
0.0
 10
170.0334157151826
 20
15.39949910101382
 30
0.0
 10
170.0200706505016
 20
15.5593279438514
 30
0.0
 10
170.0320510987449
 20
15.71048405306845
 30
0.0
 10
170.0712298928842
 20
15.83809244591539
 30
0.0
 10
170.1354987750911
 20
15.95080874030845
 30
0.0
 10
170.223820499974
 20
16.04648609268691
 30
0.0
 10
170.3338091207628
 20
16.12354214985752
 30
0.0
 10
170.4632284401265
 20
16.18151396936284
 30
0.0
 10
170.6111838967794
 20
16.21739177588823
 30
0.0
 10
170.7682069455487
 20
16.22746719050564
 30
0.0
 10
170.917494046643
 20
16.21863637762589
 30
0.0
 10
171.0596253614171
 20
16.19074899340361
 30
0.0
 10
171.1595922609626
 20
16.13413314701138
 30
0.0
 10
171.3125074736184
 20
16.08674602105513
 30
0.0
 10
171.2455131717169
 20
16.00197553001183
 30
0.0
 10
171.2296479120268
 20
15.9343890187349
 30
0.0
 10
171.1978750531297
 20
15.86926092793194
 30
0.0
 10
171.2150202209571
 20
15.76723453256955
 30
0.0
 10
171.1666427208232
 20
15.77493211681907
 30
0.0
 10
171.1315789440766
 20
15.76806771724811
 30
0.0
 10
171.1296697985717
 20
15.83263831158197
 30
0.0
 10
171.0985692931989
 20
15.878256396214
 30
0.0
 10
171.0664551628455
 20
15.93561036628451
 30
0.0
 10
171.0208038475169
 20
15.98540462692565
 30
0.0
 10
170.9658508218387
 20
16.02994813719
 30
0.0
 10
170.9010841173008
 20
16.06763988836547
 30
0.0
 10
170.8232377310597
 20
16.09283375791354
 30
0.0
 10
170.7355160553353
 20
16.0993123099811
 30
0.0
 10
170.6452903277806
 20
16.09235709285609
 30
0.0
 10
170.5594594694064
 20
16.06909190460927
 30
0.0
 10
170.4828343638596
 20
16.03131644107546
 30
0.0
 10
170.4165265636201
 20
15.98051641089576
 30
0.0
 10
170.3622560536965
 20
15.91731143407211
 30
0.0
 10
170.3224925345459
 20
15.8427645571037
 30
0.0
 10
170.2976775510588
 20
15.75917313997766
 30
0.0
 10
170.2892124262871
 20
15.65192948382288
 30
0.0
 10
170.3019697987104
 20
15.52965457267561
 30
0.0
 10
170.3681548409272
 20
15.41149724291216
 30
0.0
 10
170.4640977399833
 20
15.3260632570953
 30
0.0
 10
170.5757914963182
 20
15.25583362306733
 30
0.0
 10
170.7010863668703
 20
15.19659162305311
 30
0.0
 10
170.8349823941447
 20
15.14616708086126
 30
0.0
 10
170.9689930333149
 20
15.09322516984387
 30
0.0
 10
171.0950885316915
 20
15.02750170625175
 30
0.0
 10
171.2076216638418
 20
14.94480352537326
 30
0.0
 10
171.3031370284232
 20
14.83996006310072
 30
0.0
 10
171.3672706486963
 20
14.69937117251573
 30
0.0
 10
171.3811103725279
 20
14.54065409451593
 30
0.0
 10
171.3673954712229
 20
14.38153155217879
 30
0.0
 10
171.3244739153985
 20
14.23483828819212
 30
0.0
 10
171.2545906329067
 20
14.10119796587142
 30
0.0
 10
171.1574592213829
 20
13.985323876993
 30
0.0
 10
171.0347806023658
 20
13.89089981770088
 30
0.0
 10
170.8874408413168
 20
13.82179270651984
 30
0.0
 10
170.7177132497125
 20
13.77953210858855
 30
0.0
 10
170.5317404979598
 20
13.76781736230408
 30
0.0
 10
170.3528955926184
 20
13.77809486683439
 30
0.0
 10
170.1881733753744
 20
13.8196657376916
 30
0.0
 10
170.0834410841056
 20
13.88797642883939
 30
0.0
 10
169.9350960790366
 20
13.9367521903211
 30
0.0
 10
169.9980378194729
 20
14.02976591290845
 30
0.0
 10
170.0072274430061
 20
14.10296536248278
 30
0.0
 10
170.0303711301231
 20
14.16936294501348
 30
0.0
 10
170.0034588335317
 20
14.26974809527582
 30
0.0
 10
170.052133895634
 20
14.26234033517381
 30
0.0
 10
170.0916530580698
 20
14.26894063620896
 30
0.0
 10
170.0996204944701
 20
14.19078703218931
 30
0.0
 10
170.1305436967922
 20
14.15600927375855
 30
0.0
 10
170.1465954835851
 20
14.13795663215991
 30
0.0
 11
170.1465954835851
 21
14.13795663215991
 31
0.0
 11
170.1982038075864
 21
14.07729869814739
 31
0.0
 11
170.2601105501336
 21
14.02271295163322
 31
0.0
 11
170.3327764009803
 21
13.97583980928384
 31
0.0
 11
170.4166468655843
 21
13.93839906276541
 31
0.0
 11
170.511221073241
 21
13.91390636311876
 31
0.0
 11
170.6161603327166
 21
13.90575829888472
 31
0.0
 11
170.7240739497552
 21
13.91564048638224
 31
0.0
 11
170.8208419941616
 21
13.94528704887482
 31
0.0
 11
170.9050776083319
 21
13.99175118948821
 31
0.0
 11
170.9756144207687
 21
14.05191413218152
 31
0.0
 11
171.031944210998
 21
14.1250581946632
 31
0.0
 11
171.0736690016004
 21
14.21021434047522
 31
0.0
 11
171.0994680808032
 21
14.30436190989616
 31
0.0
 11
171.1080824729447
 21
14.40451552098222
 31
0.0
 11
171.0878517703357
 21
14.54643250879398
 31
0.0
 11
171.0272522666731
 21
14.65566684036392
 31
0.0
 11
170.9364971286286
 21
14.740813064301
 31
0.0
 11
170.826010188474
 21
14.81052746532522
 31
0.0
 11
170.7008523531255
 21
14.86979854169926
 31
0.0
 11
170.5662951950999
 21
14.92404253474122
 31
0.0
 11
170.4316884277007
 21
14.98201274306004
 31
0.0
 11
170.3065802017259
 21
15.05297399304232
 31
0.0
 11
170.1960276098281
 21
15.14113315968694
 31
0.0
 11
170.1053381235266
 21
15.25080295132622
 31
0.0
 11
170.0447055469485
 21
15.39179720476313
 31
0.0
 11
170.0245079172554
 21
15.57413260402312
 31
0.0
 11
170.0374030471348
 21
15.71216131926641
 31
0.0
 11
170.0761016659392
 21
15.83733128451291
 31
0.0
 11
170.1393141731507
 21
15.94779262129087
 31
0.0
 11
170.2257499954545
 21
16.04196885390621
 31
0.0
 11
170.3336492808963
 21
16.11846540770652
 31
0.0
 11
170.4613526283329
 21
16.17615670109493
 31
0.0
 11
170.6075393259923
 21
16.21220066809974
 31
0.0
 11
170.7709768565451
 21
16.22421385386062
 31
0.0
 11
170.924891843129
 21
16.21434269066865
 31
0.0
 11
171.0564887242608
 21
16.18477329831502
 31
0.0
 11
171.172563634494
 21
16.13439993895255
 31
0.0
 11
171.2800792741122
 21
16.06264163167882
 31
0.0
 11
171.2516994050445
 21
16.00236624106886
 31
0.0
 11
171.2284855254283
 21
15.93879017337652
 31
0.0
 11
171.2078381040801
 21
15.86478841992272
 31
0.0
 11
171.1871840681488
 21
15.77360197897332
 31
0.0
 11
171.1665597978416
 21
15.77360197897332
 31
0.0
 11
171.1459355275343
 21
15.77360197897332
 31
0.0
 11
171.1256706495791
 21
15.82395108486348
 31
0.0
 11
171.0994658759421
 21
15.87850045116932
 31
0.0
 11
171.0650468924451
 21
15.93316116296117
 31
0.0
 11
171.0203554612938
 21
15.98349593725412
 31
0.0
 11
170.9657333359511
 21
16.02777175321532
 31
0.0
 11
170.9016722004326
 21
16.06436142334502
 31
0.0
 11
170.8259682961141
 21
16.08882545979727
 31
0.0
 11
170.7365722046449
 21
16.09701100667022
 31
0.0
 11
170.6440937174207
 21
16.08926973931104
 31
0.0
 11
170.5594072091645
 21
16.06609003445571
 31
0.0
 11
170.483702448884
 21
16.0286349563401
 31
0.0
 11
170.4183754766516
 21
15.97832774281102
 31
0.0
 11
170.3650487887665
 21
15.91600293379881
 31
0.0
 11
170.3254809233902
 21
15.84249947895611
 31
0.0
 11
170.3009523754712
 21
15.75988443557396
 31
0.0
 11
170.2927954104109
 21
15.67042329844352
 31
0.0
 11
170.3130095765618
 21
15.52595308146576
 31
0.0
 11
170.373625616682
 21
15.41591177072942
 31
0.0
 11
170.4643479320758
 21
15.33033670130637
 31
0.0
 11
170.5748676948814
 21
15.25941954854632
 31
0.0
 11
170.700008993772
 21
15.19914305550583
 31
0.0
 11
170.8345826882552
 21
15.14590447913022
 31
0.0
 11
170.9691729191968
 21
15.09039489581076
 31
0.0
 11
171.0942976816297
 21
15.02377281249412
 31
0.0
 11
171.2048009079771
 21
14.94118863716752
 31
0.0
 11
171.2955397598288
 21
14.83800003476272
 31
0.0
 11
171.3561557999489
 21
14.70552315979585
 31
0.0
 11
171.3763699660998
 21
14.53526378483842
 31
0.0
 11
171.3621839747998
 21
14.38133030397412
 31
0.0
 11
171.3196087009194
 21
14.23605531269102
 31
0.0
 11
171.2499752884266
 21
14.1039885418907
 31
0.0
 11
171.1544992078713
 21
13.99007218775252
 31
0.0
 11
171.0341060772624
 21
13.8971527259702
 31
0.0
 11
170.8896160201847
 21
13.82832357668183
 31
0.0
 11
170.7223519532714
 21
13.7858127520397
 31
0.0
 11
170.5336103348226
 21
13.77165864614042
 31
0.0
 11
170.3405031726388
 21
13.7858127520397
 31
0.0
 11
170.1878975900912
 21
13.82832357668183
 31
0.0
 11
170.0661897942203
 21
13.8889903301389
 31
0.0
 11
169.9660261826363
 21
13.95734322942742
 31
0.0
 11
169.9922320587039
 21
14.03255545163079
 31
0.0
 11
170.0090121537619
 21
14.10014767383612
 31
0.0
 11
170.0206196447852
 21
14.17275926235962
 31
0.0
 11
170.031360625414
 21
14.26352788212861
 31
0.0
 11
170.0520069443317
 21
14.26352788212861
 31
0.0
 11
170.0726532632493
 21
14.26352788212861
 31
0.0
 11
170.1048916391629
 21
14.20119204881088
 31
0.0
 11
170.1465954835851
 21
14.13795663215991
 31
0.0
  0
SPLINE
  5
A5
102
{ACAD_REACTORS
330
C3
102
}
330
48
100
AcDbEntity
  8
_U_30EC_U_30A4_U_30E4_U_30FC_1
  6
Continuous
 62
     2
100
AcDbSpline
210
0.0
220
0.0
230
1.0
 70
    11
 71
     3
 72
    57
 73
    53
 74
    51
 42
0.000000001
 43
0.0000000001
 44
0.00000001
 40
0.0
 40
0.0
 40
0.0
 40
0.0
 40
0.0471632082810019
 40
0.0914861054632944
 40
0.1357762519702612
 40
0.1826527001611475
 40
0.2295203288573384
 40
0.2737751972222406
 40
0.3181310461543585
 40
0.3652607198398402
 40
0.4571007286314347
 40
0.567185102916517
 40
0.6894623283868173
 40
0.8181758272545632
 40
0.9510087229273614
 40
1.085852229674051
 40
1.218126164475253
 40
1.34354513114236
 40
1.454537202956804
 40
1.56718760753087
 40
1.680710966642403
 40
1.794226869736853
 40
1.900009184247595
 40
2.004085860448046
 40
2.108162674451848
 40
2.214000150155278
 40
2.496038577352163
 40
2.762350745479305
 40
2.997275353279421
 40
3.185110082137695
 40
3.246407890063974
 40
3.312607550212762
 40
3.378877742711636
 40
3.440140399651401
 40
4.10050169600637
 40
4.75491308556344
 40
5.411331693423819
 40
6.077890432568617
 40
6.110575292670896
 40
6.143260152775676
 40
6.367989363395018
 40
6.610525374951417
 40
6.863389136467211
 40
7.11938002554754
 40
7.376036605090942
 40
7.631164770966143
 40
7.876722425456292
 40
8.104953735855768
 40
8.312916685924192
 40
8.497730294941162
 40
8.651018984313705
 40
8.764738853624447
 40
8.764738853624447
 40
8.764738853624447
 40
8.764738853624447
 10
174.7922649500514
 20
13.81626739612932
 30
0.0
 10
174.7766616726932
 20
13.8182623107908
 30
0.0
 10
174.7463947960302
 20
13.82213201360296
 30
0.0
 10
174.7010994202252
 20
13.8234198496727
 30
0.0
 10
174.6559553129349
 20
13.82308683554051
 30
0.0
 10
174.60990171234
 20
13.82314658674225
 30
0.0
 10
174.5640496172096
 20
13.82325813650001
 30
0.0
 10
174.5183711648164
 20
13.82277833456592
 30
0.0
 10
174.4750811541608
 20
13.82461109618717
 30
0.0
 10
174.4039947951514
 20
13.80049556814667
 30
0.0
 10
174.4057477261441
 20
13.92184693977253
 30
0.0
 10
174.358619637057
 20
14.00726239751236
 30
0.0
 10
174.3191478251762
 20
14.12486929345136
 30
0.0
 10
174.2706635532646
 20
14.24232752540443
 30
0.0
 10
174.2201017402522
 20
14.3640593576151
 30
0.0
 10
174.1718634610478
 20
14.49075967862471
 30
0.0
 10
174.1135232947595
 20
14.59933687784952
 30
0.0
 10
174.0980892667262
 20
14.75620657134417
 30
0.0
 10
173.9566586330636
 20
14.72373446548321
 30
0.0
 10
173.8508397414903
 20
14.73512888682181
 30
0.0
 10
173.7358569725223
 20
14.73392591514615
 30
0.0
 10
173.6253142252141
 20
14.73506945347408
 30
0.0
 10
173.5176583522782
 20
14.73418350037526
 30
0.0
 10
173.4121322529242
 20
14.7341660239052
 30
0.0
 10
173.3109192682013
 20
14.72714032472415
 30
0.0
 10
173.1266804827753
 20
14.75135859859871
 30
0.0
 10
173.1157393685411
 20
14.44741691121887
 30
0.0
 10
173.008769163475
 20
14.22353177253401
 30
0.0
 10
172.9098148604347
 20
14.03895314292495
 30
0.0
 10
172.9225090524008
 20
13.79530204804217
 30
0.0
 10
172.8050091716398
 20
13.82508046753194
 30
0.0
 10
172.7422055868309
 20
13.82258089509606
 30
0.0
 10
172.67858720934
 20
13.82344075102802
 30
0.0
 10
172.3946014194074
 20
13.78098039941975
 30
0.0
 10
173.0251638499383
 20
14.50081952444781
 30
0.0
 10
173.108764528907
 20
15.01276539435737
 30
0.0
 10
173.4929252789341
 20
15.53353743550046
 30
0.0
 10
173.4777208288563
 20
16.2351962625321
 30
0.0
 10
173.7239265722698
 20
16.22345633081257
 30
0.0
 10
173.8256346157563
 20
16.23225004452772
 30
0.0
 10
173.8249752035817
 20
15.98059650730346
 30
0.0
 10
173.9428317155829
 20
15.79818020733962
 30
0.0
 10
174.0315515260486
 20
15.55563740662866
 30
0.0
 10
174.132229248526
 20
15.32340030530129
 30
0.0
 10
174.2311142712244
 20
15.08674644566916
 30
0.0
 10
174.3299676990668
 20
14.85461739170092
 30
0.0
 10
174.4256166390927
 20
14.63122222788796
 30
0.0
 10
174.515990457327
 20
14.42272549049311
 30
0.0
 10
174.598994456819
 20
14.23308448529324
 30
0.0
 10
174.6726088582799
 20
14.06663106068104
 30
0.0
 10
174.7342815895546
 20
13.92917699626102
 30
0.0
 10
174.7749458885605
 20
13.84999239430039
 30
0.0
 10
174.7922649500514
 20
13.81626739612932
 30
0.0
 11
174.7922649500514
 21
13.81626739612932
 31
0.0
 11
174.7453878317448
 21
13.82145433189184
 31
0.0
 11
174.7010975896125
 21
13.82315538223863
 31
0.0
 11
174.656807443173
 21
13.82315538223863
 31
0.0
 11
174.6099309947159
 21
13.82315538223863
 31
0.0
 11
174.5630633657033
 21
13.82315538223863
 31
0.0
 11
174.5188084970407
 21
13.82315538223863
 31
0.0
 11
174.4744852776854
 21
13.82145433189185
 31
0.0
 11
174.4276419021444
 21
13.81626739612932
 31
0.0
 11
174.3992532136325
 21
13.90360966173247
 31
0.0
 11
174.3622721815898
 21
14.00729656274822
 31
0.0
 11
174.3188386236701
 21
14.12159987001129
 31
0.0
 11
174.2711055866937
 21
14.24113531268972
 31
0.0
 11
174.2208160133237
 21
14.36408057307566
 31
0.0
 11
174.1696467003933
 21
14.48883822929452
 31
0.0
 11
174.1197531801326
 21
14.61134141502771
 31
0.0
 11
174.0733119111842
 21
14.72784517367921
 31
0.0
 11
173.9623611907589
 21
14.73087465284506
 31
0.0
 11
173.8497309225089
 21
14.73300454867791
 31
0.0
 11
173.736215206945
 21
14.7343219531914
 31
0.0
 11
173.62270004768
 21
14.73473315978852
 31
0.0
 11
173.5169185312816
 21
14.7343219531914
 31
0.0
 11
173.4128501919224
 21
14.73300454867791
 31
0.0
 11
173.3087951724045
 21
14.73087465284506
 31
0.0
 11
173.2030010615597
 21
14.72784517367921
 31
0.0
 11
173.0980914750139
 21
14.46604437513353
 31
0.0
 11
173.0034868690331
 21
14.21710232658462
 31
0.0
 11
172.9252231210299
 21
13.99559756969558
 31
0.0
 11
172.8693431224556
 21
13.81626739612932
 31
0.0
 11
172.8082651639442
 21
13.82145433189184
 31
0.0
 11
172.742087361813
 21
13.82315538223863
 31
0.0
 11
172.6758390041282
 21
13.82145433189185
 31
0.0
 11
172.6147963233939
 21
13.81626739612932
 31
0.0
 11
172.8899684951931
 21
14.41656508695144
 31
0.0
 11
173.158294573417
 21
15.01343642360781
 31
0.0
 11
173.4240277350405
 21
15.61366245644382
 31
0.0
 11
173.6914740737034
 21
16.22421385386062
 31
0.0
 11
173.7241589339807
 21
16.22421385386062
 31
0.0
 11
173.756843794258
 21
16.22421385386062
 31
0.0
 11
173.8428300681058
 21
16.01658539037087
 31
0.0
 11
173.935728581361
 21
15.79254614563521
 31
0.0
 11
174.0328714521464
 21
15.55908663180469
 31
0.0
 11
174.1317936458032
 21
15.32298128464142
 31
0.0
 11
174.2315341249927
 21
15.08649780379788
 31
0.0
 11
174.3313071129353
 21
14.85168781253712
 31
0.0
 11
174.4280608257449
 21
14.62599492196852
 31
0.0
 11
174.5188084970407
 21
14.41658052097922
 31
0.0
 11
174.6022150834546
 21
14.2260761113046
 31
0.0
 11
174.6770293263378
 21
14.05708232662472
 31
0.0
 11
174.7410729186604
 21
13.91781337700673
 31
0.0
 11
174.7922649500514
 21
13.81626739612932
 31
0.0
  0
SPLINE
  5
A6
102
{ACAD_REACTORS
330
C3
102
}
330
48
100
AcDbEntity
  8
_U_30EC_U_30A4_U_30E4_U_30FC_1
  6
Continuous
 62
     2
100
AcDbSpline
210
0.0
220
0.0
230
1.0
 70
    11
 71
     3
 72
    25
 73
    21
 74
    19
 42
0.000000001
 43
0.0000000001
 44
0.00000001
 40
0.0
 40
0.0
 40
0.0
 40
0.0
 40
0.0911479969064535
 40
0.1858117896204948
 40
0.2804128399734203
 40
0.3715889190713655
 40
0.4679080494218137
 40
0.5642683809228374
 40
0.6605683222644135
 40
0.7569653015809397
 40
0.856134817252193
 40
1.092615965104216
 40
1.374867658141822
 40
1.611348812011527
 40
1.710518328425193
 40
1.809403163726505
 40
2.045205463294046
 40
2.326646917622116
 40
2.562449217190604
 40
2.661334043833919
 40
2.661334043833919
 40
2.661334043833919
 40
2.661334043833919
 10
173.26837005672
 20
14.88614538197292
 30
0.0
 10
173.2987525917924
 20
14.88598079714556
 30
0.0
 10
173.3606895889112
 20
14.88564528689924
 30
0.0
 10
173.4541356960331
 20
14.88269055452002
 30
0.0
 10
173.5475095236357
 20
14.87977752877154
 30
0.0
 10
173.6417760753477
 20
14.87894201643418
 30
0.0
 10
173.7354964790967
 20
14.87996644658049
 30
0.0
 10
173.8352040303205
 20
14.87916977470972
 30
0.0
 10
173.9188949546312
 20
14.88921410235221
 30
0.0
 10
174.0637996315045
 20
14.86234617674165
 30
0.0
 10
173.93961324448
 20
15.03665530280049
 30
0.0
 10
173.8965867286283
 20
15.19651711006095
 30
0.0
 10
173.780892214221
 20
15.45518458550217
 30
0.0
 10
173.7017565431257
 20
15.59231052861866
 30
0.0
 10
173.6431576621817
 20
15.80937033134084
 30
0.0
 10
173.5864803939439
 20
15.59266134213432
 30
0.0
 10
173.5052809900478
 20
15.45327012438243
 30
0.0
 10
173.4063701281488
 20
15.20406969370195
 30
0.0
 10
173.325362509426
 20
15.01925830226076
 30
0.0
 10
173.2813683325838
 20
14.91650446856117
 30
0.0
 10
173.26837005672
 20
14.88614538197292
 30
0.0
 11
173.26837005672
 21
14.88614538197292
 31
0.0
 11
173.3595137737821
 21
14.88526123266762
 31
0.0
 11
173.4541428297582
 21
14.88269697919601
 31
0.0
 11
173.5487082179706
 21
14.8800996528078
 31
0.0
 11
173.6398803250196
 21
14.87924857641912
 31
0.0
 11
173.7361985777706
 21
14.87965978301623
 31
0.0
 11
173.8325499034376
 21
14.88097718752972
 31
0.0
 11
173.9288262638286
 21
14.88310818579314
 31
0.0
 11
174.0251753846343
 21
14.88614538197292
 31
0.0
 11
173.9854633323141
 21
14.97701642195021
 31
0.0
 11
173.8907653613968
 21
15.19370890189604
 31
0.0
 11
173.7777387509471
 21
15.4523418618314
 31
0.0
 11
173.6830407800298
 21
15.66903434177723
 31
0.0
 11
173.6433287277096
 21
15.75990538175452
 31
0.0
 11
173.6043330259267
 21
15.66903434177723
 31
0.0
 11
173.5113432755213
 21
15.4523418618314
 31
0.0
 11
173.4003555089083
 21
15.19370890189604
 31
0.0
 11
173.3073657585029
 21
14.97701642195021
 31
0.0
 11
173.26837005672
 21
14.88614538197292
 31
0.0
  0
SPLINE
  5
A7
102
{ACAD_REACTORS
330
C4
102
}
330
48
100
AcDbEntity
  8
_U_30EC_U_30A4_U_30E4_U_30FC_1
  6
Continuous
 62
     2
100
AcDbSpline
210
0.0
220
0.0
230
1.0
 70
    11
 71
     3
 72
    95
 73
    91
 74
    89
 42
0.000000001
 43
0.0000000001
 44
0.00000001
 40
0.0
 40
0.0
 40
0.0
 40
0.0
 40
0.6550406656911456
 40
1.308087289031968
 40
1.420803739835847
 40
1.566130759770836
 40
1.75706734188849
 40
2.006513545026468
 40
2.08732826312156
 40
2.185328872295678
 40
2.294612454748426
 40
2.408936380534852
 40
2.526802767798598
 40
2.646360524615635
 40
2.762535723971619
 40
2.870057342870189
 40
2.966883448431669
 40
3.050803243518354
 40
3.115818222436646
 40
3.156030057150252
 40
3.213914225080149
 40
3.276689026450465
 40
3.342960320981271
 40
3.404230667150572
 40
3.453822809493365
 40
3.532499827188456
 40
3.634775188507152
 40
3.754909333008131
 40
3.889736761660663
 40
4.03576960217526
 40
4.187256681197621
 40
4.338733685675892
 40
4.488478734676091
 40
4.634708317831555
 40
4.771493189921228
 40
4.892686571561189
 40
5.199775528944413
 40
5.460353566929576
 40
5.667603142345488
 40
5.814722905404457
 40
5.828990806219783
 40
5.855488336304395
 40
5.869756237118699
 40
6.189796507762748
 40
6.531890469872956
 40
6.88305363701688
 40
7.230512024911411
 40
7.566966656764517
 40
7.88520355970733
 40
8.172887439719103
 40
8.418011594062627
 40
8.44392672119055
 40
8.510760470613038
 40
8.60214539379555
 40
8.701714041646992
 40
8.793098965075226
 40
8.859932715057798
 40
8.885847842603448
 40
9.242301256612643
 40
9.589275455016557
 40
9.921808543164007
 40
10.23479624298453
 40
10.29968150889177
 40
10.35323493887751
 40
10.40154625355147
 40
10.4648292247782
 40
10.559739006684
 40
10.69239545985618
 40
10.84920353475669
 40
11.01626328594776
 40
11.18672024367437
 40
11.35372582577208
 40
11.5025744229242
 40
11.61866495023289
 40
11.7132986915287
 40
11.825110505739
 40
11.94464880845712
 40
12.06929242642502
 40
12.19707290435175
 40
12.32562632860524
 40
12.45034565331274
 40
12.56646595170323
 40
12.67099007414632
 40
12.76077625936781
 40
12.82703233506694
 40
12.8742913278599
 40
12.89831990323326
 40
12.92234847860009
 40
13.53984767410314
 40
14.18294284359357
 40
14.18294284359357
 40
14.18294284359357
 40
14.18294284359357
 10
177.3067935648021
 20
14.70898038201722
 30
0.0
 10
177.175201975855
 20
14.8226505860323
 30
0.0
 10
176.912419380273
 20
15.04964496316159
 30
0.0
 10
176.3997393441017
 20
15.8921446295629
 30
0.0
 10
176.4106654595364
 20
15.53423377577022
 30
0.0
 10
176.4041226527992
 20
15.39267392272134
 30
0.0
 10
176.4028026631773
 20
15.19421305299285
 30
0.0
 10
176.4018117602537
 20
15.02150296045987
 30
0.0
 10
176.4024101751975
 20
14.87865373257583
 30
0.0
 10
176.4038994301882
 20
14.7826500541336
 30
0.0
 10
176.4055683588473
 20
14.67545503263142
 30
0.0
 10
176.4071934954619
 20
14.56164211517583
 30
0.0
 10
176.4092429501687
 20
14.44441572604591
 30
0.0
 10
176.4123165501926
 20
14.32656411232972
 30
0.0
 10
176.4156339697043
 20
14.21228087320623
 30
0.0
 10
176.4193605340281
 20
14.10521401867279
 30
0.0
 10
176.4217338161423
 20
14.01007408766923
 30
0.0
 10
176.4278718888358
 20
13.92558557205697
 30
0.0
 10
176.4239784495946
 20
13.86923087298142
 30
0.0
 10
176.4455230443077
 20
13.79825022472362
 30
0.0
 10
176.3680940058618
 20
13.82902677604478
 30
0.0
 10
176.3116353240191
 20
13.82011242517617
 30
0.0
 10
176.2540495896807
 20
13.82896218398272
 30
0.0
 10
176.1690163478472
 20
13.7973822522595
 30
0.0
 10
176.2009714146382
 20
13.88095155992194
 30
0.0
 10
176.1990705282541
 20
13.94882608968313
 30
0.0
 10
176.2107960047299
 20
14.05233256764421
 30
0.0
 10
176.2164241053001
 20
14.17002125616696
 30
0.0
 10
176.223790217894
 20
14.30388609164427
 30
0.0
 10
176.2320759701611
 20
14.44764152872637
 30
0.0
 10
176.2398851897426
 20
14.59714022843447
 30
0.0
 10
176.2457571222658
 20
14.74792549402079
 30
0.0
 10
176.2503667817968
 20
14.89699943878437
 30
0.0
 10
176.2542632117544
 20
15.04122913163021
 30
0.0
 10
176.2570715126565
 20
15.17583905213017
 30
0.0
 10
176.2576698755023
 20
15.36469614347354
 30
0.0
 10
176.2616023867151
 20
15.58975494313153
 30
0.0
 10
176.2442175378498
 20
15.86367091125706
 30
0.0
 10
176.2850417342583
 20
16.02787112098596
 30
0.0
 10
176.1995153256002
 20
16.22749661465095
 30
0.0
 10
176.2660558907689
 20
16.22385458403978
 30
0.0
 10
176.283872427323
 20
16.22413447160854
 30
0.0
 10
176.4056801797504
 20
16.22632927398614
 30
0.0
 10
176.5080770335462
 20
15.94675118721512
 30
0.0
 10
176.7580021509357
 20
15.74563008536005
 30
0.0
 10
176.987003533111
 20
15.4779261498791
 30
0.0
 10
177.224515121311
 20
15.22646413862383
 30
0.0
 10
177.4486090740772
 20
14.9896997406136
 30
0.0
 10
177.6750716283011
 20
14.73218692583086
 30
0.0
 10
177.8325687886514
 20
14.61649335056924
 30
0.0
 10
178.0472129612675
 20
14.27997152538798
 30
0.0
 10
178.0422645974618
 20
14.40464754091605
 30
0.0
 10
178.0433931602546
 20
14.46327691935739
 30
0.0
 10
178.0428877841516
 20
14.55043662371979
 30
0.0
 10
178.0430475158113
 20
14.64416143182875
 30
0.0
 10
178.0430054891318
 20
14.73018971297038
 30
0.0
 10
178.0430202040372
 20
14.79153891945498
 30
0.0
 10
178.0429706255984
 20
14.94135231520996
 30
0.0
 10
178.0458811522811
 20
15.17989612510105
 30
0.0
 10
178.0259521041161
 20
15.54486509868699
 30
0.0
 10
178.0750433936249
 20
15.80799631993417
 30
0.0
 10
177.9177951509179
 20
16.21928904947752
 30
0.0
 10
178.0762112872421
 20
16.16398282551754
 30
0.0
 10
178.1311680478628
 20
16.1619968650018
 30
0.0
 10
178.1827887766739
 20
16.16264778248254
 30
0.0
 10
178.2713198965366
 20
16.20369527738247
 30
0.0
 10
178.2204898303168
 20
16.05696326622986
 30
0.0
 10
178.2313389930283
 20
15.95019971954434
 30
0.0
 10
178.2166036994848
 20
15.79085705414112
 30
0.0
 10
178.2099976446205
 20
15.62853061652876
 30
0.0
 10
178.2014961399917
 20
15.45992521892397
 30
0.0
 10
178.1943227202198
 20
15.29814814703544
 30
0.0
 10
178.1889063215389
 20
15.15422331457934
 30
0.0
 10
178.1871713967649
 20
15.03437493466927
 30
0.0
 10
178.187544067232
 20
14.92686101590518
 30
0.0
 10
178.1873656126263
 20
14.81820024645589
 30
0.0
 10
178.1877010863141
 20
14.69953570165533
 30
0.0
 10
178.1890040622182
 20
14.57555163512742
 30
0.0
 10
178.1908887351576
 20
14.44858294171106
 30
0.0
 10
178.1925004454848
 20
14.32153861551033
 30
0.0
 10
178.1941403137431
 20
14.19854884492181
 30
0.0
 10
178.1962570745751
 20
14.08300931383761
 30
0.0
 10
178.1963848422364
 20
13.98090903955838
 30
0.0
 10
178.2006514396554
 20
13.89009848838156
 30
0.0
 10
178.1908440085289
 20
13.83213621208786
 30
0.0
 10
178.2118474771689
 20
13.7651713013203
 30
0.0
 10
178.1725639739897
 20
13.77291153966688
 30
0.0
 10
177.9595307117748
 20
13.75755254145196
 30
0.0
 10
177.7636297943186
 20
14.3140305809447
 30
0.0
 10
177.4611197631544
 20
14.57556035348509
 30
0.0
 10
177.3067935648021
 20
14.70898038201722
 30
0.0
 11
177.3067935648021
 21
14.70898038201722
 31
0.0
 11
176.8595529338511
 21
15.18757635411976
 31
0.0
 11
176.4124049070643
 21
15.66352649288972
 31
0.0
 11
176.4089664262494
 21
15.55086249986233
 31
0.0
 11
176.4055610183501
 21
15.40557538184312
 31
0.0
 11
176.4029636920275
 21
15.21465645827971
 31
0.0
 11
176.4021126156603
 21
14.96521170139762
 31
0.0
 11
176.402523923029
 21
14.88439802954285
 31
0.0
 11
176.4038420329817
 21
14.78640628477562
 31
0.0
 11
176.4055192267718
 21
14.67713557299739
 31
0.0
 11
176.4072367127519
 21
14.56282454872041
 31
0.0
 11
176.4094007838773
 21
14.44497802965268
 31
0.0
 11
176.4124049070643
 21
14.32545802100202
 31
0.0
 11
176.4158359733139
 21
14.20933349846158
 31
0.0
 11
176.4192928929999
 21
14.10186746550232
 31
0.0
 11
176.4227085253088
 21
14.00510162351268
 31
0.0
 11
176.4261896983793
 21
13.92125406276972
 31
0.0
 11
176.4296006184313
 21
13.85632862007762
 31
0.0
 11
176.4330776843148
 21
13.81626739612932
 31
0.0
 11
176.3754263821571
 21
13.82145433189184
 31
0.0
 11
176.312674631831
 21
13.82315538223863
 31
0.0
 11
176.2464251717157
 21
13.82145433189185
 31
0.0
 11
176.1853747739675
 21
13.81626739612932
 31
0.0
 11
176.1926772737812
 21
13.86531894125593
 31
0.0
 11
176.2008793569055
 21
13.94356725720861
 31
0.0
 11
176.2090098822349
 21
14.04551893253031
 31
0.0
 11
176.2163406441398
 21
14.16542920159752
 31
0.0
 11
176.2236358280421
 21
14.30005912343893
 31
0.0
 11
176.2318444255596
 21
14.44586107652752
 31
0.0
 11
176.2395504149466
 21
14.59715203135077
 31
0.0
 11
176.2455763002093
 21
14.74850913200731
 31
0.0
 11
176.2503046247416
 21
14.89817951391436
 31
0.0
 11
176.2541928972121
 21
15.04435739582222
 31
0.0
 11
176.2567527408966
 21
15.18111831592695
 31
0.0
 11
176.2576324804575
 21
15.30230850686891
 31
0.0
 11
176.257192610677
 21
15.60939715262544
 31
0.0
 11
176.2559126888347
 21
15.86997204839362
 31
0.0
 11
176.2528658717893
 21
16.07719922716126
 31
0.0
 11
176.2473049112764
 21
16.22421385386062
 31
0.0
 11
176.261572812147
 21
16.22421385386062
 31
0.0
 11
176.2880703423352
 21
16.22421385386062
 31
0.0
 11
176.3023382432058
 21
16.22421385386062
 31
0.0
 11
176.5194743650277
 21
15.98910179662772
 31
0.0
 11
176.751274412308
 21
15.73751281231561
 31
0.0
 11
176.9894816018839
 21
15.47949555543571
 31
0.0
 11
177.2260074557522
 21
15.22497079855492
 31
0.0
 11
177.4555698717706
 21
14.97899759549141
 31
0.0
 11
177.6731797360104
 21
14.74678934034112
 31
0.0
 11
177.8713724913707
 21
14.53826680567103
 31
0.0
 11
178.0430143099086
 21
14.36326697932591
 31
0.0
 11
178.0430143099086
 21
14.38918210687045
 31
0.0
 11
178.0430143099086
 21
14.45601585685374
 31
0.0
 11
178.0430143099086
 21
14.54740078030027
 31
0.0
 11
178.0430143099086
 21
14.64696942823456
 31
0.0
 11
178.0430143099086
 21
14.73835435168109
 31
0.0
 11
178.0430143099086
 21
14.80518810166438
 31
0.0
 11
178.0430143099086
 21
14.83110322920892
 31
0.0
 11
178.0417233637609
 21
15.18755430550868
 31
0.0
 11
178.0378461155958
 21
15.53450684014412
 31
0.0
 11
178.0296197790003
 21
15.86693815950553
 31
0.0
 11
178.0154535467227
 21
16.17960510387182
 31
0.0
 11
178.0790351249619
 21
16.16666367158338
 31
0.0
 11
178.132417015961
 21
16.16238072887612
 31
0.0
 11
178.1805381084833
 21
16.16666367158338
 31
0.0
 11
178.2424836798197
 21
16.17960510387182
 31
0.0
 11
178.2351216487575
 21
16.08498128445104
 31
0.0
 11
178.2269790968818
 21
15.95257496503962
 31
0.0
 11
178.2183705364005
 21
15.79600336785657
 31
0.0
 11
178.2097547223216
 21
15.62916593734272
 31
0.0
 11
178.201618785029
 21
15.45890325509364
 31
0.0
 11
178.1942501393835
 21
15.29206031242701
 31
0.0
 11
178.1891406931522
 21
15.14329943572814
 31
0.0
 11
178.1874503478905
 21
15.02722121527101
 31
0.0
 11
178.1874503478905
 21
14.93258747397522
 31
0.0
 11
178.1874503478905
 21
14.82077565976712
 31
0.0
 11
178.1878461204497
 21
14.7012380122275
 31
0.0
 11
178.1890819450707
 21
14.57660052093922
 31
0.0
 11
178.1908392193317
 21
14.44883212687391
 31
0.0
 11
178.1925303477607
 21
14.32028982655882
 31
0.0
 11
178.1942876220215
 21
14.19558288214558
 31
0.0
 11
178.1959787504505
 21
14.07947489606352
 31
0.0
 11
178.1972884379172
 21
13.97495896727018
 31
0.0
 11
178.1976985420735
 21
13.88517371555652
 31
0.0
 11
178.1976985420735
 21
13.81891763918414
 31
0.0
 11
178.1976985420735
 21
13.77165864614042
 31
0.0
 11
178.1736699662976
 21
13.77165864614042
 31
0.0
 11
178.1496413905218
 21
13.77165864614042
 31
0.0
 11
177.7410729200423
 21
14.23466735262193
 31
0.0
 11
177.3067935648021
 21
14.70898038201722
 31
0.0
  0
SPLINE
  5
A8
102
{ACAD_REACTORS
330
C5
102
}
330
48
100
AcDbEntity
  8
_U_30EC_U_30A4_U_30E4_U_30FC_1
  6
Continuous
 62
     2
100
AcDbSpline
210
0.0
220
0.0
230
1.0
 70
    11
 71
     3
 72
   110
 73
   106
 74
   104
 42
0.000000001
 43
0.0000000001
 44
0.00000001
 40
0.0
 40
0.0
 40
0.0
 40
0.0
 40
0.2203406257277945
 40
0.4407808782838143
 40
0.5952494494613995
 40
0.7488431659392294
 40
0.9023581831308549
 40
1.05680196867041
 40
1.210736449099854
 40
1.363041386539787
 40
1.515315729683075
 40
1.669377239147998
 40
1.721611652756505
 40
1.773199502942915
 40
1.824933793209921
 40
1.877110426487929
 40
1.982682281206665
 40
2.078781667087505
 40
2.172809640822169
 40
2.271937807378879
 40
2.378349933379271
 40
2.494131557736345
 40
2.626681683943536
 40
2.783145050795935
 40
2.89070123294078
 40
2.993130312454716
 40
3.099869730691664
 40
3.220237816691137
 40
3.352695482737404
 40
3.481732806389639
 40
3.593499473690223
 40
3.674323013331774
 40
3.817951711952724
 40
3.946167120793835
 40
4.061405053453464
 40
4.166480796003043
 40
4.262478775059196
 40
4.350736673551155
 40
4.433071991253898
 40
4.511216293814637
 40
4.564262454117932
 40
4.618474415571521
 40
4.670128488754115
 40
4.722296879126374
 40
4.819540945314301
 40
4.9311949841281
 40
5.0499960402578
 40
5.168643755415487
 40
5.283970811762642
 40
5.39226078491044
 40
5.486512254876457
 40
5.559178233949913
 40
5.591425852853588
 40
5.626215969637931
 40
5.667155838674487
 40
5.717449290214327
 40
5.738402360944942
 40
5.784499116553906
 40
5.830595872164878
 40
5.851548942897734
 40
5.873019280661847
 40
5.924217778408389
 40
5.985325662817765
 40
6.036524160567778
 40
6.057994498334304
 40
6.236847789607559
 40
6.381409928945749
 40
6.493190424178755
 40
6.574067534230517
 40
6.691018086205583
 40
6.814881554220529
 40
6.944307823240396
 40
7.071266716066019
 40
7.193488604461864
 40
7.309042773128091
 40
7.414007203170772
 40
7.505140441886474
 40
7.531150360599626
 40
7.559221645322219
 40
7.587202218920873
 40
7.612569159499089
 40
7.662550809480941
 40
7.702878875764047
 40
7.857328205230803
 40
8.010799568088592
 40
8.165256399657428
 40
8.322232698713796
 40
8.479564855016482
 40
8.635216230290686
 40
8.790882550925604
 40
8.948305154947082
 40
9.168271839032766
 40
9.387358980987003
 40
9.608047961033265
 40
9.832914234792407
 40
9.858338694962743
 40
9.925366817229756
 40
10.02013071422735
 40
10.12876249858974
 40
10.23739428295225
 40
10.33215817995167
 40
10.39918630222371
 40
10.42461076239761
 40
10.64992019336919
 40
10.87188524531166
 40
10.87188524531166
 40
10.87188524531166
 40
10.87188524531166
 10
179.9057788376618
 20
15.73923260398192
 30
0.0
 10
179.9092864933542
 20
15.80616462073807
 30
0.0
 10
179.9163033987663
 20
15.9400589191586
 30
0.0
 10
179.8198027599074
 20
16.2254855497147
 30
0.0
 10
180.0510134726108
 20
16.16284386190284
 30
0.0
 10
180.1919290057156
 20
16.17001554055986
 30
0.0
 10
180.3490417757588
 20
16.16235883078248
 30
0.0
 10
180.5025913427288
 20
16.16252752283046
 30
0.0
 10
180.6545104935081
 20
16.16182040535436
 30
0.0
 10
180.8142214813232
 20
16.17210158351634
 30
0.0
 10
180.9408972601118
 20
16.15496511080753
 30
0.0
 10
181.137082112208
 20
16.22727260107149
 30
0.0
 10
181.1034395279078
 20
16.12640699080116
 30
0.0
 10
181.1052011317184
 20
16.07619253947669
 30
0.0
 10
181.1027342073459
 20
16.02712335586465
 30
0.0
 10
181.1347076966011
 20
15.94063490846997
 30
0.0
 10
181.0010399903256
 20
15.98997438608335
 30
0.0
 10
180.9172208688057
 20
15.98430634314172
 30
0.0
 10
180.8173861139324
 20
15.99465516706301
 30
0.0
 10
180.7186576720146
 20
16.00086450411088
 30
0.0
 10
180.6121532771111
 20
16.00697763816778
 30
0.0
 10
180.491051169806
 20
16.01588883484581
 30
0.0
 10
180.3703381502454
 20
16.00521605912386
 30
0.0
 10
180.1812553843438
 20
16.06468503080365
 30
0.0
 10
180.2129028505311
 20
15.90558320077539
 30
0.0
 10
180.1995563316834
 20
15.80839128339904
 30
0.0
 10
180.1974958426451
 20
15.69634065110104
 30
0.0
 10
180.195818804467
 20
15.57699685629354
 30
0.0
 10
180.1973336794233
 20
15.45032592155115
 30
0.0
 10
180.1956582478672
 20
15.32301588016122
 30
0.0
 10
180.2058844271658
 20
15.22451566404466
 30
0.0
 10
180.1779006596582
 20
15.08388702625628
 30
0.0
 10
180.3508029999306
 20
15.13989551134099
 30
0.0
 10
180.4645020202773
 20
15.12719951478503
 30
0.0
 10
180.5840151672239
 20
15.13448377051262
 30
0.0
 10
180.6888491425073
 20
15.13878017056748
 30
0.0
 10
180.7843084898612
 20
15.14330568258977
 30
0.0
 10
180.8763823507033
 20
15.15149201146205
 30
0.0
 10
180.947655178244
 20
15.14643850638119
 30
0.0
 10
181.0544931705686
 20
15.18536425031674
 30
0.0
 10
181.0226603598037
 20
15.10517122005882
 30
0.0
 10
181.0266164503929
 20
15.05562936846037
 30
0.0
 10
181.0234502392013
 20
15.00557478039822
 30
0.0
 10
181.0550791490586
 20
14.92128847612021
 30
0.0
 10
180.9210133677692
 20
14.97425365495157
 30
0.0
 10
180.8292322793201
 20
14.9654008089044
 30
0.0
 10
180.7079729189603
 20
14.97570049965161
 30
0.0
 10
180.5914113119771
 20
14.977489117675
 30
0.0
 10
180.4783375745878
 20
14.97787017109697
 30
0.0
 10
180.3679246308471
 20
14.98415449472186
 30
0.0
 10
180.2898124067841
 20
14.97189133255366
 30
0.0
 10
180.1913625833643
 20
15.0045388761613
 30
0.0
 10
180.2012355173561
 20
14.94769748054209
 30
0.0
 10
180.1973923244403
 20
14.91392130557987
 30
0.0
 10
180.1966789884268
 20
14.87119604709414
 30
0.0
 10
180.1963369642975
 20
14.83401607262155
 30
0.0
 10
180.1963834255345
 20
14.79487237370771
 30
0.0
 10
180.1963649429927
 20
14.75716849497687
 30
0.0
 10
180.1963703431806
 20
14.71944955232403
 30
0.0
 10
180.19636972142
 20
14.68994324745151
 30
0.0
 10
180.1963698151545
 20
14.65873577699302
 30
0.0
 10
180.1963704287921
 20
14.61414424908086
 30
0.0
 10
180.1963671499337
 20
14.55963956508853
 30
0.0
 10
180.196375962348
 20
14.51505540201449
 30
0.0
 10
180.1963359653418
 20
14.43117808585742
 30
0.0
 10
180.1976024270255
 20
14.31737520677679
 30
0.0
 10
180.1950274117843
 20
14.1683039593371
 30
0.0
 10
180.206500938172
 20
14.06597203813908
 30
0.0
 10
180.1823506222264
 20
13.93338903885842
 30
0.0
 10
180.3332993946477
 20
13.97895732272028
 30
0.0
 10
180.4428436671556
 20
13.96427012162357
 30
0.0
 10
180.573397047392
 20
13.96920435125066
 30
0.0
 10
180.6990312209513
 20
13.97257705323362
 30
0.0
 10
180.8188730625601
 20
13.97711497498774
 30
0.0
 10
180.9391362611426
 20
13.99048536182006
 30
0.0
 10
181.0222761663515
 20
13.98068712782593
 30
0.0
 10
181.1456080421075
 20
14.04126214623318
 30
0.0
 10
181.1244269203956
 20
13.98532460134021
 30
0.0
 10
181.1235950270117
 20
13.95939249372346
 30
0.0
 10
181.1218963707559
 20
13.93197256190939
 30
0.0
 10
181.1217974888829
 20
13.89738195206386
 30
0.0
 10
181.120365930133
 20
13.8605040822077
 30
0.0
 10
181.153280419219
 20
13.76846841021813
 30
0.0
 10
180.9551306988107
 20
13.8413201597483
 30
0.0
 10
180.8300548294891
 20
13.81825726508608
 30
0.0
 10
180.6673071295156
 20
13.82454021985786
 30
0.0
 10
180.5129366450001
 20
13.82260943909927
 30
0.0
 10
180.3566670436944
 20
13.82393762599268
 30
0.0
 10
180.1970544465281
 20
13.82059872487864
 30
0.0
 10
180.0540326342237
 20
13.83265795728237
 30
0.0
 10
179.819714488163
 20
13.76952001976928
 30
0.0
 10
179.9173810751197
 20
14.0562052746632
 30
0.0
 10
179.9006868780058
 20
14.24988308142663
 30
0.0
 10
179.9146296709686
 20
14.47848242880295
 30
0.0
 10
179.9142987846632
 20
14.63384593955047
 30
0.0
 10
179.9143078119265
 20
14.73966336444123
 30
0.0
 10
179.9143055876317
 20
14.80205784124212
 30
0.0
 10
179.9143065551889
 20
14.89220425248325
 30
0.0
 10
179.9143065473262
 20
14.99621167157437
 30
0.0
 10
179.9143053861103
 20
15.10022131375296
 30
0.0
 10
179.9143090971503
 20
15.19036243688768
 30
0.0
 10
179.9143011051052
 20
15.25276803097216
 30
0.0
 10
179.9143334275018
 20
15.35868835961119
 30
0.0
 10
179.9131440788321
 20
15.51626716544741
 30
0.0
 10
179.9082216489256
 20
15.66528219822067
 30
0.0
 10
179.9057788376618
 20
15.73923260398192
 30
0.0
 11
179.9057788376618
 21
15.73923260398192
 31
0.0
 11
179.8966918223741
 21
15.95938578101022
 31
0.0
 11
179.8868249573134
 21
16.17960510387182
 31
0.0
 11
180.04115751414
 21
16.17312391463729
 31
0.0
 11
180.1946500189046
 21
16.16754892331922
 31
0.0
 11
180.3481160653367
 21
16.16367167505633
 31
0.0
 11
180.502554455494
 21
16.16238072887612
 31
0.0
 11
180.6564835227473
 21
16.16367167505633
 31
0.0
 11
180.8087391004601
 21
16.16754892331922
 31
0.0
 11
180.9609113551074
 21
16.17312391463729
 31
0.0
 11
181.1148364762483
 21
16.17960510387182
 31
0.0
 11
181.1070811703124
 21
16.12794961777358
 31
0.0
 11
181.1044991623592
 21
16.07642642334201
 31
0.0
 11
181.1070811703124
 21
16.02475660564661
 31
0.0
 11
181.1148364762483
 21
15.97315954836782
 31
0.0
 11
181.0094874054411
 21
15.98001446156057
 31
0.0
 11
180.913637570006
 21
15.98693552058661
 31
0.0
 11
180.8198593171904
 21
15.99378381919601
 31
0.0
 11
180.7209679915881
 21
16.00063211780542
 31
0.0
 11
180.6147532199924
 21
16.00710999974824
 31
0.0
 11
180.4991060528039
 21
16.01268829835792
 31
0.0
 11
180.3666126447258
 21
16.01656554662089
 31
0.0
 11
180.2101546018424
 21
16.01785649280112
 31
0.0
 11
180.2062663293721
 21
15.91037061609188
 31
0.0
 11
180.20153800484
 21
15.80805072896462
 31
0.0
 11
180.197660756675
 21
15.70138175329688
 31
0.0
 11
180.1963698105272
 21
15.58102059013253
 31
0.0
 11
180.1967799146836
 21
15.4485635589157
 31
0.0
 11
180.1980896021503
 21
15.31953288186462
 31
0.0
 11
180.199407457705
 21
15.2077739843231
 31
0.0
 11
180.199819115366
 21
15.12695149302382
 31
0.0
 11
180.3434452935874
 21
15.12780256941252
 31
0.0
 11
180.4716343930759
 21
15.13039989580082
 31
0.0
 11
180.5868078221796
 21
15.13425509545258
 31
0.0
 11
180.691775631222
 21
15.13901649302072
 31
0.0
 11
180.7876346289422
 21
15.14418027774175
 31
0.0
 11
180.8757413374194
 21
15.14934406246272
 31
0.0
 11
180.9578881438496
 21
15.15491243919742
 31
0.0
 11
181.0357692335572
 21
15.16132086801522
 31
0.0
 11
181.0280180445186
 21
15.10884407115338
 31
0.0
 11
181.0254328449317
 21
15.05469378470862
 31
0.0
 11
181.0280180445186
 21
15.00310444444372
 31
0.0
 11
181.0357692335572
 21
14.95151510417882
 31
0.0
 11
180.9389813454015
 21
14.96092324653758
 31
0.0
 11
180.8275950722016
 21
14.96865128473012
 31
0.0
 11
180.7089261429373
 21
14.97425273438149
 31
0.0
 11
180.5903167449212
 21
14.97726788195011
 31
0.0
 11
180.4750025117521
 21
14.97898767361641
 31
0.0
 11
180.36672619507
 21
14.98070746528262
 31
0.0
 11
180.2724839317709
 21
14.98202486979619
 31
0.0
 11
180.199819115366
 21
14.98243607639331
 31
0.0
 11
180.199407457705
 21
14.95019108508192
 31
0.0
 11
180.1980896021503
 21
14.91542593752122
 31
0.0
 11
180.1967799146836
 21
14.87450702260088
 31
0.0
 11
180.1963698105272
 21
14.82421524309952
 31
0.0
 11
180.1963698105272
 21
14.80326217235822
 31
0.0
 11
180.1963698105272
 21
14.75716541672737
 31
0.0
 11
180.1963698105272
 21
14.71106866109652
 31
0.0
 11
180.1963698105272
 21
14.69011559035522
 31
0.0
 11
180.1963698105272
 21
14.66864525258281
 31
0.0
 11
180.1963698105272
 21
14.61744675481785
 31
0.0
 11
180.1963698105272
 21
14.55633887038869
 31
0.0
 11
180.1963698105272
 21
14.50514037262372
 31
0.0
 11
180.1963698105272
 21
14.48367003485132
 31
0.0
 11
180.1967799146836
 21
14.30481721371549
 31
0.0
 11
180.1980896021503
 21
14.16026100715442
 31
0.0
 11
180.2002868589709
 21
14.04850210961291
 31
0.0
 11
180.2032586986986
 21
13.96767961831372
 31
0.0
 11
180.3202092517448
 21
13.96767961831372
 31
0.0
 11
180.4440727208747
 21
13.96767961831372
 31
0.0
 11
180.5734925526422
 21
13.96897056449393
 31
0.0
 11
180.7003922282244
 21
13.97284781275683
 31
0.0
 11
180.8224658067973
 21
13.97886708358866
 31
0.0
 11
180.9377587499463
 21
13.98663260442002
 31
0.0
 11
181.0421754573519
 21
13.99734161483401
 31
0.0
 11
181.1320599255448
 21
14.01237656274692
 31
0.0
 11
181.1264254031191
 21
13.98698427976716
 31
0.0
 11
181.1234433285423
 21
13.95907184053802
 31
0.0
 11
181.12213398812
 21
13.93112191867002
 31
0.0
 11
181.1217235369195
 21
13.90575829888472
 31
0.0
 11
181.1243087365064
 21
13.85584355063328
 31
0.0
 11
181.1320599255448
 21
13.81626739612932
 31
0.0
 11
180.9776977178344
 21
13.82145433189184
 31
0.0
 11
180.8242357818764
 21
13.82315538223863
 31
0.0
 11
180.6697789496483
 21
13.82315538223863
 31
0.0
 11
180.5128026496768
 21
13.82315538223863
 31
0.0
 11
180.3554704921536
 21
13.82315538223863
 31
0.0
 11
180.199819115366
 21
13.82315538223863
 31
0.0
 11
180.0441620874241
 21
13.82145433189185
 31
0.0
 11
179.8868249573134
 21
13.81626739612932
 31
0.0
 11
179.896691822374
 21
14.03601267385215
 31
0.0
 11
179.9057788376618
 21
14.25491128490852
 31
0.0
 11
179.9121721518401
 21
14.47550763902005
 31
0.0
 11
179.914306345501
 21
14.70036378479712
 31
0.0
 11
179.914306345501
 21
14.72578824496872
 31
0.0
 11
179.914306345501
 21
14.79281636723929
 31
0.0
 11
179.914306345501
 21
14.88758026424252
 31
0.0
 11
179.914306345501
 21
14.99621204861206
 31
0.0
 11
179.914306345501
 21
15.10484383298162
 31
0.0
 11
179.914306345501
 21
15.19960772998484
 31
0.0
 11
179.914306345501
 21
15.26663585225541
 31
0.0
 11
179.914306345501
 21
15.29206031242701
 31
0.0
 11
179.9121721518401
 21
15.51735963528734
 31
0.0
 11
179.9057788376618
 21
15.73923260398192
 31
0.0
  0
SPLINE
  5
A9
102
{ACAD_REACTORS
330
C6
102
}
330
48
100
AcDbEntity
  8
_U_30EC_U_30A4_U_30E4_U_30FC_1
  6
Continuous
 62
     2
100
AcDbSpline
210
0.0
220
0.0
230
1.0
 70
    11
 71
     3
 72
    47
 73
    43
 74
    41
 42
0.000000001
 43
0.0000000001
 44
0.00000001
 40
0.0
 40
0.0
 40
0.0
 40
0.0
 40
0.2207912809957325
 40
0.4459404186303327
 40
0.4902387190459291
 40
0.5327473892722286
 40
0.5742260451225282
 40
0.6155432630559999
 40
0.656816406631491
 40
0.6982511618779788
 40
0.7407663929315775
 40
0.7851366743175554
 40
1.010288833836375
 40
1.231080507002238
 40
1.451765243652452
 40
1.676638205891702
 40
1.720461045359675
 40
1.830018144043539
 40
1.972442372353168
 40
2.114866600677539
 40
2.224423699395162
 40
2.268246538883403
 40
2.49362880120728
 40
2.715602830286664
 40
2.934211330706422
 40
3.149502369855387
 40
3.231387784851114
 40
3.318231873854178
 40
3.405143198198138
 40
3.486970301720485
 40
3.702258172493893
 40
3.920866283534128
 40
4.142839325931903
 40
4.368221903865409
 40
4.412044743359891
 40
4.521601842095903
 40
4.664026070452383
 40
4.806450298809093
 40
4.916007397546785
 40
4.959830237043109
 40
5.184703515847106
 40
5.405387250767465
 40
5.405387250767465
 40
5.405387250767465
 40
5.405387250767465
 10
182.6507427258646
 20
15.73406440953872
 30
0.0
 10
182.6568139420004
 20
15.7975848250121
 30
0.0
 10
182.6690762107244
 20
15.92587938689627
 30
0.0
 10
182.5604706879413
 20
16.2016622017408
 30
0.0
 10
182.6761985896605
 20
16.17188133432055
 30
0.0
 10
182.7171842509016
 20
16.16765556262816
 30
0.0
 10
182.7591205797518
 20
16.1631044638961
 30
0.0
 10
182.800419662571
 20
16.1620198292949
 30
0.0
 10
182.8417032115556
 20
16.16310338195231
 30
0.0
 10
182.8836148270647
 20
16.16766112711338
 30
0.0
 10
182.9245983549019
 20
16.17187430209732
 30
0.0
 10
183.0404922843489
 20
16.20177611317537
 30
0.0
 10
182.9295652727457
 20
15.92339806609894
 30
0.0
 10
182.9574856365266
 20
15.74283140824952
 30
0.0
 10
182.940426734697
 20
15.50961042346474
 30
0.0
 10
182.9414637282101
 20
15.34906622543149
 30
0.0
 10
182.9414099399405
 20
15.22284817558727
 30
0.0
 10
182.941427737248
 20
15.12428963336246
 30
0.0
 10
182.9414188581081
 20
14.99280702442968
 30
0.0
 10
182.9414263928034
 20
14.86132844968655
 30
0.0
 10
182.9414129405128
 20
14.76276222694095
 30
0.0
 10
182.9414531717492
 20
14.63639735624155
 30
0.0
 10
182.9406746403817
 20
14.47482068822872
 30
0.0
 10
182.9565958319267
 20
14.24361821892916
 30
0.0
 10
182.9333468885407
 20
14.05874351972
 30
0.0
 10
183.0360183444368
 20
13.78935602770065
 30
0.0
 10
182.8820238362837
 20
13.82660112685814
 30
0.0
 10
182.8004129802832
 20
13.82137994680537
 30
0.0
 10
182.7188192292583
 20
13.82660620378348
 30
0.0
 10
182.5648513666843
 20
13.78937069885399
 30
0.0
 10
182.6674183421919
 20
14.05875129862882
 30
0.0
 10
182.6442045316089
 20
14.24361585325416
 30
0.0
 10
182.6600444655139
 20
14.47482218565641
 30
0.0
 10
182.6593296313429
 20
14.63639712308506
 30
0.0
 10
182.6593664569907
 20
14.76276231210525
 30
0.0
 10
182.6593549000272
 20
14.86132756635987
 30
0.0
 10
182.6593575019215
 20
14.99281127417225
 30
0.0
 10
182.659364853178
 20
15.12427548031204
 30
0.0
 10
182.6593442541352
 20
15.22287786275331
 30
0.0
 10
182.6594082192029
 20
15.3489614935443
 30
0.0
 10
182.658173394759
 20
15.51210091383773
 30
0.0
 10
182.6532040396746
 20
15.6605418377755
 30
0.0
 10
182.6507427258646
 20
15.73406440953872
 30
0.0
 11
182.6507427258646
 21
15.73406440953872
 31
0.0
 11
182.641732820038
 21
15.95467178795578
 31
0.0
 11
182.6318769706147
 21
16.17960510387182
 31
0.0
 11
182.6756985840802
 21
16.17312391463729
 31
0.0
 11
182.7178400934216
 21
16.16754892331922
 31
0.0
 11
182.7591371409791
 21
16.16367167505633
 31
0.0
 11
182.8004341885365
 21
16.16238072887612
 31
0.0
 11
182.841687138873
 21
16.16367167505633
 31
0.0
 11
182.8829400892097
 21
16.16754892331922
 31
0.0
 11
182.9250882131342
 21
16.17312391463729
 31
0.0
 11
182.9689825870146
 21
16.17960510387182
 31
0.0
 11
182.9590577693891
 21
15.95467178795578
 31
0.0
 11
182.950038420831
 21
15.73406440953872
 31
0.0
 11
182.9435638463435
 21
15.51347467001056
 31
0.0
 11
182.9414218238286
 21
15.28861190965012
 31
0.0
 11
182.9414218238286
 21
15.2447890701549
 31
0.0
 11
182.9414218238286
 21
15.13523197141687
 31
0.0
 11
182.9414218238286
 21
14.99280774305742
 31
0.0
 11
182.9414218238286
 21
14.85038351469797
 31
0.0
 11
182.9414218238286
 21
14.74082641595994
 31
0.0
 11
182.9414218238286
 21
14.69700357646472
 31
0.0
 11
182.9435638463435
 21
14.47163149318767
 31
0.0
 11
182.950038420831
 21
14.24975190990982
 31
0.0
 11
182.9590577693891
 21
14.03132954885331
 31
0.0
 11
182.9689825870146
 21
13.81626739612932
 31
0.0
 11
182.887261616877
 21
13.82145433189184
 31
0.0
 11
182.8004341885365
 21
13.82315538223863
 31
0.0
 11
182.7135395119339
 21
13.82145433189185
 31
0.0
 11
182.6318769706147
 21
13.81626739612932
 31
0.0
 11
182.641732820038
 21
14.03132954885331
 31
0.0
 11
182.6507427258646
 21
14.24975190990982
 31
0.0
 11
182.6571833838798
 21
14.47163149318767
 31
0.0
 11
182.6593583588024
 21
14.69700357646472
 31
0.0
 11
182.6593583588024
 21
14.74082641595994
 31
0.0
 11
182.6593583588024
 21
14.85038351469797
 31
0.0
 11
182.6593583588024
 21
14.99280774305742
 31
0.0
 11
182.6593583588024
 21
15.13523197141687
 31
0.0
 11
182.6593583588024
 21
15.2447890701549
 31
0.0
 11
182.6593583588024
 21
15.28861190965012
 31
0.0
 11
182.6571833838798
 21
15.51347467001056
 31
0.0
 11
182.6507427258646
 21
15.73406440953872
 31
0.0
  0
SPLINE
  5
AA
102
{ACAD_REACTORS
330
C7
102
}
330
48
100
AcDbEntity
  8
_U_30EC_U_30A4_U_30E4_U_30FC_1
  6
Continuous
 62
     2
100
AcDbSpline
210
0.0
220
0.0
230
1.0
 70
    11
 71
     3
 72
   118
 73
   114
 74
   112
 42
0.000000001
 43
0.0000000001
 44
0.00000001
 40
0.0
 40
0.0
 40
0.0
 40
0.0
 40
0.1054708162973555
 40
0.2466098270052557
 40
0.3965912874591924
 40
0.5285525069754681
 40
0.6156245055642717
 40
0.6431434105797875
 40
0.7036850037986425
 40
0.7642265984504515
 40
0.7917455052354847
 40
0.928740431999033
 40
1.106572819088101
 40
1.287544879681117
 40
1.317578308030634
 40
1.399928030857272
 40
1.522968204800047
 40
1.675072986590668
 40
1.844616533180745
 40
2.019973001638809
 40
2.189516548880122
 40
2.34162133158546
 40
2.464661506320597
 40
2.54701122964716
 40
2.577044658168124
 40
2.603797890893138
 40
2.662655002908797
 40
2.721512114949552
 40
2.748265347702703
 40
2.77421530734478
 40
2.845959313407108
 40
2.954338556588305
 40
3.090194227585477
 40
3.24436751710044
 40
3.407699615844193
 40
3.571031714539338
 40
3.725205003920011
 40
3.861060674729509
 40
3.9694399177162
 40
4.04118392362887
 40
4.067133883212864
 40
4.311886746012012
 40
4.547897258335394
 40
4.764747083043867
 40
4.952749679951676
 40
5.045772974195792
 40
5.137862019644865
 40
5.330543169792906
 40
5.553448265243906
 40
5.795083855888077
 40
6.043293412177149
 40
6.285761695541112
 40
6.313902908752624
 40
6.384255941793214
 40
6.475714884766802
 40
6.567173827758836
 40
6.637526860839614
 40
6.665668074073977
 40
6.692018920327941
 40
6.74999078207099
 40
6.807962643790338
 40
6.834313490017802
 40
6.856393084245081
 40
6.913335195649733
 40
6.991194817302368
 40
7.076026942283601
 40
7.153886563725148
 40
7.210828674844702
 40
7.232908268931038
 40
7.25819933492356
 40
7.324875781592215
 40
7.419142481924879
 40
7.52720430884183
 40
7.635266135230419
 40
7.729532834168412
 40
7.796209279292741
 40
7.821500344594687
 40
7.844652988850786
 40
7.899863140541537
 40
7.965759128053705
 40
8.020969279771018
 40
8.044121924046484
 40
8.069356610160604
 40
8.109134395441503
 40
8.132238100191218
 40
8.193147867786584
 40
8.27926167887676
 40
8.377977512673981
 40
8.476693347146771
 40
8.562807160411825
 40
8.623716930826616
 40
8.64682063685357
 40
8.671988793774412
 40
8.734909185828323
 40
8.816705695189095
 40
8.898502204815694
 40
8.961422597378183
 40
8.986590754551324
 40
9.01294160073347
 40
9.070913462380533
 40
9.128885324082006
 40
9.155236170325319
 40
9.180404327929361
 40
9.243324721948463
 40
9.325121234212313
 40
9.406917746637996
 40
9.469838141978508
 40
9.495006288271282
 40
9.517811184379427
 40
9.572192090487436
 40
9.637098333281672
 40
9.69147923951588
 40
9.714284125643923
 40
9.714284125643923
 40
9.714284125643923
 40
9.714284125643923
 10
185.2874469028652
 20
15.26889163187722
 30
0.0
 10
185.3090990569037
 20
15.24111869242814
 30
0.0
 10
185.3597257109473
 20
15.17618054561238
 30
0.0
 10
185.4349383202591
 20
15.06891060312903
 30
0.0
 10
185.5248482274347
 20
14.95377438266629
 30
0.0
 10
185.5709169676674
 20
14.85357045748322
 30
0.0
 10
185.6655825294654
 20
14.78434006814947
 30
0.0
 10
185.6204439320413
 20
14.73771639678275
 30
0.0
 10
185.5947047785791
 20
14.69660308866043
 30
0.0
 10
185.5645196708012
 20
14.6606597172794
 30
0.0
 10
185.5193684730564
 20
14.58579782596095
 30
0.0
 10
185.4710504458561
 20
14.80782524253606
 30
0.0
 10
185.3968539713073
 20
14.84510677337715
 30
0.0
 10
185.2836047324606
 20
15.11610202130601
 30
0.0
 10
185.2885133578168
 20
15.00095328446228
 30
0.0
 10
185.2868486556306
 20
14.92836675781628
 30
0.0
 10
185.2876830076713
 20
14.80625588483986
 30
0.0
 10
185.2873609540263
 20
14.6591380081046
 30
0.0
 10
185.2875076912455
 20
14.49307063956557
 30
0.0
 10
185.2872950092722
 20
14.32187554608602
 30
0.0
 10
185.2879497252032
 20
14.15552828635498
 30
0.0
 10
185.2859192461138
 20
14.00935173055694
 30
0.0
 10
185.2913460399929
 20
13.8847104747461
 30
0.0
 10
185.2804930868707
 20
13.81718656540627
 30
0.0
 10
185.2956739155554
 20
13.75549061417023
 30
0.0
 10
185.2457895108133
 20
13.76727503897001
 30
0.0
 10
185.2017150342522
 20
13.75943822779969
 30
0.0
 10
185.1582371630201
 20
13.76760441372703
 30
0.0
 10
185.1092346786489
 20
13.75538056738468
 30
0.0
 10
185.1218731234826
 20
13.80960667249314
 30
0.0
 10
185.1130182968449
 20
13.86936918907557
 30
0.0
 10
185.1175058770315
 20
13.9792202904437
 30
0.0
 10
185.1157960135992
 20
14.11029975405677
 30
0.0
 10
185.1163550915987
 20
14.26198011444326
 30
0.0
 10
185.1161928768694
 20
14.42211074929952
 30
0.0
 10
185.1162269924675
 20
14.58236865674564
 30
0.0
 10
185.1162514960128
 20
14.73370247520437
 30
0.0
 10
185.1161453543226
 20
14.86582156338598
 30
0.0
 10
185.1164299141931
 20
14.9729480253319
 30
0.0
 10
185.1158675547569
 20
15.03808619579471
 30
0.0
 10
185.1180765083689
 20
15.1661895785867
 30
0.0
 10
185.0319435998604
 20
14.79097610391572
 30
0.0
 10
184.95551408185
 20
14.63918193123395
 30
0.0
 10
184.8660040767834
 20
14.47766206446309
 30
0.0
 10
184.7640413217326
 20
14.20471848820167
 30
0.0
 10
184.718797649104
 20
14.36717346596514
 30
0.0
 10
184.6102355941671
 20
14.45605432058119
 30
0.0
 10
184.7995791751754
 20
14.60549794961412
 30
0.0
 10
184.85653405457
 20
14.79749136974928
 30
0.0
 10
184.9717520993352
 20
15.02899622906761
 30
0.0
 10
184.9940151630132
 20
15.21797259759069
 30
0.0
 10
185.1771905152142
 20
15.49454089325936
 30
0.0
 10
185.0538033597552
 20
15.486989788321
 30
0.0
 10
184.9925684166834
 20
15.48856772366124
 30
0.0
 10
184.9081999617065
 20
15.48882592573679
 30
0.0
 10
184.8204235085966
 20
15.48544845751212
 30
0.0
 10
184.7656768696123
 20
15.49394814982026
 30
0.0
 10
184.7104703026025
 20
15.48048561049794
 30
0.0
 10
184.7222823035536
 20
15.52931442126768
 30
0.0
 10
184.7142496151795
 20
15.57269004896711
 30
0.0
 10
184.7228186104679
 20
15.61509438309575
 30
0.0
 10
184.7102943409158
 20
15.66267796552118
 30
0.0
 10
184.7555101538736
 20
15.65267212995109
 30
0.0
 10
184.8014815562724
 20
15.65894105174061
 30
0.0
 10
184.8777222047711
 20
15.65593561405872
 30
0.0
 10
184.9561296131994
 20
15.65770448278541
 30
0.0
 10
185.0323992648934
 20
15.65464793981659
 30
0.0
 10
185.0783009459475
 20
15.66103971376176
 30
0.0
 10
185.1231733965401
 20
15.65093822978897
 30
0.0
 10
185.1105552275635
 20
15.70157201581899
 30
0.0
 10
185.1191936582707
 20
15.7550126188207
 30
0.0
 10
185.1152361595444
 20
15.84863255131682
 30
0.0
 10
185.1162325068335
 20
15.95112606688926
 30
0.0
 10
185.1171927413074
 20
16.05353270248166
 30
0.0
 10
185.1133211458007
 20
16.14735929609325
 30
0.0
 10
185.1217789814365
 20
16.20036542840358
 30
0.0
 10
185.1093075932836
 20
16.25211435651194
 30
0.0
 10
185.1542106389851
 20
16.23850747226762
 30
0.0
 10
185.1955083836773
 20
16.24100480320589
 30
0.0
 10
185.2595344281051
 20
16.23648060574489
 30
0.0
 10
185.2986111148787
 20
16.22781003043311
 30
0.0
 10
185.3476543498743
 20
16.23515102070686
 30
0.0
 10
185.3225080030591
 20
16.19602896051755
 30
0.0
 10
185.2815901333723
 20
16.20563842455816
 30
0.0
 10
185.2910109616603
 20
16.15540148169781
 30
0.0
 10
185.2855647318746
 20
16.10385945639493
 30
0.0
 10
185.2881699601803
 20
16.01959707584522
 30
0.0
 10
185.2870102202154
 20
15.9255913558341
 30
0.0
 10
185.2883591064231
 20
15.83196865395527
 30
0.0
 10
185.2849970101507
 20
15.74679517552223
 30
0.0
 10
185.2920959917769
 20
15.69716856072045
 30
0.0
 10
185.2812569154544
 20
15.64993694969988
 30
0.0
 10
185.3304010225245
 20
15.66201674936852
 30
0.0
 10
185.3794877630147
 20
15.65447393363011
 30
0.0
 10
185.4573714280641
 20
15.65686070361433
 30
0.0
 10
185.5350365172895
 20
15.65899381905414
 30
0.0
 10
185.5845393931356
 20
15.65193391922454
 30
0.0
 10
185.6344594750639
 20
15.66360151936215
 30
0.0
 10
185.6223198516882
 20
15.61540235371394
 30
0.0
 10
185.6305838229144
 20
15.57249219801239
 30
0.0
 10
185.6223198650786
 20
15.5295820185139
 30
0.0
 10
185.6344594549855
 20
15.48138288754871
 30
0.0
 10
185.5845395158748
 20
15.49305034471517
 30
0.0
 10
185.5350350651203
 20
15.48599202435052
 30
0.0
 10
185.4573784382973
 20
15.48811665228609
 30
0.0
 10
185.3794643865759
 20
15.49053389365766
 30
0.0
 10
185.3304500352715
 20
15.48291848194491
 30
0.0
 10
185.2813246108942
 20
15.49507952557598
 30
0.0
 10
185.2915559988569
 20
15.45073013424163
 30
0.0
 10
185.2856677678053
 20
15.40925436202916
 30
0.0
 10
185.2878788305568
 20
15.34915394315307
 30
0.0
 10
185.2874109346145
 20
15.30225782762892
 30
0.0
 10
185.2874386992912
 20
15.27650146418199
 30
0.0
 10
185.2874469028652
 20
15.26889163187722
 30
0.0
 11
185.2874469028652
 21
15.26889163187722
 31
0.0
 11
185.3516977534484
 21
15.1852499963426
 31
0.0
 11
185.4348258835499
 21
15.07118889748224
 31
0.0
 11
185.5216831568896
 21
14.94891767195726
 31
0.0
 11
185.5971214371872
 21
14.84064565642879
 31
0.0
 11
185.6459925881626
 21
14.76858218755793
 31
0.0
 11
185.6296821285093
 21
14.74641782124402
 31
0.0
 11
185.593799117272
 21
14.69765621535342
 31
0.0
 11
185.5579161060347
 21
14.64889460946282
 31
0.0
 11
185.5416056463814
 21
14.62673024314891
 31
0.0
 11
185.4763067109446
 21
14.74716139023816
 31
0.0
 11
185.3848434243234
 21
14.8996698367021
 31
0.0
 11
185.2874469028652
 21
15.05219788193142
 31
0.0
 11
185.2874469028652
 21
15.02216445328253
 31
0.0
 11
185.2874469028652
 21
14.93981472956783
 31
0.0
 11
185.2874469028652
 21
14.81677455413528
 31
0.0
 11
185.2874469028652
 21
14.66466977033283
 31
0.0
 11
185.2874469028652
 21
14.49512622150845
 31
0.0
 11
185.2874469028652
 21
14.31976975101009
 31
0.0
 11
185.2874469028652
 21
14.15022620218571
 31
0.0
 11
185.2874469028652
 21
13.99812141838326
 31
0.0
 11
185.2874469028652
 21
13.87508124295071
 31
0.0
 11
185.2874469028652
 21
13.79273151923601
 31
0.0
 11
185.2874469028652
 21
13.76269809058712
 31
0.0
 11
185.2606936700408
 21
13.76269809058712
 31
0.0
 11
185.2018365578272
 21
13.76269809058712
 31
0.0
 11
185.1429794456135
 21
13.76269809058712
 31
0.0
 11
185.1162262127891
 21
13.76269809058712
 31
0.0
 11
185.1162262127891
 21
13.7886480503125
 31
0.0
 11
185.1162262127891
 21
13.86039205661208
 31
0.0
 11
185.1162262127891
 21
13.96877130017101
 31
0.0
 11
185.1162262127891
 21
14.10462697167446
 31
0.0
 11
185.1162262127891
 21
14.2588002618076
 31
0.0
 11
185.1162262127891
 21
14.42213236125557
 31
0.0
 11
185.1162262127891
 21
14.58546446070354
 31
0.0
 11
185.1162262127891
 21
14.73963775083667
 31
0.0
 11
185.1162262127891
 21
14.87549342234013
 31
0.0
 11
185.1162262127891
 21
14.98387266589906
 31
0.0
 11
185.1162262127891
 21
15.05561667219864
 31
0.0
 11
185.1162262127891
 21
15.08156663192402
 31
0.0
 11
185.0379865861723
 21
14.84965603302372
 31
0.0
 11
184.9497110789304
 21
14.63077616328679
 31
0.0
 11
184.8544106930045
 21
14.43598991333547
 31
0.0
 11
184.7550964303356
 21
14.27636017379201
 31
0.0
 11
184.7109198342407
 21
14.35822446196601
 31
0.0
 11
184.6588057383481
 21
14.43414885430812
 31
0.0
 11
184.76273025903
 21
14.59640087926759
 31
0.0
 11
184.8629319864735
 21
14.79551465421783
 31
0.0
 11
184.9550446607902
 21
15.018904479162
 31
0.0
 11
185.0347020220912
 21
15.25398465410325
 31
0.0
 11
185.0975378104881
 21
15.48816947904471
 31
0.0
 11
185.0693965972143
 21
15.48816947904471
 31
0.0
 11
184.9990435640298
 21
15.48816947904471
 31
0.0
 11
184.9075846208899
 21
15.48816947904471
 31
0.0
 11
184.81612567775
 21
15.48816947904471
 31
0.0
 11
184.7457726445655
 21
15.48816947904471
 31
0.0
 11
184.7176314312917
 21
15.48816947904471
 31
0.0
 11
184.7176314312917
 21
15.51452032539227
 31
0.0
 11
184.7176314312917
 21
15.57249218735691
 31
0.0
 11
184.7176314312917
 21
15.63046404932156
 31
0.0
 11
184.7176314312917
 21
15.65681489566912
 31
0.0
 11
184.739711025602
 21
15.65681489566912
 31
0.0
 11
184.7966531372445
 21
15.65681489566912
 31
0.0
 11
184.8745127592863
 21
15.65681489566912
 31
0.0
 11
184.9593448847945
 21
15.65681489566912
 31
0.0
 11
185.0372045068362
 21
15.65681489566912
 31
0.0
 11
185.0941466184787
 21
15.65681489566912
 31
0.0
 11
185.1162262127891
 21
15.65681489566912
 31
0.0
 11
185.1162262127891
 21
15.68210596174353
 31
0.0
 11
185.1162262127891
 21
15.74878240866698
 31
0.0
 11
185.1162262127891
 21
15.84304910948978
 31
0.0
 11
185.1162262127891
 21
15.95111093726226
 31
0.0
 11
185.1162262127891
 21
16.05917276503475
 31
0.0
 11
185.1162262127891
 21
16.15343946585755
 31
0.0
 11
185.1162262127891
 21
16.220115912781
 31
0.0
 11
185.1162262127891
 21
16.24540697885541
 31
0.0
 11
185.1393181988666
 21
16.24373213107805
 31
0.0
 11
185.1943837041285
 21
16.23973826330125
 31
0.0
 11
185.2601070491185
 21
16.23497138885798
 31
0.0
 11
185.3151725543804
 21
16.23097752108119
 31
0.0
 11
185.3382645404579
 21
16.22930267330382
 31
0.0
 11
185.3249012644362
 21
16.20789677921192
 31
0.0
 11
185.2874469028652
 21
16.19450114553472
 31
0.0
 11
185.2874469028652
 21
16.1713974394858
 31
0.0
 11
185.2874469028652
 21
16.11048766899322
 31
0.0
 11
185.2874469028652
 21
16.02437385553818
 31
0.0
 11
185.2874469028652
 21
15.92565802060192
 31
0.0
 11
185.2874469028652
 21
15.82694218566566
 31
0.0
 11
185.2874469028652
 21
15.74082837221062
 31
0.0
 11
185.2874469028652
 21
15.67991860171803
 31
0.0
 11
185.2874469028652
 21
15.65681489566912
 31
0.0
 11
185.3126150604808
 21
15.65681489566912
 31
0.0
 11
185.3755354545198
 21
15.65681489566912
 31
0.0
 11
185.4573319667706
 21
15.65681489566912
 31
0.0
 11
185.5391284790213
 21
15.65681489566912
 31
0.0
 11
185.6020488730603
 21
15.65681489566912
 31
0.0
 11
185.6272170306759
 21
15.65681489566912
 31
0.0
 11
185.6272170306759
 21
15.63046404932156
 31
0.0
 11
185.6272170306759
 21
15.57249218735692
 31
0.0
 11
185.6272170306759
 21
15.51452032539228
 31
0.0
 11
185.6272170306759
 21
15.48816947904471
 31
0.0
 11
185.6020488730603
 21
15.48816947904471
 31
0.0
 11
185.5391284790213
 21
15.48816947904471
 31
0.0
 11
185.4573319667705
 21
15.48816947904471
 31
0.0
 11
185.3755354545198
 21
15.48816947904471
 31
0.0
 11
185.3126150604808
 21
15.48816947904471
 31
0.0
 11
185.2874469028652
 21
15.48816947904471
 31
0.0
 11
185.2874469028652
 21
15.46536458293929
 31
0.0
 11
185.2874469028652
 21
15.41098367684175
 31
0.0
 11
185.2874469028652
 21
15.34607743408018
 31
0.0
 11
185.2874469028652
 21
15.29169652798264
 31
0.0
 11
185.2874469028652
 21
15.26889163187722
 31
0.0
  0
SPLINE
  5
AB
102
{ACAD_REACTORS
330
C8
102
}
330
48
100
AcDbEntity
  8
_U_30EC_U_30A4_U_30E4_U_30FC_1
  6
Continuous
 62
     2
100
AcDbSpline
210
0.0
220
0.0
230
1.0
 70
    11
 71
     3
 72
    91
 73
    87
 74
    85
 42
0.000000001
 43
0.0000000001
 44
0.00000001
 40
0.0
 40
0.0
 40
0.0
 40
0.0
 40
0.0345987051695718
 40
0.1258134969461085
 40
0.2547723404888703
 40
0.4026032099153556
 40
0.550434079341642
 40
0.6793929228835227
 40
0.7706077146570467
 40
0.8052064287780072
 40
1.124852390615194
 40
1.427402236308793
 40
1.706356627453442
 40
1.955541417875128
 40
2.16948593856628
 40
2.344350786664754
 40
2.480568411561907
 40
2.590440557428902
 40
2.649189927151054
 40
2.749320643306274
 40
2.912632739879972
 40
3.14774565600017
 40
3.24482749638509
 40
3.338490056946715
 40
3.583815413207121
 40
3.761423943238463
 40
3.88695610436262
 40
3.9858554518868
 40
4.091766255337628
 40
4.250186473811821
 40
4.422734315084489
 40
4.628285684838584
 40
4.872093227758425
 40
5.152549652145538
 40
5.464967135837524
 40
5.803201477852435
 40
6.160362988813907
 40
6.193449448275991
 40
6.284170385501645
 40
6.419718138764515
 40
6.587285046385793
 40
6.774063446723679
 40
6.967245678113662
 40
7.154024078817705
 40
7.321590987026062
 40
7.457138740890421
 40
7.547859678556185
 40
7.580946138182745
 40
7.608533084714796
 40
7.669224367077773
 40
7.729915649429992
 40
7.757502595950041
 40
7.790278062553495
 40
7.880146277430993
 40
8.014419963180455
 40
8.180411842397984
 40
8.365434637679453
 40
8.556801071622782
 40
8.741823866830867
 40
8.907815745916405
 40
9.042089431507588
 40
9.131957646249713
 40
9.16473311279729
 40
9.415425063140198
 40
9.667986180958652
 40
9.69416980746279
 40
9.756607686047778
 40
9.83113031532267
 40
9.893568193900133
 40
9.91975182039895
 40
9.95096796469077
 40
9.996421631210945
 40
10.22087981037482
 40
10.44341866197565
 40
10.47847970788877
 40
10.57091337438778
 40
10.70159545461252
 40
10.85140174170383
 40
11.001208028805
 40
11.13189010907406
 40
11.22432377583034
 40
11.2593848093898
 40
11.28697175596168
 40
11.34766303835942
 40
11.40835432042092
 40
11.43594125892127
 40
11.43594125892127
 40
11.43594125892127
 40
11.43594125892127
 10
190.0818114333289
 20
15.55242795125082
 30
0.0
 10
190.070278584494
 20
15.5524279028792
 30
0.0
 10
190.0283409444999
 20
15.5524277370417
 30
0.0
 10
189.9434129719025
 20
15.55243125800914
 30
0.0
 10
189.8207688553129
 20
15.55240926435884
 30
0.0
 10
189.6791206916993
 20
15.55250801177059
 30
0.0
 10
189.537975369849
 20
15.55214686232426
 30
0.0
 10
189.4141351317905
 20
15.55321883609093
 30
0.0
 10
189.3317217825382
 20
15.55092249091273
 30
0.0
 10
189.1727791229694
 20
15.56048569373424
 30
0.0
 10
189.3503402353376
 20
15.19785394311374
 30
0.0
 10
189.3379739205453
 20
14.95243127723118
 30
0.0
 10
189.4064519473864
 20
14.66862501324838
 30
0.0
 10
189.469302432097
 20
14.43250999939037
 30
0.0
 10
189.5452253431728
 20
14.2332674039613
 30
0.0
 10
189.6303189577017
 20
14.07745347451375
 30
0.0
 10
189.7244607592935
 20
13.97657857781393
 30
0.0
 10
189.8282648207727
 20
13.92465852638965
 30
0.0
 10
189.9125872030773
 20
13.97606484379617
 30
0.0
 10
189.9351322179452
 20
14.09144544037514
 30
0.0
 10
189.9745730975371
 20
14.21885149702382
 30
0.0
 10
189.9202919734941
 20
14.53622328086752
 30
0.0
 10
190.0451218072473
 20
14.38982180140909
 30
0.0
 10
190.2019291513603
 20
14.35795300331172
 30
0.0
 10
190.0947720007057
 20
14.12421357767631
 30
0.0
 10
190.0808711209868
 20
13.9597277658366
 30
0.0
 10
190.0234709467226
 20
13.83130869122487
 30
0.0
 10
189.933502014501
 20
13.76018802352833
 30
0.0
 10
189.8095274657878
 20
13.74432324142258
 30
0.0
 10
189.6634273196861
 20
13.77993797554178
 30
0.0
 10
189.5243894320285
 20
13.90000570500281
 30
0.0
 10
189.4102003962144
 20
14.07435682550325
 30
0.0
 10
189.3146141301486
 20
14.29946603111245
 30
0.0
 10
189.2318652572627
 20
14.56388246006448
 30
0.0
 10
189.1807179256411
 20
14.88187933098548
 30
0.0
 10
189.0770189207338
 20
15.15543728488918
 30
0.0
 10
189.2042841208521
 20
15.56005818612872
 30
0.0
 10
189.0357890623019
 20
15.55112367849683
 30
0.0
 10
188.9511995787078
 20
15.55315961418368
 30
0.0
 10
188.8189876387628
 20
15.55213937388411
 30
0.0
 10
188.6560505094103
 20
15.55253230318434
 30
0.0
 10
188.4733759170534
 20
15.55235696313374
 30
0.0
 10
188.2847057373382
 20
15.55260105307473
 30
0.0
 10
188.1014469020189
 20
15.55185657906241
 30
0.0
 10
187.9404746832718
 20
15.55416360522431
 30
0.0
 10
187.8029808335276
 20
15.54799804883667
 30
0.0
 10
187.728959037231
 20
15.56032838458216
 30
0.0
 10
187.6613215186857
 20
15.54329323723561
 30
0.0
 10
187.6732373719269
 20
15.59524438447532
 30
0.0
 10
187.6655677285694
 20
15.64071424966533
 30
0.0
 10
187.6732592225115
 20
15.6861445370371
 30
0.0
 10
187.6613141797761
 20
15.73802395984574
 30
0.0
 10
187.7283588305867
 20
15.72119143490268
 30
0.0
 10
187.8017375665676
 20
15.73335409092674
 30
0.0
 10
187.9379128305272
 20
15.72727231074963
 30
0.0
 10
188.0973811801512
 20
15.72954834315062
 30
0.0
 10
188.2789173085837
 20
15.72881233998966
 30
0.0
 10
188.465803486218
 20
15.72905954196138
 30
0.0
 10
188.6468012316836
 20
15.72886400799257
 30
0.0
 10
188.8080802578879
 20
15.72932234714843
 30
0.0
 10
188.9393882124887
 20
15.7281267375121
 30
0.0
 10
189.0225051322597
 20
15.73051347319747
 30
0.0
 10
189.1556236547815
 20
15.72230605725467
 30
0.0
 10
189.0645893502659
 20
15.97752868952658
 30
0.0
 10
188.9789633074417
 20
16.24164358328247
 30
0.0
 10
189.0990589003454
 20
16.22904442969166
 30
0.0
 10
189.1514264948542
 20
16.22694235763077
 30
0.0
 10
189.2214497569716
 20
16.22535399889659
 30
0.0
 10
189.2671922337817
 20
16.21602567538114
 30
0.0
 10
189.3220812646933
 20
16.22545966915429
 30
0.0
 10
189.2963574785681
 20
16.1773302865517
 30
0.0
 10
189.1825397571453
 20
16.18266829744169
 30
0.0
 10
189.3159346621136
 20
15.95449174576778
 30
0.0
 10
189.194365873547
 20
15.72156856595926
 30
0.0
 10
189.3223188769413
 20
15.73087258884443
 30
0.0
 10
189.4049048406461
 20
15.72801001754684
 30
0.0
 10
189.5307214850824
 20
15.72923437412306
 30
0.0
 10
189.6741469838057
 20
15.72932431888968
 30
0.0
 10
189.8157420951728
 20
15.72746163183857
 30
0.0
 10
189.9459127249967
 20
15.73333075937167
 30
0.0
 10
190.0193452286191
 20
15.72070340823207
 30
0.0
 10
190.0891112922096
 20
15.73877563110416
 30
0.0
 10
190.0775772605396
 20
15.6861285054633
 30
0.0
 10
190.0833184346682
 20
15.64221317686552
 30
0.0
 10
190.0816615770911
 20
15.59089982676554
 30
0.0
 10
190.081775756167
 20
15.56158792021639
 30
0.0
 10
190.0818114333289
 20
15.55242795125082
 30
0.0
 11
190.0818114333289
 21
15.55242795125082
 31
0.0
 11
190.0472127192051
 21
15.55242795125082
 31
0.0
 11
189.9559979274241
 21
15.55242795125082
 31
0.0
 11
189.8270390838717
 21
15.55242795125082
 31
0.0
 11
189.6792082144336
 21
15.55242795125082
 31
0.0
 11
189.5313773449955
 21
15.55242795125082
 31
0.0
 11
189.4024185014431
 21
15.55242795125082
 31
0.0
 11
189.3112037096621
 21
15.55242795125082
 31
0.0
 11
189.2766049955383
 21
15.55242795125082
 31
0.0
 11
189.3083140497693
 21
15.23435864930125
 31
0.0
 11
189.3527866656866
 21
14.93509522788084
 31
0.0
 11
189.409238911832
 21
14.66191269512579
 31
0.0
 11
189.4768868567478
 21
14.42208605917229
 31
0.0
 11
189.5549465689761
 21
14.22289032815656
 31
0.0
 11
189.6426341170591
 21
14.07160051021478
 31
0.0
 11
189.7391655695389
 21
13.97549161348317
 31
0.0
 11
189.8437569949575
 21
13.94183864609792
 31
0.0
 11
189.8943077302786
 21
13.97177376978835
 31
0.0
 11
189.9310588991552
 21
14.06491619815047
 31
0.0
 11
189.9562640977528
 21
14.22627151712054
 31
0.0
 11
189.9721769222367
 21
14.46084531263482
 31
0.0
 11
190.0494082682583
 21
14.40202182306621
 31
0.0
 11
190.1327184184385
 21
14.35921885432691
 31
0.0
 11
190.1066365811217
 21
14.11528388661012
 31
0.0
 11
190.0673317805106
 21
13.94207902887566
 31
0.0
 11
190.0105702596765
 21
13.83011272445922
 31
0.0
 11
189.9321182616911
 21
13.7698934166965
 31
0.0
 11
189.8277420296257
 21
13.75192954892322
 31
0.0
 11
189.6738595065098
 21
13.78957440012366
 31
0.0
 11
189.5388902376748
 21
13.89707348877408
 31
0.0
 11
189.4221739916163
 21
14.06627361744814
 31
0.0
 11
189.32305053683
 21
14.28902158871948
 31
0.0
 11
189.2408596418114
 21
14.55716420516177
 31
0.0
 11
189.1749410750559
 21
14.86254826934865
 31
0.0
 11
189.1246346050594
 21
15.19702058385379
 31
0.0
 11
189.0892800003172
 21
15.55242795125082
 31
0.0
 11
189.0561935405844
 21
15.55242795125082
 31
0.0
 11
188.9654726026075
 21
15.55242795125082
 31
0.0
 11
188.8299248482186
 21
15.55242795125082
 31
0.0
 11
188.6623579392495
 21
15.55242795125082
 31
0.0
 11
188.4755795375324
 21
15.55242795125082
 31
0.0
 11
188.2823973048993
 21
15.55242795125082
 31
0.0
 11
188.0956189031822
 21
15.55242795125082
 31
0.0
 11
187.9280519942131
 21
15.55242795125082
 31
0.0
 11
187.7925042398242
 21
15.55242795125082
 31
0.0
 11
187.7017833018473
 21
15.55242795125082
 31
0.0
 11
187.6686968421145
 21
15.55242795125082
 31
0.0
 11
187.6686968421145
 21
15.58001489785851
 31
0.0
 11
187.6686968421145
 21
15.64070618039542
 31
0.0
 11
187.6686968421145
 21
15.70139746293233
 31
0.0
 11
187.6686968421145
 21
15.72898440954002
 31
0.0
 11
187.7014723087631
 21
15.72898440954002
 31
0.0
 11
187.7913405237673
 21
15.72898440954002
 31
0.0
 11
187.9256142097148
 21
15.72898440954002
 31
0.0
 11
188.0916060891932
 21
15.72898440954002
 31
0.0
 11
188.2766288847901
 21
15.72898440954002
 31
0.0
 11
188.4679953190933
 21
15.72898440954002
 31
0.0
 11
188.6530181146902
 21
15.72898440954002
 31
0.0
 11
188.8190099941685
 21
15.72898440954002
 31
0.0
 11
188.9532836801161
 21
15.72898440954002
 31
0.0
 11
189.0431518951203
 21
15.72898440954002
 31
0.0
 11
189.0759273617689
 21
15.72898440954002
 31
0.0
 11
189.0659183950103
 21
15.97947647544961
 31
0.0
 11
189.0599112510662
 21
16.23196614552532
 31
0.0
 11
189.0860575870658
 21
16.23056921608123
 31
0.0
 11
189.1484065421418
 21
16.22723807663762
 31
0.0
 11
189.2228230369099
 21
16.22326220052751
 31
0.0
 11
189.2851719919859
 21
16.2199310610839
 31
0.0
 11
189.3113183279855
 21
16.21853413163981
 31
0.0
 11
189.298293111304
 21
16.19016528616081
 31
0.0
 11
189.2551649266405
 21
16.17581274276162
 31
0.0
 11
189.2574991961821
 21
15.95136670115107
 31
0.0
 11
189.2658452735903
 21
15.72898440954002
 31
0.0
 11
189.3009063195165
 21
15.72898440954002
 31
0.0
 11
189.3933399860495
 21
15.72898440954002
 31
0.0
 11
189.5240220663201
 21
15.72898440954002
 31
0.0
 11
189.6738283534596
 21
15.72898440954002
 31
0.0
 11
189.8236346405991
 21
15.72898440954002
 31
0.0
 11
189.9543167208697
 21
15.72898440954002
 31
0.0
 11
190.0467503874027
 21
15.72898440954002
 31
0.0
 11
190.0818114333289
 21
15.72898440954002
 31
0.0
 11
190.0818114333289
 21
15.70139746293233
 31
0.0
 11
190.0818114333289
 21
15.64070618039542
 31
0.0
 11
190.0818114333289
 21
15.58001489785851
 31
0.0
 11
190.0818114333289
 21
15.55242795125082
 31
0.0
  0
SPLINE
  5
AC
102
{ACAD_REACTORS
330
C9
102
}
330
48
100
AcDbEntity
  8
_U_30EC_U_30A4_U_30E4_U_30FC_1
  6
Continuous
 62
     2
100
AcDbSpline
210
0.0
220
0.0
230
1.0
 70
    11
 71
     3
 72
    75
 73
    71
 74
    69
 42
0.000000001
 43
0.0000000001
 44
0.00000001
 40
0.0
 40
0.0
 40
0.0
 40
0.0
 40
0.0342546099129691
 40
0.1245622414432364
 40
0.2522385480897554
 40
0.3985991922940733
 40
0.5449598364980892
 40
0.6726361431438923
 40
0.7629437746737049
 40
0.7971983935298079
 40
1.101723623449655
 40
1.408591244036599
 40
1.433332471690298
 40
1.487763172450079
 40
1.54219387308189
 40
1.566935100592433
 40
1.923523931821752
 40
2.271755704953557
 40
2.5905797551008
 40
2.858943305581054
 40
2.889120339309071
 40
2.91830585519095
 40
2.941366645531066
 40
2.996357760972948
 40
3.061992318140491
 40
3.11698343362667
 40
3.14004422399734
 40
3.411273122936318
 40
3.732441619741043
 40
3.761068217532741
 40
3.837787499630297
 40
3.948858699125932
 40
4.080541049104303
 40
4.219093782625677
 40
4.350776132722222
 40
4.461847332405551
 40
4.538566614678283
 40
4.567193212544526
 40
4.594907573998784
 40
4.666381453557351
 40
4.764111044010962
 40
4.870592538125765
 40
4.968322128642216
 40
5.039796008286929
 40
5.06751036978436
 40
5.094263603185572
 40
5.153120716668205
 40
5.21197783015065
 40
5.238731063551652
 40
5.27229053513892
 40
5.363380529444724
 40
5.497618415781401
 40
5.660621563453644
 40
5.838007341749345
 40
6.015393119910668
 40
6.178396267038265
 40
6.312634151842216
 40
6.403724143059206
 40
6.437283612672301
 40
6.464036846260916
 40
6.522893960004529
 40
6.581751071483792
 40
6.608504301590736
 40
6.637253941280884
 40
6.711397748902735
 40
6.812778057283319
 40
6.923237199249039
 40
7.024617507623711
 40
7.098761315207335
 40
7.127510946007286
 40
7.127510946007286
 40
7.127510946007286
 40
7.127510946007286
 10
188.4418622390565
 20
14.95849128473262
 30
0.0
 10
188.4418622819707
 20
14.94707313408718
 30
0.0
 10
188.4418624481129
 20
14.90555257842627
 30
0.0
 10
188.4418593081788
 20
14.8214692200377
 30
0.0
 10
188.4418788279801
 20
14.70004497322326
 30
0.0
 10
188.4417912187739
 20
14.55980494047445
 30
0.0
 10
188.4421116235231
 20
14.42006556794574
 30
0.0
 10
188.4411605909741
 20
14.29745038894925
 30
0.0
 10
188.4431978595968
 20
14.2158707443804
 30
0.0
 10
188.4349433178747
 20
14.06271267077695
 30
0.0
 10
188.7430797940902
 20
14.22560236054725
 30
0.0
 10
189.0350645173734
 20
14.39482938688
 30
0.0
 10
189.0408354448708
 20
14.25973235781912
 30
0.0
 10
189.0455471719891
 20
14.21617221160446
 30
0.0
 10
189.0482535411917
 20
14.17211249350548
 30
0.0
 10
189.067254567296
 20
14.02272590363138
 30
0.0
 10
188.6583942247302
 20
14.08681172241262
 30
0.0
 10
188.3793710348831
 20
13.97296341411019
 30
0.0
 10
188.1018081587168
 20
13.87364095811132
 30
0.0
 10
187.8099837184398
 20
13.91630687596373
 30
0.0
 10
187.7869144678658
 20
13.81321679744538
 30
0.0
 10
187.7537474383334
 20
13.7869109124448
 30
0.0
 10
187.7480653962739
 20
13.8345530903631
 30
0.0
 10
187.7284214559045
 20
13.87180336115074
 30
0.0
 10
187.7095089485622
 20
13.93007387847565
 30
0.0
 10
187.6942849867707
 20
13.97385201007804
 30
0.0
 10
187.6477246372936
 20
14.08759421046313
 30
0.0
 10
187.9890897312449
 20
14.05576301120046
 30
0.0
 10
188.267964936739
 20
14.02161435106478
 30
0.0
 10
188.2617753034907
 20
14.16913976479654
 30
0.0
 10
188.2630935452774
 20
14.24013150908834
 30
0.0
 10
188.262483168995
 20
14.34719767958663
 30
0.0
 10
188.2625871570725
 20
14.47398529785998
 30
0.0
 10
188.2629987964057
 20
14.6084924349605
 30
0.0
 10
188.261390784197
 20
14.73395549951183
 30
0.0
 10
188.2659902567926
 20
14.84505246719115
 30
0.0
 10
188.2564186502211
 20
14.90761886800687
 30
0.0
 10
188.2704001783692
 20
14.96595388294999
 30
0.0
 10
188.2147384386706
 20
14.95289710582236
 30
0.0
 10
188.1575655197821
 20
14.96136307749496
 30
0.0
 10
188.0616048925648
 20
14.95729976080634
 30
0.0
 10
187.9633767522822
 20
14.95970889852472
 30
0.0
 10
187.867258245756
 20
14.95551600613386
 30
0.0
 10
187.8104648525812
 20
14.9642934644116
 30
0.0
 10
187.7550356873385
 20
14.9509493685012
 30
0.0
 10
187.7670679427918
 20
15.00036910959254
 30
0.0
 10
187.7592003173938
 20
15.04393988030393
 30
0.0
 10
187.766629556383
 20
15.08830469118522
 30
0.0
 10
187.7551930564144
 20
15.13902297763989
 30
0.0
 10
187.8232102370134
 20
15.1216246075774
 30
0.0
 10
187.8968496879747
 20
15.13417450237186
 30
0.0
 10
188.0325064058211
 20
15.12799677011094
 30
0.0
 10
188.1884909024526
 20
15.13029203093081
 30
0.0
 10
188.3615926358144
 20
15.12940968262527
 30
0.0
 10
188.5346942964181
 20
15.13029207142405
 30
0.0
 10
188.6906789811217
 20
15.12799662955547
 30
0.0
 10
188.8263351889797
 20
15.13417486262428
 30
0.0
 10
188.8999756705652
 20
15.12162394218332
 30
0.0
 10
188.9679914174724
 20
15.13902373012139
 30
0.0
 10
188.9565590885922
 20
15.08830130414553
 30
0.0
 10
188.9639539458298
 20
15.04397060811106
 30
0.0
 10
188.956203991227
 20
15.00028307550193
 30
0.0
 10
188.9681203741877
 20
14.95063590098475
 30
0.0
 10
188.9108170223616
 20
14.96461411338423
 30
0.0
 10
188.8520145789773
 20
14.95539755673252
 30
0.0
 10
188.75252936332
 20
14.95952268164927
 30
0.0
 10
188.6494280098349
 20
14.95822760025885
 30
0.0
 10
188.5537846354574
 20
14.95854077077638
 30
0.0
 10
188.4857467971617
 20
14.95848776697143
 30
0.0
 10
188.4514462213444
 20
14.95849051871654
 30
0.0
 10
188.4418622390565
 20
14.95849128473262
 30
0.0
 11
188.4418622390565
 21
14.95849128473262
 31
0.0
 11
188.4418622390565
 21
14.92423666587183
 31
0.0
 11
188.4418622390565
 21
14.83392903432973
 31
0.0
 11
188.4418622390565
 21
14.70625272766677
 31
0.0
 11
188.4418622390565
 21
14.55989208344337
 31
0.0
 11
188.4418622390565
 21
14.41353143921997
 31
0.0
 11
188.4418622390565
 21
14.28585513255701
 31
0.0
 11
188.4418622390565
 21
14.19554750101491
 31
0.0
 11
188.4418622390565
 21
14.16129288215412
 31
0.0
 11
188.7391932644568
 21
14.2270947571377
 31
0.0
 11
189.0384623627245
 21
14.29496038212072
 31
0.0
 11
189.0405487124976
 21
14.27030727882828
 31
0.0
 11
189.0451386819987
 21
14.21607045158492
 31
0.0
 11
189.0497286514996
 21
14.16183362434156
 31
0.0
 11
189.0518150012728
 21
14.13718052104912
 31
0.0
 11
188.705639688924
 21
14.05163370140899
 31
0.0
 11
188.3669653138838
 21
13.97060877629901
 31
0.0
 11
188.0563731516688
 21
13.89862764024928
 31
0.0
 11
187.7944444777955
 21
13.84021218778992
 31
0.0
 11
187.7817515029292
 21
13.81283442738012
 31
0.0
 11
187.7569794787514
 21
13.79740260446742
 31
0.0
 11
187.7491867589502
 21
13.81910683390643
 31
0.0
 11
187.7306041194242
 21
13.8708630733379
 31
0.0
 11
187.70842483999
 21
13.93263664943353
 31
0.0
 11
187.689842200464
 21
13.98439288886501
 31
0.0
 11
187.6820494806628
 21
14.00609711830401
 31
0.0
 11
187.9482776335932
 21
14.05794001759666
 31
0.0
 11
188.262633493629
 21
14.12373968771912
 31
0.0
 11
188.262633493629
 21
14.15236628569626
 31
0.0
 11
188.262633493629
 21
14.22908556827501
 31
0.0
 11
188.262633493629
 21
14.34015676842632
 31
0.0
 11
188.262633493629
 21
14.47183911912118
 31
0.0
 11
188.262633493629
 21
14.61039185333055
 31
0.0
 11
188.262633493629
 21
14.74207420402542
 31
0.0
 11
188.262633493629
 21
14.85314540417673
 31
0.0
 11
188.262633493629
 21
14.92986468675548
 31
0.0
 11
188.262633493629
 21
14.95849128473262
 31
0.0
 11
188.2349191321109
 21
14.95849128473262
 31
0.0
 11
188.1634452524064
 21
14.95849128473262
 31
0.0
 11
188.0657156617901
 21
14.95849128473262
 31
0.0
 11
187.9592341675365
 21
14.95849128473262
 31
0.0
 11
187.8615045769201
 21
14.95849128473262
 31
0.0
 11
187.7900306972156
 21
14.95849128473262
 31
0.0
 11
187.7623163356976
 21
14.95849128473262
 31
0.0
 11
187.7623163356976
 21
14.98524451823287
 31
0.0
 11
187.7623163356976
 21
15.04410163193342
 31
0.0
 11
187.7623163356976
 21
15.10295874563396
 31
0.0
 11
187.7623163356976
 21
15.12971197913421
 31
0.0
 11
187.7958758072876
 21
15.12971197913421
 31
0.0
 11
187.8869658016031
 21
15.12971197913421
 31
0.0
 11
188.021203687963
 21
15.12971197913421
 31
0.0
 11
188.1842068356856
 21
15.12971197913421
 31
0.0
 11
188.3615926140897
 21
15.12971197913421
 31
0.0
 11
188.5389783924938
 21
15.12971197913421
 31
0.0
 11
188.7019815402164
 21
15.12971197913421
 31
0.0
 11
188.8362194265763
 21
15.12971197913421
 31
0.0
 11
188.9273094208918
 21
15.12971197913421
 31
0.0
 11
188.9608688924818
 21
15.12971197913421
 31
0.0
 11
188.9608688924818
 21
15.10295874563396
 31
0.0
 11
188.9608688924818
 21
15.04410163193342
 31
0.0
 11
188.9608688924818
 21
14.98524451823287
 31
0.0
 11
188.9608688924818
 21
14.95849128473262
 31
0.0
 11
188.9321192527877
 21
14.95849128473262
 31
0.0
 11
188.8579754451555
 21
14.95849128473262
 31
0.0
 11
188.7565951367605
 21
14.95849128473262
 31
0.0
 11
188.6461359947778
 21
14.95849128473262
 31
0.0
 11
188.5447556863828
 21
14.95849128473262
 31
0.0
 11
188.4706118787506
 21
14.95849128473262
 31
0.0
 11
188.4418622390565
 21
14.95849128473262
 31
0.0
  0
SPLINE
  5
AD
102
{ACAD_REACTORS
330
CA
102
}
330
48
100
AcDbEntity
  8
_U_30EC_U_30A4_U_30E4_U_30FC_1
  6
Continuous
 62
     2
100
AcDbSpline
210
0.0
220
0.0
230
1.0
 70
    11
 71
     3
 72
    15
 73
    11
 74
     9
 42
0.000000001
 43
0.0000000001
 44
0.00000001
 40
0.0
 40
0.0
 40
0.0
 40
0.0
 40
0.2785535985096223
 40
0.5215624748198473
 40
0.6076917376039939
 40
0.693821000174049
 40
0.9405019146453812
 40
1.221691403489055
 40
1.300471877080996
 40
1.379252341684809
 40
1.379252341684809
 40
1.379252341684809
 40
1.379252341684809
 10
189.5681493631
 20
16.22930267330382
 30
0.0
 10
189.6296017794179
 20
16.17691646592716
 30
0.0
 10
189.7446649974114
 20
16.07882876798221
 30
0.0
 10
190.0397348497243
 20
15.92889785897218
 30
0.0
 10
189.9025147631857
 20
15.84343227515014
 30
0.0
 10
189.8041227843778
 20
15.71085785201559
 30
0.0
 10
189.7130033590651
 20
16.01616985781426
 30
0.0
 10
189.3636839480655
 20
16.07967869465374
 30
0.0
 10
189.511925837657
 20
16.17896509880879
 30
0.0
 10
189.5494081874237
 20
16.21252348402384
 30
0.0
 10
189.5681493631
 20
16.22930267330382
 30
0.0
 11
189.5681493631
 21
16.22930267330382
 31
0.0
 11
189.7919222440596
 21
16.06341774278972
 31
0.0
 11
189.9695046306383
 21
15.89753281227561
 31
0.0
 11
189.9066308127979
 21
15.83866743034591
 31
0.0
 11
189.8437569949575
 21
15.77980204841622
 31
0.0
 11
189.6688535117725
 21
15.95375677059492
 31
0.0
 11
189.447825685614
 21
16.12757920110703
 31
0.0
 11
189.507987524357
 21
16.17844093720542
 31
0.0
 11
189.5681493631
 21
16.22930267330382
 31
0.0
  0
SPLINE
  5
AE
102
{ACAD_REACTORS
330
CB
102
}
330
48
100
AcDbEntity
  8
_U_30EC_U_30A4_U_30E4_U_30FC_1
  6
Continuous
 62
     2
100
AcDbSpline
210
0.0
220
0.0
230
1.0
 70
    11
 71
     3
 72
    35
 73
    31
 74
    29
 42
0.000000001
 43
0.0000000001
 44
0.00000001
 40
0.0
 40
0.0
 40
0.0
 40
0.0
 40
0.0335231036621678
 40
0.0713218571712253
 40
0.4278866681486672
 40
0.8116865841963548
 40
1.198190238000015
 40
1.561379546812629
 40
1.659983174622055
 40
1.7593155738072
 40
2.132719617231086
 40
2.525233363588822
 40
2.910815397779735
 40
3.265244364303332
 40
3.592606723582064
 40
3.964386154603991
 40
4.359942131737824
 40
4.758154118639297
 40
4.843846538699874
 40
4.93665006554323
 40
5.256616602537289
 40
5.581707404415989
 40
5.899719158308127
 40
6.198363494280704
 40
6.466301046615802
 40
6.493895311537123
 40
6.559697020196915
 40
6.63823454344249
 40
6.70403625215427
 40
6.731630508423048
 40
6.731630508423048
 40
6.731630508423048
 40
6.731630508423048
 10
191.973601056867
 20
16.23463843719142
 30
0.0
 10
191.967600609779
 20
16.22480690542329
 30
0.0
 10
191.9548344099157
 20
16.20388988579804
 30
0.0
 10
191.7949362006556
 20
16.17127126532679
 30
0.0
 10
192.2322025842337
 20
15.88206680336707
 30
0.0
 10
192.4345394828262
 20
15.68041138358439
 30
0.0
 10
192.6819564267973
 20
15.43749387603278
 30
0.0
 10
193.1831513624606
 20
15.3604766275778
 30
0.0
 10
193.012556219897
 20
15.21876939174658
 30
0.0
 10
192.9383299463201
 20
15.01710366209101
 30
0.0
 10
192.6131432248188
 20
15.3695628717473
 30
0.0
 10
192.3277741670665
 20
15.53175212559567
 30
0.0
 10
192.0337604077658
 20
15.73687130053049
 30
0.0
 10
191.8084452691134
 20
16.21827488595461
 30
0.0
 10
191.5993085055522
 20
15.75343046609224
 30
0.0
 10
191.3207873674835
 20
15.54350952252911
 30
0.0
 10
191.037138317721
 20
15.3742445635999
 30
0.0
 10
190.7078639527831
 20
15.00142360907942
 30
0.0
 10
190.6277012318225
 20
15.19708014459007
 30
0.0
 10
190.4759724909745
 20
15.32491104190599
 30
0.0
 10
190.9083395826795
 20
15.40454031765936
 30
0.0
 10
191.0962565329766
 20
15.60026634915475
 30
0.0
 10
191.3468477420504
 20
15.81632996916751
 30
0.0
 10
191.5714350470161
 20
15.98190992300064
 30
0.0
 10
191.6259775409715
 20
16.26133964636832
 30
0.0
 10
191.7494661029012
 20
16.24737950408083
 30
0.0
 10
191.8060273344521
 20
16.24521268867653
 30
0.0
 10
191.8761870984946
 20
16.24046859881367
 30
0.0
 10
191.9333414022106
 20
16.23709429350549
 30
0.0
 10
191.964419032084
 20
16.23519854711127
 30
0.0
 10
191.973601056867
 20
16.23463843719142
 30
0.0
 11
191.973601056867
 21
16.23463843719142
 31
0.0
 11
191.9525319069884
 21
16.20856374969787
 31
0.0
 11
191.9174464559426
 21
16.19450114553472
 31
0.0
 11
192.1512374769095
 21
15.92527961131385
 31
0.0
 11
192.4414585957566
 21
15.67413407969262
 31
0.0
 11
192.7612797483684
 21
15.45710987618786
 31
0.0
 11
193.0838708706289
 21
15.29025232631642
 31
0.0
 11
193.0213299868076
 21
15.21402035584928
 31
0.0
 11
192.9688035818975
 21
15.12971197913421
 31
0.0
 11
192.6436279095814
 21
15.31326404831582
 31
0.0
 11
192.3237227768436
 21
15.54070139743432
 31
0.0
 11
192.0354200158608
 21
15.79673855123314
 31
0.0
 11
191.8050514588095
 21
16.06609003445571
 31
0.0
 11
191.5995531719516
 21
15.81126348721037
 31
0.0
 11
191.3288301341536
 21
15.55645182277757
 31
0.0
 11
191.0119538423247
 21
15.31969466354859
 31
0.0
 11
190.6679957933742
 21
15.11903163191472
 31
0.0
 11
190.6218855341339
 21
15.19126067703557
 31
0.0
 11
190.5636970460349
 21
15.26355586798972
 31
0.0
 11
190.8433040489016
 21
15.41911456961746
 31
0.0
 11
191.1093004621155
 21
15.60601009790404
 31
0.0
 11
191.3499997459747
 21
15.81384496285208
 31
0.0
 11
191.5537153607775
 21
16.03222167446417
 31
0.0
 11
191.7087607668219
 21
16.25074274274292
 31
0.0
 11
191.7363041569866
 21
16.24906789496556
 31
0.0
 11
191.8019845489178
 21
16.24507402718879
 31
0.0
 11
191.8803772747711
 21
16.24030715274555
 31
0.0
 11
191.9460576667023
 21
16.23631328496878
 31
0.0
 11
191.973601056867
 21
16.23463843719142
 31
0.0
  0
SPLINE
  5
AF
102
{ACAD_REACTORS
330
CC
102
}
330
48
100
AcDbEntity
  8
_U_30EC_U_30A4_U_30E4_U_30FC_1
  6
Continuous
 62
     2
100
AcDbSpline
210
0.0
220
0.0
230
1.0
 70
    11
 71
     3
 72
    91
 73
    87
 74
    85
 42
0.000000001
 43
0.0000000001
 44
0.00000001
 40
0.0
 40
0.0
 40
0.0
 40
0.0
 40
0.0267532254356808
 40
0.0856103386464457
 40
0.1444674521997225
 40
0.1712206856619225
 40
0.2039416005643247
 40
0.2955601971653194
 40
0.4362601844617628
 40
0.616225284450796
 40
0.8256392189705408
 40
1.054685709844482
 40
1.293548478893545
 40
1.532411247938289
 40
1.761457738799554
 40
1.970871673298522
 40
2.150836773256718
 40
2.291536760495551
 40
2.383155356836657
 40
2.415876284101278
 40
2.442629517487933
 40
2.501486630949088
 40
2.56034374442426
 40
2.587096977826543
 40
2.617068194440942
 40
2.699247336756083
 40
2.822032643466396
 40
2.973822353257897
 40
3.143014704823339
 40
3.31800793687989
 40
3.487200288186723
 40
3.638989997548204
 40
3.761775303794674
 40
3.843954445753009
 40
3.873925662229705
 40
3.890812773500417
 40
3.907699884771573
 40
3.937960767857159
 40
3.980983618142165
 40
4.199085915228332
 40
4.439444339237122
 40
4.677588241260744
 40
5.05069831783763
 40
5.448212454762987
 40
5.85529121804454
 40
6.138575438885243
 40
6.417434507584043
 40
6.444551104393704
 40
6.504207617362986
 40
6.563864130314315
 40
6.590980727103886
 40
6.84860946038128
 40
7.109611990668204
 40
7.352910904445902
 40
7.557830220705308
 40
7.587518925913224
 40
7.652834077375661
 40
7.71814922884564
 40
7.747837934061941
 40
7.854880190300891
 40
7.976511257403394
 40
8.369487896592167
 40
8.757514959223489
 40
9.126072419330951
 40
9.460639380392013
 40
9.746695593035641
 40
9.777569943118463
 40
9.807050320931602
 40
9.830377336128741
 40
9.886003295435827
 40
9.952395569429756
 40
10.00802152870613
 40
10.03134854388205
 40
10.21356951009579
 40
10.4220347929285
 40
10.66154556731048
 40
10.91693789564292
 40
11.15832906556551
 40
11.18982674596606
 40
11.27286608520393
 40
11.39026653033338
 40
11.52484752840872
 40
11.65942852648428
 40
11.77682897161469
 40
11.85986831085666
 40
11.89136598230411
 40
11.89136598230411
 40
11.89136598230411
 40
11.89136598230411
 10
190.7027885008197
 20
14.70699600701772
 30
0.0
 10
190.7028237765289
 20
14.71587847311986
 30
0.0
 10
190.7029366710797
 20
14.74430237047348
 30
0.0
 10
190.701298456849
 20
14.79409639169807
 30
0.0
 10
190.7069750292911
 20
14.8365756447816
 30
0.0
 10
190.6956928731707
 20
14.88730154856854
 30
0.0
 10
190.7632296979033
 20
14.87012900740116
 30
0.0
 10
190.8388029210701
 20
14.88290227166003
 30
0.0
 10
190.9828357056001
 20
14.87629729457389
 30
0.0
 10
191.1569419185428
 20
14.87888462206473
 30
0.0
 10
191.3639599611004
 20
14.8780059195556
 30
0.0
 10
191.5894688172378
 20
14.87828207920034
 30
0.0
 10
191.8251162293406
 20
14.87818339658669
 30
0.0
 10
192.0607640531349
 20
14.87828184412775
 30
0.0
 10
192.2862717580626
 20
14.87800678190796
 30
0.0
 10
192.4932934632805
 20
14.87888186270741
 30
0.0
 10
192.6673888915288
 20
14.87630522678454
 30
0.0
 10
192.8114492071986
 20
14.8828829044922
 30
0.0
 10
192.8869691915293
 20
14.87016243405611
 30
0.0
 10
192.9545776037029
 20
14.88726400191693
 30
0.0
 10
192.9430840140676
 20
14.83674785802945
 30
0.0
 10
192.9505104581733
 20
14.79253252226505
 30
0.0
 10
192.9428838927986
 20
14.74867966503612
 30
0.0
 10
192.9546489459425
 20
14.69878374479329
 30
0.0
 10
192.8930788491983
 20
14.71393227712512
 30
0.0
 10
192.8256791738672
 20
14.70310665350674
 30
0.0
 10
192.7013004056221
 20
14.70852031626236
 30
0.0
 10
192.5554428236571
 20
14.70649205390785
 30
0.0
 10
192.3893576440086
 20
14.70715777578387
 30
0.0
 10
192.2188412621725
 20
14.70689643521242
 30
0.0
 10
192.051979085539
 20
14.70721553391094
 30
0.0
 10
191.9087346827106
 20
14.70635302590762
 30
0.0
 10
191.7773313869835
 20
14.70863300482988
 30
0.0
 10
191.7239859134657
 20
14.70407704374201
 30
0.0
 10
191.6485188456914
 20
14.70999914992878
 30
0.0
 10
191.6769075779233
 20
14.70094169343352
 30
0.0
 10
191.7033652409543
 20
14.69725912268924
 30
0.0
 10
191.6633522907701
 20
14.66654271968281
 30
0.0
 10
191.571366369187
 20
14.67667591174627
 30
0.0
 10
191.5439396207069
 20
14.43032502247791
 30
0.0
 10
191.4478793967235
 20
14.27499558764374
 30
0.0
 10
191.1917277964474
 20
13.94525417931572
 30
0.0
 10
191.7627537732764
 20
14.08430022210453
 30
0.0
 10
192.0173656320516
 20
14.08291779973367
 30
0.0
 10
192.6279647048618
 20
13.99790569242084
 30
0.0
 10
192.3340698578084
 20
14.29685417558206
 30
0.0
 10
192.0133304286518
 20
14.44330856901774
 30
0.0
 10
192.1313543360434
 20
14.50025540818287
 30
0.0
 10
192.1724716466261
 20
14.5242009987335
 30
0.0
 10
192.2156812394412
 20
14.54599758811231
 30
0.0
 10
192.317457409445
 20
14.60928721253912
 30
0.0
 10
192.4328867625248
 20
14.35147151408782
 30
0.0
 10
192.6329591642277
 20
14.21616041113681
 30
0.0
 10
192.7269077387226
 20
14.03792795138882
 30
0.0
 10
192.9558829746395
 20
13.87997821027052
 30
0.0
 10
192.8596031846708
 20
13.82915972576303
 30
0.0
 10
192.8167959763779
 20
13.79881292523058
 30
0.0
 10
192.771824352878
 20
13.77466130281466
 30
0.0
 10
192.7121720925213
 20
13.72552146747573
 30
0.0
 10
192.6789731061325
 20
13.85997475673613
 30
0.0
 10
192.5582013350795
 20
14.01594265286578
 30
0.0
 10
192.1970976005979
 20
13.88569928059556
 30
0.0
 10
191.838506195554
 20
13.90224694409484
 30
0.0
 10
191.4570920450081
 20
13.89331229351863
 30
0.0
 10
191.170345528289
 20
13.82882671672417
 30
0.0
 10
190.8592055599718
 20
13.94230668192807
 30
0.0
 10
190.8268737818788
 20
13.8312225992777
 30
0.0
 10
190.7896178253318
 20
13.81196313850008
 30
0.0
 10
190.7865737632754
 20
13.85874784087295
 30
0.0
 10
190.7679892860607
 20
13.89806853919134
 30
0.0
 10
190.7512436616778
 20
13.95765983478233
 30
0.0
 10
190.7383730915753
 20
14.00201969871284
 30
0.0
 10
190.7042327806429
 20
14.09106331120205
 30
0.0
 10
190.9482714457753
 20
14.02181042943771
 30
0.0
 10
191.1441394486671
 20
14.00030369057748
 30
0.0
 10
191.2395426381276
 20
14.28226484478464
 30
0.0
 10
191.2945135769598
 20
14.44363045421124
 30
0.0
 10
191.5159619357157
 20
14.71391177589738
 30
0.0
 10
191.3849239381217
 20
14.70548446853735
 30
0.0
 10
191.3110026555855
 20
14.70779008496969
 30
0.0
 10
191.1977459876244
 20
14.70671378321658
 30
0.0
 10
191.0694251807485
 20
14.7070763907651
 30
0.0
 10
190.9404252030416
 20
14.70697724466085
 30
0.0
 10
190.8287840946292
 20
14.70699932712572
 30
0.0
 10
190.7514663970028
 20
14.7069957918967
 30
0.0
 10
190.7132876532011
 20
14.70699595845081
 30
0.0
 10
190.7027885008197
 20
14.70699600701772
 30
0.0
 11
190.7027885008197
 21
14.70699600701772
 31
0.0
 11
190.7027885008197
 21
14.73374924051799
 31
0.0
 11
190.7027885008197
 21
14.79260635421857
 31
0.0
 11
190.7027885008197
 21
14.85146346791915
 31
0.0
 11
190.7027885008197
 21
14.87821670141942
 31
0.0
 11
190.735509428099
 21
14.87821670141942
 31
0.0
 11
190.827128024481
 21
14.87821670141942
 31
0.0
 11
190.967828011782
 21
14.87821670141942
 31
0.0
 11
191.1477931118181
 21
14.87821670141942
 31
0.0
 11
191.3572070464055
 21
14.87821670141942
 31
0.0
 11
191.5862535373605
 21
14.87821670141942
 31
0.0
 11
191.8251163064993
 21
14.87821670141942
 31
0.0
 11
192.0639790756381
 21
14.87821670141942
 31
0.0
 11
192.2930255665931
 21
14.87821670141942
 31
0.0
 11
192.5024395011806
 21
14.87821670141942
 31
0.0
 11
192.6824046012167
 21
14.87821670141942
 31
0.0
 11
192.8231045885176
 21
14.87821670141942
 31
0.0
 11
192.9147231848996
 21
14.87821670141942
 31
0.0
 11
192.9474441121789
 21
14.87821670141942
 31
0.0
 11
192.9474441121789
 21
14.85146346791915
 31
0.0
 11
192.9474441121789
 21
14.79260635421857
 31
0.0
 11
192.9474441121789
 21
14.73374924051799
 31
0.0
 11
192.9474441121789
 21
14.70699600701772
 31
0.0
 11
192.9174728954758
 21
14.70699600701772
 31
0.0
 11
192.8352937529027
 21
14.70699600701772
 31
0.0
 11
192.712508445764
 21
14.70699600701772
 31
0.0
 11
192.5607187353642
 21
14.70699600701772
 31
0.0
 11
192.3915263830078
 21
14.70699600701772
 31
0.0
 11
192.2165331499992
 21
14.70699600701772
 31
0.0
 11
192.0473407976427
 21
14.70699600701772
 31
0.0
 11
191.8955510872429
 21
14.70699600701772
 31
0.0
 11
191.7727657801043
 21
14.70699600701772
 31
0.0
 11
191.6905866375311
 21
14.70699600701772
 31
0.0
 11
191.660615420828
 21
14.70699600701772
 31
0.0
 11
191.6766359412526
 21
14.70165583340792
 31
0.0
 11
191.6926564616772
 21
14.69631565979812
 31
0.0
 11
191.6706155681421
 21
14.67558114591446
 31
0.0
 11
191.6284861855364
 21
14.66685871536112
 31
0.0
 11
191.5365235541378
 21
14.46909247312658
 31
0.0
 11
191.4279078521764
 21
14.25467511978508
 31
0.0
 11
191.3127500824808
 21
14.04622559051622
 31
0.0
 11
191.6857366675021
 21
14.05582441253031
 31
0.0
 11
192.0830700036151
 21
14.06781232404997
 31
0.0
 11
192.4899342191146
 21
14.08102711828532
 31
0.0
 11
192.2983119496979
 21
14.28966761302482
 31
0.0
 11
192.0966752013699
 21
14.48229420151831
 31
0.0
 11
192.120494779475
 21
14.49525327269564
 31
0.0
 11
192.1728978513062
 21
14.52376322928577
 31
0.0
 11
192.2253009231374
 21
14.5522731858759
 31
0.0
 11
192.2491205012425
 21
14.56523225705323
 31
0.0
 11
192.4387101558627
 21
14.39079508370269
 31
0.0
 11
192.6200310940435
 21
14.20305846374092
 31
0.0
 11
192.7777729231147
 21
14.01782380992437
 31
0.0
 11
192.8966252504059
 21
13.85089253500952
 31
0.0
 11
192.8715408217924
 21
13.83501202286072
 31
0.0
 11
192.8163550788426
 21
13.80007489613337
 31
0.0
 11
192.7611693358928
 21
13.76513776940601
 31
0.0
 11
192.7360849072793
 21
13.74925725725721
 31
0.0
 11
192.6775518151612
 21
13.83887824681814
 31
0.0
 11
192.6050015078457
 21
13.93650288221032
 31
0.0
 11
192.2125412924095
 21
13.91636286943759
 31
0.0
 11
191.824947406956
 21
13.89803302999773
 31
0.0
 11
191.4567378976213
 21
13.88202178722396
 31
0.0
 11
191.1224308105412
 21
13.86883756444948
 31
0.0
 11
190.8365441918519
 21
13.85898878500751
 31
0.0
 11
190.821186232174
 21
13.83220523466696
 31
0.0
 11
190.7937434290546
 21
13.82143559057242
 31
0.0
 11
190.7867927192319
 21
13.84370299445575
 31
0.0
 11
190.7702179496548
 21
13.89680218833137
 31
0.0
 11
190.7504351601596
 21
13.96017864553777
 31
0.0
 11
190.7338603905825
 21
14.01327783941339
 31
0.0
 11
190.7269096807598
 21
14.03554524329672
 31
0.0
 11
190.9091199859153
 21
14.03751638912954
 31
0.0
 11
191.1174975848587
 21
14.04356211829472
 31
0.0
 11
191.2303203127216
 21
14.25483550301555
 31
0.0
 11
191.3407936722035
 21
14.48509813155882
 31
0.0
 11
191.4358254265628
 21
14.70699600701772
 31
0.0
 11
191.4043277461598
 21
14.70699600701772
 31
0.0
 11
191.3212884069154
 21
14.70699600701772
 31
0.0
 11
191.2038879617769
 21
14.70699600701772
 31
0.0
 11
191.0693069636912
 21
14.70699600701772
 31
0.0
 11
190.9347259656056
 21
14.70699600701772
 31
0.0
 11
190.8173255204671
 21
14.70699600701772
 31
0.0
 11
190.7342861812227
 21
14.70699600701772
 31
0.0
 11
190.7027885008197
 21
14.70699600701772
 31
0.0
  0
SPLINE
  5
B0
102
{ACAD_REACTORS
330
CD
102
}
330
48
100
AcDbEntity
  8
_U_30EC_U_30A4_U_30E4_U_30FC_1
  6
Continuous
 62
     2
100
AcDbSpline
210
0.0
220
0.0
230
1.0
 70
    11
 71
     3
 72
   131
 73
   127
 74
   125
 42
0.000000001
 43
0.0000000001
 44
0.00000001
 40
0.0
 40
0.0
 40
0.0
 40
0.0
 40
0.0195577029826492
 40
0.0426490537462338
 40
0.2863607575857202
 40
0.5344948436190091
 40
0.784223884557396
 40
0.873731578946829
 40
0.9803832810314198
 40
1.092842274517162
 40
1.199761146656917
 40
1.28978876818664
 40
1.351573580786325
 40
1.370727117561575
 40
1.416400936018021
 40
1.470914848356183
 40
1.516588666792021
 40
1.535742203553109
 40
1.634216592293416
 40
1.760283341175262
 40
1.897966686682382
 40
2.031216387369215
 40
2.04968975113821
 40
2.101115601647148
 40
2.179502577740269
 40
2.278859318314387
 40
2.39319446225905
 40
2.516516648384169
 40
2.642834515406301
 40
2.766156701983812
 40
2.880491846754932
 40
2.979848588358978
 40
3.058235565444159
 40
3.109661416669317
 40
3.128134780704492
 40
3.146783742386809
 40
3.19125434331567
 40
3.244332157316329
 40
3.288802758226232
 40
3.307451719895475
 40
3.327717853845089
 40
3.383747753580449
 40
3.468388665924845
 40
3.574487837699154
 40
3.694892515729261
 40
3.822449946852403
 40
3.950007377920798
 40
4.070412055800892
 40
4.176511227368451
 40
4.261152139501901
 40
4.317182039077094
 40
4.337448172965015
 40
4.620011002696625
 40
4.885096638397815
 40
4.945373043518656
 40
5.01410771048898
 40
5.070481727652376
 40
5.31924695563684
 40
5.584812164506322
 40
5.859000912057184
 40
6.133746937542299
 40
6.401732212969065
 40
6.420736683995655
 40
6.472845717451306
 40
6.550702743894234
 40
6.646951193874442
 40
6.754234497930766
 40
6.865196086587544
 40
6.972479390358003
 40
7.068727839772165
 40
7.146584865451174
 40
7.198693898189403
 40
7.217698368905544
 40
7.234950401631033
 40
7.276089864270106
 40
7.325191803516245
 40
7.366331266090659
 40
7.383583298770023
 40
7.4027791634924
 40
7.453386443254831
 40
7.524934666445833
 40
7.606953361406172
 40
7.688972056429324
 40
7.760520279784575
 40
7.811127559734817
 40
7.830323424546438
 40
7.847844055300066
 40
7.894799345667104
 40
7.962779392744786
 40
8.043374293560827
 40
8.128174145149726
 40
8.208769044817524
 40
8.276749090377221
 40
8.32370437966978
 40
8.34122501005651
 40
8.358497614800658
 40
8.401679126686863
 40
8.457815092185921
 40
8.513951057728326
 40
8.557132569708282
 40
8.574405174505324
 40
8.60234066861666
 40
8.643455660540257
 40
8.66322527196692
 40
8.715345156564561
 40
8.789031889628886
 40
8.8735020455206
 40
8.957972194324212
 40
9.031658925568093
 40
9.083778811234774
 40
9.103548423003234
 40
9.119550083123771
 40
9.160817522380073
 40
9.217244429110439
 40
9.278724491644924
 40
9.335151398295709
 40
9.376418837358004
 40
9.392420497300792
 40
9.401196302735002
 40
9.417494229384463
 40
9.426270027749727
 40
9.440875075477754
 40
9.475702496998924
 40
9.517270709866077
 40
9.552098131994235
 40
9.56670316988444
 40
9.56670316988444
 40
9.56670316988444
 40
9.56670316988444
 10
194.6170254148479
 20
15.67015871511032
 30
0.0
 10
194.6134345093371
 20
15.66453690702162
 30
0.0
 10
194.6056039123625
 20
15.6522775441911
 30
0.0
 10
194.5129968974543
 20
15.6160191604101
 30
0.0
 10
194.4887622233249
 20
15.40148444212699
 30
0.0
 10
194.3858709845939
 20
15.22197284509716
 30
0.0
 10
194.1220492364305
 20
15.03615573798145
 30
0.0
 10
194.284547156918
 20
14.95959336566084
 30
0.0
 10
194.3607225760839
 20
14.89856693195448
 30
0.0
 10
194.4492171072759
 20
14.83515804544765
 30
0.0
 10
194.5389930233111
 20
14.77525634219565
 30
0.0
 10
194.5883817636047
 20
14.72102154849215
 30
0.0
 10
194.6745708157383
 20
14.6928624054184
 30
0.0
 10
194.641126067423
 20
14.65713309652819
 30
0.0
 10
194.6214671166311
 20
14.62550387991912
 30
0.0
 10
194.5919888217883
 20
14.5847587279607
 30
0.0
 10
194.5688989446031
 20
14.55504663489646
 30
0.0
 10
194.5380205968358
 20
14.50211422668495
 30
0.0
 10
194.472919336574
 20
14.62740334938904
 30
0.0
 10
194.3796000122416
 20
14.68213900233936
 30
0.0
 10
194.2950636285138
 20
14.73916423939343
 30
0.0
 10
194.1722498125742
 20
14.89675287427529
 30
0.0
 10
194.1764450847301
 20
14.82035806766841
 30
0.0
 10
194.1751478652677
 20
14.773612801613
 30
0.0
 10
194.1758126448077
 20
14.69584785812605
 30
0.0
 10
194.1755549986957
 20
14.59902068324426
 30
0.0
 10
194.1756431239921
 20
14.48650279078813
 30
0.0
 10
194.1756077302281
 20
14.36524085945702
 30
0.0
 10
194.1756511758279
 20
14.24086897858963
 30
0.0
 10
194.1755199942405
 20
14.11967683631337
 30
0.0
 10
194.1759477562046
 20
14.00691148919745
 30
0.0
 10
194.174667820231
 20
13.91082913768744
 30
0.0
 10
194.1779759851044
 20
13.831138264687
 30
0.0
 10
194.1715197740086
 20
13.78815175788784
 30
0.0
 10
194.1806208705556
 20
13.74955432372043
 30
0.0
 10
194.1447910339935
 20
13.7581088772407
 30
0.0
 10
194.1115223815252
 20
13.75342519985447
 30
0.0
 10
194.060456257604
 20
13.75351298759784
 30
0.0
 10
194.0269723972813
 20
13.75794430283821
 30
0.0
 10
193.9907585408753
 20
13.74960793842509
 30
0.0
 10
194.0009782568666
 20
13.79145277179285
 30
0.0
 10
193.9936487887773
 20
13.83778560820174
 30
0.0
 10
193.9973633136102
 20
13.92374831106015
 30
0.0
 10
193.9959480554896
 20
14.0260514270485
 30
0.0
 10
193.9964105554639
 20
14.14453223931513
 30
0.0
 10
193.996277368623
 20
14.26957683153357
 30
0.0
 10
193.9963015910045
 20
14.39475828107052
 30
0.0
 10
193.9963354925551
 20
14.5128664537906
 30
0.0
 10
193.9962060293132
 20
14.61628748709518
 30
0.0
 10
193.9965507549081
 20
14.69932036153669
 30
0.0
 10
193.9958698278689
 20
14.75143368521246
 30
0.0
 10
193.9994586600625
 20
14.87912907821364
 30
0.0
 10
193.7826171386435
 20
14.58048716819628
 30
0.0
 10
193.6021354921953
 20
14.3526398151152
 30
0.0
 10
193.5490322295612
 20
14.49373443289815
 30
0.0
 10
193.5200429133149
 20
14.54325767560946
 30
0.0
 10
193.4196648062822
 20
14.64641779790113
 30
0.0
 10
193.7405127723262
 20
14.72695035023784
 30
0.0
 10
193.868989700543
 20
14.91066283036436
 30
0.0
 10
194.090645432536
 20
15.11931995771759
 30
0.0
 10
194.1770224894069
 20
15.29339211228346
 30
0.0
 10
194.4549394229074
 20
15.56967051342507
 30
0.0
 10
194.3346247839284
 20
15.5653455955111
 30
0.0
 10
194.2863197351349
 20
15.56614856202548
 30
0.0
 10
194.2102377454905
 20
15.56574582146581
 30
0.0
 10
194.116701000975
 20
15.56590275611605
 30
0.0
 10
194.0117594788557
 20
15.5658250257622
 30
0.0
 10
193.9033887738717
 20
15.5659546437855
 30
0.0
 10
193.7981454235897
 20
15.56554393490688
 30
0.0
 10
193.7056237819413
 20
15.56682073671587
 30
0.0
 10
193.6268130800707
 20
15.56340766534846
 30
0.0
 10
193.583967456538
 20
15.57023350036316
 30
0.0
 10
193.5449499586515
 20
15.56065064201119
 30
0.0
 10
193.5526365271864
 20
15.59420779565541
 30
0.0
 10
193.5485464404312
 20
15.62523550322233
 30
0.0
 10
193.5485531368814
 20
15.67236529270903
 30
0.0
 10
193.5526239724912
 20
15.70340941646784
 30
0.0
 10
193.5449495574582
 20
15.73701861635908
 30
0.0
 10
193.5834819405495
 20
15.72748410420879
 30
0.0
 10
193.6241228014479
 20
15.73397435498077
 30
0.0
 10
193.6951471850463
 20
15.73100150650261
 30
0.0
 10
193.7729318149633
 20
15.73174761399164
 30
0.0
 10
193.8507292246474
 20
15.73247814044532
 30
0.0
 10
193.9217232089907
 20
15.72954235514167
 30
0.0
 10
193.962427979182
 20
15.73595468772958
 30
0.0
 10
194.0009853489909
 20
15.72650524176011
 30
0.0
 10
193.9927342754928
 20
15.7626469215879
 30
0.0
 10
193.9982346669358
 20
15.80129837613234
 30
0.0
 10
193.9955754206163
 20
15.86913528561844
 30
0.0
 10
193.9965815471533
 20
15.94591641538745
 30
0.0
 10
193.9960178018319
 20
16.02849393582762
 30
0.0
 10
193.9970714526592
 20
16.10517329229882
 30
0.0
 10
193.9942675863131
 20
16.17331990776703
 30
0.0
 10
194.0000702721303
 20
16.21132399809349
 30
0.0
 10
193.9915654551159
 20
16.24758448077649
 30
0.0
 10
194.0255610233125
 20
16.23755723771855
 30
0.0
 10
194.0594575683099
 20
16.2407326681371
 30
0.0
 10
194.1126669060346
 20
16.23508965640611
 30
0.0
 10
194.1660768574483
 20
16.23434774436427
 30
0.0
 10
194.199591464949
 20
16.22819223482981
 30
0.0
 10
194.2388086183039
 20
16.23346029773594
 30
0.0
 10
194.2120263698492
 20
16.19253380793486
 30
0.0
 10
194.1708111001724
 20
16.20371204538113
 30
0.0
 10
194.1782641540873
 20
16.15867056192123
 30
0.0
 10
194.1742227952184
 20
16.11412278028146
 30
0.0
 10
194.176171404964
 20
16.04223572621705
 30
0.0
 10
194.1752364849758
 20
15.96168630588774
 30
0.0
 10
194.176510719003
 20
15.88173995404999
 30
0.0
 10
194.1732043793864
 20
15.80841837083189
 30
0.0
 10
194.1802106179961
 20
15.76688643002574
 30
0.0
 10
194.1701440380126
 20
15.7275241856812
 30
0.0
 10
194.2029814803921
 20
15.73468063430988
 30
0.0
 10
194.236457729648
 20
15.73027243137951
 30
0.0
 10
194.2915053476019
 20
15.73217943347905
 30
0.0
 10
194.3489502595314
 20
15.73185366407295
 30
0.0
 10
194.4023026248309
 20
15.73106308733089
 30
0.0
 10
194.4398540896638
 20
15.7331395911808
 30
0.0
 10
194.4623172523237
 20
15.73022338167117
 30
0.0
 10
194.475167807373
 20
15.73572552644059
 30
0.0
 10
194.4858255685889
 20
15.73801118197792
 30
0.0
 10
194.4986635650143
 20
15.74494972588048
 30
0.0
 10
194.5145991033071
 20
15.72853046313672
 30
0.0
 10
194.5410623920891
 20
15.71709122319447
 30
0.0
 10
194.5726805253758
 20
15.69644687835192
 30
0.0
 10
194.5987255892152
 20
15.68116869628298
 30
0.0
 10
194.6128517723972
 20
15.67266976323188
 30
0.0
 10
194.6170254148479
 20
15.67015871511032
 30
0.0
 11
194.6170254148479
 21
15.67015871511032
 31
0.0
 11
194.6049990002243
 21
15.65473571164188
 31
0.0
 11
194.5848961795564
 21
15.64337406233922
 31
0.0
 11
194.4778986355813
 21
15.42440620231161
 31
0.0
 11
194.3477039934324
 21
15.21317201512162
 31
0.0
 11
194.1996540366071
 21
15.01206059027481
 31
0.0
 11
194.2734958253735
 21
14.96147384935382
 31
0.0
 11
194.3605664311801
 21
14.89988411653744
 31
0.0
 11
194.4518003750405
 21
14.83413160594431
 31
0.0
 11
194.5381321779688
 21
14.7710565316931
 31
0.0
 11
194.6104963609788
 21
14.71749910790248
 31
0.0
 11
194.6598274450844
 21
14.68029954869112
 31
0.0
 11
194.6486940702214
 21
14.66471410869501
 31
0.0
 11
194.6221452532403
 21
14.62754882870428
 31
0.0
 11
194.5904579555533
 21
14.58319026871535
 31
0.0
 11
194.5639091385723
 21
14.54602498872463
 31
0.0
 11
194.5527757637093
 21
14.53043954872852
 31
0.0
 11
194.4807013362948
 21
14.59754008690617
 31
0.0
 11
194.3852856985381
 21
14.6799335417467
 31
0.0
 11
194.279326415217
 21
14.7678501736692
 31
0.0
 11
194.175621051109
 21
14.85152024309272
 31
0.0
 11
194.175621051109
 21
14.83304687900868
 31
0.0
 11
194.175621051109
 21
14.7816210276396
 31
0.0
 11
194.175621051109
 21
14.70323405031003
 31
0.0
 11
194.175621051109
 21
14.60387730834453
 31
0.0
 11
194.175621051109
 21
14.48954216306764
 31
0.0
 11
194.175621051109
 21
14.36621997580392
 31
0.0
 11
194.175621051109
 21
14.23990210787792
 31
0.0
 11
194.175621051109
 21
14.11657992061421
 31
0.0
 11
194.175621051109
 21
14.00224477533731
 31
0.0
 11
194.175621051109
 21
13.90288803337181
 31
0.0
 11
194.175621051109
 21
13.82450105604224
 31
0.0
 11
194.175621051109
 21
13.77307520467316
 31
0.0
 11
194.175621051109
 21
13.75460184058912
 31
0.0
 11
194.1569720893626
 21
13.75460184058912
 31
0.0
 11
194.1125014882749
 21
13.75460184058912
 31
0.0
 11
194.0594236740736
 21
13.75460184058912
 31
0.0
 11
194.0149530729859
 21
13.75460184058912
 31
0.0
 11
193.9963041112395
 21
13.75460184058912
 31
0.0
 11
193.9963041112395
 21
13.77486797460219
 31
0.0
 11
193.9963041112395
 21
13.83089787452067
 31
0.0
 11
193.9963041112395
 21
13.91553878716348
 31
0.0
 11
193.9963041112395
 21
14.02163795934954
 31
0.0
 11
193.9963041112395
 21
14.14204263789776
 31
0.0
 11
193.9963041112395
 21
14.26960006962707
 31
0.0
 11
193.9963041112395
 21
14.39715750135638
 31
0.0
 11
193.9963041112395
 21
14.5175621799046
 31
0.0
 11
193.9963041112395
 21
14.62366135209066
 31
0.0
 11
193.9963041112395
 21
14.70830226473347
 31
0.0
 11
193.9963041112395
 21
14.76433216465195
 31
0.0
 11
193.9963041112395
 21
14.78459829866502
 31
0.0
 11
193.7883272849481
 21
14.5933199827406
 31
0.0
 11
193.5763486358426
 21
14.43414885430812
 31
0.0
 11
193.5495629014483
 21
14.48814671952097
 31
0.0
 11
193.5138765415025
 21
14.5468914057203
 31
0.0
 11
193.4799697494125
 21
14.59192871537982
 31
0.0
 11
193.6830287742319
 21
14.73563387201057
 31
0.0
 11
193.8818531958261
 21
14.9116842352999
 31
0.0
 11
194.0677041444179
 21
15.1132751452495
 31
0.0
 11
194.2318427502303
 21
15.33360194186107
 31
0.0
 11
194.3655301434864
 21
15.56585996513631
 31
0.0
 11
194.3465256724482
 21
15.56585996513631
 31
0.0
 11
194.2944166389562
 21
15.56585996513631
 31
0.0
 11
194.2165596124447
 21
15.56585996513631
 31
0.0
 11
194.1203111623478
 21
15.56585996513631
 31
0.0
 11
194.0130278580997
 21
15.56585996513631
 31
0.0
 11
193.9020662691345
 21
15.56585996513631
 31
0.0
 11
193.7947829648864
 21
15.56585996513631
 31
0.0
 11
193.6985345147895
 21
15.56585996513631
 31
0.0
 11
193.620677488278
 21
15.56585996513631
 31
0.0
 11
193.568568454786
 21
15.56585996513631
 31
0.0
 11
193.5495639837478
 21
15.56585996513631
 31
0.0
 11
193.5495639837478
 21
15.58311199790979
 31
0.0
 11
193.5495639837478
 21
15.62425146067731
 31
0.0
 11
193.5495639837478
 21
15.67335340010952
 31
0.0
 11
193.5495639837478
 21
15.71449286287704
 31
0.0
 11
193.5495639837478
 21
15.73174489565052
 31
0.0
 11
193.5687598486009
 21
15.73174489565052
 31
0.0
 11
193.6193671286684
 21
15.73174489565052
 31
0.0
 11
193.690915352212
 21
15.73174489565052
 31
0.0
 11
193.7729340474937
 21
15.73174489565052
 31
0.0
 11
193.8549527427753
 21
15.73174489565052
 31
0.0
 11
193.9265009663189
 21
15.73174489565052
 31
0.0
 11
193.9771082463864
 21
15.73174489565052
 31
0.0
 11
193.9963041112395
 21
15.73174489565052
 31
0.0
 11
193.9963041112395
 21
15.74926552655225
 31
0.0
 11
193.9963041112395
 21
15.79622081736888
 31
0.0
 11
193.9963041112395
 21
15.86420086526759
 31
0.0
 11
193.9963041112395
 21
15.94479576741554
 31
0.0
 11
193.9963041112395
 21
16.02959562097991
 31
0.0
 11
193.9963041112395
 21
16.11019052312786
 31
0.0
 11
193.9963041112395
 21
16.17817057102657
 31
0.0
 11
193.9963041112395
 21
16.2251258618432
 31
0.0
 11
193.9963041112395
 21
16.24264649274493
 31
0.0
 11
194.0135484112111
 21
16.24165806167522
 31
0.0
 11
194.0566591611401
 21
16.23918698400094
 31
0.0
 11
194.1127031360477
 21
16.23597458302438
 31
0.0
 11
194.1687471109553
 21
16.23276218204781
 31
0.0
 11
194.2118578608843
 21
16.23029110437353
 31
0.0
 11
194.2291021608559
 21
16.22930267330382
 31
0.0
 11
194.2143774674852
 21
16.20556293372641
 31
0.0
 11
194.175621051109
 21
16.19183767331312
 31
0.0
 11
194.175621051109
 21
16.17206806177293
 31
0.0
 11
194.175621051109
 21
16.11994817680334
 31
0.0
 11
194.175621051109
 21
16.04626144288081
 31
0.0
 11
194.175621051109
 21
15.96179128448182
 31
0.0
 11
194.175621051109
 21
15.87732112608283
 31
0.0
 11
194.175621051109
 21
15.8036343921603
 31
0.0
 11
194.175621051109
 21
15.75151450719071
 31
0.0
 11
194.175621051109
 21
15.73174489565052
 31
0.0
 11
194.1916227112935
 21
15.73174489565052
 31
0.0
 11
194.232890150717
 21
15.73174489565052
 31
0.0
 11
194.2893170576837
 21
15.73174489565052
 31
0.0
 11
194.3507971204981
 21
15.73174489565052
 31
0.0
 11
194.4072240274648
 21
15.73174489565052
 31
0.0
 11
194.4484914668882
 21
15.73174489565052
 31
0.0
 11
194.4644931270728
 21
15.73174489565052
 31
0.0
 11
194.4728206422924
 21
15.73451387455925
 31
0.0
 11
194.4882860277004
 21
15.73965626396118
 31
0.0
 11
194.49661354292
 21
15.74242524286991
 31
0.0
 11
194.5091363776005
 21
15.73490952398291
 31
0.0
 11
194.5389985218386
 21
15.71698742509854
 31
0.0
 11
194.5746404359293
 21
15.69559653288169
 31
0.0
 11
194.6045025801674
 21
15.67767443399732
 31
0.0
 11
194.6170254148479
 21
15.67015871511032
 31
0.0
  0
SPLINE
  5
B1
102
{ACAD_REACTORS
330
CE
102
}
330
48
100
AcDbEntity
  8
_U_30EC_U_30A4_U_30E4_U_30FC_1
  6
Continuous
 62
     2
100
AcDbSpline
210
0.0
220
0.0
230
1.0
 70
    11
 71
     3
 72
   124
 73
   120
 74
   118
 42
0.000000001
 43
0.0000000001
 44
0.00000001
 40
0.0
 40
0.0
 40
0.0
 40
0.0
 40
0.027818722962451
 40
0.1011590162384269
 40
0.2048470170590239
 40
0.3237088716559245
 40
0.4425707262522
 40
0.5462587270699547
 40
0.6195990203311798
 40
0.647417752257866
 40
0.6750060736115242
 40
0.7357003855242812
 40
0.7963946998054545
 40
0.8239830245571873
 40
0.8540933811102966
 40
0.9373396629409647
 40
1.063094687343217
 40
1.220731268638055
 40
1.39962222091473
 40
1.589140358637714
 40
1.778658496423824
 40
1.957549448940463
 40
2.115186030873084
 40
2.240941056914388
 40
2.324187341760457
 40
2.354297700109307
 40
2.381886024671815
 40
2.442580338710406
 40
2.503274652750435
 40
2.530862977314542
 40
2.560983949278495
 40
2.640393784452841
 40
2.752662861759036
 40
2.881361560118024
 40
3.010060258455042
 40
3.12232933570519
 40
3.201739170817803
 40
3.231860142753164
 40
3.264298024030219
 40
3.352343701778087
 40
3.482095226868606
 40
3.639650650172862
 40
3.811108022565313
 40
3.982565394927815
 40
4.140120818152393
 40
4.269872343141098
 40
4.357918020802159
 40
4.390355902043786
 40
4.423256253992355
 40
4.50810453007282
 40
4.624121560636588
 40
4.750528176031316
 40
4.866545206601763
 40
4.951393482691691
 40
4.984293834645093
 40
5.01145083324201
 40
5.071196230151792
 40
5.13094162705687
 40
5.158098625648535
 40
5.190998977601198
 40
5.275847253688995
 40
5.391864284256457
 40
5.518270899647946
 40
5.634287930208957
 40
5.71913620628763
 40
5.752036558235518
 40
5.782130946282543
 40
5.862783906228718
 40
5.979550131774594
 40
6.117984316640002
 40
6.263641154587551
 40
6.402075339413764
 40
6.51884156490756
 40
6.599494524815149
 40
6.629588912848386
 40
6.654403028225963
 40
6.71357514948773
 40
6.784199939329048
 40
6.843372060493151
 40
6.868186175802397
 40
6.896246243201486
 40
6.939586233757862
 40
6.967846564564494
 40
7.043584251089436
 40
7.153234334451303
 40
7.283231855734063
 40
7.420011856035106
 40
7.550009376579466
 40
7.659659458834878
 40
7.735397144416875
 40
7.763657474851049
 40
7.796409728010706
 40
7.88087606509598
 40
7.996370852465366
 40
8.122208446418261
 40
8.237703224798855
 40
8.322169562010549
 40
8.354921815205563
 40
8.382078813307345
 40
8.441824209206649
 40
8.5015696052398
 40
8.528726603485378
 40
8.561478856695427
 40
8.645945193877477
 40
8.761439980864989
 40
8.887277580764131
 40
9.002772362000652
 40
9.087238696660872
 40
9.119990949235326
 40
9.152428830613024
 40
9.240474508638238
 40
9.370226034149185
 40
9.52778145798406
 40
9.699238830981049
 40
9.870696203978234
 40
10.02825162781365
 40
10.15800315332526
 40
10.24604883135081
 40
10.27848670378484
 40
10.27848670378484
 40
10.27848670378484
 40
10.27848670378484
 10
195.3821827564383
 20
14.01410517385762
 30
0.0
 10
195.3914554737523
 20
14.01410498511279
 30
0.0
 10
195.4251744536861
 20
14.01410430876719
 30
0.0
 10
195.4934706812465
 20
14.01411807243309
 30
0.0
 10
195.592014171158
 20
14.0140322421955
 30
0.0
 10
195.7062066464812
 20
14.01441755612255
 30
0.0
 10
195.818589441707
 20
14.0130083589755
 30
0.0
 10
195.9214376600118
 20
14.01719117422248
 30
0.0
 10
195.9806839874849
 20
14.00823089251988
 30
0.0
 10
196.0371265937032
 20
14.02164434526066
 30
0.0
 10
196.0246255586954
 20
13.97087198613366
 30
0.0
 10
196.0329549635703
 20
13.92589320939071
 30
0.0
 10
196.0248170841119
 20
13.88056752990492
 30
0.0
 10
196.0370529214457
 20
13.8293193240847
 30
0.0
 10
195.9747773490333
 20
13.8444795536528
 30
0.0
 10
195.9060513026868
 20
13.83359750710747
 30
0.0
 10
195.7782756749591
 20
13.83911304747976
 30
0.0
 10
195.6262984511644
 20
13.83700851253703
 30
0.0
 10
195.4502695972523
 20
13.83771002588477
 30
0.0
 10
195.2644431934287
 20
13.83745237531295
 30
0.0
 10
195.0786167437176
 20
13.83771005144607
 30
0.0
 10
194.9025880142169
 20
13.83700841847735
 30
0.0
 10
194.7506104154195
 20
13.83911332229993
 30
0.0
 10
194.6228357664555
 20
13.83359680767644
 30
0.0
 10
194.5541077836582
 20
13.84448077125946
 30
0.0
 10
194.4918349042883
 20
13.82931786684213
 30
0.0
 10
194.5040616290019
 20
13.88057510805176
 30
0.0
 10
194.4960004462598
 20
13.9258247327243
 30
0.0
 10
194.5040675809893
 20
13.97106357955328
 30
0.0
 10
194.4918238487084
 20
14.02234176909963
 30
0.0
 10
194.5525017120698
 20
14.0074957736314
 30
0.0
 10
194.6162810745737
 20
14.0175644817074
 30
0.0
 10
194.7277314353503
 20
14.01294644212004
 30
0.0
 10
194.8497533443823
 20
14.01413328905473
 30
0.0
 10
194.9719538137824
 20
14.0151586390064
 30
0.0
 10
195.0829794287392
 20
14.01092475623406
 30
0.0
 10
195.1476517413959
 20
14.02018584521744
 30
0.0
 10
195.2091162810501
 20
14.00604423049687
 30
0.0
 10
195.1930065601337
 20
14.07235527884522
 30
0.0
 10
195.2042980327358
 20
14.1444779012198
 30
0.0
 10
195.1987400822561
 20
14.27513760888291
 30
0.0
 10
195.2008035061689
 20
14.42607323708244
 30
0.0
 10
195.2000167127296
 20
14.59335873107889
 30
0.0
 10
195.2007845215627
 20
14.76061110332305
 30
0.0
 10
195.1988038785628
 20
14.91163289269916
 30
0.0
 10
195.2041306156621
 20
15.04206069552997
 30
0.0
 10
195.1933101388425
 20
15.11465442605901
 30
0.0
 10
195.2090326429875
 20
15.181504694368
 30
0.0
 10
195.143270813249
 20
15.16580512490827
 30
0.0
 10
195.0756367830764
 20
15.17609243083997
 30
0.0
 10
194.961588529381
 20
15.17113786847124
 30
0.0
 10
194.8451242674903
 20
15.17414128030477
 30
0.0
 10
194.7306554121478
 20
15.1688030314339
 30
0.0
 10
194.6640324657813
 20
15.18001268074827
 30
0.0
 10
194.5990769715186
 20
15.16349132665012
 30
0.0
 10
194.610798975871
 20
15.21473720477061
 30
0.0
 10
194.6032830189121
 20
15.25950333784092
 30
0.0
 10
194.6107989878837
 20
15.30426944897963
 30
0.0
 10
194.5990769505347
 20
15.35551536129742
 30
0.0
 10
194.6640326339201
 20
15.33899381766818
 30
0.0
 10
194.7306533339821
 20
15.35020571373945
 30
0.0
 10
194.8451352858065
 20
15.34485436710666
 30
0.0
 10
194.9615454436962
 20
15.34791188771119
 30
0.0
 10
195.0757660174642
 20
15.3427849901071
 30
0.0
 10
195.1430150439226
 20
15.353457333556
 30
0.0
 10
195.2083325941438
 20
15.33742082669079
 30
0.0
 10
195.1941391448553
 20
15.39949685750055
 30
0.0
 10
195.2036059462994
 20
15.46586761628765
 30
0.0
 10
195.1990269004085
 20
15.58239972741969
 30
0.0
 10
195.2007696555949
 20
15.71426685022379
 30
0.0
 10
195.1997551495391
 20
15.85615960150276
 30
0.0
 10
195.2017191344373
 20
15.98769050702585
 30
0.0
 10
195.1964668553851
 20
16.10524577283006
 30
0.0
 10
195.2073408763474
 20
16.16947789001589
 30
0.0
 10
195.1919536641853
 20
16.23108802545052
 30
0.0
 10
195.24075915378
 20
16.21702407382115
 30
0.0
 10
195.2853995564726
 20
16.21954742075318
 30
0.0
 10
195.3538643946742
 20
16.21512797401713
 30
0.0
 10
195.3959106169103
 20
16.20613025544038
 30
0.0
 10
195.4487544758775
 20
16.21411714866514
 30
0.0
 10
195.4207035002013
 20
16.17113917611674
 30
0.0
 10
195.3749142248593
 20
16.18259552043845
 30
0.0
 10
195.3869539073265
 20
16.12173520005144
 30
0.0
 10
195.3796086070641
 20
16.0576929946878
 30
0.0
 10
195.3831195826161
 20
15.94909368863917
 30
0.0
 10
195.3819806760173
 20
15.82494319144759
 30
0.0
 10
195.3819174780263
 20
15.69189719829883
 30
0.0
 10
195.3832872966868
 20
15.56797381249559
 30
0.0
 10
195.3791638801313
 20
15.45868337849341
 30
0.0
 10
195.3877763103564
 20
15.39608580094172
 30
0.0
 10
195.3746757454401
 20
15.33740133296367
 30
0.0
 10
195.4393884328198
 20
15.35362113810904
 30
0.0
 10
195.5060405953155
 20
15.34270260383313
 30
0.0
 10
195.6198779541103
 20
15.34793740173758
 30
0.0
 10
195.7357259122097
 20
15.34485547516915
 30
0.0
 10
195.849692426328
 20
15.35018259812514
 30
0.0
 10
195.9160341018099
 20
15.33904208166545
 30
0.0
 10
195.980718852548
 20
15.3554697959318
 30
0.0
 10
195.9689820772722
 20
15.30425925210052
 30
0.0
 10
195.9765168063041
 20
15.25950334121003
 30
0.0
 10
195.9689820992257
 20
15.21474739010029
 30
0.0
 10
195.9807188140737
 20
15.16353690871042
 30
0.0
 10
195.9160344075252
 20
15.17996427794222
 30
0.0
 10
195.8496886430824
 20
15.16882784447271
 30
0.0
 10
195.7357459487012
 20
15.17413115893122
 30
0.0
 10
195.6197995623054
 20
15.17114764593546
 30
0.0
 10
195.5062756882122
 20
15.17606892268395
 30
0.0
 10
195.4389231318804
 20
15.16585087513521
 30
0.0
 10
195.3734285122495
 20
15.18145996138818
 30
0.0
 10
195.3891713619218
 20
15.11463851827413
 30
0.0
 10
195.3783275998211
 20
15.0420705781588
 30
0.0
 10
195.3836581629793
 20
14.91162247614419
 30
0.0
 10
195.3817136151854
 20
14.76064558185228
 30
0.0
 10
195.3823133683215
 20
14.59322243934162
 30
0.0
 10
195.3821506559605
 20
14.42656176118376
 30
0.0
 10
195.3821895488135
 20
14.2736014292164
 30
0.0
 10
195.38218164131
 20
14.1484917898571
 30
0.0
 10
195.3821828382745
 20
14.06507890991424
 30
0.0
 10
195.3821827716208
 20
14.02491778281981
 30
0.0
 10
195.3821827564383
 20
14.01410517385762
 30
0.0
 11
195.3821827564383
 21
14.01410517385762
 31
0.0
 11
195.4100014883675
 21
14.01410517385762
 31
0.0
 11
195.4833417816353
 21
14.01410517385762
 31
0.0
 11
195.5870297824622
 21
14.01410517385762
 31
0.0
 11
195.7058916370687
 21
14.01410517385762
 31
0.0
 11
195.8247534916751
 21
14.01410517385762
 31
0.0
 11
195.928441492502
 21
14.01410517385762
 31
0.0
 11
196.0017817857698
 21
14.01410517385762
 31
0.0
 11
196.029600517699
 21
14.01410517385762
 31
0.0
 11
196.029600517699
 21
13.98651684921174
 31
0.0
 11
196.029600517699
 21
13.92582253499081
 31
0.0
 11
196.029600517699
 21
13.86512822076989
 31
0.0
 11
196.029600517699
 21
13.83753989612401
 31
0.0
 11
195.9994901593494
 21
13.83753989612401
 31
0.0
 11
195.9162438745004
 21
13.83753989612401
 31
0.0
 11
195.7904888484521
 21
13.83753989612401
 31
0.0
 11
195.6328522665042
 21
13.83753989612401
 31
0.0
 11
195.4539613139565
 21
13.83753989612401
 31
0.0
 11
195.2644431761089
 21
13.83753989612401
 31
0.0
 11
195.0749250382613
 21
13.83753989612401
 31
0.0
 11
194.8960340857137
 21
13.83753989612401
 31
0.0
 11
194.7383975037657
 21
13.83753989612401
 31
0.0
 11
194.6126424777173
 21
13.83753989612401
 31
0.0
 11
194.5293961928684
 21
13.83753989612401
 31
0.0
 11
194.4992858345188
 21
13.83753989612401
 31
0.0
 11
194.4992858345188
 21
13.86512822076989
 31
0.0
 11
194.4992858345188
 21
13.92582253499081
 31
0.0
 11
194.4992858345188
 21
13.98651684921175
 31
0.0
 11
194.4992858345188
 21
14.01410517385762
 31
0.0
 11
194.5294068064948
 21
14.01410517385762
 31
0.0
 11
194.6088166417041
 21
14.01410517385762
 31
0.0
 11
194.7210857190691
 21
14.01410517385762
 31
0.0
 11
194.8497844175118
 21
14.01410517385762
 31
0.0
 11
194.9784831159545
 21
14.01410517385762
 31
0.0
 11
195.0907521933195
 21
14.01410517385762
 31
0.0
 11
195.1701620285289
 21
14.01410517385762
 31
0.0
 11
195.2002830005048
 21
14.01410517385762
 31
0.0
 11
195.2002830005048
 21
14.0465430552384
 31
0.0
 11
195.2002830005048
 21
14.13458873327195
 31
0.0
 11
195.2002830005048
 21
14.26434025879507
 31
0.0
 11
195.2002830005048
 21
14.42189568264457
 31
0.0
 11
195.2002830005048
 21
14.59335305565727
 31
0.0
 11
195.2002830005048
 21
14.76481042866997
 31
0.0
 11
195.2002830005048
 21
14.92236585251947
 31
0.0
 11
195.2002830005048
 21
15.05211737804259
 31
0.0
 11
195.2002830005048
 21
15.14016305607614
 31
0.0
 11
195.2002830005048
 21
15.17260093745692
 31
0.0
 11
195.1673826485529
 21
15.17260093745692
 31
0.0
 11
195.0825343724663
 21
15.17260093745692
 31
0.0
 11
194.9665173418989
 21
15.17260093745692
 31
0.0
 11
194.8401107265045
 21
15.17260093745692
 31
0.0
 11
194.7240936959371
 21
15.17260093745692
 31
0.0
 11
194.6392454198505
 21
15.17260093745692
 31
0.0
 11
194.6063450678985
 21
15.17260093745692
 31
0.0
 11
194.6063450678985
 21
15.19975793614805
 31
0.0
 11
194.6063450678985
 21
15.25950333326852
 31
0.0
 11
194.6063450678985
 21
15.319248730389
 31
0.0
 11
194.6063450678985
 21
15.34640572908012
 31
0.0
 11
194.6392454198505
 21
15.34640572908012
 31
0.0
 11
194.7240936959371
 21
15.34640572908012
 31
0.0
 11
194.8401107265045
 21
15.34640572908012
 31
0.0
 11
194.9665173418988
 21
15.34640572908012
 31
0.0
 11
195.0825343724662
 21
15.34640572908012
 31
0.0
 11
195.1673826485529
 21
15.34640572908012
 31
0.0
 11
195.2002830005048
 21
15.34640572908012
 31
0.0
 11
195.2002830005048
 21
15.37650011731372
 31
0.0
 11
195.2002830005048
 21
15.45715307777976
 31
0.0
 11
195.2002830005048
 21
15.57391930412612
 31
0.0
 11
195.2002830005048
 21
15.71235349000066
 31
0.0
 11
195.2002830005048
 21
15.85801032905127
 31
0.0
 11
195.2002830005048
 21
15.99644451492582
 31
0.0
 11
195.2002830005048
 21
16.11321074127218
 31
0.0
 11
195.2002830005048
 21
16.19386370173822
 31
0.0
 11
195.2002830005048
 21
16.22395808997182
 31
0.0
 11
195.2250405288618
 21
16.22228324219446
 31
0.0
 11
195.2840777118669
 21
16.21828937441769
 31
0.0
 11
195.3545414464214
 21
16.21352249997445
 31
0.0
 11
195.4135786294265
 21
16.20952863219767
 31
0.0
 11
195.4383361577835
 21
16.20785378442032
 31
0.0
 11
195.423306722403
 21
16.18415814206512
 31
0.0
 11
195.3821827564383
 21
16.17047697887412
 31
0.0
 11
195.3821827564383
 21
16.1422166479484
 31
0.0
 11
195.3821827564383
 21
16.06647896106747
 31
0.0
 11
195.3821827564383
 21
15.95682887707568
 31
0.0
 11
195.3821827564383
 21
15.82683135481736
 31
0.0
 11
195.3821827564383
 21
15.69005135313688
 31
0.0
 11
195.3821827564383
 21
15.56005383087857
 31
0.0
 11
195.3821827564383
 21
15.45040374688677
 31
0.0
 11
195.3821827564383
 21
15.37466606000584
 31
0.0
 11
195.3821827564383
 21
15.34640572908012
 31
0.0
 11
195.4149350096115
 21
15.34640572908012
 31
0.0
 11
195.4994013467422
 21
15.34640572908012
 31
0.0
 11
195.6148961342476
 21
15.34640572908012
 31
0.0
 11
195.7407337385445
 21
15.34640572908012
 31
0.0
 11
195.8562285260498
 21
15.34640572908012
 31
0.0
 11
195.9406948631806
 21
15.34640572908012
 31
0.0
 11
195.9734471163538
 21
15.34640572908012
 31
0.0
 11
195.9734471163538
 21
15.31924873038899
 31
0.0
 11
195.9734471163538
 21
15.25950333326852
 31
0.0
 11
195.9734471163538
 21
15.19975793614804
 31
0.0
 11
195.9734471163538
 21
15.17260093745692
 31
0.0
 11
195.9406948631806
 21
15.17260093745692
 31
0.0
 11
195.8562285260498
 21
15.17260093745692
 31
0.0
 11
195.7407337385445
 21
15.17260093745692
 31
0.0
 11
195.6148961342476
 21
15.17260093745692
 31
0.0
 11
195.4994013467422
 21
15.17260093745692
 31
0.0
 11
195.4149350096114
 21
15.17260093745692
 31
0.0
 11
195.3821827564383
 21
15.17260093745692
 31
0.0
 11
195.3821827564383
 21
15.14016305607614
 31
0.0
 11
195.3821827564383
 21
15.05211737804259
 31
0.0
 11
195.3821827564383
 21
14.92236585251947
 31
0.0
 11
195.3821827564383
 21
14.76481042866997
 31
0.0
 11
195.3821827564383
 21
14.59335305565727
 31
0.0
 11
195.3821827564383
 21
14.42189568264457
 31
0.0
 11
195.3821827564383
 21
14.26434025879507
 31
0.0
 11
195.3821827564383
 21
14.13458873327195
 31
0.0
 11
195.3821827564383
 21
14.0465430552384
 31
0.0
 11
195.3821827564383
 21
14.01410517385762
 31
0.0
  0
SPLINE
  5
B2
102
{ACAD_REACTORS
330
CF
102
}
330
48
100
AcDbEntity
  8
_U_30EC_U_30A4_U_30E4_U_30FC_1
  6
Continuous
 62
     2
100
AcDbSpline
210
0.0
220
0.0
230
1.0
 70
     8
 71
     3
 72
    62
 73
    58
 74
    56
 42
0.000000001
 43
0.0000000001
 44
0.00000001
 40
0.0
 40
0.0
 40
0.0
 40
0.0
 40
0.0598250028308485
 40
0.2024846486897047
 40
0.3727558389220178
 40
0.5154154847934933
 40
0.5752404975784202
 40
0.9332326775485473
 40
1.290451762839292
 40
1.602077253145744
 40
1.699931634112042
 40
1.799359756425001
 40
2.27012014965706
 40
2.804661928461453
 40
2.882342287383166
 40
3.076543185719017
 40
3.329004354835484
 40
3.581465524568311
 40
3.775666424543598
 40
3.853346784558218
 40
3.899120679594992
 40
3.984129341791933
 40
4.029903236817281
 40
4.105797496059434
 40
4.295533144152389
 40
4.542189486611623
 40
4.788845828875564
 40
4.978581476409943
 40
5.054475735244184
 40
5.62173466433921
 40
6.130867242037199
 40
6.225249780948457
 40
6.318913039727116
 40
6.663579954558718
 40
7.047498900224564
 40
7.435230791575476
 40
7.498943906667888
 40
7.650875181209882
 40
7.832212509001392
 40
7.984143783696778
 40
8.047856898902905
 40
8.091554632732418
 40
8.17270756696409
 40
8.21640530076782
 40
8.289021782160704
 40
8.462184160757078
 40
8.668861838005244
 40
8.842024215263836
 40
8.91464069547506
 40
8.989881580861269
 40
9.15541152882719
 40
9.320941477743983
 40
9.396182352487239
 40
9.454709011143729
 40
9.583467660170749
 40
9.712226309012971
 40
9.770752957989453
 40
9.770752957989453
 40
9.770752957989453
 40
9.770752957989453
 10
187.1521871691833
 20
14.93980288195952
 30
0.0
 10
187.1322348171623
 20
14.93980875568674
 30
0.0
 10
187.0647037716465
 20
14.9398286380616
 30
0.0
 10
186.9410612161788
 20
14.93949362520327
 30
0.0
 10
186.7863180150057
 20
14.94107673750514
 30
0.0
 10
186.669734948248
 20
14.93686078860498
 30
0.0
 10
186.4550942634243
 20
14.95215205331628
 30
0.0
 10
186.8518948407228
 20
14.59198721286192
 30
0.0
 10
186.8945656069267
 20
14.37510503397166
 30
0.0
 10
187.3189162146613
 20
14.19325062511453
 30
0.0
 10
187.1439821496074
 20
14.08985196568073
 30
0.0
 10
187.0194523925084
 20
13.87831523212729
 30
0.0
 10
186.7666277235943
 20
14.34806081001557
 30
0.0
 10
186.4797602893627
 20
14.99511516984522
 30
0.0
 10
186.4906335926661
 20
14.68782672154694
 30
0.0
 10
186.488289277796
 20
14.5228861697178
 30
0.0
 10
186.4861096126411
 20
14.28879670711694
 30
0.0
 10
186.4980774396348
 20
14.04498072421783
 30
0.0
 10
186.4687984740632
 20
13.89855796860985
 30
0.0
 10
186.511452262547
 20
13.75113490174537
 30
0.0
 10
186.4239814005641
 20
13.7668579730622
 30
0.0
 10
186.3768527606745
 20
13.76694303543454
 30
0.0
 10
186.2898973207714
 20
13.75109425482909
 30
0.0
 10
186.3313474021724
 20
13.89527771422762
 30
0.0
 10
186.3029875004285
 20
14.03855052698454
 30
0.0
 10
186.3145973775301
 20
14.27674947365264
 30
0.0
 10
186.3124175648273
 20
14.50517235240344
 30
0.0
 10
186.3103111127995
 20
14.66705729375992
 30
0.0
 10
186.3208035438325
 20
14.98153709333748
 30
0.0
 10
186.0128963252894
 20
14.29229470872442
 30
0.0
 10
185.7055258267455
 20
13.81476750243046
 30
0.0
 10
185.5851367066276
 20
14.03741112637431
 30
0.0
 10
185.4074607910722
 20
14.15011034955561
 30
0.0
 10
185.8853326362896
 20
14.32548143465463
 30
0.0
 10
185.9353959057208
 20
14.5609192925203
 30
0.0
 10
186.3583799621717
 20
14.95322989344609
 30
0.0
 10
186.127675427354
 20
14.93655307029068
 30
0.0
 10
186.0049685859341
 20
14.94269518948773
 30
0.0
 10
185.8325483095662
 20
14.93312822699576
 30
0.0
 10
185.7213224694449
 20
14.95448818489668
 30
0.0
 10
185.6025779627448
 20
14.92136265357422
 30
0.0
 10
185.6183169706686
 20
15.00203900606886
 30
0.0
 10
185.6178550933763
 20
15.04645414290858
 30
0.0
 10
185.6027881889931
 20
15.12967081778538
 30
0.0
 10
185.7372380935443
 20
15.09062651983887
 30
0.0
 10
185.8619755545747
 20
15.11739729328427
 30
0.0
 10
186.0628755237281
 20
15.10063949044057
 30
0.0
 10
186.1921540949354
 20
15.12204225913009
 30
0.0
 10
186.3328419928296
 20
15.08868778853424
 30
0.0
 10
186.2980927452616
 20
15.22651875785073
 30
0.0
 10
186.3222185666713
 20
15.34963257349487
 30
0.0
 10
186.2967086182394
 20
15.47024055670342
 30
0.0
 10
186.3333251146686
 20
15.60539865141501
 30
0.0
 10
186.221141702777
 20
15.58094545781898
 30
0.0
 10
186.1280356457138
 20
15.5930774984203
 30
0.0
 10
186.0191547579821
 20
15.58957630070002
 30
0.0
 10
185.9569697640965
 20
15.5898175595161
 30
0.0
 10
185.9375369557247
 20
15.58989295124152
 30
0.0
 11
187.1521871691833
 21
14.93980288195952
 31
0.0
 11
187.0923621563982
 21
14.93980288195952
 31
0.0
 11
186.949702510526
 21
14.93980288195952
 31
0.0
 11
186.7794313202914
 21
14.93980288195952
 31
0.0
 11
186.6367716744192
 21
14.93980288195952
 31
0.0
 11
186.5769466616341
 21
14.93980288195952
 31
0.0
 11
186.7679960754842
 21
14.63705127966893
 31
0.0
 11
186.994127278563
 21
14.36051890576688
 31
0.0
 11
187.2244526173372
 21
14.15061253493462
 31
0.0
 11
187.1521596330704
 21
14.08466403668718
 31
0.0
 11
187.0879364402643
 21
14.00876059052561
 31
0.0
 11
186.7732818215558
 21
14.35891458349366
 31
0.0
 11
186.4886640249977
 21
14.81138295143602
 31
0.0
 11
186.4886640249977
 21
14.73370259137314
 31
0.0
 11
186.4886640249977
 21
14.53950169121594
 31
0.0
 11
186.4886640249977
 21
14.28704052101157
 31
0.0
 11
186.4886640249977
 21
14.03457935080721
 31
0.0
 11
186.4886640249977
 21
13.84037845065
 31
0.0
 11
186.4886640249977
 21
13.76269809058712
 31
0.0
 11
186.4428901295606
 21
13.76269809058712
 31
0.0
 11
186.3578814666059
 21
13.76269809058712
 31
0.0
 11
186.3121075711688
 21
13.76269809058712
 31
0.0
 11
186.3121075711688
 21
13.8385923498274
 31
0.0
 11
186.3121075711688
 21
14.02832799792811
 31
0.0
 11
186.3121075711688
 21
14.27498434045902
 31
0.0
 11
186.3121075711688
 21
14.52164068298993
 31
0.0
 11
186.3121075711688
 21
14.71137633109064
 31
0.0
 11
186.3121075711688
 21
14.78727059033092
 31
0.0
 11
185.9987626399267
 21
14.31440946197693
 31
0.0
 11
185.6352328662149
 21
13.95795177109382
 31
0.0
 11
185.5773927461628
 21
14.03253450545026
 31
0.0
 11
185.5094852305342
 21
14.09704322939241
 31
0.0
 11
185.775072189832
 21
14.31672219795889
 31
0.0
 11
186.0233764972062
 21
14.60953395971698
 31
0.0
 11
186.226498280526
 21
14.93980288195952
 31
0.0
 11
186.1627851652721
 21
14.93980288195952
 31
0.0
 11
186.0108538904359
 21
14.93980288195952
 31
0.0
 11
185.8295165624055
 21
14.93980288195952
 31
0.0
 11
185.6775852875693
 21
14.93980288195952
 31
0.0
 11
185.6138721723154
 21
14.93980288195952
 31
0.0
 11
185.6138721723154
 21
14.98350061600211
 31
0.0
 11
185.6138721723154
 21
15.06465355065263
 31
0.0
 11
185.6138721723154
 21
15.10835128469522
 31
0.0
 11
185.6864886537961
 21
15.10835128469522
 31
0.0
 11
185.8596510327118
 21
15.10835128469522
 31
0.0
 11
186.0663287107724
 21
15.10835128469522
 31
0.0
 11
186.239491089688
 21
15.10835128469522
 31
0.0
 11
186.3121075711688
 21
15.10835128469522
 31
0.0
 11
186.3121075711688
 21
15.18359217009308
 31
0.0
 11
186.3121075711688
 21
15.34912211796837
 31
0.0
 11
186.3121075711688
 21
15.51465206584366
 31
0.0
 11
186.3121075711688
 21
15.58989295124152
 31
0.0
 11
186.2535809125057
 21
15.58989295124152
 31
0.0
 11
186.1248222634468
 21
15.58989295124152
 31
0.0
 11
185.9960636143879
 21
15.58989295124152
 31
0.0
 11
185.9375369557247
 21
15.58989295124152
 31
0.0
  0
SPLINE
  5
B3
102
{ACAD_REACTORS
330
CF
102
}
330
48
100
AcDbEntity
  8
_U_30EC_U_30A4_U_30E4_U_30FC_1
  6
Continuous
 62
     2
100
AcDbSpline
210
0.0
220
0.0
230
1.0
 70
     8
 71
     3
 72
    70
 73
    66
 74
    64
 42
0.000000001
 43
0.0000000001
 44
0.00000001
 40
0.0
 40
0.0
 40
0.0
 40
0.0
 40
0.0241731073021472
 40
0.0846058988987582
 40
0.1631685280353852
 40
0.2417311571790608
 40
0.302163948829332
 40
0.3263370654896678
 40
0.3533118254250018
 40
0.4228783438923213
 40
0.5179999095314468
 40
0.6216398239467097
 40
0.7167613891500665
 40
0.7863279069650823
 40
0.813302679176276
 40
0.83729439987726
 40
0.8945054261373235
 40
0.962789554196273
 40
1.020000580349055
 40
1.043992300975154
 40
1.07193434552286
 40
1.113121768772847
 40
1.145225199332168
 40
1.225483775412689
 40
1.329819923771381
 40
1.434156071994252
 40
1.514414647795663
 40
1.546518078208263
 40
1.578974764260065
 40
1.662678849314003
 40
1.777131373668252
 40
1.901833377474643
 40
2.016285900500433
 40
2.0999899825278
 40
2.132446666570159
 40
2.158782354485881
 40
2.216720867907666
 40
2.274659381334088
 40
2.30099506925602
 40
2.333451754065992
 40
2.417155836543673
 40
2.531608358985112
 40
2.656310362283607
 40
2.77076288638874
 40
2.854466971339905
 40
2.886923657363711
 40
2.913597976833147
 40
2.982389642874953
 40
3.076451716946826
 40
3.178937260458445
 40
3.272999334739858
 40
3.341791001059084
 40
3.368465320663397
 40
3.396976080738618
 40
3.472140811845826
 40
3.578408190308515
 40
3.700226892455923
 40
3.82204559463414
 40
3.928312973256219
 40
4.003477705314616
 40
4.031988456866682
 40
4.058324144797485
 40
4.116262658236655
 40
4.174201171400464
 40
4.200536849608401
 40
4.200536849608401
 40
4.200536849608401
 40
4.200536849608401
 10
185.9857704961609
 20
15.75844135397712
 30
0.0
 10
185.9938259544679
 20
15.75844359811694
 30
0.0
 10
186.0220200663241
 20
15.75845146032804
 30
0.0
 10
186.0765534803673
 20
15.75830754828379
 30
0.0
 10
186.1482891808604
 20
15.75909120499905
 30
0.0
 10
186.2236240137063
 20
15.75627570463818
 30
0.0
 10
186.2713052366439
 20
15.76298403400964
 30
0.0
 10
186.3195071245617
 20
15.75197563692438
 30
0.0
 10
186.3062571799874
 20
15.80546402997039
 30
0.0
 10
186.3151093964539
 20
15.86049583543098
 30
0.0
 10
186.3108698036287
 20
15.95419908726115
 30
0.0
 10
186.3133483481281
 20
16.04959482218538
 30
0.0
 10
186.3090938706061
 20
16.14356821983392
 30
0.0
 10
186.3179818665847
 20
16.19795062438018
 30
0.0
 10
186.3046977409946
 20
16.25233997691466
 30
0.0
 10
186.351411927711
 20
16.23842216335363
 30
0.0
 10
186.3943254545737
 20
16.24103877374046
 30
0.0
 10
186.4605443456685
 20
16.23648422450757
 30
0.0
 10
186.5013342271799
 20
16.22778162134163
 30
0.0
 10
186.5525145690818
 20
16.23531799890197
 30
0.0
 10
186.5253720487202
 20
16.19349970223286
 30
0.0
 10
186.4803096055708
 20
16.20284992072596
 30
0.0
 10
186.4942065045051
 20
16.13841207371838
 30
0.0
 10
186.4858414431654
 20
16.073782196274
 30
0.0
 10
186.4903632178399
 20
15.97529141193891
 30
0.0
 10
186.4854741311168
 20
15.87595932842575
 30
0.0
 10
186.4950258992082
 20
15.81293115552975
 30
0.0
 10
186.4799761455201
 20
15.74964011499795
 30
0.0
 10
186.544915945721
 20
15.76515072944276
 30
0.0
 10
186.6116246399498
 20
15.75499387697819
 30
0.0
 10
186.7241435470828
 20
15.75988800099374
 30
0.0
 10
186.8390235448955
 20
15.75691204732791
 30
0.0
 10
186.9519871999747
 20
15.76221664184998
 30
0.0
 10
187.0176267597678
 20
15.75107306472096
 30
0.0
 10
187.0816276691054
 20
15.76744532319864
 30
0.0
 10
187.070314288919
 20
15.71761689905282
 30
0.0
 10
187.077533987151
 20
15.6741671521213
 30
0.0
 10
187.070314261127
 20
15.63071745587452
 30
0.0
 10
187.0816277175994
 20
15.58088895196884
 30
0.0
 10
187.0176263598972
 20
15.5972616609137
 30
0.0
 10
186.951992124046
 20
15.58611271661596
 30
0.0
 10
186.8389974317332
 20
15.59144857206862
 30
0.0
 10
186.7242456548644
 20
15.5883434566383
 30
0.0
 10
186.6113183686861
 20
15.59364894682597
 30
0.0
 10
186.5455220903585
 20
15.58257300019602
 30
0.0
 10
186.4816097975359
 20
15.59887597847626
 30
0.0
 10
186.4936015165127
 20
15.54423524395749
 30
0.0
 10
186.4862104613005
 20
15.48854295047849
 30
0.0
 10
186.4892684841984
 20
15.39649689140577
 30
0.0
 10
186.4893422785684
 20
15.30179109873107
 30
0.0
 10
186.486031357836
 20
15.20952782902271
 30
0.0
 10
186.4939505989904
 20
15.15435768736144
 30
0.0
 10
186.4815076611618
 20
15.10058169100141
 30
0.0
 10
186.5389116551632
 20
15.11453768862786
 30
0.0
 10
186.5994708140383
 20
15.10511457884231
 30
0.0
 10
186.7048680855081
 20
15.10942885928709
 30
0.0
 10
186.8204294070623
 20
15.10835504612036
 30
0.0
 10
186.9359688877797
 20
15.10725965901
 30
0.0
 10
187.0414181130841
 20
15.11162525770637
 30
0.0
 10
187.1018680471803
 20
15.10209426030675
 30
0.0
 10
187.159283773911
 20
15.11617289606385
 30
0.0
 10
187.1477773876708
 20
15.06707153265686
 30
0.0
 10
187.1537566781749
 20
15.02564658018652
 30
0.0
 10
187.1520311050802
 20
14.97651677966699
 30
0.0
 10
187.1521500122971
 20
14.9485442844761
 30
0.0
 10
187.1521871691833
 20
14.93980288195952
 30
0.0
 11
185.9857704961609
 21
15.75844135397712
 31
0.0
 11
186.0099436128282
 21
15.75844135397712
 31
0.0
 11
186.0703764044963
 21
15.75844135397712
 31
0.0
 11
186.1489390336649
 21
15.75844135397712
 31
0.0
 11
186.2275016628334
 21
15.75844135397712
 31
0.0
 11
186.2879344545015
 21
15.75844135397712
 31
0.0
 11
186.3121075711688
 21
15.75844135397712
 31
0.0
 11
186.3121075711688
 21
15.7854161262007
 31
0.0
 11
186.3121075711688
 21
15.85498264404045
 31
0.0
 11
186.3121075711688
 21
15.95010420924992
 31
0.0
 11
186.3121075711688
 21
16.05374412358261
 31
0.0
 11
186.3121075711688
 21
16.14886568879207
 31
0.0
 11
186.3121075711688
 21
16.21843220663183
 31
0.0
 11
186.3121075711688
 21
16.24540697885541
 31
0.0
 11
186.3360407604893
 21
16.24373213107805
 31
0.0
 11
186.3931122119458
 21
16.23973826330125
 31
0.0
 11
186.4612297507811
 21
16.23497138885798
 31
0.0
 11
186.5183012022376
 21
16.23097752108119
 31
0.0
 11
186.5422343915581
 21
16.22930267330382
 31
0.0
 11
186.527497273123
 21
16.20556293372641
 31
0.0
 11
186.4886640249977
 21
16.19183767331312
 31
0.0
 11
186.4886640249977
 21
16.15973424225119
 31
0.0
 11
186.4886640249977
 21
16.07947566459638
 31
0.0
 11
186.4886640249977
 21
15.97513951364512
 31
0.0
 11
186.4886640249977
 21
15.87080336269386
 31
0.0
 11
186.4886640249977
 21
15.79054478503904
 31
0.0
 11
186.4886640249977
 21
15.75844135397712
 31
0.0
 11
186.5211207110825
 21
15.75844135397712
 31
0.0
 11
186.6048247962486
 21
15.75844135397712
 31
0.0
 11
186.7192773208635
 21
15.75844135397712
 31
0.0
 11
186.8439793252947
 21
15.75844135397712
 31
0.0
 11
186.9584318499095
 21
15.75844135397712
 31
0.0
 11
187.0421359350757
 21
15.75844135397712
 31
0.0
 11
187.0745926211605
 21
15.75844135397712
 31
0.0
 11
187.0745926211605
 21
15.73210566604968
 31
0.0
 11
187.0745926211605
 21
15.67416715260932
 31
0.0
 11
187.0745926211605
 21
15.61622863916896
 31
0.0
 11
187.0745926211605
 21
15.58989295124152
 31
0.0
 11
187.0421359350757
 21
15.58989295124152
 31
0.0
 11
186.9584318499095
 21
15.58989295124152
 31
0.0
 11
186.8439793252947
 21
15.58989295124152
 31
0.0
 11
186.7192773208635
 21
15.58989295124152
 31
0.0
 11
186.6048247962486
 21
15.58989295124152
 31
0.0
 11
186.5211207110825
 21
15.58989295124152
 31
0.0
 11
186.4886640249977
 21
15.58989295124152
 31
0.0
 11
186.4886640249977
 21
15.56321863152029
 31
0.0
 11
186.4886640249977
 21
15.49442696487083
 31
0.0
 11
186.4886640249977
 21
15.40036489006441
 31
0.0
 11
186.4886640249977
 21
15.29787934587234
 31
0.0
 11
186.4886640249977
 21
15.20381727106591
 31
0.0
 11
186.4886640249977
 21
15.13502560441644
 31
0.0
 11
186.4886640249977
 21
15.10835128469522
 31
0.0
 11
186.5171747850994
 21
15.10835128469522
 31
0.0
 11
186.5923395162767
 21
15.10835128469522
 31
0.0
 11
186.6986068948377
 21
15.10835128469522
 31
0.0
 11
186.8204255970905
 21
15.10835128469522
 31
0.0
 11
186.9422442993433
 21
15.10835128469522
 31
0.0
 11
187.0485116779043
 21
15.10835128469522
 31
0.0
 11
187.1236764090816
 21
15.10835128469522
 31
0.0
 11
187.1521871691833
 21
15.10835128469522
 31
0.0
 11
187.1521871691833
 21
15.08201559676777
 31
0.0
 11
187.1521871691833
 21
15.02407708332737
 31
0.0
 11
187.1521871691833
 21
14.96613856988697
 31
0.0
 11
187.1521871691833
 21
14.93980288195952
 31
0.0
  0
SPLINE
  5
B4
102
{ACAD_REACTORS
330
CF
102
}
330
48
100
AcDbEntity
  8
_U_30EC_U_30A4_U_30E4_U_30FC_1
  6
Continuous
 62
     2
100
AcDbSpline
210
0.0
220
0.0
230
1.0
 70
     8
 71
     3
 72
    24
 73
    20
 74
    18
 42
0.000000001
 43
0.0000000001
 44
0.00000001
 40
0.0
 40
0.0
 40
0.0
 40
0.0
 40
0.2211075008754296
 40
0.4273218586245819
 40
0.508017467924013
 40
0.5914835907871088
 40
0.8143265690193432
 40
1.054651302686636
 40
1.295452694023238
 40
1.518109231328951
 40
1.540864321905568
 40
1.595126460622829
 40
1.659890947896145
 40
1.714153085187533
 40
1.736908174961806
 40
1.76495110073552
 40
1.801562291221057
 40
1.953914424543753
 40
2.126104167379811
 40
2.126104167379811
 40
2.126104167379811
 40
2.126104167379811
 10
185.937536955689
 20
15.58989295113022
 30
0.0
 10
185.9112579081813
 20
15.53097628234381
 30
0.0
 10
185.8604698894425
 20
15.41711139679265
 30
0.0
 10
185.8131784839113
 20
15.14441958233115
 30
0.0
 10
185.7043482802618
 20
15.24445482575454
 30
0.0
 10
185.5514800279639
 20
15.27118593367335
 30
0.0
 10
185.7686155181199
 20
15.48518135017634
 30
0.0
 10
185.7838483674381
 20
15.7033211778249
 30
0.0
 10
185.8906889492001
 20
15.88451579066428
 30
0.0
 10
185.8305380947078
 20
16.16913226311412
 30
0.0
 10
185.9334317395403
 20
16.14114089222458
 30
0.0
 10
185.977993346815
 20
16.13243251602306
 30
0.0
 10
186.0380842395398
 20
16.1213965418336
 30
0.0
 10
186.0756619587439
 20
16.10767523055567
 30
0.0
 10
186.1252466928607
 20
16.10756076160225
 30
0.0
 10
186.0930158919325
 20
16.07306592398633
 30
0.0
 10
186.0171802221883
 20
16.0840410453796
 30
0.0
 10
186.0429447159693
 20
15.89858969582459
 30
0.0
 10
186.005589676385
 20
15.80702313549596
 30
0.0
 10
185.9857704961609
 20
15.75844135397712
 30
0.0
 11
185.937536955689
 21
15.58989295113022
 31
0.0
 11
185.8616471328552
 21
15.38221708318564
 31
0.0
 11
185.7717402238434
 21
15.19663392356192
 31
0.0
 11
185.701149392311
 21
15.23573272563552
 31
0.0
 11
185.6245525192652
 21
15.26889163187722
 31
0.0
 11
185.7214026947456
 21
15.4695880120354
 31
0.0
 11
185.7994641467471
 21
15.69688163177025
 31
0.0
 11
185.8589716929721
 21
15.93021436608694
 31
0.0
 11
185.9001601511227
 21
16.14902808999062
 31
0.0
 11
185.9224183822215
 21
16.14429889221402
 31
0.0
 11
185.9754957025341
 21
16.13302157443906
 31
0.0
 11
186.0388460525845
 21
16.11956154999798
 31
0.0
 11
186.0919233728971
 21
16.10828423222302
 31
0.0
 11
186.1141816039959
 21
16.10355503444642
 31
0.0
 11
186.0964097157461
 21
16.08186250841016
 31
0.0
 11
186.0606122998072
 21
16.07418628445372
 31
0.0
 11
186.028195330148
 21
15.92532288171318
 31
0.0
 11
185.9857704961609
 21
15.75844135397712
 31
0.0
  0
LWPOLYLINE
  5
B5
102
{ACAD_REACTORS
330
D0
102
}
330
48
100
AcDbEntity
  8
_U_30EC_U_30A4_U_30E4_U_30FC_1
  6
Continuous
 62
     2
100
AcDbPolyline
 90
        5
 70
     1
 43
0.0
 10
191.1602971697031
 20
15.39722336795622
 10
192.4578138032672
 20
15.39722336795622
 10
192.4578138032672
 20
15.22875434022062
 10
191.1602971697031
 20
15.22875434022062
 10
191.1602971697031
 20
15.39722336795622
  0
MTEXT
  5
B7
330
48
100
AcDbEntity
  8
1
 62
   250
100
AcDbMText
 10
25.0
 20
5.00000000000001
 30
0.0
 40
3.5
 41
0.0
 71
     4
 72
     1
  1
備考欄の文字列 原点位置=4
  7
CONVERTER_11
 73
     1
 44
0.54545454545455
  0
MTEXT
  5
B8
330
48
100
AcDbEntity
  8
1
 62
     2
100
AcDbMText
 10
89.50000000000006
 20
24.00000000000001
 30
0.0
 40
3.5
 41
0.0
 71
     5
 72
     1
  1
尺度
  7
CONVERTER_11
 73
     1
 44
0.54545454545455
  0
MTEXT
  5
B9
330
48
100
AcDbEntity
  8
1
 62
     2
100
AcDbMText
 10
135.5000000000001
 20
25.00000000000001
 30
0.0
 40
3.0
 41
0.0
 71
     5
 72
     1
  1
製図
  7
CONVERTER_11
 73
     1
 44
0.59090909090909
  0
MTEXT
  5
BA
330
48
100
AcDbEntity
  8
1
 62
     2
100
AcDbMText
 10
152.5000000000001
 20
25.00000000000001
 30
0.0
 40
3.0
 41
0.0
 71
     5
 72
     1
  1
設計
  7
CONVERTER_11
 73
     1
 44
0.59090909090909
  0
MTEXT
  5
BB
330
48
100
AcDbEntity
  8
1
 62
     2
100
AcDbMText
 10
118.5000000000001
 20
25.00000000000001
 30
0.0
 40
3.0
 41
0.0
 71
     5
 72
     1
  1
検図
  7
CONVERTER_11
 73
     1
 44
0.59090909090909
  0
MTEXT
  5
BC
330
48
100
AcDbEntity
  8
1
 62
     2
100
AcDbMText
 10
175.0000000000001
 20
23.50000000000001
 30
0.0
 40
3.5
 41
0.0
 71
     5
 72
     1
  1
第三角法
  7
CONVERTER_11
 73
     1
 44
0.54545454545455
  0
MTEXT
  5
BD
330
48
100
AcDbEntity
  8
1
 62
     2
100
AcDbMText
 10
101.5000000000001
 20
25.00000000000001
 30
0.0
 40
3.0
 41
0.0
 71
     5
 72
     1
  1
承認
  7
CONVERTER_11
 73
     1
 44
0.59090909090909
  0
MTEXT
  5
BE
330
48
100
AcDbEntity
  8
1
 62
     2
100
AcDbMText
 10
29.0
 20
14.25000000000001
 30
0.0
 40
3.5
 41
0.0
 71
     5
 72
     1
  1
品番
  7
CONVERTER_11
 73
     1
 44
0.72727272727273
  0
MTEXT
  5
BF
330
48
100
AcDbEntity
  8
1
 62
     2
100
AcDbMText
 10
29.0
 20
22.75000000000001
 30
0.0
 40
3.5
 41
0.0
 71
     5
 72
     1
  1
品名
  7
CONVERTER_11
 73
     1
 44
0.72727272727273
  0
MTEXT
  5
C0
330
48
100
AcDbEntity
  8
1
 62
     2
100
AcDbMText
 10
29.0
 20
34.00000000000001
 30
0.0
 40
3.5
 41
0.0
 71
     5
 72
     1
  1
備考
  7
CONVERTER_11
 73
     1
 44
0.45454545454545
  0
MTEXT
  5
C1
330
48
100
AcDbEntity
  8
1
 62
     2
100
AcDbMText
 10
32.5
 20
282.0000000000003
 30
0.0
 40
5.0
 41
0.0
 71
     5
 72
     1
  1
図番
  7
CONVERTER_11
 73
     1
 44
0.45454545454545
  0
HATCH
  5
C2
330
48
100
AcDbEntity
  8
1
  6
Continuous
 62
     2
100
AcDbHatch
 10
0.0
 20
0.0
 30
0.0
210
0.0
220
0.0
230
1.0
  2
CUSTOM0
 70
     0
 71
     1
 91
        1
 92
        1
 93
        1
 72
     4
 94
        3
 73
     0
 74
     0
 95
       99
 96
       95
 40
0.0
 40
0.0
 40
0.0
 40
0.0
 40
0.0796417172272362
 40
0.1621768542356203
 40
0.2486489160957695
 40
0.3404969668524003
 40
0.4381912511164426
 40
0.5434463660245286
 40
0.6518115192847056
 40
0.7530190937886305
 40
0.8492196919725195
 40
0.9419290312998441
 40
1.03424966357004
 40
1.129078600620197
 40
1.226697027573254
 40
1.32722042542171
 40
1.470572134938012
 40
1.59548986337128
 40
1.719934125348402
 40
1.850576620127493
 40
1.989059629987322
 40
2.134139054226881
 40
2.280698007207214
 40
2.424529739039457
 40
2.565929576985824
 40
2.708239260773557
 40
2.861717887443612
 40
3.045168540347324
 40
3.183798301138575
 40
3.314813961455458
 40
3.442083470447308
 40
3.569912708372882
 40
3.702177512509333
 40
3.842307559659544
 40
3.992872223245854
 40
4.156750662218355
 40
4.310981861107491
 40
4.445859909322584
 40
4.572393936131531
 40
4.701656719781897
 40
4.768279086008409
 40
4.835960697898323
 40
4.912788918729257
 40
5.006285208481429
 40
5.026909478751562
 40
5.047533749021183
 40
5.10180803147123
 40
5.162325165538527
 40
5.22691974599586
 40
5.294231806596625
 40
5.364544852554809
 40
5.438319055467918
 40
5.517877651324197
 40
5.607647714861565
 40
5.70044964254441
 40
5.788251142364134
 40
5.872714706039778
 40
5.955167292575306
 40
6.037192395190348
 40
6.120669181469043
 40
6.206848616686279
 40
6.296680855416744
 40
6.442558392872535
 40
6.568190371608186
 40
6.692904567360262
 40
6.824220446557104
 40
6.963121850329327
 40
7.107843738850995
 40
7.25343166390718
 40
7.395187468036604
 40
7.53314075323768
 40
7.670550457175167
 40
7.816236511769201
 40
7.987691657359136
 40
8.142277421969197
 40
8.293662615414895
 40
8.442962460879192
 40
8.591598316185257
 40
8.743678992361701
 40
8.903725323699057
 40
9.076307008890405
 40
9.265578604680545
 40
9.459203795360636
 40
9.617619810273396
 40
9.753609671361822
 40
9.87487330000404
 40
9.954520184977719
 40
10.02416413719239
 40
10.09769764405438
 40
10.18909955924968
 40
10.2097458642013
 40
10.23039218263372
 40
10.30057101881252
 40
10.37632012987538
 40
10.37632012987538
 40
10.37632012987538
 40
10.37632012987538
 10
170.1465954835851
 20
14.13795663215991
 10
170.1632217851219
 20
14.11720608845312
 10
170.1970784206578
 20
14.07495111711905
 10
170.2599822541037
 20
14.02029811392076
 10
170.3332500940394
 20
13.97299025121051
 10
170.4175969238636
 20
13.93527231437939
 10
170.513224061546
 20
13.91040619731948
 10
170.6171853775346
 20
13.90309559345937
 10
170.7224020220406
 20
13.91142322794056
 10
170.8206626371333
 20
13.94149179651529
 10
170.9058986427549
 20
13.98848822971878
 10
170.9779220206103
 20
14.04952991250858
 10
171.0350917709096
 20
14.12412969578585
 10
171.0767868747441
 20
14.21002464660173
 10
171.1026952846291
 20
14.30485850432215
 10
171.1118037332655
 20
14.41854979038369
 10
171.0986864796487
 20
14.54332587770782
 10
171.0325330334415
 20
14.66014719171893
 10
170.9369370919569
 20
14.74512539577384
 10
170.8249681022369
 20
14.81416684459163
 10
170.6993659583269
 20
14.87204142045894
 10
170.5656691620858
 20
14.92373723284345
 10
170.4313122818831
 20
14.97899092397178
 10
170.3051983986878
 20
15.04939770641651
 10
170.1926579987535
 20
15.13785540731249
 10
170.0969963064458
 20
15.24981067868475
 10
170.0334157151826
 20
15.39949910101382
 10
170.0200706505016
 20
15.5593279438514
 10
170.0320510987449
 20
15.71048405306845
 10
170.0712298928842
 20
15.83809244591539
 10
170.1354987750911
 20
15.95080874030845
 10
170.223820499974
 20
16.04648609268691
 10
170.3338091207628
 20
16.12354214985752
 10
170.4632284401265
 20
16.18151396936284
 10
170.6111838967794
 20
16.21739177588823
 10
170.7682069455487
 20
16.22746719050564
 10
170.917494046643
 20
16.21863637762589
 10
171.0596253614171
 20
16.19074899340361
 10
171.1595922609626
 20
16.13413314701138
 10
171.3125074736184
 20
16.08674602105513
 10
171.2455131717169
 20
16.00197553001183
 10
171.2296479120268
 20
15.9343890187349
 10
171.1978750531297
 20
15.86926092793194
 10
171.2150202209571
 20
15.76723453256955
 10
171.1666427208232
 20
15.77493211681907
 10
171.1315789440766
 20
15.76806771724811
 10
171.1296697985717
 20
15.83263831158197
 10
171.0985692931989
 20
15.878256396214
 10
171.0664551628455
 20
15.93561036628451
 10
171.0208038475169
 20
15.98540462692565
 10
170.9658508218387
 20
16.02994813719
 10
170.9010841173008
 20
16.06763988836547
 10
170.8232377310597
 20
16.09283375791354
 10
170.7355160553353
 20
16.0993123099811
 10
170.6452903277806
 20
16.09235709285609
 10
170.5594594694064
 20
16.06909190460927
 10
170.4828343638596
 20
16.03131644107546
 10
170.4165265636201
 20
15.98051641089576
 10
170.3622560536965
 20
15.91731143407211
 10
170.3224925345459
 20
15.8427645571037
 10
170.2976775510588
 20
15.75917313997766
 10
170.2892124262871
 20
15.65192948382288
 10
170.3019697987104
 20
15.52965457267561
 10
170.3681548409272
 20
15.41149724291216
 10
170.4640977399833
 20
15.3260632570953
 10
170.5757914963182
 20
15.25583362306733
 10
170.7010863668703
 20
15.19659162305311
 10
170.8349823941447
 20
15.14616708086126
 10
170.9689930333149
 20
15.09322516984387
 10
171.0950885316915
 20
15.02750170625175
 10
171.2076216638418
 20
14.94480352537326
 10
171.3031370284232
 20
14.83996006310072
 10
171.3672706486963
 20
14.69937117251573
 10
171.3811103725279
 20
14.54065409451593
 10
171.3673954712229
 20
14.38153155217879
 10
171.3244739153985
 20
14.23483828819212
 10
171.2545906329067
 20
14.10119796587142
 10
171.1574592213829
 20
13.985323876993
 10
171.0347806023658
 20
13.89089981770088
 10
170.8874408413168
 20
13.82179270651984
 10
170.7177132497125
 20
13.77953210858855
 10
170.5317404979598
 20
13.76781736230408
 10
170.3528955926184
 20
13.77809486683439
 10
170.1881733753744
 20
13.8196657376916
 10
170.0834410841056
 20
13.88797642883939
 10
169.9350960790366
 20
13.9367521903211
 10
169.9980378194729
 20
14.02976591290845
 10
170.0072274430061
 20
14.10296536248278
 10
170.0303711301231
 20
14.16936294501348
 10
170.0034588335317
 20
14.26974809527582
 10
170.052133895634
 20
14.26234033517381
 10
170.0916530580698
 20
14.26894063620896
 10
170.0996204944701
 20
14.19078703218931
 10
170.1305436967922
 20
14.15600927375855
 10
170.1465954835851
 20
14.13795663215991
 97
        1
330
A4
 75
     1
 76
     2
 52
45.0
 41
0.1
 77
     0
 78
     1
 53
45.0
 43
0.0
 44
0.0
 45
-0.282842712474619
 46
0.0
 79
     0
 98
        1
 10
0.0
 20
0.0
  0
HATCH
  5
C3
330
48
100
AcDbEntity
  8
1
  6
Continuous
 62
     2
100
AcDbHatch
 10
0.0
 20
0.0
 30
0.0
210
0.0
220
0.0
230
1.0
  2
CUSTOM1
 70
     0
 71
     1
 91
        2
 92
        1
 93
        1
 72
     4
 94
        3
 73
     0
 74
     0
 95
       57
 96
       53
 40
0.0
 40
0.0
 40
0.0
 40
0.0
 40
0.0471632082810019
 40
0.0914861054632944
 40
0.1357762519702612
 40
0.1826527001611475
 40
0.2295203288573384
 40
0.2737751972222406
 40
0.3181310461543585
 40
0.3652607198398402
 40
0.4571007286314347
 40
0.567185102916517
 40
0.6894623283868173
 40
0.8181758272545632
 40
0.9510087229273614
 40
1.085852229674051
 40
1.218126164475253
 40
1.34354513114236
 40
1.454537202956804
 40
1.56718760753087
 40
1.680710966642403
 40
1.794226869736853
 40
1.900009184247595
 40
2.004085860448046
 40
2.108162674451848
 40
2.214000150155278
 40
2.496038577352163
 40
2.762350745479305
 40
2.997275353279421
 40
3.185110082137695
 40
3.246407890063974
 40
3.312607550212762
 40
3.378877742711636
 40
3.440140399651401
 40
4.10050169600637
 40
4.75491308556344
 40
5.411331693423819
 40
6.077890432568617
 40
6.110575292670896
 40
6.143260152775676
 40
6.367989363395018
 40
6.610525374951417
 40
6.863389136467211
 40
7.11938002554754
 40
7.376036605090942
 40
7.631164770966143
 40
7.876722425456292
 40
8.104953735855768
 40
8.312916685924192
 40
8.497730294941162
 40
8.651018984313705
 40
8.764738853624447
 40
8.764738853624447
 40
8.764738853624447
 40
8.764738853624447
 10
174.7922649500514
 20
13.81626739612932
 10
174.7766616726932
 20
13.8182623107908
 10
174.7463947960302
 20
13.82213201360296
 10
174.7010994202252
 20
13.8234198496727
 10
174.6559553129349
 20
13.82308683554051
 10
174.60990171234
 20
13.82314658674225
 10
174.5640496172096
 20
13.82325813650001
 10
174.5183711648164
 20
13.82277833456592
 10
174.4750811541608
 20
13.82461109618717
 10
174.4039947951514
 20
13.80049556814667
 10
174.4057477261441
 20
13.92184693977253
 10
174.358619637057
 20
14.00726239751236
 10
174.3191478251762
 20
14.12486929345136
 10
174.2706635532646
 20
14.24232752540443
 10
174.2201017402522
 20
14.3640593576151
 10
174.1718634610478
 20
14.49075967862471
 10
174.1135232947595
 20
14.59933687784952
 10
174.0980892667262
 20
14.75620657134417
 10
173.9566586330636
 20
14.72373446548321
 10
173.8508397414903
 20
14.73512888682181
 10
173.7358569725223
 20
14.73392591514615
 10
173.6253142252141
 20
14.73506945347408
 10
173.5176583522782
 20
14.73418350037526
 10
173.4121322529242
 20
14.7341660239052
 10
173.3109192682013
 20
14.72714032472415
 10
173.1266804827753
 20
14.75135859859871
 10
173.1157393685411
 20
14.44741691121887
 10
173.008769163475
 20
14.22353177253401
 10
172.9098148604347
 20
14.03895314292495
 10
172.9225090524008
 20
13.79530204804217
 10
172.8050091716398
 20
13.82508046753194
 10
172.7422055868309
 20
13.82258089509606
 10
172.67858720934
 20
13.82344075102802
 10
172.3946014194074
 20
13.78098039941975
 10
173.0251638499383
 20
14.50081952444781
 10
173.108764528907
 20
15.01276539435737
 10
173.4929252789341
 20
15.53353743550046
 10
173.4777208288563
 20
16.2351962625321
 10
173.7239265722698
 20
16.22345633081257
 10
173.8256346157563
 20
16.23225004452772
 10
173.8249752035817
 20
15.98059650730346
 10
173.9428317155829
 20
15.79818020733962
 10
174.0315515260486
 20
15.55563740662866
 10
174.132229248526
 20
15.32340030530129
 10
174.2311142712244
 20
15.08674644566916
 10
174.3299676990668
 20
14.85461739170092
 10
174.4256166390927
 20
14.63122222788796
 10
174.515990457327
 20
14.42272549049311
 10
174.598994456819
 20
14.23308448529324
 10
174.6726088582799
 20
14.06663106068104
 10
174.7342815895546
 20
13.92917699626102
 10
174.7749458885605
 20
13.84999239430039
 10
174.7922649500514
 20
13.81626739612932
 97
        1
330
A5
 92
       16
 93
        1
 72
     4
 94
        3
 73
     0
 74
     0
 95
       25
 96
       21
 40
0.0
 40
0.0
 40
0.0
 40
0.0
 40
0.0911479969064535
 40
0.1858117896204948
 40
0.2804128399734203
 40
0.3715889190713655
 40
0.4679080494218137
 40
0.5642683809228374
 40
0.6605683222644135
 40
0.7569653015809397
 40
0.856134817252193
 40
1.092615965104216
 40
1.374867658141822
 40
1.611348812011527
 40
1.710518328425193
 40
1.809403163726505
 40
2.045205463294046
 40
2.326646917622116
 40
2.562449217190604
 40
2.661334043833919
 40
2.661334043833919
 40
2.661334043833919
 40
2.661334043833919
 10
173.26837005672
 20
14.88614538197292
 10
173.2987525917924
 20
14.88598079714556
 10
173.3606895889112
 20
14.88564528689924
 10
173.4541356960331
 20
14.88269055452002
 10
173.5475095236357
 20
14.87977752877154
 10
173.6417760753477
 20
14.87894201643418
 10
173.7354964790967
 20
14.87996644658049
 10
173.8352040303205
 20
14.87916977470972
 10
173.9188949546312
 20
14.88921410235221
 10
174.0637996315045
 20
14.86234617674165
 10
173.93961324448
 20
15.03665530280049
 10
173.8965867286283
 20
15.19651711006095
 10
173.780892214221
 20
15.45518458550217
 10
173.7017565431257
 20
15.59231052861866
 10
173.6431576621817
 20
15.80937033134084
 10
173.5864803939439
 20
15.59266134213432
 10
173.5052809900478
 20
15.45327012438243
 10
173.4063701281488
 20
15.20406969370195
 10
173.325362509426
 20
15.01925830226076
 10
173.2813683325838
 20
14.91650446856117
 10
173.26837005672
 20
14.88614538197292
 97
        1
330
A6
 75
     1
 76
     2
 52
45.0
 41
0.1
 77
     0
 78
     1
 53
45.0
 43
0.0
 44
0.0
 45
-0.282842712474619
 46
0.0
 79
     0
 98
        1
 10
0.0
 20
0.0
  0
HATCH
  5
C4
330
48
100
AcDbEntity
  8
1
  6
Continuous
 62
     2
100
AcDbHatch
 10
0.0
 20
0.0
 30
0.0
210
0.0
220
0.0
230
1.0
  2
CUSTOM2
 70
     0
 71
     1
 91
        1
 92
        1
 93
        1
 72
     4
 94
        3
 73
     0
 74
     0
 95
       95
 96
       91
 40
0.0
 40
0.0
 40
0.0
 40
0.0
 40
0.6550406656911456
 40
1.308087289031968
 40
1.420803739835847
 40
1.566130759770836
 40
1.75706734188849
 40
2.006513545026468
 40
2.08732826312156
 40
2.185328872295678
 40
2.294612454748426
 40
2.408936380534852
 40
2.526802767798598
 40
2.646360524615635
 40
2.762535723971619
 40
2.870057342870189
 40
2.966883448431669
 40
3.050803243518354
 40
3.115818222436646
 40
3.156030057150252
 40
3.213914225080149
 40
3.276689026450465
 40
3.342960320981271
 40
3.404230667150572
 40
3.453822809493365
 40
3.532499827188456
 40
3.634775188507152
 40
3.754909333008131
 40
3.889736761660663
 40
4.03576960217526
 40
4.187256681197621
 40
4.338733685675892
 40
4.488478734676091
 40
4.634708317831555
 40
4.771493189921228
 40
4.892686571561189
 40
5.199775528944413
 40
5.460353566929576
 40
5.667603142345488
 40
5.814722905404457
 40
5.828990806219783
 40
5.855488336304395
 40
5.869756237118699
 40
6.189796507762748
 40
6.531890469872956
 40
6.88305363701688
 40
7.230512024911411
 40
7.566966656764517
 40
7.88520355970733
 40
8.172887439719103
 40
8.418011594062627
 40
8.44392672119055
 40
8.510760470613038
 40
8.60214539379555
 40
8.701714041646992
 40
8.793098965075226
 40
8.859932715057798
 40
8.885847842603448
 40
9.242301256612643
 40
9.589275455016557
 40
9.921808543164007
 40
10.23479624298453
 40
10.29968150889177
 40
10.35323493887751
 40
10.40154625355147
 40
10.4648292247782
 40
10.559739006684
 40
10.69239545985618
 40
10.84920353475669
 40
11.01626328594776
 40
11.18672024367437
 40
11.35372582577208
 40
11.5025744229242
 40
11.61866495023289
 40
11.7132986915287
 40
11.825110505739
 40
11.94464880845712
 40
12.06929242642502
 40
12.19707290435175
 40
12.32562632860524
 40
12.45034565331274
 40
12.56646595170323
 40
12.67099007414632
 40
12.76077625936781
 40
12.82703233506694
 40
12.8742913278599
 40
12.89831990323326
 40
12.92234847860009
 40
13.53984767410314
 40
14.18294284359357
 40
14.18294284359357
 40
14.18294284359357
 40
14.18294284359357
 10
177.3067935648021
 20
14.70898038201722
 10
177.175201975855
 20
14.8226505860323
 10
176.912419380273
 20
15.04964496316159
 10
176.3997393441017
 20
15.8921446295629
 10
176.4106654595364
 20
15.53423377577022
 10
176.4041226527992
 20
15.39267392272134
 10
176.4028026631773
 20
15.19421305299285
 10
176.4018117602537
 20
15.02150296045987
 10
176.4024101751975
 20
14.87865373257583
 10
176.4038994301882
 20
14.7826500541336
 10
176.4055683588473
 20
14.67545503263142
 10
176.4071934954619
 20
14.56164211517583
 10
176.4092429501687
 20
14.44441572604591
 10
176.4123165501926
 20
14.32656411232972
 10
176.4156339697043
 20
14.21228087320623
 10
176.4193605340281
 20
14.10521401867279
 10
176.4217338161423
 20
14.01007408766923
 10
176.4278718888358
 20
13.92558557205697
 10
176.4239784495946
 20
13.86923087298142
 10
176.4455230443077
 20
13.79825022472362
 10
176.3680940058618
 20
13.82902677604478
 10
176.3116353240191
 20
13.82011242517617
 10
176.2540495896807
 20
13.82896218398272
 10
176.1690163478472
 20
13.7973822522595
 10
176.2009714146382
 20
13.88095155992194
 10
176.1990705282541
 20
13.94882608968313
 10
176.2107960047299
 20
14.05233256764421
 10
176.2164241053001
 20
14.17002125616696
 10
176.223790217894
 20
14.30388609164427
 10
176.2320759701611
 20
14.44764152872637
 10
176.2398851897426
 20
14.59714022843447
 10
176.2457571222658
 20
14.74792549402079
 10
176.2503667817968
 20
14.89699943878437
 10
176.2542632117544
 20
15.04122913163021
 10
176.2570715126565
 20
15.17583905213017
 10
176.2576698755023
 20
15.36469614347354
 10
176.2616023867151
 20
15.58975494313153
 10
176.2442175378498
 20
15.86367091125706
 10
176.2850417342583
 20
16.02787112098596
 10
176.1995153256002
 20
16.22749661465095
 10
176.2660558907689
 20
16.22385458403978
 10
176.283872427323
 20
16.22413447160854
 10
176.4056801797504
 20
16.22632927398614
 10
176.5080770335462
 20
15.94675118721512
 10
176.7580021509357
 20
15.74563008536005
 10
176.987003533111
 20
15.4779261498791
 10
177.224515121311
 20
15.22646413862383
 10
177.4486090740772
 20
14.9896997406136
 10
177.6750716283011
 20
14.73218692583086
 10
177.8325687886514
 20
14.61649335056924
 10
178.0472129612675
 20
14.27997152538798
 10
178.0422645974618
 20
14.40464754091605
 10
178.0433931602546
 20
14.46327691935739
 10
178.0428877841516
 20
14.55043662371979
 10
178.0430475158113
 20
14.64416143182875
 10
178.0430054891318
 20
14.73018971297038
 10
178.0430202040372
 20
14.79153891945498
 10
178.0429706255984
 20
14.94135231520996
 10
178.0458811522811
 20
15.17989612510105
 10
178.0259521041161
 20
15.54486509868699
 10
178.0750433936249
 20
15.80799631993417
 10
177.9177951509179
 20
16.21928904947752
 10
178.0762112872421
 20
16.16398282551754
 10
178.1311680478628
 20
16.1619968650018
 10
178.1827887766739
 20
16.16264778248254
 10
178.2713198965366
 20
16.20369527738247
 10
178.2204898303168
 20
16.05696326622986
 10
178.2313389930283
 20
15.95019971954434
 10
178.2166036994848
 20
15.79085705414112
 10
178.2099976446205
 20
15.62853061652876
 10
178.2014961399917
 20
15.45992521892397
 10
178.1943227202198
 20
15.29814814703544
 10
178.1889063215389
 20
15.15422331457934
 10
178.1871713967649
 20
15.03437493466927
 10
178.187544067232
 20
14.92686101590518
 10
178.1873656126263
 20
14.81820024645589
 10
178.1877010863141
 20
14.69953570165533
 10
178.1890040622182
 20
14.57555163512742
 10
178.1908887351576
 20
14.44858294171106
 10
178.1925004454848
 20
14.32153861551033
 10
178.1941403137431
 20
14.19854884492181
 10
178.1962570745751
 20
14.08300931383761
 10
178.1963848422364
 20
13.98090903955838
 10
178.2006514396554
 20
13.89009848838156
 10
178.1908440085289
 20
13.83213621208786
 10
178.2118474771689
 20
13.7651713013203
 10
178.1725639739897
 20
13.77291153966688
 10
177.9595307117748
 20
13.75755254145196
 10
177.7636297943186
 20
14.3140305809447
 10
177.4611197631544
 20
14.57556035348509
 10
177.3067935648021
 20
14.70898038201722
 97
        1
330
A7
 75
     1
 76
     2
 52
45.0
 41
0.1
 77
     0
 78
     1
 53
45.0
 43
0.0
 44
0.0
 45
-0.282842712474619
 46
0.0
 79
     0
 98
        1
 10
0.0
 20
0.0
  0
HATCH
  5
C5
330
48
100
AcDbEntity
  8
1
  6
Continuous
 62
     2
100
AcDbHatch
 10
0.0
 20
0.0
 30
0.0
210
0.0
220
0.0
230
1.0
  2
CUSTOM3
 70
     0
 71
     1
 91
        1
 92
        1
 93
        1
 72
     4
 94
        3
 73
     0
 74
     0
 95
      110
 96
      106
 40
0.0
 40
0.0
 40
0.0
 40
0.0
 40
0.2203406257277945
 40
0.4407808782838143
 40
0.5952494494613995
 40
0.7488431659392294
 40
0.9023581831308549
 40
1.05680196867041
 40
1.210736449099854
 40
1.363041386539787
 40
1.515315729683075
 40
1.669377239147998
 40
1.721611652756505
 40
1.773199502942915
 40
1.824933793209921
 40
1.877110426487929
 40
1.982682281206665
 40
2.078781667087505
 40
2.172809640822169
 40
2.271937807378879
 40
2.378349933379271
 40
2.494131557736345
 40
2.626681683943536
 40
2.783145050795935
 40
2.89070123294078
 40
2.993130312454716
 40
3.099869730691664
 40
3.220237816691137
 40
3.352695482737404
 40
3.481732806389639
 40
3.593499473690223
 40
3.674323013331774
 40
3.817951711952724
 40
3.946167120793835
 40
4.061405053453464
 40
4.166480796003043
 40
4.262478775059196
 40
4.350736673551155
 40
4.433071991253898
 40
4.511216293814637
 40
4.564262454117932
 40
4.618474415571521
 40
4.670128488754115
 40
4.722296879126374
 40
4.819540945314301
 40
4.9311949841281
 40
5.0499960402578
 40
5.168643755415487
 40
5.283970811762642
 40
5.39226078491044
 40
5.486512254876457
 40
5.559178233949913
 40
5.591425852853588
 40
5.626215969637931
 40
5.667155838674487
 40
5.717449290214327
 40
5.738402360944942
 40
5.784499116553906
 40
5.830595872164878
 40
5.851548942897734
 40
5.873019280661847
 40
5.924217778408389
 40
5.985325662817765
 40
6.036524160567778
 40
6.057994498334304
 40
6.236847789607559
 40
6.381409928945749
 40
6.493190424178755
 40
6.574067534230517
 40
6.691018086205583
 40
6.814881554220529
 40
6.944307823240396
 40
7.071266716066019
 40
7.193488604461864
 40
7.309042773128091
 40
7.414007203170772
 40
7.505140441886474
 40
7.531150360599626
 40
7.559221645322219
 40
7.587202218920873
 40
7.612569159499089
 40
7.662550809480941
 40
7.702878875764047
 40
7.857328205230803
 40
8.010799568088592
 40
8.165256399657428
 40
8.322232698713796
 40
8.479564855016482
 40
8.635216230290686
 40
8.790882550925604
 40
8.948305154947082
 40
9.168271839032766
 40
9.387358980987003
 40
9.608047961033265
 40
9.832914234792407
 40
9.858338694962743
 40
9.925366817229756
 40
10.02013071422735
 40
10.12876249858974
 40
10.23739428295225
 40
10.33215817995167
 40
10.39918630222371
 40
10.42461076239761
 40
10.64992019336919
 40
10.87188524531166
 40
10.87188524531166
 40
10.87188524531166
 40
10.87188524531166
 10
179.9057788376618
 20
15.73923260398192
 10
179.9092864933542
 20
15.80616462073807
 10
179.9163033987663
 20
15.9400589191586
 10
179.8198027599074
 20
16.2254855497147
 10
180.0510134726108
 20
16.16284386190284
 10
180.1919290057156
 20
16.17001554055986
 10
180.3490417757588
 20
16.16235883078248
 10
180.5025913427288
 20
16.16252752283046
 10
180.6545104935081
 20
16.16182040535436
 10
180.8142214813232
 20
16.17210158351634
 10
180.9408972601118
 20
16.15496511080753
 10
181.137082112208
 20
16.22727260107149
 10
181.1034395279078
 20
16.12640699080116
 10
181.1052011317184
 20
16.07619253947669
 10
181.1027342073459
 20
16.02712335586465
 10
181.1347076966011
 20
15.94063490846997
 10
181.0010399903256
 20
15.98997438608335
 10
180.9172208688057
 20
15.98430634314172
 10
180.8173861139324
 20
15.99465516706301
 10
180.7186576720146
 20
16.00086450411088
 10
180.6121532771111
 20
16.00697763816778
 10
180.491051169806
 20
16.01588883484581
 10
180.3703381502454
 20
16.00521605912386
 10
180.1812553843438
 20
16.06468503080365
 10
180.2129028505311
 20
15.90558320077539
 10
180.1995563316834
 20
15.80839128339904
 10
180.1974958426451
 20
15.69634065110104
 10
180.195818804467
 20
15.57699685629354
 10
180.1973336794233
 20
15.45032592155115
 10
180.1956582478672
 20
15.32301588016122
 10
180.2058844271658
 20
15.22451566404466
 10
180.1779006596582
 20
15.08388702625628
 10
180.3508029999306
 20
15.13989551134099
 10
180.4645020202773
 20
15.12719951478503
 10
180.5840151672239
 20
15.13448377051262
 10
180.6888491425073
 20
15.13878017056748
 10
180.7843084898612
 20
15.14330568258977
 10
180.8763823507033
 20
15.15149201146205
 10
180.947655178244
 20
15.14643850638119
 10
181.0544931705686
 20
15.18536425031674
 10
181.0226603598037
 20
15.10517122005882
 10
181.0266164503929
 20
15.05562936846037
 10
181.0234502392013
 20
15.00557478039822
 10
181.0550791490586
 20
14.92128847612021
 10
180.9210133677692
 20
14.97425365495157
 10
180.8292322793201
 20
14.9654008089044
 10
180.7079729189603
 20
14.97570049965161
 10
180.5914113119771
 20
14.977489117675
 10
180.4783375745878
 20
14.97787017109697
 10
180.3679246308471
 20
14.98415449472186
 10
180.2898124067841
 20
14.97189133255366
 10
180.1913625833643
 20
15.0045388761613
 10
180.2012355173561
 20
14.94769748054209
 10
180.1973923244403
 20
14.91392130557987
 10
180.1966789884268
 20
14.87119604709414
 10
180.1963369642975
 20
14.83401607262155
 10
180.1963834255345
 20
14.79487237370771
 10
180.1963649429927
 20
14.75716849497687
 10
180.1963703431806
 20
14.71944955232403
 10
180.19636972142
 20
14.68994324745151
 10
180.1963698151545
 20
14.65873577699302
 10
180.1963704287921
 20
14.61414424908086
 10
180.1963671499337
 20
14.55963956508853
 10
180.196375962348
 20
14.51505540201449
 10
180.1963359653418
 20
14.43117808585742
 10
180.1976024270255
 20
14.31737520677679
 10
180.1950274117843
 20
14.1683039593371
 10
180.206500938172
 20
14.06597203813908
 10
180.1823506222264
 20
13.93338903885842
 10
180.3332993946477
 20
13.97895732272028
 10
180.4428436671556
 20
13.96427012162357
 10
180.573397047392
 20
13.96920435125066
 10
180.6990312209513
 20
13.97257705323362
 10
180.8188730625601
 20
13.97711497498774
 10
180.9391362611426
 20
13.99048536182006
 10
181.0222761663515
 20
13.98068712782593
 10
181.1456080421075
 20
14.04126214623318
 10
181.1244269203956
 20
13.98532460134021
 10
181.1235950270117
 20
13.95939249372346
 10
181.1218963707559
 20
13.93197256190939
 10
181.1217974888829
 20
13.89738195206386
 10
181.120365930133
 20
13.8605040822077
 10
181.153280419219
 20
13.76846841021813
 10
180.9551306988107
 20
13.8413201597483
 10
180.8300548294891
 20
13.81825726508608
 10
180.6673071295156
 20
13.82454021985786
 10
180.5129366450001
 20
13.82260943909927
 10
180.3566670436944
 20
13.82393762599268
 10
180.1970544465281
 20
13.82059872487864
 10
180.0540326342237
 20
13.83265795728237
 10
179.819714488163
 20
13.76952001976928
 10
179.9173810751197
 20
14.0562052746632
 10
179.9006868780058
 20
14.24988308142663
 10
179.9146296709686
 20
14.47848242880295
 10
179.9142987846632
 20
14.63384593955047
 10
179.9143078119265
 20
14.73966336444123
 10
179.9143055876317
 20
14.80205784124212
 10
179.9143065551889
 20
14.89220425248325
 10
179.9143065473262
 20
14.99621167157437
 10
179.9143053861103
 20
15.10022131375296
 10
179.9143090971503
 20
15.19036243688768
 10
179.9143011051052
 20
15.25276803097216
 10
179.9143334275018
 20
15.35868835961119
 10
179.9131440788321
 20
15.51626716544741
 10
179.9082216489256
 20
15.66528219822067
 10
179.9057788376618
 20
15.73923260398192
 97
        1
330
A8
 75
     1
 76
     2
 52
45.0
 41
0.1
 77
     0
 78
     1
 53
45.0
 43
0.0
 44
0.0
 45
-0.282842712474619
 46
0.0
 79
     0
 98
        1
 10
0.0
 20
0.0
  0
HATCH
  5
C6
330
48
100
AcDbEntity
  8
1
  6
Continuous
 62
     2
100
AcDbHatch
 10
0.0
 20
0.0
 30
0.0
210
0.0
220
0.0
230
1.0
  2
CUSTOM4
 70
     0
 71
     1
 91
        1
 92
        1
 93
        1
 72
     4
 94
        3
 73
     0
 74
     0
 95
       47
 96
       43
 40
0.0
 40
0.0
 40
0.0
 40
0.0
 40
0.2207912809957325
 40
0.4459404186303327
 40
0.4902387190459291
 40
0.5327473892722286
 40
0.5742260451225282
 40
0.6155432630559999
 40
0.656816406631491
 40
0.6982511618779788
 40
0.7407663929315775
 40
0.7851366743175554
 40
1.010288833836375
 40
1.231080507002238
 40
1.451765243652452
 40
1.676638205891702
 40
1.720461045359675
 40
1.830018144043539
 40
1.972442372353168
 40
2.114866600677539
 40
2.224423699395162
 40
2.268246538883403
 40
2.49362880120728
 40
2.715602830286664
 40
2.934211330706422
 40
3.149502369855387
 40
3.231387784851114
 40
3.318231873854178
 40
3.405143198198138
 40
3.486970301720485
 40
3.702258172493893
 40
3.920866283534128
 40
4.142839325931903
 40
4.368221903865409
 40
4.412044743359891
 40
4.521601842095903
 40
4.664026070452383
 40
4.806450298809093
 40
4.916007397546785
 40
4.959830237043109
 40
5.184703515847106
 40
5.405387250767465
 40
5.405387250767465
 40
5.405387250767465
 40
5.405387250767465
 10
182.6507427258646
 20
15.73406440953872
 10
182.6568139420004
 20
15.7975848250121
 10
182.6690762107244
 20
15.92587938689627
 10
182.5604706879413
 20
16.2016622017408
 10
182.6761985896605
 20
16.17188133432055
 10
182.7171842509016
 20
16.16765556262816
 10
182.7591205797518
 20
16.1631044638961
 10
182.800419662571
 20
16.1620198292949
 10
182.8417032115556
 20
16.16310338195231
 10
182.8836148270647
 20
16.16766112711338
 10
182.9245983549019
 20
16.17187430209732
 10
183.0404922843489
 20
16.20177611317537
 10
182.9295652727457
 20
15.92339806609894
 10
182.9574856365266
 20
15.74283140824952
 10
182.940426734697
 20
15.50961042346474
 10
182.9414637282101
 20
15.34906622543149
 10
182.9414099399405
 20
15.22284817558727
 10
182.941427737248
 20
15.12428963336246
 10
182.9414188581081
 20
14.99280702442968
 10
182.9414263928034
 20
14.86132844968655
 10
182.9414129405128
 20
14.76276222694095
 10
182.9414531717492
 20
14.63639735624155
 10
182.9406746403817
 20
14.47482068822872
 10
182.9565958319267
 20
14.24361821892916
 10
182.9333468885407
 20
14.05874351972
 10
183.0360183444368
 20
13.78935602770065
 10
182.8820238362837
 20
13.82660112685814
 10
182.8004129802832
 20
13.82137994680537
 10
182.7188192292583
 20
13.82660620378348
 10
182.5648513666843
 20
13.78937069885399
 10
182.6674183421919
 20
14.05875129862882
 10
182.6442045316089
 20
14.24361585325416
 10
182.6600444655139
 20
14.47482218565641
 10
182.6593296313429
 20
14.63639712308506
 10
182.6593664569907
 20
14.76276231210525
 10
182.6593549000272
 20
14.86132756635987
 10
182.6593575019215
 20
14.99281127417225
 10
182.659364853178
 20
15.12427548031204
 10
182.6593442541352
 20
15.22287786275331
 10
182.6594082192029
 20
15.3489614935443
 10
182.658173394759
 20
15.51210091383773
 10
182.6532040396746
 20
15.6605418377755
 10
182.6507427258646
 20
15.73406440953872
 97
        1
330
A9
 75
     1
 76
     2
 52
45.0
 41
0.1
 77
     0
 78
     1
 53
45.0
 43
0.0
 44
0.0
 45
-0.282842712474619
 46
0.0
 79
     0
 98
        1
 10
0.0
 20
0.0
  0
HATCH
  5
C7
330
48
100
AcDbEntity
  8
1
  6
Continuous
 62
     2
100
AcDbHatch
 10
0.0
 20
0.0
 30
0.0
210
0.0
220
0.0
230
1.0
  2
CUSTOM5
 70
     0
 71
     1
 91
        1
 92
        1
 93
        1
 72
     4
 94
        3
 73
     0
 74
     0
 95
      118
 96
      114
 40
0.0
 40
0.0
 40
0.0
 40
0.0
 40
0.1054708162973555
 40
0.2466098270052557
 40
0.3965912874591924
 40
0.5285525069754681
 40
0.6156245055642717
 40
0.6431434105797875
 40
0.7036850037986425
 40
0.7642265984504515
 40
0.7917455052354847
 40
0.928740431999033
 40
1.106572819088101
 40
1.287544879681117
 40
1.317578308030634
 40
1.399928030857272
 40
1.522968204800047
 40
1.675072986590668
 40
1.844616533180745
 40
2.019973001638809
 40
2.189516548880122
 40
2.34162133158546
 40
2.464661506320597
 40
2.54701122964716
 40
2.577044658168124
 40
2.603797890893138
 40
2.662655002908797
 40
2.721512114949552
 40
2.748265347702703
 40
2.77421530734478
 40
2.845959313407108
 40
2.954338556588305
 40
3.090194227585477
 40
3.24436751710044
 40
3.407699615844193
 40
3.571031714539338
 40
3.725205003920011
 40
3.861060674729509
 40
3.9694399177162
 40
4.04118392362887
 40
4.067133883212864
 40
4.311886746012012
 40
4.547897258335394
 40
4.764747083043867
 40
4.952749679951676
 40
5.045772974195792
 40
5.137862019644865
 40
5.330543169792906
 40
5.553448265243906
 40
5.795083855888077
 40
6.043293412177149
 40
6.285761695541112
 40
6.313902908752624
 40
6.384255941793214
 40
6.475714884766802
 40
6.567173827758836
 40
6.637526860839614
 40
6.665668074073977
 40
6.692018920327941
 40
6.74999078207099
 40
6.807962643790338
 40
6.834313490017802
 40
6.856393084245081
 40
6.913335195649733
 40
6.991194817302368
 40
7.076026942283601
 40
7.153886563725148
 40
7.210828674844702
 40
7.232908268931038
 40
7.25819933492356
 40
7.324875781592215
 40
7.419142481924879
 40
7.52720430884183
 40
7.635266135230419
 40
7.729532834168412
 40
7.796209279292741
 40
7.821500344594687
 40
7.844652988850786
 40
7.899863140541537
 40
7.965759128053705
 40
8.020969279771018
 40
8.044121924046484
 40
8.069356610160604
 40
8.109134395441503
 40
8.132238100191218
 40
8.193147867786584
 40
8.27926167887676
 40
8.377977512673981
 40
8.476693347146771
 40
8.562807160411825
 40
8.623716930826616
 40
8.64682063685357
 40
8.671988793774412
 40
8.734909185828323
 40
8.816705695189095
 40
8.898502204815694
 40
8.961422597378183
 40
8.986590754551324
 40
9.01294160073347
 40
9.070913462380533
 40
9.128885324082006
 40
9.155236170325319
 40
9.180404327929361
 40
9.243324721948463
 40
9.325121234212313
 40
9.406917746637996
 40
9.469838141978508
 40
9.495006288271282
 40
9.517811184379427
 40
9.572192090487436
 40
9.637098333281672
 40
9.69147923951588
 40
9.714284125643923
 40
9.714284125643923
 40
9.714284125643923
 40
9.714284125643923
 10
185.2874469028652
 20
15.26889163187722
 10
185.3090990569037
 20
15.24111869242814
 10
185.3597257109473
 20
15.17618054561238
 10
185.4349383202591
 20
15.06891060312903
 10
185.5248482274347
 20
14.95377438266629
 10
185.5709169676674
 20
14.85357045748322
 10
185.6655825294654
 20
14.78434006814947
 10
185.6204439320413
 20
14.73771639678275
 10
185.5947047785791
 20
14.69660308866043
 10
185.5645196708012
 20
14.6606597172794
 10
185.5193684730564
 20
14.58579782596095
 10
185.4710504458561
 20
14.80782524253606
 10
185.3968539713073
 20
14.84510677337715
 10
185.2836047324606
 20
15.11610202130601
 10
185.2885133578168
 20
15.00095328446228
 10
185.2868486556306
 20
14.92836675781628
 10
185.2876830076713
 20
14.80625588483986
 10
185.2873609540263
 20
14.6591380081046
 10
185.2875076912455
 20
14.49307063956557
 10
185.2872950092722
 20
14.32187554608602
 10
185.2879497252032
 20
14.15552828635498
 10
185.2859192461138
 20
14.00935173055694
 10
185.2913460399929
 20
13.8847104747461
 10
185.2804930868707
 20
13.81718656540627
 10
185.2956739155554
 20
13.75549061417023
 10
185.2457895108133
 20
13.76727503897001
 10
185.2017150342522
 20
13.75943822779969
 10
185.1582371630201
 20
13.76760441372703
 10
185.1092346786489
 20
13.75538056738468
 10
185.1218731234826
 20
13.80960667249314
 10
185.1130182968449
 20
13.86936918907557
 10
185.1175058770315
 20
13.9792202904437
 10
185.1157960135992
 20
14.11029975405677
 10
185.1163550915987
 20
14.26198011444326
 10
185.1161928768694
 20
14.42211074929952
 10
185.1162269924675
 20
14.58236865674564
 10
185.1162514960128
 20
14.73370247520437
 10
185.1161453543226
 20
14.86582156338598
 10
185.1164299141931
 20
14.9729480253319
 10
185.1158675547569
 20
15.03808619579471
 10
185.1180765083689
 20
15.1661895785867
 10
185.0319435998604
 20
14.79097610391572
 10
184.95551408185
 20
14.63918193123395
 10
184.8660040767834
 20
14.47766206446309
 10
184.7640413217326
 20
14.20471848820167
 10
184.718797649104
 20
14.36717346596514
 10
184.6102355941671
 20
14.45605432058119
 10
184.7995791751754
 20
14.60549794961412
 10
184.85653405457
 20
14.79749136974928
 10
184.9717520993352
 20
15.02899622906761
 10
184.9940151630132
 20
15.21797259759069
 10
185.1771905152142
 20
15.49454089325936
 10
185.0538033597552
 20
15.486989788321
 10
184.9925684166834
 20
15.48856772366124
 10
184.9081999617065
 20
15.48882592573679
 10
184.8204235085966
 20
15.48544845751212
 10
184.7656768696123
 20
15.49394814982026
 10
184.7104703026025
 20
15.48048561049794
 10
184.7222823035536
 20
15.52931442126768
 10
184.7142496151795
 20
15.57269004896711
 10
184.7228186104679
 20
15.61509438309575
 10
184.7102943409158
 20
15.66267796552118
 10
184.7555101538736
 20
15.65267212995109
 10
184.8014815562724
 20
15.65894105174061
 10
184.8777222047711
 20
15.65593561405872
 10
184.9561296131994
 20
15.65770448278541
 10
185.0323992648934
 20
15.65464793981659
 10
185.0783009459475
 20
15.66103971376176
 10
185.1231733965401
 20
15.65093822978897
 10
185.1105552275635
 20
15.70157201581899
 10
185.1191936582707
 20
15.7550126188207
 10
185.1152361595444
 20
15.84863255131682
 10
185.1162325068335
 20
15.95112606688926
 10
185.1171927413074
 20
16.05353270248166
 10
185.1133211458007
 20
16.14735929609325
 10
185.1217789814365
 20
16.20036542840358
 10
185.1093075932836
 20
16.25211435651194
 10
185.1542106389851
 20
16.23850747226762
 10
185.1955083836773
 20
16.24100480320589
 10
185.2595344281051
 20
16.23648060574489
 10
185.2986111148787
 20
16.22781003043311
 10
185.3476543498743
 20
16.23515102070686
 10
185.3225080030591
 20
16.19602896051755
 10
185.2815901333723
 20
16.20563842455816
 10
185.2910109616603
 20
16.15540148169781
 10
185.2855647318746
 20
16.10385945639493
 10
185.2881699601803
 20
16.01959707584522
 10
185.2870102202154
 20
15.9255913558341
 10
185.2883591064231
 20
15.83196865395527
 10
185.2849970101507
 20
15.74679517552223
 10
185.2920959917769
 20
15.69716856072045
 10
185.2812569154544
 20
15.64993694969988
 10
185.3304010225245
 20
15.66201674936852
 10
185.3794877630147
 20
15.65447393363011
 10
185.4573714280641
 20
15.65686070361433
 10
185.5350365172895
 20
15.65899381905414
 10
185.5845393931356
 20
15.65193391922454
 10
185.6344594750639
 20
15.66360151936215
 10
185.6223198516882
 20
15.61540235371394
 10
185.6305838229144
 20
15.57249219801239
 10
185.6223198650786
 20
15.5295820185139
 10
185.6344594549855
 20
15.48138288754871
 10
185.5845395158748
 20
15.49305034471517
 10
185.5350350651203
 20
15.48599202435052
 10
185.4573784382973
 20
15.48811665228609
 10
185.3794643865759
 20
15.49053389365766
 10
185.3304500352715
 20
15.48291848194491
 10
185.2813246108942
 20
15.49507952557598
 10
185.2915559988569
 20
15.45073013424163
 10
185.2856677678053
 20
15.40925436202916
 10
185.2878788305568
 20
15.34915394315307
 10
185.2874109346145
 20
15.30225782762892
 10
185.2874386992912
 20
15.27650146418199
 10
185.2874469028652
 20
15.26889163187722
 97
        1
330
AA
 75
     1
 76
     2
 52
45.0
 41
0.1
 77
     0
 78
     1
 53
45.0
 43
0.0
 44
0.0
 45
-0.282842712474619
 46
0.0
 79
     0
 98
        1
 10
0.0
 20
0.0
  0
HATCH
  5
C8
330
48
100
AcDbEntity
  8
1
  6
Continuous
 62
     2
100
AcDbHatch
 10
0.0
 20
0.0
 30
0.0
210
0.0
220
0.0
230
1.0
  2
CUSTOM6
 70
     0
 71
     1
 91
        1
 92
        1
 93
        1
 72
     4
 94
        3
 73
     0
 74
     0
 95
       91
 96
       87
 40
0.0
 40
0.0
 40
0.0
 40
0.0
 40
0.0345987051695718
 40
0.1258134969461085
 40
0.2547723404888703
 40
0.4026032099153556
 40
0.550434079341642
 40
0.6793929228835227
 40
0.7706077146570467
 40
0.8052064287780072
 40
1.124852390615194
 40
1.427402236308793
 40
1.706356627453442
 40
1.955541417875128
 40
2.16948593856628
 40
2.344350786664754
 40
2.480568411561907
 40
2.590440557428902
 40
2.649189927151054
 40
2.749320643306274
 40
2.912632739879972
 40
3.14774565600017
 40
3.24482749638509
 40
3.338490056946715
 40
3.583815413207121
 40
3.761423943238463
 40
3.88695610436262
 40
3.9858554518868
 40
4.091766255337628
 40
4.250186473811821
 40
4.422734315084489
 40
4.628285684838584
 40
4.872093227758425
 40
5.152549652145538
 40
5.464967135837524
 40
5.803201477852435
 40
6.160362988813907
 40
6.193449448275991
 40
6.284170385501645
 40
6.419718138764515
 40
6.587285046385793
 40
6.774063446723679
 40
6.967245678113662
 40
7.154024078817705
 40
7.321590987026062
 40
7.457138740890421
 40
7.547859678556185
 40
7.580946138182745
 40
7.608533084714796
 40
7.669224367077773
 40
7.729915649429992
 40
7.757502595950041
 40
7.790278062553495
 40
7.880146277430993
 40
8.014419963180455
 40
8.180411842397984
 40
8.365434637679453
 40
8.556801071622782
 40
8.741823866830867
 40
8.907815745916405
 40
9.042089431507588
 40
9.131957646249713
 40
9.16473311279729
 40
9.415425063140198
 40
9.667986180958652
 40
9.69416980746279
 40
9.756607686047778
 40
9.83113031532267
 40
9.893568193900133
 40
9.91975182039895
 40
9.95096796469077
 40
9.996421631210945
 40
10.22087981037482
 40
10.44341866197565
 40
10.47847970788877
 40
10.57091337438778
 40
10.70159545461252
 40
10.85140174170383
 40
11.001208028805
 40
11.13189010907406
 40
11.22432377583034
 40
11.2593848093898
 40
11.28697175596168
 40
11.34766303835942
 40
11.40835432042092
 40
11.43594125892127
 40
11.43594125892127
 40
11.43594125892127
 40
11.43594125892127
 10
190.0818114333289
 20
15.55242795125082
 10
190.070278584494
 20
15.5524279028792
 10
190.0283409444999
 20
15.5524277370417
 10
189.9434129719025
 20
15.55243125800914
 10
189.8207688553129
 20
15.55240926435884
 10
189.6791206916993
 20
15.55250801177059
 10
189.537975369849
 20
15.55214686232426
 10
189.4141351317905
 20
15.55321883609093
 10
189.3317217825382
 20
15.55092249091273
 10
189.1727791229694
 20
15.56048569373424
 10
189.3503402353376
 20
15.19785394311374
 10
189.3379739205453
 20
14.95243127723118
 10
189.4064519473864
 20
14.66862501324838
 10
189.469302432097
 20
14.43250999939037
 10
189.5452253431728
 20
14.2332674039613
 10
189.6303189577017
 20
14.07745347451375
 10
189.7244607592935
 20
13.97657857781393
 10
189.8282648207727
 20
13.92465852638965
 10
189.9125872030773
 20
13.97606484379617
 10
189.9351322179452
 20
14.09144544037514
 10
189.9745730975371
 20
14.21885149702382
 10
189.9202919734941
 20
14.53622328086752
 10
190.0451218072473
 20
14.38982180140909
 10
190.2019291513603
 20
14.35795300331172
 10
190.0947720007057
 20
14.12421357767631
 10
190.0808711209868
 20
13.9597277658366
 10
190.0234709467226
 20
13.83130869122487
 10
189.933502014501
 20
13.76018802352833
 10
189.8095274657878
 20
13.74432324142258
 10
189.6634273196861
 20
13.77993797554178
 10
189.5243894320285
 20
13.90000570500281
 10
189.4102003962144
 20
14.07435682550325
 10
189.3146141301486
 20
14.29946603111245
 10
189.2318652572627
 20
14.56388246006448
 10
189.1807179256411
 20
14.88187933098548
 10
189.0770189207338
 20
15.15543728488918
 10
189.2042841208521
 20
15.56005818612872
 10
189.0357890623019
 20
15.55112367849683
 10
188.9511995787078
 20
15.55315961418368
 10
188.8189876387628
 20
15.55213937388411
 10
188.6560505094103
 20
15.55253230318434
 10
188.4733759170534
 20
15.55235696313374
 10
188.2847057373382
 20
15.55260105307473
 10
188.1014469020189
 20
15.55185657906241
 10
187.9404746832718
 20
15.55416360522431
 10
187.8029808335276
 20
15.54799804883667
 10
187.728959037231
 20
15.56032838458216
 10
187.6613215186857
 20
15.54329323723561
 10
187.6732373719269
 20
15.59524438447532
 10
187.6655677285694
 20
15.64071424966533
 10
187.6732592225115
 20
15.6861445370371
 10
187.6613141797761
 20
15.73802395984574
 10
187.7283588305867
 20
15.72119143490268
 10
187.8017375665676
 20
15.73335409092674
 10
187.9379128305272
 20
15.72727231074963
 10
188.0973811801512
 20
15.72954834315062
 10
188.2789173085837
 20
15.72881233998966
 10
188.465803486218
 20
15.72905954196138
 10
188.6468012316836
 20
15.72886400799257
 10
188.8080802578879
 20
15.72932234714843
 10
188.9393882124887
 20
15.7281267375121
 10
189.0225051322597
 20
15.73051347319747
 10
189.1556236547815
 20
15.72230605725467
 10
189.0645893502659
 20
15.97752868952658
 10
188.9789633074417
 20
16.24164358328247
 10
189.0990589003454
 20
16.22904442969166
 10
189.1514264948542
 20
16.22694235763077
 10
189.2214497569716
 20
16.22535399889659
 10
189.2671922337817
 20
16.21602567538114
 10
189.3220812646933
 20
16.22545966915429
 10
189.2963574785681
 20
16.1773302865517
 10
189.1825397571453
 20
16.18266829744169
 10
189.3159346621136
 20
15.95449174576778
 10
189.194365873547
 20
15.72156856595926
 10
189.3223188769413
 20
15.73087258884443
 10
189.4049048406461
 20
15.72801001754684
 10
189.5307214850824
 20
15.72923437412306
 10
189.6741469838057
 20
15.72932431888968
 10
189.8157420951728
 20
15.72746163183857
 10
189.9459127249967
 20
15.73333075937167
 10
190.0193452286191
 20
15.72070340823207
 10
190.0891112922096
 20
15.73877563110416
 10
190.0775772605396
 20
15.6861285054633
 10
190.0833184346682
 20
15.64221317686552
 10
190.0816615770911
 20
15.59089982676554
 10
190.081775756167
 20
15.56158792021639
 10
190.0818114333289
 20
15.55242795125082
 97
        1
330
AB
 75
     1
 76
     2
 52
45.0
 41
0.1
 77
     0
 78
     1
 53
45.0
 43
0.0
 44
0.0
 45
-0.282842712474619
 46
0.0
 79
     0
 98
        1
 10
0.0
 20
0.0
  0
HATCH
  5
C9
330
48
100
AcDbEntity
  8
1
  6
Continuous
 62
     2
100
AcDbHatch
 10
0.0
 20
0.0
 30
0.0
210
0.0
220
0.0
230
1.0
  2
CUSTOM7
 70
     0
 71
     1
 91
        1
 92
        1
 93
        1
 72
     4
 94
        3
 73
     0
 74
     0
 95
       75
 96
       71
 40
0.0
 40
0.0
 40
0.0
 40
0.0
 40
0.0342546099129691
 40
0.1245622414432364
 40
0.2522385480897554
 40
0.3985991922940733
 40
0.5449598364980892
 40
0.6726361431438923
 40
0.7629437746737049
 40
0.7971983935298079
 40
1.101723623449655
 40
1.408591244036599
 40
1.433332471690298
 40
1.487763172450079
 40
1.54219387308189
 40
1.566935100592433
 40
1.923523931821752
 40
2.271755704953557
 40
2.5905797551008
 40
2.858943305581054
 40
2.889120339309071
 40
2.91830585519095
 40
2.941366645531066
 40
2.996357760972948
 40
3.061992318140491
 40
3.11698343362667
 40
3.14004422399734
 40
3.411273122936318
 40
3.732441619741043
 40
3.761068217532741
 40
3.837787499630297
 40
3.948858699125932
 40
4.080541049104303
 40
4.219093782625677
 40
4.350776132722222
 40
4.461847332405551
 40
4.538566614678283
 40
4.567193212544526
 40
4.594907573998784
 40
4.666381453557351
 40
4.764111044010962
 40
4.870592538125765
 40
4.968322128642216
 40
5.039796008286929
 40
5.06751036978436
 40
5.094263603185572
 40
5.153120716668205
 40
5.21197783015065
 40
5.238731063551652
 40
5.27229053513892
 40
5.363380529444724
 40
5.497618415781401
 40
5.660621563453644
 40
5.838007341749345
 40
6.015393119910668
 40
6.178396267038265
 40
6.312634151842216
 40
6.403724143059206
 40
6.437283612672301
 40
6.464036846260916
 40
6.522893960004529
 40
6.581751071483792
 40
6.608504301590736
 40
6.637253941280884
 40
6.711397748902735
 40
6.812778057283319
 40
6.923237199249039
 40
7.024617507623711
 40
7.098761315207335
 40
7.127510946007286
 40
7.127510946007286
 40
7.127510946007286
 40
7.127510946007286
 10
188.4418622390565
 20
14.95849128473262
 10
188.4418622819707
 20
14.94707313408718
 10
188.4418624481129
 20
14.90555257842627
 10
188.4418593081788
 20
14.8214692200377
 10
188.4418788279801
 20
14.70004497322326
 10
188.4417912187739
 20
14.55980494047445
 10
188.4421116235231
 20
14.42006556794574
 10
188.4411605909741
 20
14.29745038894925
 10
188.4431978595968
 20
14.2158707443804
 10
188.4349433178747
 20
14.06271267077695
 10
188.7430797940902
 20
14.22560236054725
 10
189.0350645173734
 20
14.39482938688
 10
189.0408354448708
 20
14.25973235781912
 10
189.0455471719891
 20
14.21617221160446
 10
189.0482535411917
 20
14.17211249350548
 10
189.067254567296
 20
14.02272590363138
 10
188.6583942247302
 20
14.08681172241262
 10
188.3793710348831
 20
13.97296341411019
 10
188.1018081587168
 20
13.87364095811132
 10
187.8099837184398
 20
13.91630687596373
 10
187.7869144678658
 20
13.81321679744538
 10
187.7537474383334
 20
13.7869109124448
 10
187.7480653962739
 20
13.8345530903631
 10
187.7284214559045
 20
13.87180336115074
 10
187.7095089485622
 20
13.93007387847565
 10
187.6942849867707
 20
13.97385201007804
 10
187.6477246372936
 20
14.08759421046313
 10
187.9890897312449
 20
14.05576301120046
 10
188.267964936739
 20
14.02161435106478
 10
188.2617753034907
 20
14.16913976479654
 10
188.2630935452774
 20
14.24013150908834
 10
188.262483168995
 20
14.34719767958663
 10
188.2625871570725
 20
14.47398529785998
 10
188.2629987964057
 20
14.6084924349605
 10
188.261390784197
 20
14.73395549951183
 10
188.2659902567926
 20
14.84505246719115
 10
188.2564186502211
 20
14.90761886800687
 10
188.2704001783692
 20
14.96595388294999
 10
188.2147384386706
 20
14.95289710582236
 10
188.1575655197821
 20
14.96136307749496
 10
188.0616048925648
 20
14.95729976080634
 10
187.9633767522822
 20
14.95970889852472
 10
187.867258245756
 20
14.95551600613386
 10
187.8104648525812
 20
14.9642934644116
 10
187.7550356873385
 20
14.9509493685012
 10
187.7670679427918
 20
15.00036910959254
 10
187.7592003173938
 20
15.04393988030393
 10
187.766629556383
 20
15.08830469118522
 10
187.7551930564144
 20
15.13902297763989
 10
187.8232102370134
 20
15.1216246075774
 10
187.8968496879747
 20
15.13417450237186
 10
188.0325064058211
 20
15.12799677011094
 10
188.1884909024526
 20
15.13029203093081
 10
188.3615926358144
 20
15.12940968262527
 10
188.5346942964181
 20
15.13029207142405
 10
188.6906789811217
 20
15.12799662955547
 10
188.8263351889797
 20
15.13417486262428
 10
188.8999756705652
 20
15.12162394218332
 10
188.9679914174724
 20
15.13902373012139
 10
188.9565590885922
 20
15.08830130414553
 10
188.9639539458298
 20
15.04397060811106
 10
188.956203991227
 20
15.00028307550193
 10
188.9681203741877
 20
14.95063590098475
 10
188.9108170223616
 20
14.96461411338423
 10
188.8520145789773
 20
14.95539755673252
 10
188.75252936332
 20
14.95952268164927
 10
188.6494280098349
 20
14.95822760025885
 10
188.5537846354574
 20
14.95854077077638
 10
188.4857467971617
 20
14.95848776697143
 10
188.4514462213444
 20
14.95849051871654
 10
188.4418622390565
 20
14.95849128473262
 97
        1
330
AC
 75
     1
 76
     2
 52
45.0
 41
0.1
 77
     0
 78
     1
 53
45.0
 43
0.0
 44
0.0
 45
-0.282842712474619
 46
0.0
 79
     0
 98
        1
 10
0.0
 20
0.0
  0
HATCH
  5
CA
330
48
100
AcDbEntity
  8
1
  6
Continuous
 62
     2
100
AcDbHatch
 10
0.0
 20
0.0
 30
0.0
210
0.0
220
0.0
230
1.0
  2
CUSTOM8
 70
     0
 71
     1
 91
        1
 92
        1
 93
        1
 72
     4
 94
        3
 73
     0
 74
     0
 95
       15
 96
       11
 40
0.0
 40
0.0
 40
0.0
 40
0.0
 40
0.2785535985096223
 40
0.5215624748198473
 40
0.6076917376039939
 40
0.693821000174049
 40
0.9405019146453812
 40
1.221691403489055
 40
1.300471877080996
 40
1.379252341684809
 40
1.379252341684809
 40
1.379252341684809
 40
1.379252341684809
 10
189.5681493631
 20
16.22930267330382
 10
189.6296017794179
 20
16.17691646592716
 10
189.7446649974114
 20
16.07882876798221
 10
190.0397348497243
 20
15.92889785897218
 10
189.9025147631857
 20
15.84343227515014
 10
189.8041227843778
 20
15.71085785201559
 10
189.7130033590651
 20
16.01616985781426
 10
189.3636839480655
 20
16.07967869465374
 10
189.511925837657
 20
16.17896509880879
 10
189.5494081874237
 20
16.21252348402384
 10
189.5681493631
 20
16.22930267330382
 97
        1
330
AD
 75
     1
 76
     2
 52
45.0
 41
0.1
 77
     0
 78
     1
 53
45.0
 43
0.0
 44
0.0
 45
-0.282842712474619
 46
0.0
 79
     0
 98
        1
 10
0.0
 20
0.0
  0
HATCH
  5
CB
330
48
100
AcDbEntity
  8
1
  6
Continuous
 62
     2
100
AcDbHatch
 10
0.0
 20
0.0
 30
0.0
210
0.0
220
0.0
230
1.0
  2
CUSTOM9
 70
     0
 71
     1
 91
        1
 92
        1
 93
        1
 72
     4
 94
        3
 73
     0
 74
     0
 95
       35
 96
       31
 40
0.0
 40
0.0
 40
0.0
 40
0.0
 40
0.0335231036621678
 40
0.0713218571712253
 40
0.4278866681486672
 40
0.8116865841963548
 40
1.198190238000015
 40
1.561379546812629
 40
1.659983174622055
 40
1.7593155738072
 40
2.132719617231086
 40
2.525233363588822
 40
2.910815397779735
 40
3.265244364303332
 40
3.592606723582064
 40
3.964386154603991
 40
4.359942131737824
 40
4.758154118639297
 40
4.843846538699874
 40
4.93665006554323
 40
5.256616602537289
 40
5.581707404415989
 40
5.899719158308127
 40
6.198363494280704
 40
6.466301046615802
 40
6.493895311537123
 40
6.559697020196915
 40
6.63823454344249
 40
6.70403625215427
 40
6.731630508423048
 40
6.731630508423048
 40
6.731630508423048
 40
6.731630508423048
 10
191.973601056867
 20
16.23463843719142
 10
191.967600609779
 20
16.22480690542329
 10
191.9548344099157
 20
16.20388988579804
 10
191.7949362006556
 20
16.17127126532679
 10
192.2322025842337
 20
15.88206680336707
 10
192.4345394828262
 20
15.68041138358439
 10
192.6819564267973
 20
15.43749387603278
 10
193.1831513624606
 20
15.3604766275778
 10
193.012556219897
 20
15.21876939174658
 10
192.9383299463201
 20
15.01710366209101
 10
192.6131432248188
 20
15.3695628717473
 10
192.3277741670665
 20
15.53175212559567
 10
192.0337604077658
 20
15.73687130053049
 10
191.8084452691134
 20
16.21827488595461
 10
191.5993085055522
 20
15.75343046609224
 10
191.3207873674835
 20
15.54350952252911
 10
191.037138317721
 20
15.3742445635999
 10
190.7078639527831
 20
15.00142360907942
 10
190.6277012318225
 20
15.19708014459007
 10
190.4759724909745
 20
15.32491104190599
 10
190.9083395826795
 20
15.40454031765936
 10
191.0962565329766
 20
15.60026634915475
 10
191.3468477420504
 20
15.81632996916751
 10
191.5714350470161
 20
15.98190992300064
 10
191.6259775409715
 20
16.26133964636832
 10
191.7494661029012
 20
16.24737950408083
 10
191.8060273344521
 20
16.24521268867653
 10
191.8761870984946
 20
16.24046859881367
 10
191.9333414022106
 20
16.23709429350549
 10
191.964419032084
 20
16.23519854711127
 10
191.973601056867
 20
16.23463843719142
 97
        1
330
AE
 75
     1
 76
     2
 52
45.0
 41
0.1
 77
     0
 78
     1
 53
45.0
 43
0.0
 44
0.0
 45
-0.282842712474619
 46
0.0
 79
     0
 98
        1
 10
0.0
 20
0.0
  0
HATCH
  5
CC
330
48
100
AcDbEntity
  8
1
  6
Continuous
 62
     2
100
AcDbHatch
 10
0.0
 20
0.0
 30
0.0
210
0.0
220
0.0
230
1.0
  2
CUSTOM10
 70
     0
 71
     1
 91
        1
 92
        1
 93
        1
 72
     4
 94
        3
 73
     0
 74
     0
 95
       91
 96
       87
 40
0.0
 40
0.0
 40
0.0
 40
0.0
 40
0.0267532254356808
 40
0.0856103386464457
 40
0.1444674521997225
 40
0.1712206856619225
 40
0.2039416005643247
 40
0.2955601971653194
 40
0.4362601844617628
 40
0.616225284450796
 40
0.8256392189705408
 40
1.054685709844482
 40
1.293548478893545
 40
1.532411247938289
 40
1.761457738799554
 40
1.970871673298522
 40
2.150836773256718
 40
2.291536760495551
 40
2.383155356836657
 40
2.415876284101278
 40
2.442629517487933
 40
2.501486630949088
 40
2.56034374442426
 40
2.587096977826543
 40
2.617068194440942
 40
2.699247336756083
 40
2.822032643466396
 40
2.973822353257897
 40
3.143014704823339
 40
3.31800793687989
 40
3.487200288186723
 40
3.638989997548204
 40
3.761775303794674
 40
3.843954445753009
 40
3.873925662229705
 40
3.890812773500417
 40
3.907699884771573
 40
3.937960767857159
 40
3.980983618142165
 40
4.199085915228332
 40
4.439444339237122
 40
4.677588241260744
 40
5.05069831783763
 40
5.448212454762987
 40
5.85529121804454
 40
6.138575438885243
 40
6.417434507584043
 40
6.444551104393704
 40
6.504207617362986
 40
6.563864130314315
 40
6.590980727103886
 40
6.84860946038128
 40
7.109611990668204
 40
7.352910904445902
 40
7.557830220705308
 40
7.587518925913224
 40
7.652834077375661
 40
7.71814922884564
 40
7.747837934061941
 40
7.854880190300891
 40
7.976511257403394
 40
8.369487896592167
 40
8.757514959223489
 40
9.126072419330951
 40
9.460639380392013
 40
9.746695593035641
 40
9.777569943118463
 40
9.807050320931602
 40
9.830377336128741
 40
9.886003295435827
 40
9.952395569429756
 40
10.00802152870613
 40
10.03134854388205
 40
10.21356951009579
 40
10.4220347929285
 40
10.66154556731048
 40
10.91693789564292
 40
11.15832906556551
 40
11.18982674596606
 40
11.27286608520393
 40
11.39026653033338
 40
11.52484752840872
 40
11.65942852648428
 40
11.77682897161469
 40
11.85986831085666
 40
11.89136598230411
 40
11.89136598230411
 40
11.89136598230411
 40
11.89136598230411
 10
190.7027885008197
 20
14.70699600701772
 10
190.7028237765289
 20
14.71587847311986
 10
190.7029366710797
 20
14.74430237047348
 10
190.701298456849
 20
14.79409639169807
 10
190.7069750292911
 20
14.8365756447816
 10
190.6956928731707
 20
14.88730154856854
 10
190.7632296979033
 20
14.87012900740116
 10
190.8388029210701
 20
14.88290227166003
 10
190.9828357056001
 20
14.87629729457389
 10
191.1569419185428
 20
14.87888462206473
 10
191.3639599611004
 20
14.8780059195556
 10
191.5894688172378
 20
14.87828207920034
 10
191.8251162293406
 20
14.87818339658669
 10
192.0607640531349
 20
14.87828184412775
 10
192.2862717580626
 20
14.87800678190796
 10
192.4932934632805
 20
14.87888186270741
 10
192.6673888915288
 20
14.87630522678454
 10
192.8114492071986
 20
14.8828829044922
 10
192.8869691915293
 20
14.87016243405611
 10
192.9545776037029
 20
14.88726400191693
 10
192.9430840140676
 20
14.83674785802945
 10
192.9505104581733
 20
14.79253252226505
 10
192.9428838927986
 20
14.74867966503612
 10
192.9546489459425
 20
14.69878374479329
 10
192.8930788491983
 20
14.71393227712512
 10
192.8256791738672
 20
14.70310665350674
 10
192.7013004056221
 20
14.70852031626236
 10
192.5554428236571
 20
14.70649205390785
 10
192.3893576440086
 20
14.70715777578387
 10
192.2188412621725
 20
14.70689643521242
 10
192.051979085539
 20
14.70721553391094
 10
191.9087346827106
 20
14.70635302590762
 10
191.7773313869835
 20
14.70863300482988
 10
191.7239859134657
 20
14.70407704374201
 10
191.6485188456914
 20
14.70999914992878
 10
191.6769075779233
 20
14.70094169343352
 10
191.7033652409543
 20
14.69725912268924
 10
191.6633522907701
 20
14.66654271968281
 10
191.571366369187
 20
14.67667591174627
 10
191.5439396207069
 20
14.43032502247791
 10
191.4478793967235
 20
14.27499558764374
 10
191.1917277964474
 20
13.94525417931572
 10
191.7627537732764
 20
14.08430022210453
 10
192.0173656320516
 20
14.08291779973367
 10
192.6279647048618
 20
13.99790569242084
 10
192.3340698578084
 20
14.29685417558206
 10
192.0133304286518
 20
14.44330856901774
 10
192.1313543360434
 20
14.50025540818287
 10
192.1724716466261
 20
14.5242009987335
 10
192.2156812394412
 20
14.54599758811231
 10
192.317457409445
 20
14.60928721253912
 10
192.4328867625248
 20
14.35147151408782
 10
192.6329591642277
 20
14.21616041113681
 10
192.7269077387226
 20
14.03792795138882
 10
192.9558829746395
 20
13.87997821027052
 10
192.8596031846708
 20
13.82915972576303
 10
192.8167959763779
 20
13.79881292523058
 10
192.771824352878
 20
13.77466130281466
 10
192.7121720925213
 20
13.72552146747573
 10
192.6789731061325
 20
13.85997475673613
 10
192.5582013350795
 20
14.01594265286578
 10
192.1970976005979
 20
13.88569928059556
 10
191.838506195554
 20
13.90224694409484
 10
191.4570920450081
 20
13.89331229351863
 10
191.170345528289
 20
13.82882671672417
 10
190.8592055599718
 20
13.94230668192807
 10
190.8268737818788
 20
13.8312225992777
 10
190.7896178253318
 20
13.81196313850008
 10
190.7865737632754
 20
13.85874784087295
 10
190.7679892860607
 20
13.89806853919134
 10
190.7512436616778
 20
13.95765983478233
 10
190.7383730915753
 20
14.00201969871284
 10
190.7042327806429
 20
14.09106331120205
 10
190.9482714457753
 20
14.02181042943771
 10
191.1441394486671
 20
14.00030369057748
 10
191.2395426381276
 20
14.28226484478464
 10
191.2945135769598
 20
14.44363045421124
 10
191.5159619357157
 20
14.71391177589738
 10
191.3849239381217
 20
14.70548446853735
 10
191.3110026555855
 20
14.70779008496969
 10
191.1977459876244
 20
14.70671378321658
 10
191.0694251807485
 20
14.7070763907651
 10
190.9404252030416
 20
14.70697724466085
 10
190.8287840946292
 20
14.70699932712572
 10
190.7514663970028
 20
14.7069957918967
 10
190.7132876532011
 20
14.70699595845081
 10
190.7027885008197
 20
14.70699600701772
 97
        1
330
AF
 75
     1
 76
     2
 52
45.0
 41
0.1
 77
     0
 78
     1
 53
45.0
 43
0.0
 44
0.0
 45
-0.282842712474619
 46
0.0
 79
     0
 98
        1
 10
0.0
 20
0.0
  0
HATCH
  5
CD
330
48
100
AcDbEntity
  8
1
  6
Continuous
 62
     2
100
AcDbHatch
 10
0.0
 20
0.0
 30
0.0
210
0.0
220
0.0
230
1.0
  2
CUSTOM11
 70
     0
 71
     1
 91
        1
 92
        1
 93
        1
 72
     4
 94
        3
 73
     0
 74
     0
 95
      131
 96
      127
 40
0.0
 40
0.0
 40
0.0
 40
0.0
 40
0.0195577029826492
 40
0.0426490537462338
 40
0.2863607575857202
 40
0.5344948436190091
 40
0.784223884557396
 40
0.873731578946829
 40
0.9803832810314198
 40
1.092842274517162
 40
1.199761146656917
 40
1.28978876818664
 40
1.351573580786325
 40
1.370727117561575
 40
1.416400936018021
 40
1.470914848356183
 40
1.516588666792021
 40
1.535742203553109
 40
1.634216592293416
 40
1.760283341175262
 40
1.897966686682382
 40
2.031216387369215
 40
2.04968975113821
 40
2.101115601647148
 40
2.179502577740269
 40
2.278859318314387
 40
2.39319446225905
 40
2.516516648384169
 40
2.642834515406301
 40
2.766156701983812
 40
2.880491846754932
 40
2.979848588358978
 40
3.058235565444159
 40
3.109661416669317
 40
3.128134780704492
 40
3.146783742386809
 40
3.19125434331567
 40
3.244332157316329
 40
3.288802758226232
 40
3.307451719895475
 40
3.327717853845089
 40
3.383747753580449
 40
3.468388665924845
 40
3.574487837699154
 40
3.694892515729261
 40
3.822449946852403
 40
3.950007377920798
 40
4.070412055800892
 40
4.176511227368451
 40
4.261152139501901
 40
4.317182039077094
 40
4.337448172965015
 40
4.620011002696625
 40
4.885096638397815
 40
4.945373043518656
 40
5.01410771048898
 40
5.070481727652376
 40
5.31924695563684
 40
5.584812164506322
 40
5.859000912057184
 40
6.133746937542299
 40
6.401732212969065
 40
6.420736683995655
 40
6.472845717451306
 40
6.550702743894234
 40
6.646951193874442
 40
6.754234497930766
 40
6.865196086587544
 40
6.972479390358003
 40
7.068727839772165
 40
7.146584865451174
 40
7.198693898189403
 40
7.217698368905544
 40
7.234950401631033
 40
7.276089864270106
 40
7.325191803516245
 40
7.366331266090659
 40
7.383583298770023
 40
7.4027791634924
 40
7.453386443254831
 40
7.524934666445833
 40
7.606953361406172
 40
7.688972056429324
 40
7.760520279784575
 40
7.811127559734817
 40
7.830323424546438
 40
7.847844055300066
 40
7.894799345667104
 40
7.962779392744786
 40
8.043374293560827
 40
8.128174145149726
 40
8.208769044817524
 40
8.276749090377221
 40
8.32370437966978
 40
8.34122501005651
 40
8.358497614800658
 40
8.401679126686863
 40
8.457815092185921
 40
8.513951057728326
 40
8.557132569708282
 40
8.574405174505324
 40
8.60234066861666
 40
8.643455660540257
 40
8.66322527196692
 40
8.715345156564561
 40
8.789031889628886
 40
8.8735020455206
 40
8.957972194324212
 40
9.031658925568093
 40
9.083778811234774
 40
9.103548423003234
 40
9.119550083123771
 40
9.160817522380073
 40
9.217244429110439
 40
9.278724491644924
 40
9.335151398295709
 40
9.376418837358004
 40
9.392420497300792
 40
9.401196302735002
 40
9.417494229384463
 40
9.426270027749727
 40
9.440875075477754
 40
9.475702496998924
 40
9.517270709866077
 40
9.552098131994235
 40
9.56670316988444
 40
9.56670316988444
 40
9.56670316988444
 40
9.56670316988444
 10
194.6170254148479
 20
15.67015871511032
 10
194.6134345093371
 20
15.66453690702162
 10
194.6056039123625
 20
15.6522775441911
 10
194.5129968974543
 20
15.6160191604101
 10
194.4887622233249
 20
15.40148444212699
 10
194.3858709845939
 20
15.22197284509716
 10
194.1220492364305
 20
15.03615573798145
 10
194.284547156918
 20
14.95959336566084
 10
194.3607225760839
 20
14.89856693195448
 10
194.4492171072759
 20
14.83515804544765
 10
194.5389930233111
 20
14.77525634219565
 10
194.5883817636047
 20
14.72102154849215
 10
194.6745708157383
 20
14.6928624054184
 10
194.641126067423
 20
14.65713309652819
 10
194.6214671166311
 20
14.62550387991912
 10
194.5919888217883
 20
14.5847587279607
 10
194.5688989446031
 20
14.55504663489646
 10
194.5380205968358
 20
14.50211422668495
 10
194.472919336574
 20
14.62740334938904
 10
194.3796000122416
 20
14.68213900233936
 10
194.2950636285138
 20
14.73916423939343
 10
194.1722498125742
 20
14.89675287427529
 10
194.1764450847301
 20
14.82035806766841
 10
194.1751478652677
 20
14.773612801613
 10
194.1758126448077
 20
14.69584785812605
 10
194.1755549986957
 20
14.59902068324426
 10
194.1756431239921
 20
14.48650279078813
 10
194.1756077302281
 20
14.36524085945702
 10
194.1756511758279
 20
14.24086897858963
 10
194.1755199942405
 20
14.11967683631337
 10
194.1759477562046
 20
14.00691148919745
 10
194.174667820231
 20
13.91082913768744
 10
194.1779759851044
 20
13.831138264687
 10
194.1715197740086
 20
13.78815175788784
 10
194.1806208705556
 20
13.74955432372043
 10
194.1447910339935
 20
13.7581088772407
 10
194.1115223815252
 20
13.75342519985447
 10
194.060456257604
 20
13.75351298759784
 10
194.0269723972813
 20
13.75794430283821
 10
193.9907585408753
 20
13.74960793842509
 10
194.0009782568666
 20
13.79145277179285
 10
193.9936487887773
 20
13.83778560820174
 10
193.9973633136102
 20
13.92374831106015
 10
193.9959480554896
 20
14.0260514270485
 10
193.9964105554639
 20
14.14453223931513
 10
193.996277368623
 20
14.26957683153357
 10
193.9963015910045
 20
14.39475828107052
 10
193.9963354925551
 20
14.5128664537906
 10
193.9962060293132
 20
14.61628748709518
 10
193.9965507549081
 20
14.69932036153669
 10
193.9958698278689
 20
14.75143368521246
 10
193.9994586600625
 20
14.87912907821364
 10
193.7826171386435
 20
14.58048716819628
 10
193.6021354921953
 20
14.3526398151152
 10
193.5490322295612
 20
14.49373443289815
 10
193.5200429133149
 20
14.54325767560946
 10
193.4196648062822
 20
14.64641779790113
 10
193.7405127723262
 20
14.72695035023784
 10
193.868989700543
 20
14.91066283036436
 10
194.090645432536
 20
15.11931995771759
 10
194.1770224894069
 20
15.29339211228346
 10
194.4549394229074
 20
15.56967051342507
 10
194.3346247839284
 20
15.5653455955111
 10
194.2863197351349
 20
15.56614856202548
 10
194.2102377454905
 20
15.56574582146581
 10
194.116701000975
 20
15.56590275611605
 10
194.0117594788557
 20
15.5658250257622
 10
193.9033887738717
 20
15.5659546437855
 10
193.7981454235897
 20
15.56554393490688
 10
193.7056237819413
 20
15.56682073671587
 10
193.6268130800707
 20
15.56340766534846
 10
193.583967456538
 20
15.57023350036316
 10
193.5449499586515
 20
15.56065064201119
 10
193.5526365271864
 20
15.59420779565541
 10
193.5485464404312
 20
15.62523550322233
 10
193.5485531368814
 20
15.67236529270903
 10
193.5526239724912
 20
15.70340941646784
 10
193.5449495574582
 20
15.73701861635908
 10
193.5834819405495
 20
15.72748410420879
 10
193.6241228014479
 20
15.73397435498077
 10
193.6951471850463
 20
15.73100150650261
 10
193.7729318149633
 20
15.73174761399164
 10
193.8507292246474
 20
15.73247814044532
 10
193.9217232089907
 20
15.72954235514167
 10
193.962427979182
 20
15.73595468772958
 10
194.0009853489909
 20
15.72650524176011
 10
193.9927342754928
 20
15.7626469215879
 10
193.9982346669358
 20
15.80129837613234
 10
193.9955754206163
 20
15.86913528561844
 10
193.9965815471533
 20
15.94591641538745
 10
193.9960178018319
 20
16.02849393582762
 10
193.9970714526592
 20
16.10517329229882
 10
193.9942675863131
 20
16.17331990776703
 10
194.0000702721303
 20
16.21132399809349
 10
193.9915654551159
 20
16.24758448077649
 10
194.0255610233125
 20
16.23755723771855
 10
194.0594575683099
 20
16.2407326681371
 10
194.1126669060346
 20
16.23508965640611
 10
194.1660768574483
 20
16.23434774436427
 10
194.199591464949
 20
16.22819223482981
 10
194.2388086183039
 20
16.23346029773594
 10
194.2120263698492
 20
16.19253380793486
 10
194.1708111001724
 20
16.20371204538113
 10
194.1782641540873
 20
16.15867056192123
 10
194.1742227952184
 20
16.11412278028146
 10
194.176171404964
 20
16.04223572621705
 10
194.1752364849758
 20
15.96168630588774
 10
194.176510719003
 20
15.88173995404999
 10
194.1732043793864
 20
15.80841837083189
 10
194.1802106179961
 20
15.76688643002574
 10
194.1701440380126
 20
15.7275241856812
 10
194.2029814803921
 20
15.73468063430988
 10
194.236457729648
 20
15.73027243137951
 10
194.2915053476019
 20
15.73217943347905
 10
194.3489502595314
 20
15.73185366407295
 10
194.4023026248309
 20
15.73106308733089
 10
194.4398540896638
 20
15.7331395911808
 10
194.4623172523237
 20
15.73022338167117
 10
194.475167807373
 20
15.73572552644059
 10
194.4858255685889
 20
15.73801118197792
 10
194.4986635650143
 20
15.74494972588048
 10
194.5145991033071
 20
15.72853046313672
 10
194.5410623920891
 20
15.71709122319447
 10
194.5726805253758
 20
15.69644687835192
 10
194.5987255892152
 20
15.68116869628298
 10
194.6128517723972
 20
15.67266976323188
 10
194.6170254148479
 20
15.67015871511032
 97
        1
330
B0
 75
     1
 76
     2
 52
45.0
 41
0.1
 77
     0
 78
     1
 53
45.0
 43
0.0
 44
0.0
 45
-0.282842712474619
 46
0.0
 79
     0
 98
        1
 10
0.0
 20
0.0
  0
HATCH
  5
CE
330
48
100
AcDbEntity
  8
1
  6
Continuous
 62
     2
100
AcDbHatch
 10
0.0
 20
0.0
 30
0.0
210
0.0
220
0.0
230
1.0
  2
CUSTOM12
 70
     0
 71
     1
 91
        1
 92
        1
 93
        1
 72
     4
 94
        3
 73
     0
 74
     0
 95
      124
 96
      120
 40
0.0
 40
0.0
 40
0.0
 40
0.0
 40
0.027818722962451
 40
0.1011590162384269
 40
0.2048470170590239
 40
0.3237088716559245
 40
0.4425707262522
 40
0.5462587270699547
 40
0.6195990203311798
 40
0.647417752257866
 40
0.6750060736115242
 40
0.7357003855242812
 40
0.7963946998054545
 40
0.8239830245571873
 40
0.8540933811102966
 40
0.9373396629409647
 40
1.063094687343217
 40
1.220731268638055
 40
1.39962222091473
 40
1.589140358637714
 40
1.778658496423824
 40
1.957549448940463
 40
2.115186030873084
 40
2.240941056914388
 40
2.324187341760457
 40
2.354297700109307
 40
2.381886024671815
 40
2.442580338710406
 40
2.503274652750435
 40
2.530862977314542
 40
2.560983949278495
 40
2.640393784452841
 40
2.752662861759036
 40
2.881361560118024
 40
3.010060258455042
 40
3.12232933570519
 40
3.201739170817803
 40
3.231860142753164
 40
3.264298024030219
 40
3.352343701778087
 40
3.482095226868606
 40
3.639650650172862
 40
3.811108022565313
 40
3.982565394927815
 40
4.140120818152393
 40
4.269872343141098
 40
4.357918020802159
 40
4.390355902043786
 40
4.423256253992355
 40
4.50810453007282
 40
4.624121560636588
 40
4.750528176031316
 40
4.866545206601763
 40
4.951393482691691
 40
4.984293834645093
 40
5.01145083324201
 40
5.071196230151792
 40
5.13094162705687
 40
5.158098625648535
 40
5.190998977601198
 40
5.275847253688995
 40
5.391864284256457
 40
5.518270899647946
 40
5.634287930208957
 40
5.71913620628763
 40
5.752036558235518
 40
5.782130946282543
 40
5.862783906228718
 40
5.979550131774594
 40
6.117984316640002
 40
6.263641154587551
 40
6.402075339413764
 40
6.51884156490756
 40
6.599494524815149
 40
6.629588912848386
 40
6.654403028225963
 40
6.71357514948773
 40
6.784199939329048
 40
6.843372060493151
 40
6.868186175802397
 40
6.896246243201486
 40
6.939586233757862
 40
6.967846564564494
 40
7.043584251089436
 40
7.153234334451303
 40
7.283231855734063
 40
7.420011856035106
 40
7.550009376579466
 40
7.659659458834878
 40
7.735397144416875
 40
7.763657474851049
 40
7.796409728010706
 40
7.88087606509598
 40
7.996370852465366
 40
8.122208446418261
 40
8.237703224798855
 40
8.322169562010549
 40
8.354921815205563
 40
8.382078813307345
 40
8.441824209206649
 40
8.5015696052398
 40
8.528726603485378
 40
8.561478856695427
 40
8.645945193877477
 40
8.761439980864989
 40
8.887277580764131
 40
9.002772362000652
 40
9.087238696660872
 40
9.119990949235326
 40
9.152428830613024
 40
9.240474508638238
 40
9.370226034149185
 40
9.52778145798406
 40
9.699238830981049
 40
9.870696203978234
 40
10.02825162781365
 40
10.15800315332526
 40
10.24604883135081
 40
10.27848670378484
 40
10.27848670378484
 40
10.27848670378484
 40
10.27848670378484
 10
195.3821827564383
 20
14.01410517385762
 10
195.3914554737523
 20
14.01410498511279
 10
195.4251744536861
 20
14.01410430876719
 10
195.4934706812465
 20
14.01411807243309
 10
195.592014171158
 20
14.0140322421955
 10
195.7062066464812
 20
14.01441755612255
 10
195.818589441707
 20
14.0130083589755
 10
195.9214376600118
 20
14.01719117422248
 10
195.9806839874849
 20
14.00823089251988
 10
196.0371265937032
 20
14.02164434526066
 10
196.0246255586954
 20
13.97087198613366
 10
196.0329549635703
 20
13.92589320939071
 10
196.0248170841119
 20
13.88056752990492
 10
196.0370529214457
 20
13.8293193240847
 10
195.9747773490333
 20
13.8444795536528
 10
195.9060513026868
 20
13.83359750710747
 10
195.7782756749591
 20
13.83911304747976
 10
195.6262984511644
 20
13.83700851253703
 10
195.4502695972523
 20
13.83771002588477
 10
195.2644431934287
 20
13.83745237531295
 10
195.0786167437176
 20
13.83771005144607
 10
194.9025880142169
 20
13.83700841847735
 10
194.7506104154195
 20
13.83911332229993
 10
194.6228357664555
 20
13.83359680767644
 10
194.5541077836582
 20
13.84448077125946
 10
194.4918349042883
 20
13.82931786684213
 10
194.5040616290019
 20
13.88057510805176
 10
194.4960004462598
 20
13.9258247327243
 10
194.5040675809893
 20
13.97106357955328
 10
194.4918238487084
 20
14.02234176909963
 10
194.5525017120698
 20
14.0074957736314
 10
194.6162810745737
 20
14.0175644817074
 10
194.7277314353503
 20
14.01294644212004
 10
194.8497533443823
 20
14.01413328905473
 10
194.9719538137824
 20
14.0151586390064
 10
195.0829794287392
 20
14.01092475623406
 10
195.1476517413959
 20
14.02018584521744
 10
195.2091162810501
 20
14.00604423049687
 10
195.1930065601337
 20
14.07235527884522
 10
195.2042980327358
 20
14.1444779012198
 10
195.1987400822561
 20
14.27513760888291
 10
195.2008035061689
 20
14.42607323708244
 10
195.2000167127296
 20
14.59335873107889
 10
195.2007845215627
 20
14.76061110332305
 10
195.1988038785628
 20
14.91163289269916
 10
195.2041306156621
 20
15.04206069552997
 10
195.1933101388425
 20
15.11465442605901
 10
195.2090326429875
 20
15.181504694368
 10
195.143270813249
 20
15.16580512490827
 10
195.0756367830764
 20
15.17609243083997
 10
194.961588529381
 20
15.17113786847124
 10
194.8451242674903
 20
15.17414128030477
 10
194.7306554121478
 20
15.1688030314339
 10
194.6640324657813
 20
15.18001268074827
 10
194.5990769715186
 20
15.16349132665012
 10
194.610798975871
 20
15.21473720477061
 10
194.6032830189121
 20
15.25950333784092
 10
194.6107989878837
 20
15.30426944897963
 10
194.5990769505347
 20
15.35551536129742
 10
194.6640326339201
 20
15.33899381766818
 10
194.7306533339821
 20
15.35020571373945
 10
194.8451352858065
 20
15.34485436710666
 10
194.9615454436962
 20
15.34791188771119
 10
195.0757660174642
 20
15.3427849901071
 10
195.1430150439226
 20
15.353457333556
 10
195.2083325941438
 20
15.33742082669079
 10
195.1941391448553
 20
15.39949685750055
 10
195.2036059462994
 20
15.46586761628765
 10
195.1990269004085
 20
15.58239972741969
 10
195.2007696555949
 20
15.71426685022379
 10
195.1997551495391
 20
15.85615960150276
 10
195.2017191344373
 20
15.98769050702585
 10
195.1964668553851
 20
16.10524577283006
 10
195.2073408763474
 20
16.16947789001589
 10
195.1919536641853
 20
16.23108802545052
 10
195.24075915378
 20
16.21702407382115
 10
195.2853995564726
 20
16.21954742075318
 10
195.3538643946742
 20
16.21512797401713
 10
195.3959106169103
 20
16.20613025544038
 10
195.4487544758775
 20
16.21411714866514
 10
195.4207035002013
 20
16.17113917611674
 10
195.3749142248593
 20
16.18259552043845
 10
195.3869539073265
 20
16.12173520005144
 10
195.3796086070641
 20
16.0576929946878
 10
195.3831195826161
 20
15.94909368863917
 10
195.3819806760173
 20
15.82494319144759
 10
195.3819174780263
 20
15.69189719829883
 10
195.3832872966868
 20
15.56797381249559
 10
195.3791638801313
 20
15.45868337849341
 10
195.3877763103564
 20
15.39608580094172
 10
195.3746757454401
 20
15.33740133296367
 10
195.4393884328198
 20
15.35362113810904
 10
195.5060405953155
 20
15.34270260383313
 10
195.6198779541103
 20
15.34793740173758
 10
195.7357259122097
 20
15.34485547516915
 10
195.849692426328
 20
15.35018259812514
 10
195.9160341018099
 20
15.33904208166545
 10
195.980718852548
 20
15.3554697959318
 10
195.9689820772722
 20
15.30425925210052
 10
195.9765168063041
 20
15.25950334121003
 10
195.9689820992257
 20
15.21474739010029
 10
195.9807188140737
 20
15.16353690871042
 10
195.9160344075252
 20
15.17996427794222
 10
195.8496886430824
 20
15.16882784447271
 10
195.7357459487012
 20
15.17413115893122
 10
195.6197995623054
 20
15.17114764593546
 10
195.5062756882122
 20
15.17606892268395
 10
195.4389231318804
 20
15.16585087513521
 10
195.3734285122495
 20
15.18145996138818
 10
195.3891713619218
 20
15.11463851827413
 10
195.3783275998211
 20
15.0420705781588
 10
195.3836581629793
 20
14.91162247614419
 10
195.3817136151854
 20
14.76064558185228
 10
195.3823133683215
 20
14.59322243934162
 10
195.3821506559605
 20
14.42656176118376
 10
195.3821895488135
 20
14.2736014292164
 10
195.38218164131
 20
14.1484917898571
 10
195.3821828382745
 20
14.06507890991424
 10
195.3821827716208
 20
14.02491778281981
 10
195.3821827564383
 20
14.01410517385762
 97
        1
330
B1
 75
     1
 76
     2
 52
45.0
 41
0.1
 77
     0
 78
     1
 53
45.0
 43
0.0
 44
0.0
 45
-0.282842712474619
 46
0.0
 79
     0
 98
        1
 10
0.0
 20
0.0
  0
HATCH
  5
CF
330
48
100
AcDbEntity
  8
1
  6
Continuous
 62
     2
100
AcDbHatch
 10
0.0
 20
0.0
 30
0.0
210
0.0
220
0.0
230
1.0
  2
CUSTOM13
 70
     0
 71
     1
 91
        1
 92
        1
 93
        3
 72
     4
 94
        3
 73
     0
 74
     0
 95
       24
 96
       20
 40
0.0
 40
0.0
 40
0.0
 40
0.0
 40
0.2211075008754296
 40
0.4273218586245819
 40
0.508017467924013
 40
0.5914835907871088
 40
0.8143265690193432
 40
1.054651302686636
 40
1.295452694023238
 40
1.518109231328951
 40
1.540864321905568
 40
1.595126460622829
 40
1.659890947896145
 40
1.714153085187533
 40
1.736908174961806
 40
1.76495110073552
 40
1.801562291221057
 40
1.953914424543753
 40
2.126104167379811
 40
2.126104167379811
 40
2.126104167379811
 40
2.126104167379811
 10
185.937536955689
 20
15.58989295113022
 10
185.9112579081813
 20
15.53097628234381
 10
185.8604698894425
 20
15.41711139679265
 10
185.8131784839113
 20
15.14441958233115
 10
185.7043482802618
 20
15.24445482575454
 10
185.5514800279639
 20
15.27118593367335
 10
185.7686155181199
 20
15.48518135017634
 10
185.7838483674381
 20
15.7033211778249
 10
185.8906889492001
 20
15.88451579066428
 10
185.8305380947078
 20
16.16913226311412
 10
185.9334317395403
 20
16.14114089222458
 10
185.977993346815
 20
16.13243251602306
 10
186.0380842395398
 20
16.1213965418336
 10
186.0756619587439
 20
16.10767523055567
 10
186.1252466928607
 20
16.10756076160225
 10
186.0930158919325
 20
16.07306592398633
 10
186.0171802221883
 20
16.0840410453796
 10
186.0429447159693
 20
15.89858969582459
 10
186.005589676385
 20
15.80702313549596
 10
185.9857704961609
 20
15.75844135397712
 72
     4
 94
        3
 73
     0
 74
     0
 95
       70
 96
       66
 40
0.0
 40
0.0
 40
0.0
 40
0.0
 40
0.0241731073021472
 40
0.0846058988987582
 40
0.1631685280353852
 40
0.2417311571790608
 40
0.302163948829332
 40
0.3263370654896678
 40
0.3533118254250018
 40
0.4228783438923213
 40
0.5179999095314468
 40
0.6216398239467097
 40
0.7167613891500665
 40
0.7863279069650823
 40
0.813302679176276
 40
0.83729439987726
 40
0.8945054261373235
 40
0.962789554196273
 40
1.020000580349055
 40
1.043992300975154
 40
1.07193434552286
 40
1.113121768772847
 40
1.145225199332168
 40
1.225483775412689
 40
1.329819923771381
 40
1.434156071994252
 40
1.514414647795663
 40
1.546518078208263
 40
1.578974764260065
 40
1.662678849314003
 40
1.777131373668252
 40
1.901833377474643
 40
2.016285900500433
 40
2.0999899825278
 40
2.132446666570159
 40
2.158782354485881
 40
2.216720867907666
 40
2.274659381334088
 40
2.30099506925602
 40
2.333451754065992
 40
2.417155836543673
 40
2.531608358985112
 40
2.656310362283607
 40
2.77076288638874
 40
2.854466971339905
 40
2.886923657363711
 40
2.913597976833147
 40
2.982389642874953
 40
3.076451716946826
 40
3.178937260458445
 40
3.272999334739858
 40
3.341791001059084
 40
3.368465320663397
 40
3.396976080738618
 40
3.472140811845826
 40
3.578408190308515
 40
3.700226892455923
 40
3.82204559463414
 40
3.928312973256219
 40
4.003477705314616
 40
4.031988456866682
 40
4.058324144797485
 40
4.116262658236655
 40
4.174201171400464
 40
4.200536849608401
 40
4.200536849608401
 40
4.200536849608401
 40
4.200536849608401
 10
185.9857704961609
 20
15.75844135397712
 10
185.9938259544679
 20
15.75844359811694
 10
186.0220200663241
 20
15.75845146032804
 10
186.0765534803673
 20
15.75830754828379
 10
186.1482891808604
 20
15.75909120499905
 10
186.2236240137063
 20
15.75627570463818
 10
186.2713052366439
 20
15.76298403400964
 10
186.3195071245617
 20
15.75197563692438
 10
186.3062571799874
 20
15.80546402997039
 10
186.3151093964539
 20
15.86049583543098
 10
186.3108698036287
 20
15.95419908726115
 10
186.3133483481281
 20
16.04959482218538
 10
186.3090938706061
 20
16.14356821983392
 10
186.3179818665847
 20
16.19795062438018
 10
186.3046977409946
 20
16.25233997691466
 10
186.351411927711
 20
16.23842216335363
 10
186.3943254545737
 20
16.24103877374046
 10
186.4605443456685
 20
16.23648422450757
 10
186.5013342271799
 20
16.22778162134163
 10
186.5525145690818
 20
16.23531799890197
 10
186.5253720487202
 20
16.19349970223286
 10
186.4803096055708
 20
16.20284992072596
 10
186.4942065045051
 20
16.13841207371838
 10
186.4858414431654
 20
16.073782196274
 10
186.4903632178399
 20
15.97529141193891
 10
186.4854741311168
 20
15.87595932842575
 10
186.4950258992082
 20
15.81293115552975
 10
186.4799761455201
 20
15.74964011499795
 10
186.544915945721
 20
15.76515072944276
 10
186.6116246399498
 20
15.75499387697819
 10
186.7241435470828
 20
15.75988800099374
 10
186.8390235448955
 20
15.75691204732791
 10
186.9519871999747
 20
15.76221664184998
 10
187.0176267597678
 20
15.75107306472096
 10
187.0816276691054
 20
15.76744532319864
 10
187.070314288919
 20
15.71761689905282
 10
187.077533987151
 20
15.6741671521213
 10
187.070314261127
 20
15.63071745587452
 10
187.0816277175994
 20
15.58088895196884
 10
187.0176263598972
 20
15.5972616609137
 10
186.951992124046
 20
15.58611271661596
 10
186.8389974317332
 20
15.59144857206862
 10
186.7242456548644
 20
15.5883434566383
 10
186.6113183686861
 20
15.59364894682597
 10
186.5455220903585
 20
15.58257300019602
 10
186.4816097975359
 20
15.59887597847626
 10
186.4936015165127
 20
15.54423524395749
 10
186.4862104613005
 20
15.48854295047849
 10
186.4892684841984
 20
15.39649689140577
 10
186.4893422785684
 20
15.30179109873107
 10
186.486031357836
 20
15.20952782902271
 10
186.4939505989904
 20
15.15435768736144
 10
186.4815076611618
 20
15.10058169100141
 10
186.5389116551632
 20
15.11453768862786
 10
186.5994708140383
 20
15.10511457884231
 10
186.7048680855081
 20
15.10942885928709
 10
186.8204294070623
 20
15.10835504612036
 10
186.9359688877797
 20
15.10725965901
 10
187.0414181130841
 20
15.11162525770637
 10
187.1018680471803
 20
15.10209426030675
 10
187.159283773911
 20
15.11617289606385
 10
187.1477773876708
 20
15.06707153265686
 10
187.1537566781749
 20
15.02564658018652
 10
187.1520311050802
 20
14.97651677966699
 10
187.1521500122971
 20
14.9485442844761
 10
187.1521871691833
 20
14.93980288195952
 72
     4
 94
        3
 73
     0
 74
     0
 95
       62
 96
       58
 40
0.0
 40
0.0
 40
0.0
 40
0.0
 40
0.0598250028308485
 40
0.2024846486897047
 40
0.3727558389220178
 40
0.5154154847934933
 40
0.5752404975784202
 40
0.9332326775485473
 40
1.290451762839292
 40
1.602077253145744
 40
1.699931634112042
 40
1.799359756425001
 40
2.27012014965706
 40
2.804661928461453
 40
2.882342287383166
 40
3.076543185719017
 40
3.329004354835484
 40
3.581465524568311
 40
3.775666424543598
 40
3.853346784558218
 40
3.899120679594992
 40
3.984129341791933
 40
4.029903236817281
 40
4.105797496059434
 40
4.295533144152389
 40
4.542189486611623
 40
4.788845828875564
 40
4.978581476409943
 40
5.054475735244184
 40
5.62173466433921
 40
6.130867242037199
 40
6.225249780948457
 40
6.318913039727116
 40
6.663579954558718
 40
7.047498900224564
 40
7.435230791575476
 40
7.498943906667888
 40
7.650875181209882
 40
7.832212509001392
 40
7.984143783696778
 40
8.047856898902905
 40
8.091554632732418
 40
8.17270756696409
 40
8.21640530076782
 40
8.289021782160704
 40
8.462184160757078
 40
8.668861838005244
 40
8.842024215263836
 40
8.91464069547506
 40
8.989881580861269
 40
9.15541152882719
 40
9.320941477743983
 40
9.396182352487239
 40
9.454709011143729
 40
9.583467660170749
 40
9.712226309012971
 40
9.770752957989453
 40
9.770752957989453
 40
9.770752957989453
 40
9.770752957989453
 10
187.1521871691833
 20
14.93980288195952
 10
187.1322348171623
 20
14.93980875568674
 10
187.0647037716465
 20
14.9398286380616
 10
186.9410612161788
 20
14.93949362520327
 10
186.7863180150057
 20
14.94107673750514
 10
186.669734948248
 20
14.93686078860498
 10
186.4550942634243
 20
14.95215205331628
 10
186.8518948407228
 20
14.59198721286192
 10
186.8945656069267
 20
14.37510503397166
 10
187.3189162146613
 20
14.19325062511453
 10
187.1439821496074
 20
14.08985196568073
 10
187.0194523925084
 20
13.87831523212729
 10
186.7666277235943
 20
14.34806081001557
 10
186.4797602893627
 20
14.99511516984522
 10
186.4906335926661
 20
14.68782672154694
 10
186.488289277796
 20
14.5228861697178
 10
186.4861096126411
 20
14.28879670711694
 10
186.4980774396348
 20
14.04498072421783
 10
186.4687984740632
 20
13.89855796860985
 10
186.511452262547
 20
13.75113490174537
 10
186.4239814005641
 20
13.7668579730622
 10
186.3768527606745
 20
13.76694303543454
 10
186.2898973207714
 20
13.75109425482909
 10
186.3313474021724
 20
13.89527771422762
 10
186.3029875004285
 20
14.03855052698454
 10
186.3145973775301
 20
14.27674947365264
 10
186.3124175648273
 20
14.50517235240344
 10
186.3103111127995
 20
14.66705729375992
 10
186.3208035438325
 20
14.98153709333748
 10
186.0128963252894
 20
14.29229470872442
 10
185.7055258267455
 20
13.81476750243046
 10
185.5851367066276
 20
14.03741112637431
 10
185.4074607910722
 20
14.15011034955561
 10
185.8853326362896
 20
14.32548143465463
 10
185.9353959057208
 20
14.5609192925203
 10
186.3583799621717
 20
14.95322989344609
 10
186.127675427354
 20
14.93655307029068
 10
186.0049685859341
 20
14.94269518948773
 10
185.8325483095662
 20
14.93312822699576
 10
185.7213224694449
 20
14.95448818489668
 10
185.6025779627448
 20
14.92136265357422
 10
185.6183169706686
 20
15.00203900606886
 10
185.6178550933763
 20
15.04645414290858
 10
185.6027881889931
 20
15.12967081778538
 10
185.7372380935443
 20
15.09062651983887
 10
185.8619755545747
 20
15.11739729328427
 10
186.0628755237281
 20
15.10063949044057
 10
186.1921540949354
 20
15.12204225913009
 10
186.3328419928296
 20
15.08868778853424
 10
186.2980927452616
 20
15.22651875785073
 10
186.3222185666713
 20
15.34963257349487
 10
186.2967086182394
 20
15.47024055670342
 10
186.3333251146686
 20
15.60539865141501
 10
186.221141702777
 20
15.58094545781898
 10
186.1280356457138
 20
15.5930774984203
 10
186.0191547579821
 20
15.58957630070002
 10
185.9569697640965
 20
15.5898175595161
 10
185.9375369557247
 20
15.58989295124152
 97
        3
330
B3
330
B4
330
B2
 75
     1
 76
     2
 52
45.0
 41
0.1
 77
     0
 78
     1
 53
45.0
 43
0.0
 44
0.0
 45
-0.282842712474619
 46
0.0
 79
     0
 98
        1
 10
0.0
 20
0.0
  0
HATCH
  5
D0
330
48
100
AcDbEntity
  8
1
  6
Continuous
 62
     2
100
AcDbHatch
 10
0.0
 20
0.0
 30
0.0
210
0.0
220
0.0
230
1.0
  2
CUSTOM14
 70
     0
 71
     1
 91
        1
 92
        1
 93
        4
 72
     1
 10
192.4578138032672
 20
15.22875434022062
 11
191.1602971697031
 21
15.22875434022062
 72
     1
 10
191.1602971697031
 20
15.22875434022062
 11
191.1602971697031
 21
15.39722336795622
 72
     1
 10
191.1602971697031
 20
15.39722336795622
 11
192.4578138032672
 21
15.39722336795622
 72
     1
 10
192.4578138032672
 20
15.39722336795622
 11
192.4578138032672
 21
15.22875434022062
 97
        1
330
B5
 75
     1
 76
     2
 52
45.0
 41
0.1
 77
     0
 78
     1
 53
45.0
 43
0.0
 44
0.0
 45
-0.282842712474619
 46
0.0
 79
     0
 98
        1
 10
0.0
 20
0.0
  0
ENDBLK
  5
4A
330
48
100
AcDbEntity
  8
0
100
AcDbBlockEnd
  0
BLOCK
  5
4D
330
4B
100
AcDbEntity
  8
0
100
AcDbBlockBegin
  2
開示A4枠
 70
     0
 10
0.0
 20
0.00000000000001
 30
0.0
  3
開示A4枠
  1

  0
INSERT
  5
4C
330
4B
100
AcDbEntity
  8
1
100
AcDbBlockReference
  2
開示A4
 10
0.0
 20
0.00000000000001
 30
0.0
  0
ENDBLK
  5
4E
330
4B
100
AcDbEntity
  8
0
100
AcDbBlockEnd
  0
BLOCK
  5
50
330
4F
100
AcDbEntity
  8
0
100
AcDbBlockBegin
  2
T521-0
 70
     0
 10
45.39245624726917
 20
230.0480425304554
 30
0.0
  3
T521-0
  1

  0
LINE
  5
D1
330
4F
100
AcDbEntity
  8
1
  6
Continuous
 62
     7
100
AcDbLine
 10
71.39245624726915
 20
174.0490044247787
 30
0.0
 11
61.89245624726915
 21
174.0490044247787
 31
0.0
  0
LINE
  5
D2
330
4F
100
AcDbEntity
  8
1
  6
Continuous
 62
     7
100
AcDbLine
 10
58.89245624726925
 20
193.0480425304554
 30
0.0
 11
82.75955296101856
 21
193.0480425304554
 31
0.0
  0
LINE
  5
D3
330
4F
100
AcDbEntity
  8
1
  6
Continuous
 62
     7
100
AcDbLine
 10
168.6424562472691
 20
206.7980425304554
 30
0.0
 11
168.6424562472691
 21
210.0480425304554
 31
0.0
  0
LINE
  5
D4
330
4F
100
AcDbEntity
  8
1
  6
LONG_DASHED
 62
     2
100
AcDbLine
 10
140.1424562472691
 20
206.7980425304554
 30
0.0
 11
140.1424562472691
 21
205.4845342035591
 31
0.0
  0
LINE
  5
D5
330
4F
100
AcDbEntity
  8
1
  6
LONG_DASHED
 62
     2
100
AcDbLine
 10
144.3924562472691
 20
189.2980425304553
 30
0.0
 11
144.3924562472691
 21
190.5480425304554
 31
0.0
  0
LINE
  5
D6
330
4F
100
AcDbEntity
  8
1
  6
Continuous
 62
     7
100
AcDbLine
 10
164.3924562472691
 20
189.2980425304553
 30
0.0
 11
164.3924562472691
 21
174.5490044247787
 31
0.0
  0
LINE
  5
D7
330
4F
100
AcDbEntity
  8
1
  6
Continuous
 62
     7
100
AcDbLine
 10
130.3924562472693
 20
206.7980425304554
 30
0.0
 11
130.3924562472693
 21
189.2980425304553
 31
0.0
  0
LINE
  5
D8
330
4F
100
AcDbEntity
  8
1
  6
LONG_DASHED
 62
     2
100
AcDbLine
 10
167.1424562472691
 20
193.5376077162307
 30
0.0
 11
167.1424562472691
 21
203.5480425304554
 31
0.0
  0
LINE
  5
D9
330
4F
100
AcDbEntity
  8
1
  6
Continuous
 62
     7
100
AcDbLine
 10
178.3924562472691
 20
206.7980425304554
 30
0.0
 11
130.3924562472693
 21
206.7980425304554
 31
0.0
  0
LINE
  5
DA
330
4F
100
AcDbEntity
  8
1
  6
Continuous
 62
     7
100
AcDbLine
 10
140.1424562472691
 20
210.0480425304554
 30
0.0
 11
168.6424562472691
 21
210.0480425304554
 31
0.0
  0
LINE
  5
DB
330
4F
100
AcDbEntity
  8
1
  6
Continuous
 62
     7
100
AcDbLine
 10
130.3924562472693
 20
189.2980425304553
 30
0.0
 11
178.3924562472691
 21
189.2980425304553
 31
0.0
  0
LINE
  5
DC
330
4F
100
AcDbEntity
  8
1
  6
Continuous
 62
     7
100
AcDbLine
 10
140.1424562472691
 20
210.0480425304554
 30
0.0
 11
140.1424562472691
 21
206.7980425304554
 31
0.0
  0
LINE
  5
DD
330
4F
100
AcDbEntity
  8
1
  6
LONG_DASHED
 62
     2
100
AcDbLine
 10
141.6424562472691
 20
203.5480425304554
 30
0.0
 11
141.6424562472691
 21
193.5376077162307
 31
0.0
  0
LINE
  5
DE
330
4F
100
AcDbEntity
  8
1
  6
LONG_DASHED
 62
     2
100
AcDbLine
 10
168.6424562472691
 20
205.4845342035591
 30
0.0
 11
168.6424562472691
 21
206.7980425304554
 31
0.0
  0
LINE
  5
DF
330
4F
100
AcDbEntity
  8
1
  6
Continuous
 62
     7
100
AcDbLine
 10
178.3924562472691
 20
189.2980425304553
 30
0.0
 11
178.3924562472691
 21
206.7980425304554
 31
0.0
  0
LINE
  5
E0
330
4F
100
AcDbEntity
  8
1
  6
LONG_DASHED
 62
     2
100
AcDbLine
 10
164.3924562472691
 20
190.5480425304554
 30
0.0
 11
164.3924562472691
 21
189.2980425304553
 31
0.0
  0
LINE
  5
E1
330
4F
100
AcDbEntity
  8
1
  6
Continuous
 62
     7
100
AcDbLine
 10
154.3924562472691
 20
174.0490044247787
 30
0.0
 11
144.8924562472691
 21
174.0490044247787
 31
0.0
  0
LINE
  5
E2
330
4F
100
AcDbEntity
  8
1
  6
Continuous
 62
     7
100
AcDbLine
 10
144.3924562472691
 20
174.5490044247787
 30
0.0
 11
144.3924562472691
 21
189.2980425304553
 31
0.0
  0
LINE
  5
E3
330
4F
100
AcDbEntity
  8
1
  6
Continuous
 62
     7
100
AcDbLine
 10
163.8924562472691
 20
174.0490044247787
 30
0.0
 11
154.3924562472691
 21
174.0490044247787
 31
0.0
  0
LINE
  5
E4
330
4F
100
AcDbEntity
  8
1
  6
Continuous
 62
     7
100
AcDbLine
 10
59.39245624726915
 20
210.0480425304554
 30
0.0
 11
60.39245624726915
 21
210.0480425304554
 31
0.0
  0
LINE
  5
E5
330
4F
100
AcDbEntity
  8
1
  6
Continuous
 62
     7
100
AcDbLine
 10
85.20495045696725
 20
192.1967812993821
 30
0.0
 11
84.54480814595996
 21
189.8415889951355
 31
0.0
  0
LINE
  5
E6
330
4F
100
AcDbEntity
  8
1
  6
Continuous
 62
     7
100
AcDbLine
 10
84.54480814595996
 20
206.2544960657753
 30
0.0
 11
85.20495045696725
 21
203.8993037615286
 31
0.0
  0
LINE
  5
E7
330
4F
100
AcDbEntity
  8
1
  6
Continuous
 62
     7
100
AcDbLine
 10
84.39245624726914
 20
206.2980425304554
 30
0.0
 11
84.39245624726914
 21
189.7980425304554
 31
0.0
  0
LINE
  5
E8
330
4F
100
AcDbEntity
  8
1
  6
Continuous
 62
     7
100
AcDbLine
 10
89.39245624726914
 20
206.7980425304554
 30
0.0
 11
83.76316565195324
 21
206.7980425304554
 31
0.0
  0
LINE
  5
E9
330
4F
100
AcDbEntity
  8
1
  6
Continuous
 62
     7
100
AcDbLine
 10
57.14245624726915
 20
205.0480425304554
 30
0.0
 11
82.95197159262966
 21
205.0480425304554
 31
0.0
  0
LINE
  5
EA
330
4F
100
AcDbEntity
  8
1
  6
Continuous
 62
     7
100
AcDbLine
 10
81.73877953664285
 20
189.2980425304554
 30
0.0
 11
89.39245624726914
 21
189.2980425304553
 31
0.0
  0
LINE
  5
EB
330
4F
100
AcDbEntity
  8
1
  6
Continuous
 62
     7
100
AcDbLine
 10
85.64245624726914
 20
210.0480425304554
 30
0.0
 11
60.39245624726915
 21
210.0480425304554
 31
0.0
  0
LINE
  5
EC
330
4F
100
AcDbEntity
  8
1
  6
Continuous
 62
     7
100
AcDbLine
 10
57.14245624726915
 20
210.0480425304554
 30
0.0
 11
57.14245624726915
 21
205.4845342035591
 31
0.0
  0
LINE
  5
ED
330
4F
100
AcDbEntity
  8
1
  6
Continuous
 62
     7
100
AcDbLine
 10
58.64245624726915
 20
203.5480425304554
 30
0.0
 11
58.64245624726915
 21
193.5376077162307
 31
0.0
  0
LINE
  5
EE
330
4F
100
AcDbEntity
  8
1
  6
Continuous
 62
     7
100
AcDbLine
 10
85.64245624726914
 20
207.7980425304554
 30
0.0
 11
85.64245624726914
 21
210.0480425304554
 31
0.0
  0
LINE
  5
EF
330
4F
100
AcDbEntity
  8
1
  6
Continuous
 62
     7
100
AcDbLine
 10
57.14245624726915
 20
210.0480425304554
 30
0.0
 11
58.39245624726915
 21
210.0480425304554
 31
0.0
  0
LINE
  5
F0
330
4F
100
AcDbEntity
  8
1
  6
Continuous
 62
     7
100
AcDbLine
 10
89.39245624726914
 20
189.2980425304553
 30
0.0
 11
89.39245624726914
 21
206.7980425304554
 31
0.0
  0
LINE
  5
F1
330
4F
100
AcDbEntity
  8
1
  6
Continuous
 62
     7
100
AcDbLine
 10
81.39245624726914
 20
188.2980425304554
 30
0.0
 11
81.39245624726914
 21
174.5490044247787
 31
0.0
  0
LINE
  5
F2
330
4F
100
AcDbEntity
  8
1
  6
Continuous
 62
     7
100
AcDbLine
 10
61.39245624726915
 20
174.5490044247787
 30
0.0
 11
61.39245624726915
 21
190.5480425304554
 31
0.0
  0
LINE
  5
F3
330
4F
100
AcDbEntity
  8
1
  6
Continuous
 62
     7
100
AcDbLine
 10
80.89245624726914
 20
174.0490044247787
 30
0.0
 11
71.39245624726915
 21
174.0490044247787
 31
0.0
  0
LINE
  5
F4
330
4F
100
AcDbEntity
  8
1
  6
Continuous
 62
     7
100
AcDbLine
 10
84.57648703520985
 20
108.6313036198798
 30
0.0
 11
85.35252418663214
 21
90.00641198574331
 31
0.0
  0
LINE
  5
F5
330
4F
100
AcDbEntity
  8
1
  6
Continuous
 62
     7
100
AcDbLine
 10
89.39245624726914
 20
89.0480425304554
 30
0.0
 11
86.35165725972456
 21
89.0480425304554
 31
0.0
  0
LINE
  5
F6
330
4F
100
AcDbEntity
  8
1
  6
Continuous
 62
     7
100
AcDbLine
 10
89.39245624726914
 20
124.7976720618701
 30
0.0
 11
89.39245624726914
 21
89.0480425304554
 31
0.0
  0
LINE
  5
F7
330
4F
100
AcDbEntity
  8
1
  6
Continuous
 62
     7
100
AcDbLine
 10
82.57822088902515
 20
110.5480425304554
 30
0.0
 11
81.82078384261357
 21
110.5480425304554
 31
0.0
  0
LINE
  5
F8
330
4F
100
AcDbEntity
  8
1
  6
Continuous
 62
     7
100
AcDbLine
 10
82.57822088902515
 20
115.5480425304554
 30
0.0
 11
81.82078384261357
 21
115.5480425304554
 31
0.0
  0
LINE
  5
F9
330
4F
100
AcDbEntity
  8
1
  6
Continuous
 62
     7
100
AcDbLine
 10
84.88202414441145
 20
124.7976720618701
 30
0.0
 11
84.57648703520985
 21
117.464781441031
 31
0.0
  0
LINE
  5
FA
330
4F
100
AcDbEntity
  8
1
  6
Continuous
 62
     7
100
AcDbLine
 10
85.35252418663214
 20
136.0896730751676
 30
0.0
 11
84.88202414441145
 21
124.7976720618701
 31
0.0
  0
LINE
  5
FB
330
4F
100
AcDbEntity
  8
1
  6
Continuous
 62
     7
100
AcDbLine
 10
89.39245624726914
 20
133.0480425304554
 30
0.0
 11
89.39245624726914
 21
124.7976720618701
 31
0.0
  0
LINE
  5
FC
330
4F
100
AcDbEntity
  8
1
  6
Continuous
 62
     7
100
AcDbLine
 10
89.39245624726914
 20
137.0480425304554
 30
0.0
 11
89.39245624726914
 21
133.0480425304554
 31
0.0
  0
LINE
  5
FD
330
4F
100
AcDbEntity
  8
1
  6
Continuous
 62
     7
100
AcDbLine
 10
86.35165725972456
 20
137.0480425304554
 30
0.0
 11
89.39245624726914
 21
137.0480425304554
 31
0.0
  0
ARC
  5
FE
330
4F
100
AcDbEntity
  8
1
  6
LONG_DASHED
 62
     2
100
AcDbCircle
 10
166.8924562472691
 20
190.5480425304554
 30
0.0
 40
2.499999999999938
100
AcDbArc
 50
94.78019184720081
 51
180.0
  0
ARC
  5
FF
330
4F
100
AcDbEntity
  8
1
  6
LONG_DASHED
 62
     2
100
AcDbCircle
 10
168.6424562472691
 20
203.5480425304554
 30
0.0
 40
1.50000000000002
100
AcDbArc
 50
104.4775121859297
 51
180.0
  0
ARC
  5
100
330
4F
100
AcDbEntity
  8
1
  6
LONG_DASHED
 62
     2
100
AcDbCircle
 10
141.8924562472693
 20
190.5480425304554
 30
0.0
 40
2.499999999999801
100
AcDbArc
 50
0.0
 51
85.21980815280374
  0
ARC
  5
101
330
4F
100
AcDbEntity
  8
1
  6
LONG_DASHED
 62
     2
100
AcDbCircle
 10
140.1424562472691
 20
203.5480425304554
 30
0.0
 40
1.5
100
AcDbArc
 50
0.0
 51
75.52248781407027
  0
ARC
  5
102
330
4F
100
AcDbEntity
  8
1
  6
Continuous
 62
     7
100
AcDbCircle
 10
83.76316565195324
 20
207.7060783323372
 30
0.0
 40
0.9080358018818375
100
AcDbArc
 50
206.7026885297561
 51
270.0
  0
ARC
  5
103
330
4F
100
AcDbEntity
  8
1
  6
Continuous
 62
     7
100
AcDbCircle
 10
83.65108995817585
 20
119.2760758911431
 30
0.0
 40
1.000000000000532
100
AcDbArc
 50
206.9329748097012
 51
357.6140559696107
  0
ARC
  5
104
330
4F
100
AcDbEntity
  8
1
  6
Continuous
 62
     7
100
AcDbCircle
 10
83.65108995817585
 20
106.8200091697681
 30
0.0
 40
0.9999999999999546
100
AcDbArc
 50
2.38594403038461
 51
153.0670251903016
  0
ARC
  5
105
330
4F
100
AcDbEntity
  8
1
  6
Continuous
 62
     7
100
AcDbCircle
 10
84.89245624726914
 20
206.2980425304554
 30
0.0
 40
0.5
100
AcDbArc
 50
90.0
 51
180.0
  0
ARC
  5
106
330
4F
100
AcDbEntity
  8
1
  6
Continuous
 62
     7
100
AcDbCircle
 10
84.89245624726914
 20
189.7980425304554
 30
0.0
 40
0.5
100
AcDbArc
 50
180.0
 51
270.0
  0
ARC
  5
107
330
4F
100
AcDbEntity
  8
1
  6
Continuous
 62
     7
100
AcDbCircle
 10
58.89245624726925
 20
190.5480425304554
 30
0.0
 40
2.499999999999901
100
AcDbArc
 50
0.0
 51
85.21980815280148
  0
ARC
  5
108
330
4F
100
AcDbEntity
  8
1
  6
Continuous
 62
     7
100
AcDbCircle
 10
57.14245624726915
 20
203.5480425304554
 30
0.0
 40
1.5
100
AcDbArc
 50
0.0
 51
75.52248781407027
  0
ARC
  5
109
330
4F
100
AcDbEntity
  8
1
  6
Continuous
 62
     7
100
AcDbCircle
 10
71.39245624726915
 20
113.0480425304554
 30
0.0
 40
12.75000000000008
100
AcDbArc
 50
26.9329748097017
 51
333.0670251902996
  0
ARC
  5
10A
330
4F
100
AcDbEntity
  8
1
  6
Continuous
 62
     7
100
AcDbCircle
 10
71.39245624726915
 20
113.0480425304554
 30
0.0
 40
14.25
100
AcDbArc
 50
270.0
 51
324.2127588269092
  0
ARC
  5
10B
330
4F
100
AcDbEntity
  8
1
  6
Continuous
 62
     7
100
AcDbCircle
 10
71.39245624726915
 20
113.0480425304554
 30
0.0
 40
14.24999999999997
100
AcDbArc
 50
35.78724117309095
 51
270.0
  0
CIRCLE
  5
10C
330
4F
100
AcDbEntity
  8
1
  6
LONG_DASHED
 62
     2
100
AcDbCircle
 10
172.3924562472691
 20
198.0480425304554
 30
0.0
 40
3.391304347825923
  0
CIRCLE
  5
10D
330
4F
100
AcDbEntity
  8
1
  6
Continuous
 62
     7
100
AcDbCircle
 10
172.3924562472691
 20
198.0480425304554
 30
0.0
 40
2.0
  0
CIRCLE
  5
10E
330
4F
100
AcDbEntity
  8
1
  6
LONG_DASHED
 62
     2
100
AcDbCircle
 10
136.3924562472691
 20
198.0480425304554
 30
0.0
 40
3.391304347826093
  0
CIRCLE
  5
10F
330
4F
100
AcDbEntity
  8
1
  6
Continuous
 62
     7
100
AcDbCircle
 10
136.3924562472691
 20
198.0480425304554
 30
0.0
 40
2.0
  0
CIRCLE
  5
110
330
4F
100
AcDbEntity
  8
1
  6
Continuous
 62
     7
100
AcDbCircle
 10
71.39245624726915
 20
113.0480425304554
 30
0.0
 40
7.5
  0
CIRCLE
  5
111
330
4F
100
AcDbEntity
  8
1
  6
Continuous
 62
     7
100
AcDbCircle
 10
71.39245624726915
 20
113.0480425304554
 30
0.0
 40
8.0
  0
CIRCLE
  5
112
330
4F
100
AcDbEntity
  8
1
  6
Continuous
 62
     7
100
AcDbCircle
 10
71.39245624726915
 20
113.0480425304554
 30
0.0
 40
10.0
  0
SPLINE
  5
113
330
4F
100
AcDbEntity
  8
1
  6
Continuous
 62
     7
100
AcDbSpline
210
0.0
220
0.0
230
1.0
 70
     8
 71
     3
 72
    39
 73
    35
 74
    33
 42
0.000000001
 43
0.0000000001
 44
0.00000001
 40
0.0
 40
0.0
 40
0.0
 40
0.0
 40
0.1071721327968258
 40
0.2143445405876357
 40
0.4362326979169825
 40
0.6581200340695009
 40
0.9585925715248342
 40
1.259079719977066
 40
1.629177745427599
 40
1.999266626051418
 40
2.4278114282954
 40
2.856360189981561
 40
3.330391030818376
 40
3.804420518577502
 40
4.309568610753041
 40
4.814717212148659
 40
5.335666170390109
 40
5.856614955312819
 40
6.377563740235528
 40
6.898512698476979
 40
7.403661299872568
 40
7.908809392048051
 40
8.382838879807261
 40
8.856869720644077
 40
9.28541848233021
 40
9.713963284574248
 40
10.08405216519796
 40
10.4541501906486
 40
10.75463733910086
 40
11.05510987655614
 40
11.27699721270863
 40
11.49888537003803
 40
11.60605777782881
 40
11.71322991062572
 40
11.71322991062572
 40
11.71322991062572
 40
11.71322991062572
 10
85.20495045696725
 20
203.8993037615286
 30
0.0
 10
85.20886395853384
 20
203.8637947141602
 30
0.0
 10
85.21669095043751
 20
203.7927765260008
 30
0.0
 10
85.23214205353388
 20
203.6481883649538
 30
0.0
 10
85.24980013705641
 20
203.4653833774819
 30
0.0
 10
85.27014638421225
 20
203.2181275981376
 30
0.0
 10
85.28791165385952
 20
202.9444067900122
 30
0.0
 10
85.30466330583288
 20
202.6211512586613
 30
0.0
 10
85.32022541026697
 20
202.274606413577
 30
0.0
 10
85.33507322792269
 20
201.8853096009915
 30
0.0
 10
85.34806454342772
 20
201.4764524063327
 30
0.0
 10
85.35967194944827
 20
201.0328944066351
 30
0.0
 10
85.36956017727837
 20
200.5741296471588
 30
0.0
 10
85.37786926424377
 20
200.0897967276593
 30
0.0
 10
85.38433870824898
 20
199.5950622619974
 30
0.0
 10
85.38901214880457
 20
199.084667251006
 30
0.0
 10
85.39183189753012
 20
198.5689916687693
 30
0.0
 10
85.39276843708672
 20
198.0480425304554
 30
0.0
 10
85.39183189753014
 20
197.5270933921415
 30
0.0
 10
85.38901214880454
 20
197.0114178099047
 30
0.0
 10
85.384338708249
 20
196.5010227989135
 30
0.0
 10
85.37786926424374
 20
196.0062883332516
 30
0.0
 10
85.36956017727844
 20
195.521955413752
 30
0.0
 10
85.35967194944823
 20
195.0631906542758
 30
0.0
 10
85.34806454342777
 20
194.6196326545781
 30
0.0
 10
85.3350732279227
 20
194.2107754599193
 30
0.0
 10
85.32022541026694
 20
193.8214786473339
 30
0.0
 10
85.30466330583288
 20
193.4749338022496
 30
0.0
 10
85.28791165385948
 20
193.1516782708986
 30
0.0
 10
85.2701463842123
 20
192.8779574627731
 30
0.0
 10
85.24980013705633
 20
192.6307016834289
 30
0.0
 10
85.23214205353389
 20
192.4478966959571
 30
0.0
 10
85.21669095043751
 20
192.3033085349099
 30
0.0
 10
85.20886395853384
 20
192.2322903467506
 30
0.0
 10
85.20495045696725
 20
192.1967812993821
 30
0.0
 11
85.20495045696725
 21
203.8993037615286
 31
0.0
 11
85.2166321915058
 21
203.7927701847073
 31
0.0
 11
85.22796128310065
 21
203.6861982551709
 31
0.0
 11
85.24927734217593
 21
203.465336349939
 31
0.0
 11
85.26745624726914
 21
203.244194953162
 31
0.0
 11
85.28725945866967
 21
202.9443757100221
 31
0.0
 11
85.30315314969084
 21
202.6443091891693
 31
0.0
 11
85.31980923527252
 21
202.2745861533593
 31
0.0
 11
85.33396735804894
 21
201.9047681885746
 31
0.0
 11
85.34766459803079
 21
201.4764423393752
 31
0.0
 11
85.35896259821524
 21
201.0480425304554
 31
0.0
 11
85.36921288269691
 21
200.5741225270037
 31
0.0
 11
85.37737940246566
 21
200.1001633904094
 31
0.0
 11
85.38400871978882
 21
199.5950588001359
 31
0.0
 11
85.38865818552225
 21
199.089931596457
 31
0.0
 11
85.39151321978491
 21
198.5689904617738
 31
0.0
 11
85.39245624726914
 21
198.0480425304554
 31
0.0
 11
85.39151321978491
 21
197.5270945991371
 31
0.0
 11
85.38865818552225
 21
197.0061534644538
 31
0.0
 11
85.38400871978882
 21
196.5010262607749
 31
0.0
 11
85.37737940246566
 21
195.9959216705015
 31
0.0
 11
85.36921288269694
 21
195.5219625339071
 31
0.0
 11
85.35896259821524
 21
195.0480425304554
 31
0.0
 11
85.3476645980308
 21
194.6196427215356
 31
0.0
 11
85.33396735804894
 21
194.1913168723362
 31
0.0
 11
85.31980923527249
 21
193.8214989075516
 31
0.0
 11
85.30315314969084
 21
193.4517758717415
 31
0.0
 11
85.28725945866965
 21
193.1517093508887
 31
0.0
 11
85.26745624726914
 21
192.8518901077488
 31
0.0
 11
85.24927734217592
 21
192.6307487109718
 31
0.0
 11
85.22796128310065
 21
192.4098868057399
 31
0.0
 11
85.2166321915058
 21
192.3033148762035
 31
0.0
 11
85.20495045696725
 21
192.1967812993821
 31
0.0
  0
ARC
  5
114
330
4F
100
AcDbEntity
  8
0
  6
LONG_DASHED
 62
     2
100
AcDbCircle
 10
168.1424562472691
 20
205.4845342035591
 30
0.0
 40
0.4999999999999608
100
AcDbArc
 50
284.4775121859311
 51
0.0
  0
ARC
  5
115
330
4F
100
AcDbEntity
  8
1
  6
LONG_DASHED
 62
     2
100
AcDbCircle
 10
166.6424562472691
 20
193.5376077162307
 30
0.0
 40
0.5000000000000037
100
AcDbArc
 50
274.7801918471915
 51
0.0
  0
ARC
  5
116
330
4F
100
AcDbEntity
  8
0
  6
LONG_DASHED
 62
     2
100
AcDbCircle
 10
140.6424562472691
 20
205.4845342035591
 30
0.0
 40
0.5
100
AcDbArc
 50
180.0
 51
255.5224878140689
  0
ARC
  5
117
330
4F
100
AcDbEntity
  8
1
  6
LONG_DASHED
 62
     2
100
AcDbCircle
 10
142.1424562472691
 20
193.5376077162307
 30
0.0
 40
0.5
100
AcDbArc
 50
180.0
 51
265.2198081528085
  0
ARC
  5
118
330
4F
100
AcDbEntity
  8
1
  6
Continuous
 62
     7
100
AcDbCircle
 10
163.8924562472691
 20
174.5490044247787
 30
0.0
 40
0.5
100
AcDbArc
 50
270.0
 51
0.0
  0
ARC
  5
119
330
4F
100
AcDbEntity
  8
1
  6
Continuous
 62
     7
100
AcDbCircle
 10
144.8924562472691
 20
174.5490044247787
 30
0.0
 40
0.5
100
AcDbArc
 50
180.0
 51
270.0
  0
ARC
  5
11A
330
4F
100
AcDbEntity
  8
1
  6
Continuous
 62
     7
100
AcDbCircle
 10
81.73877953664285
 20
188.2980425304554
 30
0.0
 40
1.0
100
AcDbArc
 50
90.0
 51
150.0000000000019
  0
ARC
  5
11B
330
4F
100
AcDbEntity
  8
1
  6
Continuous
 62
     7
100
AcDbCircle
 10
83.76316565195324
 20
121.9658925418012
 30
0.0
 40
1.000000000000019
100
AcDbArc
 50
215.7872411730889
 51
357.6140559696105
  0
ARC
  5
11C
330
4F
100
AcDbEntity
  8
1
  6
Continuous
 62
     7
100
AcDbCircle
 10
83.76316565195324
 20
104.1301925191096
 30
0.0
 40
0.9999999999999587
100
AcDbArc
 50
2.3859440303903
 51
144.2127588269083
  0
ARC
  5
11D
330
4F
100
AcDbEntity
  8
1
  6
Continuous
 62
     7
100
AcDbCircle
 10
86.64245624726914
 20
207.7980425304554
 30
0.0
 40
1.0
100
AcDbArc
 50
180.0
 51
270.0
  0
ARC
  5
11E
330
4F
100
AcDbEntity
  8
0
  6
Continuous
 62
     7
100
AcDbCircle
 10
57.64245624726915
 20
205.4845342035591
 30
0.0
 40
0.5
100
AcDbArc
 50
180.0
 51
255.5224878140689
  0
ARC
  5
11F
330
4F
100
AcDbEntity
  8
1
  6
Continuous
 62
     7
100
AcDbCircle
 10
59.14245624726915
 20
193.5376077162307
 30
0.0
 40
0.5
100
AcDbArc
 50
180.0
 51
265.2198081528085
  0
ARC
  5
120
330
4F
100
AcDbEntity
  8
1
  6
Continuous
 62
     7
100
AcDbCircle
 10
80.89245624726914
 20
174.5490044247787
 30
0.0
 40
0.5
100
AcDbArc
 50
270.0
 51
0.0
  0
ARC
  5
121
330
4F
100
AcDbEntity
  8
1
  6
Continuous
 62
     7
100
AcDbCircle
 10
61.89245624726915
 20
174.5490044247787
 30
0.0
 40
0.5
100
AcDbArc
 50
180.0
 51
270.0
  0
ARC
  5
122
330
4F
100
AcDbEntity
  8
1
  6
Continuous
 62
     7
100
AcDbCircle
 10
82.39245624726914
 20
188.2980425304554
 30
0.0
 40
1.0
100
AcDbArc
 50
90.0
 51
180.0
  0
ARC
  5
123
330
4F
100
AcDbEntity
  8
1
  6
Continuous
 62
     7
100
AcDbCircle
 10
86.35165725972456
 20
90.0480425304554
 30
0.0
 40
1.000000000000068
100
AcDbArc
 50
182.3859440303835
 51
270.0
  0
ARC
  5
124
330
4F
100
AcDbEntity
  8
1
  6
Continuous
 62
     7
100
AcDbCircle
 10
82.57822088902515
 20
117.5480425304554
 30
0.0
 40
2.0
100
AcDbArc
 50
270.0
 51
357.6140559696098
  0
ARC
  5
125
330
4F
100
AcDbEntity
  8
1
  6
Continuous
 62
     7
100
AcDbCircle
 10
82.57822088902515
 20
108.5480425304554
 30
0.0
 40
2.000000000000002
100
AcDbArc
 50
2.3859440303898
 51
90.0
  0
ARC
  5
126
330
4F
100
AcDbEntity
  8
1
  6
Continuous
 62
     7
100
AcDbCircle
 10
86.35165725972456
 20
136.0480425304554
 30
0.0
 40
1.0
100
AcDbArc
 50
90.0
 51
177.61405596961
  0
ARC
  5
127
330
4F
100
AcDbEntity
  8
1
  6
Continuous
 62
     7
100
AcDbCircle
 10
81.82078384261357
 20
116.5480425304554
 30
0.0
 40
1.000000000000019
100
AcDbArc
 50
198.5530045350191
 51
270.0
  0
ARC
  5
128
330
4F
100
AcDbEntity
  8
1
  6
Continuous
 62
     7
100
AcDbCircle
 10
81.82078384261357
 20
109.5480425304554
 30
0.0
 40
1.0
100
AcDbArc
 50
90.0
 51
161.4469954649809
  0
ENDBLK
  5
51
330
4F
100
AcDbEntity
  8
0
100
AcDbBlockEnd
  0
BLOCK
  5
156
330
14F
100
AcDbEntity
  8
0
100
AcDbBlockBegin
  2
*D4
 70
     1
 10
0.0
 20
0.0
 30
0.0
  3
*D4
  1

  0
LINE
  5
150
330
14F
100
AcDbEntity
  8
1
  6
Continuous
 62
     2
100
AcDbLine
 10
103.6648335015134
 20
89.0480425304554
 30
0.0
 11
103.6648335015134
 21
137.0480425304554
 31
0.0
  0
LINE
  5
151
330
14F
100
AcDbEntity
  8
1
  6
Continuous
 62
     2
100
AcDbLine
 10
89.3924562472691
 20
137.0480425304554
 30
0.0
 11
105.6648335015134
 21
137.0480425304554
 31
0.0
  0
LINE
  5
152
330
14F
100
AcDbEntity
  8
1
  6
Continuous
 62
     2
100
AcDbLine
 10
89.3924562472691
 20
89.0480425304554
 30
0.0
 11
105.6648335015134
 21
89.0480425304554
 31
0.0
  0
SOLID
  5
153
330
14F
100
AcDbEntity
  8
1
 62
     2
100
AcDbTrace
 10
103.2040497599575
 20
92.5480425304554
 30
0.0
 11
104.1256172430693
 21
92.5480425304554
 31
0.0
 12
103.6648335015134
 22
89.0480425304554
 32
0.0
 13
103.6648335015134
 23
89.0480425304554
 33
0.0
  0
SOLID
  5
154
330
14F
100
AcDbEntity
  8
1
 62
     2
100
AcDbTrace
 10
104.1256172430693
 20
133.5480425304554
 30
0.0
 11
103.2040497599575
 21
133.5480425304554
 31
0.0
 12
103.6648335015134
 22
137.0480425304554
 32
0.0
 13
103.6648335015134
 23
137.0480425304554
 33
0.0
  0
MTEXT
  5
155
330
14F
100
AcDbEntity
  8
1
 62
     7
100
AcDbMText
 10
101.6648335015134
 20
110.4152875882947
 30
0.0
 40
3.0
 41
0.0
 71
     7
 72
     1
  1
48
  7
CONVERTER_12
 11
0.0
 21
1.0
 31
0.0
 73
     1
 44
0.60024009603842
  0
ENDBLK
  5
157
330
14F
100
AcDbEntity
  8
0
100
AcDbBlockEnd
  0
BLOCK
  5
161
330
15A
100
AcDbEntity
  8
0
100
AcDbBlockBegin
  2
*D5
 70
     1
 10
0.0
 20
0.0
 30
0.0
  3
*D5
  1

  0
LINE
  5
15B
330
15A
100
AcDbEntity
  8
1
  6
Continuous
 62
     2
100
AcDbLine
 10
136.3924562472693
 20
220.0480425304554
 30
0.0
 11
172.3924562472692
 21
220.0480425304554
 31
0.0
  0
LINE
  5
15C
330
15A
100
AcDbEntity
  8
1
  6
Continuous
 62
     2
100
AcDbLine
 10
136.3924562472693
 20
202.2863136736254
 30
0.0
 11
136.3924562472693
 21
222.0480425304554
 31
0.0
  0
LINE
  5
15D
330
15A
100
AcDbEntity
  8
1
  6
Continuous
 62
     2
100
AcDbLine
 10
172.3924562472692
 20
202.2863136736254
 30
0.0
 11
172.3924562472692
 21
222.0480425304554
 31
0.0
  0
SOLID
  5
15E
330
15A
100
AcDbEntity
  8
1
 62
     2
100
AcDbTrace
 10
139.8924562472693
 20
220.5088262720113
 30
0.0
 11
139.8924562472693
 21
219.5872587888995
 31
0.0
 12
136.3924562472693
 22
220.0480425304554
 32
0.0
 13
136.3924562472693
 23
220.0480425304554
 33
0.0
  0
SOLID
  5
15F
330
15A
100
AcDbEntity
  8
1
 62
     2
100
AcDbTrace
 10
168.8924562472692
 20
219.5872587888995
 30
0.0
 11
168.8924562472692
 21
220.5088262720113
 31
0.0
 12
172.3924562472692
 22
220.0480425304554
 32
0.0
 13
172.3924562472692
 23
220.0480425304554
 33
0.0
  0
MTEXT
  5
160
330
15A
100
AcDbEntity
  8
1
 62
     7
100
AcDbMText
 10
151.7441977800195
 20
222.0480425304554
 30
0.0
 40
3.0
 41
0.0
 71
     7
 72
     1
  1
36
  7
CONVERTER_12
 11
0.9999999999970619
 21
2.424068405545306E-6
 31
0.0
 73
     1
 44
0.60024009603842
  0
ENDBLK
  5
162
330
15A
100
AcDbEntity
  8
0
100
AcDbBlockEnd
  0
BLOCK
  5
16C
330
165
100
AcDbEntity
  8
0
100
AcDbBlockBegin
  2
*D6
 70
     1
 10
0.0
 20
0.0
 30
0.0
  3
*D6
  1

  0
LINE
  5
166
330
165
100
AcDbEntity
  8
1
  6
Continuous
 62
     2
100
AcDbLine
 10
103.6648335015134
 20
189.2980425304553
 30
0.0
 11
103.6648335015134
 21
206.7980425304554
 31
0.0
  0
LINE
  5
167
330
165
100
AcDbEntity
  8
1
  6
Continuous
 62
     2
100
AcDbLine
 10
89.3924562472691
 20
206.7980425304554
 30
0.0
 11
105.6648335015134
 21
206.7980425304554
 31
0.0
  0
LINE
  5
168
330
165
100
AcDbEntity
  8
1
  6
Continuous
 62
     2
100
AcDbLine
 10
89.3924562472691
 20
189.2980425304553
 30
0.0
 11
105.6648335015134
 21
189.2980425304553
 31
0.0
  0
SOLID
  5
169
330
165
100
AcDbEntity
  8
1
 62
     2
100
AcDbTrace
 10
103.2040497599575
 20
192.7980425304553
 30
0.0
 11
104.1256172430693
 21
192.7980425304553
 31
0.0
 12
103.6648335015134
 22
189.2980425304553
 32
0.0
 13
103.6648335015134
 23
189.2980425304553
 33
0.0
  0
SOLID
  5
16A
330
165
100
AcDbEntity
  8
1
 62
     2
100
AcDbTrace
 10
104.1256172430693
 20
203.2980425304554
 30
0.0
 11
103.2040497599575
 21
203.2980425304554
 31
0.0
 12
103.6648335015134
 22
206.7980425304554
 32
0.0
 13
103.6648335015134
 23
206.7980425304554
 33
0.0
  0
MTEXT
  5
16B
330
165
100
AcDbEntity
  8
1
 62
     7
100
AcDbMText
 10
101.6648335015134
 20
195.8973763874867
 30
0.0
 40
3.0
 41
0.0
 71
     7
 72
     1
  1
18
  7
CONVERTER_12
 11
0.0
 21
1.0
 31
0.0
 73
     1
 44
0.60024009603842
  0
ENDBLK
  5
16D
330
165
100
AcDbEntity
  8
0
100
AcDbBlockEnd
  0
BLOCK
  5
177
330
170
100
AcDbEntity
  8
0
100
AcDbBlockBegin
  2
*D7
 70
     1
 10
0.0
 20
0.0
 30
0.0
  3
*D7
  1

  0
LINE
  5
171
330
170
100
AcDbEntity
  8
1
  6
Continuous
 62
     2
100
AcDbLine
 10
57.14245624726915
 20
220.0480425304554
 30
0.0
 11
85.64245624726915
 21
220.0480425304554
 31
0.0
  0
LINE
  5
172
330
170
100
AcDbEntity
  8
1
  6
Continuous
 62
     2
100
AcDbLine
 10
85.64245624726915
 20
210.0480425304554
 30
0.0
 11
85.64245624726915
 21
222.0480425304554
 31
0.0
  0
LINE
  5
173
330
170
100
AcDbEntity
  8
1
  6
Continuous
 62
     2
100
AcDbLine
 10
57.14245624726915
 20
210.0480425304554
 30
0.0
 11
57.14245624726915
 21
222.0480425304554
 31
0.0
  0
SOLID
  5
174
330
170
100
AcDbEntity
  8
1
 62
     2
100
AcDbTrace
 10
60.64245624726915
 20
220.5088262720113
 30
0.0
 11
60.64245624726915
 21
219.5872587888995
 31
0.0
 12
57.14245624726915
 22
220.0480425304554
 32
0.0
 13
57.14245624726915
 23
220.0480425304554
 33
0.0
  0
SOLID
  5
175
330
170
100
AcDbEntity
  8
1
 62
     2
100
AcDbTrace
 10
82.14245624726915
 20
219.5872587888995
 30
0.0
 11
82.14245624726915
 21
220.5088262720113
 31
0.0
 12
85.64245624726915
 22
220.0480425304554
 32
0.0
 13
85.64245624726915
 23
220.0480425304554
 33
0.0
  0
MTEXT
  5
176
330
170
100
AcDbEntity
  8
1
 62
     7
100
AcDbMText
 10
68.77780020181575
 20
222.0480425304554
 30
0.0
 40
3.0
 41
0.0
 71
     7
 72
     1
  1
29
  7
CONVERTER_12
 11
0.9999999999970619
 21
2.424068405545306E-6
 31
0.0
 73
     1
 44
0.60024009603842
  0
ENDBLK
  5
178
330
170
100
AcDbEntity
  8
0
100
AcDbBlockEnd
  0
BLOCK
  5
182
330
17B
100
AcDbEntity
  8
0
100
AcDbBlockBegin
  2
*D8
 70
     1
 10
0.0
 20
0.0
 30
0.0
  3
*D8
  1

  0
LINE
  5
17C
330
17B
100
AcDbEntity
  8
1
  6
Continuous
 62
     2
100
AcDbLine
 10
39.14245624726917
 20
174.0490044247787
 30
0.0
 11
39.14245624726917
 21
210.0480425304554
 31
0.0
  0
LINE
  5
17D
330
17B
100
AcDbEntity
  8
1
  6
Continuous
 62
     2
100
AcDbLine
 10
61.89245624726917
 20
174.0490044247787
 30
0.0
 11
37.14245624726917
 21
174.0490044247787
 31
0.0
  0
LINE
  5
17E
330
17B
100
AcDbEntity
  8
1
  6
Continuous
 62
     2
100
AcDbLine
 10
58.39245624726917
 20
210.0480425304554
 30
0.0
 11
37.14245624726917
 21
210.0480425304554
 31
0.0
  0
SOLID
  5
17F
330
17B
100
AcDbEntity
  8
1
 62
     2
100
AcDbTrace
 10
38.68167250571329
 20
177.5490044247787
 30
0.0
 11
39.60323998882506
 21
177.5490044247787
 31
0.0
 12
39.14245624726917
 22
174.0490044247787
 32
0.0
 13
39.14245624726917
 23
174.0490044247787
 33
0.0
  0
SOLID
  5
180
330
17B
100
AcDbEntity
  8
1
 62
     2
100
AcDbTrace
 10
39.60323998882506
 20
206.5480425304554
 30
0.0
 11
38.68167250571329
 21
206.5480425304554
 31
0.0
 12
39.14245624726917
 22
210.0480425304554
 32
0.0
 13
39.14245624726917
 23
210.0480425304554
 33
0.0
  0
MTEXT
  5
181
330
17B
100
AcDbEntity
  8
1
 62
     7
100
AcDbMText
 10
37.14245624726917
 20
189.5133703329967
 30
0.0
 40
3.0
 41
0.0
 71
     7
 72
     1
  1
36
  7
CONVERTER_12
 11
0.0
 21
1.0
 31
0.0
 73
     1
 44
0.60024009603842
  0
ENDBLK
  5
183
330
17B
100
AcDbEntity
  8
0
100
AcDbBlockEnd
  0
BLOCK
  5
18D
330
186
100
AcDbEntity
  8
0
100
AcDbBlockBegin
  2
*D9
 70
     1
 10
0.0
 20
0.0
 30
0.0
  3
*D9
  1

  0
LINE
  5
187
330
186
100
AcDbEntity
  8
1
  6
Continuous
 62
     2
100
AcDbLine
 10
47.14245624726917
 20
198.0480425304554
 30
0.0
 11
47.14245624726917
 21
210.0480425304554
 31
0.0
  0
LINE
  5
188
330
186
100
AcDbEntity
  8
1
  6
Continuous
 62
     2
100
AcDbLine
 10
54.14245624726917
 20
198.0480425304554
 30
0.0
 11
45.14245624726917
 21
198.0480425304554
 31
0.0
  0
LINE
  5
189
330
186
100
AcDbEntity
  8
1
  6
Continuous
 62
     2
100
AcDbLine
 10
57.14245624726917
 20
210.0480425304554
 30
0.0
 11
45.14245624726917
 21
210.0480425304554
 31
0.0
  0
SOLID
  5
18A
330
186
100
AcDbEntity
  8
1
 62
     2
100
AcDbTrace
 10
47.60323998882506
 20
206.5480425304554
 30
0.0
 11
46.68167250571329
 21
206.5480425304554
 31
0.0
 12
47.14245624726917
 22
210.0480425304554
 32
0.0
 13
47.14245624726917
 23
210.0480425304554
 33
0.0
  0
SOLID
  5
18B
330
186
100
AcDbEntity
  8
1
 62
     2
100
AcDbTrace
 10
46.68167250571329
 20
201.5480425304554
 30
0.0
 11
47.60323998882506
 21
201.5480425304554
 31
0.0
 12
47.14245624726917
 22
198.0480425304554
 32
0.0
 13
47.14245624726917
 23
198.0480425304554
 33
0.0
  0
MTEXT
  5
18C
330
186
100
AcDbEntity
  8
1
 62
     7
100
AcDbMText
 10
45.14245624726917
 20
201.8313824419777
 30
0.0
 40
3.0
 41
0.0
 71
     7
 72
     1
  1
12
  7
CONVERTER_12
 11
0.0
 21
1.0
 31
0.0
 73
     1
 44
0.60024009603842
  0
ENDBLK
  5
18E
330
186
100
AcDbEntity
  8
0
100
AcDbBlockEnd
  0
BLOCK
  5
198
330
191
100
AcDbEntity
  8
0
100
AcDbBlockBegin
  2
*D10
 70
     1
 10
0.0
 20
0.0
 30
0.0
  3
*D10
  1

  0
LINE
  5
192
330
191
100
AcDbEntity
  8
1
  6
Continuous
 62
     2
100
AcDbLine
 10
71.39245624726914
 20
156.0490044247787
 30
0.0
 11
89.39245624726914
 21
156.0490044247787
 31
0.0
  0
LINE
  5
193
330
191
100
AcDbEntity
  8
1
  6
Continuous
 62
     2
100
AcDbLine
 10
71.39245624726914
 20
171.2490044247787
 30
0.0
 11
71.39245624726914
 21
154.0490044247787
 31
0.0
  0
LINE
  5
194
330
191
100
AcDbEntity
  8
1
  6
Continuous
 62
     2
100
AcDbLine
 10
89.39245624726914
 20
189.2980425304553
 30
0.0
 11
89.39245624726914
 21
154.0490044247787
 31
0.0
  0
SOLID
  5
195
330
191
100
AcDbEntity
  8
1
 62
     2
100
AcDbTrace
 10
74.89245624726914
 20
156.5097881663346
 30
0.0
 11
74.89245624726914
 21
155.5882206832228
 31
0.0
 12
71.39245624726914
 22
156.0490044247787
 32
0.0
 13
71.39245624726914
 23
156.0490044247787
 33
0.0
  0
SOLID
  5
196
330
191
100
AcDbEntity
  8
1
 62
     2
100
AcDbTrace
 10
85.89245624726914
 20
155.5882206832228
 30
0.0
 11
85.89245624726914
 21
156.5097881663346
 31
0.0
 12
89.39245624726914
 22
156.0490044247787
 32
0.0
 13
89.39245624726914
 23
156.0490044247787
 33
0.0
  0
MTEXT
  5
197
330
191
100
AcDbEntity
  8
1
 62
     7
100
AcDbMText
 10
78.62979667664804
 20
158.0490044247787
 30
0.0
 40
3.0
 41
0.0
 71
     7
 72
     1
  1
18
  7
CONVERTER_12
 11
0.9999999999970619
 21
2.424068405545306E-6
 31
0.0
 73
     1
 44
0.60024009603842
  0
ENDBLK
  5
199
330
191
100
AcDbEntity
  8
0
100
AcDbBlockEnd
  0
BLOCK
  5
1A3
330
19C
100
AcDbEntity
  8
0
100
AcDbBlockBegin
  2
*D11
 70
     1
 10
0.0
 20
0.0
 30
0.0
  3
*D11
  1

  0
LINE
  5
19D
330
19C
100
AcDbEntity
  8
1
  6
Continuous
 62
     2
100
AcDbLine
 10
61.39245624726915
 20
164.0490044247787
 30
0.0
 11
81.39245624726915
 21
164.0490044247787
 31
0.0
  0
LINE
  5
19E
330
19C
100
AcDbEntity
  8
1
  6
Continuous
 62
     2
100
AcDbLine
 10
61.39245624726915
 20
174.5490044247787
 30
0.0
 11
61.39245624726915
 21
162.0490044247787
 31
0.0
  0
LINE
  5
19F
330
19C
100
AcDbEntity
  8
1
  6
Continuous
 62
     2
100
AcDbLine
 10
81.39245624726915
 20
174.5490044247787
 30
0.0
 11
81.39245624726915
 21
162.0490044247787
 31
0.0
  0
SOLID
  5
1A0
330
19C
100
AcDbEntity
  8
1
 62
     2
100
AcDbTrace
 10
64.89245624726915
 20
164.5097881663346
 30
0.0
 11
64.89245624726915
 21
163.5882206832228
 31
0.0
 12
61.39245624726915
 22
164.0490044247787
 32
0.0
 13
61.39245624726915
 23
164.0490044247787
 33
0.0
  0
SOLID
  5
1A1
330
19C
100
AcDbEntity
  8
1
 62
     2
100
AcDbTrace
 10
77.89245624726915
 20
163.5882206832228
 30
0.0
 11
77.89245624726915
 21
164.5097881663346
 31
0.0
 12
81.39245624726915
 22
164.0490044247787
 32
0.0
 13
81.39245624726915
 23
164.0490044247787
 33
0.0
  0
MTEXT
  5
1A2
330
19C
100
AcDbEntity
  8
1
 62
     7
100
AcDbMText
 10
69.19462437415976
 20
166.0490044247787
 30
0.0
 40
3.0
 41
0.0
 71
     7
 72
     1
  1
20
  7
CONVERTER_12
 11
0.9999999999970619
 21
2.424068405545306E-6
 31
0.0
 73
     1
 44
0.60024009603842
  0
ENDBLK
  5
1A4
330
19C
100
AcDbEntity
  8
0
100
AcDbBlockEnd
  0
ENDSEC
  0
SECTION
  2
ENTITIES
  0
INSERT
  5
52
330
1F
100
AcDbEntity
  8
0
100
AcDbBlockReference
  2
開示A4枠
 10
0.0
 20
0.00000000000001
 30
0.0
  0
INSERT
  5
53
330
1F
100
AcDbEntity
  8
0
100
AcDbBlockReference
  2
T521-0
 10
45.39245624726917
 20
230.0480425304554
 30
0.0
  0
LINE
  5
129
330
1F
100
AcDbEntity
  8
1
  6
DASH_CENTER
 62
     2
100
AcDbLine
 10
136.3924562472693
 20
193.7863136736254
 30
0.0
 11
136.3924562472693
 21
202.2863136736254
 31
0.0
  0
LINE
  5
12A
330
1F
100
AcDbEntity
  8
1
  6
DASH_CENTER
 62
     2
100
AcDbLine
 10
172.3924562472691
 20
202.2863136736254
 30
0.0
 11
172.3924562472691
 21
193.7863136736254
 31
0.0
  0
LINE
  5
12B
330
1F
100
AcDbEntity
  8
1
  6
DASH_CENTER
 62
     2
100
AcDbLine
 10
129.0586244648192
 20
198.0480425304554
 30
0.0
 11
180.0586244648192
 21
198.0480425304554
 31
0.0
  0
LINE
  5
12C
330
1F
100
AcDbEntity
  8
1
  6
DASH_CENTER
 62
     2
100
AcDbLine
 10
154.3924562472691
 20
211.2203255271571
 30
0.0
 11
154.3924562472691
 21
171.7203255271571
 31
0.0
  0
LINE
  5
12D
330
1F
100
AcDbEntity
  8
1
  6
DASH_CENTER
 62
     2
100
AcDbLine
 10
71.39245624726915
 20
213.0480425304554
 30
0.0
 11
71.39245624726915
 21
171.2490044247787
 31
0.0
  0
LINE
  5
12E
330
1F
100
AcDbEntity
  8
1
  6
DASH_CENTER
 62
     2
100
AcDbLine
 10
54.14245624726915
 20
198.0480425304554
 30
0.0
 11
92.39245624726914
 21
198.0480425304554
 31
0.0
  0
LINE
  5
12F
330
1F
100
AcDbEntity
  8
1
  6
DASH_CENTER
 62
     2
100
AcDbLine
 10
92.39245624726914
 20
113.0480425304554
 30
0.0
 11
54.14245624726915
 21
113.0480425304554
 31
0.0
  0
LINE
  5
130
330
1F
100
AcDbEntity
  8
1
  6
DASH_CENTER
 62
     2
100
AcDbLine
 10
82.38985320990315
 20
95.0480425304554
 30
0.0
 11
92.39245624726914
 21
95.0480425304554
 31
0.0
  0
LINE
  5
131
330
1F
100
AcDbEntity
  8
0
  6
DASH_CENTER
 62
     2
100
AcDbLine
 10
58.89245624726915
 20
207.3546498057143
 30
0.0
 11
58.89245624726915
 21
212.1256366385216
 31
0.0
  0
LINE
  5
132
330
1F
100
AcDbEntity
  8
0
  6
DASH_CENTER
 62
     2
100
AcDbLine
 10
83.89245624726914
 20
212.1256366385216
 30
0.0
 11
83.89245624726914
 21
207.3546498057143
 31
0.0
  0
LINE
  5
133
330
1F
100
AcDbEntity
  8
1
  6
DASH_CENTER
 62
     2
100
AcDbLine
 10
92.39245624726914
 20
131.0480425304554
 30
0.0
 11
82.38985320990315
 21
131.0480425304554
 31
0.0
  0
LINE
  5
134
330
1F
100
AcDbEntity
  8
1
  6
DASH_CENTER
 62
     2
100
AcDbLine
 10
71.39245624726915
 20
130.2980425304554
 30
0.0
 11
71.39245624726915
 21
95.7980425304554
 31
0.0
  0
SOLID
  5
135
330
1F
100
AcDbEntity
  8
1
 62
     2
100
AcDbTrace
 10
58.63590582143114
 20
212.848739572923
 30
0.0
 11
59.43400667310762
 21
213.3095233144789
 31
0.0
 12
60.78495624726935
 22
210.0480425304554
 32
0.0
 13
60.78495624726935
 23
210.0480425304554
 33
0.0
  0
LEADER
  5
136
330
1F
100
AcDbEntity
  8
1
  6
Continuous
 62
     2
100
AcDbLeader
  3
Standard
 71
     0
 76
     3
 10
60.78495624726935
 20
210.0480425304554
 30
0.0
 10
55.01145355537315
 20
220.0480425304554
 30
0.0
 10
43.03996349270292
 20
220.0480425304554
 30
0.0
  0
SOLID
  5
137
330
1F
100
AcDbEntity
  8
1
 62
     2
100
AcDbTrace
 10
82.99340582143091
 20
133.848739572923
 30
0.0
 11
83.79150667310739
 21
134.3095233144789
 31
0.0
 12
85.14245624726914
 22
131.0480425304554
 32
0.0
 13
85.14245624726914
 23
131.0480425304554
 33
0.0
  0
LEADER
  5
138
330
1F
100
AcDbEntity
  8
1
  6
Continuous
 62
     2
100
AcDbLeader
  3
Standard
 71
     0
 76
     3
 10
85.14245624726914
 20
131.0480425304554
 30
0.0
 10
76.91521491131707
 20
145.2980425304554
 30
0.0
 10
44.88502247642207
 20
145.2980425304554
 30
0.0
  0
SOLID
  5
139
330
1F
100
AcDbEntity
  8
1
 62
     2
100
AcDbTrace
 10
69.24340582143093
 20
130.098739572923
 30
0.0
 11
70.0415066731074
 21
130.5595233144789
 31
0.0
 12
71.39245624726915
 22
127.2980425304554
 32
0.0
 13
71.39245624726915
 23
127.2980425304554
 33
0.0
  0
LEADER
  5
13A
330
1F
100
AcDbEntity
  8
1
  6
Continuous
 62
     2
100
AcDbLeader
  3
Standard
 71
     0
 76
     3
 10
71.39245624726915
 20
127.2980425304554
 30
0.0
 10
65.61895355537295
 20
137.2980425304554
 30
0.0
 10
57.23469610595726
 20
137.2980425304554
 30
0.0
  0
MTEXT
  5
13C
330
1F
100
AcDbEntity
  8
1
 62
     7
100
AcDbMText
 10
100.7500000000001
 20
12.50000000000001
 30
0.0
 40
2.5
 41
0.0
 71
     5
 72
     1
  1
22
  7
CONVERTER_12
 73
     1
 44
0.7202881152461
  0
MTEXT
  5
13D
330
1F
100
AcDbEntity
  8
1
 62
     7
100
AcDbMText
 10
112.2500000000001
 20
12.50000000000001
 30
0.0
 40
2.5
 41
0.0
 71
     5
 72
     1
  1
 1
  7
CONVERTER_12
 73
     1
 44
0.7202881152461
  0
MTEXT
  5
13E
330
1F
100
AcDbEntity
  8
1
 62
     7
100
AcDbMText
 10
106.5000000000001
 20
12.50000000000001
 30
0.0
 40
2.5
 41
0.0
 71
     5
 72
     1
  1
6
  7
CONVERTER_12
 73
     1
 44
0.7202881152461
  0
MTEXT
  5
13F
330
1F
100
AcDbEntity
  8
1
 62
     7
100
AcDbMText
 10
117.7500000000001
 20
12.50000000000001
 30
0.0
 40
2.5
 41
0.0
 71
     5
 72
     1
  1
22
  7
CONVERTER_12
 73
     1
 44
0.7202881152461
  0
MTEXT
  5
140
330
1F
100
AcDbEntity
  8
1
 62
     7
100
AcDbMText
 10
129.2500000000001
 20
12.50000000000001
 30
0.0
 40
2.5
 41
0.0
 71
     5
 72
     1
  1
 1
  7
CONVERTER_12
 73
     1
 44
0.7202881152461
  0
MTEXT
  5
141
330
1F
100
AcDbEntity
  8
1
 62
     7
100
AcDbMText
 10
123.5000000000001
 20
12.50000000000001
 30
0.0
 40
2.5
 41
0.0
 71
     5
 72
     1
  1
6
  7
CONVERTER_12
 73
     1
 44
0.7202881152461
  0
MTEXT
  5
142
330
1F
100
AcDbEntity
  8
1
 62
     7
100
AcDbMText
 10
93.75000000000006
 20
17.00000000000001
 30
0.0
 40
3.5
 41
0.0
 71
     5
 72
     1
  1
1
  7
CONVERTER_12
 73
     1
 44
0.7202881152461
  0
MTEXT
  5
143
330
1F
100
AcDbEntity
  8
1
 62
     7
100
AcDbMText
 10
57.00000000000006
 20
14.25000000000001
 30
0.0
 40
3.5
 41
0.0
 71
     5
 72
     1
  1
T520-13X15,88
  7
CONVERTER_12
 73
     1
 44
0.7202881152461
  0
MTEXT
  5
144
330
1F
100
AcDbEntity
  8
1
 62
     7
100
AcDbMText
 10
57.00000000000006
 20
22.75000000000001
 30
0.0
 40
3.5
 41
0.0
 71
     5
 72
     1
  1
銅管座付水栓ソケット
  7
CONVERTER_11
 73
     1
 44
0.54545454545455
  0
MTEXT
  5
145
330
1F
100
AcDbEntity
  8
1
 62
     7
100
AcDbMText
 10
85.25000000000006
 20
17.00000000000001
 30
0.0
 40
3.5
 41
0.0
 71
     5
 72
     1
  1
1
  7
CONVERTER_12
 73
     1
 44
0.7202881152461
  0
MTEXT
  5
147
330
1F
100
AcDbEntity
  8
0
 62
     7
100
AcDbMText
 10
61.49982823736904
 20
139.7990044247789
 30
0.0
 40
3.0
 41
0.0
 71
     5
 72
     1
  1
1/2
  7
CONVERTER_13
 73
     1
 44
1.32052821128451
  0
MTEXT
  5
148
330
1F
100
AcDbEntity
  8
1
 62
     7
100
AcDbMText
 10
49.17488160941245
 20
222.5480425304553
 30
0.0
 40
3.0
 41
0.0
 71
     5
 72
     1
  1
G1/2
  7
CONVERTER_12
 73
     1
 44
0.7202881152461
  0
MTEXT
  5
149
330
1F
100
AcDbEntity
  8
1
 62
     7
100
AcDbMText
 10
59.19534844653855
 20
147.7258533886717
 30
0.0
 40
3.0
 41
0.0
 71
     5
 72
     1
  1
2-4キリ サラモミ
  7
CONVERTER_11
 73
     1
 44
0.54545454545455
  0
MTEXT
  5
14A
330
1F
100
AcDbEntity
  8
1
 62
     7
100
AcDbMText
 10
140.5000000000001
 20
12.50000000000001
 30
0.0
 40
2.5
 41
0.0
 71
     5
 72
     1
  1
5
  7
CONVERTER_12
 73
     1
 44
0.7202881152461
  0
MTEXT
  5
14B
330
1F
100
AcDbEntity
  8
1
 62
     7
100
AcDbMText
 10
146.2500000000001
 20
12.50000000000001
 30
0.0
 40
2.5
 41
0.0
 71
     5
 72
     1
  1
17
  7
CONVERTER_12
 73
     1
 44
0.7202881152461
  0
MTEXT
  5
14C
330
1F
100
AcDbEntity
  8
1
 62
     7
100
AcDbMText
 10
134.7500000000001
 20
12.50000000000001
 30
0.0
 40
2.5
 41
0.0
 71
     5
 72
     1
  1
22
  7
CONVERTER_12
 73
     1
 44
0.7202881152461
  0
MTEXT
  5
14D
330
1F
100
AcDbEntity
  8
1
 62
     7
100
AcDbMText
 10
157.5000000000001
 20
12.50000000000001
 30
0.0
 40
2.5
 41
0.0
 71
     5
 72
     1
  1
10
  7
CONVERTER_12
 73
     1
 44
0.7202881152461
  0
MTEXT
  5
14E
330
1F
100
AcDbEntity
  8
1
 62
     7
100
AcDbMText
 10
151.7500000000001
 20
12.50000000000001
 30
0.0
 40
2.5
 41
0.0
 71
     5
 72
     1
  1
03
  7
CONVERTER_12
 73
     1
 44
0.7202881152461
  0
DIMENSION
  5
159
330
1F
100
AcDbEntity
  8
1
100
AcDbDimension
  2
*D4
 10
103.6648335015134
 20
89.0480425304554
 30
0.0
 11
100.1648335015134
 21
112.6652875882947
 31
0.0
 70
    32
  1
<>
 71
     5
 42
-1.0
 53
90.0
  3
ME10_DIM_10
100
AcDbAlignedDimension
 13
89.39245624726914
 23
137.0480425304554
 33
0.0
 14
89.39245624726914
 24
89.0480425304554
 34
0.0
 50
90.0
100
AcDbRotatedDimension
  0
DIMENSION
  5
164
330
1F
100
AcDbEntity
  8
1
100
AcDbDimension
  2
*D5
 10
136.3924562472693
 20
220.0480425304554
 30
0.0
 11
153.9941977800195
 21
223.5480425304554
 31
0.0
 70
    32
  1
<>
 71
     5
 42
-1.0
 53
0.00013888888889
  3
ME10_DIM_11
100
AcDbAlignedDimension
 13
172.3924562472691
 23
202.2863136736254
 33
0.0
 14
136.3924562472693
 24
202.2863136736254
 34
0.0
100
AcDbRotatedDimension
  0
DIMENSION
  5
16F
330
1F
100
AcDbEntity
  8
1
100
AcDbDimension
  2
*D6
 10
103.6648335015134
 20
189.2980425304553
 30
0.0
 11
100.1648335015134
 21
197.6973763874867
 31
0.0
 70
    32
  1
18
 71
     5
 42
-1.0
 53
90.0
  3
ME10_DIM_12
100
AcDbAlignedDimension
 13
89.39245624726914
 23
206.7980425304554
 33
0.0
 14
89.39245624726914
 24
189.2980425304553
 34
0.0
 50
90.0
100
AcDbRotatedDimension
  0
DIMENSION
  5
17A
330
1F
100
AcDbEntity
  8
1
100
AcDbDimension
  2
*D7
 10
57.14245624726915
 20
220.0480425304554
 30
0.0
 11
71.02780020181575
 21
223.5480425304554
 31
0.0
 70
    32
  1
29
 71
     5
 42
-1.0
 53
0.00013888888889
  3
ME10_DIM_13
100
AcDbAlignedDimension
 13
85.64245624726914
 23
210.0480425304554
 33
0.0
 14
57.14245624726915
 24
210.0480425304554
 34
0.0
100
AcDbRotatedDimension
  0
DIMENSION
  5
185
330
1F
100
AcDbEntity
  8
1
100
AcDbDimension
  2
*D8
 10
39.14245624726917
 20
174.0490044247787
 30
0.0
 11
35.64245624726917
 21
191.7633703329967
 31
0.0
 70
    32
  1
<>
 71
     5
 42
-1.0
 53
90.0
  3
ME10_DIM_14
100
AcDbAlignedDimension
 13
58.39245624726915
 23
210.0480425304554
 33
0.0
 14
61.89245624726915
 24
174.0490044247787
 34
0.0
 50
90.0
100
AcDbRotatedDimension
  0
DIMENSION
  5
190
330
1F
100
AcDbEntity
  8
1
100
AcDbDimension
  2
*D9
 10
47.14245624726917
 20
210.0480425304554
 30
0.0
 11
43.64245624726917
 21
203.6313824419777
 31
0.0
 70
    32
  1
<>
 71
     5
 42
-1.0
 53
90.0
  3
ME10_DIM_15
100
AcDbAlignedDimension
 13
54.14245624726915
 23
198.0480425304554
 33
0.0
 14
57.14245624726915
 24
210.0480425304554
 34
0.0
 50
90.0
100
AcDbRotatedDimension
  0
DIMENSION
  5
19B
330
1F
100
AcDbEntity
  8
1
100
AcDbDimension
  2
*D10
 10
71.39245624726914
 20
156.0490044247787
 30
0.0
 11
80.42979667664804
 21
159.5490044247787
 31
0.0
 70
    32
  1
<>
 71
     5
 42
-1.0
 53
0.00013888888889
  3
ME10_DIM_16
100
AcDbAlignedDimension
 13
89.39245624726914
 23
189.2980425304553
 33
0.0
 14
71.39245624726915
 24
171.2490044247787
 34
0.0
100
AcDbRotatedDimension
  0
DIMENSION
  5
1A6
330
1F
100
AcDbEntity
  8
1
100
AcDbDimension
  2
*D11
 10
61.39245624726915
 20
164.0490044247787
 30
0.0
 11
71.44462437415976
 21
167.5490044247787
 31
0.0
 70
    33
  1
<>
 71
     5
 42
-1.0
 53
0.00013888888889
  3
ME10_DIM_17
100
AcDbAlignedDimension
 13
81.39245624726914
 23
174.5490044247787
 33
0.0
 14
61.39245624726915
 24
174.5490044247787
 34
0.0
  0
ENDSEC
  0
SECTION
  2
OBJECTS
  0
DICTIONARY
  5
C
330
0
100
AcDbDictionary
281
     1
  3
ACAD_GROUP
350
D
  3
ACAD_LAYOUT
350
1A
  3
ACAD_MATERIAL
350
3B
  3
ACAD_MLEADERSTYLE
350
1A9
  3
ACAD_MLINESTYLE
350
17
  3
ACAD_PLOTSETTINGS
350
19
  3
ACAD_PLOTSTYLENAME
350
E
  3
ACAD_VISUALSTYLE
350
2A
  3
AcDbVariableDictionary
350
1A7
  0
DICTIONARY
  5
D
102
{ACAD_REACTORS
330
C
102
}
330
C
100
AcDbDictionary
281
     1
  0
DICTIONARY
  5
1A
102
{ACAD_REACTORS
330
C
102
}
330
C
100
AcDbDictionary
281
     1
  3
Layout1
350
1E
  3
Layout2
350
26
  3
Model
350
22
  0
DICTIONARY
  5
3B
102
{ACAD_REACTORS
330
C
102
}
330
C
100
AcDbDictionary
281
     1
  3
ByBlock
350
3D
  3
ByLayer
350
3C
  3
Global
350
3E
  0
DICTIONARY
  5
1A9
102
{ACAD_REACTORS
330
C
102
}
330
C
100
AcDbDictionary
281
     1
  0
DICTIONARY
  5
17
102
{ACAD_REACTORS
330
C
102
}
330
C
100
AcDbDictionary
281
     1
  3
Standard
350
18
  0
DICTIONARY
  5
19
102
{ACAD_REACTORS
330
C
102
}
330
C
100
AcDbDictionary
281
     1
  0
ACDBDICTIONARYWDFLT
  5
E
102
{ACAD_REACTORS
330
C
102
}
330
C
100
AcDbDictionary
281
     1
  3
Normal
350
F
100
AcDbDictionaryWithDefault
340
F
  0
DICTIONARY
  5
2A
102
{ACAD_REACTORS
330
C
102
}
330
C
100
AcDbDictionary
281
     1
  3
2dWireframe
350
2F
  3
3D Hidden
350
31
  3
3dWireframe
350
30
  3
Basic
350
32
  3
Brighten
350
36
  3
ColorChange
350
3A
  3
Conceptual
350
34
  3
Dim
350
35
  3
Facepattern
350
39
  3
Flat
350
2B
  3
FlatWithEdges
350
2C
  3
Gouraud
350
2D
  3
GouraudWithEdges
350
2E
  3
Linepattern
350
38
  3
Realistic
350
33
  3
Thicken
350
37
  0
DICTIONARY
  5
1A7
102
{ACAD_REACTORS
330
C
102
}
330
C
100
AcDbDictionary
281
     1
  3
DIMASSOC
350
1AA
  3
HIDETEXT
350
1AB
  0
LAYOUT
  5
1E
102
{ACAD_REACTORS
330
1A
102
}
330
1A
100
AcDbPlotSettings
  1

  2
none_device
  4

  6

 40
0.0
 41
0.0
 42
0.0
 43
0.0
 44
0.0
 45
0.0
 46
0.0
 47
0.0
 48
0.0
 49
0.0
140
0.0
141
0.0
142
1.0
143
1.0
 70
   688
 72
     0
 73
     0
 74
     5
  7

 75
    16
147
1.0
148
0.0
149
0.0
100
AcDbLayout
  1
Layout1
 70
     1
 71
     1
 10
0.0
 20
0.0
 11
12.0
 21
9.0
 12
0.0
 22
0.0
 32
0.0
 14
1.00000000000000E+20
 24
1.00000000000000E+20
 34
1.00000000000000E+20
 15
-1.00000000000000E+20
 25
-1.00000000000000E+20
 35
-1.00000000000000E+20
146
0.0
 13
0.0
 23
0.0
 33
0.0
 16
1.0
 26
0.0
 36
0.0
 17
0.0
 27
1.0
 37
0.0
 76
     0
330
1B
  0
LAYOUT
  5
26
102
{ACAD_REACTORS
330
1A
102
}
330
1A
100
AcDbPlotSettings
  1

  2
none_device
  4

  6

 40
0.0
 41
0.0
 42
0.0
 43
0.0
 44
0.0
 45
0.0
 46
0.0
 47
0.0
 48
0.0
 49
0.0
140
0.0
141
0.0
142
1.0
143
1.0
 70
   688
 72
     0
 73
     0
 74
     5
  7

 75
    16
147
1.0
148
0.0
149
0.0
100
AcDbLayout
  1
Layout2
 70
     1
 71
     2
 10
0.0
 20
0.0
 11
0.0
 21
0.0
 12
0.0
 22
0.0
 32
0.0
 14
0.0
 24
0.0
 34
0.0
 15
0.0
 25
0.0
 35
0.0
146
0.0
 13
0.0
 23
0.0
 33
0.0
 16
1.0
 26
0.0
 36
0.0
 17
0.0
 27
1.0
 37
0.0
 76
     0
330
23
  0
LAYOUT
  5
22
102
{ACAD_REACTORS
330
1A
102
}
330
1A
100
AcDbPlotSettings
  1

  2
none_device
  4

  6

 40
0.0
 41
0.0
 42
0.0
 43
0.0
 44
0.0
 45
0.0
 46
0.0
 47
0.0
 48
0.0
 49
0.0
140
0.0
141
0.0
142
1.0
143
1.0
 70
  1712
 72
     0
 73
     0
 74
     0
  7

 75
     0
147
1.0
148
0.0
149
0.0
100
AcDbLayout
  1
Model
 70
     1
 71
     0
 10
0.0
 20
0.0
 11
12.0
 21
9.0
 12
0.0
 22
0.0
 32
0.0
 14
0.0
 24
0.00000000000001
 34
0.0
 15
210.0000000000001
 25
297.0
 35
0.0
146
0.0
 13
0.0
 23
0.0
 33
0.0
 16
1.0
 26
0.0
 36
0.0
 17
0.0
 27
1.0
 37
0.0
 76
     0
330
1F
331
29
  0
MATERIAL
  5
3D
102
{ACAD_REACTORS
330
3B
102
}
102
{ACAD_XDICTIONARY
360
1CE
102
}
330
3B
100
AcDbMaterial
  1
ByBlock
  0
MATERIAL
  5
3C
102
{ACAD_REACTORS
330
3B
102
}
102
{ACAD_XDICTIONARY
360
1CC
102
}
330
3B
100
AcDbMaterial
  1
ByLayer
  0
MATERIAL
  5
3E
102
{ACAD_REACTORS
330
3B
102
}
102
{ACAD_XDICTIONARY
360
1D0
102
}
330
3B
100
AcDbMaterial
  1
Global
  0
MLINESTYLE
  5
18
102
{ACAD_REACTORS
330
17
102
}
330
17
100
AcDbMlineStyle
  2
Standard
 70
     0
  3

 62
   256
 51
90.0
 52
90.0
 71
     2
 49
0.5
 62
   256
  6
BYLAYER
 49
-0.5
 62
   256
  6
BYLAYER
  0
ACDBPLACEHOLDER
  5
F
102
{ACAD_REACTORS
330
E
102
}
330
E
  0
VISUALSTYLE
  5
2F
102
{ACAD_REACTORS
330
2A
102
}
102
{ACAD_XDICTIONARY
360
1B4
102
}
330
2A
100
AcDbVisualStyle
  2
2dWireframe
 70
     4
 71
     0
 72
     2
 73
     0
 90
        0
 40
-0.6
 41
-30.0
 62
     5
 63
     7
 74
     1
 91
        4
 64
     7
 65
   257
 75
     1
175
     1
 42
1.0
 92
        0
 66
   257
 43
1.0
 76
     1
 77
     6
 78
     2
 67
     7
 79
     5
170
     0
171
     0
290
     0
174
     0
 93
        1
 44
0.0
173
     0
291
     0
 45
0.0
1001
ACAD
1000
AcDbSavedByObjectVersion
1070
     0
  0
VISUALSTYLE
  5
31
102
{ACAD_REACTORS
330
2A
102
}
102
{ACAD_XDICTIONARY
360
1B8
102
}
330
2A
100
AcDbVisualStyle
  2
3D Hidden
 70
     6
 71
     1
 72
     2
 73
     2
 90
        0
 40
-0.6
 41
-30.0
 62
     5
 63
     7
 74
     2
 91
        2
 64
     7
 65
   257
 75
     2
175
     1
 42
40.0
 92
        0
 66
   257
 43
1.0
 76
     1
 77
     6
 78
     2
 67
     7
 79
     3
170
     0
171
     0
290
     0
174
     0
 93
        1
 44
0.0
173
     0
291
     0
 45
0.0
1001
ACAD
1000
AcDbSavedByObjectVersion
1070
     0
  0
VISUALSTYLE
  5
30
102
{ACAD_REACTORS
330
2A
102
}
102
{ACAD_XDICTIONARY
360
1B6
102
}
330
2A
100
AcDbVisualStyle
  2
3dWireframe
 70
     5
 71
     0
 72
     2
 73
     0
 90
        0
 40
-0.6
 41
-30.0
 62
     5
 63
     7
 74
     1
 91
        4
 64
     7
 65
   257
 75
     1
175
     1
 42
1.0
 92
        0
 66
   257
 43
1.0
 76
     1
 77
     6
 78
     2
 67
     7
 79
     5
170
     0
171
     0
290
     0
174
     0
 93
        1
 44
0.0
173
     0
291
     0
 45
0.0
1001
ACAD
1000
AcDbSavedByObjectVersion
1070
     0
  0
VISUALSTYLE
  5
32
102
{ACAD_REACTORS
330
2A
102
}
102
{ACAD_XDICTIONARY
360
1BA
102
}
330
2A
100
AcDbVisualStyle
  2
Basic
 70
     7
 71
     1
 72
     0
 73
     1
 90
        0
 40
-0.6
 41
-30.0
 62
     5
 63
     7
 74
     0
 91
        4
 64
     7
 65
   257
 75
     1
175
     1
 42
1.0
 92
        8
 66
     7
 43
1.0
 76
     1
 77
     6
 78
     2
 67
     7
 79
     5
170
     0
171
     0
290
     0
174
     0
 93
        1
 44
0.0
173
     0
291
     1
 45
0.0
1001
ACAD
1000
AcDbSavedByObjectVersion
1070
     0
  0
VISUALSTYLE
  5
36
102
{ACAD_REACTORS
330
2A
102
}
102
{ACAD_XDICTIONARY
360
1C2
102
}
330
2A
100
AcDbVisualStyle
  2
Brighten
 70
    12
 71
     2
 72
     2
 73
     0
 90
        0
 40
-0.6
 41
-30.0
 62
     5
 63
     7
 74
     1
 91
        4
 64
     7
 65
   257
 75
     1
175
     1
 42
1.0
 92
        8
 66
     7
 43
1.0
 76
     1
 77
     6
 78
     2
 67
     7
 79
     5
170
     0
171
     0
290
     0
174
     0
 93
        1
 44
50.0
173
     0
291
     1
 45
0.0
1001
ACAD
1000
AcDbSavedByObjectVersion
1070
     0
  0
VISUALSTYLE
  5
3A
102
{ACAD_REACTORS
330
2A
102
}
102
{ACAD_XDICTIONARY
360
1CA
102
}
330
2A
100
AcDbVisualStyle
  2
ColorChange
 70
    16
 71
     2
 72
     2
 73
     3
 90
        0
 40
-0.6
 41
-30.0
 62
     5
 63
     8
 74
     1
 91
        4
 64
     7
 65
   257
 75
     1
175
     1
 42
1.0
 92
        8
 66
     8
 43
1.0
 76
     1
 77
     6
 78
     2
 67
     7
 79
     5
170
     0
171
     0
290
     0
174
     0
 93
        1
 44
0.0
173
     0
291
     1
 45
0.0
1001
ACAD
1000
AcDbSavedByObjectVersion
1070
     0
  0
VISUALSTYLE
  5
34
102
{ACAD_REACTORS
330
2A
102
}
102
{ACAD_XDICTIONARY
360
1BE
102
}
330
2A
100
AcDbVisualStyle
  2
Conceptual
 70
     9
 71
     3
 72
     2
 73
     0
 90
        0
 40
-0.6
 41
-30.0
 62
     5
 63
     7
 74
     2
 91
        2
 64
     7
 65
   257
 75
     1
175
     1
 42
40.0
 92
        8
 66
     7
 43
1.0
 76
     1
 77
     6
 78
     2
 67
     7
 79
     3
170
     0
171
     0
290
     0
174
     0
 93
        1
 44
0.0
173
     0
291
     0
 45
0.0
1001
ACAD
1000
AcDbSavedByObjectVersion
1070
     0
  0
VISUALSTYLE
  5
35
102
{ACAD_REACTORS
330
2A
102
}
102
{ACAD_XDICTIONARY
360
1C0
102
}
330
2A
100
AcDbVisualStyle
  2
Dim
 70
    11
 71
     2
 72
     2
 73
     0
 90
        0
 40
-0.6
 41
-30.0
 62
     5
 63
     7
 74
     1
 91
        4
 64
     7
 65
   257
 75
     1
175
     1
 42
1.0
 92
        8
 66
     7
 43
1.0
 76
     1
 77
     6
 78
     2
 67
     7
 79
     5
170
     0
171
     0
290
     0
174
     0
 93
        1
 44
-50.0
173
     0
291
     1
 45
0.0
1001
ACAD
1000
AcDbSavedByObjectVersion
1070
     0
  0
VISUALSTYLE
  5
39
102
{ACAD_REACTORS
330
2A
102
}
102
{ACAD_XDICTIONARY
360
1C8
102
}
330
2A
100
AcDbVisualStyle
  2
Facepattern
 70
    15
 71
     2
 72
     2
 73
     0
 90
        0
 40
-0.6
 41
-30.0
 62
     5
 63
     7
 74
     1
 91
        4
 64
     7
 65
   257
 75
     1
175
     1
 42
1.0
 92
        8
 66
     7
 43
1.0
 76
     1
 77
     6
 78
     2
 67
     7
 79
     5
170
     0
171
     0
290
     0
174
     0
 93
        1
 44
0.0
173
     0
291
     1
 45
0.0
1001
ACAD
1000
AcDbSavedByObjectVersion
1070
     0
  0
VISUALSTYLE
  5
2B
102
{ACAD_REACTORS
330
2A
102
}
102
{ACAD_XDICTIONARY
360
1AC
102
}
330
2A
100
AcDbVisualStyle
  2
Flat
 70
     0
 71
     2
 72
     1
 73
     1
 90
        2
 40
-0.6
 41
30.0
 62
     5
 63
     7
 74
     0
 91
        4
 64
     7
 65
   257
 75
     1
175
     1
 42
1.0
 92
        8
 66
     7
 43
1.0
 76
     1
 77
     6
 78
     2
 67
     7
 79
     5
170
     0
171
     0
290
     0
174
     0
 93
       13
 44
0.0
173
     0
291
     1
 45
0.0
1001
ACAD
1000
AcDbSavedByObjectVersion
1070
     0
  0
VISUALSTYLE
  5
2C
102
{ACAD_REACTORS
330
2A
102
}
102
{ACAD_XDICTIONARY
360
1AE
102
}
330
2A
100
AcDbVisualStyle
  2
FlatWithEdges
 70
     1
 71
     2
 72
     1
 73
     1
 90
        2
 40
-0.6
 41
30.0
 62
     5
 63
     7
 74
     1
 91
        4
 64
     7
 65
   257
 75
     1
175
     1
 42
1.0
 92
        0
 66
   257
 43
1.0
 76
     1
 77
     6
 78
     2
 67
     7
 79
     5
170
     0
171
     0
290
     0
174
     0
 93
       13
 44
0.0
173
     0
291
     1
 45
0.0
1001
ACAD
1000
AcDbSavedByObjectVersion
1070
     0
  0
VISUALSTYLE
  5
2D
102
{ACAD_REACTORS
330
2A
102
}
102
{ACAD_XDICTIONARY
360
1B0
102
}
330
2A
100
AcDbVisualStyle
  2
Gouraud
 70
     2
 71
     2
 72
     2
 73
     1
 90
        2
 40
-0.6
 41
30.0
 62
     5
 63
     7
 74
     0
 91
        4
 64
     7
 65
   257
 75
     1
175
     1
 42
1.0
 92
        0
 66
     7
 43
1.0
 76
     1
 77
     6
 78
     2
 67
     7
 79
     5
170
     0
171
     0
290
     0
174
     0
 93
       13
 44
0.0
173
     0
291
     1
 45
0.0
1001
ACAD
1000
AcDbSavedByObjectVersion
1070
     0
  0
VISUALSTYLE
  5
2E
102
{ACAD_REACTORS
330
2A
102
}
102
{ACAD_XDICTIONARY
360
1B2
102
}
330
2A
100
AcDbVisualStyle
  2
GouraudWithEdges
 70
     3
 71
     2
 72
     2
 73
     1
 90
        2
 40
-0.6
 41
30.0
 62
     5
 63
     7
 74
     1
 91
        4
 64
     7
 65
   257
 75
     1
175
     1
 42
1.0
 92
        0
 66
   257
 43
1.0
 76
     1
 77
     6
 78
     2
 67
     7
 79
     5
170
     0
171
     0
290
     0
174
     0
 93
       13
 44
0.0
173
     0
291
     1
 45
0.0
1001
ACAD
1000
AcDbSavedByObjectVersion
1070
     0
  0
VISUALSTYLE
  5
38
102
{ACAD_REACTORS
330
2A
102
}
102
{ACAD_XDICTIONARY
360
1C6
102
}
330
2A
100
AcDbVisualStyle
  2
Linepattern
 70
    14
 71
     2
 72
     2
 73
     0
 90
        0
 40
-0.6
 41
-30.0
 62
     5
 63
     7
 74
     1
 91
        4
 64
     7
 65
   257
 75
     7
175
     7
 42
1.0
 92
        8
 66
     7
 43
1.0
 76
     1
 77
     6
 78
     2
 67
     7
 79
     5
170
     0
171
     0
290
     0
174
     0
 93
        1
 44
0.0
173
     0
291
     1
 45
0.0
1001
ACAD
1000
AcDbSavedByObjectVersion
1070
     0
  0
VISUALSTYLE
  5
33
102
{ACAD_REACTORS
330
2A
102
}
102
{ACAD_XDICTIONARY
360
1BC
102
}
330
2A
100
AcDbVisualStyle
  2
Realistic
 70
     8
 71
     2
 72
     2
 73
     0
 90
        0
 40
-0.6
 41
-30.0
 62
     5
 63
     7
 74
     1
 91
        0
 64
     7
 65
   257
 75
     1
175
     1
 42
1.0
 92
        8
 66
     8
 43
1.0
 76
     1
 77
     6
 78
     2
 67
     7
 79
     5
170
     0
171
     0
290
     0
174
     0
 93
       13
 44
0.0
173
     0
291
     0
 45
0.0
1001
ACAD
1000
AcDbSavedByObjectVersion
1070
     0
  0
VISUALSTYLE
  5
37
102
{ACAD_REACTORS
330
2A
102
}
102
{ACAD_XDICTIONARY
360
1C4
102
}
330
2A
100
AcDbVisualStyle
  2
Thicken
 70
    13
 71
     2
 72
     2
 73
     0
 90
        0
 40
-0.6
 41
-30.0
 62
     5
 63
     7
 74
     1
 91
        4
 64
     7
 65
   257
 75
     1
175
     1
 42
1.0
 92
       12
 66
     7
 43
1.0
 76
     1
 77
     6
 78
     2
 67
     7
 79
     5
170
     0
171
     0
290
     0
174
     0
 93
        1
 44
0.0
173
     0
291
     1
 45
0.0
1001
ACAD
1000
AcDbSavedByObjectVersion
1070
     0
  0
DICTIONARYVAR
  5
1AA
102
{ACAD_REACTORS
330
1A7
102
}
330
1A7
100
DictionaryVariables
280
     0
  1
2
  0
DICTIONARYVAR
  5
1AB
102
{ACAD_REACTORS
330
1A7
102
}
330
1A7
100
DictionaryVariables
280
     0
  1
1
  0
DICTIONARY
  5
1CE
330
3D
100
AcDbDictionary
280
     1
281
     1
  3
ACAD_XREC_ROUNDTRIP
360
1CF
  0
DICTIONARY
  5
1CC
330
3C
100
AcDbDictionary
280
     1
281
     1
  3
ACAD_XREC_ROUNDTRIP
360
1CD
  0
DICTIONARY
  5
1D0
330
3E
100
AcDbDictionary
280
     1
281
     1
  3
ACAD_XREC_ROUNDTRIP
360
1D1
  0
DICTIONARY
  5
1B4
330
2F
100
AcDbDictionary
280
     1
281
     1
  3
ACAD_XREC_ROUNDTRIP
360
1B5
  0
DICTIONARY
  5
1B8
330
31
100
AcDbDictionary
280
     1
281
     1
  3
ACAD_XREC_ROUNDTRIP
360
1B9
  0
DICTIONARY
  5
1B6
330
30
100
AcDbDictionary
280
     1
281
     1
  3
ACAD_XREC_ROUNDTRIP
360
1B7
  0
DICTIONARY
  5
1BA
330
32
100
AcDbDictionary
280
     1
281
     1
  3
ACAD_XREC_ROUNDTRIP
360
1BB
  0
DICTIONARY
  5
1C2
330
36
100
AcDbDictionary
280
     1
281
     1
  3
ACAD_XREC_ROUNDTRIP
360
1C3
  0
DICTIONARY
  5
1CA
330
3A
100
AcDbDictionary
280
     1
281
     1
  3
ACAD_XREC_ROUNDTRIP
360
1CB
  0
DICTIONARY
  5
1BE
330
34
100
AcDbDictionary
280
     1
281
     1
  3
ACAD_XREC_ROUNDTRIP
360
1BF
  0
DICTIONARY
  5
1C0
330
35
100
AcDbDictionary
280
     1
281
     1
  3
ACAD_XREC_ROUNDTRIP
360
1C1
  0
DICTIONARY
  5
1C8
330
39
100
AcDbDictionary
280
     1
281
     1
  3
ACAD_XREC_ROUNDTRIP
360
1C9
  0
DICTIONARY
  5
1AC
330
2B
100
AcDbDictionary
280
     1
281
     1
  3
ACAD_XREC_ROUNDTRIP
360
1AD
  0
DICTIONARY
  5
1AE
330
2C
100
AcDbDictionary
280
     1
281
     1
  3
ACAD_XREC_ROUNDTRIP
360
1AF
  0
DICTIONARY
  5
1B0
330
2D
100
AcDbDictionary
280
     1
281
     1
  3
ACAD_XREC_ROUNDTRIP
360
1B1
  0
DICTIONARY
  5
1B2
330
2E
100
AcDbDictionary
280
     1
281
     1
  3
ACAD_XREC_ROUNDTRIP
360
1B3
  0
DICTIONARY
  5
1C6
330
38
100
AcDbDictionary
280
     1
281
     1
  3
ACAD_XREC_ROUNDTRIP
360
1C7
  0
DICTIONARY
  5
1BC
330
33
100
AcDbDictionary
280
     1
281
     1
  3
ACAD_XREC_ROUNDTRIP
360
1BD
  0
DICTIONARY
  5
1C4
330
37
100
AcDbDictionary
280
     1
281
     1
  3
ACAD_XREC_ROUNDTRIP
360
1C5
  0
XRECORD
  5
1CF
102
{ACAD_REACTORS
330
1CE
102
}
330
1CE
100
AcDbXrecord
280
     1
102
MATERIAL
148
0.0
149
0.0
149
0.0
 93
        0
 94
      127
282
     0
 72
     1
 77
     1
171
     1
175
     1
179
     1
273
     0
  0
XRECORD
  5
1CD
102
{ACAD_REACTORS
330
1CC
102
}
330
1CC
100
AcDbXrecord
280
     1
102
MATERIAL
148
0.0
149
0.0
149
0.0
 93
        0
 94
      127
282
     0
 72
     1
 77
     1
171
     1
175
     1
179
     1
273
     0
  0
XRECORD
  5
1D1
102
{ACAD_REACTORS
330
1D0
102
}
330
1D0
100
AcDbXrecord
280
     1
102
MATERIAL
148
0.0
149
0.0
149
0.0
 93
        0
 94
      127
282
     0
 72
     1
 77
     1
171
     1
175
     1
179
     1
273
     0
  0
XRECORD
  5
1B5
102
{ACAD_REACTORS
330
1B4
102
}
330
1B4
100
AcDbXrecord
280
     1
102
RTVSPropertyOp0
 70
     1
102
RTVSPropertyOp1
 70
     1
102
RTVSPropertyOp2
 70
     1
102
RTVSPropertyOp3
 70
     1
102
RTVSPropertyOp4
 70
     1
102
RTVSPropertyOp5
 70
     1
102
RTVSPropertyOp6
 70
     1
102
RTVSPropertyOp7
 70
     1
102
RTVSPropertyOp8
 70
     1
102
RTVSPropertyOp9
 70
     1
102
RTVSPropertyOp10
 70
     1
102
RTVSPropertyOp11
 70
     1
102
RTVSPropertyOp12
 70
     1
102
RTVSPropertyOp13
 70
     1
102
RTVSPropertyOp14
 70
     1
102
RTVSPropertyOp15
 70
     1
102
RTVSPropertyOp16
 70
     1
102
RTVSPropertyOp17
 70
     1
102
RTVSPropertyOp18
 70
     1
102
RTVSPropertyOp19
 70
     1
102
RTVSPropertyOp20
 70
     1
102
RTVSPropertyOp21
 70
     1
102
RTVSPropertyOp22
 70
     1
102
RTVSPropertyOp23
 70
     1
102
RTVSPropertyOp24
 70
     1
102
RTVSPropertyOp25
 70
     1
102
RTVSPropertyOp26
 70
     1
102
RTVSPropertyOp27
 70
     1
102
RTVSPropertyOp28
 70
     1
102
RTVSPropertyOp29
 70
     1
102
RTVSPropertyOp30
 70
     1
102
RTVSPropertyOp31
 70
     1
102
RTVSPropertyOp32
 70
     1
  0
XRECORD
  5
1B9
102
{ACAD_REACTORS
330
1B8
102
}
330
1B8
100
AcDbXrecord
280
     1
102
RTVSPropertyOp0
 70
     1
102
RTVSPropertyOp1
 70
     1
102
RTVSPropertyOp2
 70
     1
102
RTVSPropertyOp3
 70
     1
102
RTVSPropertyOp4
 70
     1
102
RTVSPropertyOp5
 70
     1
102
RTVSPropertyOp6
 70
     1
102
RTVSPropertyOp7
 70
     1
102
RTVSPropertyOp8
 70
     1
102
RTVSPropertyOp9
 70
     1
102
RTVSPropertyOp10
 70
     1
102
RTVSPropertyOp11
 70
     1
102
RTVSPropertyOp12
 70
     1
102
RTVSPropertyOp13
 70
     1
102
RTVSPropertyOp14
 70
     1
102
RTVSPropertyOp15
 70
     1
102
RTVSPropertyOp16
 70
     1
102
RTVSPropertyOp17
 70
     1
102
RTVSPropertyOp18
 70
     1
102
RTVSPropertyOp19
 70
     1
102
RTVSPropertyOp20
 70
     1
102
RTVSPropertyOp21
 70
     1
102
RTVSPropertyOp22
 70
     1
102
RTVSPropertyOp23
 70
     1
102
RTVSPropertyOp24
 70
     1
102
RTVSPropertyOp25
 70
     1
102
RTVSPropertyOp26
 70
     1
102
RTVSPropertyOp27
 70
     1
102
RTVSPropertyOp28
 70
     1
102
RTVSPropertyOp29
 70
     1
102
RTVSPropertyOp30
 70
     1
102
RTVSPropertyOp31
 70
     1
102
RTVSPropertyOp32
 70
     1
  0
XRECORD
  5
1B7
102
{ACAD_REACTORS
330
1B6
102
}
330
1B6
100
AcDbXrecord
280
     1
102
RTVSPropertyOp0
 70
     1
102
RTVSPropertyOp1
 70
     1
102
RTVSPropertyOp2
 70
     1
102
RTVSPropertyOp3
 70
     1
102
RTVSPropertyOp4
 70
     1
102
RTVSPropertyOp5
 70
     1
102
RTVSPropertyOp6
 70
     1
102
RTVSPropertyOp7
 70
     1
102
RTVSPropertyOp8
 70
     1
102
RTVSPropertyOp9
 70
     1
102
RTVSPropertyOp10
 70
     1
102
RTVSPropertyOp11
 70
     1
102
RTVSPropertyOp12
 70
     1
102
RTVSPropertyOp13
 70
     1
102
RTVSPropertyOp14
 70
     1
102
RTVSPropertyOp15
 70
     1
102
RTVSPropertyOp16
 70
     1
102
RTVSPropertyOp17
 70
     1
102
RTVSPropertyOp18
 70
     1
102
RTVSPropertyOp19
 70
     1
102
RTVSPropertyOp20
 70
     1
102
RTVSPropertyOp21
 70
     1
102
RTVSPropertyOp22
 70
     1
102
RTVSPropertyOp23
 70
     1
102
RTVSPropertyOp24
 70
     1
102
RTVSPropertyOp25
 70
     1
102
RTVSPropertyOp26
 70
     1
102
RTVSPropertyOp27
 70
     1
102
RTVSPropertyOp28
 70
     1
102
RTVSPropertyOp29
 70
     1
102
RTVSPropertyOp30
 70
     1
102
RTVSPropertyOp31
 70
     1
102
RTVSPropertyOp32
 70
     1
  0
XRECORD
  5
1BB
102
{ACAD_REACTORS
330
1BA
102
}
330
1BA
100
AcDbXrecord
280
     1
102
RTVSPropertyOp0
 70
     1
102
RTVSPropertyOp1
 70
     1
102
RTVSPropertyOp2
 70
     1
102
RTVSPropertyOp3
 70
     1
102
RTVSPropertyOp4
 70
     1
102
RTVSPropertyOp5
 70
     1
102
RTVSPropertyOp6
 70
     1
102
RTVSPropertyOp7
 70
     1
102
RTVSPropertyOp8
 70
     1
102
RTVSPropertyOp9
 70
     1
102
RTVSPropertyOp10
 70
     1
102
RTVSPropertyOp11
 70
     1
102
RTVSPropertyOp12
 70
     1
102
RTVSPropertyOp13
 70
     1
102
RTVSPropertyOp14
 70
     1
102
RTVSPropertyOp15
 70
     1
102
RTVSPropertyOp16
 70
     1
102
RTVSPropertyOp17
 70
     1
102
RTVSPropertyOp18
 70
     1
102
RTVSPropertyOp19
 70
     1
102
RTVSPropertyOp20
 70
     1
102
RTVSPropertyOp21
 70
     1
102
RTVSPropertyOp22
 70
     1
102
RTVSPropertyOp23
 70
     1
102
RTVSPropertyOp24
 70
     1
102
RTVSPropertyOp25
 70
     1
102
RTVSPropertyOp26
 70
     1
102
RTVSPropertyOp27
 70
     1
102
RTVSPropertyOp28
 70
     1
102
RTVSPropertyOp29
 70
     1
102
RTVSPropertyOp30
 70
     1
102
RTVSPropertyOp31
 70
     1
102
RTVSPropertyOp32
 70
     1
  0
XRECORD
  5
1C3
102
{ACAD_REACTORS
330
1C2
102
}
330
1C2
100
AcDbXrecord
280
     1
102
RTVSPropertyOp0
 70
     1
102
RTVSPropertyOp1
 70
     1
102
RTVSPropertyOp2
 70
     1
102
RTVSPropertyOp3
 70
     1
102
RTVSPropertyOp4
 70
     1
102
RTVSPropertyOp5
 70
     1
102
RTVSPropertyOp6
 70
     1
102
RTVSPropertyOp7
 70
     1
102
RTVSPropertyOp8
 70
     1
102
RTVSPropertyOp9
 70
     1
102
RTVSPropertyOp10
 70
     1
102
RTVSPropertyOp11
 70
     1
102
RTVSPropertyOp12
 70
     1
102
RTVSPropertyOp13
 70
     1
102
RTVSPropertyOp14
 70
     1
102
RTVSPropertyOp15
 70
     1
102
RTVSPropertyOp16
 70
     1
102
RTVSPropertyOp17
 70
     1
102
RTVSPropertyOp18
 70
     1
102
RTVSPropertyOp19
 70
     1
102
RTVSPropertyOp20
 70
     1
102
RTVSPropertyOp21
 70
     1
102
RTVSPropertyOp22
 70
     1
102
RTVSPropertyOp23
 70
     1
102
RTVSPropertyOp24
 70
     1
102
RTVSPropertyOp25
 70
     1
102
RTVSPropertyOp26
 70
     1
102
RTVSPropertyOp27
 70
     1
102
RTVSPropertyOp28
 70
     1
102
RTVSPropertyOp29
 70
     1
102
RTVSPropertyOp30
 70
     1
102
RTVSPropertyOp31
 70
     1
102
RTVSPropertyOp32
 70
     1
  0
XRECORD
  5
1CB
102
{ACAD_REACTORS
330
1CA
102
}
330
1CA
100
AcDbXrecord
280
     1
102
RTVSPropertyOp0
 70
     1
102
RTVSPropertyOp1
 70
     1
102
RTVSPropertyOp2
 70
     1
102
RTVSPropertyOp3
 70
     1
102
RTVSPropertyOp4
 70
     1
102
RTVSPropertyOp5
 70
     1
102
RTVSPropertyOp6
 70
     1
102
RTVSPropertyOp7
 70
     1
102
RTVSPropertyOp8
 70
     1
102
RTVSPropertyOp9
 70
     1
102
RTVSPropertyOp10
 70
     1
102
RTVSPropertyOp11
 70
     1
102
RTVSPropertyOp12
 70
     1
102
RTVSPropertyOp13
 70
     1
102
RTVSPropertyOp14
 70
     1
102
RTVSPropertyOp15
 70
     1
102
RTVSPropertyOp16
 70
     1
102
RTVSPropertyOp17
 70
     1
102
RTVSPropertyOp18
 70
     1
102
RTVSPropertyOp19
 70
     1
102
RTVSPropertyOp20
 70
     1
102
RTVSPropertyOp21
 70
     1
102
RTVSPropertyOp22
 70
     1
102
RTVSPropertyOp23
 70
     1
102
RTVSPropertyOp24
 70
     1
102
RTVSPropertyOp25
 70
     1
102
RTVSPropertyOp26
 70
     1
102
RTVSPropertyOp27
 70
     1
102
RTVSPropertyOp28
 70
     1
102
RTVSPropertyOp29
 70
     1
102
RTVSPropertyOp30
 70
     1
102
RTVSPropertyOp31
 70
     1
102
RTVSPropertyOp32
 70
     1
  0
XRECORD
  5
1BF
102
{ACAD_REACTORS
330
1BE
102
}
330
1BE
100
AcDbXrecord
280
     1
102
RTVSPropertyOp0
 70
     1
102
RTVSPropertyOp1
 70
     1
102
RTVSPropertyOp2
 70
     1
102
RTVSPropertyOp3
 70
     1
102
RTVSPropertyOp4
 70
     1
102
RTVSPropertyOp5
 70
     1
102
RTVSPropertyOp6
 70
     1
102
RTVSPropertyOp7
 70
     1
102
RTVSPropertyOp8
 70
     1
102
RTVSPropertyOp9
 70
     1
102
RTVSPropertyOp10
 70
     1
102
RTVSPropertyOp11
 70
     1
102
RTVSPropertyOp12
 70
     1
102
RTVSPropertyOp13
 70
     1
102
RTVSPropertyOp14
 70
     1
102
RTVSPropertyOp15
 70
     1
102
RTVSPropertyOp16
 70
     1
102
RTVSPropertyOp17
 70
     1
102
RTVSPropertyOp18
 70
     1
102
RTVSPropertyOp19
 70
     1
102
RTVSPropertyOp20
 70
     1
102
RTVSPropertyOp21
 70
     1
102
RTVSPropertyOp22
 70
     1
102
RTVSPropertyOp23
 70
     1
102
RTVSPropertyOp24
 70
     1
102
RTVSPropertyOp25
 70
     1
102
RTVSPropertyOp26
 70
     1
102
RTVSPropertyOp27
 70
     1
102
RTVSPropertyOp28
 70
     1
102
RTVSPropertyOp29
 70
     1
102
RTVSPropertyOp30
 70
     1
102
RTVSPropertyOp31
 70
     1
102
RTVSPropertyOp32
 70
     1
  0
XRECORD
  5
1C1
102
{ACAD_REACTORS
330
1C0
102
}
330
1C0
100
AcDbXrecord
280
     1
102
RTVSPropertyOp0
 70
     1
102
RTVSPropertyOp1
 70
     1
102
RTVSPropertyOp2
 70
     1
102
RTVSPropertyOp3
 70
     1
102
RTVSPropertyOp4
 70
     1
102
RTVSPropertyOp5
 70
     1
102
RTVSPropertyOp6
 70
     1
102
RTVSPropertyOp7
 70
     1
102
RTVSPropertyOp8
 70
     1
102
RTVSPropertyOp9
 70
     1
102
RTVSPropertyOp10
 70
     1
102
RTVSPropertyOp11
 70
     1
102
RTVSPropertyOp12
 70
     1
102
RTVSPropertyOp13
 70
     1
102
RTVSPropertyOp14
 70
     1
102
RTVSPropertyOp15
 70
     1
102
RTVSPropertyOp16
 70
     1
102
RTVSPropertyOp17
 70
     1
102
RTVSPropertyOp18
 70
     1
102
RTVSPropertyOp19
 70
     1
102
RTVSPropertyOp20
 70
     1
102
RTVSPropertyOp21
 70
     1
102
RTVSPropertyOp22
 70
     1
102
RTVSPropertyOp23
 70
     1
102
RTVSPropertyOp24
 70
     1
102
RTVSPropertyOp25
 70
     1
102
RTVSPropertyOp26
 70
     1
102
RTVSPropertyOp27
 70
     1
102
RTVSPropertyOp28
 70
     1
102
RTVSPropertyOp29
 70
     1
102
RTVSPropertyOp30
 70
     1
102
RTVSPropertyOp31
 70
     1
102
RTVSPropertyOp32
 70
     1
  0
XRECORD
  5
1C9
102
{ACAD_REACTORS
330
1C8
102
}
330
1C8
100
AcDbXrecord
280
     1
102
RTVSPropertyOp0
 70
     1
102
RTVSPropertyOp1
 70
     1
102
RTVSPropertyOp2
 70
     1
102
RTVSPropertyOp3
 70
     1
102
RTVSPropertyOp4
 70
     1
102
RTVSPropertyOp5
 70
     1
102
RTVSPropertyOp6
 70
     1
102
RTVSPropertyOp7
 70
     1
102
RTVSPropertyOp8
 70
     1
102
RTVSPropertyOp9
 70
     1
102
RTVSPropertyOp10
 70
     1
102
RTVSPropertyOp11
 70
     1
102
RTVSPropertyOp12
 70
     1
102
RTVSPropertyOp13
 70
     1
102
RTVSPropertyOp14
 70
     1
102
RTVSPropertyOp15
 70
     1
102
RTVSPropertyOp16
 70
     1
102
RTVSPropertyOp17
 70
     1
102
RTVSPropertyOp18
 70
     1
102
RTVSPropertyOp19
 70
     1
102
RTVSPropertyOp20
 70
     1
102
RTVSPropertyOp21
 70
     1
102
RTVSPropertyOp22
 70
     1
102
RTVSPropertyOp23
 70
     1
102
RTVSPropertyOp24
 70
     1
102
RTVSPropertyOp25
 70
     1
102
RTVSPropertyOp26
 70
     1
102
RTVSPropertyOp27
 70
     1
102
RTVSPropertyOp28
 70
     1
102
RTVSPropertyOp29
 70
     1
102
RTVSPropertyOp30
 70
     1
102
RTVSPropertyOp31
 70
     1
102
RTVSPropertyOp32
 70
     1
  0
XRECORD
  5
1AD
102
{ACAD_REACTORS
330
1AC
102
}
330
1AC
100
AcDbXrecord
280
     1
102
RTVSPropertyOp0
 70
     1
102
RTVSPropertyOp1
 70
     1
102
RTVSPropertyOp2
 70
     1
102
RTVSPropertyOp3
 70
     1
102
RTVSPropertyOp4
 70
     1
102
RTVSPropertyOp5
 70
     1
102
RTVSPropertyOp6
 70
     1
102
RTVSPropertyOp7
 70
     1
102
RTVSPropertyOp8
 70
     1
102
RTVSPropertyOp9
 70
     1
102
RTVSPropertyOp10
 70
     1
102
RTVSPropertyOp11
 70
     1
102
RTVSPropertyOp12
 70
     1
102
RTVSPropertyOp13
 70
     1
102
RTVSPropertyOp14
 70
     1
102
RTVSPropertyOp15
 70
     1
102
RTVSPropertyOp16
 70
     1
102
RTVSPropertyOp17
 70
     1
102
RTVSPropertyOp18
 70
     1
102
RTVSPropertyOp19
 70
     1
102
RTVSPropertyOp20
 70
     1
102
RTVSPropertyOp21
 70
     1
102
RTVSPropertyOp22
 70
     1
102
RTVSPropertyOp23
 70
     1
102
RTVSPropertyOp24
 70
     1
102
RTVSPropertyOp25
 70
     1
102
RTVSPropertyOp26
 70
     1
102
RTVSPropertyOp27
 70
     1
102
RTVSPropertyOp28
 70
     1
102
RTVSPropertyOp29
 70
     1
102
RTVSPropertyOp30
 70
     1
102
RTVSPropertyOp31
 70
     1
102
RTVSPropertyOp32
 70
     1
  0
XRECORD
  5
1AF
102
{ACAD_REACTORS
330
1AE
102
}
330
1AE
100
AcDbXrecord
280
     1
102
RTVSPropertyOp0
 70
     1
102
RTVSPropertyOp1
 70
     1
102
RTVSPropertyOp2
 70
     1
102
RTVSPropertyOp3
 70
     1
102
RTVSPropertyOp4
 70
     1
102
RTVSPropertyOp5
 70
     1
102
RTVSPropertyOp6
 70
     1
102
RTVSPropertyOp7
 70
     1
102
RTVSPropertyOp8
 70
     1
102
RTVSPropertyOp9
 70
     1
102
RTVSPropertyOp10
 70
     1
102
RTVSPropertyOp11
 70
     1
102
RTVSPropertyOp12
 70
     1
102
RTVSPropertyOp13
 70
     1
102
RTVSPropertyOp14
 70
     1
102
RTVSPropertyOp15
 70
     1
102
RTVSPropertyOp16
 70
     1
102
RTVSPropertyOp17
 70
     1
102
RTVSPropertyOp18
 70
     1
102
RTVSPropertyOp19
 70
     1
102
RTVSPropertyOp20
 70
     1
102
RTVSPropertyOp21
 70
     1
102
RTVSPropertyOp22
 70
     1
102
RTVSPropertyOp23
 70
     1
102
RTVSPropertyOp24
 70
     1
102
RTVSPropertyOp25
 70
     1
102
RTVSPropertyOp26
 70
     1
102
RTVSPropertyOp27
 70
     1
102
RTVSPropertyOp28
 70
     1
102
RTVSPropertyOp29
 70
     1
102
RTVSPropertyOp30
 70
     1
102
RTVSPropertyOp31
 70
     1
102
RTVSPropertyOp32
 70
     1
  0
XRECORD
  5
1B1
102
{ACAD_REACTORS
330
1B0
102
}
330
1B0
100
AcDbXrecord
280
     1
102
RTVSPropertyOp0
 70
     1
102
RTVSPropertyOp1
 70
     1
102
RTVSPropertyOp2
 70
     1
102
RTVSPropertyOp3
 70
     1
102
RTVSPropertyOp4
 70
     1
102
RTVSPropertyOp5
 70
     1
102
RTVSPropertyOp6
 70
     1
102
RTVSPropertyOp7
 70
     1
102
RTVSPropertyOp8
 70
     1
102
RTVSPropertyOp9
 70
     1
102
RTVSPropertyOp10
 70
     1
102
RTVSPropertyOp11
 70
     1
102
RTVSPropertyOp12
 70
     1
102
RTVSPropertyOp13
 70
     1
102
RTVSPropertyOp14
 70
     1
102
RTVSPropertyOp15
 70
     1
102
RTVSPropertyOp16
 70
     1
102
RTVSPropertyOp17
 70
     1
102
RTVSPropertyOp18
 70
     1
102
RTVSPropertyOp19
 70
     1
102
RTVSPropertyOp20
 70
     1
102
RTVSPropertyOp21
 70
     1
102
RTVSPropertyOp22
 70
     1
102
RTVSPropertyOp23
 70
     1
102
RTVSPropertyOp24
 70
     1
102
RTVSPropertyOp25
 70
     1
102
RTVSPropertyOp26
 70
     1
102
RTVSPropertyOp27
 70
     1
102
RTVSPropertyOp28
 70
     1
102
RTVSPropertyOp29
 70
     1
102
RTVSPropertyOp30
 70
     1
102
RTVSPropertyOp31
 70
     1
102
RTVSPropertyOp32
 70
     1
  0
XRECORD
  5
1B3
102
{ACAD_REACTORS
330
1B2
102
}
330
1B2
100
AcDbXrecord
280
     1
102
RTVSPropertyOp0
 70
     1
102
RTVSPropertyOp1
 70
     1
102
RTVSPropertyOp2
 70
     1
102
RTVSPropertyOp3
 70
     1
102
RTVSPropertyOp4
 70
     1
102
RTVSPropertyOp5
 70
     1
102
RTVSPropertyOp6
 70
     1
102
RTVSPropertyOp7
 70
     1
102
RTVSPropertyOp8
 70
     1
102
RTVSPropertyOp9
 70
     1
102
RTVSPropertyOp10
 70
     1
102
RTVSPropertyOp11
 70
     1
102
RTVSPropertyOp12
 70
     1
102
RTVSPropertyOp13
 70
     1
102
RTVSPropertyOp14
 70
     1
102
RTVSPropertyOp15
 70
     1
102
RTVSPropertyOp16
 70
     1
102
RTVSPropertyOp17
 70
     1
102
RTVSPropertyOp18
 70
     1
102
RTVSPropertyOp19
 70
     1
102
RTVSPropertyOp20
 70
     1
102
RTVSPropertyOp21
 70
     1
102
RTVSPropertyOp22
 70
     1
102
RTVSPropertyOp23
 70
     1
102
RTVSPropertyOp24
 70
     1
102
RTVSPropertyOp25
 70
     1
102
RTVSPropertyOp26
 70
     1
102
RTVSPropertyOp27
 70
     1
102
RTVSPropertyOp28
 70
     1
102
RTVSPropertyOp29
 70
     1
102
RTVSPropertyOp30
 70
     1
102
RTVSPropertyOp31
 70
     1
102
RTVSPropertyOp32
 70
     1
  0
XRECORD
  5
1C7
102
{ACAD_REACTORS
330
1C6
102
}
330
1C6
100
AcDbXrecord
280
     1
102
RTVSPropertyOp0
 70
     1
102
RTVSPropertyOp1
 70
     1
102
RTVSPropertyOp2
 70
     1
102
RTVSPropertyOp3
 70
     1
102
RTVSPropertyOp4
 70
     1
102
RTVSPropertyOp5
 70
     1
102
RTVSPropertyOp6
 70
     1
102
RTVSPropertyOp7
 70
     1
102
RTVSPropertyOp8
 70
     1
102
RTVSPropertyOp9
 70
     1
102
RTVSPropertyOp10
 70
     1
102
RTVSPropertyOp11
 70
     1
102
RTVSPropertyOp12
 70
     1
102
RTVSPropertyOp13
 70
     1
102
RTVSPropertyOp14
 70
     1
102
RTVSPropertyOp15
 70
     1
102
RTVSPropertyOp16
 70
     1
102
RTVSPropertyOp17
 70
     1
102
RTVSPropertyOp18
 70
     1
102
RTVSPropertyOp19
 70
     1
102
RTVSPropertyOp20
 70
     1
102
RTVSPropertyOp21
 70
     1
102
RTVSPropertyOp22
 70
     1
102
RTVSPropertyOp23
 70
     1
102
RTVSPropertyOp24
 70
     1
102
RTVSPropertyOp25
 70
     1
102
RTVSPropertyOp26
 70
     1
102
RTVSPropertyOp27
 70
     1
102
RTVSPropertyOp28
 70
     1
102
RTVSPropertyOp29
 70
     1
102
RTVSPropertyOp30
 70
     1
102
RTVSPropertyOp31
 70
     1
102
RTVSPropertyOp32
 70
     1
  0
XRECORD
  5
1BD
102
{ACAD_REACTORS
330
1BC
102
}
330
1BC
100
AcDbXrecord
280
     1
102
RTVSPropertyOp0
 70
     1
102
RTVSPropertyOp1
 70
     1
102
RTVSPropertyOp2
 70
     1
102
RTVSPropertyOp3
 70
     1
102
RTVSPropertyOp4
 70
     1
102
RTVSPropertyOp5
 70
     1
102
RTVSPropertyOp6
 70
     1
102
RTVSPropertyOp7
 70
     1
102
RTVSPropertyOp8
 70
     1
102
RTVSPropertyOp9
 70
     1
102
RTVSPropertyOp10
 70
     1
102
RTVSPropertyOp11
 70
     1
102
RTVSPropertyOp12
 70
     1
102
RTVSPropertyOp13
 70
     1
102
RTVSPropertyOp14
 70
     1
102
RTVSPropertyOp15
 70
     1
102
RTVSPropertyOp16
 70
     1
102
RTVSPropertyOp17
 70
     1
102
RTVSPropertyOp18
 70
     1
102
RTVSPropertyOp19
 70
     1
102
RTVSPropertyOp20
 70
     1
102
RTVSPropertyOp21
 70
     1
102
RTVSPropertyOp22
 70
     1
102
RTVSPropertyOp23
 70
     1
102
RTVSPropertyOp24
 70
     1
102
RTVSPropertyOp25
 70
     1
102
RTVSPropertyOp26
 70
     1
102
RTVSPropertyOp27
 70
     1
102
RTVSPropertyOp28
 70
     1
102
RTVSPropertyOp29
 70
     1
102
RTVSPropertyOp30
 70
     1
102
RTVSPropertyOp31
 70
     1
102
RTVSPropertyOp32
 70
     1
  0
XRECORD
  5
1C5
102
{ACAD_REACTORS
330
1C4
102
}
330
1C4
100
AcDbXrecord
280
     1
102
RTVSPropertyOp0
 70
     1
102
RTVSPropertyOp1
 70
     1
102
RTVSPropertyOp2
 70
     1
102
RTVSPropertyOp3
 70
     1
102
RTVSPropertyOp4
 70
     1
102
RTVSPropertyOp5
 70
     1
102
RTVSPropertyOp6
 70
     1
102
RTVSPropertyOp7
 70
     1
102
RTVSPropertyOp8
 70
     1
102
RTVSPropertyOp9
 70
     1
102
RTVSPropertyOp10
 70
     1
102
RTVSPropertyOp11
 70
     1
102
RTVSPropertyOp12
 70
     1
102
RTVSPropertyOp13
 70
     1
102
RTVSPropertyOp14
 70
     1
102
RTVSPropertyOp15
 70
     1
102
RTVSPropertyOp16
 70
     1
102
RTVSPropertyOp17
 70
     1
102
RTVSPropertyOp18
 70
     1
102
RTVSPropertyOp19
 70
     1
102
RTVSPropertyOp20
 70
     1
102
RTVSPropertyOp21
 70
     1
102
RTVSPropertyOp22
 70
     1
102
RTVSPropertyOp23
 70
     1
102
RTVSPropertyOp24
 70
     1
102
RTVSPropertyOp25
 70
     1
102
RTVSPropertyOp26
 70
     1
102
RTVSPropertyOp27
 70
     1
102
RTVSPropertyOp28
 70
     1
102
RTVSPropertyOp29
 70
     1
102
RTVSPropertyOp30
 70
     1
102
RTVSPropertyOp31
 70
     1
102
RTVSPropertyOp32
 70
     1
  0
ENDSEC
  0
EOF
