  0
SECTION
  2
HEADER
  9
$ACADVER
  1
AC1015
  9
$ACADMAINTVER
 70
     6
  9
$DWGCODEPAGE
  3
ANSI_932
  9
$INSBASE
 10
0.0
 20
0.0
 30
0.0
  9
$EXTMIN
 10
0.0
 20
0.0
 30
0.0
  9
$EXTMAX
 10
210.0
 20
297.0
 30
0.0
  9
$LIMMIN
 10
0.0
 20
0.0
  9
$LIMMAX
 10
12.0
 20
9.0
  9
$ORTHOMODE
 70
     0
  9
$REGENMODE
 70
     1
  9
$FILLMODE
 70
     1
  9
$QTEXTMODE
 70
     0
  9
$MIRRTEXT
 70
     1
  9
$LTSCALE
 40
1.0
  9
$ATTMODE
 70
     1
  9
$TEXTSIZE
 40
0.2
  9
$TRACEWID
 40
0.05
  9
$TEXTSTYLE
  7
Standard
  9
$CLAYER
  8
0
  9
$CELTYPE
  6
ByLayer
  9
$CECOLOR
 62
   256
  9
$CELTSCALE
 40
1.0
  9
$DISPSILH
 70
     0
  9
$DIMSCALE
 40
1.0
  9
$DIMASZ
 40
0.18
  9
$DIMEXO
 40
0.0625
  9
$DIMDLI
 40
0.38
  9
$DIMRND
 40
0.0
  9
$DIMDLE
 40
0.0
  9
$DIMEXE
 40
0.18
  9
$DIMTP
 40
0.0
  9
$DIMTM
 40
0.0
  9
$DIMTXT
 40
0.18
  9
$DIMCEN
 40
0.09
  9
$DIMTSZ
 40
0.0
  9
$DIMTOL
 70
     0
  9
$DIMLIM
 70
     0
  9
$DIMTIH
 70
     1
  9
$DIMTOH
 70
     1
  9
$DIMSE1
 70
     0
  9
$DIMSE2
 70
     0
  9
$DIMTAD
 70
     0
  9
$DIMZIN
 70
     0
  9
$DIMBLK
  1

  9
$DIMASO
 70
     1
  9
$DIMSHO
 70
     1
  9
$DIMPOST
  1

  9
$DIMAPOST
  1

  9
$DIMALT
 70
     0
  9
$DIMALTD
 70
     2
  9
$DIMALTF
 40
25.4
  9
$DIMLFAC
 40
1.0
  9
$DIMTOFL
 70
     0
  9
$DIMTVP
 40
0.0
  9
$DIMTIX
 70
     0
  9
$DIMSOXD
 70
     0
  9
$DIMSAH
 70
     0
  9
$DIMBLK1
  1

  9
$DIMBLK2
  1

  9
$DIMSTYLE
  2
Standard
  9
$DIMCLRD
 70
     0
  9
$DIMCLRE
 70
     0
  9
$DIMCLRT
 70
     0
  9
$DIMTFAC
 40
1.0
  9
$DIMGAP
 40
0.09
  9
$DIMJUST
 70
     0
  9
$DIMSD1
 70
     0
  9
$DIMSD2
 70
     0
  9
$DIMTOLJ
 70
     1
  9
$DIMTZIN
 70
     0
  9
$DIMALTZ
 70
     0
  9
$DIMALTTZ
 70
     0
  9
$DIMUPT
 70
     0
  9
$DIMDEC
 70
     4
  9
$DIMTDEC
 70
     4
  9
$DIMALTU
 70
     2
  9
$DIMALTTD
 70
     2
  9
$DIMTXSTY
  7
Standard
  9
$DIMAUNIT
 70
     0
  9
$DIMADEC
 70
     0
  9
$DIMALTRND
 40
0.0
  9
$DIMAZIN
 70
     0
  9
$DIMDSEP
 70
    46
  9
$DIMATFIT
 70
     3
  9
$DIMFRAC
 70
     0
  9
$DIMLDRBLK
  1

  9
$DIMLUNIT
 70
     2
  9
$DIMLWD
 70
    -2
  9
$DIMLWE
 70
    -2
  9
$DIMTMOVE
 70
     0
  9
$LUNITS
 70
     2
  9
$LUPREC
 70
     4
  9
$SKETCHINC
 40
0.1
  9
$FILLETRAD
 40
0.5
  9
$AUNITS
 70
     0
  9
$AUPREC
 70
     0
  9
$MENU
  1
.
  9
$ELEVATION
 40
0.0
  9
$PELEVATION
 40
0.0
  9
$THICKNESS
 40
0.0
  9
$LIMCHECK
 70
     0
  9
$CHAMFERA
 40
0.5
  9
$CHAMFERB
 40
0.5
  9
$CHAMFERC
 40
1.0
  9
$CHAMFERD
 40
0.0
  9
$SKPOLY
 70
     0
  9
$TDCREATE
 40
2459732.622795579
  9
$TDUCREATE
 40
2459732.247795579
  9
$TDUPDATE
 40
2459732.622796852
  9
$TDUUPDATE
 40
2459732.247796852
  9
$TDINDWG
 40
0.0000000116
  9
$TDUSRTIMER
 40
0.0000000116
  9
$USRTIMER
 70
     1
  9
$ANGBASE
 50
0.0
  9
$ANGDIR
 70
     0
  9
$PDMODE
 70
     0
  9
$PDSIZE
 40
0.0
  9
$PLINEWID
 40
0.0
  9
$SPLFRAME
 70
     0
  9
$SPLINETYPE
 70
     6
  9
$SPLINESEGS
 70
     8
  9
$HANDSEED
  5
1D1
  9
$SURFTAB1
 70
     6
  9
$SURFTAB2
 70
     6
  9
$SURFTYPE
 70
     6
  9
$SURFU
 70
     6
  9
$SURFV
 70
     6
  9
$UCSBASE
  2

  9
$UCSNAME
  2

  9
$UCSORG
 10
0.0
 20
0.0
 30
0.0
  9
$UCSXDIR
 10
1.0
 20
0.0
 30
0.0
  9
$UCSYDIR
 10
0.0
 20
1.0
 30
0.0
  9
$UCSORTHOREF
  2

  9
$UCSORTHOVIEW
 70
     0
  9
$UCSORGTOP
 10
0.0
 20
0.0
 30
0.0
  9
$UCSORGBOTTOM
 10
0.0
 20
0.0
 30
0.0
  9
$UCSORGLEFT
 10
0.0
 20
0.0
 30
0.0
  9
$UCSORGRIGHT
 10
0.0
 20
0.0
 30
0.0
  9
$UCSORGFRONT
 10
0.0
 20
0.0
 30
0.0
  9
$UCSORGBACK
 10
0.0
 20
0.0
 30
0.0
  9
$PUCSBASE
  2

  9
$PUCSNAME
  2

  9
$PUCSORG
 10
0.0
 20
0.0
 30
0.0
  9
$PUCSXDIR
 10
1.0
 20
0.0
 30
0.0
  9
$PUCSYDIR
 10
0.0
 20
1.0
 30
0.0
  9
$PUCSORTHOREF
  2

  9
$PUCSORTHOVIEW
 70
     0
  9
$PUCSORGTOP
 10
0.0
 20
0.0
 30
0.0
  9
$PUCSORGBOTTOM
 10
0.0
 20
0.0
 30
0.0
  9
$PUCSORGLEFT
 10
0.0
 20
0.0
 30
0.0
  9
$PUCSORGRIGHT
 10
0.0
 20
0.0
 30
0.0
  9
$PUCSORGFRONT
 10
0.0
 20
0.0
 30
0.0
  9
$PUCSORGBACK
 10
0.0
 20
0.0
 30
0.0
  9
$USERI1
 70
     0
  9
$USERI2
 70
     0
  9
$USERI3
 70
     0
  9
$USERI4
 70
     0
  9
$USERI5
 70
     0
  9
$USERR1
 40
18.1
  9
$USERR2
 40
0.0
  9
$USERR3
 40
0.0
  9
$USERR4
 40
0.0
  9
$USERR5
 40
0.0
  9
$WORLDVIEW
 70
     1
  9
$SHADEDGE
 70
     3
  9
$SHADEDIF
 70
    70
  9
$TILEMODE
 70
     1
  9
$MAXACTVP
 70
    64
  9
$PINSBASE
 10
0.0
 20
0.0
 30
0.0
  9
$PLIMCHECK
 70
     0
  9
$PEXTMIN
 10
1.00000000000000E+20
 20
1.00000000000000E+20
 30
1.00000000000000E+20
  9
$PEXTMAX
 10
-1.00000000000000E+20
 20
-1.00000000000000E+20
 30
-1.00000000000000E+20
  9
$PLIMMIN
 10
0.0
 20
0.0
  9
$PLIMMAX
 10
12.0
 20
9.0
  9
$UNITMODE
 70
     0
  9
$VISRETAIN
 70
     1
  9
$PLINEGEN
 70
     0
  9
$PSLTSCALE
 70
     1
  9
$TREEDEPTH
 70
  3020
  9
$CMLSTYLE
  2
Standard
  9
$CMLJUST
 70
     0
  9
$CMLSCALE
 40
1.0
  9
$PROXYGRAPHICS
 70
     1
  9
$MEASUREMENT
 70
     1
  9
$CELWEIGHT
370
    -1
  9
$ENDCAPS
280
     0
  9
$JOINSTYLE
280
     0
  9
$LWDISPLAY
290
     0
  9
$INSUNITS
 70
     4
  9
$HYPERLINKBASE
  1

  9
$STYLESHEET
  1

  9
$XEDIT
290
     1
  9
$CEPSNTYPE
380
     0
  9
$PSTYLEMODE
290
     1
  9
$FINGERPRINTGUID
  2
{AAF7727F-757E-4242-98E2-11A74E5E676A}
  9
$VERSIONGUID
  2
{FAEB1C32-E019-11D5-929B-00C0DF256EC4}
  9
$EXTNAMES
290
     1
  9
$PSVPSCALE
 40
0.0
  9
$OLESTARTUP
290
     0
  0
ENDSEC
  0
SECTION
  2
CLASSES
  0
CLASS
  1
ACDBDICTIONARYWDFLT
  2
AcDbDictionaryWithDefault
  3
ObjectDBX Classes
 90
        0
280
     0
281
     0
  0
CLASS
  1
VISUALSTYLE
  2
AcDbVisualStyle
  3
ObjectDBX Classes
 90
     4095
280
     0
281
     0
  0
CLASS
  1
MATERIAL
  2
AcDbMaterial
  3
ObjectDBX Classes
 90
     1153
280
     0
281
     0
  0
CLASS
  1
DICTIONARYVAR
  2
AcDbDictionaryVar
  3
ObjectDBX Classes
 90
        0
280
     0
281
     0
  0
CLASS
  1
ACDBPLACEHOLDER
  2
AcDbPlaceHolder
  3
ObjectDBX Classes
 90
        0
280
     0
281
     0
  0
CLASS
  1
LAYOUT
  2
AcDbLayout
  3
ObjectDBX Classes
 90
        0
280
     0
281
     0
  0
ENDSEC
  0
SECTION
  2
TABLES
  0
TABLE
  2
VPORT
  5
8
330
0
100
AcDbSymbolTable
 70
     1
  0
VPORT
  5
29
330
8
100
AcDbSymbolTableRecord
100
AcDbViewportTableRecord
  2
*Active
 70
     0
 10
0.0
 20
0.0
 11
1.0
 21
1.0
 12
105.0
 22
148.5
 13
0.0
 23
0.0
 14
0.5
 24
0.5
 15
0.5
 25
0.5
 16
0.0
 26
0.0
 36
1.0
 17
0.0
 27
0.0
 37
0.0
 40
326.7
 41
1.60267857142857
 42
50.0
 43
0.0
 44
0.0
 50
0.0
 51
0.0
 71
     0
 72
   100
 73
     1
 74
     3
 75
     0
 76
     0
 77
     0
 78
     0
281
     0
 65
     1
110
0.0
120
0.0
130
0.0
111
1.0
121
0.0
131
0.0
112
0.0
122
1.0
132
0.0
 79
     0
146
0.0
  0
ENDTAB
  0
TABLE
  2
LTYPE
  5
5
330
0
100
AcDbSymbolTable
 70
     8
  0
LTYPE
  5
14
330
5
100
AcDbSymbolTableRecord
100
AcDbLinetypeTableRecord
  2
ByBlock
 70
     0
  3

 72
    65
 73
     0
 40
0.0
  0
LTYPE
  5
15
330
5
100
AcDbSymbolTableRecord
100
AcDbLinetypeTableRecord
  2
ByLayer
 70
     0
  3

 72
    65
 73
     0
 40
0.0
  0
LTYPE
  5
16
330
5
100
AcDbSymbolTableRecord
100
AcDbLinetypeTableRecord
  2
Continuous
 70
     0
  3
Solid line
 72
    65
 73
     0
 40
0.0
  0
LTYPE
  5
3F
330
5
100
AcDbSymbolTableRecord
100
AcDbLinetypeTableRecord
  2
DASHED
 70
     0
  3
Dashed
 72
    65
 73
     2
 40
15.0
 49
7.0
 74
     0
 49
-8.0
 74
     0
  0
LTYPE
  5
40
330
5
100
AcDbSymbolTableRecord
100
AcDbLinetypeTableRecord
  2
DOTTED
 70
     0
  3
Dotted
 72
    65
 73
     2
 40
1.0
 49
0.0
 74
     0
 49
-1.0
 74
     0
  0
LTYPE
  5
41
330
5
100
AcDbSymbolTableRecord
100
AcDbLinetypeTableRecord
  2
DOT_CENTER
 70
     0
  3
Dot_Center
 72
    65
 73
     4
 40
14.0
 49
12.0
 74
     0
 49
-1.0
 74
     0
 49
0.0
 74
     0
 49
-1.0
 74
     0
  0
LTYPE
  5
42
330
5
100
AcDbSymbolTableRecord
100
AcDbLinetypeTableRecord
  2
LONG_DASHED
 70
     0
  3
Long_Dashed
 72
    65
 73
     2
 40
15.0
 49
10.0
 74
     0
 49
-5.0
 74
     0
  0
LTYPE
  5
43
330
5
100
AcDbSymbolTableRecord
100
AcDbLinetypeTableRecord
  2
DASH_CENTER
 70
     0
  3
Dash_Center
 72
    65
 73
     4
 40
14.0
 49
11.0
 74
     0
 49
-1.0
 74
     0
 49
1.0
 74
     0
 49
-1.0
 74
     0
  0
LTYPE
  5
44
330
5
100
AcDbSymbolTableRecord
100
AcDbLinetypeTableRecord
  2
PHANTOM
 70
     0
  3
Phantom
 72
    65
 73
     6
 40
13.0
 49
10.0
 74
     0
 49
-1.0
 74
     0
 49
0.0
 74
     0
 49
-1.0
 74
     0
 49
0.0
 74
     0
 49
-1.0
 74
     0
  0
LTYPE
  5
45
330
5
100
AcDbSymbolTableRecord
100
AcDbLinetypeTableRecord
  2
CENTER_DASH_DASH
 70
     0
  3
Center_Dash_Dash
 72
    65
 73
     6
 40
14.0
 49
9.0
 74
     0
 49
-1.0
 74
     0
 49
1.0
 74
     0
 49
-1.0
 74
     0
 49
1.0
 74
     0
 49
-1.0
 74
     0
  0
ENDTAB
  0
TABLE
  2
LAYER
  5
2
330
0
100
AcDbSymbolTable
 70
     3
  0
LAYER
  5
10
330
2
100
AcDbSymbolTableRecord
100
AcDbLayerTableRecord
  2
0
 70
     0
 62
     7
  6
Continuous
370
    -3
390
F
  0
LAYER
  5
46
330
2
100
AcDbSymbolTableRecord
100
AcDbLayerTableRecord
  2
1
 70
     0
 62
     7
  6
Continuous
370
    -3
390
F
  0
LAYER
  5
47
330
2
100
AcDbSymbolTableRecord
100
AcDbLayerTableRecord
  2
_U_30EC_U_30A4_U_30E4_U_30FC_1
 70
     0
 62
     7
  6
Continuous
370
    -3
390
F
  0
ENDTAB
  0
TABLE
  2
STYLE
  5
3
330
0
100
AcDbSymbolTable
 70
     4
  0
STYLE
  5
11
330
3
100
AcDbSymbolTableRecord
100
AcDbTextStyleTableRecord
  2
Standard
 70
     0
 40
0.0
 41
1.0
 50
0.0
 71
     0
 42
0.2
  3
txt
  4

  0
STYLE
  5
B6
330
3
100
AcDbSymbolTableRecord
100
AcDbTextStyleTableRecord
  2
CONVERTER_11
 70
     0
 40
0.0
 41
0.89
 50
0.0
 71
     0
 42
0.2
  3
MS Mincho.ttf
  4

1001
ACAD
1000
MS Mincho
1071
    32785
  0
STYLE
  5
148
330
3
100
AcDbSymbolTableRecord
100
AcDbTextStyleTableRecord
  2
CONVERTER_12
 70
     0
 40
0.0
 41
0.9
 50
0.0
 71
     0
 42
0.2
  3
txt.shx
  4

  0
STYLE
  5
154
330
3
100
AcDbSymbolTableRecord
100
AcDbTextStyleTableRecord
  2
CONVERTER_13
 70
     0
 40
0.0
 41
0.95
 50
0.0
 71
     0
 42
0.2
  3
complex.shx
  4

  0
ENDTAB
  0
TABLE
  2
VIEW
  5
6
330
0
100
AcDbSymbolTable
 70
     0
  0
ENDTAB
  0
TABLE
  2
UCS
  5
7
330
0
100
AcDbSymbolTable
 70
     0
  0
ENDTAB
  0
TABLE
  2
APPID
  5
9
330
0
100
AcDbSymbolTable
 70
     1
  0
APPID
  5
12
330
9
100
AcDbSymbolTableRecord
100
AcDbRegAppTableRecord
  2
ACAD
 70
     0
  0
ENDTAB
  0
TABLE
  2
DIMSTYLE
  5
A
330
0
100
AcDbSymbolTable
 70
     7
100
AcDbDimStyleTable
  0
DIMSTYLE
105
27
330
A
100
AcDbSymbolTableRecord
100
AcDbDimStyleTableRecord
  2
Standard
 70
     0
178
     0
340
11
  0
DIMSTYLE
105
164
102
{ACAD_REACTORS
330
165
102
}
330
A
100
AcDbSymbolTableRecord
100
AcDbDimStyleTableRecord
  2
ME10_DIM_10
 70
     0
 41
3.5
 42
0.0
 44
1.0
 73
     0
 74
     0
 77
     1
 78
     8
140
3.5
147
1.0
172
     1
173
     1
174
     1
175
     1
176
     2
177
     2
271
     2
178
     7
271
     2
340
148
  0
DIMSTYLE
105
16F
102
{ACAD_REACTORS
330
170
102
}
330
A
100
AcDbSymbolTableRecord
100
AcDbDimStyleTableRecord
  2
ME10_DIM_11
 70
     0
 41
3.5
 42
0.0
 44
1.0
 73
     0
 74
     0
 77
     1
 78
     8
140
3.5
147
1.0
172
     1
173
     1
174
     1
175
     1
176
     2
177
     2
271
     2
178
     7
271
     2
340
148
  0
DIMSTYLE
105
17A
102
{ACAD_REACTORS
330
17B
102
}
330
A
100
AcDbSymbolTableRecord
100
AcDbDimStyleTableRecord
  2
ME10_DIM_12
 70
     0
 41
3.5
 42
0.0
 44
1.0
 73
     0
 74
     0
 77
     1
 78
     8
140
3.5
147
1.0
172
     1
173
     1
174
     1
175
     1
176
     2
177
     2
271
     2
178
     7
271
     2
340
148
  0
DIMSTYLE
105
185
102
{ACAD_REACTORS
330
186
102
}
330
A
100
AcDbSymbolTableRecord
100
AcDbDimStyleTableRecord
  2
ME10_DIM_13
 70
     0
 41
3.5
 42
0.0
 44
1.0
 73
     0
 74
     0
 77
     1
 78
     8
140
3.5
147
1.0
172
     1
173
     1
174
     1
175
     1
176
     2
177
     2
271
     2
178
     7
271
     2
340
148
  0
DIMSTYLE
105
191
102
{ACAD_REACTORS
330
192
102
}
330
A
100
AcDbSymbolTableRecord
100
AcDbDimStyleTableRecord
  2
ME10_DIM_14
 70
     0
  3
{\Fgdt;n}<>
 41
3.5
 42
0.0
 44
1.0
 73
     0
 74
     0
 77
     1
 78
     8
140
3.5
147
1.0
172
     1
173
     1
174
     1
175
     1
176
     2
177
     2
271
     2
178
     7
271
     2
340
148
  0
DIMSTYLE
105
19C
102
{ACAD_REACTORS
330
19D
102
}
330
A
100
AcDbSymbolTableRecord
100
AcDbDimStyleTableRecord
  2
ME10_DIM_15
 70
     0
 41
3.5
 42
0.0
 44
1.0
 73
     0
 74
     0
 77
     1
 78
     8
140
3.5
147
1.0
172
     1
173
     1
174
     1
175
     1
176
     2
177
     2
271
     2
178
     7
271
     2
340
148
  0
ENDTAB
  0
TABLE
  2
BLOCK_RECORD
  5
1
330
0
100
AcDbSymbolTable
 70
    11
  0
BLOCK_RECORD
  5
1F
330
1
100
AcDbSymbolTableRecord
100
AcDbBlockTableRecord
  2
*Model_Space
340
22
  0
BLOCK_RECORD
  5
1B
330
1
100
AcDbSymbolTableRecord
100
AcDbBlockTableRecord
  2
*Paper_Space
340
1E
  0
BLOCK_RECORD
  5
23
330
1
100
AcDbSymbolTableRecord
100
AcDbBlockTableRecord
  2
*Paper_Space0
340
26
  0
BLOCK_RECORD
  5
48
330
1
100
AcDbSymbolTableRecord
100
AcDbBlockTableRecord
  2
開示A4
340
0
102
{BLKREFS
331
4C
102
}
  0
BLOCK_RECORD
  5
4B
330
1
100
AcDbSymbolTableRecord
100
AcDbBlockTableRecord
  2
開示A4枠
340
0
102
{BLKREFS
331
52
102
}
  0
BLOCK_RECORD
  5
4F
330
1
100
AcDbSymbolTableRecord
100
AcDbBlockTableRecord
  2
T57
340
0
102
{BLKREFS
331
53
102
}
  0
BLOCK_RECORD
  5
15B
330
1
100
AcDbSymbolTableRecord
100
AcDbBlockTableRecord
  2
*D4
340
0
  0
BLOCK_RECORD
  5
166
330
1
100
AcDbSymbolTableRecord
100
AcDbBlockTableRecord
  2
*D5
340
0
  0
BLOCK_RECORD
  5
171
330
1
100
AcDbSymbolTableRecord
100
AcDbBlockTableRecord
  2
*D6
340
0
  0
BLOCK_RECORD
  5
17C
330
1
100
AcDbSymbolTableRecord
100
AcDbBlockTableRecord
  2
*D7
340
0
  0
BLOCK_RECORD
  5
187
330
1
100
AcDbSymbolTableRecord
100
AcDbBlockTableRecord
  2
*D8
340
0
  0
BLOCK_RECORD
  5
193
330
1
100
AcDbSymbolTableRecord
100
AcDbBlockTableRecord
  2
*D9
340
0
  0
BLOCK_RECORD
  5
19E
330
1
100
AcDbSymbolTableRecord
100
AcDbBlockTableRecord
  2
*D10
340
0
102
{BLKREFS
331
1A5
102
}
  0
ENDTAB
  0
ENDSEC
  0
SECTION
  2
BLOCKS
  0
BLOCK
  5
20
330
1F
100
AcDbEntity
  8
0
100
AcDbBlockBegin
  2
*Model_Space
 70
     0
 10
0.0
 20
0.0
 30
0.0
  3
*Model_Space
  1

  0
ENDBLK
  5
21
330
1F
100
AcDbEntity
  8
0
100
AcDbBlockEnd
  0
BLOCK
  5
1C
330
1B
100
AcDbEntity
 67
     1
  8
0
100
AcDbBlockBegin
  2
*Paper_Space
 70
     0
 10
0.0
 20
0.0
 30
0.0
  3
*Paper_Space
  1

  0
ENDBLK
  5
1D
330
1B
100
AcDbEntity
 67
     1
  8
0
100
AcDbBlockEnd
  0
BLOCK
  5
24
330
23
100
AcDbEntity
  8
0
100
AcDbBlockBegin
  2
*Paper_Space0
 70
     0
 10
0.0
 20
0.0
 30
0.0
  3
*Paper_Space0
  1

  0
ENDBLK
  5
25
330
23
100
AcDbEntity
  8
0
100
AcDbBlockEnd
  0
BLOCK
  5
49
330
48
100
AcDbEntity
  8
0
100
AcDbBlockBegin
  2
開示A4
 70
     0
 10
0.0
 20
0.0
 30
0.0
  3
開示A4
  1

  0
POINT
  5
54
330
48
100
AcDbEntity
  8
1
 62
     4
100
AcDbPoint
 10
183.0
 20
15.00000000000001
 30
0.0
  0
POINT
  5
55
330
48
100
AcDbEntity
  8
1
 62
     4
100
AcDbPoint
 10
93.75
 20
16.99999999999999
 30
0.0
  0
POINT
  5
56
330
48
100
AcDbEntity
  8
1
 62
     4
100
AcDbPoint
 10
85.25
 20
16.99999999999999
 30
0.0
  0
POINT
  5
57
330
48
100
AcDbEntity
  8
1
 62
     4
100
AcDbPoint
 10
106.5
 20
19.00000000000001
 30
0.0
  0
POINT
  5
58
330
48
100
AcDbEntity
  8
1
 62
     4
100
AcDbPoint
 10
106.5
 20
12.49999999999999
 30
0.0
  0
POINT
  5
59
330
48
100
AcDbEntity
  8
1
 62
     4
100
AcDbPoint
 10
112.25
 20
12.49999999999999
 30
0.0
  0
POINT
  5
5A
330
48
100
AcDbEntity
  8
1
 62
     4
100
AcDbPoint
 10
100.75
 20
12.49999999999999
 30
0.0
  0
POINT
  5
5B
330
48
100
AcDbEntity
  8
1
 62
     4
100
AcDbPoint
 10
123.5
 20
19.00000000000001
 30
0.0
  0
POINT
  5
5C
330
48
100
AcDbEntity
  8
1
 62
     4
100
AcDbPoint
 10
123.5
 20
12.49999999999999
 30
0.0
  0
POINT
  5
5D
330
48
100
AcDbEntity
  8
1
 62
     4
100
AcDbPoint
 10
129.25
 20
12.49999999999999
 30
0.0
  0
POINT
  5
5E
330
48
100
AcDbEntity
  8
1
 62
     4
100
AcDbPoint
 10
117.75
 20
12.49999999999999
 30
0.0
  0
POINT
  5
5F
330
48
100
AcDbEntity
  8
1
 62
     4
100
AcDbPoint
 10
140.5
 20
19.00000000000001
 30
0.0
  0
POINT
  5
60
330
48
100
AcDbEntity
  8
1
 62
     4
100
AcDbPoint
 10
140.5
 20
12.49999999999999
 30
0.0
  0
POINT
  5
61
330
48
100
AcDbEntity
  8
1
 62
     4
100
AcDbPoint
 10
146.25
 20
12.49999999999999
 30
0.0
  0
POINT
  5
62
330
48
100
AcDbEntity
  8
1
 62
     4
100
AcDbPoint
 10
134.75
 20
12.49999999999999
 30
0.0
  0
POINT
  5
63
330
48
100
AcDbEntity
  8
1
 62
     4
100
AcDbPoint
 10
151.75
 20
12.49999999999999
 30
0.0
  0
POINT
  5
64
330
48
100
AcDbEntity
  8
1
 62
     4
100
AcDbPoint
 10
163.2499999999999
 20
12.49999999999999
 30
0.0
  0
POINT
  5
65
330
48
100
AcDbEntity
  8
1
 62
     4
100
AcDbPoint
 10
157.4999999999999
 20
12.49999999999999
 30
0.0
  0
POINT
  5
66
330
48
100
AcDbEntity
  8
1
 62
     4
100
AcDbPoint
 10
57.0
 20
14.24999999999999
 30
0.0
  0
POINT
  5
67
330
48
100
AcDbEntity
  8
1
 62
     4
100
AcDbPoint
 10
57.0
 20
22.75000000000001
 30
0.0
  0
POINT
  5
68
330
48
100
AcDbEntity
  8
1
 62
     4
100
AcDbPoint
 10
47.5
 20
282.0000000000003
 30
0.0
  0
POINT
  5
69
330
48
100
AcDbEntity
  8
1
 62
     4
100
AcDbPoint
 10
157.4999999999999
 20
19.00000000000001
 30
0.0
  0
POINT
  5
6A
330
48
100
AcDbEntity
  8
1
 62
     4
100
AcDbPoint
 10
57.0
 20
16.24999999999999
 30
0.0
  0
POINT
  5
6B
330
48
100
AcDbEntity
  8
1
 62
     4
100
AcDbPoint
 10
57.0
 20
24.75000000000001
 30
0.0
  0
POINT
  5
6C
330
48
100
AcDbEntity
  8
1
 62
     4
100
AcDbPoint
 10
57.0
 20
20.75000000000001
 30
0.0
  0
POINT
  5
6D
330
48
100
AcDbEntity
  8
1
 62
     4
100
AcDbPoint
 10
57.0
 20
12.24999999999999
 30
0.0
  0
POINT
  5
6E
330
48
100
AcDbEntity
  8
1
 62
     4
100
AcDbPoint
 10
34.0
 20
34.00000000000001
 30
0.0
  0
LINE
  5
73
330
48
100
AcDbEntity
  8
1
  6
Continuous
 62
     7
100
AcDbLine
 10
105.0
 20
10.0
 30
0.0
 11
200.0
 21
10.0
 31
0.0
  0
LINE
  5
74
330
48
100
AcDbEntity
  8
1
  6
Continuous
 62
     2
100
AcDbLine
 10
105.0
 20
10.0
 30
0.0
 11
105.0
 21
5.0
 31
0.0
  0
LINE
  5
75
330
48
100
AcDbEntity
  8
1
  6
Continuous
 62
     7
100
AcDbLine
 10
200.0
 20
148.5
 30
0.0
 11
200.0
 21
287.0000000000003
 31
0.0
  0
LINE
  5
76
330
48
100
AcDbEntity
  8
1
  6
Continuous
 62
     2
100
AcDbLine
 10
200.0
 20
148.5
 30
0.0
 11
205.0
 21
148.5
 31
0.0
  0
LINE
  5
77
330
48
100
AcDbEntity
  8
1
  6
Continuous
 62
     7
100
AcDbLine
 10
25.0
 20
148.5
 30
0.0
 11
25.0
 21
287.0000000000003
 31
0.0
  0
LINE
  5
78
330
48
100
AcDbEntity
  8
1
  6
Continuous
 62
     2
100
AcDbLine
 10
25.0
 20
148.5
 30
0.0
 11
20.0
 21
148.5
 31
0.0
  0
LINE
  5
79
330
48
100
AcDbEntity
  8
1
  6
Continuous
 62
     7
100
AcDbLine
 10
105.0
 20
287.0000000000003
 30
0.0
 11
25.0
 21
287.0000000000003
 31
0.0
  0
LINE
  5
7A
330
48
100
AcDbEntity
  8
1
  6
Continuous
 62
     2
100
AcDbLine
 10
105.0
 20
287.0000000000003
 30
0.0
 11
105.0
 21
292.0000000000003
 31
0.0
  0
LINE
  5
7B
330
48
100
AcDbEntity
  8
1
  6
Continuous
 62
     2
100
AcDbLine
 10
165.9999999999999
 20
20.00000000000001
 30
0.0
 11
200.0
 21
20.00000000000001
 31
0.0
  0
LINE
  5
7C
330
48
100
AcDbEntity
  8
1
  6
Continuous
 62
     2
100
AcDbLine
 10
98.0
 20
27.00000000000001
 30
0.0
 11
98.0
 21
10.0
 31
0.0
  0
LINE
  5
7D
330
48
100
AcDbEntity
  8
1
  6
Continuous
 62
     2
100
AcDbLine
 10
115.0
 20
27.00000000000001
 30
0.0
 11
115.0
 21
10.0
 31
0.0
  0
LINE
  5
7E
330
48
100
AcDbEntity
  8
1
  6
Continuous
 62
     2
100
AcDbLine
 10
149.0
 20
27.00000000000001
 30
0.0
 11
149.0
 21
10.0
 31
0.0
  0
LINE
  5
7F
330
48
100
AcDbEntity
  8
1
  6
Continuous
 62
     2
100
AcDbLine
 10
132.0
 20
27.00000000000001
 30
0.0
 11
132.0
 21
9.99999999999999
 31
0.0
  0
LINE
  5
80
330
48
100
AcDbEntity
  8
1
  6
Continuous
 62
     2
100
AcDbLine
 10
165.9999999999999
 20
27.00000000000001
 30
0.0
 11
165.9999999999999
 21
10.0
 31
0.0
  0
LINE
  5
81
330
48
100
AcDbEntity
  8
1
  6
Continuous
 62
     2
100
AcDbLine
 10
55.0
 20
277.0000000000003
 30
0.0
 11
25.0
 21
277.0000000000003
 31
0.0
  0
LINE
  5
82
330
48
100
AcDbEntity
  8
1
  6
Continuous
 62
     7
100
AcDbLine
 10
25.0
 20
10.0
 30
0.0
 11
25.0
 21
148.5
 31
0.0
  0
LINE
  5
83
330
48
100
AcDbEntity
  8
1
  6
Continuous
 62
     2
100
AcDbLine
 10
40.0
 20
287.0000000000003
 30
0.0
 11
40.0
 21
277.0000000000003
 31
0.0
  0
LINE
  5
84
330
48
100
AcDbEntity
  8
1
  6
Continuous
 62
     2
100
AcDbLine
 10
55.0
 20
287.0000000000003
 30
0.0
 11
55.0
 21
277.0000000000003
 31
0.0
  0
LINE
  5
85
330
48
100
AcDbEntity
  8
1
  6
Continuous
 62
     2
100
AcDbLine
 10
33.0
 20
41.00000000000001
 30
0.0
 11
33.0
 21
26.99999999999999
 31
0.0
  0
LINE
  5
86
330
48
100
AcDbEntity
  8
1
  6
Continuous
 62
     7
100
AcDbLine
 10
200.0
 20
27.00000000000001
 30
0.0
 11
25.0
 21
27.00000000000001
 31
0.0
  0
LINE
  5
87
330
48
100
AcDbEntity
  8
1
  6
Continuous
 62
     7
100
AcDbLine
 10
25.0
 20
40.99999999999999
 30
0.0
 11
200.0
 21
40.99999999999999
 31
0.0
  0
LINE
  5
88
330
48
100
AcDbEntity
  8
1
  6
PHANTOM
 62
     4
100
AcDbLine
 10
0.0
 20
0.0
 30
0.0
 11
210.0
 21
0.0
 31
0.0
  0
LINE
  5
89
330
48
100
AcDbEntity
  8
1
  6
PHANTOM
 62
     4
100
AcDbLine
 10
210.0
 20
0.0
 30
0.0
 11
210.0
 21
297.0
 31
0.0
  0
LINE
  5
8A
330
48
100
AcDbEntity
  8
1
  6
PHANTOM
 62
     4
100
AcDbLine
 10
210.0
 20
297.0
 30
0.0
 11
0.0
 21
297.0
 31
0.0
  0
LINE
  5
8B
330
48
100
AcDbEntity
  8
1
  6
PHANTOM
 62
     4
100
AcDbLine
 10
0.0
 20
297.0
 30
0.0
 11
0.0
 21
0.0
 31
0.0
  0
LINE
  5
8C
330
48
100
AcDbEntity
  8
1
  6
Continuous
 62
     7
100
AcDbLine
 10
25.0
 20
10.0
 30
0.0
 11
105.0
 21
10.0
 31
0.0
  0
LINE
  5
8D
330
48
100
AcDbEntity
  8
1
  6
Continuous
 62
     7
100
AcDbLine
 10
200.0
 20
10.0
 30
0.0
 11
200.0
 21
148.5
 31
0.0
  0
LINE
  5
8E
330
48
100
AcDbEntity
  8
1
  6
Continuous
 62
     7
100
AcDbLine
 10
200.0
 20
287.0000000000003
 30
0.0
 11
105.0
 21
287.0000000000003
 31
0.0
  0
LINE
  5
8F
330
48
100
AcDbEntity
  8
1
  6
Continuous
 62
     2
100
AcDbLine
 10
25.0
 20
18.50000000000001
 30
0.0
 11
81.0
 21
18.50000000000001
 31
0.0
  0
LINE
  5
90
330
48
100
AcDbEntity
  8
1
  6
Continuous
 62
     2
100
AcDbLine
 10
33.0
 20
26.99999999999999
 30
0.0
 11
33.0
 21
10.0
 31
0.0
  0
LINE
  5
91
330
48
100
AcDbEntity
  8
1
  6
Continuous
 62
     7
100
AcDbLine
 10
191.0
 20
24.7
 30
0.0
 11
191.0
 21
22.30000000000001
 31
0.0
  0
LINE
  5
92
330
48
100
AcDbEntity
  8
1
  6
Continuous
 62
     7
100
AcDbLine
 10
191.0
 20
24.7
 30
0.0
 11
196.0
 21
25.50000000000001
 31
0.0
  0
LINE
  5
93
330
48
100
AcDbEntity
  8
1
  6
Continuous
 62
     7
100
AcDbLine
 10
196.0
 20
25.50000000000001
 30
0.0
 11
196.0
 21
21.50000000000001
 31
0.0
  0
LINE
  5
94
330
48
100
AcDbEntity
  8
1
  6
Continuous
 62
     7
100
AcDbLine
 10
196.0
 20
21.50000000000001
 30
0.0
 11
191.0
 21
22.30000000000001
 31
0.0
  0
LINE
  5
95
330
48
100
AcDbEntity
  8
1
  6
DOT_CENTER
 62
     2
100
AcDbLine
 10
184.0
 20
23.50000000000001
 30
0.0
 11
197.0
 21
23.50000000000001
 31
0.0
  0
LINE
  5
96
330
48
100
AcDbEntity
  8
1
  6
DOT_CENTER
 62
     2
100
AcDbLine
 10
187.0
 20
26.50000000000001
 30
0.0
 11
187.0
 21
20.50000000000001
 31
0.0
  0
LINE
  5
97
330
48
100
AcDbEntity
  8
1
  6
Continuous
 62
     2
100
AcDbLine
 10
81.0
 20
27.00000000000001
 30
0.0
 11
81.0
 21
10.0
 31
0.0
  0
CIRCLE
  5
98
330
48
100
AcDbEntity
  8
1
  6
Continuous
 62
     7
100
AcDbCircle
 10
103.5
 20
12.49999999999999
 30
0.0
 40
0.2999999999999972
  0
CIRCLE
  5
99
330
48
100
AcDbEntity
  8
1
  6
Continuous
 62
     7
100
AcDbCircle
 10
109.5
 20
12.49999999999999
 30
0.0
 40
0.2999999999999972
  0
CIRCLE
  5
9A
330
48
100
AcDbEntity
  8
1
  6
Continuous
 62
     7
100
AcDbCircle
 10
120.5
 20
12.49999999999999
 30
0.0
 40
0.2999999999999972
  0
CIRCLE
  5
9B
330
48
100
AcDbEntity
  8
1
  6
Continuous
 62
     7
100
AcDbCircle
 10
126.5
 20
12.49999999999999
 30
0.0
 40
0.2999999999999972
  0
CIRCLE
  5
9C
330
48
100
AcDbEntity
  8
1
  6
Continuous
 62
     7
100
AcDbCircle
 10
137.5
 20
12.49999999999999
 30
0.0
 40
0.3000000000000114
  0
CIRCLE
  5
9D
330
48
100
AcDbEntity
  8
1
  6
Continuous
 62
     7
100
AcDbCircle
 10
143.5
 20
12.49999999999999
 30
0.0
 40
0.3000000000000114
  0
CIRCLE
  5
9E
330
48
100
AcDbEntity
  8
1
  6
Continuous
 62
     7
100
AcDbCircle
 10
160.4999999999999
 20
12.49999999999999
 30
0.0
 40
0.3000000000002103
  0
CIRCLE
  5
9F
330
48
100
AcDbEntity
  8
1
  6
Continuous
 62
     7
100
AcDbCircle
 10
154.4999999999999
 20
12.49999999999999
 30
0.0
 40
0.3000000000002103
  0
CIRCLE
  5
A0
330
48
100
AcDbEntity
  8
1
  6
Continuous
 62
     7
100
AcDbCircle
 10
187.0
 20
23.50000000000001
 30
0.0
 40
1.200000000000102
  0
CIRCLE
  5
A1
330
48
100
AcDbEntity
  8
1
  6
Continuous
 62
     7
100
AcDbCircle
 10
187.0
 20
23.50000000000001
 30
0.0
 40
2.0
  0
CIRCLE
  5
A2
330
48
100
AcDbEntity
  8
1
  6
DOT_CENTER
 62
     7
100
AcDbCircle
 10
89.5
 20
15.99999999999999
 30
0.0
 40
0.1000000000000227
  0
CIRCLE
  5
A3
330
48
100
AcDbEntity
  8
1
  6
DOT_CENTER
 62
     7
100
AcDbCircle
 10
89.5
 20
17.99999999999999
 30
0.0
 40
0.1000000000000227
  0
SPLINE
  5
A4
102
{ACAD_REACTORS
330
C3
102
}
330
48
100
AcDbEntity
  8
_U_30EC_U_30A4_U_30E4_U_30FC_1
  6
Continuous
 62
     2
100
AcDbSpline
210
0.0
220
0.0
230
1.0
 70
     8
 71
     3
 72
    24
 73
    20
 74
    18
 42
0.000000001
 43
0.0000000001
 44
0.00000001
 40
0.0
 40
0.0
 40
0.0
 40
0.0
 40
0.2211075008754101
 40
0.4273218586245505
 40
0.5080174679239798
 40
0.591483590787065
 40
0.8143265690193074
 40
1.054651302686614
 40
1.295452694023209
 40
1.51810923132887
 40
1.540864321905486
 40
1.595126460622747
 40
1.65989094789606
 40
1.714153085187446
 40
1.736908174961719
 40
1.764951100735423
 40
1.801562291220985
 40
1.953914424543677
 40
2.12610416737974
 40
2.12610416737974
 40
2.12610416737974
 40
2.12610416737974
 10
185.937536955689
 20
15.58989295113017
 30
0.0
 10
185.9112579081812
 20
15.53097628234374
 30
0.0
 10
185.8604698894426
 20
15.41711139679258
 30
0.0
 10
185.8131784839112
 20
15.14441958233114
 30
0.0
 10
185.7043482802619
 20
15.24445482575454
 30
0.0
 10
185.5514800279637
 20
15.27118593367329
 30
0.0
 10
185.76861551812
 20
15.48518135017632
 30
0.0
 10
185.783848367438
 20
15.70332117782486
 30
0.0
 10
185.8906889492002
 20
15.88451579066426
 30
0.0
 10
185.8305380947077
 20
16.16913226311402
 30
0.0
 10
185.9334317395403
 20
16.14114089222451
 30
0.0
 10
185.9779933468151
 20
16.13243251602299
 30
0.0
 10
186.0380842395397
 20
16.12139654183354
 30
0.0
 10
186.0756619587439
 20
16.10767523055561
 30
0.0
 10
186.1252466928606
 20
16.1075607616022
 30
0.0
 10
186.0930158919325
 20
16.07306592398625
 30
0.0
 10
186.0171802221883
 20
16.0840410453796
 30
0.0
 10
186.0429447159693
 20
15.89858969582452
 30
0.0
 10
186.005589676385
 20
15.80702313549589
 30
0.0
 10
185.985770496161
 20
15.75844135397705
 30
0.0
 11
185.937536955689
 21
15.58989295113017
 31
0.0
 11
185.8616471328553
 21
15.38221708318559
 31
0.0
 11
185.7717402238434
 21
15.19663392356191
 31
0.0
 11
185.701149392311
 21
15.2357327256355
 31
0.0
 11
185.6245525192652
 21
15.26889163187718
 31
0.0
 11
185.7214026947456
 21
15.46958801203537
 31
0.0
 11
185.7994641467471
 21
15.69688163177024
 31
0.0
 11
185.8589716929721
 21
15.93021436608691
 31
0.0
 11
185.9001601511227
 21
16.14902808999054
 31
0.0
 11
185.9224183822215
 21
16.14429889221395
 31
0.0
 11
185.9754957025341
 21
16.13302157443899
 31
0.0
 11
186.0388460525845
 21
16.11956154999792
 31
0.0
 11
186.0919233728971
 21
16.10828423222296
 31
0.0
 11
186.1141816039959
 21
16.10355503444637
 31
0.0
 11
186.0964097157461
 21
16.0818625084101
 31
0.0
 11
186.0606122998072
 21
16.07418628445367
 31
0.0
 11
186.028195330148
 21
15.92532288171313
 31
0.0
 11
185.985770496161
 21
15.75844135397705
 31
0.0
  0
SPLINE
  5
A5
102
{ACAD_REACTORS
330
C3
102
}
330
48
100
AcDbEntity
  8
_U_30EC_U_30A4_U_30E4_U_30FC_1
  6
Continuous
 62
     2
100
AcDbSpline
210
0.0
220
0.0
230
1.0
 70
     8
 71
     3
 72
    70
 73
    66
 74
    64
 42
0.000000001
 43
0.0000000001
 44
0.00000001
 40
0.0
 40
0.0
 40
0.0
 40
0.0
 40
0.0241731073021472
 40
0.0846058988987297
 40
0.1631685280353284
 40
0.2417311571789756
 40
0.3021639488292751
 40
0.3263370654895825
 40
0.3533118254249165
 40
0.4228783438922395
 40
0.5179999095313687
 40
0.6216398239466386
 40
0.716761389149999
 40
0.7863279069650148
 40
0.813302679176212
 40
0.8372943998771958
 40
0.894505426137287
 40
0.962789554196264
 40
1.020000580349074
 40
1.043992300975172
 40
1.071934345522902
 40
1.113121768772915
 40
1.14522519933224
 40
1.225483775412775
 40
1.329819923771483
 40
1.434156071994373
 40
1.514414647795794
 40
1.546518078208402
 40
1.578974764260204
 40
1.662678849314142
 40
1.777131373668391
 40
1.901833377474782
 40
2.016285900500572
 40
2.099989982527939
 40
2.132446666570297
 40
2.158782354486023
 40
2.216720867907817
 40
2.274659381334242
 40
2.300995069256178
 40
2.33345175406615
 40
2.417155836543831
 40
2.53160835898527
 40
2.656310362283765
 40
2.770762886388898
 40
2.854466971340063
 40
2.886923657363869
 40
2.913597976833302
 40
2.982389642875104
 40
3.076451716946966
 40
3.17893726045858
 40
3.272999334739982
 40
3.341791001059201
 40
3.368465320663514
 40
3.396976080738735
 40
3.472140811845943
 40
3.578408190308632
 40
3.70022689245604
 40
3.822045594634258
 40
3.928312973256336
 40
4.003477705314733
 40
4.031988456866799
 40
4.058324144797599
 40
4.11626265823676
 40
4.174201171400556
 40
4.20053684960849
 40
4.20053684960849
 40
4.20053684960849
 40
4.20053684960849
 10
185.985770496161
 20
15.75844135397705
 30
0.0
 10
185.993825954468
 20
15.75844359811686
 30
0.0
 10
186.0220200663242
 20
15.75845146032798
 30
0.0
 10
186.0765534803674
 20
15.75830754828372
 30
0.0
 10
186.1482891808604
 20
15.75909120499898
 30
0.0
 10
186.2236240137063
 20
15.75627570463811
 30
0.0
 10
186.2713052366439
 20
15.76298403400957
 30
0.0
 10
186.3195071245617
 20
15.75197563692432
 30
0.0
 10
186.3062571799875
 20
15.80546402997033
 30
0.0
 10
186.3151093964538
 20
15.86049583543092
 30
0.0
 10
186.3108698036287
 20
15.95419908726109
 30
0.0
 10
186.313348348128
 20
16.04959482218532
 30
0.0
 10
186.3090938706062
 20
16.14356821983387
 30
0.0
 10
186.3179818665847
 20
16.19795062438012
 30
0.0
 10
186.3046977409946
 20
16.25233997691461
 30
0.0
 10
186.351411927711
 20
16.23842216335358
 30
0.0
 10
186.3943254545738
 20
16.24103877374043
 30
0.0
 10
186.4605443456685
 20
16.23648422450754
 30
0.0
 10
186.50133422718
 20
16.22778162134162
 30
0.0
 10
186.5525145690819
 20
16.23531799890194
 30
0.0
 10
186.5253720487201
 20
16.19349970223285
 30
0.0
 10
186.4803096055708
 20
16.20284992072596
 30
0.0
 10
186.4942065045051
 20
16.13841207371837
 30
0.0
 10
186.4858414431655
 20
16.07378219627399
 30
0.0
 10
186.4903632178399
 20
15.97529141193887
 30
0.0
 10
186.4854741311168
 20
15.8759593284257
 30
0.0
 10
186.4950258992082
 20
15.81293115552968
 30
0.0
 10
186.4799761455201
 20
15.74964011499788
 30
0.0
 10
186.5449159457209
 20
15.76515072944268
 30
0.0
 10
186.6116246399498
 20
15.75499387697813
 30
0.0
 10
186.7241435470827
 20
15.75988800099367
 30
0.0
 10
186.8390235448954
 20
15.75691204732784
 30
0.0
 10
186.9519871999748
 20
15.76221664184991
 30
0.0
 10
187.0176267597678
 20
15.75107306472089
 30
0.0
 10
187.0816276691054
 20
15.76744532319858
 30
0.0
 10
187.070314288919
 20
15.71761689905274
 30
0.0
 10
187.077533987151
 20
15.67416715212122
 30
0.0
 10
187.070314261127
 20
15.63071745587444
 30
0.0
 10
187.0816277175994
 20
15.58088895196875
 30
0.0
 10
187.0176263598972
 20
15.59726166091362
 30
0.0
 10
186.951992124046
 20
15.58611271661587
 30
0.0
 10
186.8389974317331
 20
15.59144857206853
 30
0.0
 10
186.7242456548644
 20
15.58834345663821
 30
0.0
 10
186.6113183686862
 20
15.59364894682587
 30
0.0
 10
186.5455220903585
 20
15.58257300019592
 30
0.0
 10
186.4816097975359
 20
15.59887597847617
 30
0.0
 10
186.4936015165127
 20
15.5442352439574
 30
0.0
 10
186.4862104613006
 20
15.48854295047841
 30
0.0
 10
186.4892684841983
 20
15.39649689140569
 30
0.0
 10
186.4893422785684
 20
15.30179109873101
 30
0.0
 10
186.4860313578361
 20
15.20952782902265
 30
0.0
 10
186.4939505989903
 20
15.15435768736139
 30
0.0
 10
186.4815076611618
 20
15.10058169100136
 30
0.0
 10
186.5389116551633
 20
15.11453768862781
 30
0.0
 10
186.5994708140383
 20
15.10511457884226
 30
0.0
 10
186.7048680855081
 20
15.10942885928704
 30
0.0
 10
186.8204294070623
 20
15.10835504612031
 30
0.0
 10
186.9359688877797
 20
15.10725965900994
 30
0.0
 10
187.0414181130841
 20
15.11162525770632
 30
0.0
 10
187.1018680471804
 20
15.1020942603067
 30
0.0
 10
187.159283773911
 20
15.11617289606379
 30
0.0
 10
187.1477773876709
 20
15.06707153265682
 30
0.0
 10
187.1537566781749
 20
15.02564658018649
 30
0.0
 10
187.1520311050802
 20
14.97651677966696
 30
0.0
 10
187.1521500122971
 20
14.94854428447608
 30
0.0
 10
187.1521871691833
 20
14.9398028819595
 30
0.0
 11
185.985770496161
 21
15.75844135397705
 31
0.0
 11
186.0099436128282
 21
15.75844135397705
 31
0.0
 11
186.0703764044964
 21
15.75844135397705
 31
0.0
 11
186.1489390336649
 21
15.75844135397705
 31
0.0
 11
186.2275016628334
 21
15.75844135397705
 31
0.0
 11
186.2879344545015
 21
15.75844135397705
 31
0.0
 11
186.3121075711688
 21
15.75844135397705
 31
0.0
 11
186.3121075711688
 21
15.78541612620063
 31
0.0
 11
186.3121075711688
 21
15.85498264404039
 31
0.0
 11
186.3121075711688
 21
15.95010420924985
 31
0.0
 11
186.3121075711688
 21
16.05374412358256
 31
0.0
 11
186.3121075711688
 21
16.14886568879202
 31
0.0
 11
186.3121075711688
 21
16.21843220663178
 31
0.0
 11
186.3121075711688
 21
16.24540697885536
 31
0.0
 11
186.3360407604893
 21
16.243732131078
 31
0.0
 11
186.3931122119459
 21
16.23973826330121
 31
0.0
 11
186.4612297507811
 21
16.23497138885795
 31
0.0
 11
186.5183012022377
 21
16.23097752108117
 31
0.0
 11
186.5422343915582
 21
16.22930267330381
 31
0.0
 11
186.527497273123
 21
16.2055629337264
 31
0.0
 11
186.4886640249977
 21
16.19183767331312
 31
0.0
 11
186.4886640249977
 21
16.15973424225119
 31
0.0
 11
186.4886640249977
 21
16.07947566459636
 31
0.0
 11
186.4886640249977
 21
15.97513951364509
 31
0.0
 11
186.4886640249977
 21
15.87080336269381
 31
0.0
 11
186.4886640249977
 21
15.79054478503898
 31
0.0
 11
186.4886640249977
 21
15.75844135397705
 31
0.0
 11
186.5211207110825
 21
15.75844135397705
 31
0.0
 11
186.6048247962486
 21
15.75844135397705
 31
0.0
 11
186.7192773208635
 21
15.75844135397705
 31
0.0
 11
186.8439793252947
 21
15.75844135397705
 31
0.0
 11
186.9584318499095
 21
15.75844135397705
 31
0.0
 11
187.0421359350757
 21
15.75844135397705
 31
0.0
 11
187.0745926211605
 21
15.75844135397705
 31
0.0
 11
187.0745926211605
 21
15.73210566604961
 31
0.0
 11
187.0745926211605
 21
15.67416715260924
 31
0.0
 11
187.0745926211605
 21
15.61622863916887
 31
0.0
 11
187.0745926211605
 21
15.58989295124143
 31
0.0
 11
187.0421359350757
 21
15.58989295124143
 31
0.0
 11
186.9584318499095
 21
15.58989295124143
 31
0.0
 11
186.8439793252947
 21
15.58989295124143
 31
0.0
 11
186.7192773208635
 21
15.58989295124143
 31
0.0
 11
186.6048247962486
 21
15.58989295124143
 31
0.0
 11
186.5211207110825
 21
15.58989295124143
 31
0.0
 11
186.4886640249977
 21
15.58989295124143
 31
0.0
 11
186.4886640249977
 21
15.56321863152021
 31
0.0
 11
186.4886640249977
 21
15.49442696487074
 31
0.0
 11
186.4886640249977
 21
15.40036489006433
 31
0.0
 11
186.4886640249977
 21
15.29787934587227
 31
0.0
 11
186.4886640249977
 21
15.20381727106586
 31
0.0
 11
186.4886640249977
 21
15.13502560441639
 31
0.0
 11
186.4886640249977
 21
15.10835128469517
 31
0.0
 11
186.5171747850994
 21
15.10835128469517
 31
0.0
 11
186.5923395162767
 21
15.10835128469517
 31
0.0
 11
186.6986068948377
 21
15.10835128469517
 31
0.0
 11
186.8204255970905
 21
15.10835128469517
 31
0.0
 11
186.9422442993433
 21
15.10835128469517
 31
0.0
 11
187.0485116779043
 21
15.10835128469517
 31
0.0
 11
187.1236764090816
 21
15.10835128469517
 31
0.0
 11
187.1521871691833
 21
15.10835128469517
 31
0.0
 11
187.1521871691833
 21
15.08201559676772
 31
0.0
 11
187.1521871691833
 21
15.02407708332733
 31
0.0
 11
187.1521871691833
 21
14.96613856988695
 31
0.0
 11
187.1521871691833
 21
14.9398028819595
 31
0.0
  0
SPLINE
  5
A6
102
{ACAD_REACTORS
330
C3
102
}
330
48
100
AcDbEntity
  8
_U_30EC_U_30A4_U_30E4_U_30FC_1
  6
Continuous
 62
     2
100
AcDbSpline
210
0.0
220
0.0
230
1.0
 70
     8
 71
     3
 72
    62
 73
    58
 74
    56
 42
0.000000001
 43
0.0000000001
 44
0.00000001
 40
0.0
 40
0.0
 40
0.0
 40
0.0
 40
0.0598250028308485
 40
0.2024846486897331
 40
0.3727558389221031
 40
0.515415484793607
 40
0.5752404975785339
 40
0.9332326775487413
 40
1.290451762839508
 40
1.60207725314593
 40
1.699931634112201
 40
1.79935975642516
 40
2.270120149657157
 40
2.804661928461599
 40
2.882342287383308
 40
3.076543185719158
 40
3.329004354835618
 40
3.581465524568443
 40
3.775666424543724
 40
3.853346784558344
 40
3.899120679595118
 40
3.984129341792059
 40
4.029903236817407
 40
4.105797496059564
 40
4.295533144152524
 40
4.542189486611765
 40
4.788845828875711
 40
4.978581476410097
 40
5.05447573524434
 40
5.621734664339376
 40
6.130867242037385
 40
6.225249780948648
 40
6.318913039727375
 40
6.663579954559046
 40
7.047498900224901
 40
7.4352307915758
 40
7.498943906668212
 40
7.650875181210149
 40
7.832212509001631
 40
7.984143783697017
 40
8.047856898903145
 40
8.09155463273265
 40
8.17270756696431
 40
8.21640530076803
 40
8.289021782160916
 40
8.46218416075726
 40
8.668861838005427
 40
8.84202421526399
 40
8.914640695475185
 40
8.989881580861388
 40
9.155411528827292
 40
9.320941477744075
 40
9.396182352487324
 40
9.454709011143814
 40
9.583467660170834
 40
9.712226309013056
 40
9.770752957989538
 40
9.770752957989538
 40
9.770752957989538
 40
9.770752957989538
 10
187.1521871691833
 20
14.9398028819595
 30
0.0
 10
187.1322348171623
 20
14.93980875568671
 30
0.0
 10
187.0647037716466
 20
14.93982863806157
 30
0.0
 10
186.9410612161788
 20
14.93949362520326
 30
0.0
 10
186.7863180150056
 20
14.94107673750512
 30
0.0
 10
186.669734948248
 20
14.93686078860495
 30
0.0
 10
186.4550942634239
 20
14.95215205331626
 30
0.0
 10
186.8518948407229
 20
14.59198721286191
 30
0.0
 10
186.8945656069268
 20
14.37510503397167
 30
0.0
 10
187.3189162146612
 20
14.19325062511444
 30
0.0
 10
187.1439821496074
 20
14.08985196568073
 30
0.0
 10
187.0194523925083
 20
13.87831523212727
 30
0.0
 10
186.7666277235944
 20
14.34806081001562
 30
0.0
 10
186.4797602893625
 20
14.9951151698452
 30
0.0
 10
186.4906335926662
 20
14.68782672154693
 30
0.0
 10
186.488289277796
 20
14.52288616971777
 30
0.0
 10
186.4861096126412
 20
14.28879670711693
 30
0.0
 10
186.4980774396348
 20
14.04498072421783
 30
0.0
 10
186.4687984740632
 20
13.89855796860984
 30
0.0
 10
186.511452262547
 20
13.75113490174537
 30
0.0
 10
186.423981400564
 20
13.7668579730622
 30
0.0
 10
186.3768527606745
 20
13.76694303543455
 30
0.0
 10
186.2898973207714
 20
13.75109425482909
 30
0.0
 10
186.3313474021725
 20
13.89527771422763
 30
0.0
 10
186.3029875004285
 20
14.03855052698455
 30
0.0
 10
186.31459737753
 20
14.27674947365265
 30
0.0
 10
186.3124175648273
 20
14.50517235240346
 30
0.0
 10
186.3103111127995
 20
14.66705729375994
 30
0.0
 10
186.3208035438324
 20
14.98153709333753
 30
0.0
 10
186.0128963252894
 20
14.29229470872435
 30
0.0
 10
185.7055258267457
 20
13.81476750243054
 30
0.0
 10
185.5851367066275
 20
14.03741112637428
 30
0.0
 10
185.4074607910721
 20
14.15011034955561
 30
0.0
 10
185.8853326362895
 20
14.32548143465461
 30
0.0
 10
185.9353959057208
 20
14.56091929252028
 30
0.0
 10
186.3583799621717
 20
14.95322989344608
 30
0.0
 10
186.127675427354
 20
14.93655307029065
 30
0.0
 10
186.0049685859341
 20
14.94269518948771
 30
0.0
 10
185.8325483095663
 20
14.93312822699574
 30
0.0
 10
185.7213224694449
 20
14.95448818489665
 30
0.0
 10
185.6025779627449
 20
14.9213626535742
 30
0.0
 10
185.6183169706686
 20
15.00203900606883
 30
0.0
 10
185.6178550933763
 20
15.04645414290854
 30
0.0
 10
185.6027881889932
 20
15.12967081778533
 30
0.0
 10
185.7372380935444
 20
15.09062651983883
 30
0.0
 10
185.8619755545747
 20
15.11739729328422
 30
0.0
 10
186.0628755237281
 20
15.10063949044051
 30
0.0
 10
186.1921540949354
 20
15.12204225913004
 30
0.0
 10
186.3328419928296
 20
15.0886877885342
 30
0.0
 10
186.2980927452617
 20
15.22651875785067
 30
0.0
 10
186.3222185666713
 20
15.3496325734948
 30
0.0
 10
186.2967086182394
 20
15.47024055670335
 30
0.0
 10
186.3333251146686
 20
15.60539865141492
 30
0.0
 10
186.2211417027771
 20
15.58094545781889
 30
0.0
 10
186.1280356457138
 20
15.59307749842021
 30
0.0
 10
186.0191547579821
 20
15.58957630069993
 30
0.0
 10
185.9569697640965
 20
15.58981755951601
 30
0.0
 10
185.9375369557247
 20
15.58989295124143
 30
0.0
 11
187.1521871691833
 21
14.9398028819595
 31
0.0
 11
187.0923621563982
 21
14.9398028819595
 31
0.0
 11
186.949702510526
 21
14.9398028819595
 31
0.0
 11
186.7794313202913
 21
14.9398028819595
 31
0.0
 11
186.6367716744191
 21
14.9398028819595
 31
0.0
 11
186.576946661634
 21
14.9398028819595
 31
0.0
 11
186.7679960754843
 21
14.63705127966891
 31
0.0
 11
186.994127278563
 21
14.36051890576684
 31
0.0
 11
187.2244526173372
 21
14.15061253493457
 31
0.0
 11
187.1521596330704
 21
14.08466403668717
 31
0.0
 11
187.0879364402643
 21
14.0087605905256
 31
0.0
 11
186.7732818215559
 21
14.35891458349362
 31
0.0
 11
186.4886640249977
 21
14.811382951436
 31
0.0
 11
186.4886640249977
 21
14.73370259137312
 31
0.0
 11
186.4886640249977
 21
14.53950169121592
 31
0.0
 11
186.4886640249977
 21
14.28704052101156
 31
0.0
 11
186.4886640249977
 21
14.0345793508072
 31
0.0
 11
186.4886640249977
 21
13.84037845065
 31
0.0
 11
186.4886640249977
 21
13.76269809058712
 31
0.0
 11
186.4428901295606
 21
13.76269809058712
 31
0.0
 11
186.3578814666059
 21
13.76269809058712
 31
0.0
 11
186.3121075711688
 21
13.76269809058712
 31
0.0
 11
186.3121075711688
 21
13.8385923498274
 31
0.0
 11
186.3121075711688
 21
14.02832799792811
 31
0.0
 11
186.3121075711688
 21
14.27498434045904
 31
0.0
 11
186.3121075711688
 21
14.52164068298996
 31
0.0
 11
186.3121075711688
 21
14.71137633109067
 31
0.0
 11
186.3121075711688
 21
14.78727059033095
 31
0.0
 11
185.9987626399267
 21
14.31440946197693
 31
0.0
 11
185.6352328662149
 21
13.95795177109382
 31
0.0
 11
185.5773927461628
 21
14.03253450545022
 31
0.0
 11
185.5094852305341
 21
14.09704322939241
 31
0.0
 11
185.775072189832
 21
14.31672219795889
 31
0.0
 11
186.0233764972062
 21
14.60953395971698
 31
0.0
 11
186.226498280526
 21
14.9398028819595
 31
0.0
 11
186.1627851652721
 21
14.9398028819595
 31
0.0
 11
186.0108538904359
 21
14.9398028819595
 31
0.0
 11
185.8295165624056
 21
14.9398028819595
 31
0.0
 11
185.6775852875694
 21
14.9398028819595
 31
0.0
 11
185.6138721723155
 21
14.9398028819595
 31
0.0
 11
185.6138721723155
 21
14.98350061600208
 31
0.0
 11
185.6138721723155
 21
15.06465355065259
 31
0.0
 11
185.6138721723155
 21
15.10835128469517
 31
0.0
 11
185.6864886537962
 21
15.10835128469517
 31
0.0
 11
185.8596510327119
 21
15.10835128469517
 31
0.0
 11
186.0663287107725
 21
15.10835128469517
 31
0.0
 11
186.2394910896881
 21
15.10835128469517
 31
0.0
 11
186.3121075711688
 21
15.10835128469517
 31
0.0
 11
186.3121075711688
 21
15.18359217009302
 31
0.0
 11
186.3121075711688
 21
15.3491221179683
 31
0.0
 11
186.3121075711688
 21
15.51465206584358
 31
0.0
 11
186.3121075711688
 21
15.58989295124143
 31
0.0
 11
186.2535809125057
 21
15.58989295124143
 31
0.0
 11
186.1248222634468
 21
15.58989295124143
 31
0.0
 11
185.9960636143879
 21
15.58989295124143
 31
0.0
 11
185.9375369557247
 21
15.58989295124143
 31
0.0
  0
SPLINE
  5
A7
102
{ACAD_REACTORS
330
C4
102
}
330
48
100
AcDbEntity
  8
_U_30EC_U_30A4_U_30E4_U_30FC_1
  6
Continuous
 62
     2
100
AcDbSpline
210
0.0
220
0.0
230
1.0
 70
    11
 71
     3
 72
   124
 73
   120
 74
   118
 42
0.000000001
 43
0.0000000001
 44
0.00000001
 40
0.0
 40
0.0
 40
0.0
 40
0.0
 40
0.0278187229624226
 40
0.1011590162383985
 40
0.2048470170590239
 40
0.3237088716558961
 40
0.4425707262522
 40
0.5462587270699263
 40
0.6195990203312082
 40
0.647417752257866
 40
0.6750060736115224
 40
0.7357003855242759
 40
0.7963946998054492
 40
0.8239830245571784
 40
0.8540933811103162
 40
0.9373396629409274
 40
1.063094687343237
 40
1.220731268638075
 40
1.399622220914749
 40
1.589140358637762
 40
1.778658496423843
 40
1.957549448940539
 40
2.115186030873132
 40
2.240941056914465
 40
2.324187341760534
 40
2.354297700109384
 40
2.38188602467189
 40
2.442580338710479
 40
2.503274652750503
 40
2.53086297731461
 40
2.560983949278563
 40
2.640393784452908
 40
2.752662861759132
 40
2.88136156011812
 40
3.010060258455167
 40
3.122329335705371
 40
3.201739170817928
 40
3.231860142753317
 40
3.264298024030372
 40
3.352343701778243
 40
3.482095226868764
 40
3.639650650173022
 40
3.811108022565477
 40
3.982565394927982
 40
4.140120818152561
 40
4.269872343141269
 40
4.357918020802329
 40
4.390355902043958
 40
4.423256253992528
 40
4.50810453007302
 40
4.624121560636788
 40
4.750528176031517
 40
4.866545206601992
 40
4.951393482691949
 40
4.98429383464535
 40
5.011450833242267
 40
5.071196230152057
 40
5.130941627057136
 40
5.158098625648804
 40
5.190998977601466
 40
5.275847253689292
 40
5.391864284256754
 40
5.518270899648271
 40
5.634287930209282
 40
5.719136206287955
 40
5.752036558235871
 40
5.782130946282897
 40
5.862783906229072
 40
5.979550131774938
 40
6.117984316640345
 40
6.26364115458789
 40
6.402075339414096
 40
6.51884156490789
 40
6.599494524815472
 40
6.62958891284871
 40
6.654403028226286
 40
6.713575149488053
 40
6.784199939329398
 40
6.8433720604935
 40
6.868186175802718
 40
6.896246243201828
 40
6.93958623375817
 40
6.967846564564798
 40
7.043584251089737
 40
7.153234334451595
 40
7.283231855734345
 40
7.420011856035378
 40
7.55000937657973
 40
7.659659458835129
 40
7.735397144417123
 40
7.763657474851295
 40
7.796409728010952
 40
7.880876065096226
 40
7.996370852465612
 40
8.122208446418506
 40
8.2377032247991
 40
8.322169562010822
 40
8.354921815205808
 40
8.38207881330759
 40
8.4418242092069
 40
8.501569605240054
 40
8.528726603485634
 40
8.561478856695654
 40
8.645945193877704
 40
8.761439980865244
 40
8.887277580764387
 40
9.002772362000908
 40
9.0872386966611
 40
9.119990949235582
 40
9.15242883061328
 40
9.240474508638496
 40
9.370226034149443
 40
9.527781457984325
 40
9.699238830981313
 40
9.870696203978502
 40
10.02825162781392
 40
10.15800315332554
 40
10.24604883135109
 40
10.27848670378511
 40
10.27848670378511
 40
10.27848670378511
 40
10.27848670378511
 10
195.3821827564384
 20
14.01410517385757
 30
0.0
 10
195.3914554737524
 20
14.01410498511274
 30
0.0
 10
195.4251744536861
 20
14.01410430876714
 30
0.0
 10
195.4934706812466
 20
14.01411807243305
 30
0.0
 10
195.592014171158
 20
14.01403224219544
 30
0.0
 10
195.7062066464812
 20
14.0144175561225
 30
0.0
 10
195.8185894417072
 20
14.01300835897545
 30
0.0
 10
195.9214376600118
 20
14.01719117422243
 30
0.0
 10
195.980683987485
 20
14.00823089251983
 30
0.0
 10
196.0371265937034
 20
14.0216443452606
 30
0.0
 10
196.0246255586956
 20
13.97087198613361
 30
0.0
 10
196.0329549635704
 20
13.92589320939067
 30
0.0
 10
196.0248170841121
 20
13.88056752990488
 30
0.0
 10
196.0370529214458
 20
13.82931932408465
 30
0.0
 10
195.9747773490334
 20
13.84447955365276
 30
0.0
 10
195.9060513026869
 20
13.83359750710742
 30
0.0
 10
195.7782756749592
 20
13.83911304747972
 30
0.0
 10
195.6262984511644
 20
13.83700851253698
 30
0.0
 10
195.4502695972523
 20
13.83771002588473
 30
0.0
 10
195.2644431934288
 20
13.83745237531292
 30
0.0
 10
195.0786167437176
 20
13.83771005144602
 30
0.0
 10
194.9025880142169
 20
13.83700841847731
 30
0.0
 10
194.7506104154195
 20
13.83911332229988
 30
0.0
 10
194.6228357664555
 20
13.8335968076764
 30
0.0
 10
194.5541077836581
 20
13.84448077125942
 30
0.0
 10
194.4918349042884
 20
13.82931786684209
 30
0.0
 10
194.5040616290018
 20
13.88057510805171
 30
0.0
 10
194.4960004462598
 20
13.92582473272425
 30
0.0
 10
194.5040675809893
 20
13.97106357955323
 30
0.0
 10
194.4918238487084
 20
14.02234176909958
 30
0.0
 10
194.5525017120699
 20
14.00749577363134
 30
0.0
 10
194.6162810745737
 20
14.01756448170735
 30
0.0
 10
194.7277314353503
 20
14.01294644211999
 30
0.0
 10
194.8497533443824
 20
14.01413328905469
 30
0.0
 10
194.9719538137824
 20
14.01515863900635
 30
0.0
 10
195.0829794287392
 20
14.01092475623402
 30
0.0
 10
195.1476517413959
 20
14.02018584521739
 30
0.0
 10
195.2091162810502
 20
14.00604423049682
 30
0.0
 10
195.1930065601338
 20
14.07235527884516
 30
0.0
 10
195.2042980327359
 20
14.14447790121976
 30
0.0
 10
195.1987400822561
 20
14.27513760888285
 30
0.0
 10
195.2008035061691
 20
14.42607323708241
 30
0.0
 10
195.2000167127295
 20
14.59335873107885
 30
0.0
 10
195.2007845215629
 20
14.76061110332302
 30
0.0
 10
195.1988038785628
 20
14.91163289269912
 30
0.0
 10
195.2041306156621
 20
15.04206069552994
 30
0.0
 10
195.1933101388426
 20
15.11465442605898
 30
0.0
 10
195.2090326429876
 20
15.18150469436797
 30
0.0
 10
195.1432708132492
 20
15.16580512490823
 30
0.0
 10
195.0756367830764
 20
15.17609243083994
 30
0.0
 10
194.9615885293811
 20
15.1711378684712
 30
0.0
 10
194.8451242674903
 20
15.17414128030474
 30
0.0
 10
194.7306554121478
 20
15.16880303143388
 30
0.0
 10
194.6640324657814
 20
15.18001268074824
 30
0.0
 10
194.5990769715186
 20
15.1634913266501
 30
0.0
 10
194.610798975871
 20
15.21473720477058
 30
0.0
 10
194.6032830189122
 20
15.25950333784091
 30
0.0
 10
194.6107989878836
 20
15.30426944897961
 30
0.0
 10
194.5990769505348
 20
15.3555153612974
 30
0.0
 10
194.6640326339201
 20
15.33899381766816
 30
0.0
 10
194.7306533339821
 20
15.35020571373943
 30
0.0
 10
194.8451352858065
 20
15.34485436710665
 30
0.0
 10
194.9615454436963
 20
15.34791188771117
 30
0.0
 10
195.0757660174641
 20
15.34278499010708
 30
0.0
 10
195.1430150439228
 20
15.35345733355599
 30
0.0
 10
195.2083325941439
 20
15.33742082669076
 30
0.0
 10
195.1941391448553
 20
15.39949685750054
 30
0.0
 10
195.2036059462996
 20
15.46586761628762
 30
0.0
 10
195.1990269004085
 20
15.58239972741966
 30
0.0
 10
195.2007696555949
 20
15.71426685022376
 30
0.0
 10
195.1997551495392
 20
15.85615960150273
 30
0.0
 10
195.2017191344372
 20
15.9876905070258
 30
0.0
 10
195.1964668553852
 20
16.10524577283002
 30
0.0
 10
195.2073408763474
 20
16.16947789001584
 30
0.0
 10
195.1919536641855
 20
16.23108802545047
 30
0.0
 10
195.2407591537801
 20
16.21702407382111
 30
0.0
 10
195.2853995564727
 20
16.21954742075314
 30
0.0
 10
195.3538643946744
 20
16.21512797401709
 30
0.0
 10
195.3959106169103
 20
16.20613025544036
 30
0.0
 10
195.4487544758776
 20
16.21411714866509
 30
0.0
 10
195.4207035002014
 20
16.17113917611677
 30
0.0
 10
195.3749142248595
 20
16.18259552043835
 30
0.0
 10
195.3869539073265
 20
16.12173520005137
 30
0.0
 10
195.3796086070643
 20
16.05769299468773
 30
0.0
 10
195.3831195826162
 20
15.94909368863911
 30
0.0
 10
195.3819806760175
 20
15.82494319144753
 30
0.0
 10
195.3819174780263
 20
15.69189719829878
 30
0.0
 10
195.3832872966868
 20
15.56797381249555
 30
0.0
 10
195.3791638801314
 20
15.45868337849339
 30
0.0
 10
195.3877763103565
 20
15.3960858009417
 30
0.0
 10
195.3746757454402
 20
15.33740133296365
 30
0.0
 10
195.4393884328199
 20
15.35362113810902
 30
0.0
 10
195.5060405953157
 20
15.34270260383311
 30
0.0
 10
195.6198779541103
 20
15.34793740173756
 30
0.0
 10
195.7357259122098
 20
15.34485547516913
 30
0.0
 10
195.8496924263281
 20
15.35018259812512
 30
0.0
 10
195.91603410181
 20
15.33904208166543
 30
0.0
 10
195.980718852548
 20
15.35546979593177
 30
0.0
 10
195.9689820772724
 20
15.30425925210051
 30
0.0
 10
195.9765168063041
 20
15.25950334121
 30
0.0
 10
195.9689820992259
 20
15.21474739010027
 30
0.0
 10
195.9807188140738
 20
15.1635369087104
 30
0.0
 10
195.9160344075253
 20
15.17996427794218
 30
0.0
 10
195.8496886430826
 20
15.16882784447269
 30
0.0
 10
195.7357459487013
 20
15.17413115893119
 30
0.0
 10
195.6197995623055
 20
15.17114764593543
 30
0.0
 10
195.5062756882124
 20
15.17606892268392
 30
0.0
 10
195.4389231318805
 20
15.16585087513518
 30
0.0
 10
195.3734285122496
 20
15.18145996138815
 30
0.0
 10
195.3891713619218
 20
15.1146385182741
 30
0.0
 10
195.3783275998215
 20
15.04207057815878
 30
0.0
 10
195.3836581629792
 20
14.91162247614416
 30
0.0
 10
195.3817136151856
 20
14.76064558185225
 30
0.0
 10
195.3823133683215
 20
14.59322243934158
 30
0.0
 10
195.3821506559605
 20
14.42656176118371
 30
0.0
 10
195.3821895488136
 20
14.27360142921636
 30
0.0
 10
195.38218164131
 20
14.14849178985705
 30
0.0
 10
195.3821828382745
 20
14.06507890991419
 30
0.0
 10
195.3821827716209
 20
14.02491778281976
 30
0.0
 10
195.3821827564384
 20
14.01410517385757
 30
0.0
 11
195.3821827564384
 21
14.01410517385757
 31
0.0
 11
195.4100014883675
 21
14.01410517385757
 31
0.0
 11
195.4833417816353
 21
14.01410517385757
 31
0.0
 11
195.5870297824623
 21
14.01410517385757
 31
0.0
 11
195.7058916370687
 21
14.01410517385757
 31
0.0
 11
195.8247534916752
 21
14.01410517385757
 31
0.0
 11
195.9284414925021
 21
14.01410517385757
 31
0.0
 11
196.0017817857699
 21
14.01410517385757
 31
0.0
 11
196.0296005176991
 21
14.01410517385757
 31
0.0
 11
196.0296005176991
 21
13.9865168492117
 31
0.0
 11
196.0296005176991
 21
13.92582253499077
 31
0.0
 11
196.0296005176991
 21
13.86512822076984
 31
0.0
 11
196.0296005176991
 21
13.83753989612397
 31
0.0
 11
195.9994901593494
 21
13.83753989612397
 31
0.0
 11
195.9162438745005
 21
13.83753989612397
 31
0.0
 11
195.7904888484522
 21
13.83753989612397
 31
0.0
 11
195.6328522665042
 21
13.83753989612397
 31
0.0
 11
195.4539613139565
 21
13.83753989612397
 31
0.0
 11
195.2644431761089
 21
13.83753989612397
 31
0.0
 11
195.0749250382614
 21
13.83753989612397
 31
0.0
 11
194.8960340857137
 21
13.83753989612397
 31
0.0
 11
194.7383975037657
 21
13.83753989612397
 31
0.0
 11
194.6126424777173
 21
13.83753989612397
 31
0.0
 11
194.5293961928684
 21
13.83753989612397
 31
0.0
 11
194.4992858345188
 21
13.83753989612397
 31
0.0
 11
194.4992858345188
 21
13.86512822076984
 31
0.0
 11
194.4992858345188
 21
13.92582253499077
 31
0.0
 11
194.4992858345188
 21
13.9865168492117
 31
0.0
 11
194.4992858345188
 21
14.01410517385757
 31
0.0
 11
194.5294068064948
 21
14.01410517385757
 31
0.0
 11
194.6088166417041
 21
14.01410517385757
 31
0.0
 11
194.7210857190691
 21
14.01410517385757
 31
0.0
 11
194.8497844175118
 21
14.01410517385757
 31
0.0
 11
194.9784831159546
 21
14.01410517385757
 31
0.0
 11
195.0907521933196
 21
14.01410517385757
 31
0.0
 11
195.1701620285289
 21
14.01410517385757
 31
0.0
 11
195.2002830005049
 21
14.01410517385757
 31
0.0
 11
195.2002830005049
 21
14.04654305523835
 31
0.0
 11
195.2002830005049
 21
14.1345887332719
 31
0.0
 11
195.2002830005049
 21
14.26434025879502
 31
0.0
 11
195.2002830005049
 21
14.42189568264453
 31
0.0
 11
195.2002830005049
 21
14.59335305565723
 31
0.0
 11
195.2002830005049
 21
14.76481042866993
 31
0.0
 11
195.2002830005049
 21
14.92236585251944
 31
0.0
 11
195.2002830005049
 21
15.05211737804256
 31
0.0
 11
195.2002830005049
 21
15.14016305607611
 31
0.0
 11
195.2002830005049
 21
15.17260093745689
 31
0.0
 11
195.1673826485529
 21
15.17260093745689
 31
0.0
 11
195.0825343724663
 21
15.17260093745689
 31
0.0
 11
194.9665173418989
 21
15.17260093745689
 31
0.0
 11
194.8401107265045
 21
15.17260093745689
 31
0.0
 11
194.7240936959371
 21
15.17260093745689
 31
0.0
 11
194.6392454198505
 21
15.17260093745689
 31
0.0
 11
194.6063450678985
 21
15.17260093745689
 31
0.0
 11
194.6063450678985
 21
15.19975793614802
 31
0.0
 11
194.6063450678985
 21
15.2595033332685
 31
0.0
 11
194.6063450678985
 21
15.31924873038897
 31
0.0
 11
194.6063450678985
 21
15.3464057290801
 31
0.0
 11
194.6392454198505
 21
15.3464057290801
 31
0.0
 11
194.7240936959371
 21
15.3464057290801
 31
0.0
 11
194.8401107265045
 21
15.3464057290801
 31
0.0
 11
194.9665173418989
 21
15.3464057290801
 31
0.0
 11
195.0825343724663
 21
15.3464057290801
 31
0.0
 11
195.1673826485529
 21
15.3464057290801
 31
0.0
 11
195.2002830005049
 21
15.3464057290801
 31
0.0
 11
195.2002830005049
 21
15.3765001173137
 31
0.0
 11
195.2002830005049
 21
15.45715307777974
 31
0.0
 11
195.2002830005049
 21
15.57391930412609
 31
0.0
 11
195.2002830005049
 21
15.71235349000063
 31
0.0
 11
195.2002830005049
 21
15.85801032905124
 31
0.0
 11
195.2002830005049
 21
15.99644451492578
 31
0.0
 11
195.2002830005049
 21
16.11321074127214
 31
0.0
 11
195.2002830005049
 21
16.19386370173817
 31
0.0
 11
195.2002830005049
 21
16.22395808997177
 31
0.0
 11
195.2250405288619
 21
16.22228324219442
 31
0.0
 11
195.284077711867
 21
16.21828937441765
 31
0.0
 11
195.3545414464215
 21
16.21352249997441
 31
0.0
 11
195.4135786294266
 21
16.20952863219765
 31
0.0
 11
195.4383361577836
 21
16.20785378442029
 31
0.0
 11
195.4233067224031
 21
16.1841581420651
 31
0.0
 11
195.3821827564384
 21
16.17047697887404
 31
0.0
 11
195.3821827564384
 21
16.14221664794832
 31
0.0
 11
195.3821827564384
 21
16.0664789610674
 31
0.0
 11
195.3821827564384
 21
15.95682887707561
 31
0.0
 11
195.3821827564384
 21
15.82683135481731
 31
0.0
 11
195.3821827564384
 21
15.69005135313683
 31
0.0
 11
195.3821827564384
 21
15.56005383087853
 31
0.0
 11
195.3821827564384
 21
15.45040374688674
 31
0.0
 11
195.3821827564384
 21
15.37466606000582
 31
0.0
 11
195.3821827564384
 21
15.3464057290801
 31
0.0
 11
195.4149350096116
 21
15.3464057290801
 31
0.0
 11
195.4994013467423
 21
15.3464057290801
 31
0.0
 11
195.6148961342477
 21
15.3464057290801
 31
0.0
 11
195.7407337385446
 21
15.3464057290801
 31
0.0
 11
195.8562285260499
 21
15.3464057290801
 31
0.0
 11
195.9406948631807
 21
15.3464057290801
 31
0.0
 11
195.9734471163539
 21
15.3464057290801
 31
0.0
 11
195.9734471163539
 21
15.31924873038897
 31
0.0
 11
195.9734471163539
 21
15.2595033332685
 31
0.0
 11
195.9734471163539
 21
15.19975793614802
 31
0.0
 11
195.9734471163539
 21
15.17260093745689
 31
0.0
 11
195.9406948631807
 21
15.17260093745689
 31
0.0
 11
195.85622852605
 21
15.17260093745689
 31
0.0
 11
195.7407337385446
 21
15.17260093745689
 31
0.0
 11
195.6148961342477
 21
15.17260093745689
 31
0.0
 11
195.4994013467423
 21
15.17260093745689
 31
0.0
 11
195.4149350096116
 21
15.17260093745689
 31
0.0
 11
195.3821827564384
 21
15.17260093745689
 31
0.0
 11
195.3821827564384
 21
15.14016305607611
 31
0.0
 11
195.3821827564384
 21
15.05211737804256
 31
0.0
 11
195.3821827564384
 21
14.92236585251944
 31
0.0
 11
195.3821827564384
 21
14.76481042866993
 31
0.0
 11
195.3821827564384
 21
14.59335305565723
 31
0.0
 11
195.3821827564384
 21
14.42189568264453
 31
0.0
 11
195.3821827564384
 21
14.26434025879503
 31
0.0
 11
195.3821827564384
 21
14.1345887332719
 31
0.0
 11
195.3821827564384
 21
14.04654305523835
 31
0.0
 11
195.3821827564384
 21
14.01410517385757
 31
0.0
  0
SPLINE
  5
A8
102
{ACAD_REACTORS
330
C5
102
}
330
48
100
AcDbEntity
  8
_U_30EC_U_30A4_U_30E4_U_30FC_1
  6
Continuous
 62
     2
100
AcDbSpline
210
0.0
220
0.0
230
1.0
 70
    11
 71
     3
 72
   131
 73
   127
 74
   125
 42
0.000000001
 43
0.0000000001
 44
0.00000001
 40
0.0
 40
0.0
 40
0.0
 40
0.0
 40
0.01955770298261
 40
0.0426490537461448
 40
0.2863607575855993
 40
0.5344948436188807
 40
0.7842238845572536
 40
0.8737315789466507
 40
0.9803832810312013
 40
1.092842274516924
 40
1.199761146656683
 40
1.289788768186412
 40
1.35157358078613
 40
1.370727117561373
 40
1.416400936017799
 40
1.47091484835594
 40
1.516588666791761
 40
1.535742203552841
 40
1.634216592293146
 40
1.76028334117494
 40
1.89796668668207
 40
2.031216387368915
 40
2.049689751137909
 40
2.101115601646845
 40
2.179502577739963
 40
2.278859318314077
 40
2.393194462258735
 40
2.516516648383848
 40
2.642834515405977
 40
2.766156701983479
 40
2.880491846754594
 40
2.979848588358636
 40
3.058235565443813
 40
3.109661416668968
 40
3.128134780704143
 40
3.14678374238646
 40
3.191254343315292
 40
3.244332157315895
 40
3.28880275822577
 40
3.307451719895041
 40
3.327717853844654
 40
3.383747753580011
 40
3.468388665924404
 40
3.574487837698707
 40
3.694892515728811
 40
3.822449946851949
 40
3.950007377920337
 40
4.070412055800429
 40
4.176511227367983
 40
4.261152139501429
 40
4.317182039076619
 40
4.33744817296454
 40
4.620011002696164
 40
4.885096638397388
 40
4.945373043518202
 40
5.014107710488554
 40
5.070481727651895
 40
5.319246955636375
 40
5.58481216450587
 40
5.859000912056701
 40
6.1337469375419
 40
6.401732212968708
 40
6.420736683995327
 40
6.47284571745092
 40
6.550702743893905
 40
6.646951193874114
 40
6.754234497930438
 40
6.865196086587244
 40
6.972479390357702
 40
7.068727839771893
 40
7.146584865450902
 40
7.198693898189132
 40
7.217698368905272
 40
7.23495040163075
 40
7.276089864269799
 40
7.325191803515909
 40
7.366331266090298
 40
7.383583298769651
 40
7.402779163492057
 40
7.45338644325446
 40
7.52493466644549
 40
7.60695336140583
 40
7.68897205642901
 40
7.76052027978426
 40
7.811127559734531
 40
7.830323424546152
 40
7.84784405529978
 40
7.894799345666823
 40
7.962779392744509
 40
8.043374293560554
 40
8.12817414514946
 40
8.208769044817261
 40
8.276749090376962
 40
8.32370437966952
 40
8.341225010056254
 40
8.358497614800402
 40
8.40167912668658
 40
8.457815092185637
 40
8.513951057728042
 40
8.55713256970794
 40
8.574405174504983
 40
8.602340668616314
 40
8.64345566053991
 40
8.663225271966578
 40
8.715345156564222
 40
8.789031889628557
 40
8.873502045520285
 40
8.957972194323908
 40
9.031658925567797
 40
9.083778811234485
 40
9.103548423002948
 40
9.119550083123485
 40
9.160817522379787
 40
9.217244429110153
 40
9.278724491644638
 40
9.335151398295423
 40
9.376418837357718
 40
9.392420497300506
 40
9.401196302734725
 40
9.417494229384198
 40
9.426270027749469
 40
9.440875075477502
 40
9.475702496998684
 40
9.517270709865848
 40
9.552098131994018
 40
9.566703169884228
 40
9.566703169884228
 40
9.566703169884228
 40
9.566703169884228
 10
194.6170254148479
 20
15.67015871511026
 30
0.0
 10
194.6134345093371
 20
15.66453690702158
 30
0.0
 10
194.6056039123624
 20
15.65227754419111
 30
0.0
 10
194.5129968974549
 20
15.61601916040972
 30
0.0
 10
194.4887622233247
 20
15.4014844421271
 30
0.0
 10
194.3858709845939
 20
15.2219728450971
 30
0.0
 10
194.1220492364307
 20
15.03615573798147
 30
0.0
 10
194.2845471569181
 20
14.9595933656608
 30
0.0
 10
194.3607225760839
 20
14.89856693195443
 30
0.0
 10
194.4492171072759
 20
14.83515804544758
 30
0.0
 10
194.5389930233111
 20
14.7752563421956
 30
0.0
 10
194.5883817636047
 20
14.72102154849207
 30
0.0
 10
194.6745708157383
 20
14.69286240541832
 30
0.0
 10
194.641126067423
 20
14.65713309652811
 30
0.0
 10
194.6214671166311
 20
14.62550387991907
 30
0.0
 10
194.5919888217882
 20
14.58475872796066
 30
0.0
 10
194.5688989446031
 20
14.55504663489645
 30
0.0
 10
194.5380205968356
 20
14.50211422668494
 30
0.0
 10
194.4729193365741
 20
14.62740334938901
 30
0.0
 10
194.3796000122416
 20
14.68213900233937
 30
0.0
 10
194.2950636285139
 20
14.73916423939339
 30
0.0
 10
194.1722498125741
 20
14.89675287427523
 30
0.0
 10
194.1764450847301
 20
14.82035806766837
 30
0.0
 10
194.1751478652677
 20
14.77361280161296
 30
0.0
 10
194.1758126448076
 20
14.695847858126
 30
0.0
 10
194.1755549986957
 20
14.59902068324423
 30
0.0
 10
194.1756431239921
 20
14.48650279078809
 30
0.0
 10
194.1756077302282
 20
14.365240859457
 30
0.0
 10
194.1756511758278
 20
14.24086897858961
 30
0.0
 10
194.1755199942406
 20
14.11967683631337
 30
0.0
 10
194.1759477562046
 20
14.00691148919743
 30
0.0
 10
194.174667820231
 20
13.91082913768744
 30
0.0
 10
194.1779759851044
 20
13.831138264687
 30
0.0
 10
194.1715197740086
 20
13.78815175788784
 30
0.0
 10
194.1806208705556
 20
13.74955432372043
 30
0.0
 10
194.1447910339935
 20
13.7581088772407
 30
0.0
 10
194.1115223815253
 20
13.75342519985447
 30
0.0
 10
194.0604562576041
 20
13.75351298759784
 30
0.0
 10
194.0269723972813
 20
13.75794430283821
 30
0.0
 10
193.9907585408755
 20
13.74960793842509
 30
0.0
 10
194.0009782568666
 20
13.79145277179284
 30
0.0
 10
193.9936487887773
 20
13.83778560820174
 30
0.0
 10
193.9973633136103
 20
13.92374831106014
 30
0.0
 10
193.9959480554897
 20
14.02605142704849
 30
0.0
 10
193.9964105554639
 20
14.14453223931511
 30
0.0
 10
193.9962773686231
 20
14.26957683153355
 30
0.0
 10
193.9963015910046
 20
14.39475828107049
 30
0.0
 10
193.9963354925552
 20
14.51286645379057
 30
0.0
 10
193.9962060293133
 20
14.61628748709515
 30
0.0
 10
193.9965507549081
 20
14.69932036153665
 30
0.0
 10
193.9958698278691
 20
14.75143368521242
 30
0.0
 10
193.9994586600623
 20
14.8791290782136
 30
0.0
 10
193.7826171386438
 20
14.58048716819626
 30
0.0
 10
193.6021354921951
 20
14.35263981511515
 30
0.0
 10
193.5490322295613
 20
14.49373443289816
 30
0.0
 10
193.5200429133149
 20
14.54325767560937
 30
0.0
 10
193.4196648062822
 20
14.64641779790113
 30
0.0
 10
193.7405127723261
 20
14.72695035023777
 30
0.0
 10
193.8689897005431
 20
14.91066283036433
 30
0.0
 10
194.0906454325359
 20
15.11931995771763
 30
0.0
 10
194.1770224894069
 20
15.29339211228342
 30
0.0
 10
194.4549394229075
 20
15.56967051342513
 30
0.0
 10
194.3346247839285
 20
15.56534559551114
 30
0.0
 10
194.2863197351349
 20
15.56614856202553
 30
0.0
 10
194.2102377454906
 20
15.56574582146584
 30
0.0
 10
194.116701000975
 20
15.5659027561161
 30
0.0
 10
194.0117594788557
 20
15.56582502576224
 30
0.0
 10
193.9033887738718
 20
15.56595464378554
 30
0.0
 10
193.7981454235897
 20
15.56554393490692
 30
0.0
 10
193.7056237819413
 20
15.56682073671591
 30
0.0
 10
193.6268130800707
 20
15.5634076653485
 30
0.0
 10
193.5839674565379
 20
15.5702335003632
 30
0.0
 10
193.5449499586515
 20
15.56065064201123
 30
0.0
 10
193.5526365271863
 20
15.59420779565542
 30
0.0
 10
193.5485464404312
 20
15.62523550322233
 30
0.0
 10
193.5485531368814
 20
15.672365292709
 30
0.0
 10
193.5526239724912
 20
15.70340941646779
 30
0.0
 10
193.5449495574582
 20
15.73701861635903
 30
0.0
 10
193.5834819405495
 20
15.72748410420873
 30
0.0
 10
193.624122801448
 20
15.73397435498071
 30
0.0
 10
193.6951471850463
 20
15.73100150650255
 30
0.0
 10
193.7729318149634
 20
15.73174761399158
 30
0.0
 10
193.8507292246474
 20
15.73247814044526
 30
0.0
 10
193.9217232089908
 20
15.72954235514161
 30
0.0
 10
193.9624279791821
 20
15.73595468772953
 30
0.0
 10
194.000985348991
 20
15.72650524176004
 30
0.0
 10
193.9927342754929
 20
15.76264692158785
 30
0.0
 10
193.9982346669358
 20
15.80129837613228
 30
0.0
 10
193.9955754206164
 20
15.8691352856184
 30
0.0
 10
193.9965815471534
 20
15.9459164153874
 30
0.0
 10
193.996017801832
 20
16.02849393582758
 30
0.0
 10
193.9970714526593
 20
16.10517329229878
 30
0.0
 10
193.994267586313
 20
16.173319907767
 30
0.0
 10
194.0000702721305
 20
16.21132399809346
 30
0.0
 10
193.991565455116
 20
16.24758448077646
 30
0.0
 10
194.0255610233125
 20
16.23755723771853
 30
0.0
 10
194.0594575683099
 20
16.24073266813706
 30
0.0
 10
194.1126669060347
 20
16.2350896564061
 30
0.0
 10
194.1660768574483
 20
16.23434774436425
 30
0.0
 10
194.199591464949
 20
16.2281922348298
 30
0.0
 10
194.2388086183039
 20
16.23346029773593
 30
0.0
 10
194.2120263698493
 20
16.19253380793486
 30
0.0
 10
194.1708111001724
 20
16.20371204538113
 30
0.0
 10
194.1782641540873
 20
16.15867056192124
 30
0.0
 10
194.1742227952184
 20
16.11412278028144
 30
0.0
 10
194.1761714049641
 20
16.04223572621704
 30
0.0
 10
194.1752364849758
 20
15.96168630588771
 30
0.0
 10
194.176510719003
 20
15.88173995404995
 30
0.0
 10
194.1732043793863
 20
15.80841837083183
 30
0.0
 10
194.1802106179962
 20
15.7668864300257
 30
0.0
 10
194.1701440380125
 20
15.72752418568113
 30
0.0
 10
194.2029814803921
 20
15.73468063430982
 30
0.0
 10
194.236457729648
 20
15.73027243137945
 30
0.0
 10
194.2915053476019
 20
15.73217943347898
 30
0.0
 10
194.3489502595314
 20
15.73185366407289
 30
0.0
 10
194.4023026248309
 20
15.73106308733083
 30
0.0
 10
194.4398540896638
 20
15.73313959118074
 30
0.0
 10
194.4623172523237
 20
15.7302233816711
 30
0.0
 10
194.4751678073731
 20
15.73572552644056
 30
0.0
 10
194.4858255685889
 20
15.73801118197791
 30
0.0
 10
194.4986635650143
 20
15.74494972588052
 30
0.0
 10
194.5145991033071
 20
15.72853046313672
 30
0.0
 10
194.5410623920891
 20
15.71709122319447
 30
0.0
 10
194.5726805253758
 20
15.6964468783519
 30
0.0
 10
194.5987255892151
 20
15.68116869628293
 30
0.0
 10
194.6128517723973
 20
15.67266976323183
 30
0.0
 10
194.6170254148479
 20
15.67015871511026
 30
0.0
 11
194.6170254148479
 21
15.67015871511026
 31
0.0
 11
194.6049990002243
 21
15.65473571164187
 31
0.0
 11
194.5848961795565
 21
15.64337406233916
 31
0.0
 11
194.4778986355814
 21
15.42440620231159
 31
0.0
 11
194.3477039934325
 21
15.21317201512161
 31
0.0
 11
194.1996540366072
 21
15.01206059027479
 31
0.0
 11
194.2734958253736
 21
14.96147384935379
 31
0.0
 11
194.3605664311801
 21
14.89988411653739
 31
0.0
 11
194.4518003750405
 21
14.83413160594425
 31
0.0
 11
194.5381321779688
 21
14.77105653169304
 31
0.0
 11
194.6104963609788
 21
14.71749910790241
 31
0.0
 11
194.6598274450844
 21
14.68029954869103
 31
0.0
 11
194.6486940702214
 21
14.66471410869493
 31
0.0
 11
194.6221452532403
 21
14.62754882870423
 31
0.0
 11
194.5904579555533
 21
14.58319026871532
 31
0.0
 11
194.5639091385723
 21
14.54602498872462
 31
0.0
 11
194.5527757637093
 21
14.53043954872852
 31
0.0
 11
194.4807013362948
 21
14.59754008690617
 31
0.0
 11
194.3852856985382
 21
14.67993354174669
 31
0.0
 11
194.279326415217
 21
14.76785017366916
 31
0.0
 11
194.175621051109
 21
14.85152024309267
 31
0.0
 11
194.175621051109
 21
14.83304687900863
 31
0.0
 11
194.175621051109
 21
14.78162102763955
 31
0.0
 11
194.175621051109
 21
14.70323405030999
 31
0.0
 11
194.175621051109
 21
14.60387730834449
 31
0.0
 11
194.175621051109
 21
14.4895421630676
 31
0.0
 11
194.175621051109
 21
14.36621997580389
 31
0.0
 11
194.175621051109
 21
14.2399021078779
 31
0.0
 11
194.175621051109
 21
14.11657992061419
 31
0.0
 11
194.175621051109
 21
14.0022447753373
 31
0.0
 11
194.175621051109
 21
13.9028880333718
 31
0.0
 11
194.175621051109
 21
13.82450105604223
 31
0.0
 11
194.175621051109
 21
13.77307520467316
 31
0.0
 11
194.175621051109
 21
13.75460184058912
 31
0.0
 11
194.1569720893626
 21
13.75460184058912
 31
0.0
 11
194.112501488275
 21
13.75460184058912
 31
0.0
 11
194.0594236740737
 21
13.75460184058912
 31
0.0
 11
194.014953072986
 21
13.75460184058912
 31
0.0
 11
193.9963041112396
 21
13.75460184058912
 31
0.0
 11
193.9963041112396
 21
13.77486797460219
 31
0.0
 11
193.9963041112396
 21
13.83089787452066
 31
0.0
 11
193.9963041112396
 21
13.91553878716347
 31
0.0
 11
193.9963041112396
 21
14.02163795934953
 31
0.0
 11
193.9963041112396
 21
14.14204263789775
 31
0.0
 11
193.9963041112396
 21
14.26960006962705
 31
0.0
 11
193.9963041112396
 21
14.39715750135635
 31
0.0
 11
193.9963041112396
 21
14.51756217990457
 31
0.0
 11
193.9963041112396
 21
14.62366135209063
 31
0.0
 11
193.9963041112396
 21
14.70830226473343
 31
0.0
 11
193.9963041112396
 21
14.76433216465191
 31
0.0
 11
193.9963041112396
 21
14.78459829866498
 31
0.0
 11
193.7883272849482
 21
14.59331998274057
 31
0.0
 11
193.5763486358426
 21
14.43414885430811
 31
0.0
 11
193.5495629014484
 21
14.48814671952095
 31
0.0
 11
193.5138765415024
 21
14.54689140572025
 31
0.0
 11
193.4799697494125
 21
14.59192871537975
 31
0.0
 11
193.6830287742319
 21
14.73563387201053
 31
0.0
 11
193.8818531958261
 21
14.91168423529987
 31
0.0
 11
194.0677041444179
 21
15.11327514524949
 31
0.0
 11
194.2318427502304
 21
15.33360194186108
 31
0.0
 11
194.3655301434865
 21
15.56585996513635
 31
0.0
 11
194.3465256724482
 21
15.56585996513635
 31
0.0
 11
194.2944166389563
 21
15.56585996513635
 31
0.0
 11
194.2165596124448
 21
15.56585996513635
 31
0.0
 11
194.1203111623479
 21
15.56585996513635
 31
0.0
 11
194.0130278580997
 21
15.56585996513635
 31
0.0
 11
193.9020662691345
 21
15.56585996513635
 31
0.0
 11
193.7947829648864
 21
15.56585996513635
 31
0.0
 11
193.6985345147895
 21
15.56585996513635
 31
0.0
 11
193.620677488278
 21
15.56585996513635
 31
0.0
 11
193.568568454786
 21
15.56585996513635
 31
0.0
 11
193.5495639837478
 21
15.56585996513635
 31
0.0
 11
193.5495639837478
 21
15.58311199790982
 31
0.0
 11
193.5495639837478
 21
15.62425146067732
 31
0.0
 11
193.5495639837478
 21
15.67335340010949
 31
0.0
 11
193.5495639837478
 21
15.71449286287699
 31
0.0
 11
193.5495639837478
 21
15.73174489565046
 31
0.0
 11
193.568759848601
 21
15.73174489565046
 31
0.0
 11
193.6193671286684
 21
15.73174489565046
 31
0.0
 11
193.690915352212
 21
15.73174489565046
 31
0.0
 11
193.7729340474937
 21
15.73174489565046
 31
0.0
 11
193.8549527427754
 21
15.73174489565046
 31
0.0
 11
193.926500966319
 21
15.73174489565046
 31
0.0
 11
193.9771082463865
 21
15.73174489565046
 31
0.0
 11
193.9963041112396
 21
15.73174489565046
 31
0.0
 11
193.9963041112396
 21
15.74926552655219
 31
0.0
 11
193.9963041112396
 21
15.79622081736883
 31
0.0
 11
193.9963041112396
 21
15.86420086526754
 31
0.0
 11
193.9963041112396
 21
15.94479576741549
 31
0.0
 11
193.9963041112396
 21
16.02959562097987
 31
0.0
 11
193.9963041112396
 21
16.11019052312782
 31
0.0
 11
193.9963041112396
 21
16.17817057102653
 31
0.0
 11
193.9963041112396
 21
16.22512586184317
 31
0.0
 11
193.9963041112396
 21
16.2426464927449
 31
0.0
 11
194.0135484112112
 21
16.24165806167519
 31
0.0
 11
194.0566591611401
 21
16.23918698400091
 31
0.0
 11
194.1127031360478
 21
16.23597458302435
 31
0.0
 11
194.1687471109554
 21
16.2327621820478
 31
0.0
 11
194.2118578608843
 21
16.23029110437352
 31
0.0
 11
194.2291021608559
 21
16.22930267330381
 31
0.0
 11
194.2143774674852
 21
16.2055629337264
 31
0.0
 11
194.175621051109
 21
16.19183767331312
 31
0.0
 11
194.175621051109
 21
16.17206806177293
 31
0.0
 11
194.175621051109
 21
16.11994817680333
 31
0.0
 11
194.175621051109
 21
16.04626144288079
 31
0.0
 11
194.175621051109
 21
15.96179128448179
 31
0.0
 11
194.175621051109
 21
15.87732112608279
 31
0.0
 11
194.175621051109
 21
15.80363439216025
 31
0.0
 11
194.175621051109
 21
15.75151450719065
 31
0.0
 11
194.175621051109
 21
15.73174489565046
 31
0.0
 11
194.1916227112935
 21
15.73174489565046
 31
0.0
 11
194.232890150717
 21
15.73174489565046
 31
0.0
 11
194.2893170576837
 21
15.73174489565046
 31
0.0
 11
194.3507971204981
 21
15.73174489565046
 31
0.0
 11
194.4072240274648
 21
15.73174489565046
 31
0.0
 11
194.4484914668882
 21
15.73174489565046
 31
0.0
 11
194.4644931270728
 21
15.73174489565046
 31
0.0
 11
194.4728206422924
 21
15.73451387455921
 31
0.0
 11
194.4882860277004
 21
15.73965626396119
 31
0.0
 11
194.49661354292
 21
15.74242524286994
 31
0.0
 11
194.5091363776005
 21
15.73490952398293
 31
0.0
 11
194.5389985218386
 21
15.71698742509853
 31
0.0
 11
194.5746404359293
 21
15.69559653288167
 31
0.0
 11
194.6045025801674
 21
15.67767443399727
 31
0.0
 11
194.6170254148479
 21
15.67015871511026
 31
0.0
  0
SPLINE
  5
A9
102
{ACAD_REACTORS
330
C6
102
}
330
48
100
AcDbEntity
  8
_U_30EC_U_30A4_U_30E4_U_30FC_1
  6
Continuous
 62
     2
100
AcDbSpline
210
0.0
220
0.0
230
1.0
 70
    11
 71
     3
 72
    91
 73
    87
 74
    85
 42
0.000000001
 43
0.0000000001
 44
0.00000001
 40
0.0
 40
0.0
 40
0.0
 40
0.0
 40
0.0267532254356701
 40
0.0856103386464102
 40
0.1444674521996621
 40
0.1712206856618514
 40
0.2039416005642536
 40
0.2955601971652484
 40
0.4362601844616918
 40
0.616225284450725
 40
0.8256392189704982
 40
1.054685709844411
 40
1.293548478893531
 40
1.532411247938275
 40
1.76145773879954
 40
1.970871673298508
 40
2.150836773256704
 40
2.291536760495565
 40
2.383155356836643
 40
2.415876284101292
 40
2.442629517487936
 40
2.501486630949066
 40
2.560343744424213
 40
2.587096977826486
 40
2.617068194440914
 40
2.699247336756055
 40
2.822032643466339
 40
2.973822353257868
 40
3.143014704823311
 40
3.318007936879861
 40
3.487200288186723
 40
3.638989997548204
 40
3.761775303794702
 40
3.843954445753037
 40
3.873925662229733
 40
3.890812773500441
 40
3.907699884771592
 40
3.937960767857219
 40
3.980983618142223
 40
4.199085915228381
 40
4.439444339237159
 40
4.677588241260803
 40
5.050698317837689
 40
5.448212454763018
 40
5.855291218044515
 40
6.138575438885179
 40
6.417434507583974
 40
6.444551104393632
 40
6.504207617362906
 40
6.56386413031423
 40
6.590980727103798
 40
6.848609460381201
 40
7.10961199066814
 40
7.352910904445805
 40
7.557830220705226
 40
7.587518925913145
 40
7.65283407737559
 40
7.718149228845575
 40
7.747837934061881
 40
7.854880190300809
 40
7.976511257403333
 40
8.369487896592162
 40
8.757514959223512
 40
9.126072419330974
 40
9.46063938039198
 40
9.746695593035664
 40
9.777569943118454
 40
9.807050320931637
 40
9.830377336128771
 40
9.886003295435849
 40
9.952395569429765
 40
10.00802152870612
 40
10.03134854388205
 40
10.21356951009578
 40
10.42203479292858
 40
10.66154556731053
 40
10.91693789564292
 40
11.15832906556548
 40
11.18982674596603
 40
11.27286608520387
 40
11.39026653033329
 40
11.52484752840859
 40
11.6594285264841
 40
11.77682897161449
 40
11.85986831085642
 40
11.89136598230388
 40
11.89136598230388
 40
11.89136598230388
 40
11.89136598230388
 10
190.7027885008197
 20
14.70699600701772
 30
0.0
 10
190.7028237765289
 20
14.71587847311985
 30
0.0
 10
190.7029366710797
 20
14.74430237047346
 30
0.0
 10
190.7012984568489
 20
14.79409639169803
 30
0.0
 10
190.7069750292912
 20
14.83657564478154
 30
0.0
 10
190.6956928731707
 20
14.88730154856847
 30
0.0
 10
190.7632296979033
 20
14.87012900740109
 30
0.0
 10
190.8388029210701
 20
14.88290227165996
 30
0.0
 10
190.9828357056002
 20
14.87629729457382
 30
0.0
 10
191.1569419185427
 20
14.87888462206466
 30
0.0
 10
191.3639599611005
 20
14.87800591955553
 30
0.0
 10
191.5894688172378
 20
14.87828207920027
 30
0.0
 10
191.8251162293406
 20
14.87818339658662
 30
0.0
 10
192.0607640531349
 20
14.87828184412767
 30
0.0
 10
192.2862717580627
 20
14.87800678190789
 30
0.0
 10
192.4932934632806
 20
14.87888186270735
 30
0.0
 10
192.6673888915289
 20
14.87630522678446
 30
0.0
 10
192.8114492071986
 20
14.88288290449214
 30
0.0
 10
192.8869691915293
 20
14.87016243405604
 30
0.0
 10
192.9545776037031
 20
14.88726400191688
 30
0.0
 10
192.9430840140677
 20
14.8367478580294
 30
0.0
 10
192.9505104581733
 20
14.79253252226501
 30
0.0
 10
192.9428838927986
 20
14.7486796650361
 30
0.0
 10
192.9546489459426
 20
14.69878374479327
 30
0.0
 10
192.8930788491984
 20
14.71393227712512
 30
0.0
 10
192.8256791738672
 20
14.70310665350673
 30
0.0
 10
192.7013004056223
 20
14.70852031626236
 30
0.0
 10
192.5554428236572
 20
14.70649205390785
 30
0.0
 10
192.3893576440086
 20
14.70715777578387
 30
0.0
 10
192.2188412621725
 20
14.70689643521242
 30
0.0
 10
192.051979085539
 20
14.70721553391094
 30
0.0
 10
191.9087346827106
 20
14.70635302590762
 30
0.0
 10
191.7773313869835
 20
14.70863300482988
 30
0.0
 10
191.7239859134658
 20
14.70407704374202
 30
0.0
 10
191.6485188456913
 20
14.70999914992877
 30
0.0
 10
191.6769075779233
 20
14.70094169343353
 30
0.0
 10
191.7033652409543
 20
14.69725912268928
 30
0.0
 10
191.6633522907702
 20
14.66654271968276
 30
0.0
 10
191.571366369187
 20
14.67667591174631
 30
0.0
 10
191.5439396207069
 20
14.43032502247787
 30
0.0
 10
191.4478793967235
 20
14.27499558764374
 30
0.0
 10
191.1917277964474
 20
13.94525417931569
 30
0.0
 10
191.7627537732763
 20
14.08430022210451
 30
0.0
 10
192.0173656320516
 20
14.08291779973362
 30
0.0
 10
192.6279647048617
 20
13.99790569242083
 30
0.0
 10
192.3340698578084
 20
14.29685417558205
 30
0.0
 10
192.0133304286518
 20
14.44330856901775
 30
0.0
 10
192.1313543360434
 20
14.50025540818288
 30
0.0
 10
192.1724716466261
 20
14.52420099873348
 30
0.0
 10
192.2156812394412
 20
14.5459975881123
 30
0.0
 10
192.3174574094449
 20
14.60928721253905
 30
0.0
 10
192.4328867625248
 20
14.35147151408781
 30
0.0
 10
192.6329591642277
 20
14.21616041113683
 30
0.0
 10
192.7269077387227
 20
14.03792795138878
 30
0.0
 10
192.9558829746393
 20
13.87997821027049
 30
0.0
 10
192.8596031846709
 20
13.82915972576299
 30
0.0
 10
192.8167959763779
 20
13.79881292523052
 30
0.0
 10
192.771824352878
 20
13.7746613028146
 30
0.0
 10
192.7121720925213
 20
13.72552146747566
 30
0.0
 10
192.6789731061326
 20
13.85997475673609
 30
0.0
 10
192.5582013350796
 20
14.0159426528658
 30
0.0
 10
192.1970976005979
 20
13.88569928059555
 30
0.0
 10
191.8385061955541
 20
13.90224694409483
 30
0.0
 10
191.4570920450079
 20
13.89331229351863
 30
0.0
 10
191.1703455282892
 20
13.82882671672411
 30
0.0
 10
190.8592055599717
 20
13.9423066819282
 30
0.0
 10
190.8268737818788
 20
13.83122259927766
 30
0.0
 10
190.7896178253318
 20
13.81196313850009
 30
0.0
 10
190.7865737632753
 20
13.85874784087295
 30
0.0
 10
190.7679892860607
 20
13.89806853919135
 30
0.0
 10
190.7512436616778
 20
13.95765983478232
 30
0.0
 10
190.7383730915753
 20
14.00201969871283
 30
0.0
 10
190.7042327806428
 20
14.09106331120203
 30
0.0
 10
190.9482714457754
 20
14.02181042943769
 30
0.0
 10
191.1441394486671
 20
14.00030369057746
 30
0.0
 10
191.2395426381278
 20
14.28226484478462
 30
0.0
 10
191.2945135769597
 20
14.4436304542112
 30
0.0
 10
191.5159619357155
 20
14.71391177589737
 30
0.0
 10
191.3849239381215
 20
14.70548446853735
 30
0.0
 10
191.3110026555853
 20
14.70779008496969
 30
0.0
 10
191.1977459876242
 20
14.70671378321658
 30
0.0
 10
191.0694251807485
 20
14.7070763907651
 30
0.0
 10
190.9404252030416
 20
14.70697724466086
 30
0.0
 10
190.8287840946291
 20
14.70699932712572
 30
0.0
 10
190.7514663970027
 20
14.7069957918967
 30
0.0
 10
190.7132876532011
 20
14.70699595845081
 30
0.0
 10
190.7027885008197
 20
14.70699600701772
 30
0.0
 11
190.7027885008197
 21
14.70699600701772
 31
0.0
 11
190.7027885008197
 21
14.73374924051797
 31
0.0
 11
190.7027885008197
 21
14.79260635421853
 31
0.0
 11
190.7027885008197
 21
14.85146346791909
 31
0.0
 11
190.7027885008197
 21
14.87821670141935
 31
0.0
 11
190.735509428099
 21
14.87821670141935
 31
0.0
 11
190.827128024481
 21
14.87821670141935
 31
0.0
 11
190.967828011782
 21
14.87821670141935
 31
0.0
 11
191.1477931118181
 21
14.87821670141935
 31
0.0
 11
191.3572070464055
 21
14.87821670141935
 31
0.0
 11
191.5862535373605
 21
14.87821670141935
 31
0.0
 11
191.8251163064994
 21
14.87821670141935
 31
0.0
 11
192.0639790756382
 21
14.87821670141935
 31
0.0
 11
192.2930255665932
 21
14.87821670141935
 31
0.0
 11
192.5024395011806
 21
14.87821670141935
 31
0.0
 11
192.6824046012168
 21
14.87821670141935
 31
0.0
 11
192.8231045885177
 21
14.87821670141935
 31
0.0
 11
192.9147231848997
 21
14.87821670141935
 31
0.0
 11
192.947444112179
 21
14.87821670141935
 31
0.0
 11
192.947444112179
 21
14.85146346791909
 31
0.0
 11
192.947444112179
 21
14.79260635421853
 31
0.0
 11
192.947444112179
 21
14.73374924051797
 31
0.0
 11
192.947444112179
 21
14.70699600701772
 31
0.0
 11
192.9174728954758
 21
14.70699600701772
 31
0.0
 11
192.8352937529027
 21
14.70699600701772
 31
0.0
 11
192.7125084457641
 21
14.70699600701772
 31
0.0
 11
192.5607187353643
 21
14.70699600701772
 31
0.0
 11
192.3915263830079
 21
14.70699600701772
 31
0.0
 11
192.2165331499992
 21
14.70699600701772
 31
0.0
 11
192.0473407976427
 21
14.70699600701772
 31
0.0
 11
191.8955510872429
 21
14.70699600701772
 31
0.0
 11
191.7727657801043
 21
14.70699600701772
 31
0.0
 11
191.6905866375311
 21
14.70699600701772
 31
0.0
 11
191.660615420828
 21
14.70699600701772
 31
0.0
 11
191.6766359412526
 21
14.70165583340794
 31
0.0
 11
191.6926564616772
 21
14.69631565979815
 31
0.0
 11
191.6706155681421
 21
14.67558114591443
 31
0.0
 11
191.6284861855364
 21
14.6668587153611
 31
0.0
 11
191.5365235541378
 21
14.46909247312657
 31
0.0
 11
191.4279078521764
 21
14.25467511978509
 31
0.0
 11
191.3127500824808
 21
14.0462255905162
 31
0.0
 11
191.6857366675021
 21
14.05582441253029
 31
0.0
 11
192.083070003615
 21
14.06781232404994
 31
0.0
 11
192.4899342191145
 21
14.08102711828531
 31
0.0
 11
192.2983119496979
 21
14.28966761302481
 31
0.0
 11
192.0966752013699
 21
14.48229420151832
 31
0.0
 11
192.120494779475
 21
14.49525327269565
 31
0.0
 11
192.1728978513062
 21
14.52376322928576
 31
0.0
 11
192.2253009231374
 21
14.55227318587588
 31
0.0
 11
192.2491205012425
 21
14.5652322570532
 31
0.0
 11
192.4387101558627
 21
14.39079508370268
 31
0.0
 11
192.6200310940435
 21
14.20305846374091
 31
0.0
 11
192.7777729231147
 21
14.01782380992436
 31
0.0
 11
192.8966252504059
 21
13.85089253500949
 31
0.0
 11
192.8715408217924
 21
13.83501202286068
 31
0.0
 11
192.8163550788426
 21
13.80007489613331
 31
0.0
 11
192.7611693358928
 21
13.76513776940595
 31
0.0
 11
192.7360849072793
 21
13.74925725725714
 31
0.0
 11
192.6775518151613
 21
13.83887824681808
 31
0.0
 11
192.6050015078458
 21
13.93650288221031
 31
0.0
 11
192.2125412924095
 21
13.91636286943758
 31
0.0
 11
191.824947406956
 21
13.89803302999773
 31
0.0
 11
191.4567378976213
 21
13.88202178722395
 31
0.0
 11
191.1224308105413
 21
13.86883756444947
 31
0.0
 11
190.8365441918519
 21
13.8589887850075
 31
0.0
 11
190.8211862321741
 21
13.83220523466695
 31
0.0
 11
190.7937434290546
 21
13.82143559057244
 31
0.0
 11
190.7867927192319
 21
13.84370299445576
 31
0.0
 11
190.7702179496548
 21
13.89680218833138
 31
0.0
 11
190.7504351601596
 21
13.96017864553776
 31
0.0
 11
190.7338603905825
 21
14.01327783941338
 31
0.0
 11
190.7269096807598
 21
14.0355452432967
 31
0.0
 11
190.9091199859153
 21
14.03751638912952
 31
0.0
 11
191.1174975848588
 21
14.04356211829472
 31
0.0
 11
191.2303203127216
 21
14.25483550301554
 31
0.0
 11
191.3407936722035
 21
14.48509813155879
 31
0.0
 11
191.4358254265626
 21
14.70699600701772
 31
0.0
 11
191.4043277461596
 21
14.70699600701772
 31
0.0
 11
191.3212884069152
 21
14.70699600701772
 31
0.0
 11
191.2038879617767
 21
14.70699600701772
 31
0.0
 11
191.0693069636911
 21
14.70699600701772
 31
0.0
 11
190.9347259656056
 21
14.70699600701772
 31
0.0
 11
190.817325520467
 21
14.70699600701772
 31
0.0
 11
190.7342861812227
 21
14.70699600701772
 31
0.0
 11
190.7027885008197
 21
14.70699600701772
 31
0.0
  0
SPLINE
  5
AA
102
{ACAD_REACTORS
330
C7
102
}
330
48
100
AcDbEntity
  8
_U_30EC_U_30A4_U_30E4_U_30FC_1
  6
Continuous
 62
     2
100
AcDbSpline
210
0.0
220
0.0
230
1.0
 70
    11
 71
     3
 72
    35
 73
    31
 74
    29
 42
0.000000001
 43
0.0000000001
 44
0.00000001
 40
0.0
 40
0.0
 40
0.0
 40
0.0
 40
0.0335231036620645
 40
0.0713218571712051
 40
0.4278866681486683
 40
0.8116865841963705
 40
1.198190238000003
 40
1.56137954681268
 40
1.659983174622071
 40
1.75931557380724
 40
2.132719617231078
 40
2.525233363588808
 40
2.910815397779694
 40
3.265244364303317
 40
3.592606723582093
 40
3.964386154604019
 40
4.359942131737798
 40
4.758154118639262
 40
4.843846538699866
 40
4.936650065543197
 40
5.256616602537305
 40
5.58170740441602
 40
5.899719158308137
 40
6.198363494280683
 40
6.466301046615699
 40
6.493895311537021
 40
6.559697020196842
 40
6.638234543442445
 40
6.704036252154254
 40
6.73163050842306
 40
6.73163050842306
 40
6.73163050842306
 40
6.73163050842306
 10
191.973601056867
 20
16.23463843719134
 30
0.0
 10
191.967600609779
 20
16.22480690542323
 30
0.0
 10
191.9548344099158
 20
16.20388988579798
 30
0.0
 10
191.7949362006555
 20
16.17127126532689
 30
0.0
 10
192.2322025842338
 20
15.882066803367
 30
0.0
 10
192.4345394828261
 20
15.68041138358439
 30
0.0
 10
192.6819564267973
 20
15.43749387603274
 30
0.0
 10
193.1831513624608
 20
15.36047662757778
 30
0.0
 10
193.012556219897
 20
15.21876939174656
 30
0.0
 10
192.9383299463201
 20
15.01710366209112
 30
0.0
 10
192.6131432248188
 20
15.36956287174725
 30
0.0
 10
192.3277741670665
 20
15.53175212559564
 30
0.0
 10
192.0337604077658
 20
15.7368713005305
 30
0.0
 10
191.8084452691134
 20
16.21827488595455
 30
0.0
 10
191.5993085055521
 20
15.75343046609227
 30
0.0
 10
191.3207873674834
 20
15.54350952252911
 30
0.0
 10
191.0371383177209
 20
15.37424456359985
 30
0.0
 10
190.707863952783
 20
15.00142360907932
 30
0.0
 10
190.6277012318226
 20
15.19708014459003
 30
0.0
 10
190.4759724909745
 20
15.32491104190592
 30
0.0
 10
190.9083395826795
 20
15.40454031765934
 30
0.0
 10
191.0962565329766
 20
15.60026634915475
 30
0.0
 10
191.3468477420504
 20
15.81632996916752
 30
0.0
 10
191.5714350470161
 20
15.98190992300061
 30
0.0
 10
191.6259775409713
 20
16.26133964636828
 30
0.0
 10
191.7494661029011
 20
16.24737950408078
 30
0.0
 10
191.806027334452
 20
16.24521268867647
 30
0.0
 10
191.8761870984945
 20
16.2404685988136
 30
0.0
 10
191.9333414022107
 20
16.23709429350541
 30
0.0
 10
191.964419032084
 20
16.23519854711119
 30
0.0
 10
191.973601056867
 20
16.23463843719134
 30
0.0
 11
191.973601056867
 21
16.23463843719134
 31
0.0
 11
191.9525319069885
 21
16.20856374969785
 31
0.0
 11
191.9174464559426
 21
16.19450114553469
 31
0.0
 11
192.1512374769095
 21
15.92527961131382
 31
0.0
 11
192.4414585957567
 21
15.67413407969259
 31
0.0
 11
192.7612797483684
 21
15.45710987618784
 31
0.0
 11
193.083870870629
 21
15.29025232631638
 31
0.0
 11
193.0213299868077
 21
15.21402035584928
 31
0.0
 11
192.9688035818975
 21
15.12971197913424
 31
0.0
 11
192.6436279095814
 21
15.3132640483158
 31
0.0
 11
192.3237227768437
 21
15.54070139743429
 31
0.0
 11
192.0354200158608
 21
15.7967385512331
 31
0.0
 11
191.8050514588095
 21
16.06609003445566
 31
0.0
 11
191.5995531719515
 21
15.81126348721036
 31
0.0
 11
191.3288301341535
 21
15.55645182277756
 31
0.0
 11
191.0119538423247
 21
15.31969466354855
 31
0.0
 11
190.6679957933742
 21
15.11903163191465
 31
0.0
 11
190.6218855341339
 21
15.19126067703553
 31
0.0
 11
190.5636970460349
 21
15.26355586798965
 31
0.0
 11
190.8433040489016
 21
15.41911456961744
 31
0.0
 11
191.1093004621155
 21
15.60601009790405
 31
0.0
 11
191.3499997459747
 21
15.81384496285208
 31
0.0
 11
191.5537153607774
 21
16.03222167446416
 31
0.0
 11
191.7087607668218
 21
16.25074274274287
 31
0.0
 11
191.7363041569865
 21
16.24906789496551
 31
0.0
 11
191.8019845489177
 21
16.24507402718873
 31
0.0
 11
191.8803772747711
 21
16.24030715274548
 31
0.0
 11
191.9460576667023
 21
16.2363132849687
 31
0.0
 11
191.973601056867
 21
16.23463843719134
 31
0.0
  0
SPLINE
  5
AB
102
{ACAD_REACTORS
330
C8
102
}
330
48
100
AcDbEntity
  8
_U_30EC_U_30A4_U_30E4_U_30FC_1
  6
Continuous
 62
     2
100
AcDbSpline
210
0.0
220
0.0
230
1.0
 70
    11
 71
     3
 72
    15
 73
    11
 74
     9
 42
0.000000001
 43
0.0000000001
 44
0.00000001
 40
0.0
 40
0.0
 40
0.0
 40
0.0
 40
0.2785535985096802
 40
0.5215624748198895
 40
0.6076917376040897
 40
0.6938210001741814
 40
0.9405019146455136
 40
1.221691403489194
 40
1.300471877081132
 40
1.379252341684941
 40
1.379252341684941
 40
1.379252341684941
 40
1.379252341684941
 10
189.5681493631
 20
16.22930267330381
 30
0.0
 10
189.6296017794178
 20
16.17691646592716
 30
0.0
 10
189.7446649974114
 20
16.07882876798226
 30
0.0
 10
190.0397348497245
 20
15.92889785897217
 30
0.0
 10
189.9025147631857
 20
15.84343227515016
 30
0.0
 10
189.8041227843779
 20
15.71085785201557
 30
0.0
 10
189.713003359065
 20
16.01616985781423
 30
0.0
 10
189.3636839480654
 20
16.07967869465375
 30
0.0
 10
189.5119258376571
 20
16.17896509880879
 30
0.0
 10
189.5494081874237
 20
16.21252348402383
 30
0.0
 10
189.5681493631
 20
16.22930267330381
 30
0.0
 11
189.5681493631
 21
16.22930267330381
 31
0.0
 11
189.7919222440597
 21
16.06341774278972
 31
0.0
 11
189.9695046306384
 21
15.89753281227564
 31
0.0
 11
189.9066308127979
 21
15.83866743034593
 31
0.0
 11
189.8437569949575
 21
15.77980204841621
 31
0.0
 11
189.6688535117725
 21
15.95375677059491
 31
0.0
 11
189.447825685614
 21
16.12757920110703
 31
0.0
 11
189.507987524357
 21
16.17844093720542
 31
0.0
 11
189.5681493631
 21
16.22930267330381
 31
0.0
  0
SPLINE
  5
AC
102
{ACAD_REACTORS
330
C9
102
}
330
48
100
AcDbEntity
  8
_U_30EC_U_30A4_U_30E4_U_30FC_1
  6
Continuous
 62
     2
100
AcDbSpline
210
0.0
220
0.0
230
1.0
 70
    11
 71
     3
 72
    75
 73
    71
 74
    69
 42
0.000000001
 43
0.0000000001
 44
0.00000001
 40
0.0
 40
0.0
 40
0.0
 40
0.0
 40
0.0342546099129691
 40
0.1245622414432346
 40
0.2522385480897483
 40
0.3985991922940609
 40
0.544959836498075
 40
0.6726361431438745
 40
0.7629437746736853
 40
0.7971983935297866
 40
1.101723623449621
 40
1.408591244036571
 40
1.433332471690279
 40
1.487763172450081
 40
1.542193873081923
 40
1.566935100592473
 40
1.92352393182184
 40
2.27175570495364
 40
2.59057975510091
 40
2.858943305581197
 40
2.889120339309187
 40
2.918305855191103
 40
2.941366645531224
 40
2.996357760973121
 40
3.061992318140682
 40
3.116983433626872
 40
3.14004422399755
 40
3.411273122936528
 40
3.732441619741248
 40
3.761068217532946
 40
3.837787499630508
 40
3.948858699126147
 40
4.080541049104523
 40
4.219093782625906
 40
4.350776132722457
 40
4.461847332405792
 40
4.538566614678523
 40
4.567193212544771
 40
4.594907573999029
 40
4.666381453557596
 40
4.764111044011207
 40
4.87059253812601
 40
4.968322128642461
 40
5.039796008287174
 40
5.067510369784605
 40
5.094263603185818
 40
5.153120716668456
 40
5.211977830150904
 40
5.238731063551908
 40
5.272290535139176
 40
5.36338052944498
 40
5.497618415781686
 40
5.660621563453899
 40
5.8380073417496
 40
6.01539311991098
 40
6.178396267038577
 40
6.312634151842557
 40
6.403724143059547
 40
6.437283612672642
 40
6.464036846261259
 40
6.522893960004875
 40
6.581751071484142
 40
6.608504301591088
 40
6.637253941281235
 40
6.711397748903115
 40
6.812778057283699
 40
6.923237199249476
 40
7.024617507624091
 40
7.098761315207772
 40
7.127510946007723
 40
7.127510946007723
 40
7.127510946007723
 40
7.127510946007723
 10
188.4418622390565
 20
14.95849128473264
 30
0.0
 10
188.4418622819707
 20
14.9470731340872
 30
0.0
 10
188.441862448113
 20
14.90555257842629
 30
0.0
 10
188.4418593081787
 20
14.82146922003772
 30
0.0
 10
188.4418788279801
 20
14.70004497322328
 30
0.0
 10
188.4417912187738
 20
14.55980494047449
 30
0.0
 10
188.4421116235231
 20
14.42006556794576
 30
0.0
 10
188.4411605909741
 20
14.29745038894929
 30
0.0
 10
188.4431978595968
 20
14.21587074438044
 30
0.0
 10
188.4349433178746
 20
14.06271267077699
 30
0.0
 10
188.7430797940902
 20
14.2256023605472
 30
0.0
 10
189.0350645173737
 20
14.39482938688003
 30
0.0
 10
189.0408354448707
 20
14.25973235781911
 30
0.0
 10
189.0455471719891
 20
14.21617221160444
 30
0.0
 10
189.048253541192
 20
14.17211249350546
 30
0.0
 10
189.0672545672957
 20
14.02272590363129
 30
0.0
 10
188.6583942247304
 20
14.08681172241262
 30
0.0
 10
188.3793710348831
 20
13.97296341411017
 30
0.0
 10
188.1018081587168
 20
13.87364095811137
 30
0.0
 10
187.8099837184399
 20
13.91630687596363
 30
0.0
 10
187.7869144678658
 20
13.8132167974454
 30
0.0
 10
187.7537474383333
 20
13.78691091244471
 30
0.0
 10
187.7480653962739
 20
13.83455309036305
 30
0.0
 10
187.7284214559045
 20
13.8718033611507
 30
0.0
 10
187.7095089485623
 20
13.93007387847563
 30
0.0
 10
187.6942849867706
 20
13.97385201007804
 30
0.0
 10
187.6477246372938
 20
14.08759421046313
 30
0.0
 10
187.989089731245
 20
14.05576301120047
 30
0.0
 10
188.2679649367388
 20
14.02161435106477
 30
0.0
 10
188.2617753034908
 20
14.16913976479652
 30
0.0
 10
188.2630935452774
 20
14.24013150908832
 30
0.0
 10
188.2624831689949
 20
14.34719767958661
 30
0.0
 10
188.2625871570726
 20
14.47398529785998
 30
0.0
 10
188.2629987964057
 20
14.6084924349605
 30
0.0
 10
188.2613907841969
 20
14.73395549951184
 30
0.0
 10
188.2659902567927
 20
14.84505246719117
 30
0.0
 10
188.2564186502211
 20
14.90761886800689
 30
0.0
 10
188.2704001783692
 20
14.96595388295
 30
0.0
 10
188.2147384386706
 20
14.95289710582238
 30
0.0
 10
188.1575655197821
 20
14.96136307749498
 30
0.0
 10
188.0616048925648
 20
14.95729976080636
 30
0.0
 10
187.9633767522822
 20
14.95970889852474
 30
0.0
 10
187.8672582457561
 20
14.95551600613388
 30
0.0
 10
187.8104648525811
 20
14.96429346441162
 30
0.0
 10
187.7550356873385
 20
14.95094936850122
 30
0.0
 10
187.7670679427918
 20
15.00036910959257
 30
0.0
 10
187.7592003173938
 20
15.04393988030396
 30
0.0
 10
187.766629556383
 20
15.08830469118525
 30
0.0
 10
187.7551930564144
 20
15.13902297763992
 30
0.0
 10
187.8232102370134
 20
15.12162460757743
 30
0.0
 10
187.8968496879747
 20
15.13417450237189
 30
0.0
 10
188.0325064058211
 20
15.12799677011096
 30
0.0
 10
188.1884909024526
 20
15.13029203093085
 30
0.0
 10
188.3615926358144
 20
15.1294096826253
 30
0.0
 10
188.5346942964182
 20
15.13029207142408
 30
0.0
 10
188.6906789811218
 20
15.1279966295555
 30
0.0
 10
188.8263351889798
 20
15.13417486262431
 30
0.0
 10
188.8999756705653
 20
15.12162394218335
 30
0.0
 10
188.9679914174724
 20
15.13902373012142
 30
0.0
 10
188.9565590885923
 20
15.08830130414555
 30
0.0
 10
188.9639539458298
 20
15.04397060811108
 30
0.0
 10
188.9562039912271
 20
15.00028307550196
 30
0.0
 10
188.9681203741878
 20
14.95063590098477
 30
0.0
 10
188.9108170223617
 20
14.96461411338426
 30
0.0
 10
188.8520145789773
 20
14.95539755673254
 30
0.0
 10
188.75252936332
 20
14.95952268164929
 30
0.0
 10
188.6494280098349
 20
14.95822760025887
 30
0.0
 10
188.5537846354575
 20
14.95854077077641
 30
0.0
 10
188.4857467971616
 20
14.95848776697144
 30
0.0
 10
188.4514462213444
 20
14.95849051871656
 30
0.0
 10
188.4418622390565
 20
14.95849128473264
 30
0.0
 11
188.4418622390565
 21
14.95849128473264
 31
0.0
 11
188.4418622390565
 21
14.92423666587185
 31
0.0
 11
188.4418622390565
 21
14.83392903432975
 31
0.0
 11
188.4418622390565
 21
14.70625272766679
 31
0.0
 11
188.4418622390565
 21
14.5598920834434
 31
0.0
 11
188.4418622390565
 21
14.41353143922001
 31
0.0
 11
188.4418622390565
 21
14.28585513255705
 31
0.0
 11
188.4418622390565
 21
14.19554750101495
 31
0.0
 11
188.4418622390565
 21
14.16129288215416
 31
0.0
 11
188.7391932644568
 21
14.22709475713769
 31
0.0
 11
189.0384623627245
 21
14.29496038212073
 31
0.0
 11
189.0405487124976
 21
14.27030727882828
 31
0.0
 11
189.0451386819987
 21
14.2160704515849
 31
0.0
 11
189.0497286514997
 21
14.16183362434152
 31
0.0
 11
189.0518150012729
 21
14.13718052104907
 31
0.0
 11
188.705639688924
 21
14.05163370140897
 31
0.0
 11
188.3669653138838
 21
13.97060877629901
 31
0.0
 11
188.0563731516688
 21
13.89862764024928
 31
0.0
 11
187.7944444777955
 21
13.8402121877899
 31
0.0
 11
187.7817515029292
 21
13.81283442738013
 31
0.0
 11
187.7569794787514
 21
13.79740260446736
 31
0.0
 11
187.7491867589502
 21
13.81910683390637
 31
0.0
 11
187.7306041194242
 21
13.87086307333786
 31
0.0
 11
187.70842483999
 21
13.93263664943351
 31
0.0
 11
187.689842200464
 21
13.984392888865
 31
0.0
 11
187.6820494806628
 21
14.00609711830401
 31
0.0
 11
187.9482776335932
 21
14.05794001759666
 31
0.0
 11
188.262633493629
 21
14.1237396877191
 31
0.0
 11
188.262633493629
 21
14.15236628569624
 31
0.0
 11
188.262633493629
 21
14.22908556827499
 31
0.0
 11
188.262633493629
 21
14.34015676842631
 31
0.0
 11
188.262633493629
 21
14.47183911912118
 31
0.0
 11
188.262633493629
 21
14.61039185333056
 31
0.0
 11
188.262633493629
 21
14.74207420402542
 31
0.0
 11
188.262633493629
 21
14.85314540417675
 31
0.0
 11
188.262633493629
 21
14.92986468675549
 31
0.0
 11
188.262633493629
 21
14.95849128473264
 31
0.0
 11
188.2349191321109
 21
14.95849128473264
 31
0.0
 11
188.1634452524064
 21
14.95849128473264
 31
0.0
 11
188.0657156617901
 21
14.95849128473264
 31
0.0
 11
187.9592341675365
 21
14.95849128473264
 31
0.0
 11
187.8615045769201
 21
14.95849128473264
 31
0.0
 11
187.7900306972156
 21
14.95849128473264
 31
0.0
 11
187.7623163356976
 21
14.95849128473264
 31
0.0
 11
187.7623163356976
 21
14.98524451823289
 31
0.0
 11
187.7623163356976
 21
15.04410163193344
 31
0.0
 11
187.7623163356976
 21
15.10295874563399
 31
0.0
 11
187.7623163356976
 21
15.12971197913424
 31
0.0
 11
187.7958758072876
 21
15.12971197913424
 31
0.0
 11
187.8869658016031
 21
15.12971197913424
 31
0.0
 11
188.021203687963
 21
15.12971197913424
 31
0.0
 11
188.1842068356856
 21
15.12971197913424
 31
0.0
 11
188.3615926140897
 21
15.12971197913424
 31
0.0
 11
188.5389783924938
 21
15.12971197913424
 31
0.0
 11
188.7019815402165
 21
15.12971197913424
 31
0.0
 11
188.8362194265763
 21
15.12971197913424
 31
0.0
 11
188.9273094208919
 21
15.12971197913424
 31
0.0
 11
188.9608688924819
 21
15.12971197913424
 31
0.0
 11
188.9608688924819
 21
15.10295874563399
 31
0.0
 11
188.9608688924819
 21
15.04410163193344
 31
0.0
 11
188.9608688924819
 21
14.98524451823289
 31
0.0
 11
188.9608688924819
 21
14.95849128473264
 31
0.0
 11
188.9321192527878
 21
14.95849128473264
 31
0.0
 11
188.8579754451555
 21
14.95849128473264
 31
0.0
 11
188.7565951367605
 21
14.95849128473264
 31
0.0
 11
188.6461359947778
 21
14.95849128473264
 31
0.0
 11
188.5447556863828
 21
14.95849128473264
 31
0.0
 11
188.4706118787506
 21
14.95849128473264
 31
0.0
 11
188.4418622390565
 21
14.95849128473264
 31
0.0
  0
SPLINE
  5
AD
102
{ACAD_REACTORS
330
CA
102
}
330
48
100
AcDbEntity
  8
_U_30EC_U_30A4_U_30E4_U_30FC_1
  6
Continuous
 62
     2
100
AcDbSpline
210
0.0
220
0.0
230
1.0
 70
    11
 71
     3
 72
    91
 73
    87
 74
    85
 42
0.000000001
 43
0.0000000001
 44
0.00000001
 40
0.0
 40
0.0
 40
0.0
 40
0.0
 40
0.0345987051695434
 40
0.1258134969461085
 40
0.2547723404888703
 40
0.4026032099153841
 40
0.5504340793416704
 40
0.679392922883608
 40
0.770607714657132
 40
0.8052064287780925
 40
1.124852390615282
 40
1.427402236308878
 40
1.70635662745352
 40
1.955541417875194
 40
2.169485938566337
 40
2.344350786664802
 40
2.480568411561932
 40
2.590440557428927
 40
2.649189927151103
 40
2.749320643306289
 40
2.912632739879981
 40
3.147745656000189
 40
3.244827496385124
 40
3.338490056946767
 40
3.583815413207195
 40
3.761423943238563
 40
3.886956104362737
 40
3.985855451886941
 40
4.091766255337854
 40
4.250186473812019
 40
4.422734315084643
 40
4.628285684838723
 40
4.872093227758567
 40
5.152549652145678
 40
5.464967135837655
 40
5.803201477852577
 40
6.160362988814049
 40
6.193449448276132
 40
6.284170385501787
 40
6.419718138764628
 40
6.587285046385906
 40
6.774063446723792
 40
6.967245678113775
 40
7.154024078817789
 40
7.321590987026147
 40
7.457138740890505
 40
7.547859678556241
 40
7.580946138182801
 40
7.608533084714852
 40
7.669224367077819
 40
7.72991564943003
 40
7.757502595950077
 40
7.790278062553559
 40
7.880146277431029
 40
8.014419963180464
 40
8.180411842397993
 40
8.365434637679462
 40
8.556801071622735
 40
8.741823866830847
 40
8.907815745916414
 40
9.04208943150754
 40
9.131957646249665
 40
9.164733112797242
 40
9.41542506314018
 40
9.66798618095865
 40
9.694169807462817
 40
9.756607686047776
 40
9.831130315322582
 40
9.893568193900046
 40
9.919751820398863
 40
9.950967964690676
 40
9.99642163121084
 40
10.22087981037473
 40
10.44341866197562
 40
10.47847970788875
 40
10.57091337438775
 40
10.70159545461255
 40
10.85140174170383
 40
11.00120802880506
 40
11.13189010907412
 40
11.22432377583037
 40
11.25938480938986
 40
11.28697175596174
 40
11.34766303835947
 40
11.40835432042097
 40
11.43594125892131
 40
11.43594125892131
 40
11.43594125892131
 40
11.43594125892131
 10
190.081811433329
 20
15.55242795125078
 30
0.0
 10
190.0702785844942
 20
15.55242790287917
 30
0.0
 10
190.0283409444999
 20
15.55242773704165
 30
0.0
 10
189.9434129719027
 20
15.5524312580091
 30
0.0
 10
189.8207688553129
 20
15.55240926435879
 30
0.0
 10
189.6791206916994
 20
15.55250801177055
 30
0.0
 10
189.537975369849
 20
15.55214686232421
 30
0.0
 10
189.4141351317905
 20
15.5532188360909
 30
0.0
 10
189.3317217825382
 20
15.55092249091269
 30
0.0
 10
189.1727791229694
 20
15.56048569373421
 30
0.0
 10
189.3503402353376
 20
15.1978539431137
 30
0.0
 10
189.3379739205453
 20
14.95243127723114
 30
0.0
 10
189.4064519473865
 20
14.66862501324835
 30
0.0
 10
189.469302432097
 20
14.43250999939035
 30
0.0
 10
189.5452253431729
 20
14.23326740396129
 30
0.0
 10
189.6303189577016
 20
14.07745347451376
 30
0.0
 10
189.7244607592936
 20
13.97657857781393
 30
0.0
 10
189.8282648207727
 20
13.92465852638967
 30
0.0
 10
189.9125872030774
 20
13.97606484379615
 30
0.0
 10
189.9351322179452
 20
14.09144544037518
 30
0.0
 10
189.9745730975369
 20
14.21885149702381
 30
0.0
 10
189.9202919734942
 20
14.53622328086755
 30
0.0
 10
190.0451218072473
 20
14.38982180140905
 30
0.0
 10
190.2019291513604
 20
14.35795300331174
 30
0.0
 10
190.0947720007059
 20
14.12421357767627
 30
0.0
 10
190.0808711209868
 20
13.95972776583656
 30
0.0
 10
190.0234709467226
 20
13.83130869122481
 30
0.0
 10
189.9335020145008
 20
13.76018802352827
 30
0.0
 10
189.8095274657877
 20
13.74432324142253
 30
0.0
 10
189.663427319686
 20
13.77993797554172
 30
0.0
 10
189.5243894320284
 20
13.90000570500278
 30
0.0
 10
189.4102003962145
 20
14.07435682550322
 30
0.0
 10
189.3146141301486
 20
14.29946603111241
 30
0.0
 10
189.2318652572627
 20
14.56388246006443
 30
0.0
 10
189.1807179256413
 20
14.88187933098545
 30
0.0
 10
189.0770189207338
 20
15.15543728488912
 30
0.0
 10
189.2042841208521
 20
15.56005818612869
 30
0.0
 10
189.0357890623019
 20
15.55112367849679
 30
0.0
 10
188.9511995787077
 20
15.55315961418364
 30
0.0
 10
188.8189876387628
 20
15.55213937388407
 30
0.0
 10
188.6560505094104
 20
15.5525323031843
 30
0.0
 10
188.4733759170534
 20
15.55235696313369
 30
0.0
 10
188.2847057373383
 20
15.55260105307469
 30
0.0
 10
188.101446902019
 20
15.55185657906238
 30
0.0
 10
187.9404746832718
 20
15.55416360522426
 30
0.0
 10
187.8029808335277
 20
15.54799804883663
 30
0.0
 10
187.7289590372311
 20
15.56032838458212
 30
0.0
 10
187.6613215186858
 20
15.54329323723557
 30
0.0
 10
187.673237371927
 20
15.59524438447528
 30
0.0
 10
187.6655677285694
 20
15.64071424966529
 30
0.0
 10
187.6732592225116
 20
15.68614453703704
 30
0.0
 10
187.6613141797762
 20
15.73802395984569
 30
0.0
 10
187.7283588305868
 20
15.72119143490262
 30
0.0
 10
187.8017375665677
 20
15.73335409092669
 30
0.0
 10
187.9379128305272
 20
15.72727231074956
 30
0.0
 10
188.0973811801513
 20
15.72954834315056
 30
0.0
 10
188.2789173085836
 20
15.7288123399896
 30
0.0
 10
188.465803486218
 20
15.72905954196131
 30
0.0
 10
188.6468012316836
 20
15.72886400799251
 30
0.0
 10
188.8080802578879
 20
15.72932234714837
 30
0.0
 10
188.9393882124887
 20
15.72812673751203
 30
0.0
 10
189.0225051322597
 20
15.73051347319741
 30
0.0
 10
189.1556236547815
 20
15.72230605725461
 30
0.0
 10
189.0645893502659
 20
15.97752868952654
 30
0.0
 10
188.9789633074419
 20
16.24164358328246
 30
0.0
 10
189.0990589003455
 20
16.22904442969165
 30
0.0
 10
189.1514264948544
 20
16.22694235763075
 30
0.0
 10
189.2214497569715
 20
16.22535399889657
 30
0.0
 10
189.2671922337817
 20
16.21602567538112
 30
0.0
 10
189.3220812646933
 20
16.22545966915427
 30
0.0
 10
189.2963574785681
 20
16.17733028655169
 30
0.0
 10
189.1825397571452
 20
16.18266829744174
 30
0.0
 10
189.3159346621137
 20
15.95449174576774
 30
0.0
 10
189.1943658735471
 20
15.7215685659592
 30
0.0
 10
189.3223188769413
 20
15.73087258884438
 30
0.0
 10
189.4049048406461
 20
15.72801001754678
 30
0.0
 10
189.5307214850824
 20
15.729234374123
 30
0.0
 10
189.6741469838059
 20
15.72932431888963
 30
0.0
 10
189.8157420951728
 20
15.72746163183851
 30
0.0
 10
189.9459127249969
 20
15.73333075937161
 30
0.0
 10
190.0193452286191
 20
15.72070340823201
 30
0.0
 10
190.0891112922097
 20
15.73877563110411
 30
0.0
 10
190.0775772605397
 20
15.68612850546325
 30
0.0
 10
190.0833184346683
 20
15.64221317686548
 30
0.0
 10
190.081661577091
 20
15.59089982676548
 30
0.0
 10
190.0817757561671
 20
15.56158792021636
 30
0.0
 10
190.081811433329
 20
15.55242795125078
 30
0.0
 11
190.081811433329
 21
15.55242795125078
 31
0.0
 11
190.0472127192052
 21
15.55242795125078
 31
0.0
 11
189.9559979274242
 21
15.55242795125078
 31
0.0
 11
189.8270390838718
 21
15.55242795125078
 31
0.0
 11
189.6792082144337
 21
15.55242795125078
 31
0.0
 11
189.5313773449955
 21
15.55242795125078
 31
0.0
 11
189.4024185014431
 21
15.55242795125078
 31
0.0
 11
189.3112037096621
 21
15.55242795125078
 31
0.0
 11
189.2766049955383
 21
15.55242795125078
 31
0.0
 11
189.3083140497694
 21
15.23435864930121
 31
0.0
 11
189.3527866656866
 21
14.9350952278808
 31
0.0
 11
189.409238911832
 21
14.66191269512576
 31
0.0
 11
189.4768868567478
 21
14.42208605917227
 31
0.0
 11
189.5549465689762
 21
14.22289032815655
 31
0.0
 11
189.6426341170592
 21
14.07160051021478
 31
0.0
 11
189.7391655695389
 21
13.97549161348318
 31
0.0
 11
189.8437569949575
 21
13.94183864609793
 31
0.0
 11
189.8943077302786
 21
13.97177376978835
 31
0.0
 11
189.9310588991551
 21
14.06491619815047
 31
0.0
 11
189.9562640977527
 21
14.22627151712054
 31
0.0
 11
189.9721769222368
 21
14.46084531263482
 31
0.0
 11
190.0494082682584
 21
14.40202182306618
 31
0.0
 11
190.1327184184386
 21
14.3592188543269
 31
0.0
 11
190.1066365811218
 21
14.11528388661009
 31
0.0
 11
190.0673317805106
 21
13.94207902887562
 31
0.0
 11
190.0105702596765
 21
13.83011272445917
 31
0.0
 11
189.932118261691
 21
13.76989341669645
 31
0.0
 11
189.8277420296256
 21
13.75192954892317
 31
0.0
 11
189.6738595065097
 21
13.78957440012361
 31
0.0
 11
189.5388902376748
 21
13.89707348877403
 31
0.0
 11
189.4221739916163
 21
14.06627361744809
 31
0.0
 11
189.32305053683
 21
14.28902158871944
 31
0.0
 11
189.2408596418114
 21
14.55716420516173
 31
0.0
 11
189.174941075056
 21
14.86254826934861
 31
0.0
 11
189.1246346050594
 21
15.19702058385374
 31
0.0
 11
189.0892800003172
 21
15.55242795125078
 31
0.0
 11
189.0561935405844
 21
15.55242795125078
 31
0.0
 11
188.9654726026075
 21
15.55242795125078
 31
0.0
 11
188.8299248482186
 21
15.55242795125078
 31
0.0
 11
188.6623579392495
 21
15.55242795125078
 31
0.0
 11
188.4755795375324
 21
15.55242795125078
 31
0.0
 11
188.2823973048993
 21
15.55242795125078
 31
0.0
 11
188.0956189031822
 21
15.55242795125078
 31
0.0
 11
187.9280519942132
 21
15.55242795125078
 31
0.0
 11
187.7925042398242
 21
15.55242795125078
 31
0.0
 11
187.7017833018473
 21
15.55242795125078
 31
0.0
 11
187.6686968421146
 21
15.55242795125078
 31
0.0
 11
187.6686968421146
 21
15.58001489785847
 31
0.0
 11
187.6686968421146
 21
15.64070618039537
 31
0.0
 11
187.6686968421146
 21
15.70139746293228
 31
0.0
 11
187.6686968421146
 21
15.72898440953996
 31
0.0
 11
187.7014723087632
 21
15.72898440953996
 31
0.0
 11
187.7913405237674
 21
15.72898440953996
 31
0.0
 11
187.9256142097149
 21
15.72898440953996
 31
0.0
 11
188.0916060891933
 21
15.72898440953996
 31
0.0
 11
188.2766288847902
 21
15.72898440953996
 31
0.0
 11
188.4679953190933
 21
15.72898440953996
 31
0.0
 11
188.6530181146902
 21
15.72898440953996
 31
0.0
 11
188.8190099941686
 21
15.72898440953996
 31
0.0
 11
188.9532836801161
 21
15.72898440953996
 31
0.0
 11
189.0431518951203
 21
15.72898440953996
 31
0.0
 11
189.0759273617689
 21
15.72898440953996
 31
0.0
 11
189.0659183950103
 21
15.97947647544958
 31
0.0
 11
189.0599112510663
 21
16.23196614552531
 31
0.0
 11
189.0860575870659
 21
16.23056921608122
 31
0.0
 11
189.1484065421419
 21
16.22723807663761
 31
0.0
 11
189.2228230369099
 21
16.22326220052749
 31
0.0
 11
189.2851719919859
 21
16.21993106108388
 31
0.0
 11
189.3113183279855
 21
16.21853413163979
 31
0.0
 11
189.298293111304
 21
16.19016528616079
 31
0.0
 11
189.2551649266405
 21
16.17581274276164
 31
0.0
 11
189.2574991961821
 21
15.95136670115108
 31
0.0
 11
189.2658452735903
 21
15.72898440953996
 31
0.0
 11
189.3009063195165
 21
15.72898440953996
 31
0.0
 11
189.3933399860495
 21
15.72898440953996
 31
0.0
 11
189.5240220663201
 21
15.72898440953996
 31
0.0
 11
189.6738283534596
 21
15.72898440953996
 31
0.0
 11
189.8236346405992
 21
15.72898440953996
 31
0.0
 11
189.9543167208698
 21
15.72898440953996
 31
0.0
 11
190.0467503874027
 21
15.72898440953996
 31
0.0
 11
190.081811433329
 21
15.72898440953996
 31
0.0
 11
190.081811433329
 21
15.70139746293228
 31
0.0
 11
190.081811433329
 21
15.64070618039537
 31
0.0
 11
190.081811433329
 21
15.58001489785847
 31
0.0
 11
190.081811433329
 21
15.55242795125078
 31
0.0
  0
SPLINE
  5
AE
102
{ACAD_REACTORS
330
CB
102
}
330
48
100
AcDbEntity
  8
_U_30EC_U_30A4_U_30E4_U_30FC_1
  6
Continuous
 62
     2
100
AcDbSpline
210
0.0
220
0.0
230
1.0
 70
    11
 71
     3
 72
   118
 73
   114
 74
   112
 42
0.000000001
 43
0.0000000001
 44
0.00000001
 40
0.0
 40
0.0
 40
0.0
 40
0.0
 40
0.1054708162973382
 40
0.2466098270051839
 40
0.3965912874591326
 40
0.5285525069754068
 40
0.6156245055642598
 40
0.6431434105797911
 40
0.7036850037986784
 40
0.764226598450535
 40
0.7917455052355822
 40
0.9287404319990519
 40
1.106572819088102
 40
1.287544879681124
 40
1.317578308030641
 40
1.399928030857275
 40
1.52296820480005
 40
1.675072986590671
 40
1.844616533180748
 40
2.019973001638809
 40
2.189516548880122
 40
2.341621331585456
 40
2.464661506320593
 40
2.547011229647156
 40
2.57704465816812
 40
2.603797890893191
 40
2.662655002908963
 40
2.721512114949804
 40
2.748265347702983
 40
2.77421530734506
 40
2.84595931340739
 40
2.954338556588589
 40
3.090194227585766
 40
3.244367517100729
 40
3.40769961584449
 40
3.57103171453964
 40
3.725205003920316
 40
3.861060674729816
 40
3.969439917716509
 40
4.04118392362918
 40
4.067133883213174
 40
4.311886746012323
 40
4.547897258335658
 40
4.764747083044112
 40
4.952749679951899
 40
5.045772974196037
 40
5.137862019645106
 40
5.330543169793126
 40
5.553448265244106
 40
5.795083855888287
 40
6.043293412177371
 40
6.285761695541313
 40
6.313902908752826
 40
6.384255941793415
 40
6.475714884767004
 40
6.567173827759038
 40
6.637526860839816
 40
6.665668074074179
 40
6.692018920328151
 40
6.749990782071216
 40
6.807962643790584
 40
6.834313490018055
 40
6.856393084245306
 40
6.913335195649929
 40
6.991194817302564
 40
7.076026942283769
 40
7.153886563725231
 40
7.210828674844756
 40
7.232908268931092
 40
7.258199334923613
 40
7.324875781592262
 40
7.419142481924919
 40
7.527204308841859
 40
7.635266135230437
 40
7.729532834168423
 40
7.796209279292746
 40
7.821500344594692
 40
7.844652988850819
 40
7.899863140541626
 40
7.965759128053849
 40
8.020969279771219
 40
8.044121924046685
 40
8.069356610160805
 40
8.109134395441629
 40
8.13223810019134
 40
8.193147867786706
 40
8.279261678876878
 40
8.377977512674093
 40
8.476693347146876
 40
8.56280716041193
 40
8.623716930826717
 40
8.646820636853668
 40
8.671988793774482
 40
8.734909185828421
 40
8.816705695189135
 40
8.898502204815735
 40
8.961422597378224
 40
8.986590754551337
 40
9.01294160073349
 40
9.070913462380572
 40
9.128885324082061
 40
9.155236170325383
 40
9.180404327929425
 40
9.243324721948527
 40
9.32512123421232
 40
9.406917746638003
 40
9.469838141978487
 40
9.495006288271261
 40
9.517811184379404
 40
9.572192090487409
 40
9.637098333281644
 40
9.69147923951585
 40
9.714284125643891
 40
9.714284125643891
 40
9.714284125643891
 40
9.714284125643891
 10
185.2874469028653
 20
15.26889163187718
 30
0.0
 10
185.3090990569038
 20
15.2411186924281
 30
0.0
 10
185.3597257109474
 20
15.17618054561236
 30
0.0
 10
185.4349383202591
 20
15.06891060312896
 30
0.0
 10
185.5248482274346
 20
14.95377438266626
 30
0.0
 10
185.5709169676674
 20
14.85357045748317
 30
0.0
 10
185.6655825294656
 20
14.78434006814944
 30
0.0
 10
185.6204439320413
 20
14.73771639678273
 30
0.0
 10
185.594704778579
 20
14.69660308866039
 30
0.0
 10
185.5645196708012
 20
14.66065971727939
 30
0.0
 10
185.5193684730562
 20
14.58579782596095
 30
0.0
 10
185.4710504458563
 20
14.80782524253605
 30
0.0
 10
185.3968539713074
 20
14.84510677337712
 30
0.0
 10
185.2836047324606
 20
15.11610202130599
 30
0.0
 10
185.2885133578169
 20
15.00095328446228
 30
0.0
 10
185.2868486556306
 20
14.92836675781626
 30
0.0
 10
185.2876830076713
 20
14.80625588483985
 30
0.0
 10
185.2873609540265
 20
14.6591380081046
 30
0.0
 10
185.2875076912455
 20
14.49307063956556
 30
0.0
 10
185.2872950092722
 20
14.32187554608601
 30
0.0
 10
185.2879497252035
 20
14.15552828635498
 30
0.0
 10
185.2859192461138
 20
14.00935173055693
 30
0.0
 10
185.2913460399931
 20
13.88471047474611
 30
0.0
 10
185.2804930868708
 20
13.81718656540626
 30
0.0
 10
185.2956739155555
 20
13.75549061417022
 30
0.0
 10
185.2457895108133
 20
13.76727503897003
 30
0.0
 10
185.2017150342521
 20
13.75943822779969
 30
0.0
 10
185.1582371630199
 20
13.76760441372703
 30
0.0
 10
185.1092346786487
 20
13.75538056738468
 30
0.0
 10
185.1218731234823
 20
13.80960667249313
 30
0.0
 10
185.1130182968449
 20
13.86936918907558
 30
0.0
 10
185.1175058770312
 20
13.9792202904437
 30
0.0
 10
185.115796013599
 20
14.11029975405679
 30
0.0
 10
185.1163550915985
 20
14.26198011444328
 30
0.0
 10
185.1161928768692
 20
14.42211074929953
 30
0.0
 10
185.1162269924674
 20
14.58236865674566
 30
0.0
 10
185.1162514960125
 20
14.73370247520439
 30
0.0
 10
185.1161453543223
 20
14.86582156338601
 30
0.0
 10
185.116429914193
 20
14.97294802533193
 30
0.0
 10
185.1158675547566
 20
15.03808619579473
 30
0.0
 10
185.1180765083689
 20
15.16618957858675
 30
0.0
 10
185.0319435998602
 20
14.79097610391575
 30
0.0
 10
184.9555140818501
 20
14.63918193123393
 30
0.0
 10
184.8660040767833
 20
14.47766206446307
 30
0.0
 10
184.7640413217328
 20
14.20471848820173
 30
0.0
 10
184.7187976491039
 20
14.36717346596509
 30
0.0
 10
184.6102355941671
 20
14.45605432058121
 30
0.0
 10
184.7995791751752
 20
14.6054979496141
 30
0.0
 10
184.85653405457
 20
14.79749136974927
 30
0.0
 10
184.9717520993352
 20
15.02899622906757
 30
0.0
 10
184.9940151630134
 20
15.21797259759063
 30
0.0
 10
185.1771905152139
 20
15.49454089325931
 30
0.0
 10
185.0538033597553
 20
15.48698978832095
 30
0.0
 10
184.9925684166834
 20
15.48856772366119
 30
0.0
 10
184.9081999617065
 20
15.48882592573674
 30
0.0
 10
184.8204235085966
 20
15.48544845751206
 30
0.0
 10
184.7656768696123
 20
15.49394814982021
 30
0.0
 10
184.7104703026025
 20
15.48048561049788
 30
0.0
 10
184.7222823035537
 20
15.52931442126764
 30
0.0
 10
184.7142496151795
 20
15.57269004896709
 30
0.0
 10
184.7228186104679
 20
15.61509438309573
 30
0.0
 10
184.7102943409158
 20
15.66267796552117
 30
0.0
 10
184.7555101538735
 20
15.65267212995109
 30
0.0
 10
184.8014815562724
 20
15.65894105174061
 30
0.0
 10
184.877722204771
 20
15.65593561405872
 30
0.0
 10
184.9561296131993
 20
15.65770448278541
 30
0.0
 10
185.0323992648933
 20
15.65464793981661
 30
0.0
 10
185.0783009459473
 20
15.66103971376176
 30
0.0
 10
185.1231733965399
 20
15.65093822978897
 30
0.0
 10
185.1105552275632
 20
15.70157201581898
 30
0.0
 10
185.1191936582705
 20
15.7550126188207
 30
0.0
 10
185.1152361595441
 20
15.8486325513168
 30
0.0
 10
185.1162325068334
 20
15.95112606688924
 30
0.0
 10
185.1171927413072
 20
16.05353270248163
 30
0.0
 10
185.1133211458005
 20
16.14735929609321
 30
0.0
 10
185.1217789814363
 20
16.20036542840353
 30
0.0
 10
185.1093075932834
 20
16.25211435651189
 30
0.0
 10
185.1542106389849
 20
16.23850747226757
 30
0.0
 10
185.1955083836772
 20
16.24100480320585
 30
0.0
 10
185.259534428105
 20
16.23648060574486
 30
0.0
 10
185.2986111148787
 20
16.2278100304331
 30
0.0
 10
185.3476543498743
 20
16.23515102070686
 30
0.0
 10
185.3225080030591
 20
16.19602896051758
 30
0.0
 10
185.2815901333723
 20
16.2056384245581
 30
0.0
 10
185.2910109616603
 20
16.15540148169778
 30
0.0
 10
185.2855647318746
 20
16.1038594563949
 30
0.0
 10
185.2881699601804
 20
16.01959707584521
 30
0.0
 10
185.2870102202153
 20
15.92559135583408
 30
0.0
 10
185.2883591064231
 20
15.83196865395526
 30
0.0
 10
185.2849970101508
 20
15.74679517552222
 30
0.0
 10
185.2920959917769
 20
15.69716856072044
 30
0.0
 10
185.2812569154545
 20
15.64993694969989
 30
0.0
 10
185.3304010225246
 20
15.66201674936852
 30
0.0
 10
185.3794877630147
 20
15.65447393363011
 30
0.0
 10
185.4573714280642
 20
15.65686070361433
 30
0.0
 10
185.5350365172896
 20
15.65899381905415
 30
0.0
 10
185.5845393931356
 20
15.65193391922454
 30
0.0
 10
185.634459475064
 20
15.66360151936214
 30
0.0
 10
185.6223198516882
 20
15.61540235371393
 30
0.0
 10
185.6305838229144
 20
15.57249219801237
 30
0.0
 10
185.6223198650784
 20
15.52958201851385
 30
0.0
 10
185.6344594549855
 20
15.48138288754865
 30
0.0
 10
185.5845395158747
 20
15.49305034471512
 30
0.0
 10
185.5350350651204
 20
15.48599202435047
 30
0.0
 10
185.4573784382972
 20
15.48811665228604
 30
0.0
 10
185.379464386576
 20
15.49053389365762
 30
0.0
 10
185.3304500352716
 20
15.48291848194486
 30
0.0
 10
185.2813246108943
 20
15.49507952557594
 30
0.0
 10
185.2915559988571
 20
15.45073013424158
 30
0.0
 10
185.2856677678053
 20
15.40925436202912
 30
0.0
 10
185.2878788305568
 20
15.34915394315302
 30
0.0
 10
185.2874109346146
 20
15.30225782762889
 30
0.0
 10
185.2874386992913
 20
15.27650146418195
 30
0.0
 10
185.2874469028653
 20
15.26889163187718
 30
0.0
 11
185.2874469028653
 21
15.26889163187718
 31
0.0
 11
185.3516977534484
 21
15.18524999634256
 31
0.0
 11
185.4348258835499
 21
15.0711888974822
 31
0.0
 11
185.5216831568896
 21
14.94891767195723
 31
0.0
 11
185.5971214371872
 21
14.84064565642876
 31
0.0
 11
185.6459925881627
 21
14.7685821875579
 31
0.0
 11
185.6296821285094
 21
14.74641782124399
 31
0.0
 11
185.593799117272
 21
14.69765621535339
 31
0.0
 11
185.5579161060346
 21
14.6488946094628
 31
0.0
 11
185.5416056463813
 21
14.62673024314889
 31
0.0
 11
185.4763067109446
 21
14.74716139023813
 31
0.0
 11
185.3848434243235
 21
14.89966983670207
 31
0.0
 11
185.2874469028653
 21
15.05219788193141
 31
0.0
 11
185.2874469028653
 21
15.02216445328252
 31
0.0
 11
185.2874469028653
 21
14.93981472956782
 31
0.0
 11
185.2874469028653
 21
14.81677455413527
 31
0.0
 11
185.2874469028653
 21
14.66466977033283
 31
0.0
 11
185.2874469028653
 21
14.49512622150844
 31
0.0
 11
185.2874469028653
 21
14.31976975101009
 31
0.0
 11
185.2874469028653
 21
14.1502262021857
 31
0.0
 11
185.2874469028653
 21
13.99812141838326
 31
0.0
 11
185.2874469028653
 21
13.87508124295071
 31
0.0
 11
185.2874469028653
 21
13.79273151923601
 31
0.0
 11
185.2874469028653
 21
13.76269809058712
 31
0.0
 11
185.2606936700409
 21
13.76269809058712
 31
0.0
 11
185.2018365578271
 21
13.76269809058712
 31
0.0
 11
185.1429794456133
 21
13.76269809058712
 31
0.0
 11
185.1162262127889
 21
13.76269809058712
 31
0.0
 11
185.1162262127889
 21
13.7886480503125
 31
0.0
 11
185.1162262127889
 21
13.86039205661208
 31
0.0
 11
185.1162262127889
 21
13.96877130017102
 31
0.0
 11
185.1162262127889
 21
14.10462697167447
 31
0.0
 11
185.1162262127889
 21
14.25880026180761
 31
0.0
 11
185.1162262127889
 21
14.42213236125558
 31
0.0
 11
185.1162262127889
 21
14.58546446070356
 31
0.0
 11
185.1162262127889
 21
14.7396377508367
 31
0.0
 11
185.1162262127889
 21
14.87549342234015
 31
0.0
 11
185.1162262127889
 21
14.98387266589909
 31
0.0
 11
185.1162262127889
 21
15.05561667219867
 31
0.0
 11
185.1162262127889
 21
15.08156663192405
 31
0.0
 11
185.0379865861721
 21
14.84965603302372
 31
0.0
 11
184.9497110789304
 21
14.63077616328678
 31
0.0
 11
184.8544106930046
 21
14.43598991333547
 31
0.0
 11
184.7550964303357
 21
14.27636017379202
 31
0.0
 11
184.7109198342406
 21
14.35822446196599
 31
0.0
 11
184.6588057383481
 21
14.43414885430811
 31
0.0
 11
184.7627302590299
 21
14.59640087926757
 31
0.0
 11
184.8629319864735
 21
14.79551465421781
 31
0.0
 11
184.9550446607902
 21
15.01890447916196
 31
0.0
 11
185.0347020220913
 21
15.2539846541032
 31
0.0
 11
185.0975378104881
 21
15.48816947904466
 31
0.0
 11
185.0693965972143
 21
15.48816947904466
 31
0.0
 11
184.9990435640298
 21
15.48816947904466
 31
0.0
 11
184.9075846208899
 21
15.48816947904466
 31
0.0
 11
184.81612567775
 21
15.48816947904466
 31
0.0
 11
184.7457726445655
 21
15.48816947904466
 31
0.0
 11
184.7176314312917
 21
15.48816947904466
 31
0.0
 11
184.7176314312917
 21
15.51452032539223
 31
0.0
 11
184.7176314312917
 21
15.57249218735689
 31
0.0
 11
184.7176314312917
 21
15.63046404932155
 31
0.0
 11
184.7176314312917
 21
15.65681489566912
 31
0.0
 11
184.739711025602
 21
15.65681489566912
 31
0.0
 11
184.7966531372445
 21
15.65681489566912
 31
0.0
 11
184.8745127592862
 21
15.65681489566912
 31
0.0
 11
184.9593448847944
 21
15.65681489566912
 31
0.0
 11
185.0372045068361
 21
15.65681489566912
 31
0.0
 11
185.0941466184785
 21
15.65681489566912
 31
0.0
 11
185.1162262127889
 21
15.65681489566912
 31
0.0
 11
185.1162262127889
 21
15.68210596174353
 31
0.0
 11
185.1162262127889
 21
15.74878240866697
 31
0.0
 11
185.1162262127889
 21
15.84304910948977
 31
0.0
 11
185.1162262127889
 21
15.95111093726224
 31
0.0
 11
185.1162262127889
 21
16.05917276503471
 31
0.0
 11
185.1162262127889
 21
16.15343946585751
 31
0.0
 11
185.1162262127889
 21
16.22011591278095
 31
0.0
 11
185.1162262127889
 21
16.24540697885536
 31
0.0
 11
185.1393181988665
 21
16.243732131078
 31
0.0
 11
185.1943837041284
 21
16.23973826330122
 31
0.0
 11
185.2601070491184
 21
16.23497138885796
 31
0.0
 11
185.3151725543804
 21
16.23097752108117
 31
0.0
 11
185.3382645404579
 21
16.22930267330381
 31
0.0
 11
185.3249012644362
 21
16.20789677921191
 31
0.0
 11
185.2874469028653
 21
16.19450114553469
 31
0.0
 11
185.2874469028653
 21
16.17139743948578
 31
0.0
 11
185.2874469028653
 21
16.11048766899319
 31
0.0
 11
185.2874469028653
 21
16.02437385553816
 31
0.0
 11
185.2874469028653
 21
15.9256580206019
 31
0.0
 11
185.2874469028653
 21
15.82694218566565
 31
0.0
 11
185.2874469028653
 21
15.74082837221061
 31
0.0
 11
185.2874469028653
 21
15.67991860171803
 31
0.0
 11
185.2874469028653
 21
15.65681489566912
 31
0.0
 11
185.3126150604809
 21
15.65681489566912
 31
0.0
 11
185.3755354545199
 21
15.65681489566912
 31
0.0
 11
185.4573319667706
 21
15.65681489566912
 31
0.0
 11
185.5391284790213
 21
15.65681489566912
 31
0.0
 11
185.6020488730603
 21
15.65681489566912
 31
0.0
 11
185.6272170306759
 21
15.65681489566912
 31
0.0
 11
185.6272170306759
 21
15.63046404932155
 31
0.0
 11
185.6272170306759
 21
15.57249218735689
 31
0.0
 11
185.6272170306759
 21
15.51452032539223
 31
0.0
 11
185.6272170306759
 21
15.48816947904466
 31
0.0
 11
185.6020488730603
 21
15.48816947904466
 31
0.0
 11
185.5391284790213
 21
15.48816947904466
 31
0.0
 11
185.4573319667706
 21
15.48816947904466
 31
0.0
 11
185.3755354545199
 21
15.48816947904466
 31
0.0
 11
185.3126150604809
 21
15.48816947904466
 31
0.0
 11
185.2874469028653
 21
15.48816947904466
 31
0.0
 11
185.2874469028653
 21
15.46536458293924
 31
0.0
 11
185.2874469028653
 21
15.41098367684171
 31
0.0
 11
185.2874469028653
 21
15.34607743408013
 31
0.0
 11
185.2874469028653
 21
15.2916965279826
 31
0.0
 11
185.2874469028653
 21
15.26889163187718
 31
0.0
  0
SPLINE
  5
AF
102
{ACAD_REACTORS
330
CC
102
}
330
48
100
AcDbEntity
  8
_U_30EC_U_30A4_U_30E4_U_30FC_1
  6
Continuous
 62
     2
100
AcDbSpline
210
0.0
220
0.0
230
1.0
 70
    11
 71
     3
 72
    47
 73
    43
 74
    41
 42
0.000000001
 43
0.0000000001
 44
0.00000001
 40
0.0
 40
0.0
 40
0.0
 40
0.0
 40
0.2207912809957213
 40
0.4459404186303092
 40
0.4902387190459588
 40
0.5327473892721127
 40
0.5742260451226153
 40
0.6155432630560879
 40
0.6568164066316365
 40
0.6982511618781576
 40
0.7407663929317235
 40
0.785136674317642
 40
1.010288833836443
 40
1.231080507002296
 40
1.451765243652517
 40
1.676638205891809
 40
1.720461045359778
 40
1.830018144043643
 40
1.972442372353274
 40
2.114866600677643
 40
2.224423699395268
 40
2.268246538883509
 40
2.493628801207341
 40
2.715602830286739
 40
2.934211330706491
 40
3.1495023698555
 40
3.231387784851146
 40
3.318231873854295
 40
3.405143198198283
 40
3.48697030172072
 40
3.702258172494179
 40
3.920866283534407
 40
4.142839325932195
 40
4.368221903865658
 40
4.412044743360138
 40
4.521601842096153
 40
4.664026070452634
 40
4.806450298809342
 40
4.916007397547034
 40
4.959830237043358
 40
5.184703515847396
 40
5.405387250767764
 40
5.405387250767764
 40
5.405387250767764
 40
5.405387250767764
 10
182.6507427258646
 20
15.73406440953872
 30
0.0
 10
182.6568139420004
 20
15.79758482501211
 30
0.0
 10
182.6690762107244
 20
15.92587938689627
 30
0.0
 10
182.5604706879412
 20
16.20166220174077
 30
0.0
 10
182.6761985896603
 20
16.17188133432055
 30
0.0
 10
182.7171842509015
 20
16.16765556262818
 30
0.0
 10
182.7591205797518
 20
16.16310446389608
 30
0.0
 10
182.8004196625711
 20
16.16201982929484
 30
0.0
 10
182.8417032115556
 20
16.16310338195227
 30
0.0
 10
182.8836148270648
 20
16.16766112711343
 30
0.0
 10
182.924598354902
 20
16.1718743020973
 30
0.0
 10
183.040492284349
 20
16.20177611317534
 30
0.0
 10
182.9295652727457
 20
15.92339806609892
 30
0.0
 10
182.9574856365266
 20
15.74283140824953
 30
0.0
 10
182.9404267346971
 20
15.50961042346472
 30
0.0
 10
182.9414637282102
 20
15.34906622543146
 30
0.0
 10
182.9414099399405
 20
15.22284817558722
 30
0.0
 10
182.9414277372481
 20
15.12428963336241
 30
0.0
 10
182.941418858108
 20
14.99280702442963
 30
0.0
 10
182.9414263928033
 20
14.8613284496865
 30
0.0
 10
182.9414129405128
 20
14.7627622269409
 30
0.0
 10
182.9414531717492
 20
14.63639735624152
 30
0.0
 10
182.9406746403818
 20
14.4748206882287
 30
0.0
 10
182.9565958319267
 20
14.24361821892914
 30
0.0
 10
182.9333468885407
 20
14.05874351972001
 30
0.0
 10
183.0360183444367
 20
13.78935602770054
 30
0.0
 10
182.8820238362836
 20
13.82660112685817
 30
0.0
 10
182.8004129802832
 20
13.82137994680534
 30
0.0
 10
182.7188192292582
 20
13.82660620378349
 30
0.0
 10
182.5648513666842
 20
13.78937069885385
 30
0.0
 10
182.6674183421918
 20
14.0587512986288
 30
0.0
 10
182.6442045316089
 20
14.24361585325414
 30
0.0
 10
182.6600444655139
 20
14.47482218565639
 30
0.0
 10
182.6593296313429
 20
14.63639712308503
 30
0.0
 10
182.6593664569907
 20
14.7627623121052
 30
0.0
 10
182.6593549000271
 20
14.86132756635981
 30
0.0
 10
182.6593575019214
 20
14.9928112741722
 30
0.0
 10
182.659364853178
 20
15.124275480312
 30
0.0
 10
182.6593442541352
 20
15.22287786275326
 30
0.0
 10
182.6594082192029
 20
15.34896149354427
 30
0.0
 10
182.658173394759
 20
15.51210091383771
 30
0.0
 10
182.6532040396746
 20
15.6605418377755
 30
0.0
 10
182.6507427258646
 20
15.73406440953872
 30
0.0
 11
182.6507427258646
 21
15.73406440953872
 31
0.0
 11
182.641732820038
 21
15.95467178795577
 31
0.0
 11
182.6318769706146
 21
16.17960510387179
 31
0.0
 11
182.6756985840801
 21
16.17312391463728
 31
0.0
 11
182.7178400934214
 21
16.16754892331925
 31
0.0
 11
182.7591371409791
 21
16.16367167505631
 31
0.0
 11
182.8004341885365
 21
16.16238072887607
 31
0.0
 11
182.8416871388731
 21
16.16367167505631
 31
0.0
 11
182.8829400892098
 21
16.16754892331925
 31
0.0
 11
182.9250882131343
 21
16.17312391463728
 31
0.0
 11
182.9689825870146
 21
16.17960510387179
 31
0.0
 11
182.9590577693892
 21
15.95467178795577
 31
0.0
 11
182.950038420831
 21
15.73406440953872
 31
0.0
 11
182.9435638463435
 21
15.51347467001055
 31
0.0
 11
182.9414218238286
 21
15.28861190965007
 31
0.0
 11
182.9414218238286
 21
15.24478907015486
 31
0.0
 11
182.9414218238286
 21
15.13523197141682
 31
0.0
 11
182.9414218238286
 21
14.99280774305737
 31
0.0
 11
182.9414218238286
 21
14.85038351469792
 31
0.0
 11
182.9414218238286
 21
14.74082641595989
 31
0.0
 11
182.9414218238286
 21
14.69700357646467
 31
0.0
 11
182.9435638463435
 21
14.47163149318766
 31
0.0
 11
182.950038420831
 21
14.2497519099098
 31
0.0
 11
182.9590577693892
 21
14.03132954885329
 31
0.0
 11
182.9689825870146
 21
13.81626739612926
 31
0.0
 11
182.8872616168771
 21
13.82145433189184
 31
0.0
 11
182.8004341885365
 21
13.82315538223862
 31
0.0
 11
182.7135395119339
 21
13.82145433189184
 31
0.0
 11
182.6318769706146
 21
13.81626739612926
 31
0.0
 11
182.641732820038
 21
14.03132954885329
 31
0.0
 11
182.6507427258646
 21
14.2497519099098
 31
0.0
 11
182.6571833838799
 21
14.47163149318766
 31
0.0
 11
182.6593583588024
 21
14.69700357646467
 31
0.0
 11
182.6593583588024
 21
14.74082641595988
 31
0.0
 11
182.6593583588024
 21
14.85038351469792
 31
0.0
 11
182.6593583588024
 21
14.99280774305737
 31
0.0
 11
182.6593583588024
 21
15.13523197141682
 31
0.0
 11
182.6593583588024
 21
15.24478907015486
 31
0.0
 11
182.6593583588024
 21
15.28861190965007
 31
0.0
 11
182.6571833838799
 21
15.51347467001055
 31
0.0
 11
182.6507427258646
 21
15.73406440953872
 31
0.0
  0
SPLINE
  5
B0
102
{ACAD_REACTORS
330
CD
102
}
330
48
100
AcDbEntity
  8
_U_30EC_U_30A4_U_30E4_U_30FC_1
  6
Continuous
 62
     2
100
AcDbSpline
210
0.0
220
0.0
230
1.0
 70
    11
 71
     3
 72
   110
 73
   106
 74
   104
 42
0.000000001
 43
0.0000000001
 44
0.00000001
 40
0.0
 40
0.0
 40
0.0
 40
0.0
 40
0.2203406257277767
 40
0.4407808782838055
 40
0.5952494494614464
 40
0.7488431659393036
 40
0.9023581831308453
 40
1.056801968670401
 40
1.210736449099873
 40
1.363041386539694
 40
1.515315729683037
 40
1.669377239147988
 40
1.721611652756458
 40
1.773199502942843
 40
1.824933793209893
 40
1.877110426487872
 40
1.982682281206607
 40
2.078781667087445
 40
2.172809640822109
 40
2.271937807378734
 40
2.378349933379213
 40
2.494131557736288
 40
2.626681683943478
 40
2.783145050795877
 40
2.890701232940747
 40
2.993130312454639
 40
3.099869730691617
 40
3.22023781669111
 40
3.352695482737404
 40
3.481732806389651
 40
3.593499473690183
 40
3.674323013331705
 40
3.817951711952683
 40
3.946167120793766
 40
4.061405053453309
 40
4.166480796003092
 40
4.262478775059129
 40
4.350736673550887
 40
4.433071991253829
 40
4.511216293814572
 40
4.564262454117905
 40
4.618474415571531
 40
4.670128488754116
 40
4.72229687912633
 40
4.819540945314255
 40
4.931194984128055
 40
5.049996040257725
 40
5.168643755415356
 40
5.283970811762568
 40
5.392260784910394
 40
5.486512254876412
 40
5.559178233949868
 40
5.591425852853534
 40
5.626215969637907
 40
5.667155838674463
 40
5.717449290214282
 40
5.738402360944893
 40
5.784499116553856
 40
5.830595872164824
 40
5.851548942897678
 40
5.873019280661793
 40
5.924217778408335
 40
5.985325662817709
 40
6.036524160567722
 40
6.05799449833425
 40
6.236847789607508
 40
6.381409928945684
 40
6.493190424178717
 40
6.574067534230523
 40
6.691018086205561
 40
6.814881554220336
 40
6.944307823240402
 40
7.071266716066139
 40
7.1934886044619
 40
7.309042773128098
 40
7.41400720317078
 40
7.505140441886565
 40
7.531150360599743
 40
7.559221645322327
 40
7.587202218920988
 40
7.612569159499187
 40
7.662550809481078
 40
7.70287887576423
 40
7.857328205231073
 40
8.01079956808886
 40
8.165256399657753
 40
8.322232698714064
 40
8.479564855016694
 40
8.635216230290954
 40
8.790882550925815
 40
8.948305154947352
 40
9.168271839033052
 40
9.38735898098731
 40
9.608047961033567
 40
9.832914234792764
 40
9.858338694963098
 40
9.925366817230106
 40
10.02013071422769
 40
10.12876249859008
 40
10.23739428295258
 40
10.332158179952
 40
10.39918630222403
 40
10.42461076239792
 40
10.64992019336952
 40
10.87188524531197
 40
10.87188524531197
 40
10.87188524531197
 40
10.87188524531197
 10
179.9057788376618
 20
15.7392326039819
 30
0.0
 10
179.9092864933542
 20
15.80616462073804
 30
0.0
 10
179.9163033987663
 20
15.94005891915859
 30
0.0
 10
179.8198027599074
 20
16.22548554971468
 30
0.0
 10
180.0510134726109
 20
16.16284386190283
 30
0.0
 10
180.1919290057156
 20
16.17001554055992
 30
0.0
 10
180.3490417757589
 20
16.16235883078244
 30
0.0
 10
180.5025913427287
 20
16.1625275228304
 30
0.0
 10
180.6545104935082
 20
16.16182040535432
 30
0.0
 10
180.8142214813231
 20
16.1721015835164
 30
0.0
 10
180.9408972601119
 20
16.15496511080749
 30
0.0
 10
181.1370821122078
 20
16.22727260107148
 30
0.0
 10
181.103439527908
 20
16.12640699080116
 30
0.0
 10
181.1052011317184
 20
16.0761925394767
 30
0.0
 10
181.102734207346
 20
16.02712335586466
 30
0.0
 10
181.134707696601
 20
15.94063490846997
 30
0.0
 10
181.0010399903256
 20
15.98997438608337
 30
0.0
 10
180.9172208688057
 20
15.98430634314169
 30
0.0
 10
180.8173861139324
 20
15.99465516706298
 30
0.0
 10
180.7186576720146
 20
16.00086450411087
 30
0.0
 10
180.6121532771111
 20
16.00697763816777
 30
0.0
 10
180.491051169806
 20
16.01588883484585
 30
0.0
 10
180.3703381502454
 20
16.00521605912382
 30
0.0
 10
180.1812553843438
 20
16.06468503080366
 30
0.0
 10
180.2129028505311
 20
15.90558320077539
 30
0.0
 10
180.1995563316834
 20
15.80839128339904
 30
0.0
 10
180.197495842645
 20
15.69634065110102
 30
0.0
 10
180.1958188044671
 20
15.57699685629351
 30
0.0
 10
180.1973336794233
 20
15.4503259215511
 30
0.0
 10
180.1956582478671
 20
15.32301588016117
 30
0.0
 10
180.2058844271658
 20
15.22451566404463
 30
0.0
 10
180.1779006596582
 20
15.08388702625628
 30
0.0
 10
180.3508029999306
 20
15.13989551134095
 30
0.0
 10
180.4645020202772
 20
15.12719951478499
 30
0.0
 10
180.584015167224
 20
15.13448377051255
 30
0.0
 10
180.6888491425072
 20
15.13878017056755
 30
0.0
 10
180.7843084898612
 20
15.14330568258975
 30
0.0
 10
180.8763823507032
 20
15.151492011462
 30
0.0
 10
180.9476551782438
 20
15.14643850638111
 30
0.0
 10
181.0544931705687
 20
15.18536425031676
 30
0.0
 10
181.0226603598035
 20
15.1051712200588
 30
0.0
 10
181.026616450393
 20
15.05562936846033
 30
0.0
 10
181.0234502392012
 20
15.00557478039816
 30
0.0
 10
181.0550791490587
 20
14.92128847612022
 30
0.0
 10
180.9210133677692
 20
14.97425365495155
 30
0.0
 10
180.8292322793201
 20
14.96540080890443
 30
0.0
 10
180.7079729189603
 20
14.97570049965154
 30
0.0
 10
180.5914113119771
 20
14.97748911767502
 30
0.0
 10
180.4783375745879
 20
14.97787017109694
 30
0.0
 10
180.3679246308471
 20
14.98415449472181
 30
0.0
 10
180.289812406784
 20
14.97189133255362
 30
0.0
 10
180.1913625833644
 20
15.00453887616128
 30
0.0
 10
180.2012355173561
 20
14.94769748054206
 30
0.0
 10
180.1973923244404
 20
14.91392130557984
 30
0.0
 10
180.1966789884268
 20
14.8711960470941
 30
0.0
 10
180.1963369642976
 20
14.83401607262152
 30
0.0
 10
180.1963834255345
 20
14.79487237370769
 30
0.0
 10
180.1963649429927
 20
14.75716849497685
 30
0.0
 10
180.1963703431807
 20
14.71944955232402
 30
0.0
 10
180.19636972142
 20
14.6899432474515
 30
0.0
 10
180.1963698151545
 20
14.65873577699301
 30
0.0
 10
180.196370428792
 20
14.61414424908084
 30
0.0
 10
180.1963671499337
 20
14.55963956508852
 30
0.0
 10
180.1963759623481
 20
14.51505540201448
 30
0.0
 10
180.1963359653417
 20
14.43117808585741
 30
0.0
 10
180.1976024270255
 20
14.31737520677678
 30
0.0
 10
180.1950274117844
 20
14.16830395933709
 30
0.0
 10
180.206500938172
 20
14.06597203813905
 30
0.0
 10
180.1823506222264
 20
13.93338903885835
 30
0.0
 10
180.3332993946476
 20
13.97895732272019
 30
0.0
 10
180.4428436671555
 20
13.96427012162348
 30
0.0
 10
180.573397047392
 20
13.96920435125064
 30
0.0
 10
180.6990312209514
 20
13.9725770532336
 30
0.0
 10
180.8188730625602
 20
13.97711497498774
 30
0.0
 10
180.9391362611426
 20
13.99048536182005
 30
0.0
 10
181.0222761663516
 20
13.98068712782596
 30
0.0
 10
181.1456080421076
 20
14.04126214623317
 30
0.0
 10
181.1244269203956
 20
13.98532460134022
 30
0.0
 10
181.1235950270117
 20
13.95939249372346
 30
0.0
 10
181.1218963707558
 20
13.93197256190939
 30
0.0
 10
181.1217974888829
 20
13.89738195206385
 30
0.0
 10
181.1203659301329
 20
13.86050408220767
 30
0.0
 10
181.1532804192192
 20
13.76846841021807
 30
0.0
 10
180.9551306988106
 20
13.84132015974832
 30
0.0
 10
180.830054829489
 20
13.81825726508606
 30
0.0
 10
180.6673071295156
 20
13.82454021985786
 30
0.0
 10
180.5129366450001
 20
13.82260943909925
 30
0.0
 10
180.3566670436944
 20
13.82393762599267
 30
0.0
 10
180.1970544465282
 20
13.82059872487862
 30
0.0
 10
180.0540326342237
 20
13.83265795728239
 30
0.0
 10
179.8197144881629
 20
13.76952001976918
 30
0.0
 10
179.9173810751197
 20
14.05620527466317
 30
0.0
 10
179.9006868780059
 20
14.24988308142661
 30
0.0
 10
179.9146296709685
 20
14.47848242880293
 30
0.0
 10
179.9142987846634
 20
14.6338459395505
 30
0.0
 10
179.9143078119264
 20
14.73966336444125
 30
0.0
 10
179.9143055876316
 20
14.80205784124214
 30
0.0
 10
179.914306555189
 20
14.89220425248327
 30
0.0
 10
179.9143065473262
 20
14.99621167157438
 30
0.0
 10
179.9143053861104
 20
15.10022131375296
 30
0.0
 10
179.9143090971502
 20
15.19036243688767
 30
0.0
 10
179.9143011051052
 20
15.25276803097215
 30
0.0
 10
179.9143334275018
 20
15.35868835961119
 30
0.0
 10
179.913144078832
 20
15.5162671654474
 30
0.0
 10
179.9082216489256
 20
15.66528219822064
 30
0.0
 10
179.9057788376618
 20
15.7392326039819
 30
0.0
 11
179.9057788376618
 21
15.7392326039819
 31
0.0
 11
179.8966918223741
 21
15.95938578101018
 31
0.0
 11
179.8868249573134
 21
16.17960510387179
 31
0.0
 11
180.04115751414
 21
16.17312391463728
 31
0.0
 11
180.1946500189047
 21
16.16754892331925
 31
0.0
 11
180.3481160653367
 21
16.16367167505631
 31
0.0
 11
180.502554455494
 21
16.16238072887607
 31
0.0
 11
180.6564835227474
 21
16.16367167505631
 31
0.0
 11
180.80873910046
 21
16.16754892331925
 31
0.0
 11
180.9609113551074
 21
16.17312391463728
 31
0.0
 11
181.1148364762483
 21
16.17960510387179
 31
0.0
 11
181.1070811703125
 21
16.12794961777358
 31
0.0
 11
181.1044991623592
 21
16.07642642334204
 31
0.0
 11
181.1070811703124
 21
16.0247566056466
 31
0.0
 11
181.1148364762483
 21
15.97315954836783
 31
0.0
 11
181.0094874054411
 21
15.98001446156057
 31
0.0
 11
180.913637570006
 21
15.98693552058658
 31
0.0
 11
180.8198593171904
 21
15.99378381919599
 31
0.0
 11
180.7209679915882
 21
16.0006321178054
 31
0.0
 11
180.6147532199924
 21
16.00710999974824
 31
0.0
 11
180.4991060528039
 21
16.01268829835794
 31
0.0
 11
180.3666126447258
 21
16.01656554662087
 31
0.0
 11
180.2101546018424
 21
16.01785649280112
 31
0.0
 11
180.2062663293721
 21
15.91037061609185
 31
0.0
 11
180.20153800484
 21
15.80805072896464
 31
0.0
 11
180.197660756675
 21
15.70138175329687
 31
0.0
 11
180.1963698105272
 21
15.5810205901325
 31
0.0
 11
180.1967799146836
 21
15.44856355891564
 31
0.0
 11
180.1980896021503
 21
15.31953288186455
 31
0.0
 11
180.199407457705
 21
15.20777398432308
 31
0.0
 11
180.199819115366
 21
15.12695149302383
 31
0.0
 11
180.3434452935875
 21
15.12780256941249
 31
0.0
 11
180.4716343930759
 21
15.13039989580077
 31
0.0
 11
180.5868078221795
 21
15.13425509545254
 31
0.0
 11
180.6917756312221
 21
15.13901649302076
 31
0.0
 11
180.7876346289422
 21
15.14418027774174
 31
0.0
 11
180.8757413374192
 21
15.14934406246267
 31
0.0
 11
180.9578881438496
 21
15.15491243919739
 31
0.0
 11
181.0357692335572
 21
15.16132086801523
 31
0.0
 11
181.0280180445186
 21
15.10884407115336
 31
0.0
 11
181.0254328449317
 21
15.05469378470856
 31
0.0
 11
181.0280180445186
 21
15.00310444444366
 31
0.0
 11
181.0357692335572
 21
14.95151510417882
 31
0.0
 11
180.9389813454015
 21
14.96092324653756
 31
0.0
 11
180.8275950722016
 21
14.96865128473012
 31
0.0
 11
180.7089261429373
 21
14.97425273438145
 31
0.0
 11
180.5903167449213
 21
14.97726788195011
 31
0.0
 11
180.4750025117521
 21
14.97898767361638
 31
0.0
 11
180.36672619507
 21
14.98070746528258
 31
0.0
 11
180.2724839317709
 21
14.98202486979616
 31
0.0
 11
180.199819115366
 21
14.98243607639329
 31
0.0
 11
180.199407457705
 21
14.95019108508191
 31
0.0
 11
180.1980896021503
 21
14.91542593752118
 31
0.0
 11
180.1967799146836
 21
14.87450702260084
 31
0.0
 11
180.1963698105272
 21
14.8242152430995
 31
0.0
 11
180.1963698105272
 21
14.8032621723582
 31
0.0
 11
180.1963698105272
 21
14.75716541672736
 31
0.0
 11
180.1963698105272
 21
14.7110686610965
 31
0.0
 11
180.1963698105272
 21
14.69011559035521
 31
0.0
 11
180.1963698105272
 21
14.6686452525828
 31
0.0
 11
180.1963698105272
 21
14.61744675481784
 31
0.0
 11
180.1963698105272
 21
14.55633887038868
 31
0.0
 11
180.1963698105272
 21
14.50514037262372
 31
0.0
 11
180.1963698105272
 21
14.48367003485131
 31
0.0
 11
180.1967799146836
 21
14.30481721371548
 31
0.0
 11
180.1980896021503
 21
14.16026100715442
 31
0.0
 11
180.2002868589709
 21
14.04850210961289
 31
0.0
 11
180.2032586986986
 21
13.96767961831365
 31
0.0
 11
180.3202092517448
 21
13.96767961831365
 31
0.0
 11
180.4440727208745
 21
13.96767961831365
 31
0.0
 11
180.5734925526422
 21
13.9689705644939
 31
0.0
 11
180.7003922282245
 21
13.97284781275682
 31
0.0
 11
180.8224658067974
 21
13.97886708358865
 31
0.0
 11
180.9377587499463
 21
13.98663260442002
 31
0.0
 11
181.0421754573519
 21
13.99734161483402
 31
0.0
 11
181.1320599255449
 21
14.01237656274692
 31
0.0
 11
181.1264254031191
 21
13.98698427976715
 31
0.0
 11
181.1234433285423
 21
13.95907184053802
 31
0.0
 11
181.12213398812
 21
13.93112191867002
 31
0.0
 11
181.1217235369195
 21
13.90575829888473
 31
0.0
 11
181.1243087365064
 21
13.85584355063325
 31
0.0
 11
181.1320599255449
 21
13.81626739612926
 31
0.0
 11
180.9776977178344
 21
13.82145433189184
 31
0.0
 11
180.8242357818764
 21
13.82315538223862
 31
0.0
 11
180.6697789496483
 21
13.82315538223862
 31
0.0
 11
180.5128026496768
 21
13.82315538223862
 31
0.0
 11
180.3554704921537
 21
13.82315538223862
 31
0.0
 11
180.199819115366
 21
13.82315538223862
 31
0.0
 11
180.0441620874242
 21
13.82145433189184
 31
0.0
 11
179.8868249573134
 21
13.81626739612926
 31
0.0
 11
179.8966918223741
 21
14.0360126738521
 31
0.0
 11
179.9057788376618
 21
14.2549112849085
 31
0.0
 11
179.9121721518401
 21
14.47550763902003
 31
0.0
 11
179.914306345501
 21
14.70036378479715
 31
0.0
 11
179.914306345501
 21
14.72578824496874
 31
0.0
 11
179.914306345501
 21
14.79281636723931
 31
0.0
 11
179.914306345501
 21
14.88758026424253
 31
0.0
 11
179.914306345501
 21
14.99621204861207
 31
0.0
 11
179.914306345501
 21
15.10484383298162
 31
0.0
 11
179.914306345501
 21
15.19960772998484
 31
0.0
 11
179.914306345501
 21
15.2666358522554
 31
0.0
 11
179.914306345501
 21
15.292060312427
 31
0.0
 11
179.9121721518401
 21
15.51735963528734
 31
0.0
 11
179.9057788376618
 21
15.7392326039819
 31
0.0
  0
SPLINE
  5
B1
102
{ACAD_REACTORS
330
CE
102
}
330
48
100
AcDbEntity
  8
_U_30EC_U_30A4_U_30E4_U_30FC_1
  6
Continuous
 62
     2
100
AcDbSpline
210
0.0
220
0.0
230
1.0
 70
    11
 71
     3
 72
    95
 73
    91
 74
    89
 42
0.000000001
 43
0.0000000001
 44
0.00000001
 40
0.0
 40
0.0
 40
0.0
 40
0.0
 40
0.6550406656910939
 40
1.30808728903194
 40
1.420803739835807
 40
1.566130759770802
 40
1.757067341888474
 40
2.006513545026472
 40
2.087328263121571
 40
2.185328872295651
 40
2.294612454748393
 40
2.408936380534824
 40
2.526802767798577
 40
2.646360524615619
 40
2.762535723971598
 40
2.870057342870173
 40
2.966883448431662
 40
3.050803243518317
 40
3.115818222436626
 40
3.156030057150272
 40
3.213914225080259
 40
3.276689026450574
 40
3.342960320981351
 40
3.404230667150601
 40
3.45382280949341
 40
3.532499827188464
 40
3.634775188507204
 40
3.754909333008198
 40
3.889736761660693
 40
4.035769602175257
 40
4.187256681197652
 40
4.338733685676
 40
4.488478734676167
 40
4.634708317831632
 40
4.771493189921316
 40
4.892686571561257
 40
5.199775528944495
 40
5.460353566929673
 40
5.667603142345559
 40
5.814722905404531
 40
5.828990806219857
 40
5.855488336304469
 40
5.869756237118772
 40
6.189796507762811
 40
6.531890469873017
 40
6.883053637016986
 40
7.230512024911365
 40
7.566966656764573
 40
7.8852035597073
 40
8.172887439719121
 40
8.418011594062715
 40
8.443926721190637
 40
8.510760470613125
 40
8.602145393795634
 40
8.701714041647076
 40
8.793098965075306
 40
8.859932715057878
 40
8.885847842603528
 40
9.242301256612743
 40
9.589275455016697
 40
9.9218085431641
 40
10.23479624298461
 40
10.29968150889177
 40
10.35323493887751
 40
10.40154625355142
 40
10.46482922477828
 40
10.55973900668409
 40
10.69239545985622
 40
10.84920353475676
 40
11.01626328594785
 40
11.18672024367448
 40
11.35372582577215
 40
11.50257442292431
 40
11.61866495023295
 40
11.71329869152878
 40
11.82511050573912
 40
11.9446488084572
 40
12.06929242642511
 40
12.1970729043518
 40
12.32562632860533
 40
12.45034565331283
 40
12.56646595170332
 40
12.6709900741464
 40
12.76077625936788
 40
12.82703233506699
 40
12.87429132785998
 40
12.89831990323337
 40
12.92234847860026
 40
13.53984767410328
 40
14.18294284359377
 40
14.18294284359377
 40
14.18294284359377
 40
14.18294284359377
 10
177.3067935648021
 20
14.70898038201724
 30
0.0
 10
177.1752019758551
 20
14.82265058603233
 30
0.0
 10
176.912419380273
 20
15.04964496316164
 30
0.0
 10
176.3997393441019
 20
15.89214462956289
 30
0.0
 10
176.4106654595363
 20
15.5342337757702
 30
0.0
 10
176.4041226527989
 20
15.39267392272134
 30
0.0
 10
176.4028026631773
 20
15.19421305299281
 30
0.0
 10
176.4018117602539
 20
15.02150296045982
 30
0.0
 10
176.4024101751975
 20
14.87865373257579
 30
0.0
 10
176.4038994301882
 20
14.78265005413357
 30
0.0
 10
176.4055683588473
 20
14.6754550326314
 30
0.0
 10
176.4071934954615
 20
14.56164211517581
 30
0.0
 10
176.4092429501687
 20
14.44441572604589
 30
0.0
 10
176.4123165501926
 20
14.3265641123297
 30
0.0
 10
176.4156339697044
 20
14.2122808732062
 30
0.0
 10
176.4193605340281
 20
14.10521401867277
 30
0.0
 10
176.4217338161424
 20
14.01007408766921
 30
0.0
 10
176.4278718888357
 20
13.92558557205694
 30
0.0
 10
176.4239784495947
 20
13.8692308729814
 30
0.0
 10
176.4455230443078
 20
13.79825022472352
 30
0.0
 10
176.3680940058618
 20
13.82902677604481
 30
0.0
 10
176.3116353240191
 20
13.82011242517614
 30
0.0
 10
176.2540495896808
 20
13.82896218398274
 30
0.0
 10
176.1690163478474
 20
13.79738225225944
 30
0.0
 10
176.2009714146382
 20
13.88095155992189
 30
0.0
 10
176.199070528254
 20
13.94882608968308
 30
0.0
 10
176.21079600473
 20
14.05233256764418
 30
0.0
 10
176.2164241053
 20
14.17002125616693
 30
0.0
 10
176.223790217894
 20
14.30388609164423
 30
0.0
 10
176.2320759701611
 20
14.44764152872631
 30
0.0
 10
176.2398851897427
 20
14.59714022843443
 30
0.0
 10
176.2457571222658
 20
14.74792549402079
 30
0.0
 10
176.2503667817969
 20
14.89699943878437
 30
0.0
 10
176.2542632117544
 20
15.04122913163022
 30
0.0
 10
176.2570715126564
 20
15.17583905213017
 30
0.0
 10
176.2576698755023
 20
15.36469614347354
 30
0.0
 10
176.261602386715
 20
15.58975494313153
 30
0.0
 10
176.24421753785
 20
15.86367091125707
 30
0.0
 10
176.2850417342583
 20
16.02787112098596
 30
0.0
 10
176.1995153256002
 20
16.22749661465097
 30
0.0
 10
176.2660558907689
 20
16.22385458403977
 30
0.0
 10
176.2838724273231
 20
16.22413447160853
 30
0.0
 10
176.4056801797502
 20
16.22632927398613
 30
0.0
 10
176.5080770335463
 20
15.94675118721515
 30
0.0
 10
176.7580021509357
 20
15.74563008536003
 30
0.0
 10
176.9870035331111
 20
15.47792614987922
 30
0.0
 10
177.2245151213108
 20
15.22646413862365
 30
0.0
 10
177.4486090740772
 20
14.98969974061369
 30
0.0
 10
177.6750716283008
 20
14.73218692583074
 30
0.0
 10
177.8325687886513
 20
14.61649335056921
 30
0.0
 10
178.0472129612675
 20
14.27997152538792
 30
0.0
 10
178.0422645974618
 20
14.40464754091603
 30
0.0
 10
178.0433931602546
 20
14.46327691935737
 30
0.0
 10
178.0428877841516
 20
14.55043662371977
 30
0.0
 10
178.0430475158113
 20
14.64416143182872
 30
0.0
 10
178.0430054891318
 20
14.73018971297035
 30
0.0
 10
178.0430202040373
 20
14.79153891945496
 30
0.0
 10
178.0429706255983
 20
14.94135231520991
 30
0.0
 10
178.0458811522812
 20
15.17989612510106
 30
0.0
 10
178.0259521041162
 20
15.544865098687
 30
0.0
 10
178.0750433936248
 20
15.80799631993414
 30
0.0
 10
177.917795150918
 20
16.21928904947751
 30
0.0
 10
178.0762112872421
 20
16.1639828255175
 30
0.0
 10
178.1311680478628
 20
16.16199686500174
 30
0.0
 10
178.182788776674
 20
16.16264778248252
 30
0.0
 10
178.2713198965366
 20
16.20369527738247
 30
0.0
 10
178.2204898303169
 20
16.05696326622987
 30
0.0
 10
178.2313389930283
 20
15.95019971954433
 30
0.0
 10
178.2166036994847
 20
15.79085705414111
 30
0.0
 10
178.2099976446206
 20
15.62853061652873
 30
0.0
 10
178.2014961399915
 20
15.45992521892395
 30
0.0
 10
178.1943227202198
 20
15.29814814703541
 30
0.0
 10
178.188906321539
 20
15.15422331457933
 30
0.0
 10
178.1871713967649
 20
15.03437493466925
 30
0.0
 10
178.1875440672319
 20
14.92686101590515
 30
0.0
 10
178.1873656126264
 20
14.81820024645586
 30
0.0
 10
178.187701086314
 20
14.6995357016553
 30
0.0
 10
178.1890040622184
 20
14.57555163512741
 30
0.0
 10
178.1908887351575
 20
14.44858294171105
 30
0.0
 10
178.1925004454849
 20
14.32153861551032
 30
0.0
 10
178.1941403137431
 20
14.19854884492177
 30
0.0
 10
178.1962570745752
 20
14.08300931383759
 30
0.0
 10
178.1963848422364
 20
13.98090903955836
 30
0.0
 10
178.2006514396555
 20
13.89009848838155
 30
0.0
 10
178.190844008529
 20
13.83213621208785
 30
0.0
 10
178.211847477169
 20
13.76517130132028
 30
0.0
 10
178.1725639739897
 20
13.77291153966686
 30
0.0
 10
177.9595307117749
 20
13.75755254145193
 30
0.0
 10
177.7636297943185
 20
14.31403058094469
 30
0.0
 10
177.4611197631544
 20
14.5755603534851
 30
0.0
 10
177.3067935648021
 20
14.70898038201724
 30
0.0
 11
177.3067935648021
 21
14.70898038201724
 31
0.0
 11
176.8595529338511
 21
15.18757635411977
 31
0.0
 11
176.4124049070643
 21
15.6635264928897
 31
0.0
 11
176.4089664262494
 21
15.55086249986232
 31
0.0
 11
176.4055610183499
 21
15.40557538184311
 31
0.0
 11
176.4029636920275
 21
15.21465645827968
 31
0.0
 11
176.4021126156604
 21
14.96521170139757
 31
0.0
 11
176.402523923029
 21
14.88439802954279
 31
0.0
 11
176.4038420329817
 21
14.7864062847756
 31
0.0
 11
176.4055192267718
 21
14.67713557299738
 31
0.0
 11
176.4072367127517
 21
14.56282454872039
 31
0.0
 11
176.4094007838773
 21
14.44497802965265
 31
0.0
 11
176.4124049070643
 21
14.32545802100199
 31
0.0
 11
176.4158359733139
 21
14.20933349846156
 31
0.0
 11
176.4192928929999
 21
14.10186746550229
 31
0.0
 11
176.4227085253088
 21
14.00510162351264
 31
0.0
 11
176.4261896983793
 21
13.92125406276971
 31
0.0
 11
176.4296006184313
 21
13.85632862007759
 31
0.0
 11
176.4330776843149
 21
13.81626739612926
 31
0.0
 11
176.3754263821571
 21
13.82145433189184
 31
0.0
 11
176.312674631831
 21
13.82315538223862
 31
0.0
 11
176.2464251717157
 21
13.82145433189184
 31
0.0
 11
176.1853747739676
 21
13.81626739612926
 31
0.0
 11
176.1926772737813
 21
13.86531894125589
 31
0.0
 11
176.2008793569055
 21
13.94356725720854
 31
0.0
 11
176.2090098822349
 21
14.04551893253028
 31
0.0
 11
176.2163406441398
 21
14.16542920159751
 31
0.0
 11
176.2236358280421
 21
14.30005912343889
 31
0.0
 11
176.2318444255596
 21
14.44586107652744
 31
0.0
 11
176.2395504149466
 21
14.59715203135072
 31
0.0
 11
176.2455763002093
 21
14.74850913200734
 31
0.0
 11
176.2503046247416
 21
14.89817951391436
 31
0.0
 11
176.2541928972121
 21
15.04435739582222
 31
0.0
 11
176.2567527408966
 21
15.18111831592696
 31
0.0
 11
176.2576324804575
 21
15.3023085068689
 31
0.0
 11
176.257192610677
 21
15.60939715262544
 31
0.0
 11
176.2559126888348
 21
15.86997204839364
 31
0.0
 11
176.2528658717893
 21
16.07719922716125
 31
0.0
 11
176.2473049112764
 21
16.22421385386061
 31
0.0
 11
176.261572812147
 21
16.22421385386061
 31
0.0
 11
176.2880703423352
 21
16.22421385386061
 31
0.0
 11
176.3023382432058
 21
16.22421385386061
 31
0.0
 11
176.5194743650277
 21
15.98910179662773
 31
0.0
 11
176.751274412308
 21
15.73751281231562
 31
0.0
 11
176.989481601884
 21
15.47949555543571
 31
0.0
 11
177.226007455752
 21
15.22497079855489
 31
0.0
 11
177.4555698717706
 21
14.97899759549137
 31
0.0
 11
177.6731797360102
 21
14.74678934034107
 31
0.0
 11
177.8713724913706
 21
14.538266805671
 31
0.0
 11
178.0430143099086
 21
14.36326697932589
 31
0.0
 11
178.0430143099086
 21
14.38918210687043
 31
0.0
 11
178.0430143099086
 21
14.45601585685371
 31
0.0
 11
178.0430143099086
 21
14.54740078030025
 31
0.0
 11
178.0430143099086
 21
14.64696942823453
 31
0.0
 11
178.0430143099086
 21
14.73835435168106
 31
0.0
 11
178.0430143099086
 21
14.80518810166435
 31
0.0
 11
178.0430143099086
 21
14.83110322920889
 31
0.0
 11
178.0417233637609
 21
15.18755430550867
 31
0.0
 11
178.0378461155959
 21
15.53450684014415
 31
0.0
 11
178.0296197790003
 21
15.86693815950551
 31
0.0
 11
178.0154535467228
 21
16.17960510387179
 31
0.0
 11
178.0790351249619
 21
16.16666367158334
 31
0.0
 11
178.132417015961
 21
16.16238072887607
 31
0.0
 11
178.1805381084833
 21
16.16666367158334
 31
0.0
 11
178.2424836798198
 21
16.17960510387179
 31
0.0
 11
178.2351216487575
 21
16.084981284451
 31
0.0
 11
178.2269790968818
 21
15.95257496503964
 31
0.0
 11
178.2183705364005
 21
15.79600336785655
 31
0.0
 11
178.2097547223216
 21
15.62916593734269
 31
0.0
 11
178.2016187850289
 21
15.4589032550936
 31
0.0
 11
178.1942501393835
 21
15.292060312427
 31
0.0
 11
178.1891406931522
 21
15.14329943572809
 31
0.0
 11
178.1874503478905
 21
15.02722121527101
 31
0.0
 11
178.1874503478905
 21
14.93258747397519
 31
0.0
 11
178.1874503478905
 21
14.82077565976707
 31
0.0
 11
178.1878461204497
 21
14.70123801222748
 31
0.0
 11
178.1890819450708
 21
14.57660052093919
 31
0.0
 11
178.1908392193318
 21
14.44883212687391
 31
0.0
 11
178.1925303477607
 21
14.32028982655879
 31
0.0
 11
178.1942876220215
 21
14.19558288214555
 31
0.0
 11
178.1959787504505
 21
14.07947489606349
 31
0.0
 11
178.1972884379173
 21
13.97495896727017
 31
0.0
 11
178.1976985420736
 21
13.88517371555651
 31
0.0
 11
178.1976985420736
 21
13.81891763918415
 31
0.0
 11
178.1976985420736
 21
13.7716586461404
 31
0.0
 11
178.1736699662977
 21
13.7716586461404
 31
0.0
 11
178.1496413905218
 21
13.7716586461404
 31
0.0
 11
177.7410729200423
 21
14.2346673526219
 31
0.0
 11
177.3067935648021
 21
14.70898038201724
 31
0.0
  0
SPLINE
  5
B2
102
{ACAD_REACTORS
330
CF
102
}
330
48
100
AcDbEntity
  8
_U_30EC_U_30A4_U_30E4_U_30FC_1
  6
Continuous
 62
     2
100
AcDbSpline
210
0.0
220
0.0
230
1.0
 70
    11
 71
     3
 72
    25
 73
    21
 74
    19
 42
0.000000001
 43
0.0000000001
 44
0.00000001
 40
0.0
 40
0.0
 40
0.0
 40
0.0
 40
0.0911479969065106
 40
0.1858117896203813
 40
0.280412839973449
 40
0.3715889190714509
 40
0.4679080494218991
 40
0.564268380923008
 40
0.6605683222644991
 40
0.7569653015810256
 40
0.8561348172522739
 40
1.092615965104295
 40
1.374867658141885
 40
1.611348812011609
 40
1.710518328425259
 40
1.809403163726577
 40
2.045205463294081
 40
2.326646917622146
 40
2.562449217190612
 40
2.661334043833931
 40
2.661334043833931
 40
2.661334043833931
 40
2.661334043833931
 10
173.2683700567199
 20
14.88614538197292
 30
0.0
 10
173.2987525917922
 20
14.88598079714554
 30
0.0
 10
173.3606895889112
 20
14.88564528689921
 30
0.0
 10
173.454135696033
 20
14.88269055451999
 30
0.0
 10
173.5475095236357
 20
14.8797775287715
 30
0.0
 10
173.6417760753477
 20
14.87894201643416
 30
0.0
 10
173.7354964790967
 20
14.87996644658047
 30
0.0
 10
173.8352040303205
 20
14.8791697747097
 30
0.0
 10
173.9188949546313
 20
14.8892141023522
 30
0.0
 10
174.0637996315045
 20
14.86234617674164
 30
0.0
 10
173.9396132444801
 20
15.03665530280049
 30
0.0
 10
173.8965867286282
 20
15.19651711006092
 30
0.0
 10
173.780892214221
 20
15.45518458550217
 30
0.0
 10
173.7017565431256
 20
15.59231052861859
 30
0.0
 10
173.6431576621816
 20
15.80937033134078
 30
0.0
 10
173.5864803939438
 20
15.59266134213429
 30
0.0
 10
173.5052809900478
 20
15.45327012438237
 30
0.0
 10
173.4063701281488
 20
15.20406969370195
 30
0.0
 10
173.3253625094258
 20
15.01925830226073
 30
0.0
 10
173.2813683325838
 20
14.91650446856116
 30
0.0
 10
173.2683700567199
 20
14.88614538197292
 30
0.0
 11
173.2683700567199
 21
14.88614538197292
 31
0.0
 11
173.359513773782
 21
14.88526123266759
 31
0.0
 11
173.454142829758
 21
14.88269697919599
 31
0.0
 11
173.5487082179706
 21
14.88009965280777
 31
0.0
 11
173.6398803250196
 21
14.8792485764191
 31
0.0
 11
173.7361985777706
 21
14.87965978301621
 31
0.0
 11
173.8325499034377
 21
14.8809771875297
 31
0.0
 11
173.9288262638286
 21
14.88310818579312
 31
0.0
 11
174.0251753846343
 21
14.88614538197292
 31
0.0
 11
173.9854633323141
 21
14.9770164219502
 31
0.0
 11
173.8907653613968
 21
15.19370890189602
 31
0.0
 11
173.7777387509471
 21
15.45234186183136
 31
0.0
 11
173.6830407800297
 21
15.66903434177718
 31
0.0
 11
173.6433287277095
 21
15.75990538175446
 31
0.0
 11
173.6043330259266
 21
15.66903434177718
 31
0.0
 11
173.5113432755212
 21
15.45234186183136
 31
0.0
 11
173.4003555089082
 21
15.19370890189602
 31
0.0
 11
173.3073657585028
 21
14.9770164219502
 31
0.0
 11
173.2683700567199
 21
14.88614538197292
 31
0.0
  0
SPLINE
  5
B3
102
{ACAD_REACTORS
330
CF
102
}
330
48
100
AcDbEntity
  8
_U_30EC_U_30A4_U_30E4_U_30FC_1
  6
Continuous
 62
     2
100
AcDbSpline
210
0.0
220
0.0
230
1.0
 70
    11
 71
     3
 72
    57
 73
    53
 74
    51
 42
0.000000001
 43
0.0000000001
 44
0.00000001
 40
0.0
 40
0.0
 40
0.0
 40
0.0
 40
0.0471632082809519
 40
0.0914861054631872
 40
0.1357762519702107
 40
0.1826527001610686
 40
0.2295203288573164
 40
0.2737751972221617
 40
0.3181310461544212
 40
0.3652607198398527
 40
0.4571007286314708
 40
0.5671851029165564
 40
0.689462328386865
 40
0.8181758272546342
 40
0.9510087229274564
 40
1.085852229674052
 40
1.218126164475326
 40
1.343545131142399
 40
1.454537202956786
 40
1.567187607530824
 40
1.680710966642499
 40
1.794226869736892
 40
1.900009184247691
 40
2.004085860447971
 40
2.10816267445183
 40
2.214000150155318
 40
2.496038577352196
 40
2.762350745479305
 40
2.997275353279442
 40
3.18511008213776
 40
3.246407890064015
 40
3.312607550212831
 40
3.378877742711648
 40
3.440140399651475
 40
4.100501696006484
 40
4.754913085563522
 40
5.41133169342394
 40
6.077890432568738
 40
6.110575292671017
 40
6.143260152775797
 40
6.367989363395143
 40
6.610525374951569
 40
6.863389136467328
 40
7.11938002554753
 40
7.376036605091087
 40
7.631164770966267
 40
7.876722425456435
 40
8.104953735855954
 40
8.312916685924334
 40
8.497730294941322
 40
8.65101898431387
 40
8.764738853624616
 40
8.764738853624616
 40
8.764738853624616
 40
8.764738853624616
 10
174.7922649500514
 20
13.81626739612926
 30
0.0
 10
174.7766616726931
 20
13.81826231079076
 30
0.0
 10
174.7463947960304
 20
13.82213201360298
 30
0.0
 10
174.7010994202253
 20
13.82341984967267
 30
0.0
 10
174.655955312935
 20
13.8230868355405
 30
0.0
 10
174.60990171234
 20
13.82314658674224
 30
0.0
 10
174.5640496172096
 20
13.8232581365
 30
0.0
 10
174.5183711648165
 20
13.8227783345659
 30
0.0
 10
174.4750811541608
 20
13.82461109618721
 30
0.0
 10
174.4039947951514
 20
13.80049556814658
 30
0.0
 10
174.4057477261442
 20
13.92184693977251
 30
0.0
 10
174.3586196370569
 20
14.00726239751231
 30
0.0
 10
174.3191478251762
 20
14.12486929345136
 30
0.0
 10
174.2706635532645
 20
14.24232752540439
 30
0.0
 10
174.2201017402521
 20
14.36405935761505
 30
0.0
 10
174.1718634610478
 20
14.49075967862469
 30
0.0
 10
174.1135232947594
 20
14.59933687784949
 30
0.0
 10
174.0980892667262
 20
14.75620657134411
 30
0.0
 10
173.9566586330637
 20
14.72373446548321
 30
0.0
 10
173.8508397414904
 20
14.7351288868218
 30
0.0
 10
173.7358569725222
 20
14.73392591514614
 30
0.0
 10
173.6253142252141
 20
14.73506945347407
 30
0.0
 10
173.5176583522783
 20
14.73418350037525
 30
0.0
 10
173.4121322529243
 20
14.73416602390519
 30
0.0
 10
173.3109192682013
 20
14.72714032472415
 30
0.0
 10
173.1266804827754
 20
14.75135859859867
 30
0.0
 10
173.1157393685411
 20
14.44741691121889
 30
0.0
 10
173.0087691634751
 20
14.22353177253395
 30
0.0
 10
172.9098148604348
 20
14.03895314292497
 30
0.0
 10
172.9225090524008
 20
13.79530204804204
 30
0.0
 10
172.8050091716398
 20
13.82508046753197
 30
0.0
 10
172.742205586831
 20
13.82258089509603
 30
0.0
 10
172.67858720934
 20
13.82344075102804
 30
0.0
 10
172.3946014194075
 20
13.78098039941943
 30
0.0
 10
173.0251638499382
 20
14.50081952444788
 30
0.0
 10
173.108764528907
 20
15.01276539435732
 30
0.0
 10
173.4929252789341
 20
15.53353743550041
 30
0.0
 10
173.4777208288563
 20
16.23519626253217
 30
0.0
 10
173.7239265722698
 20
16.22345633081255
 30
0.0
 10
173.8256346157561
 20
16.23225004452772
 30
0.0
 10
173.8249752035818
 20
15.9805965073034
 30
0.0
 10
173.9428317155829
 20
15.7981802073396
 30
0.0
 10
174.0315515260486
 20
15.55563740662871
 30
0.0
 10
174.1322292485257
 20
15.32340030530119
 30
0.0
 10
174.2311142712244
 20
15.08674644566919
 30
0.0
 10
174.3299676990668
 20
14.8546173917009
 30
0.0
 10
174.4256166390927
 20
14.63122222788792
 30
0.0
 10
174.5159904573271
 20
14.42272549049311
 30
0.0
 10
174.598994456819
 20
14.23308448529323
 30
0.0
 10
174.6726088582799
 20
14.06663106068098
 30
0.0
 10
174.7342815895547
 20
13.92917699626097
 30
0.0
 10
174.7749458885604
 20
13.84999239430033
 30
0.0
 10
174.7922649500514
 20
13.81626739612926
 30
0.0
 11
174.7922649500514
 21
13.81626739612926
 31
0.0
 11
174.7453878317448
 21
13.82145433189184
 31
0.0
 11
174.7010975896126
 21
13.82315538223862
 31
0.0
 11
174.656807443173
 21
13.82315538223862
 31
0.0
 11
174.609930994716
 21
13.82315538223862
 31
0.0
 11
174.5630633657034
 21
13.82315538223862
 31
0.0
 11
174.5188084970408
 21
13.82315538223862
 31
0.0
 11
174.4744852776853
 21
13.82145433189184
 31
0.0
 11
174.4276419021444
 21
13.81626739612926
 31
0.0
 11
174.3992532136325
 21
13.90360966173244
 31
0.0
 11
174.3622721815898
 21
14.00729656274819
 31
0.0
 11
174.3188386236701
 21
14.12159987001127
 31
0.0
 11
174.2711055866936
 21
14.24113531268969
 31
0.0
 11
174.2208160133236
 21
14.36408057307565
 31
0.0
 11
174.1696467003933
 21
14.48883822929445
 31
0.0
 11
174.1197531801326
 21
14.61134141502771
 31
0.0
 11
174.0733119111842
 21
14.72784517367918
 31
0.0
 11
173.962361190759
 21
14.73087465284506
 31
0.0
 11
173.849730922509
 21
14.7330045486779
 31
0.0
 11
173.7362152069449
 21
14.7343219531914
 31
0.0
 11
173.62270004768
 21
14.73473315978851
 31
0.0
 11
173.5169185312816
 21
14.7343219531914
 31
0.0
 11
173.4128501919225
 21
14.7330045486779
 31
0.0
 11
173.3087951724045
 21
14.73087465284506
 31
0.0
 11
173.2030010615597
 21
14.72784517367918
 31
0.0
 11
173.0980914750139
 21
14.4660443751335
 31
0.0
 11
173.0034868690332
 21
14.2171023265846
 31
0.0
 11
172.9252231210299
 21
13.99559756969556
 31
0.0
 11
172.8693431224556
 21
13.81626739612926
 31
0.0
 11
172.8082651639442
 21
13.82145433189184
 31
0.0
 11
172.742087361813
 21
13.82315538223862
 31
0.0
 11
172.6758390041283
 21
13.82145433189184
 31
0.0
 11
172.6147963233939
 21
13.81626739612926
 31
0.0
 11
172.8899684951931
 21
14.41656508695143
 31
0.0
 11
173.158294573417
 21
15.01343642360776
 31
0.0
 11
173.4240277350405
 21
15.61366245644381
 31
0.0
 11
173.6914740737034
 21
16.22421385386061
 31
0.0
 11
173.7241589339807
 21
16.22421385386061
 31
0.0
 11
173.756843794258
 21
16.22421385386061
 31
0.0
 11
173.8428300681057
 21
16.01658539037083
 31
0.0
 11
173.935728581361
 21
15.79254614563517
 31
0.0
 11
174.0328714521464
 21
15.55908663180469
 31
0.0
 11
174.131793645803
 21
15.32298128464146
 31
0.0
 11
174.2315341249927
 21
15.08649780379784
 31
0.0
 11
174.3313071129353
 21
14.85168781253711
 31
0.0
 11
174.4280608257449
 21
14.6259949219685
 31
0.0
 11
174.5188084970408
 21
14.41658052097918
 31
0.0
 11
174.6022150834547
 21
14.2260761113046
 31
0.0
 11
174.6770293263378
 21
14.05708232662467
 31
0.0
 11
174.7410729186604
 21
13.91781337700668
 31
0.0
 11
174.7922649500514
 21
13.81626739612926
 31
0.0
  0
SPLINE
  5
B4
102
{ACAD_REACTORS
330
D0
102
}
330
48
100
AcDbEntity
  8
_U_30EC_U_30A4_U_30E4_U_30FC_1
  6
Continuous
 62
     2
100
AcDbSpline
210
0.0
220
0.0
230
1.0
 70
    11
 71
     3
 72
    99
 73
    95
 74
    93
 42
0.000000001
 43
0.0000000001
 44
0.00000001
 40
0.0
 40
0.0
 40
0.0
 40
0.0
 40
0.0796417172272862
 40
0.1621768542356609
 40
0.2486489160957518
 40
0.3404969668525232
 40
0.4381912511165264
 40
0.5434463660245563
 40
0.6518115192846463
 40
0.7530190937886564
 40
0.8492196919725332
 40
0.9419290312998602
 40
1.034249663570067
 40
1.129078600620222
 40
1.226697027573249
 40
1.327220425421717
 40
1.470572134938035
 40
1.595489863371232
 40
1.71993412534835
 40
1.850576620127433
 40
1.989059629987278
 40
2.134139054226843
 40
2.280698007207157
 40
2.424529739039426
 40
2.565929576985813
 40
2.708239260773492
 40
2.861717887443607
 40
3.045168540347323
 40
3.183798301138556
 40
3.314813961455419
 40
3.442083470447246
 40
3.569912708372853
 40
3.702177512509227
 40
3.842307559659493
 40
3.992872223245871
 40
4.156750662218316
 40
4.310981861107368
 40
4.445859909322551
 40
4.572393936131544
 40
4.701656719781943
 40
4.768279086008443
 40
4.835960697898378
 40
4.912788918729331
 40
5.006285208481509
 40
5.026909478751642
 40
5.047533749021263
 40
5.101808031471304
 40
5.162325165538629
 40
5.226919745995946
 40
5.294231806596746
 40
5.364544852554915
 40
5.438319055468035
 40
5.517877651324317
 40
5.607647714861572
 40
5.700449642544418
 40
5.788251142364259
 40
5.872714706039841
 40
5.955167292575405
 40
6.037192395190454
 40
6.120669181469167
 40
6.206848616686428
 40
6.296680855416839
 40
6.442558392872657
 40
6.568190371608345
 40
6.692904567360414
 40
6.824220446557263
 40
6.9631218503294
 40
7.107843738851136
 40
7.253431663907323
 40
7.395187468036819
 40
7.533140753237829
 40
7.670550457175298
 40
7.816236511769315
 40
7.987691657359279
 40
8.14227742196931
 40
8.293662615415045
 40
8.442962460879311
 40
8.59159831618535
 40
8.743678992361799
 40
8.90372532369921
 40
9.076307008890614
 40
9.265578604680698
 40
9.459203795360759
 40
9.61761981027374
 40
9.753609671362048
 40
9.874873300004126
 40
9.954520184977817
 40
10.02416413719249
 40
10.09769764405448
 40
10.18909955924977
 40
10.20974586420138
 40
10.23039218263381
 40
10.30057101881265
 40
10.37632012987542
 40
10.37632012987542
 40
10.37632012987542
 40
10.37632012987542
 10
170.1465954835851
 20
14.13795663215994
 30
0.0
 10
170.1632217851219
 20
14.11720608845313
 30
0.0
 10
170.1970784206577
 20
14.07495111711901
 30
0.0
 10
170.2599822541037
 20
14.02029811392076
 30
0.0
 10
170.3332500940392
 20
13.97299025121045
 30
0.0
 10
170.4175969238637
 20
13.93527231437938
 30
0.0
 10
170.5132240615461
 20
13.91040619731951
 30
0.0
 10
170.6171853775346
 20
13.90309559345939
 30
0.0
 10
170.7224020220405
 20
13.91142322794055
 30
0.0
 10
170.8206626371334
 20
13.94149179651528
 30
0.0
 10
170.9058986427548
 20
13.98848822971875
 30
0.0
 10
170.9779220206104
 20
14.04952991250856
 30
0.0
 10
171.0350917709097
 20
14.12412969578585
 30
0.0
 10
171.0767868747441
 20
14.21002464660171
 30
0.0
 10
171.1026952846292
 20
14.30485850432212
 30
0.0
 10
171.1118037332653
 20
14.41854979038366
 30
0.0
 10
171.0986864796486
 20
14.54332587770779
 30
0.0
 10
171.0325330334414
 20
14.66014719171889
 30
0.0
 10
170.9369370919569
 20
14.74512539577379
 30
0.0
 10
170.8249681022369
 20
14.81416684459155
 30
0.0
 10
170.699365958327
 20
14.87204142045892
 30
0.0
 10
170.5656691620857
 20
14.92373723284342
 30
0.0
 10
170.4313122818832
 20
14.9789909239718
 30
0.0
 10
170.3051983986877
 20
15.0493977064165
 30
0.0
 10
170.1926579987536
 20
15.13785540731247
 30
0.0
 10
170.0969963064458
 20
15.24981067868473
 30
0.0
 10
170.0334157151827
 20
15.39949910101383
 30
0.0
 10
170.0200706505016
 20
15.55932794385141
 30
0.0
 10
170.0320510987449
 20
15.71048405306845
 30
0.0
 10
170.0712298928842
 20
15.83809244591538
 30
0.0
 10
170.1354987750911
 20
15.95080874030841
 30
0.0
 10
170.223820499974
 20
16.04648609268687
 30
0.0
 10
170.3338091207628
 20
16.12354214985756
 30
0.0
 10
170.4632284401265
 20
16.18151396936272
 30
0.0
 10
170.6111838967794
 20
16.21739177588823
 30
0.0
 10
170.7682069455487
 20
16.22746719050564
 30
0.0
 10
170.917494046643
 20
16.21863637762587
 30
0.0
 10
171.0596253614171
 20
16.19074899340355
 30
0.0
 10
171.1595922609626
 20
16.13413314701138
 30
0.0
 10
171.3125074736187
 20
16.08674602105506
 30
0.0
 10
171.2455131717168
 20
16.00197553001186
 30
0.0
 10
171.229647912027
 20
15.93438901873481
 30
0.0
 10
171.1978750531296
 20
15.86926092793192
 30
0.0
 10
171.2150202209573
 20
15.76723453256952
 30
0.0
 10
171.1666427208232
 20
15.77493211681901
 30
0.0
 10
171.1315789440766
 20
15.76806771724806
 30
0.0
 10
171.1296697985719
 20
15.83263831158199
 30
0.0
 10
171.0985692931989
 20
15.87825639621393
 30
0.0
 10
171.0664551628455
 20
15.9356103662845
 30
0.0
 10
171.0208038475169
 20
15.98540462692563
 30
0.0
 10
170.9658508218387
 20
16.02994813718995
 30
0.0
 10
170.9010841173008
 20
16.06763988836547
 30
0.0
 10
170.8232377310597
 20
16.09283375791352
 30
0.0
 10
170.7355160553353
 20
16.09931230998111
 30
0.0
 10
170.6452903277807
 20
16.09235709285605
 30
0.0
 10
170.5594594694064
 20
16.06909190460925
 30
0.0
 10
170.4828343638597
 20
16.0313164410754
 30
0.0
 10
170.41652656362
 20
15.98051641089576
 30
0.0
 10
170.3622560536965
 20
15.91731143407208
 30
0.0
 10
170.3224925345459
 20
15.84276455710365
 30
0.0
 10
170.2976775510588
 20
15.75917313997764
 30
0.0
 10
170.2892124262871
 20
15.65192948382284
 30
0.0
 10
170.3019697987104
 20
15.52965457267559
 30
0.0
 10
170.3681548409273
 20
15.41149724291209
 30
0.0
 10
170.4640977399832
 20
15.32606325709525
 30
0.0
 10
170.5757914963182
 20
15.25583362306727
 30
0.0
 10
170.7010863668702
 20
15.19659162305302
 30
0.0
 10
170.8349823941446
 20
15.14616708086128
 30
0.0
 10
170.968993033315
 20
15.09322516984382
 30
0.0
 10
171.0950885316915
 20
15.02750170625179
 30
0.0
 10
171.2076216638418
 20
14.9448035253732
 30
0.0
 10
171.3031370284233
 20
14.83996006310073
 30
0.0
 10
171.3672706486962
 20
14.69937117251569
 30
0.0
 10
171.3811103725279
 20
14.54065409451592
 30
0.0
 10
171.3673954712228
 20
14.38153155217878
 30
0.0
 10
171.3244739153986
 20
14.23483828819207
 30
0.0
 10
171.2545906329066
 20
14.10119796587144
 30
0.0
 10
171.157459221383
 20
13.98532387699291
 30
0.0
 10
171.0347806023658
 20
13.89089981770086
 30
0.0
 10
170.8874408413168
 20
13.82179270651981
 30
0.0
 10
170.7177132497125
 20
13.77953210858853
 30
0.0
 10
170.5317404979597
 20
13.76781736230405
 30
0.0
 10
170.3528955926183
 20
13.7780948668344
 30
0.0
 10
170.1881733753743
 20
13.81966573769149
 30
0.0
 10
170.0834410841056
 20
13.88797642883939
 30
0.0
 10
169.9350960790367
 20
13.93675219032109
 30
0.0
 10
169.9980378194729
 20
14.02976591290842
 30
0.0
 10
170.007227443006
 20
14.10296536248278
 30
0.0
 10
170.0303711301232
 20
14.16936294501347
 30
0.0
 10
170.0034588335317
 20
14.26974809527581
 30
0.0
 10
170.052133895634
 20
14.26234033517378
 30
0.0
 10
170.0916530580697
 20
14.26894063620895
 30
0.0
 10
170.0996204944703
 20
14.19078703218932
 30
0.0
 10
170.1305436967923
 20
14.15600927375857
 30
0.0
 10
170.1465954835851
 20
14.13795663215994
 30
0.0
 11
170.1465954835851
 21
14.13795663215994
 31
0.0
 11
170.1982038075864
 21
14.07729869814736
 31
0.0
 11
170.2601105501336
 21
14.0227129516332
 31
0.0
 11
170.3327764009802
 21
13.97583980928383
 31
0.0
 11
170.4166468655844
 21
13.93839906276538
 31
0.0
 11
170.511221073241
 21
13.91390636311878
 31
0.0
 11
170.6161603327166
 21
13.90575829888473
 31
0.0
 11
170.7240739497551
 21
13.91564048638223
 31
0.0
 11
170.8208419941616
 21
13.94528704887482
 31
0.0
 11
170.9050776083319
 21
13.99175118948819
 31
0.0
 11
170.9756144207687
 21
14.0519141321815
 31
0.0
 11
171.031944210998
 21
14.1250581946632
 31
0.0
 11
171.0736690016004
 21
14.21021434047521
 31
0.0
 11
171.0994680808032
 21
14.30436190989612
 31
0.0
 11
171.1080824729446
 21
14.4045155209822
 31
0.0
 11
171.0878517703357
 21
14.54643250879398
 31
0.0
 11
171.0272522666731
 21
14.65566684036387
 31
0.0
 11
170.9364971286286
 21
14.74081306430094
 31
0.0
 11
170.826010188474
 21
14.81052746532515
 31
0.0
 11
170.7008523531255
 21
14.86979854169923
 31
0.0
 11
170.5662951950999
 21
14.9240425347412
 31
0.0
 11
170.4316884277008
 21
14.98201274306004
 31
0.0
 11
170.3065802017259
 21
15.05297399304232
 31
0.0
 11
170.196027609828
 21
15.14113315968694
 31
0.0
 11
170.1053381235266
 21
15.25080295132617
 31
0.0
 11
170.0447055469485
 21
15.39179720476315
 31
0.0
 11
170.0245079172554
 21
15.57413260402314
 31
0.0
 11
170.0374030471348
 21
15.71216131926641
 31
0.0
 11
170.0761016659392
 21
15.83733128451289
 31
0.0
 11
170.1393141731507
 21
15.94779262129083
 31
0.0
 11
170.2257499954545
 21
16.04196885390621
 31
0.0
 11
170.3336492808962
 21
16.1184654077065
 31
0.0
 11
170.4613526283329
 21
16.17615670109486
 31
0.0
 11
170.6075393259923
 21
16.21220066809973
 31
0.0
 11
170.7709768565451
 21
16.22421385386061
 31
0.0
 11
170.9248918431289
 21
16.21434269066864
 31
0.0
 11
171.0564887242608
 21
16.18477329831497
 31
0.0
 11
171.1725636344941
 21
16.13439993895252
 31
0.0
 11
171.2800792741123
 21
16.06264163167877
 31
0.0
 11
171.2516994050445
 21
16.00236624106886
 31
0.0
 11
171.2284855254284
 21
15.93879017337647
 31
0.0
 11
171.2078381040801
 21
15.86478841992268
 31
0.0
 11
171.1871840681488
 21
15.77360197897327
 31
0.0
 11
171.1665597978416
 21
15.77360197897327
 31
0.0
 11
171.1459355275343
 21
15.77360197897327
 31
0.0
 11
171.1256706495791
 21
15.82395108486346
 31
0.0
 11
171.0994658759421
 21
15.87850045116929
 31
0.0
 11
171.0650468924451
 21
15.93316116296114
 31
0.0
 11
171.0203554612938
 21
15.98349593725411
 31
0.0
 11
170.9657333359511
 21
16.02777175321529
 31
0.0
 11
170.9016722004326
 21
16.06436142334501
 31
0.0
 11
170.8259682961141
 21
16.08882545979727
 31
0.0
 11
170.736572204645
 21
16.09701100667022
 31
0.0
 11
170.6440937174208
 21
16.08926973931101
 31
0.0
 11
170.5594072091645
 21
16.06609003445566
 31
0.0
 11
170.483702448884
 21
16.02863495634008
 31
0.0
 11
170.4183754766516
 21
15.97832774281101
 31
0.0
 11
170.3650487887665
 21
15.91600293379879
 31
0.0
 11
170.3254809233902
 21
15.84249947895607
 31
0.0
 11
170.3009523754711
 21
15.75988443557391
 31
0.0
 11
170.2927954104109
 21
15.67042329844352
 31
0.0
 11
170.3130095765618
 21
15.52595308146573
 31
0.0
 11
170.373625616682
 21
15.41591177072935
 31
0.0
 11
170.4643479320758
 21
15.33033670130631
 31
0.0
 11
170.5748676948814
 21
15.25941954854625
 31
0.0
 11
170.7000089937719
 21
15.19914305550578
 31
0.0
 11
170.8345826882552
 21
15.1459044791302
 31
0.0
 11
170.9691729191968
 21
15.09039489581073
 31
0.0
 11
171.0942976816298
 21
15.0237728124941
 31
0.0
 11
171.2048009079771
 21
14.94118863716749
 31
0.0
 11
171.2955397598288
 21
14.83800003476272
 31
0.0
 11
171.3561557999489
 21
14.70552315979584
 31
0.0
 11
171.3763699660998
 21
14.53526378483839
 31
0.0
 11
171.3621839747998
 21
14.38133030397413
 31
0.0
 11
171.3196087009194
 21
14.23605531269097
 31
0.0
 11
171.2499752884266
 21
14.10398854189068
 31
0.0
 11
171.1544992078714
 21
13.99007218775247
 31
0.0
 11
171.0341060772625
 21
13.89715272597017
 31
0.0
 11
170.8896160201847
 21
13.8283235766818
 31
0.0
 11
170.7223519532714
 21
13.78581275203966
 31
0.0
 11
170.5336103348226
 21
13.7716586461404
 31
0.0
 11
170.3405031726388
 21
13.78581275203966
 31
0.0
 11
170.187897590091
 21
13.8283235766818
 31
0.0
 11
170.0661897942203
 21
13.88899033013889
 31
0.0
 11
169.9660261826364
 21
13.95734322942737
 31
0.0
 11
169.992232058704
 21
14.03255545163076
 31
0.0
 11
170.0090121537619
 21
14.10014767383611
 31
0.0
 11
170.0206196447852
 21
14.17275926235961
 31
0.0
 11
170.031360625414
 21
14.26352788212859
 31
0.0
 11
170.0520069443317
 21
14.26352788212859
 31
0.0
 11
170.0726532632493
 21
14.26352788212859
 31
0.0
 11
170.104891639163
 21
14.20119204881083
 31
0.0
 11
170.1465954835851
 21
14.13795663215994
 31
0.0
  0
LWPOLYLINE
  5
B5
102
{ACAD_REACTORS
330
C2
102
}
330
48
100
AcDbEntity
  8
_U_30EC_U_30A4_U_30E4_U_30FC_1
  6
Continuous
 62
     2
100
AcDbPolyline
 90
        5
 70
     1
 43
0.0
 10
192.4578138032672
 20
15.39722336795626
 10
192.4578138032672
 20
15.22875434022056
 10
191.1602971697032
 20
15.22875434022056
 10
191.1602971697032
 20
15.39722336795626
 10
192.4578138032672
 20
15.39722336795626
  0
MTEXT
  5
B7
330
48
100
AcDbEntity
  8
1
 62
     2
100
AcDbMText
 10
32.5
 20
282.0000000000003
 30
0.0
 40
5.0
 41
0.0
 71
     5
 72
     1
  1
図番
  7
CONVERTER_11
 73
     1
 44
0.45454545454545
  0
MTEXT
  5
B8
330
48
100
AcDbEntity
  8
1
 62
     2
100
AcDbMText
 10
29.0
 20
34.00000000000001
 30
0.0
 40
3.5
 41
0.0
 71
     5
 72
     1
  1
備考
  7
CONVERTER_11
 73
     1
 44
0.45454545454545
  0
MTEXT
  5
B9
330
48
100
AcDbEntity
  8
1
 62
     2
100
AcDbMText
 10
29.0
 20
22.74999999999999
 30
0.0
 40
3.5
 41
0.0
 71
     5
 72
     1
  1
品名
  7
CONVERTER_11
 73
     1
 44
0.72727272727273
  0
MTEXT
  5
BA
330
48
100
AcDbEntity
  8
1
 62
     2
100
AcDbMText
 10
29.0
 20
14.24999999999999
 30
0.0
 40
3.5
 41
0.0
 71
     5
 72
     1
  1
品番
  7
CONVERTER_11
 73
     1
 44
0.72727272727273
  0
MTEXT
  5
BB
330
48
100
AcDbEntity
  8
1
 62
     2
100
AcDbMText
 10
101.5
 20
25.00000000000001
 30
0.0
 40
3.0
 41
0.0
 71
     5
 72
     1
  1
承認
  7
CONVERTER_11
 73
     1
 44
0.59090909090909
  0
MTEXT
  5
BC
330
48
100
AcDbEntity
  8
1
 62
     2
100
AcDbMText
 10
174.9999999999999
 20
23.50000000000001
 30
0.0
 40
3.5
 41
0.0
 71
     5
 72
     1
  1
第三角法
  7
CONVERTER_11
 73
     1
 44
0.54545454545455
  0
MTEXT
  5
BD
330
48
100
AcDbEntity
  8
1
 62
     2
100
AcDbMText
 10
118.5
 20
25.00000000000001
 30
0.0
 40
3.0
 41
0.0
 71
     5
 72
     1
  1
検図
  7
CONVERTER_11
 73
     1
 44
0.59090909090909
  0
MTEXT
  5
BE
330
48
100
AcDbEntity
  8
1
 62
     2
100
AcDbMText
 10
152.5
 20
25.00000000000001
 30
0.0
 40
3.0
 41
0.0
 71
     5
 72
     1
  1
設計
  7
CONVERTER_11
 73
     1
 44
0.59090909090909
  0
MTEXT
  5
BF
330
48
100
AcDbEntity
  8
1
 62
     2
100
AcDbMText
 10
135.5
 20
25.00000000000001
 30
0.0
 40
3.0
 41
0.0
 71
     5
 72
     1
  1
製図
  7
CONVERTER_11
 73
     1
 44
0.59090909090909
  0
MTEXT
  5
C0
330
48
100
AcDbEntity
  8
1
 62
     2
100
AcDbMText
 10
89.5
 20
24.00000000000001
 30
0.0
 40
3.5
 41
0.0
 71
     5
 72
     1
  1
尺度
  7
CONVERTER_11
 73
     1
 44
0.54545454545455
  0
MTEXT
  5
C1
330
48
100
AcDbEntity
  8
1
 62
   250
100
AcDbMText
 10
25.0
 20
5.0
 30
0.0
 40
3.5
 41
0.0
 71
     4
 72
     1
  1
備考欄の文字列 原点位置=4
  7
CONVERTER_11
 73
     1
 44
0.54545454545455
  0
HATCH
  5
C2
330
48
100
AcDbEntity
  8
1
  6
Continuous
 62
     2
100
AcDbHatch
 10
0.0
 20
0.0
 30
0.0
210
0.0
220
0.0
230
1.0
  2
CUSTOM0
 70
     0
 71
     1
 91
        1
 92
        1
 93
        4
 72
     1
 10
192.4578138032672
 20
15.39722336795626
 11
192.4578138032672
 21
15.22875434022056
 72
     1
 10
192.4578138032672
 20
15.22875434022056
 11
191.1602971697032
 21
15.22875434022056
 72
     1
 10
191.1602971697032
 20
15.22875434022056
 11
191.1602971697032
 21
15.39722336795626
 72
     1
 10
191.1602971697032
 20
15.39722336795626
 11
192.4578138032672
 21
15.39722336795626
 97
        1
330
B5
 75
     1
 76
     2
 52
45.0
 41
0.1
 77
     0
 78
     1
 53
45.0
 43
0.0
 44
0.0
 45
-0.282842712474619
 46
0.0
 79
     0
 98
        1
 10
0.0
 20
0.0
  0
HATCH
  5
C3
330
48
100
AcDbEntity
  8
1
  6
Continuous
 62
     2
100
AcDbHatch
 10
0.0
 20
0.0
 30
0.0
210
0.0
220
0.0
230
1.0
  2
CUSTOM1
 70
     0
 71
     1
 91
        1
 92
        1
 93
        3
 72
     4
 94
        3
 73
     0
 74
     0
 95
       24
 96
       20
 40
0.0
 40
0.0
 40
0.0
 40
0.0
 40
0.2211075008754101
 40
0.4273218586245505
 40
0.5080174679239798
 40
0.591483590787065
 40
0.8143265690193074
 40
1.054651302686614
 40
1.295452694023209
 40
1.51810923132887
 40
1.540864321905486
 40
1.595126460622747
 40
1.65989094789606
 40
1.714153085187446
 40
1.736908174961719
 40
1.764951100735423
 40
1.801562291220985
 40
1.953914424543677
 40
2.12610416737974
 40
2.12610416737974
 40
2.12610416737974
 40
2.12610416737974
 10
185.937536955689
 20
15.58989295113017
 10
185.9112579081812
 20
15.53097628234374
 10
185.8604698894426
 20
15.41711139679258
 10
185.8131784839112
 20
15.14441958233114
 10
185.7043482802619
 20
15.24445482575454
 10
185.5514800279637
 20
15.27118593367329
 10
185.76861551812
 20
15.48518135017632
 10
185.783848367438
 20
15.70332117782486
 10
185.8906889492002
 20
15.88451579066426
 10
185.8305380947077
 20
16.16913226311402
 10
185.9334317395403
 20
16.14114089222451
 10
185.9779933468151
 20
16.13243251602299
 10
186.0380842395397
 20
16.12139654183354
 10
186.0756619587439
 20
16.10767523055561
 10
186.1252466928606
 20
16.1075607616022
 10
186.0930158919325
 20
16.07306592398625
 10
186.0171802221883
 20
16.0840410453796
 10
186.0429447159693
 20
15.89858969582452
 10
186.005589676385
 20
15.80702313549589
 10
185.985770496161
 20
15.75844135397705
 72
     4
 94
        3
 73
     0
 74
     0
 95
       70
 96
       66
 40
0.0
 40
0.0
 40
0.0
 40
0.0
 40
0.0241731073021472
 40
0.0846058988987297
 40
0.1631685280353284
 40
0.2417311571789756
 40
0.3021639488292751
 40
0.3263370654895825
 40
0.3533118254249165
 40
0.4228783438922395
 40
0.5179999095313687
 40
0.6216398239466386
 40
0.716761389149999
 40
0.7863279069650148
 40
0.813302679176212
 40
0.8372943998771958
 40
0.894505426137287
 40
0.962789554196264
 40
1.020000580349074
 40
1.043992300975172
 40
1.071934345522902
 40
1.113121768772915
 40
1.14522519933224
 40
1.225483775412775
 40
1.329819923771483
 40
1.434156071994373
 40
1.514414647795794
 40
1.546518078208402
 40
1.578974764260204
 40
1.662678849314142
 40
1.777131373668391
 40
1.901833377474782
 40
2.016285900500572
 40
2.099989982527939
 40
2.132446666570297
 40
2.158782354486023
 40
2.216720867907817
 40
2.274659381334242
 40
2.300995069256178
 40
2.33345175406615
 40
2.417155836543831
 40
2.53160835898527
 40
2.656310362283765
 40
2.770762886388898
 40
2.854466971340063
 40
2.886923657363869
 40
2.913597976833302
 40
2.982389642875104
 40
3.076451716946966
 40
3.17893726045858
 40
3.272999334739982
 40
3.341791001059201
 40
3.368465320663514
 40
3.396976080738735
 40
3.472140811845943
 40
3.578408190308632
 40
3.70022689245604
 40
3.822045594634258
 40
3.928312973256336
 40
4.003477705314733
 40
4.031988456866799
 40
4.058324144797599
 40
4.11626265823676
 40
4.174201171400556
 40
4.20053684960849
 40
4.20053684960849
 40
4.20053684960849
 40
4.20053684960849
 10
185.985770496161
 20
15.75844135397705
 10
185.993825954468
 20
15.75844359811686
 10
186.0220200663242
 20
15.75845146032798
 10
186.0765534803674
 20
15.75830754828372
 10
186.1482891808604
 20
15.75909120499898
 10
186.2236240137063
 20
15.75627570463811
 10
186.2713052366439
 20
15.76298403400957
 10
186.3195071245617
 20
15.75197563692432
 10
186.3062571799875
 20
15.80546402997033
 10
186.3151093964538
 20
15.86049583543092
 10
186.3108698036287
 20
15.95419908726109
 10
186.313348348128
 20
16.04959482218532
 10
186.3090938706062
 20
16.14356821983387
 10
186.3179818665847
 20
16.19795062438012
 10
186.3046977409946
 20
16.25233997691461
 10
186.351411927711
 20
16.23842216335358
 10
186.3943254545738
 20
16.24103877374043
 10
186.4605443456685
 20
16.23648422450754
 10
186.50133422718
 20
16.22778162134162
 10
186.5525145690819
 20
16.23531799890194
 10
186.5253720487201
 20
16.19349970223285
 10
186.4803096055708
 20
16.20284992072596
 10
186.4942065045051
 20
16.13841207371837
 10
186.4858414431655
 20
16.07378219627399
 10
186.4903632178399
 20
15.97529141193887
 10
186.4854741311168
 20
15.8759593284257
 10
186.4950258992082
 20
15.81293115552968
 10
186.4799761455201
 20
15.74964011499788
 10
186.5449159457209
 20
15.76515072944268
 10
186.6116246399498
 20
15.75499387697813
 10
186.7241435470827
 20
15.75988800099367
 10
186.8390235448954
 20
15.75691204732784
 10
186.9519871999748
 20
15.76221664184991
 10
187.0176267597678
 20
15.75107306472089
 10
187.0816276691054
 20
15.76744532319858
 10
187.070314288919
 20
15.71761689905274
 10
187.077533987151
 20
15.67416715212122
 10
187.070314261127
 20
15.63071745587444
 10
187.0816277175994
 20
15.58088895196875
 10
187.0176263598972
 20
15.59726166091362
 10
186.951992124046
 20
15.58611271661587
 10
186.8389974317331
 20
15.59144857206853
 10
186.7242456548644
 20
15.58834345663821
 10
186.6113183686862
 20
15.59364894682587
 10
186.5455220903585
 20
15.58257300019592
 10
186.4816097975359
 20
15.59887597847617
 10
186.4936015165127
 20
15.5442352439574
 10
186.4862104613006
 20
15.48854295047841
 10
186.4892684841983
 20
15.39649689140569
 10
186.4893422785684
 20
15.30179109873101
 10
186.4860313578361
 20
15.20952782902265
 10
186.4939505989903
 20
15.15435768736139
 10
186.4815076611618
 20
15.10058169100136
 10
186.5389116551633
 20
15.11453768862781
 10
186.5994708140383
 20
15.10511457884226
 10
186.7048680855081
 20
15.10942885928704
 10
186.8204294070623
 20
15.10835504612031
 10
186.9359688877797
 20
15.10725965900994
 10
187.0414181130841
 20
15.11162525770632
 10
187.1018680471804
 20
15.1020942603067
 10
187.159283773911
 20
15.11617289606379
 10
187.1477773876709
 20
15.06707153265682
 10
187.1537566781749
 20
15.02564658018649
 10
187.1520311050802
 20
14.97651677966696
 10
187.1521500122971
 20
14.94854428447608
 10
187.1521871691833
 20
14.9398028819595
 72
     4
 94
        3
 73
     0
 74
     0
 95
       62
 96
       58
 40
0.0
 40
0.0
 40
0.0
 40
0.0
 40
0.0598250028308485
 40
0.2024846486897331
 40
0.3727558389221031
 40
0.515415484793607
 40
0.5752404975785339
 40
0.9332326775487413
 40
1.290451762839508
 40
1.60207725314593
 40
1.699931634112201
 40
1.79935975642516
 40
2.270120149657157
 40
2.804661928461599
 40
2.882342287383308
 40
3.076543185719158
 40
3.329004354835618
 40
3.581465524568443
 40
3.775666424543724
 40
3.853346784558344
 40
3.899120679595118
 40
3.984129341792059
 40
4.029903236817407
 40
4.105797496059564
 40
4.295533144152524
 40
4.542189486611765
 40
4.788845828875711
 40
4.978581476410097
 40
5.05447573524434
 40
5.621734664339376
 40
6.130867242037385
 40
6.225249780948648
 40
6.318913039727375
 40
6.663579954559046
 40
7.047498900224901
 40
7.4352307915758
 40
7.498943906668212
 40
7.650875181210149
 40
7.832212509001631
 40
7.984143783697017
 40
8.047856898903145
 40
8.09155463273265
 40
8.17270756696431
 40
8.21640530076803
 40
8.289021782160916
 40
8.46218416075726
 40
8.668861838005427
 40
8.84202421526399
 40
8.914640695475185
 40
8.989881580861388
 40
9.155411528827292
 40
9.320941477744075
 40
9.396182352487324
 40
9.454709011143814
 40
9.583467660170834
 40
9.712226309013056
 40
9.770752957989538
 40
9.770752957989538
 40
9.770752957989538
 40
9.770752957989538
 10
187.1521871691833
 20
14.9398028819595
 10
187.1322348171623
 20
14.93980875568671
 10
187.0647037716466
 20
14.93982863806157
 10
186.9410612161788
 20
14.93949362520326
 10
186.7863180150056
 20
14.94107673750512
 10
186.669734948248
 20
14.93686078860495
 10
186.4550942634239
 20
14.95215205331626
 10
186.8518948407229
 20
14.59198721286191
 10
186.8945656069268
 20
14.37510503397167
 10
187.3189162146612
 20
14.19325062511444
 10
187.1439821496074
 20
14.08985196568073
 10
187.0194523925083
 20
13.87831523212727
 10
186.7666277235944
 20
14.34806081001562
 10
186.4797602893625
 20
14.9951151698452
 10
186.4906335926662
 20
14.68782672154693
 10
186.488289277796
 20
14.52288616971777
 10
186.4861096126412
 20
14.28879670711693
 10
186.4980774396348
 20
14.04498072421783
 10
186.4687984740632
 20
13.89855796860984
 10
186.511452262547
 20
13.75113490174537
 10
186.423981400564
 20
13.7668579730622
 10
186.3768527606745
 20
13.76694303543455
 10
186.2898973207714
 20
13.75109425482909
 10
186.3313474021725
 20
13.89527771422763
 10
186.3029875004285
 20
14.03855052698455
 10
186.31459737753
 20
14.27674947365265
 10
186.3124175648273
 20
14.50517235240346
 10
186.3103111127995
 20
14.66705729375994
 10
186.3208035438324
 20
14.98153709333753
 10
186.0128963252894
 20
14.29229470872435
 10
185.7055258267457
 20
13.81476750243054
 10
185.5851367066275
 20
14.03741112637428
 10
185.4074607910721
 20
14.15011034955561
 10
185.8853326362895
 20
14.32548143465461
 10
185.9353959057208
 20
14.56091929252028
 10
186.3583799621717
 20
14.95322989344608
 10
186.127675427354
 20
14.93655307029065
 10
186.0049685859341
 20
14.94269518948771
 10
185.8325483095663
 20
14.93312822699574
 10
185.7213224694449
 20
14.95448818489665
 10
185.6025779627449
 20
14.9213626535742
 10
185.6183169706686
 20
15.00203900606883
 10
185.6178550933763
 20
15.04645414290854
 10
185.6027881889932
 20
15.12967081778533
 10
185.7372380935444
 20
15.09062651983883
 10
185.8619755545747
 20
15.11739729328422
 10
186.0628755237281
 20
15.10063949044051
 10
186.1921540949354
 20
15.12204225913004
 10
186.3328419928296
 20
15.0886877885342
 10
186.2980927452617
 20
15.22651875785067
 10
186.3222185666713
 20
15.3496325734948
 10
186.2967086182394
 20
15.47024055670335
 10
186.3333251146686
 20
15.60539865141492
 10
186.2211417027771
 20
15.58094545781889
 10
186.1280356457138
 20
15.59307749842021
 10
186.0191547579821
 20
15.58957630069993
 10
185.9569697640965
 20
15.58981755951601
 10
185.9375369557247
 20
15.58989295124143
 97
        3
330
A6
330
A4
330
A5
 75
     1
 76
     2
 52
45.0
 41
0.1
 77
     0
 78
     1
 53
45.0
 43
0.0
 44
0.0
 45
-0.282842712474619
 46
0.0
 79
     0
 98
        1
 10
0.0
 20
0.0
  0
HATCH
  5
C4
330
48
100
AcDbEntity
  8
1
  6
Continuous
 62
     2
100
AcDbHatch
 10
0.0
 20
0.0
 30
0.0
210
0.0
220
0.0
230
1.0
  2
CUSTOM2
 70
     0
 71
     1
 91
        1
 92
        1
 93
        1
 72
     4
 94
        3
 73
     0
 74
     0
 95
      124
 96
      120
 40
0.0
 40
0.0
 40
0.0
 40
0.0
 40
0.0278187229624226
 40
0.1011590162383985
 40
0.2048470170590239
 40
0.3237088716558961
 40
0.4425707262522
 40
0.5462587270699263
 40
0.6195990203312082
 40
0.647417752257866
 40
0.6750060736115224
 40
0.7357003855242759
 40
0.7963946998054492
 40
0.8239830245571784
 40
0.8540933811103162
 40
0.9373396629409274
 40
1.063094687343237
 40
1.220731268638075
 40
1.399622220914749
 40
1.589140358637762
 40
1.778658496423843
 40
1.957549448940539
 40
2.115186030873132
 40
2.240941056914465
 40
2.324187341760534
 40
2.354297700109384
 40
2.38188602467189
 40
2.442580338710479
 40
2.503274652750503
 40
2.53086297731461
 40
2.560983949278563
 40
2.640393784452908
 40
2.752662861759132
 40
2.88136156011812
 40
3.010060258455167
 40
3.122329335705371
 40
3.201739170817928
 40
3.231860142753317
 40
3.264298024030372
 40
3.352343701778243
 40
3.482095226868764
 40
3.639650650173022
 40
3.811108022565477
 40
3.982565394927982
 40
4.140120818152561
 40
4.269872343141269
 40
4.357918020802329
 40
4.390355902043958
 40
4.423256253992528
 40
4.50810453007302
 40
4.624121560636788
 40
4.750528176031517
 40
4.866545206601992
 40
4.951393482691949
 40
4.98429383464535
 40
5.011450833242267
 40
5.071196230152057
 40
5.130941627057136
 40
5.158098625648804
 40
5.190998977601466
 40
5.275847253689292
 40
5.391864284256754
 40
5.518270899648271
 40
5.634287930209282
 40
5.719136206287955
 40
5.752036558235871
 40
5.782130946282897
 40
5.862783906229072
 40
5.979550131774938
 40
6.117984316640345
 40
6.26364115458789
 40
6.402075339414096
 40
6.51884156490789
 40
6.599494524815472
 40
6.62958891284871
 40
6.654403028226286
 40
6.713575149488053
 40
6.784199939329398
 40
6.8433720604935
 40
6.868186175802718
 40
6.896246243201828
 40
6.93958623375817
 40
6.967846564564798
 40
7.043584251089737
 40
7.153234334451595
 40
7.283231855734345
 40
7.420011856035378
 40
7.55000937657973
 40
7.659659458835129
 40
7.735397144417123
 40
7.763657474851295
 40
7.796409728010952
 40
7.880876065096226
 40
7.996370852465612
 40
8.122208446418506
 40
8.2377032247991
 40
8.322169562010822
 40
8.354921815205808
 40
8.38207881330759
 40
8.4418242092069
 40
8.501569605240054
 40
8.528726603485634
 40
8.561478856695654
 40
8.645945193877704
 40
8.761439980865244
 40
8.887277580764387
 40
9.002772362000908
 40
9.0872386966611
 40
9.119990949235582
 40
9.15242883061328
 40
9.240474508638496
 40
9.370226034149443
 40
9.527781457984325
 40
9.699238830981313
 40
9.870696203978502
 40
10.02825162781392
 40
10.15800315332554
 40
10.24604883135109
 40
10.27848670378511
 40
10.27848670378511
 40
10.27848670378511
 40
10.27848670378511
 10
195.3821827564384
 20
14.01410517385757
 10
195.3914554737524
 20
14.01410498511274
 10
195.4251744536861
 20
14.01410430876714
 10
195.4934706812466
 20
14.01411807243305
 10
195.592014171158
 20
14.01403224219544
 10
195.7062066464812
 20
14.0144175561225
 10
195.8185894417072
 20
14.01300835897545
 10
195.9214376600118
 20
14.01719117422243
 10
195.980683987485
 20
14.00823089251983
 10
196.0371265937034
 20
14.0216443452606
 10
196.0246255586956
 20
13.97087198613361
 10
196.0329549635704
 20
13.92589320939067
 10
196.0248170841121
 20
13.88056752990488
 10
196.0370529214458
 20
13.82931932408465
 10
195.9747773490334
 20
13.84447955365276
 10
195.9060513026869
 20
13.83359750710742
 10
195.7782756749592
 20
13.83911304747972
 10
195.6262984511644
 20
13.83700851253698
 10
195.4502695972523
 20
13.83771002588473
 10
195.2644431934288
 20
13.83745237531292
 10
195.0786167437176
 20
13.83771005144602
 10
194.9025880142169
 20
13.83700841847731
 10
194.7506104154195
 20
13.83911332229988
 10
194.6228357664555
 20
13.8335968076764
 10
194.5541077836581
 20
13.84448077125942
 10
194.4918349042884
 20
13.82931786684209
 10
194.5040616290018
 20
13.88057510805171
 10
194.4960004462598
 20
13.92582473272425
 10
194.5040675809893
 20
13.97106357955323
 10
194.4918238487084
 20
14.02234176909958
 10
194.5525017120699
 20
14.00749577363134
 10
194.6162810745737
 20
14.01756448170735
 10
194.7277314353503
 20
14.01294644211999
 10
194.8497533443824
 20
14.01413328905469
 10
194.9719538137824
 20
14.01515863900635
 10
195.0829794287392
 20
14.01092475623402
 10
195.1476517413959
 20
14.02018584521739
 10
195.2091162810502
 20
14.00604423049682
 10
195.1930065601338
 20
14.07235527884516
 10
195.2042980327359
 20
14.14447790121976
 10
195.1987400822561
 20
14.27513760888285
 10
195.2008035061691
 20
14.42607323708241
 10
195.2000167127295
 20
14.59335873107885
 10
195.2007845215629
 20
14.76061110332302
 10
195.1988038785628
 20
14.91163289269912
 10
195.2041306156621
 20
15.04206069552994
 10
195.1933101388426
 20
15.11465442605898
 10
195.2090326429876
 20
15.18150469436797
 10
195.1432708132492
 20
15.16580512490823
 10
195.0756367830764
 20
15.17609243083994
 10
194.9615885293811
 20
15.1711378684712
 10
194.8451242674903
 20
15.17414128030474
 10
194.7306554121478
 20
15.16880303143388
 10
194.6640324657814
 20
15.18001268074824
 10
194.5990769715186
 20
15.1634913266501
 10
194.610798975871
 20
15.21473720477058
 10
194.6032830189122
 20
15.25950333784091
 10
194.6107989878836
 20
15.30426944897961
 10
194.5990769505348
 20
15.3555153612974
 10
194.6640326339201
 20
15.33899381766816
 10
194.7306533339821
 20
15.35020571373943
 10
194.8451352858065
 20
15.34485436710665
 10
194.9615454436963
 20
15.34791188771117
 10
195.0757660174641
 20
15.34278499010708
 10
195.1430150439228
 20
15.35345733355599
 10
195.2083325941439
 20
15.33742082669076
 10
195.1941391448553
 20
15.39949685750054
 10
195.2036059462996
 20
15.46586761628762
 10
195.1990269004085
 20
15.58239972741966
 10
195.2007696555949
 20
15.71426685022376
 10
195.1997551495392
 20
15.85615960150273
 10
195.2017191344372
 20
15.9876905070258
 10
195.1964668553852
 20
16.10524577283002
 10
195.2073408763474
 20
16.16947789001584
 10
195.1919536641855
 20
16.23108802545047
 10
195.2407591537801
 20
16.21702407382111
 10
195.2853995564727
 20
16.21954742075314
 10
195.3538643946744
 20
16.21512797401709
 10
195.3959106169103
 20
16.20613025544036
 10
195.4487544758776
 20
16.21411714866509
 10
195.4207035002014
 20
16.17113917611677
 10
195.3749142248595
 20
16.18259552043835
 10
195.3869539073265
 20
16.12173520005137
 10
195.3796086070643
 20
16.05769299468773
 10
195.3831195826162
 20
15.94909368863911
 10
195.3819806760175
 20
15.82494319144753
 10
195.3819174780263
 20
15.69189719829878
 10
195.3832872966868
 20
15.56797381249555
 10
195.3791638801314
 20
15.45868337849339
 10
195.3877763103565
 20
15.3960858009417
 10
195.3746757454402
 20
15.33740133296365
 10
195.4393884328199
 20
15.35362113810902
 10
195.5060405953157
 20
15.34270260383311
 10
195.6198779541103
 20
15.34793740173756
 10
195.7357259122098
 20
15.34485547516913
 10
195.8496924263281
 20
15.35018259812512
 10
195.91603410181
 20
15.33904208166543
 10
195.980718852548
 20
15.35546979593177
 10
195.9689820772724
 20
15.30425925210051
 10
195.9765168063041
 20
15.25950334121
 10
195.9689820992259
 20
15.21474739010027
 10
195.9807188140738
 20
15.1635369087104
 10
195.9160344075253
 20
15.17996427794218
 10
195.8496886430826
 20
15.16882784447269
 10
195.7357459487013
 20
15.17413115893119
 10
195.6197995623055
 20
15.17114764593543
 10
195.5062756882124
 20
15.17606892268392
 10
195.4389231318805
 20
15.16585087513518
 10
195.3734285122496
 20
15.18145996138815
 10
195.3891713619218
 20
15.1146385182741
 10
195.3783275998215
 20
15.04207057815878
 10
195.3836581629792
 20
14.91162247614416
 10
195.3817136151856
 20
14.76064558185225
 10
195.3823133683215
 20
14.59322243934158
 10
195.3821506559605
 20
14.42656176118371
 10
195.3821895488136
 20
14.27360142921636
 10
195.38218164131
 20
14.14849178985705
 10
195.3821828382745
 20
14.06507890991419
 10
195.3821827716209
 20
14.02491778281976
 10
195.3821827564384
 20
14.01410517385757
 97
        1
330
A7
 75
     1
 76
     2
 52
45.0
 41
0.1
 77
     0
 78
     1
 53
45.0
 43
0.0
 44
0.0
 45
-0.282842712474619
 46
0.0
 79
     0
 98
        1
 10
0.0
 20
0.0
  0
HATCH
  5
C5
330
48
100
AcDbEntity
  8
1
  6
Continuous
 62
     2
100
AcDbHatch
 10
0.0
 20
0.0
 30
0.0
210
0.0
220
0.0
230
1.0
  2
CUSTOM3
 70
     0
 71
     1
 91
        1
 92
        1
 93
        1
 72
     4
 94
        3
 73
     0
 74
     0
 95
      131
 96
      127
 40
0.0
 40
0.0
 40
0.0
 40
0.0
 40
0.01955770298261
 40
0.0426490537461448
 40
0.2863607575855993
 40
0.5344948436188807
 40
0.7842238845572536
 40
0.8737315789466507
 40
0.9803832810312013
 40
1.092842274516924
 40
1.199761146656683
 40
1.289788768186412
 40
1.35157358078613
 40
1.370727117561373
 40
1.416400936017799
 40
1.47091484835594
 40
1.516588666791761
 40
1.535742203552841
 40
1.634216592293146
 40
1.76028334117494
 40
1.89796668668207
 40
2.031216387368915
 40
2.049689751137909
 40
2.101115601646845
 40
2.179502577739963
 40
2.278859318314077
 40
2.393194462258735
 40
2.516516648383848
 40
2.642834515405977
 40
2.766156701983479
 40
2.880491846754594
 40
2.979848588358636
 40
3.058235565443813
 40
3.109661416668968
 40
3.128134780704143
 40
3.14678374238646
 40
3.191254343315292
 40
3.244332157315895
 40
3.28880275822577
 40
3.307451719895041
 40
3.327717853844654
 40
3.383747753580011
 40
3.468388665924404
 40
3.574487837698707
 40
3.694892515728811
 40
3.822449946851949
 40
3.950007377920337
 40
4.070412055800429
 40
4.176511227367983
 40
4.261152139501429
 40
4.317182039076619
 40
4.33744817296454
 40
4.620011002696164
 40
4.885096638397388
 40
4.945373043518202
 40
5.014107710488554
 40
5.070481727651895
 40
5.319246955636375
 40
5.58481216450587
 40
5.859000912056701
 40
6.1337469375419
 40
6.401732212968708
 40
6.420736683995327
 40
6.47284571745092
 40
6.550702743893905
 40
6.646951193874114
 40
6.754234497930438
 40
6.865196086587244
 40
6.972479390357702
 40
7.068727839771893
 40
7.146584865450902
 40
7.198693898189132
 40
7.217698368905272
 40
7.23495040163075
 40
7.276089864269799
 40
7.325191803515909
 40
7.366331266090298
 40
7.383583298769651
 40
7.402779163492057
 40
7.45338644325446
 40
7.52493466644549
 40
7.60695336140583
 40
7.68897205642901
 40
7.76052027978426
 40
7.811127559734531
 40
7.830323424546152
 40
7.84784405529978
 40
7.894799345666823
 40
7.962779392744509
 40
8.043374293560554
 40
8.12817414514946
 40
8.208769044817261
 40
8.276749090376962
 40
8.32370437966952
 40
8.341225010056254
 40
8.358497614800402
 40
8.40167912668658
 40
8.457815092185637
 40
8.513951057728042
 40
8.55713256970794
 40
8.574405174504983
 40
8.602340668616314
 40
8.64345566053991
 40
8.663225271966578
 40
8.715345156564222
 40
8.789031889628557
 40
8.873502045520285
 40
8.957972194323908
 40
9.031658925567797
 40
9.083778811234485
 40
9.103548423002948
 40
9.119550083123485
 40
9.160817522379787
 40
9.217244429110153
 40
9.278724491644638
 40
9.335151398295423
 40
9.376418837357718
 40
9.392420497300506
 40
9.401196302734725
 40
9.417494229384198
 40
9.426270027749469
 40
9.440875075477502
 40
9.475702496998684
 40
9.517270709865848
 40
9.552098131994018
 40
9.566703169884228
 40
9.566703169884228
 40
9.566703169884228
 40
9.566703169884228
 10
194.6170254148479
 20
15.67015871511026
 10
194.6134345093371
 20
15.66453690702158
 10
194.6056039123624
 20
15.65227754419111
 10
194.5129968974549
 20
15.61601916040972
 10
194.4887622233247
 20
15.4014844421271
 10
194.3858709845939
 20
15.2219728450971
 10
194.1220492364307
 20
15.03615573798147
 10
194.2845471569181
 20
14.9595933656608
 10
194.3607225760839
 20
14.89856693195443
 10
194.4492171072759
 20
14.83515804544758
 10
194.5389930233111
 20
14.7752563421956
 10
194.5883817636047
 20
14.72102154849207
 10
194.6745708157383
 20
14.69286240541832
 10
194.641126067423
 20
14.65713309652811
 10
194.6214671166311
 20
14.62550387991907
 10
194.5919888217882
 20
14.58475872796066
 10
194.5688989446031
 20
14.55504663489645
 10
194.5380205968356
 20
14.50211422668494
 10
194.4729193365741
 20
14.62740334938901
 10
194.3796000122416
 20
14.68213900233937
 10
194.2950636285139
 20
14.73916423939339
 10
194.1722498125741
 20
14.89675287427523
 10
194.1764450847301
 20
14.82035806766837
 10
194.1751478652677
 20
14.77361280161296
 10
194.1758126448076
 20
14.695847858126
 10
194.1755549986957
 20
14.59902068324423
 10
194.1756431239921
 20
14.48650279078809
 10
194.1756077302282
 20
14.365240859457
 10
194.1756511758278
 20
14.24086897858961
 10
194.1755199942406
 20
14.11967683631337
 10
194.1759477562046
 20
14.00691148919743
 10
194.174667820231
 20
13.91082913768744
 10
194.1779759851044
 20
13.831138264687
 10
194.1715197740086
 20
13.78815175788784
 10
194.1806208705556
 20
13.74955432372043
 10
194.1447910339935
 20
13.7581088772407
 10
194.1115223815253
 20
13.75342519985447
 10
194.0604562576041
 20
13.75351298759784
 10
194.0269723972813
 20
13.75794430283821
 10
193.9907585408755
 20
13.74960793842509
 10
194.0009782568666
 20
13.79145277179284
 10
193.9936487887773
 20
13.83778560820174
 10
193.9973633136103
 20
13.92374831106014
 10
193.9959480554897
 20
14.02605142704849
 10
193.9964105554639
 20
14.14453223931511
 10
193.9962773686231
 20
14.26957683153355
 10
193.9963015910046
 20
14.39475828107049
 10
193.9963354925552
 20
14.51286645379057
 10
193.9962060293133
 20
14.61628748709515
 10
193.9965507549081
 20
14.69932036153665
 10
193.9958698278691
 20
14.75143368521242
 10
193.9994586600623
 20
14.8791290782136
 10
193.7826171386438
 20
14.58048716819626
 10
193.6021354921951
 20
14.35263981511515
 10
193.5490322295613
 20
14.49373443289816
 10
193.5200429133149
 20
14.54325767560937
 10
193.4196648062822
 20
14.64641779790113
 10
193.7405127723261
 20
14.72695035023777
 10
193.8689897005431
 20
14.91066283036433
 10
194.0906454325359
 20
15.11931995771763
 10
194.1770224894069
 20
15.29339211228342
 10
194.4549394229075
 20
15.56967051342513
 10
194.3346247839285
 20
15.56534559551114
 10
194.2863197351349
 20
15.56614856202553
 10
194.2102377454906
 20
15.56574582146584
 10
194.116701000975
 20
15.5659027561161
 10
194.0117594788557
 20
15.56582502576224
 10
193.9033887738718
 20
15.56595464378554
 10
193.7981454235897
 20
15.56554393490692
 10
193.7056237819413
 20
15.56682073671591
 10
193.6268130800707
 20
15.5634076653485
 10
193.5839674565379
 20
15.5702335003632
 10
193.5449499586515
 20
15.56065064201123
 10
193.5526365271863
 20
15.59420779565542
 10
193.5485464404312
 20
15.62523550322233
 10
193.5485531368814
 20
15.672365292709
 10
193.5526239724912
 20
15.70340941646779
 10
193.5449495574582
 20
15.73701861635903
 10
193.5834819405495
 20
15.72748410420873
 10
193.624122801448
 20
15.73397435498071
 10
193.6951471850463
 20
15.73100150650255
 10
193.7729318149634
 20
15.73174761399158
 10
193.8507292246474
 20
15.73247814044526
 10
193.9217232089908
 20
15.72954235514161
 10
193.9624279791821
 20
15.73595468772953
 10
194.000985348991
 20
15.72650524176004
 10
193.9927342754929
 20
15.76264692158785
 10
193.9982346669358
 20
15.80129837613228
 10
193.9955754206164
 20
15.8691352856184
 10
193.9965815471534
 20
15.9459164153874
 10
193.996017801832
 20
16.02849393582758
 10
193.9970714526593
 20
16.10517329229878
 10
193.994267586313
 20
16.173319907767
 10
194.0000702721305
 20
16.21132399809346
 10
193.991565455116
 20
16.24758448077646
 10
194.0255610233125
 20
16.23755723771853
 10
194.0594575683099
 20
16.24073266813706
 10
194.1126669060347
 20
16.2350896564061
 10
194.1660768574483
 20
16.23434774436425
 10
194.199591464949
 20
16.2281922348298
 10
194.2388086183039
 20
16.23346029773593
 10
194.2120263698493
 20
16.19253380793486
 10
194.1708111001724
 20
16.20371204538113
 10
194.1782641540873
 20
16.15867056192124
 10
194.1742227952184
 20
16.11412278028144
 10
194.1761714049641
 20
16.04223572621704
 10
194.1752364849758
 20
15.96168630588771
 10
194.176510719003
 20
15.88173995404995
 10
194.1732043793863
 20
15.80841837083183
 10
194.1802106179962
 20
15.7668864300257
 10
194.1701440380125
 20
15.72752418568113
 10
194.2029814803921
 20
15.73468063430982
 10
194.236457729648
 20
15.73027243137945
 10
194.2915053476019
 20
15.73217943347898
 10
194.3489502595314
 20
15.73185366407289
 10
194.4023026248309
 20
15.73106308733083
 10
194.4398540896638
 20
15.73313959118074
 10
194.4623172523237
 20
15.7302233816711
 10
194.4751678073731
 20
15.73572552644056
 10
194.4858255685889
 20
15.73801118197791
 10
194.4986635650143
 20
15.74494972588052
 10
194.5145991033071
 20
15.72853046313672
 10
194.5410623920891
 20
15.71709122319447
 10
194.5726805253758
 20
15.6964468783519
 10
194.5987255892151
 20
15.68116869628293
 10
194.6128517723973
 20
15.67266976323183
 10
194.6170254148479
 20
15.67015871511026
 97
        1
330
A8
 75
     1
 76
     2
 52
45.0
 41
0.1
 77
     0
 78
     1
 53
45.0
 43
0.0
 44
0.0
 45
-0.282842712474619
 46
0.0
 79
     0
 98
        1
 10
0.0
 20
0.0
  0
HATCH
  5
C6
330
48
100
AcDbEntity
  8
1
  6
Continuous
 62
     2
100
AcDbHatch
 10
0.0
 20
0.0
 30
0.0
210
0.0
220
0.0
230
1.0
  2
CUSTOM4
 70
     0
 71
     1
 91
        1
 92
        1
 93
        1
 72
     4
 94
        3
 73
     0
 74
     0
 95
       91
 96
       87
 40
0.0
 40
0.0
 40
0.0
 40
0.0
 40
0.0267532254356701
 40
0.0856103386464102
 40
0.1444674521996621
 40
0.1712206856618514
 40
0.2039416005642536
 40
0.2955601971652484
 40
0.4362601844616918
 40
0.616225284450725
 40
0.8256392189704982
 40
1.054685709844411
 40
1.293548478893531
 40
1.532411247938275
 40
1.76145773879954
 40
1.970871673298508
 40
2.150836773256704
 40
2.291536760495565
 40
2.383155356836643
 40
2.415876284101292
 40
2.442629517487936
 40
2.501486630949066
 40
2.560343744424213
 40
2.587096977826486
 40
2.617068194440914
 40
2.699247336756055
 40
2.822032643466339
 40
2.973822353257868
 40
3.143014704823311
 40
3.318007936879861
 40
3.487200288186723
 40
3.638989997548204
 40
3.761775303794702
 40
3.843954445753037
 40
3.873925662229733
 40
3.890812773500441
 40
3.907699884771592
 40
3.937960767857219
 40
3.980983618142223
 40
4.199085915228381
 40
4.439444339237159
 40
4.677588241260803
 40
5.050698317837689
 40
5.448212454763018
 40
5.855291218044515
 40
6.138575438885179
 40
6.417434507583974
 40
6.444551104393632
 40
6.504207617362906
 40
6.56386413031423
 40
6.590980727103798
 40
6.848609460381201
 40
7.10961199066814
 40
7.352910904445805
 40
7.557830220705226
 40
7.587518925913145
 40
7.65283407737559
 40
7.718149228845575
 40
7.747837934061881
 40
7.854880190300809
 40
7.976511257403333
 40
8.369487896592162
 40
8.757514959223512
 40
9.126072419330974
 40
9.46063938039198
 40
9.746695593035664
 40
9.777569943118454
 40
9.807050320931637
 40
9.830377336128771
 40
9.886003295435849
 40
9.952395569429765
 40
10.00802152870612
 40
10.03134854388205
 40
10.21356951009578
 40
10.42203479292858
 40
10.66154556731053
 40
10.91693789564292
 40
11.15832906556548
 40
11.18982674596603
 40
11.27286608520387
 40
11.39026653033329
 40
11.52484752840859
 40
11.6594285264841
 40
11.77682897161449
 40
11.85986831085642
 40
11.89136598230388
 40
11.89136598230388
 40
11.89136598230388
 40
11.89136598230388
 10
190.7027885008197
 20
14.70699600701772
 10
190.7028237765289
 20
14.71587847311985
 10
190.7029366710797
 20
14.74430237047346
 10
190.7012984568489
 20
14.79409639169803
 10
190.7069750292912
 20
14.83657564478154
 10
190.6956928731707
 20
14.88730154856847
 10
190.7632296979033
 20
14.87012900740109
 10
190.8388029210701
 20
14.88290227165996
 10
190.9828357056002
 20
14.87629729457382
 10
191.1569419185427
 20
14.87888462206466
 10
191.3639599611005
 20
14.87800591955553
 10
191.5894688172378
 20
14.87828207920027
 10
191.8251162293406
 20
14.87818339658662
 10
192.0607640531349
 20
14.87828184412767
 10
192.2862717580627
 20
14.87800678190789
 10
192.4932934632806
 20
14.87888186270735
 10
192.6673888915289
 20
14.87630522678446
 10
192.8114492071986
 20
14.88288290449214
 10
192.8869691915293
 20
14.87016243405604
 10
192.9545776037031
 20
14.88726400191688
 10
192.9430840140677
 20
14.8367478580294
 10
192.9505104581733
 20
14.79253252226501
 10
192.9428838927986
 20
14.7486796650361
 10
192.9546489459426
 20
14.69878374479327
 10
192.8930788491984
 20
14.71393227712512
 10
192.8256791738672
 20
14.70310665350673
 10
192.7013004056223
 20
14.70852031626236
 10
192.5554428236572
 20
14.70649205390785
 10
192.3893576440086
 20
14.70715777578387
 10
192.2188412621725
 20
14.70689643521242
 10
192.051979085539
 20
14.70721553391094
 10
191.9087346827106
 20
14.70635302590762
 10
191.7773313869835
 20
14.70863300482988
 10
191.7239859134658
 20
14.70407704374202
 10
191.6485188456913
 20
14.70999914992877
 10
191.6769075779233
 20
14.70094169343353
 10
191.7033652409543
 20
14.69725912268928
 10
191.6633522907702
 20
14.66654271968276
 10
191.571366369187
 20
14.67667591174631
 10
191.5439396207069
 20
14.43032502247787
 10
191.4478793967235
 20
14.27499558764374
 10
191.1917277964474
 20
13.94525417931569
 10
191.7627537732763
 20
14.08430022210451
 10
192.0173656320516
 20
14.08291779973362
 10
192.6279647048617
 20
13.99790569242083
 10
192.3340698578084
 20
14.29685417558205
 10
192.0133304286518
 20
14.44330856901775
 10
192.1313543360434
 20
14.50025540818288
 10
192.1724716466261
 20
14.52420099873348
 10
192.2156812394412
 20
14.5459975881123
 10
192.3174574094449
 20
14.60928721253905
 10
192.4328867625248
 20
14.35147151408781
 10
192.6329591642277
 20
14.21616041113683
 10
192.7269077387227
 20
14.03792795138878
 10
192.9558829746393
 20
13.87997821027049
 10
192.8596031846709
 20
13.82915972576299
 10
192.8167959763779
 20
13.79881292523052
 10
192.771824352878
 20
13.7746613028146
 10
192.7121720925213
 20
13.72552146747566
 10
192.6789731061326
 20
13.85997475673609
 10
192.5582013350796
 20
14.0159426528658
 10
192.1970976005979
 20
13.88569928059555
 10
191.8385061955541
 20
13.90224694409483
 10
191.4570920450079
 20
13.89331229351863
 10
191.1703455282892
 20
13.82882671672411
 10
190.8592055599717
 20
13.9423066819282
 10
190.8268737818788
 20
13.83122259927766
 10
190.7896178253318
 20
13.81196313850009
 10
190.7865737632753
 20
13.85874784087295
 10
190.7679892860607
 20
13.89806853919135
 10
190.7512436616778
 20
13.95765983478232
 10
190.7383730915753
 20
14.00201969871283
 10
190.7042327806428
 20
14.09106331120203
 10
190.9482714457754
 20
14.02181042943769
 10
191.1441394486671
 20
14.00030369057746
 10
191.2395426381278
 20
14.28226484478462
 10
191.2945135769597
 20
14.4436304542112
 10
191.5159619357155
 20
14.71391177589737
 10
191.3849239381215
 20
14.70548446853735
 10
191.3110026555853
 20
14.70779008496969
 10
191.1977459876242
 20
14.70671378321658
 10
191.0694251807485
 20
14.7070763907651
 10
190.9404252030416
 20
14.70697724466086
 10
190.8287840946291
 20
14.70699932712572
 10
190.7514663970027
 20
14.7069957918967
 10
190.7132876532011
 20
14.70699595845081
 10
190.7027885008197
 20
14.70699600701772
 97
        1
330
A9
 75
     1
 76
     2
 52
45.0
 41
0.1
 77
     0
 78
     1
 53
45.0
 43
0.0
 44
0.0
 45
-0.282842712474619
 46
0.0
 79
     0
 98
        1
 10
0.0
 20
0.0
  0
HATCH
  5
C7
330
48
100
AcDbEntity
  8
1
  6
Continuous
 62
     2
100
AcDbHatch
 10
0.0
 20
0.0
 30
0.0
210
0.0
220
0.0
230
1.0
  2
CUSTOM5
 70
     0
 71
     1
 91
        1
 92
        1
 93
        1
 72
     4
 94
        3
 73
     0
 74
     0
 95
       35
 96
       31
 40
0.0
 40
0.0
 40
0.0
 40
0.0
 40
0.0335231036620645
 40
0.0713218571712051
 40
0.4278866681486683
 40
0.8116865841963705
 40
1.198190238000003
 40
1.56137954681268
 40
1.659983174622071
 40
1.75931557380724
 40
2.132719617231078
 40
2.525233363588808
 40
2.910815397779694
 40
3.265244364303317
 40
3.592606723582093
 40
3.964386154604019
 40
4.359942131737798
 40
4.758154118639262
 40
4.843846538699866
 40
4.936650065543197
 40
5.256616602537305
 40
5.58170740441602
 40
5.899719158308137
 40
6.198363494280683
 40
6.466301046615699
 40
6.493895311537021
 40
6.559697020196842
 40
6.638234543442445
 40
6.704036252154254
 40
6.73163050842306
 40
6.73163050842306
 40
6.73163050842306
 40
6.73163050842306
 10
191.973601056867
 20
16.23463843719134
 10
191.967600609779
 20
16.22480690542323
 10
191.9548344099158
 20
16.20388988579798
 10
191.7949362006555
 20
16.17127126532689
 10
192.2322025842338
 20
15.882066803367
 10
192.4345394828261
 20
15.68041138358439
 10
192.6819564267973
 20
15.43749387603274
 10
193.1831513624608
 20
15.36047662757778
 10
193.012556219897
 20
15.21876939174656
 10
192.9383299463201
 20
15.01710366209112
 10
192.6131432248188
 20
15.36956287174725
 10
192.3277741670665
 20
15.53175212559564
 10
192.0337604077658
 20
15.7368713005305
 10
191.8084452691134
 20
16.21827488595455
 10
191.5993085055521
 20
15.75343046609227
 10
191.3207873674834
 20
15.54350952252911
 10
191.0371383177209
 20
15.37424456359985
 10
190.707863952783
 20
15.00142360907932
 10
190.6277012318226
 20
15.19708014459003
 10
190.4759724909745
 20
15.32491104190592
 10
190.9083395826795
 20
15.40454031765934
 10
191.0962565329766
 20
15.60026634915475
 10
191.3468477420504
 20
15.81632996916752
 10
191.5714350470161
 20
15.98190992300061
 10
191.6259775409713
 20
16.26133964636828
 10
191.7494661029011
 20
16.24737950408078
 10
191.806027334452
 20
16.24521268867647
 10
191.8761870984945
 20
16.2404685988136
 10
191.9333414022107
 20
16.23709429350541
 10
191.964419032084
 20
16.23519854711119
 10
191.973601056867
 20
16.23463843719134
 97
        1
330
AA
 75
     1
 76
     2
 52
45.0
 41
0.1
 77
     0
 78
     1
 53
45.0
 43
0.0
 44
0.0
 45
-0.282842712474619
 46
0.0
 79
     0
 98
        1
 10
0.0
 20
0.0
  0
HATCH
  5
C8
330
48
100
AcDbEntity
  8
1
  6
Continuous
 62
     2
100
AcDbHatch
 10
0.0
 20
0.0
 30
0.0
210
0.0
220
0.0
230
1.0
  2
CUSTOM6
 70
     0
 71
     1
 91
        1
 92
        1
 93
        1
 72
     4
 94
        3
 73
     0
 74
     0
 95
       15
 96
       11
 40
0.0
 40
0.0
 40
0.0
 40
0.0
 40
0.2785535985096802
 40
0.5215624748198895
 40
0.6076917376040897
 40
0.6938210001741814
 40
0.9405019146455136
 40
1.221691403489194
 40
1.300471877081132
 40
1.379252341684941
 40
1.379252341684941
 40
1.379252341684941
 40
1.379252341684941
 10
189.5681493631
 20
16.22930267330381
 10
189.6296017794178
 20
16.17691646592716
 10
189.7446649974114
 20
16.07882876798226
 10
190.0397348497245
 20
15.92889785897217
 10
189.9025147631857
 20
15.84343227515016
 10
189.8041227843779
 20
15.71085785201557
 10
189.713003359065
 20
16.01616985781423
 10
189.3636839480654
 20
16.07967869465375
 10
189.5119258376571
 20
16.17896509880879
 10
189.5494081874237
 20
16.21252348402383
 10
189.5681493631
 20
16.22930267330381
 97
        1
330
AB
 75
     1
 76
     2
 52
45.0
 41
0.1
 77
     0
 78
     1
 53
45.0
 43
0.0
 44
0.0
 45
-0.282842712474619
 46
0.0
 79
     0
 98
        1
 10
0.0
 20
0.0
  0
HATCH
  5
C9
330
48
100
AcDbEntity
  8
1
  6
Continuous
 62
     2
100
AcDbHatch
 10
0.0
 20
0.0
 30
0.0
210
0.0
220
0.0
230
1.0
  2
CUSTOM7
 70
     0
 71
     1
 91
        1
 92
        1
 93
        1
 72
     4
 94
        3
 73
     0
 74
     0
 95
       75
 96
       71
 40
0.0
 40
0.0
 40
0.0
 40
0.0
 40
0.0342546099129691
 40
0.1245622414432346
 40
0.2522385480897483
 40
0.3985991922940609
 40
0.544959836498075
 40
0.6726361431438745
 40
0.7629437746736853
 40
0.7971983935297866
 40
1.101723623449621
 40
1.408591244036571
 40
1.433332471690279
 40
1.487763172450081
 40
1.542193873081923
 40
1.566935100592473
 40
1.92352393182184
 40
2.27175570495364
 40
2.59057975510091
 40
2.858943305581197
 40
2.889120339309187
 40
2.918305855191103
 40
2.941366645531224
 40
2.996357760973121
 40
3.061992318140682
 40
3.116983433626872
 40
3.14004422399755
 40
3.411273122936528
 40
3.732441619741248
 40
3.761068217532946
 40
3.837787499630508
 40
3.948858699126147
 40
4.080541049104523
 40
4.219093782625906
 40
4.350776132722457
 40
4.461847332405792
 40
4.538566614678523
 40
4.567193212544771
 40
4.594907573999029
 40
4.666381453557596
 40
4.764111044011207
 40
4.87059253812601
 40
4.968322128642461
 40
5.039796008287174
 40
5.067510369784605
 40
5.094263603185818
 40
5.153120716668456
 40
5.211977830150904
 40
5.238731063551908
 40
5.272290535139176
 40
5.36338052944498
 40
5.497618415781686
 40
5.660621563453899
 40
5.8380073417496
 40
6.01539311991098
 40
6.178396267038577
 40
6.312634151842557
 40
6.403724143059547
 40
6.437283612672642
 40
6.464036846261259
 40
6.522893960004875
 40
6.581751071484142
 40
6.608504301591088
 40
6.637253941281235
 40
6.711397748903115
 40
6.812778057283699
 40
6.923237199249476
 40
7.024617507624091
 40
7.098761315207772
 40
7.127510946007723
 40
7.127510946007723
 40
7.127510946007723
 40
7.127510946007723
 10
188.4418622390565
 20
14.95849128473264
 10
188.4418622819707
 20
14.9470731340872
 10
188.441862448113
 20
14.90555257842629
 10
188.4418593081787
 20
14.82146922003772
 10
188.4418788279801
 20
14.70004497322328
 10
188.4417912187738
 20
14.55980494047449
 10
188.4421116235231
 20
14.42006556794576
 10
188.4411605909741
 20
14.29745038894929
 10
188.4431978595968
 20
14.21587074438044
 10
188.4349433178746
 20
14.06271267077699
 10
188.7430797940902
 20
14.2256023605472
 10
189.0350645173737
 20
14.39482938688003
 10
189.0408354448707
 20
14.25973235781911
 10
189.0455471719891
 20
14.21617221160444
 10
189.048253541192
 20
14.17211249350546
 10
189.0672545672957
 20
14.02272590363129
 10
188.6583942247304
 20
14.08681172241262
 10
188.3793710348831
 20
13.97296341411017
 10
188.1018081587168
 20
13.87364095811137
 10
187.8099837184399
 20
13.91630687596363
 10
187.7869144678658
 20
13.8132167974454
 10
187.7537474383333
 20
13.78691091244471
 10
187.7480653962739
 20
13.83455309036305
 10
187.7284214559045
 20
13.8718033611507
 10
187.7095089485623
 20
13.93007387847563
 10
187.6942849867706
 20
13.97385201007804
 10
187.6477246372938
 20
14.08759421046313
 10
187.989089731245
 20
14.05576301120047
 10
188.2679649367388
 20
14.02161435106477
 10
188.2617753034908
 20
14.16913976479652
 10
188.2630935452774
 20
14.24013150908832
 10
188.2624831689949
 20
14.34719767958661
 10
188.2625871570726
 20
14.47398529785998
 10
188.2629987964057
 20
14.6084924349605
 10
188.2613907841969
 20
14.73395549951184
 10
188.2659902567927
 20
14.84505246719117
 10
188.2564186502211
 20
14.90761886800689
 10
188.2704001783692
 20
14.96595388295
 10
188.2147384386706
 20
14.95289710582238
 10
188.1575655197821
 20
14.96136307749498
 10
188.0616048925648
 20
14.95729976080636
 10
187.9633767522822
 20
14.95970889852474
 10
187.8672582457561
 20
14.95551600613388
 10
187.8104648525811
 20
14.96429346441162
 10
187.7550356873385
 20
14.95094936850122
 10
187.7670679427918
 20
15.00036910959257
 10
187.7592003173938
 20
15.04393988030396
 10
187.766629556383
 20
15.08830469118525
 10
187.7551930564144
 20
15.13902297763992
 10
187.8232102370134
 20
15.12162460757743
 10
187.8968496879747
 20
15.13417450237189
 10
188.0325064058211
 20
15.12799677011096
 10
188.1884909024526
 20
15.13029203093085
 10
188.3615926358144
 20
15.1294096826253
 10
188.5346942964182
 20
15.13029207142408
 10
188.6906789811218
 20
15.1279966295555
 10
188.8263351889798
 20
15.13417486262431
 10
188.8999756705653
 20
15.12162394218335
 10
188.9679914174724
 20
15.13902373012142
 10
188.9565590885923
 20
15.08830130414555
 10
188.9639539458298
 20
15.04397060811108
 10
188.9562039912271
 20
15.00028307550196
 10
188.9681203741878
 20
14.95063590098477
 10
188.9108170223617
 20
14.96461411338426
 10
188.8520145789773
 20
14.95539755673254
 10
188.75252936332
 20
14.95952268164929
 10
188.6494280098349
 20
14.95822760025887
 10
188.5537846354575
 20
14.95854077077641
 10
188.4857467971616
 20
14.95848776697144
 10
188.4514462213444
 20
14.95849051871656
 10
188.4418622390565
 20
14.95849128473264
 97
        1
330
AC
 75
     1
 76
     2
 52
45.0
 41
0.1
 77
     0
 78
     1
 53
45.0
 43
0.0
 44
0.0
 45
-0.282842712474619
 46
0.0
 79
     0
 98
        1
 10
0.0
 20
0.0
  0
HATCH
  5
CA
330
48
100
AcDbEntity
  8
1
  6
Continuous
 62
     2
100
AcDbHatch
 10
0.0
 20
0.0
 30
0.0
210
0.0
220
0.0
230
1.0
  2
CUSTOM8
 70
     0
 71
     1
 91
        1
 92
        1
 93
        1
 72
     4
 94
        3
 73
     0
 74
     0
 95
       91
 96
       87
 40
0.0
 40
0.0
 40
0.0
 40
0.0
 40
0.0345987051695434
 40
0.1258134969461085
 40
0.2547723404888703
 40
0.4026032099153841
 40
0.5504340793416704
 40
0.679392922883608
 40
0.770607714657132
 40
0.8052064287780925
 40
1.124852390615282
 40
1.427402236308878
 40
1.70635662745352
 40
1.955541417875194
 40
2.169485938566337
 40
2.344350786664802
 40
2.480568411561932
 40
2.590440557428927
 40
2.649189927151103
 40
2.749320643306289
 40
2.912632739879981
 40
3.147745656000189
 40
3.244827496385124
 40
3.338490056946767
 40
3.583815413207195
 40
3.761423943238563
 40
3.886956104362737
 40
3.985855451886941
 40
4.091766255337854
 40
4.250186473812019
 40
4.422734315084643
 40
4.628285684838723
 40
4.872093227758567
 40
5.152549652145678
 40
5.464967135837655
 40
5.803201477852577
 40
6.160362988814049
 40
6.193449448276132
 40
6.284170385501787
 40
6.419718138764628
 40
6.587285046385906
 40
6.774063446723792
 40
6.967245678113775
 40
7.154024078817789
 40
7.321590987026147
 40
7.457138740890505
 40
7.547859678556241
 40
7.580946138182801
 40
7.608533084714852
 40
7.669224367077819
 40
7.72991564943003
 40
7.757502595950077
 40
7.790278062553559
 40
7.880146277431029
 40
8.014419963180464
 40
8.180411842397993
 40
8.365434637679462
 40
8.556801071622735
 40
8.741823866830847
 40
8.907815745916414
 40
9.04208943150754
 40
9.131957646249665
 40
9.164733112797242
 40
9.41542506314018
 40
9.66798618095865
 40
9.694169807462817
 40
9.756607686047776
 40
9.831130315322582
 40
9.893568193900046
 40
9.919751820398863
 40
9.950967964690676
 40
9.99642163121084
 40
10.22087981037473
 40
10.44341866197562
 40
10.47847970788875
 40
10.57091337438775
 40
10.70159545461255
 40
10.85140174170383
 40
11.00120802880506
 40
11.13189010907412
 40
11.22432377583037
 40
11.25938480938986
 40
11.28697175596174
 40
11.34766303835947
 40
11.40835432042097
 40
11.43594125892131
 40
11.43594125892131
 40
11.43594125892131
 40
11.43594125892131
 10
190.081811433329
 20
15.55242795125078
 10
190.0702785844942
 20
15.55242790287917
 10
190.0283409444999
 20
15.55242773704165
 10
189.9434129719027
 20
15.5524312580091
 10
189.8207688553129
 20
15.55240926435879
 10
189.6791206916994
 20
15.55250801177055
 10
189.537975369849
 20
15.55214686232421
 10
189.4141351317905
 20
15.5532188360909
 10
189.3317217825382
 20
15.55092249091269
 10
189.1727791229694
 20
15.56048569373421
 10
189.3503402353376
 20
15.1978539431137
 10
189.3379739205453
 20
14.95243127723114
 10
189.4064519473865
 20
14.66862501324835
 10
189.469302432097
 20
14.43250999939035
 10
189.5452253431729
 20
14.23326740396129
 10
189.6303189577016
 20
14.07745347451376
 10
189.7244607592936
 20
13.97657857781393
 10
189.8282648207727
 20
13.92465852638967
 10
189.9125872030774
 20
13.97606484379615
 10
189.9351322179452
 20
14.09144544037518
 10
189.9745730975369
 20
14.21885149702381
 10
189.9202919734942
 20
14.53622328086755
 10
190.0451218072473
 20
14.38982180140905
 10
190.2019291513604
 20
14.35795300331174
 10
190.0947720007059
 20
14.12421357767627
 10
190.0808711209868
 20
13.95972776583656
 10
190.0234709467226
 20
13.83130869122481
 10
189.9335020145008
 20
13.76018802352827
 10
189.8095274657877
 20
13.74432324142253
 10
189.663427319686
 20
13.77993797554172
 10
189.5243894320284
 20
13.90000570500278
 10
189.4102003962145
 20
14.07435682550322
 10
189.3146141301486
 20
14.29946603111241
 10
189.2318652572627
 20
14.56388246006443
 10
189.1807179256413
 20
14.88187933098545
 10
189.0770189207338
 20
15.15543728488912
 10
189.2042841208521
 20
15.56005818612869
 10
189.0357890623019
 20
15.55112367849679
 10
188.9511995787077
 20
15.55315961418364
 10
188.8189876387628
 20
15.55213937388407
 10
188.6560505094104
 20
15.5525323031843
 10
188.4733759170534
 20
15.55235696313369
 10
188.2847057373383
 20
15.55260105307469
 10
188.101446902019
 20
15.55185657906238
 10
187.9404746832718
 20
15.55416360522426
 10
187.8029808335277
 20
15.54799804883663
 10
187.7289590372311
 20
15.56032838458212
 10
187.6613215186858
 20
15.54329323723557
 10
187.673237371927
 20
15.59524438447528
 10
187.6655677285694
 20
15.64071424966529
 10
187.6732592225116
 20
15.68614453703704
 10
187.6613141797762
 20
15.73802395984569
 10
187.7283588305868
 20
15.72119143490262
 10
187.8017375665677
 20
15.73335409092669
 10
187.9379128305272
 20
15.72727231074956
 10
188.0973811801513
 20
15.72954834315056
 10
188.2789173085836
 20
15.7288123399896
 10
188.465803486218
 20
15.72905954196131
 10
188.6468012316836
 20
15.72886400799251
 10
188.8080802578879
 20
15.72932234714837
 10
188.9393882124887
 20
15.72812673751203
 10
189.0225051322597
 20
15.73051347319741
 10
189.1556236547815
 20
15.72230605725461
 10
189.0645893502659
 20
15.97752868952654
 10
188.9789633074419
 20
16.24164358328246
 10
189.0990589003455
 20
16.22904442969165
 10
189.1514264948544
 20
16.22694235763075
 10
189.2214497569715
 20
16.22535399889657
 10
189.2671922337817
 20
16.21602567538112
 10
189.3220812646933
 20
16.22545966915427
 10
189.2963574785681
 20
16.17733028655169
 10
189.1825397571452
 20
16.18266829744174
 10
189.3159346621137
 20
15.95449174576774
 10
189.1943658735471
 20
15.7215685659592
 10
189.3223188769413
 20
15.73087258884438
 10
189.4049048406461
 20
15.72801001754678
 10
189.5307214850824
 20
15.729234374123
 10
189.6741469838059
 20
15.72932431888963
 10
189.8157420951728
 20
15.72746163183851
 10
189.9459127249969
 20
15.73333075937161
 10
190.0193452286191
 20
15.72070340823201
 10
190.0891112922097
 20
15.73877563110411
 10
190.0775772605397
 20
15.68612850546325
 10
190.0833184346683
 20
15.64221317686548
 10
190.081661577091
 20
15.59089982676548
 10
190.0817757561671
 20
15.56158792021636
 10
190.081811433329
 20
15.55242795125078
 97
        1
330
AD
 75
     1
 76
     2
 52
45.0
 41
0.1
 77
     0
 78
     1
 53
45.0
 43
0.0
 44
0.0
 45
-0.282842712474619
 46
0.0
 79
     0
 98
        1
 10
0.0
 20
0.0
  0
HATCH
  5
CB
330
48
100
AcDbEntity
  8
1
  6
Continuous
 62
     2
100
AcDbHatch
 10
0.0
 20
0.0
 30
0.0
210
0.0
220
0.0
230
1.0
  2
CUSTOM9
 70
     0
 71
     1
 91
        1
 92
        1
 93
        1
 72
     4
 94
        3
 73
     0
 74
     0
 95
      118
 96
      114
 40
0.0
 40
0.0
 40
0.0
 40
0.0
 40
0.1054708162973382
 40
0.2466098270051839
 40
0.3965912874591326
 40
0.5285525069754068
 40
0.6156245055642598
 40
0.6431434105797911
 40
0.7036850037986784
 40
0.764226598450535
 40
0.7917455052355822
 40
0.9287404319990519
 40
1.106572819088102
 40
1.287544879681124
 40
1.317578308030641
 40
1.399928030857275
 40
1.52296820480005
 40
1.675072986590671
 40
1.844616533180748
 40
2.019973001638809
 40
2.189516548880122
 40
2.341621331585456
 40
2.464661506320593
 40
2.547011229647156
 40
2.57704465816812
 40
2.603797890893191
 40
2.662655002908963
 40
2.721512114949804
 40
2.748265347702983
 40
2.77421530734506
 40
2.84595931340739
 40
2.954338556588589
 40
3.090194227585766
 40
3.244367517100729
 40
3.40769961584449
 40
3.57103171453964
 40
3.725205003920316
 40
3.861060674729816
 40
3.969439917716509
 40
4.04118392362918
 40
4.067133883213174
 40
4.311886746012323
 40
4.547897258335658
 40
4.764747083044112
 40
4.952749679951899
 40
5.045772974196037
 40
5.137862019645106
 40
5.330543169793126
 40
5.553448265244106
 40
5.795083855888287
 40
6.043293412177371
 40
6.285761695541313
 40
6.313902908752826
 40
6.384255941793415
 40
6.475714884767004
 40
6.567173827759038
 40
6.637526860839816
 40
6.665668074074179
 40
6.692018920328151
 40
6.749990782071216
 40
6.807962643790584
 40
6.834313490018055
 40
6.856393084245306
 40
6.913335195649929
 40
6.991194817302564
 40
7.076026942283769
 40
7.153886563725231
 40
7.210828674844756
 40
7.232908268931092
 40
7.258199334923613
 40
7.324875781592262
 40
7.419142481924919
 40
7.527204308841859
 40
7.635266135230437
 40
7.729532834168423
 40
7.796209279292746
 40
7.821500344594692
 40
7.844652988850819
 40
7.899863140541626
 40
7.965759128053849
 40
8.020969279771219
 40
8.044121924046685
 40
8.069356610160805
 40
8.109134395441629
 40
8.13223810019134
 40
8.193147867786706
 40
8.279261678876878
 40
8.377977512674093
 40
8.476693347146876
 40
8.56280716041193
 40
8.623716930826717
 40
8.646820636853668
 40
8.671988793774482
 40
8.734909185828421
 40
8.816705695189135
 40
8.898502204815735
 40
8.961422597378224
 40
8.986590754551337
 40
9.01294160073349
 40
9.070913462380572
 40
9.128885324082061
 40
9.155236170325383
 40
9.180404327929425
 40
9.243324721948527
 40
9.32512123421232
 40
9.406917746638003
 40
9.469838141978487
 40
9.495006288271261
 40
9.517811184379404
 40
9.572192090487409
 40
9.637098333281644
 40
9.69147923951585
 40
9.714284125643891
 40
9.714284125643891
 40
9.714284125643891
 40
9.714284125643891
 10
185.2874469028653
 20
15.26889163187718
 10
185.3090990569038
 20
15.2411186924281
 10
185.3597257109474
 20
15.17618054561236
 10
185.4349383202591
 20
15.06891060312896
 10
185.5248482274346
 20
14.95377438266626
 10
185.5709169676674
 20
14.85357045748317
 10
185.6655825294656
 20
14.78434006814944
 10
185.6204439320413
 20
14.73771639678273
 10
185.594704778579
 20
14.69660308866039
 10
185.5645196708012
 20
14.66065971727939
 10
185.5193684730562
 20
14.58579782596095
 10
185.4710504458563
 20
14.80782524253605
 10
185.3968539713074
 20
14.84510677337712
 10
185.2836047324606
 20
15.11610202130599
 10
185.2885133578169
 20
15.00095328446228
 10
185.2868486556306
 20
14.92836675781626
 10
185.2876830076713
 20
14.80625588483985
 10
185.2873609540265
 20
14.6591380081046
 10
185.2875076912455
 20
14.49307063956556
 10
185.2872950092722
 20
14.32187554608601
 10
185.2879497252035
 20
14.15552828635498
 10
185.2859192461138
 20
14.00935173055693
 10
185.2913460399931
 20
13.88471047474611
 10
185.2804930868708
 20
13.81718656540626
 10
185.2956739155555
 20
13.75549061417022
 10
185.2457895108133
 20
13.76727503897003
 10
185.2017150342521
 20
13.75943822779969
 10
185.1582371630199
 20
13.76760441372703
 10
185.1092346786487
 20
13.75538056738468
 10
185.1218731234823
 20
13.80960667249313
 10
185.1130182968449
 20
13.86936918907558
 10
185.1175058770312
 20
13.9792202904437
 10
185.115796013599
 20
14.11029975405679
 10
185.1163550915985
 20
14.26198011444328
 10
185.1161928768692
 20
14.42211074929953
 10
185.1162269924674
 20
14.58236865674566
 10
185.1162514960125
 20
14.73370247520439
 10
185.1161453543223
 20
14.86582156338601
 10
185.116429914193
 20
14.97294802533193
 10
185.1158675547566
 20
15.03808619579473
 10
185.1180765083689
 20
15.16618957858675
 10
185.0319435998602
 20
14.79097610391575
 10
184.9555140818501
 20
14.63918193123393
 10
184.8660040767833
 20
14.47766206446307
 10
184.7640413217328
 20
14.20471848820173
 10
184.7187976491039
 20
14.36717346596509
 10
184.6102355941671
 20
14.45605432058121
 10
184.7995791751752
 20
14.6054979496141
 10
184.85653405457
 20
14.79749136974927
 10
184.9717520993352
 20
15.02899622906757
 10
184.9940151630134
 20
15.21797259759063
 10
185.1771905152139
 20
15.49454089325931
 10
185.0538033597553
 20
15.48698978832095
 10
184.9925684166834
 20
15.48856772366119
 10
184.9081999617065
 20
15.48882592573674
 10
184.8204235085966
 20
15.48544845751206
 10
184.7656768696123
 20
15.49394814982021
 10
184.7104703026025
 20
15.48048561049788
 10
184.7222823035537
 20
15.52931442126764
 10
184.7142496151795
 20
15.57269004896709
 10
184.7228186104679
 20
15.61509438309573
 10
184.7102943409158
 20
15.66267796552117
 10
184.7555101538735
 20
15.65267212995109
 10
184.8014815562724
 20
15.65894105174061
 10
184.877722204771
 20
15.65593561405872
 10
184.9561296131993
 20
15.65770448278541
 10
185.0323992648933
 20
15.65464793981661
 10
185.0783009459473
 20
15.66103971376176
 10
185.1231733965399
 20
15.65093822978897
 10
185.1105552275632
 20
15.70157201581898
 10
185.1191936582705
 20
15.7550126188207
 10
185.1152361595441
 20
15.8486325513168
 10
185.1162325068334
 20
15.95112606688924
 10
185.1171927413072
 20
16.05353270248163
 10
185.1133211458005
 20
16.14735929609321
 10
185.1217789814363
 20
16.20036542840353
 10
185.1093075932834
 20
16.25211435651189
 10
185.1542106389849
 20
16.23850747226757
 10
185.1955083836772
 20
16.24100480320585
 10
185.259534428105
 20
16.23648060574486
 10
185.2986111148787
 20
16.2278100304331
 10
185.3476543498743
 20
16.23515102070686
 10
185.3225080030591
 20
16.19602896051758
 10
185.2815901333723
 20
16.2056384245581
 10
185.2910109616603
 20
16.15540148169778
 10
185.2855647318746
 20
16.1038594563949
 10
185.2881699601804
 20
16.01959707584521
 10
185.2870102202153
 20
15.92559135583408
 10
185.2883591064231
 20
15.83196865395526
 10
185.2849970101508
 20
15.74679517552222
 10
185.2920959917769
 20
15.69716856072044
 10
185.2812569154545
 20
15.64993694969989
 10
185.3304010225246
 20
15.66201674936852
 10
185.3794877630147
 20
15.65447393363011
 10
185.4573714280642
 20
15.65686070361433
 10
185.5350365172896
 20
15.65899381905415
 10
185.5845393931356
 20
15.65193391922454
 10
185.634459475064
 20
15.66360151936214
 10
185.6223198516882
 20
15.61540235371393
 10
185.6305838229144
 20
15.57249219801237
 10
185.6223198650784
 20
15.52958201851385
 10
185.6344594549855
 20
15.48138288754865
 10
185.5845395158747
 20
15.49305034471512
 10
185.5350350651204
 20
15.48599202435047
 10
185.4573784382972
 20
15.48811665228604
 10
185.379464386576
 20
15.49053389365762
 10
185.3304500352716
 20
15.48291848194486
 10
185.2813246108943
 20
15.49507952557594
 10
185.2915559988571
 20
15.45073013424158
 10
185.2856677678053
 20
15.40925436202912
 10
185.2878788305568
 20
15.34915394315302
 10
185.2874109346146
 20
15.30225782762889
 10
185.2874386992913
 20
15.27650146418195
 10
185.2874469028653
 20
15.26889163187718
 97
        1
330
AE
 75
     1
 76
     2
 52
45.0
 41
0.1
 77
     0
 78
     1
 53
45.0
 43
0.0
 44
0.0
 45
-0.282842712474619
 46
0.0
 79
     0
 98
        1
 10
0.0
 20
0.0
  0
HATCH
  5
CC
330
48
100
AcDbEntity
  8
1
  6
Continuous
 62
     2
100
AcDbHatch
 10
0.0
 20
0.0
 30
0.0
210
0.0
220
0.0
230
1.0
  2
CUSTOM10
 70
     0
 71
     1
 91
        1
 92
        1
 93
        1
 72
     4
 94
        3
 73
     0
 74
     0
 95
       47
 96
       43
 40
0.0
 40
0.0
 40
0.0
 40
0.0
 40
0.2207912809957213
 40
0.4459404186303092
 40
0.4902387190459588
 40
0.5327473892721127
 40
0.5742260451226153
 40
0.6155432630560879
 40
0.6568164066316365
 40
0.6982511618781576
 40
0.7407663929317235
 40
0.785136674317642
 40
1.010288833836443
 40
1.231080507002296
 40
1.451765243652517
 40
1.676638205891809
 40
1.720461045359778
 40
1.830018144043643
 40
1.972442372353274
 40
2.114866600677643
 40
2.224423699395268
 40
2.268246538883509
 40
2.493628801207341
 40
2.715602830286739
 40
2.934211330706491
 40
3.1495023698555
 40
3.231387784851146
 40
3.318231873854295
 40
3.405143198198283
 40
3.48697030172072
 40
3.702258172494179
 40
3.920866283534407
 40
4.142839325932195
 40
4.368221903865658
 40
4.412044743360138
 40
4.521601842096153
 40
4.664026070452634
 40
4.806450298809342
 40
4.916007397547034
 40
4.959830237043358
 40
5.184703515847396
 40
5.405387250767764
 40
5.405387250767764
 40
5.405387250767764
 40
5.405387250767764
 10
182.6507427258646
 20
15.73406440953872
 10
182.6568139420004
 20
15.79758482501211
 10
182.6690762107244
 20
15.92587938689627
 10
182.5604706879412
 20
16.20166220174077
 10
182.6761985896603
 20
16.17188133432055
 10
182.7171842509015
 20
16.16765556262818
 10
182.7591205797518
 20
16.16310446389608
 10
182.8004196625711
 20
16.16201982929484
 10
182.8417032115556
 20
16.16310338195227
 10
182.8836148270648
 20
16.16766112711343
 10
182.924598354902
 20
16.1718743020973
 10
183.040492284349
 20
16.20177611317534
 10
182.9295652727457
 20
15.92339806609892
 10
182.9574856365266
 20
15.74283140824953
 10
182.9404267346971
 20
15.50961042346472
 10
182.9414637282102
 20
15.34906622543146
 10
182.9414099399405
 20
15.22284817558722
 10
182.9414277372481
 20
15.12428963336241
 10
182.941418858108
 20
14.99280702442963
 10
182.9414263928033
 20
14.8613284496865
 10
182.9414129405128
 20
14.7627622269409
 10
182.9414531717492
 20
14.63639735624152
 10
182.9406746403818
 20
14.4748206882287
 10
182.9565958319267
 20
14.24361821892914
 10
182.9333468885407
 20
14.05874351972001
 10
183.0360183444367
 20
13.78935602770054
 10
182.8820238362836
 20
13.82660112685817
 10
182.8004129802832
 20
13.82137994680534
 10
182.7188192292582
 20
13.82660620378349
 10
182.5648513666842
 20
13.78937069885385
 10
182.6674183421918
 20
14.0587512986288
 10
182.6442045316089
 20
14.24361585325414
 10
182.6600444655139
 20
14.47482218565639
 10
182.6593296313429
 20
14.63639712308503
 10
182.6593664569907
 20
14.7627623121052
 10
182.6593549000271
 20
14.86132756635981
 10
182.6593575019214
 20
14.9928112741722
 10
182.659364853178
 20
15.124275480312
 10
182.6593442541352
 20
15.22287786275326
 10
182.6594082192029
 20
15.34896149354427
 10
182.658173394759
 20
15.51210091383771
 10
182.6532040396746
 20
15.6605418377755
 10
182.6507427258646
 20
15.73406440953872
 97
        1
330
AF
 75
     1
 76
     2
 52
45.0
 41
0.1
 77
     0
 78
     1
 53
45.0
 43
0.0
 44
0.0
 45
-0.282842712474619
 46
0.0
 79
     0
 98
        1
 10
0.0
 20
0.0
  0
HATCH
  5
CD
330
48
100
AcDbEntity
  8
1
  6
Continuous
 62
     2
100
AcDbHatch
 10
0.0
 20
0.0
 30
0.0
210
0.0
220
0.0
230
1.0
  2
CUSTOM11
 70
     0
 71
     1
 91
        1
 92
        1
 93
        1
 72
     4
 94
        3
 73
     0
 74
     0
 95
      110
 96
      106
 40
0.0
 40
0.0
 40
0.0
 40
0.0
 40
0.2203406257277767
 40
0.4407808782838055
 40
0.5952494494614464
 40
0.7488431659393036
 40
0.9023581831308453
 40
1.056801968670401
 40
1.210736449099873
 40
1.363041386539694
 40
1.515315729683037
 40
1.669377239147988
 40
1.721611652756458
 40
1.773199502942843
 40
1.824933793209893
 40
1.877110426487872
 40
1.982682281206607
 40
2.078781667087445
 40
2.172809640822109
 40
2.271937807378734
 40
2.378349933379213
 40
2.494131557736288
 40
2.626681683943478
 40
2.783145050795877
 40
2.890701232940747
 40
2.993130312454639
 40
3.099869730691617
 40
3.22023781669111
 40
3.352695482737404
 40
3.481732806389651
 40
3.593499473690183
 40
3.674323013331705
 40
3.817951711952683
 40
3.946167120793766
 40
4.061405053453309
 40
4.166480796003092
 40
4.262478775059129
 40
4.350736673550887
 40
4.433071991253829
 40
4.511216293814572
 40
4.564262454117905
 40
4.618474415571531
 40
4.670128488754116
 40
4.72229687912633
 40
4.819540945314255
 40
4.931194984128055
 40
5.049996040257725
 40
5.168643755415356
 40
5.283970811762568
 40
5.392260784910394
 40
5.486512254876412
 40
5.559178233949868
 40
5.591425852853534
 40
5.626215969637907
 40
5.667155838674463
 40
5.717449290214282
 40
5.738402360944893
 40
5.784499116553856
 40
5.830595872164824
 40
5.851548942897678
 40
5.873019280661793
 40
5.924217778408335
 40
5.985325662817709
 40
6.036524160567722
 40
6.05799449833425
 40
6.236847789607508
 40
6.381409928945684
 40
6.493190424178717
 40
6.574067534230523
 40
6.691018086205561
 40
6.814881554220336
 40
6.944307823240402
 40
7.071266716066139
 40
7.1934886044619
 40
7.309042773128098
 40
7.41400720317078
 40
7.505140441886565
 40
7.531150360599743
 40
7.559221645322327
 40
7.587202218920988
 40
7.612569159499187
 40
7.662550809481078
 40
7.70287887576423
 40
7.857328205231073
 40
8.01079956808886
 40
8.165256399657753
 40
8.322232698714064
 40
8.479564855016694
 40
8.635216230290954
 40
8.790882550925815
 40
8.948305154947352
 40
9.168271839033052
 40
9.38735898098731
 40
9.608047961033567
 40
9.832914234792764
 40
9.858338694963098
 40
9.925366817230106
 40
10.02013071422769
 40
10.12876249859008
 40
10.23739428295258
 40
10.332158179952
 40
10.39918630222403
 40
10.42461076239792
 40
10.64992019336952
 40
10.87188524531197
 40
10.87188524531197
 40
10.87188524531197
 40
10.87188524531197
 10
179.9057788376618
 20
15.7392326039819
 10
179.9092864933542
 20
15.80616462073804
 10
179.9163033987663
 20
15.94005891915859
 10
179.8198027599074
 20
16.22548554971468
 10
180.0510134726109
 20
16.16284386190283
 10
180.1919290057156
 20
16.17001554055992
 10
180.3490417757589
 20
16.16235883078244
 10
180.5025913427287
 20
16.1625275228304
 10
180.6545104935082
 20
16.16182040535432
 10
180.8142214813231
 20
16.1721015835164
 10
180.9408972601119
 20
16.15496511080749
 10
181.1370821122078
 20
16.22727260107148
 10
181.103439527908
 20
16.12640699080116
 10
181.1052011317184
 20
16.0761925394767
 10
181.102734207346
 20
16.02712335586466
 10
181.134707696601
 20
15.94063490846997
 10
181.0010399903256
 20
15.98997438608337
 10
180.9172208688057
 20
15.98430634314169
 10
180.8173861139324
 20
15.99465516706298
 10
180.7186576720146
 20
16.00086450411087
 10
180.6121532771111
 20
16.00697763816777
 10
180.491051169806
 20
16.01588883484585
 10
180.3703381502454
 20
16.00521605912382
 10
180.1812553843438
 20
16.06468503080366
 10
180.2129028505311
 20
15.90558320077539
 10
180.1995563316834
 20
15.80839128339904
 10
180.197495842645
 20
15.69634065110102
 10
180.1958188044671
 20
15.57699685629351
 10
180.1973336794233
 20
15.4503259215511
 10
180.1956582478671
 20
15.32301588016117
 10
180.2058844271658
 20
15.22451566404463
 10
180.1779006596582
 20
15.08388702625628
 10
180.3508029999306
 20
15.13989551134095
 10
180.4645020202772
 20
15.12719951478499
 10
180.584015167224
 20
15.13448377051255
 10
180.6888491425072
 20
15.13878017056755
 10
180.7843084898612
 20
15.14330568258975
 10
180.8763823507032
 20
15.151492011462
 10
180.9476551782438
 20
15.14643850638111
 10
181.0544931705687
 20
15.18536425031676
 10
181.0226603598035
 20
15.1051712200588
 10
181.026616450393
 20
15.05562936846033
 10
181.0234502392012
 20
15.00557478039816
 10
181.0550791490587
 20
14.92128847612022
 10
180.9210133677692
 20
14.97425365495155
 10
180.8292322793201
 20
14.96540080890443
 10
180.7079729189603
 20
14.97570049965154
 10
180.5914113119771
 20
14.97748911767502
 10
180.4783375745879
 20
14.97787017109694
 10
180.3679246308471
 20
14.98415449472181
 10
180.289812406784
 20
14.97189133255362
 10
180.1913625833644
 20
15.00453887616128
 10
180.2012355173561
 20
14.94769748054206
 10
180.1973923244404
 20
14.91392130557984
 10
180.1966789884268
 20
14.8711960470941
 10
180.1963369642976
 20
14.83401607262152
 10
180.1963834255345
 20
14.79487237370769
 10
180.1963649429927
 20
14.75716849497685
 10
180.1963703431807
 20
14.71944955232402
 10
180.19636972142
 20
14.6899432474515
 10
180.1963698151545
 20
14.65873577699301
 10
180.196370428792
 20
14.61414424908084
 10
180.1963671499337
 20
14.55963956508852
 10
180.1963759623481
 20
14.51505540201448
 10
180.1963359653417
 20
14.43117808585741
 10
180.1976024270255
 20
14.31737520677678
 10
180.1950274117844
 20
14.16830395933709
 10
180.206500938172
 20
14.06597203813905
 10
180.1823506222264
 20
13.93338903885835
 10
180.3332993946476
 20
13.97895732272019
 10
180.4428436671555
 20
13.96427012162348
 10
180.573397047392
 20
13.96920435125064
 10
180.6990312209514
 20
13.9725770532336
 10
180.8188730625602
 20
13.97711497498774
 10
180.9391362611426
 20
13.99048536182005
 10
181.0222761663516
 20
13.98068712782596
 10
181.1456080421076
 20
14.04126214623317
 10
181.1244269203956
 20
13.98532460134022
 10
181.1235950270117
 20
13.95939249372346
 10
181.1218963707558
 20
13.93197256190939
 10
181.1217974888829
 20
13.89738195206385
 10
181.1203659301329
 20
13.86050408220767
 10
181.1532804192192
 20
13.76846841021807
 10
180.9551306988106
 20
13.84132015974832
 10
180.830054829489
 20
13.81825726508606
 10
180.6673071295156
 20
13.82454021985786
 10
180.5129366450001
 20
13.82260943909925
 10
180.3566670436944
 20
13.82393762599267
 10
180.1970544465282
 20
13.82059872487862
 10
180.0540326342237
 20
13.83265795728239
 10
179.8197144881629
 20
13.76952001976918
 10
179.9173810751197
 20
14.05620527466317
 10
179.9006868780059
 20
14.24988308142661
 10
179.9146296709685
 20
14.47848242880293
 10
179.9142987846634
 20
14.6338459395505
 10
179.9143078119264
 20
14.73966336444125
 10
179.9143055876316
 20
14.80205784124214
 10
179.914306555189
 20
14.89220425248327
 10
179.9143065473262
 20
14.99621167157438
 10
179.9143053861104
 20
15.10022131375296
 10
179.9143090971502
 20
15.19036243688767
 10
179.9143011051052
 20
15.25276803097215
 10
179.9143334275018
 20
15.35868835961119
 10
179.913144078832
 20
15.5162671654474
 10
179.9082216489256
 20
15.66528219822064
 10
179.9057788376618
 20
15.7392326039819
 97
        1
330
B0
 75
     1
 76
     2
 52
45.0
 41
0.1
 77
     0
 78
     1
 53
45.0
 43
0.0
 44
0.0
 45
-0.282842712474619
 46
0.0
 79
     0
 98
        1
 10
0.0
 20
0.0
  0
HATCH
  5
CE
330
48
100
AcDbEntity
  8
1
  6
Continuous
 62
     2
100
AcDbHatch
 10
0.0
 20
0.0
 30
0.0
210
0.0
220
0.0
230
1.0
  2
CUSTOM12
 70
     0
 71
     1
 91
        1
 92
        1
 93
        1
 72
     4
 94
        3
 73
     0
 74
     0
 95
       95
 96
       91
 40
0.0
 40
0.0
 40
0.0
 40
0.0
 40
0.6550406656910939
 40
1.30808728903194
 40
1.420803739835807
 40
1.566130759770802
 40
1.757067341888474
 40
2.006513545026472
 40
2.087328263121571
 40
2.185328872295651
 40
2.294612454748393
 40
2.408936380534824
 40
2.526802767798577
 40
2.646360524615619
 40
2.762535723971598
 40
2.870057342870173
 40
2.966883448431662
 40
3.050803243518317
 40
3.115818222436626
 40
3.156030057150272
 40
3.213914225080259
 40
3.276689026450574
 40
3.342960320981351
 40
3.404230667150601
 40
3.45382280949341
 40
3.532499827188464
 40
3.634775188507204
 40
3.754909333008198
 40
3.889736761660693
 40
4.035769602175257
 40
4.187256681197652
 40
4.338733685676
 40
4.488478734676167
 40
4.634708317831632
 40
4.771493189921316
 40
4.892686571561257
 40
5.199775528944495
 40
5.460353566929673
 40
5.667603142345559
 40
5.814722905404531
 40
5.828990806219857
 40
5.855488336304469
 40
5.869756237118772
 40
6.189796507762811
 40
6.531890469873017
 40
6.883053637016986
 40
7.230512024911365
 40
7.566966656764573
 40
7.8852035597073
 40
8.172887439719121
 40
8.418011594062715
 40
8.443926721190637
 40
8.510760470613125
 40
8.602145393795634
 40
8.701714041647076
 40
8.793098965075306
 40
8.859932715057878
 40
8.885847842603528
 40
9.242301256612743
 40
9.589275455016697
 40
9.9218085431641
 40
10.23479624298461
 40
10.29968150889177
 40
10.35323493887751
 40
10.40154625355142
 40
10.46482922477828
 40
10.55973900668409
 40
10.69239545985622
 40
10.84920353475676
 40
11.01626328594785
 40
11.18672024367448
 40
11.35372582577215
 40
11.50257442292431
 40
11.61866495023295
 40
11.71329869152878
 40
11.82511050573912
 40
11.9446488084572
 40
12.06929242642511
 40
12.1970729043518
 40
12.32562632860533
 40
12.45034565331283
 40
12.56646595170332
 40
12.6709900741464
 40
12.76077625936788
 40
12.82703233506699
 40
12.87429132785998
 40
12.89831990323337
 40
12.92234847860026
 40
13.53984767410328
 40
14.18294284359377
 40
14.18294284359377
 40
14.18294284359377
 40
14.18294284359377
 10
177.3067935648021
 20
14.70898038201724
 10
177.1752019758551
 20
14.82265058603233
 10
176.912419380273
 20
15.04964496316164
 10
176.3997393441019
 20
15.89214462956289
 10
176.4106654595363
 20
15.5342337757702
 10
176.4041226527989
 20
15.39267392272134
 10
176.4028026631773
 20
15.19421305299281
 10
176.4018117602539
 20
15.02150296045982
 10
176.4024101751975
 20
14.87865373257579
 10
176.4038994301882
 20
14.78265005413357
 10
176.4055683588473
 20
14.6754550326314
 10
176.4071934954615
 20
14.56164211517581
 10
176.4092429501687
 20
14.44441572604589
 10
176.4123165501926
 20
14.3265641123297
 10
176.4156339697044
 20
14.2122808732062
 10
176.4193605340281
 20
14.10521401867277
 10
176.4217338161424
 20
14.01007408766921
 10
176.4278718888357
 20
13.92558557205694
 10
176.4239784495947
 20
13.8692308729814
 10
176.4455230443078
 20
13.79825022472352
 10
176.3680940058618
 20
13.82902677604481
 10
176.3116353240191
 20
13.82011242517614
 10
176.2540495896808
 20
13.82896218398274
 10
176.1690163478474
 20
13.79738225225944
 10
176.2009714146382
 20
13.88095155992189
 10
176.199070528254
 20
13.94882608968308
 10
176.21079600473
 20
14.05233256764418
 10
176.2164241053
 20
14.17002125616693
 10
176.223790217894
 20
14.30388609164423
 10
176.2320759701611
 20
14.44764152872631
 10
176.2398851897427
 20
14.59714022843443
 10
176.2457571222658
 20
14.74792549402079
 10
176.2503667817969
 20
14.89699943878437
 10
176.2542632117544
 20
15.04122913163022
 10
176.2570715126564
 20
15.17583905213017
 10
176.2576698755023
 20
15.36469614347354
 10
176.261602386715
 20
15.58975494313153
 10
176.24421753785
 20
15.86367091125707
 10
176.2850417342583
 20
16.02787112098596
 10
176.1995153256002
 20
16.22749661465097
 10
176.2660558907689
 20
16.22385458403977
 10
176.2838724273231
 20
16.22413447160853
 10
176.4056801797502
 20
16.22632927398613
 10
176.5080770335463
 20
15.94675118721515
 10
176.7580021509357
 20
15.74563008536003
 10
176.9870035331111
 20
15.47792614987922
 10
177.2245151213108
 20
15.22646413862365
 10
177.4486090740772
 20
14.98969974061369
 10
177.6750716283008
 20
14.73218692583074
 10
177.8325687886513
 20
14.61649335056921
 10
178.0472129612675
 20
14.27997152538792
 10
178.0422645974618
 20
14.40464754091603
 10
178.0433931602546
 20
14.46327691935737
 10
178.0428877841516
 20
14.55043662371977
 10
178.0430475158113
 20
14.64416143182872
 10
178.0430054891318
 20
14.73018971297035
 10
178.0430202040373
 20
14.79153891945496
 10
178.0429706255983
 20
14.94135231520991
 10
178.0458811522812
 20
15.17989612510106
 10
178.0259521041162
 20
15.544865098687
 10
178.0750433936248
 20
15.80799631993414
 10
177.917795150918
 20
16.21928904947751
 10
178.0762112872421
 20
16.1639828255175
 10
178.1311680478628
 20
16.16199686500174
 10
178.182788776674
 20
16.16264778248252
 10
178.2713198965366
 20
16.20369527738247
 10
178.2204898303169
 20
16.05696326622987
 10
178.2313389930283
 20
15.95019971954433
 10
178.2166036994847
 20
15.79085705414111
 10
178.2099976446206
 20
15.62853061652873
 10
178.2014961399915
 20
15.45992521892395
 10
178.1943227202198
 20
15.29814814703541
 10
178.188906321539
 20
15.15422331457933
 10
178.1871713967649
 20
15.03437493466925
 10
178.1875440672319
 20
14.92686101590515
 10
178.1873656126264
 20
14.81820024645586
 10
178.187701086314
 20
14.6995357016553
 10
178.1890040622184
 20
14.57555163512741
 10
178.1908887351575
 20
14.44858294171105
 10
178.1925004454849
 20
14.32153861551032
 10
178.1941403137431
 20
14.19854884492177
 10
178.1962570745752
 20
14.08300931383759
 10
178.1963848422364
 20
13.98090903955836
 10
178.2006514396555
 20
13.89009848838155
 10
178.190844008529
 20
13.83213621208785
 10
178.211847477169
 20
13.76517130132028
 10
178.1725639739897
 20
13.77291153966686
 10
177.9595307117749
 20
13.75755254145193
 10
177.7636297943185
 20
14.31403058094469
 10
177.4611197631544
 20
14.5755603534851
 10
177.3067935648021
 20
14.70898038201724
 97
        1
330
B1
 75
     1
 76
     2
 52
45.0
 41
0.1
 77
     0
 78
     1
 53
45.0
 43
0.0
 44
0.0
 45
-0.282842712474619
 46
0.0
 79
     0
 98
        1
 10
0.0
 20
0.0
  0
HATCH
  5
CF
330
48
100
AcDbEntity
  8
1
  6
Continuous
 62
     2
100
AcDbHatch
 10
0.0
 20
0.0
 30
0.0
210
0.0
220
0.0
230
1.0
  2
CUSTOM13
 70
     0
 71
     1
 91
        2
 92
        1
 93
        1
 72
     4
 94
        3
 73
     0
 74
     0
 95
       57
 96
       53
 40
0.0
 40
0.0
 40
0.0
 40
0.0
 40
0.0471632082809519
 40
0.0914861054631872
 40
0.1357762519702107
 40
0.1826527001610686
 40
0.2295203288573164
 40
0.2737751972221617
 40
0.3181310461544212
 40
0.3652607198398527
 40
0.4571007286314708
 40
0.5671851029165564
 40
0.689462328386865
 40
0.8181758272546342
 40
0.9510087229274564
 40
1.085852229674052
 40
1.218126164475326
 40
1.343545131142399
 40
1.454537202956786
 40
1.567187607530824
 40
1.680710966642499
 40
1.794226869736892
 40
1.900009184247691
 40
2.004085860447971
 40
2.10816267445183
 40
2.214000150155318
 40
2.496038577352196
 40
2.762350745479305
 40
2.997275353279442
 40
3.18511008213776
 40
3.246407890064015
 40
3.312607550212831
 40
3.378877742711648
 40
3.440140399651475
 40
4.100501696006484
 40
4.754913085563522
 40
5.41133169342394
 40
6.077890432568738
 40
6.110575292671017
 40
6.143260152775797
 40
6.367989363395143
 40
6.610525374951569
 40
6.863389136467328
 40
7.11938002554753
 40
7.376036605091087
 40
7.631164770966267
 40
7.876722425456435
 40
8.104953735855954
 40
8.312916685924334
 40
8.497730294941322
 40
8.65101898431387
 40
8.764738853624616
 40
8.764738853624616
 40
8.764738853624616
 40
8.764738853624616
 10
174.7922649500514
 20
13.81626739612926
 10
174.7766616726931
 20
13.81826231079076
 10
174.7463947960304
 20
13.82213201360298
 10
174.7010994202253
 20
13.82341984967267
 10
174.655955312935
 20
13.8230868355405
 10
174.60990171234
 20
13.82314658674224
 10
174.5640496172096
 20
13.8232581365
 10
174.5183711648165
 20
13.8227783345659
 10
174.4750811541608
 20
13.82461109618721
 10
174.4039947951514
 20
13.80049556814658
 10
174.4057477261442
 20
13.92184693977251
 10
174.3586196370569
 20
14.00726239751231
 10
174.3191478251762
 20
14.12486929345136
 10
174.2706635532645
 20
14.24232752540439
 10
174.2201017402521
 20
14.36405935761505
 10
174.1718634610478
 20
14.49075967862469
 10
174.1135232947594
 20
14.59933687784949
 10
174.0980892667262
 20
14.75620657134411
 10
173.9566586330637
 20
14.72373446548321
 10
173.8508397414904
 20
14.7351288868218
 10
173.7358569725222
 20
14.73392591514614
 10
173.6253142252141
 20
14.73506945347407
 10
173.5176583522783
 20
14.73418350037525
 10
173.4121322529243
 20
14.73416602390519
 10
173.3109192682013
 20
14.72714032472415
 10
173.1266804827754
 20
14.75135859859867
 10
173.1157393685411
 20
14.44741691121889
 10
173.0087691634751
 20
14.22353177253395
 10
172.9098148604348
 20
14.03895314292497
 10
172.9225090524008
 20
13.79530204804204
 10
172.8050091716398
 20
13.82508046753197
 10
172.742205586831
 20
13.82258089509603
 10
172.67858720934
 20
13.82344075102804
 10
172.3946014194075
 20
13.78098039941943
 10
173.0251638499382
 20
14.50081952444788
 10
173.108764528907
 20
15.01276539435732
 10
173.4929252789341
 20
15.53353743550041
 10
173.4777208288563
 20
16.23519626253217
 10
173.7239265722698
 20
16.22345633081255
 10
173.8256346157561
 20
16.23225004452772
 10
173.8249752035818
 20
15.9805965073034
 10
173.9428317155829
 20
15.7981802073396
 10
174.0315515260486
 20
15.55563740662871
 10
174.1322292485257
 20
15.32340030530119
 10
174.2311142712244
 20
15.08674644566919
 10
174.3299676990668
 20
14.8546173917009
 10
174.4256166390927
 20
14.63122222788792
 10
174.5159904573271
 20
14.42272549049311
 10
174.598994456819
 20
14.23308448529323
 10
174.6726088582799
 20
14.06663106068098
 10
174.7342815895547
 20
13.92917699626097
 10
174.7749458885604
 20
13.84999239430033
 10
174.7922649500514
 20
13.81626739612926
 97
        1
330
B3
 92
       16
 93
        1
 72
     4
 94
        3
 73
     0
 74
     0
 95
       25
 96
       21
 40
0.0
 40
0.0
 40
0.0
 40
0.0
 40
0.0911479969065106
 40
0.1858117896203813
 40
0.280412839973449
 40
0.3715889190714509
 40
0.4679080494218991
 40
0.564268380923008
 40
0.6605683222644991
 40
0.7569653015810256
 40
0.8561348172522739
 40
1.092615965104295
 40
1.374867658141885
 40
1.611348812011609
 40
1.710518328425259
 40
1.809403163726577
 40
2.045205463294081
 40
2.326646917622146
 40
2.562449217190612
 40
2.661334043833931
 40
2.661334043833931
 40
2.661334043833931
 40
2.661334043833931
 10
173.2683700567199
 20
14.88614538197292
 10
173.2987525917922
 20
14.88598079714554
 10
173.3606895889112
 20
14.88564528689921
 10
173.454135696033
 20
14.88269055451999
 10
173.5475095236357
 20
14.8797775287715
 10
173.6417760753477
 20
14.87894201643416
 10
173.7354964790967
 20
14.87996644658047
 10
173.8352040303205
 20
14.8791697747097
 10
173.9188949546313
 20
14.8892141023522
 10
174.0637996315045
 20
14.86234617674164
 10
173.9396132444801
 20
15.03665530280049
 10
173.8965867286282
 20
15.19651711006092
 10
173.780892214221
 20
15.45518458550217
 10
173.7017565431256
 20
15.59231052861859
 10
173.6431576621816
 20
15.80937033134078
 10
173.5864803939438
 20
15.59266134213429
 10
173.5052809900478
 20
15.45327012438237
 10
173.4063701281488
 20
15.20406969370195
 10
173.3253625094258
 20
15.01925830226073
 10
173.2813683325838
 20
14.91650446856116
 10
173.2683700567199
 20
14.88614538197292
 97
        1
330
B2
 75
     1
 76
     2
 52
45.0
 41
0.1
 77
     0
 78
     1
 53
45.0
 43
0.0
 44
0.0
 45
-0.282842712474619
 46
0.0
 79
     0
 98
        1
 10
0.0
 20
0.0
  0
HATCH
  5
D0
330
48
100
AcDbEntity
  8
1
  6
Continuous
 62
     2
100
AcDbHatch
 10
0.0
 20
0.0
 30
0.0
210
0.0
220
0.0
230
1.0
  2
CUSTOM14
 70
     0
 71
     1
 91
        1
 92
        1
 93
        1
 72
     4
 94
        3
 73
     0
 74
     0
 95
       99
 96
       95
 40
0.0
 40
0.0
 40
0.0
 40
0.0
 40
0.0796417172272862
 40
0.1621768542356609
 40
0.2486489160957518
 40
0.3404969668525232
 40
0.4381912511165264
 40
0.5434463660245563
 40
0.6518115192846463
 40
0.7530190937886564
 40
0.8492196919725332
 40
0.9419290312998602
 40
1.034249663570067
 40
1.129078600620222
 40
1.226697027573249
 40
1.327220425421717
 40
1.470572134938035
 40
1.595489863371232
 40
1.71993412534835
 40
1.850576620127433
 40
1.989059629987278
 40
2.134139054226843
 40
2.280698007207157
 40
2.424529739039426
 40
2.565929576985813
 40
2.708239260773492
 40
2.861717887443607
 40
3.045168540347323
 40
3.183798301138556
 40
3.314813961455419
 40
3.442083470447246
 40
3.569912708372853
 40
3.702177512509227
 40
3.842307559659493
 40
3.992872223245871
 40
4.156750662218316
 40
4.310981861107368
 40
4.445859909322551
 40
4.572393936131544
 40
4.701656719781943
 40
4.768279086008443
 40
4.835960697898378
 40
4.912788918729331
 40
5.006285208481509
 40
5.026909478751642
 40
5.047533749021263
 40
5.101808031471304
 40
5.162325165538629
 40
5.226919745995946
 40
5.294231806596746
 40
5.364544852554915
 40
5.438319055468035
 40
5.517877651324317
 40
5.607647714861572
 40
5.700449642544418
 40
5.788251142364259
 40
5.872714706039841
 40
5.955167292575405
 40
6.037192395190454
 40
6.120669181469167
 40
6.206848616686428
 40
6.296680855416839
 40
6.442558392872657
 40
6.568190371608345
 40
6.692904567360414
 40
6.824220446557263
 40
6.9631218503294
 40
7.107843738851136
 40
7.253431663907323
 40
7.395187468036819
 40
7.533140753237829
 40
7.670550457175298
 40
7.816236511769315
 40
7.987691657359279
 40
8.14227742196931
 40
8.293662615415045
 40
8.442962460879311
 40
8.59159831618535
 40
8.743678992361799
 40
8.90372532369921
 40
9.076307008890614
 40
9.265578604680698
 40
9.459203795360759
 40
9.61761981027374
 40
9.753609671362048
 40
9.874873300004126
 40
9.954520184977817
 40
10.02416413719249
 40
10.09769764405448
 40
10.18909955924977
 40
10.20974586420138
 40
10.23039218263381
 40
10.30057101881265
 40
10.37632012987542
 40
10.37632012987542
 40
10.37632012987542
 40
10.37632012987542
 10
170.1465954835851
 20
14.13795663215994
 10
170.1632217851219
 20
14.11720608845313
 10
170.1970784206577
 20
14.07495111711901
 10
170.2599822541037
 20
14.02029811392076
 10
170.3332500940392
 20
13.97299025121045
 10
170.4175969238637
 20
13.93527231437938
 10
170.5132240615461
 20
13.91040619731951
 10
170.6171853775346
 20
13.90309559345939
 10
170.7224020220405
 20
13.91142322794055
 10
170.8206626371334
 20
13.94149179651528
 10
170.9058986427548
 20
13.98848822971875
 10
170.9779220206104
 20
14.04952991250856
 10
171.0350917709097
 20
14.12412969578585
 10
171.0767868747441
 20
14.21002464660171
 10
171.1026952846292
 20
14.30485850432212
 10
171.1118037332653
 20
14.41854979038366
 10
171.0986864796486
 20
14.54332587770779
 10
171.0325330334414
 20
14.66014719171889
 10
170.9369370919569
 20
14.74512539577379
 10
170.8249681022369
 20
14.81416684459155
 10
170.699365958327
 20
14.87204142045892
 10
170.5656691620857
 20
14.92373723284342
 10
170.4313122818832
 20
14.9789909239718
 10
170.3051983986877
 20
15.0493977064165
 10
170.1926579987536
 20
15.13785540731247
 10
170.0969963064458
 20
15.24981067868473
 10
170.0334157151827
 20
15.39949910101383
 10
170.0200706505016
 20
15.55932794385141
 10
170.0320510987449
 20
15.71048405306845
 10
170.0712298928842
 20
15.83809244591538
 10
170.1354987750911
 20
15.95080874030841
 10
170.223820499974
 20
16.04648609268687
 10
170.3338091207628
 20
16.12354214985756
 10
170.4632284401265
 20
16.18151396936272
 10
170.6111838967794
 20
16.21739177588823
 10
170.7682069455487
 20
16.22746719050564
 10
170.917494046643
 20
16.21863637762587
 10
171.0596253614171
 20
16.19074899340355
 10
171.1595922609626
 20
16.13413314701138
 10
171.3125074736187
 20
16.08674602105506
 10
171.2455131717168
 20
16.00197553001186
 10
171.229647912027
 20
15.93438901873481
 10
171.1978750531296
 20
15.86926092793192
 10
171.2150202209573
 20
15.76723453256952
 10
171.1666427208232
 20
15.77493211681901
 10
171.1315789440766
 20
15.76806771724806
 10
171.1296697985719
 20
15.83263831158199
 10
171.0985692931989
 20
15.87825639621393
 10
171.0664551628455
 20
15.9356103662845
 10
171.0208038475169
 20
15.98540462692563
 10
170.9658508218387
 20
16.02994813718995
 10
170.9010841173008
 20
16.06763988836547
 10
170.8232377310597
 20
16.09283375791352
 10
170.7355160553353
 20
16.09931230998111
 10
170.6452903277807
 20
16.09235709285605
 10
170.5594594694064
 20
16.06909190460925
 10
170.4828343638597
 20
16.0313164410754
 10
170.41652656362
 20
15.98051641089576
 10
170.3622560536965
 20
15.91731143407208
 10
170.3224925345459
 20
15.84276455710365
 10
170.2976775510588
 20
15.75917313997764
 10
170.2892124262871
 20
15.65192948382284
 10
170.3019697987104
 20
15.52965457267559
 10
170.3681548409273
 20
15.41149724291209
 10
170.4640977399832
 20
15.32606325709525
 10
170.5757914963182
 20
15.25583362306727
 10
170.7010863668702
 20
15.19659162305302
 10
170.8349823941446
 20
15.14616708086128
 10
170.968993033315
 20
15.09322516984382
 10
171.0950885316915
 20
15.02750170625179
 10
171.2076216638418
 20
14.9448035253732
 10
171.3031370284233
 20
14.83996006310073
 10
171.3672706486962
 20
14.69937117251569
 10
171.3811103725279
 20
14.54065409451592
 10
171.3673954712228
 20
14.38153155217878
 10
171.3244739153986
 20
14.23483828819207
 10
171.2545906329066
 20
14.10119796587144
 10
171.157459221383
 20
13.98532387699291
 10
171.0347806023658
 20
13.89089981770086
 10
170.8874408413168
 20
13.82179270651981
 10
170.7177132497125
 20
13.77953210858853
 10
170.5317404979597
 20
13.76781736230405
 10
170.3528955926183
 20
13.7780948668344
 10
170.1881733753743
 20
13.81966573769149
 10
170.0834410841056
 20
13.88797642883939
 10
169.9350960790367
 20
13.93675219032109
 10
169.9980378194729
 20
14.02976591290842
 10
170.007227443006
 20
14.10296536248278
 10
170.0303711301232
 20
14.16936294501347
 10
170.0034588335317
 20
14.26974809527581
 10
170.052133895634
 20
14.26234033517378
 10
170.0916530580697
 20
14.26894063620895
 10
170.0996204944703
 20
14.19078703218932
 10
170.1305436967923
 20
14.15600927375857
 10
170.1465954835851
 20
14.13795663215994
 97
        1
330
B4
 75
     1
 76
     2
 52
45.0
 41
0.1
 77
     0
 78
     1
 53
45.0
 43
0.0
 44
0.0
 45
-0.282842712474619
 46
0.0
 79
     0
 98
        1
 10
0.0
 20
0.0
  0
ENDBLK
  5
4A
330
48
100
AcDbEntity
  8
0
100
AcDbBlockEnd
  0
BLOCK
  5
4D
330
4B
100
AcDbEntity
  8
0
100
AcDbBlockBegin
  2
開示A4枠
 70
     0
 10
0.0
 20
0.0
 30
0.0
  3
開示A4枠
  1

  0
INSERT
  5
4C
330
4B
100
AcDbEntity
  8
1
100
AcDbBlockReference
  2
開示A4
 10
0.0
 20
0.0
 30
0.0
  0
ENDBLK
  5
4E
330
4B
100
AcDbEntity
  8
0
100
AcDbBlockEnd
  0
BLOCK
  5
50
330
4F
100
AcDbEntity
  8
0
100
AcDbBlockBegin
  2
T57
 70
     0
 10
73.61228694972152
 20
110.3834036067211
 30
0.0
  3
T57
  1

  0
LINE
  5
D1
330
4F
100
AcDbEntity
  8
1
  6
Continuous
 62
     7
100
AcDbLine
 10
97.42798555379359
 20
199.8578907300899
 30
0.0
 11
81.55085315107888
 21
199.8578907300899
 31
0.0
  0
LINE
  5
D2
330
4F
100
AcDbEntity
  8
1
  6
Continuous
 62
     7
100
AcDbLine
 10
81.55085315107888
 20
199.8578907300899
 30
0.0
 11
73.61228694972152
 21
186.1078907300899
 31
0.0
  0
LINE
  5
D3
330
4F
100
AcDbEntity
  8
1
  6
Continuous
 62
     7
100
AcDbLine
 10
73.61228694972152
 20
186.1078907300899
 30
0.0
 11
81.55085315107887
 21
172.3578907300899
 31
0.0
  0
LINE
  5
D4
330
4F
100
AcDbEntity
  8
1
  6
Continuous
 62
     7
100
AcDbLine
 10
81.55085315107887
 20
172.3578907300899
 30
0.0
 11
97.42798555379358
 21
172.3578907300899
 31
0.0
  0
LINE
  5
D5
330
4F
100
AcDbEntity
  8
1
  6
Continuous
 62
     7
100
AcDbLine
 10
97.42798555379358
 20
172.3578907300899
 30
0.0
 11
105.3665517551509
 21
186.1078907300899
 31
0.0
  0
LINE
  5
D6
330
4F
100
AcDbEntity
  8
1
  6
Continuous
 62
     7
100
AcDbLine
 10
105.3665517551509
 20
186.1078907300899
 30
0.0
 11
97.42798555379359
 21
199.8578907300899
 31
0.0
  0
LINE
  5
D7
330
4F
100
AcDbEntity
  8
1
  6
Continuous
 62
     7
100
AcDbLine
 10
103.2394193524362
 20
125.8834036067211
 30
0.0
 11
103.2394193524362
 21
110.8834036067211
 31
0.0
  0
LINE
  5
D8
330
4F
100
AcDbEntity
  8
1
  6
Continuous
 62
     7
100
AcDbLine
 10
104.7394193524362
 20
127.3834036067211
 30
0.0
 11
105.3665517551509
 21
127.3834036067211
 31
0.0
  0
LINE
  5
D9
330
4F
100
AcDbEntity
  8
1
  6
Continuous
 62
     7
100
AcDbLine
 10
105.3665517551509
 20
134.8834036067211
 30
0.0
 11
105.3665517551509
 21
127.3834036067211
 31
0.0
  0
LINE
  5
DA
330
4F
100
AcDbEntity
  8
1
  6
Continuous
 62
     7
100
AcDbLine
 10
100.2119193524362
 20
134.8834036067211
 30
0.0
 11
105.3665517551509
 21
134.8834036067211
 31
0.0
  0
LINE
  5
DB
330
4F
100
AcDbEntity
  8
1
  6
Continuous
 62
     2
100
AcDbLine
 10
100.2119193524362
 20
134.8834036067211
 30
0.0
 11
98.98342515338761
 21
137.0112179762769
 31
0.0
  0
LINE
  5
DC
330
4F
100
AcDbEntity
  8
1
  6
Continuous
 62
     2
100
AcDbLine
 10
98.55931048146849
 20
150.5828874776888
 30
0.0
 11
98.59679435243623
 21
149.3834036067211
 31
0.0
  0
LINE
  5
DD
330
4F
100
AcDbEntity
  8
1
  6
Continuous
 62
     7
100
AcDbLine
 10
98.98342515338761
 20
137.0112179762769
 30
0.0
 11
100.1454251533876
 21
137.0112179762769
 31
0.0
  0
LINE
  5
DE
330
4F
100
AcDbEntity
  8
1
  6
Continuous
 62
     7
100
AcDbLine
 10
100.1454251533876
 20
137.0112179762769
 30
0.0
 11
100.2119193524362
 21
134.8834036067211
 31
0.0
  0
LINE
  5
DF
330
4F
100
AcDbEntity
  8
1
  6
Continuous
 62
     7
100
AcDbLine
 10
98.25879435243624
 20
150.8834036067211
 30
0.0
 11
98.55931048146849
 21
150.5828874776888
 31
0.0
  0
LINE
  5
E0
330
4F
100
AcDbEntity
  8
1
  6
Continuous
 62
     7
100
AcDbLine
 10
99.75879435243624
 20
149.3834036067211
 30
0.0
 11
100.1454251533876
 21
137.0112179762769
 31
0.0
  0
LINE
  5
E1
330
4F
100
AcDbEntity
  8
1
  6
Continuous
 62
     7
100
AcDbLine
 10
99.75879435243624
 20
149.3834036067211
 30
0.0
 11
98.59679435243623
 21
149.3834036067211
 31
0.0
  0
LINE
  5
E2
330
4F
100
AcDbEntity
  8
1
  6
Continuous
 62
     2
100
AcDbLine
 10
98.59679435243623
 20
149.3834036067211
 30
0.0
 11
98.98342515338761
 21
137.0112179762769
 31
0.0
  0
LINE
  5
E3
330
4F
100
AcDbEntity
  8
1
  6
Continuous
 62
     7
100
AcDbLine
 10
89.48941935243623
 20
110.3834036067211
 30
0.0
 11
102.7394193524362
 21
110.3834036067211
 31
0.0
  0
LINE
  5
E4
330
4F
100
AcDbEntity
  8
1
  6
Continuous
 62
     7
100
AcDbLine
 10
89.48941935243623
 20
150.8834036067211
 30
0.0
 11
98.25879435243624
 21
150.8834036067211
 31
0.0
  0
LINE
  5
E5
330
4F
100
AcDbEntity
  8
1
  6
Continuous
 62
     7
100
AcDbLine
 10
102.7394193524362
 20
110.3834036067211
 30
0.0
 11
103.2394193524362
 21
110.8834036067211
 31
0.0
  0
LINE
  5
E6
330
4F
100
AcDbEntity
  8
1
  6
Continuous
 62
     7
100
AcDbLine
 10
103.2394193524362
 20
110.8834036067211
 30
0.0
 11
89.48941935243623
 21
110.8834036067211
 31
0.0
  0
LINE
  5
E7
330
4F
100
AcDbEntity
  8
1
  6
Continuous
 62
     7
100
AcDbLine
 10
75.73941935243623
 20
110.8834036067211
 30
0.0
 11
75.73941935243623
 21
125.8834036067211
 31
0.0
  0
LINE
  5
E8
330
4F
100
AcDbEntity
  8
1
  6
Continuous
 62
     7
100
AcDbLine
 10
73.61228694972152
 20
127.3834036067211
 30
0.0
 11
74.23941935243623
 21
127.3834036067211
 31
0.0
  0
LINE
  5
E9
330
4F
100
AcDbEntity
  8
1
  6
Continuous
 62
     7
100
AcDbLine
 10
73.61228694972152
 20
127.3834036067211
 30
0.0
 11
73.61228694972152
 21
134.8834036067211
 31
0.0
  0
LINE
  5
EA
330
4F
100
AcDbEntity
  8
1
  6
Continuous
 62
     7
100
AcDbLine
 10
73.61228694972152
 20
134.8834036067211
 30
0.0
 11
81.55085315107887
 21
134.8834036067211
 31
0.0
  0
LINE
  5
EB
330
4F
100
AcDbEntity
  8
1
  6
Continuous
 62
     2
100
AcDbLine
 10
79.99541355148486
 20
137.0112179762769
 30
0.0
 11
78.76691935243623
 21
134.8834036067211
 31
0.0
  0
LINE
  5
EC
330
4F
100
AcDbEntity
  8
1
  6
Continuous
 62
     2
100
AcDbLine
 10
80.38204435243622
 20
149.3834036067211
 30
0.0
 11
80.41952822340397
 21
150.5828874776888
 31
0.0
  0
LINE
  5
ED
330
4F
100
AcDbEntity
  8
1
  6
Continuous
 62
     7
100
AcDbLine
 10
78.83341355148485
 20
137.0112179762769
 30
0.0
 11
79.99541355148486
 21
137.0112179762769
 31
0.0
  0
LINE
  5
EE
330
4F
100
AcDbEntity
  8
1
  6
Continuous
 62
     7
100
AcDbLine
 10
78.76691935243623
 20
134.8834036067211
 30
0.0
 11
78.83341355148485
 21
137.0112179762769
 31
0.0
  0
LINE
  5
EF
330
4F
100
AcDbEntity
  8
1
  6
Continuous
 62
     7
100
AcDbLine
 10
79.22004435243623
 20
149.3834036067211
 30
0.0
 11
80.72004435243623
 21
150.8834036067211
 31
0.0
  0
LINE
  5
F0
330
4F
100
AcDbEntity
  8
1
  6
Continuous
 62
     7
100
AcDbLine
 10
78.83341355148485
 20
137.0112179762769
 30
0.0
 11
79.22004435243623
 21
149.3834036067211
 31
0.0
  0
LINE
  5
F1
330
4F
100
AcDbEntity
  8
1
  6
Continuous
 62
     7
100
AcDbLine
 10
80.38204435243622
 20
149.3834036067211
 30
0.0
 11
79.22004435243623
 21
149.3834036067211
 31
0.0
  0
LINE
  5
F2
330
4F
100
AcDbEntity
  8
1
  6
Continuous
 62
     2
100
AcDbLine
 10
79.99541355148486
 20
137.0112179762769
 30
0.0
 11
80.38204435243622
 21
149.3834036067211
 31
0.0
  0
LINE
  5
F3
330
4F
100
AcDbEntity
  8
1
  6
Continuous
 62
     7
100
AcDbLine
 10
76.23941935243623
 20
110.3834036067211
 30
0.0
 11
89.48941935243623
 21
110.3834036067211
 31
0.0
  0
LINE
  5
F4
330
4F
100
AcDbEntity
  8
1
  6
Continuous
 62
     7
100
AcDbLine
 10
80.72004435243623
 20
150.8834036067211
 30
0.0
 11
89.48941935243623
 21
150.8834036067211
 31
0.0
  0
LINE
  5
F5
330
4F
100
AcDbEntity
  8
1
  6
Continuous
 62
     7
100
AcDbLine
 10
75.73941935243623
 20
110.8834036067211
 30
0.0
 11
76.23941935243623
 21
110.3834036067211
 31
0.0
  0
LINE
  5
F6
330
4F
100
AcDbEntity
  8
1
  6
Continuous
 62
     7
100
AcDbLine
 10
80.38204435243622
 20
149.3834036067211
 30
0.0
 11
89.48941935243623
 21
149.3834036067211
 31
0.0
  0
LINE
  5
F7
330
4F
100
AcDbEntity
  8
1
  6
Continuous
 62
     7
100
AcDbLine
 10
79.99541355148486
 20
137.0112179762769
 30
0.0
 11
89.48941935243623
 21
137.0112179762769
 31
0.0
  0
LINE
  5
F8
330
4F
100
AcDbEntity
  8
1
  6
Continuous
 62
     7
100
AcDbLine
 10
75.73941935243623
 20
110.8834036067211
 30
0.0
 11
89.48941935243623
 21
110.8834036067211
 31
0.0
  0
LINE
  5
F9
330
4F
100
AcDbEntity
  8
1
  6
Continuous
 62
     7
100
AcDbLine
 10
98.55931048146849
 20
150.5828874776888
 30
0.0
 11
99.75879435243624
 21
149.3834036067211
 31
0.0
  0
LINE
  5
FA
330
4F
100
AcDbEntity
  8
1
  6
Continuous
 62
     7
100
AcDbLine
 10
81.55085315107887
 20
134.8834036067211
 30
0.0
 11
81.55085315107887
 21
127.3834036067211
 31
0.0
  0
LINE
  5
FB
330
4F
100
AcDbEntity
  8
1
  6
Continuous
 62
     7
100
AcDbLine
 10
81.55085315107887
 20
134.8834036067211
 30
0.0
 11
89.48941935243623
 21
134.8834036067211
 31
0.0
  0
LINE
  5
FC
330
4F
100
AcDbEntity
  8
1
  6
Continuous
 62
     7
100
AcDbLine
 10
97.42798555379359
 20
127.3834036067211
 30
0.0
 11
97.42798555379359
 21
134.8834036067211
 31
0.0
  0
LINE
  5
FD
330
4F
100
AcDbEntity
  8
1
  6
Continuous
 62
     7
100
AcDbLine
 10
89.48941935243623
 20
134.8834036067211
 30
0.0
 11
97.42798555379359
 21
134.8834036067211
 31
0.0
  0
LINE
  5
FE
330
4F
100
AcDbEntity
  8
1
  6
Continuous
 62
     7
100
AcDbLine
 10
97.42798555379359
 20
134.8834036067211
 30
0.0
 11
105.3665517551509
 21
134.8834036067211
 31
0.0
  0
LINE
  5
FF
330
4F
100
AcDbEntity
  8
1
  6
Continuous
 62
     7
100
AcDbLine
 10
89.48941935243623
 20
137.0112179762769
 30
0.0
 11
98.98342515338761
 21
137.0112179762769
 31
0.0
  0
LINE
  5
100
330
4F
100
AcDbEntity
  8
1
  6
Continuous
 62
     7
100
AcDbLine
 10
89.48941935243623
 20
149.3834036067211
 30
0.0
 11
98.59679435243623
 21
149.3834036067211
 31
0.0
  0
LINE
  5
101
330
4F
100
AcDbEntity
  8
1
  6
Continuous
 62
     7
100
AcDbLine
 10
170.7394193524362
 20
134.8834036067211
 30
0.0
 11
170.7394193524362
 21
127.2414232404418
 31
0.0
  0
LINE
  5
102
330
4F
100
AcDbEntity
  8
1
  6
Continuous
 62
     2
100
AcDbLine
 10
167.7119193524363
 20
134.8834036067211
 30
0.0
 11
166.4834251533875
 21
137.0112179762769
 31
0.0
  0
LINE
  5
103
330
4F
100
AcDbEntity
  8
1
  6
Continuous
 62
     2
100
AcDbLine
 10
166.0593104814685
 20
150.5828874776888
 30
0.0
 11
166.0967943524363
 21
149.3834036067211
 31
0.0
  0
LINE
  5
104
330
4F
100
AcDbEntity
  8
1
  6
Continuous
 62
     7
100
AcDbLine
 10
166.4834251533875
 20
137.0112179762769
 30
0.0
 11
167.6454251533876
 21
137.0112179762769
 31
0.0
  0
LINE
  5
105
330
4F
100
AcDbEntity
  8
1
  6
Continuous
 62
     7
100
AcDbLine
 10
167.6454251533876
 20
137.0112179762769
 30
0.0
 11
167.7119193524363
 21
134.8834036067211
 31
0.0
  0
LINE
  5
106
330
4F
100
AcDbEntity
  8
1
  6
Continuous
 62
     7
100
AcDbLine
 10
165.7587943524363
 20
150.8834036067211
 30
0.0
 11
166.0593104814685
 21
150.5828874776888
 31
0.0
  0
LINE
  5
107
330
4F
100
AcDbEntity
  8
1
  6
Continuous
 62
     7
100
AcDbLine
 10
167.2587943524363
 20
149.3834036067211
 30
0.0
 11
167.6454251533876
 21
137.0112179762769
 31
0.0
  0
LINE
  5
108
330
4F
100
AcDbEntity
  8
1
  6
Continuous
 62
     7
100
AcDbLine
 10
167.2587943524363
 20
149.3834036067211
 30
0.0
 11
166.0967943524363
 21
149.3834036067211
 31
0.0
  0
LINE
  5
109
330
4F
100
AcDbEntity
  8
1
  6
Continuous
 62
     2
100
AcDbLine
 10
166.0967943524363
 20
149.3834036067211
 30
0.0
 11
166.4834251533875
 21
137.0112179762769
 31
0.0
  0
LINE
  5
10A
330
4F
100
AcDbEntity
  8
1
  6
Continuous
 62
     7
100
AcDbLine
 10
156.9894193524362
 20
110.3834036067211
 30
0.0
 11
170.2394193524362
 21
110.3834036067211
 31
0.0
  0
LINE
  5
10B
330
4F
100
AcDbEntity
  8
1
  6
Continuous
 62
     7
100
AcDbLine
 10
156.9894193524362
 20
150.8834036067211
 30
0.0
 11
165.7587943524363
 21
150.8834036067211
 31
0.0
  0
LINE
  5
10C
330
4F
100
AcDbEntity
  8
1
  6
Continuous
 62
     7
100
AcDbLine
 10
170.2394193524362
 20
110.3834036067211
 30
0.0
 11
170.7394193524362
 21
110.8834036067211
 31
0.0
  0
LINE
  5
10D
330
4F
100
AcDbEntity
  8
1
  6
Continuous
 62
     7
100
AcDbLine
 10
170.7394193524362
 20
110.8834036067211
 30
0.0
 11
156.9894193524362
 21
110.8834036067211
 31
0.0
  0
LINE
  5
10E
330
4F
100
AcDbEntity
  8
1
  6
Continuous
 62
     7
100
AcDbLine
 10
143.2394193524362
 20
110.8834036067211
 30
0.0
 11
143.2394193524362
 21
127.2414232404418
 31
0.0
  0
LINE
  5
10F
330
4F
100
AcDbEntity
  8
1
  6
Continuous
 62
     7
100
AcDbLine
 10
143.2394193524362
 20
134.8834036067211
 30
0.0
 11
149.0508531510789
 21
134.8834036067211
 31
0.0
  0
LINE
  5
110
330
4F
100
AcDbEntity
  8
1
  6
Continuous
 62
     2
100
AcDbLine
 10
147.4954135514848
 20
137.0112179762769
 30
0.0
 11
146.2669193524362
 21
134.8834036067211
 31
0.0
  0
LINE
  5
111
330
4F
100
AcDbEntity
  8
1
  6
Continuous
 62
     2
100
AcDbLine
 10
147.8820443524362
 20
149.3834036067211
 30
0.0
 11
147.919528223404
 21
150.5828874776888
 31
0.0
  0
LINE
  5
112
330
4F
100
AcDbEntity
  8
1
  6
Continuous
 62
     7
100
AcDbLine
 10
146.3334135514849
 20
137.0112179762769
 30
0.0
 11
147.4954135514848
 21
137.0112179762769
 31
0.0
  0
LINE
  5
113
330
4F
100
AcDbEntity
  8
1
  6
Continuous
 62
     7
100
AcDbLine
 10
146.2669193524362
 20
134.8834036067211
 30
0.0
 11
146.3334135514849
 21
137.0112179762769
 31
0.0
  0
LINE
  5
114
330
4F
100
AcDbEntity
  8
1
  6
Continuous
 62
     7
100
AcDbLine
 10
146.7200443524362
 20
149.3834036067211
 30
0.0
 11
148.2200443524362
 21
150.8834036067211
 31
0.0
  0
LINE
  5
115
330
4F
100
AcDbEntity
  8
1
  6
Continuous
 62
     7
100
AcDbLine
 10
146.3334135514849
 20
137.0112179762769
 30
0.0
 11
146.7200443524362
 21
149.3834036067211
 31
0.0
  0
LINE
  5
116
330
4F
100
AcDbEntity
  8
1
  6
Continuous
 62
     7
100
AcDbLine
 10
147.8820443524362
 20
149.3834036067211
 30
0.0
 11
146.7200443524362
 21
149.3834036067211
 31
0.0
  0
LINE
  5
117
330
4F
100
AcDbEntity
  8
1
  6
Continuous
 62
     2
100
AcDbLine
 10
147.4954135514848
 20
137.0112179762769
 30
0.0
 11
147.8820443524362
 21
149.3834036067211
 31
0.0
  0
LINE
  5
118
330
4F
100
AcDbEntity
  8
1
  6
Continuous
 62
     7
100
AcDbLine
 10
143.7394193524362
 20
110.3834036067211
 30
0.0
 11
156.9894193524362
 21
110.3834036067211
 31
0.0
  0
LINE
  5
119
330
4F
100
AcDbEntity
  8
1
  6
Continuous
 62
     7
100
AcDbLine
 10
148.2200443524362
 20
150.8834036067211
 30
0.0
 11
156.9894193524362
 21
150.8834036067211
 31
0.0
  0
LINE
  5
11A
330
4F
100
AcDbEntity
  8
1
  6
Continuous
 62
     7
100
AcDbLine
 10
143.2394193524362
 20
110.8834036067211
 30
0.0
 11
143.7394193524362
 21
110.3834036067211
 31
0.0
  0
LINE
  5
11B
330
4F
100
AcDbEntity
  8
1
  6
Continuous
 62
     7
100
AcDbLine
 10
147.8820443524362
 20
149.3834036067211
 30
0.0
 11
156.9894193524362
 21
149.3834036067211
 31
0.0
  0
LINE
  5
11C
330
4F
100
AcDbEntity
  8
1
  6
Continuous
 62
     7
100
AcDbLine
 10
147.4954135514848
 20
137.0112179762769
 30
0.0
 11
156.9894193524362
 21
137.0112179762769
 31
0.0
  0
LINE
  5
11D
330
4F
100
AcDbEntity
  8
1
  6
Continuous
 62
     7
100
AcDbLine
 10
143.2394193524362
 20
110.8834036067211
 30
0.0
 11
156.9894193524362
 21
110.8834036067211
 31
0.0
  0
LINE
  5
11E
330
4F
100
AcDbEntity
  8
1
  6
Continuous
 62
     7
100
AcDbLine
 10
166.0593104814685
 20
150.5828874776888
 30
0.0
 11
167.2587943524363
 21
149.3834036067211
 31
0.0
  0
LINE
  5
11F
330
4F
100
AcDbEntity
  8
1
  6
Continuous
 62
     7
100
AcDbLine
 10
149.0508531510789
 20
134.8834036067211
 30
0.0
 11
149.0508531510789
 21
127.3834036067211
 31
0.0
  0
LINE
  5
120
330
4F
100
AcDbEntity
  8
1
  6
Continuous
 62
     7
100
AcDbLine
 10
149.0508531510789
 20
134.8834036067211
 30
0.0
 11
156.9894193524362
 21
134.8834036067211
 31
0.0
  0
LINE
  5
121
330
4F
100
AcDbEntity
  8
1
  6
Continuous
 62
     7
100
AcDbLine
 10
164.9279855537936
 20
127.3834036067211
 30
0.0
 11
164.9279855537936
 21
134.8834036067211
 31
0.0
  0
LINE
  5
122
330
4F
100
AcDbEntity
  8
1
  6
Continuous
 62
     7
100
AcDbLine
 10
156.9894193524362
 20
134.8834036067211
 30
0.0
 11
164.9279855537936
 21
134.8834036067211
 31
0.0
  0
LINE
  5
123
330
4F
100
AcDbEntity
  8
1
  6
Continuous
 62
     7
100
AcDbLine
 10
164.9279855537936
 20
134.8834036067211
 30
0.0
 11
170.7394193524362
 21
134.8834036067211
 31
0.0
  0
LINE
  5
124
330
4F
100
AcDbEntity
  8
1
  6
Continuous
 62
     7
100
AcDbLine
 10
156.9894193524362
 20
137.0112179762769
 30
0.0
 11
166.4834251533875
 21
137.0112179762769
 31
0.0
  0
LINE
  5
125
330
4F
100
AcDbEntity
  8
1
  6
Continuous
 62
     7
100
AcDbLine
 10
156.9894193524362
 20
149.3834036067211
 30
0.0
 11
166.0967943524363
 21
149.3834036067211
 31
0.0
  0
LINE
  5
126
330
4F
100
AcDbEntity
  8
1
  6
Continuous
 62
     7
100
AcDbLine
 10
143.2394193524362
 20
127.2414232404418
 30
0.0
 11
143.2394193524362
 21
134.8834036067211
 31
0.0
  0
LINE
  5
127
330
4F
100
AcDbEntity
  8
1
  6
Continuous
 62
     7
100
AcDbLine
 10
170.7394193524362
 20
127.2414232404418
 30
0.0
 11
170.7394193524362
 21
110.8834036067211
 31
0.0
  0
ARC
  5
128
330
4F
100
AcDbEntity
  8
1
  6
Continuous
 62
     7
100
AcDbCircle
 10
81.55085315107887
 20
64.11257027338766
 30
0.0
 40
63.27083333333344
100
AcDbArc
 50
82.79212456423575
 51
90.0
  0
ARC
  5
129
330
4F
100
AcDbEntity
  8
1
  6
Continuous
 62
     7
100
AcDbCircle
 10
81.55085315107887
 20
111.3781952733877
 30
0.0
 40
16.0052083333334
100
AcDbArc
 50
90.0
 51
104.359162338141
  0
ARC
  5
12A
330
4F
100
AcDbEntity
  8
1
  6
Continuous
 62
     7
100
AcDbCircle
 10
73.61228694972151
 20
111.3781952733878
 30
0.0
 40
16.0052083333333
100
AcDbArc
 50
75.64083766185895
 51
89.99999999999994
  0
ARC
  5
12B
330
4F
100
AcDbEntity
  8
1
  6
Continuous
 62
     7
100
AcDbCircle
 10
97.42798555379359
 20
64.11257027338766
 30
0.0
 40
63.27083333333344
100
AcDbArc
 50
90.0
 51
97.20787543576425
  0
ARC
  5
12C
330
4F
100
AcDbEntity
  8
1
  6
Continuous
 62
     7
100
AcDbCircle
 10
97.42798555379359
 20
111.3781952733877
 30
0.0
 40
16.00520833333341
100
AcDbArc
 50
75.64083766185895
 51
90.0
  0
ARC
  5
12D
330
4F
100
AcDbEntity
  8
1
  6
Continuous
 62
     7
100
AcDbCircle
 10
105.366551755151
 20
111.3781952733878
 30
0.0
 40
16.0052083333333
100
AcDbArc
 50
90.00000000000036
 51
104.3591623381411
  0
ARC
  5
12E
330
4F
100
AcDbEntity
  8
1
  6
Continuous
 62
     7
100
AcDbCircle
 10
149.0508531510789
 20
64.11257027338766
 30
0.0
 40
63.27083333333344
100
AcDbArc
 50
82.79212456423582
 51
90.0
  0
ARC
  5
12F
330
4F
100
AcDbEntity
  8
1
  6
Continuous
 62
     7
100
AcDbCircle
 10
149.0508531510789
 20
111.3781952733877
 30
0.0
 40
16.0052083333334
100
AcDbArc
 50
90.0
 51
104.3591623381411
  0
ARC
  5
130
330
4F
100
AcDbEntity
  8
1
  6
Continuous
 62
     7
100
AcDbCircle
 10
164.9279855537936
 20
64.11257027338766
 30
0.0
 40
63.27083333333344
100
AcDbArc
 50
90.0
 51
97.2078754357643
  0
ARC
  5
131
330
4F
100
AcDbEntity
  8
1
  6
Continuous
 62
     7
100
AcDbCircle
 10
164.9279855537936
 20
111.3781952733877
 30
0.0
 40
16.0052083333334
100
AcDbArc
 50
75.640837661859
 51
90.0
  0
ARC
  5
132
330
4F
100
AcDbEntity
  8
1
  6
Continuous
 62
     7
100
AcDbCircle
 10
172.866551755151
 20
111.3781952733878
 30
0.0
 40
16.00520833333336
100
AcDbArc
 50
97.63734979563996
 51
104.3591623381411
  0
ARC
  5
133
330
4F
100
AcDbEntity
  8
1
  6
Continuous
 62
     7
100
AcDbCircle
 10
141.1122869497215
 20
111.3781952733878
 30
0.0
 40
16.0052083333333
100
AcDbArc
 50
75.64083766185891
 51
82.36265020436045
  0
CIRCLE
  5
134
330
4F
100
AcDbEntity
  8
1
  6
Continuous
 62
     7
100
AcDbCircle
 10
89.48941935243623
 20
186.1078907300899
 30
0.0
 40
6.5
  0
CIRCLE
  5
135
330
4F
100
AcDbEntity
  8
1
  6
Continuous
 62
     7
100
AcDbCircle
 10
89.48941935243623
 20
186.1078907300899
 30
0.0
 40
7.0
  0
CIRCLE
  5
136
330
4F
100
AcDbEntity
  8
1
  6
Continuous
 62
     7
100
AcDbCircle
 10
89.48941935243623
 20
186.1078907300899
 30
0.0
 40
8.76937500000001
  0
CIRCLE
  5
137
330
4F
100
AcDbEntity
  8
1
  6
Continuous
 62
     2
100
AcDbCircle
 10
89.48941935243623
 20
186.1078907300899
 30
0.0
 40
9.069891129032257
  0
CIRCLE
  5
138
330
4F
100
AcDbEntity
  8
1
  6
Continuous
 62
     7
100
AcDbCircle
 10
89.48941935243623
 20
186.1078907300899
 30
0.0
 40
10.26937500000001
  0
CIRCLE
  5
139
330
4F
100
AcDbEntity
  8
1
  6
Continuous
 62
     7
100
AcDbCircle
 10
89.48941935243623
 20
186.1078907300899
 30
0.0
 40
10.65999999999997
  0
CIRCLE
  5
13A
330
4F
100
AcDbEntity
  8
1
  6
Continuous
 62
     7
100
AcDbCircle
 10
89.48941935243623
 20
186.1078907300899
 30
0.0
 40
10.74999999999997
  0
ARC
  5
13B
330
4F
100
AcDbEntity
  8
1
  6
Continuous
 62
     7
100
AcDbCircle
 10
104.7394193524362
 20
125.8834036067211
 30
0.0
 40
1.5
100
AcDbArc
 50
90.0
 51
180.0
  0
ARC
  5
13C
330
4F
100
AcDbEntity
  8
1
  6
Continuous
 62
     7
100
AcDbCircle
 10
74.23941935243623
 20
125.8834036067211
 30
0.0
 40
1.5
100
AcDbArc
 50
0.0
 51
90.0
  0
ENDBLK
  5
51
330
4F
100
AcDbEntity
  8
0
100
AcDbBlockEnd
  0
BLOCK
  5
162
330
15B
100
AcDbEntity
  8
0
100
AcDbBlockBegin
  2
*D4
 70
     1
 10
0.0
 20
0.0
 30
0.0
  3
*D4
  1

  0
LINE
  5
15C
330
15B
100
AcDbEntity
  8
1
  6
Continuous
 62
     2
100
AcDbLine
 10
73.61228694972152
 20
210.8578907300899
 30
0.0
 11
105.3665517551509
 21
210.8578907300899
 31
0.0
  0
LINE
  5
15D
330
15B
100
AcDbEntity
  8
1
  6
Continuous
 62
     2
100
AcDbLine
 10
73.61228694972152
 20
186.1078907300899
 30
0.0
 11
73.61228694972152
 21
211.8578907300899
 31
0.0
  0
LINE
  5
15E
330
15B
100
AcDbEntity
  8
1
  6
Continuous
 62
     2
100
AcDbLine
 10
105.3665517551509
 20
186.1078907300899
 30
0.0
 11
105.3665517551509
 21
211.8578907300899
 31
0.0
  0
SOLID
  5
15F
330
15B
100
AcDbEntity
  8
1
 62
     2
100
AcDbTrace
 10
77.11228694972152
 20
211.3186744716458
 30
0.0
 11
77.11228694972152
 21
210.397106988534
 31
0.0
 12
73.61228694972152
 22
210.8578907300899
 32
0.0
 13
73.61228694972152
 23
210.8578907300899
 33
0.0
  0
SOLID
  5
160
330
15B
100
AcDbEntity
  8
1
 62
     2
100
AcDbTrace
 10
101.8665517551509
 20
210.397106988534
 30
0.0
 11
101.8665517551509
 21
211.3186744716458
 31
0.0
 12
105.3665517551509
 22
210.8578907300899
 32
0.0
 13
105.3665517551509
 23
210.8578907300899
 33
0.0
  0
MTEXT
  5
161
330
15B
100
AcDbEntity
  8
1
 62
     7
100
AcDbMText
 10
86.86441935243623
 20
211.8578907300899
 30
0.0
 40
3.5
 41
0.0
 71
     7
 72
     1
  1
32
  7
CONVERTER_12
 11
0.9999999999970619
 21
2.424068405545306E-6
 31
0.0
 73
     1
 44
0.60024009603842
  0
ENDBLK
  5
163
330
15B
100
AcDbEntity
  8
0
100
AcDbBlockEnd
  0
BLOCK
  5
16D
330
166
100
AcDbEntity
  8
0
100
AcDbBlockBegin
  2
*D5
 70
     1
 10
0.0
 20
0.0
 30
0.0
  3
*D5
  1

  0
LINE
  5
167
330
166
100
AcDbEntity
  8
1
  6
Continuous
 62
     2
100
AcDbLine
 10
114.3665517551509
 20
199.8578907300899
 30
0.0
 11
114.3665517551509
 21
172.3578907300899
 31
0.0
  0
LINE
  5
168
330
166
100
AcDbEntity
  8
1
  6
Continuous
 62
     2
100
AcDbLine
 10
97.42798555379355
 20
199.8578907300899
 30
0.0
 11
115.3665517551509
 21
199.8578907300899
 31
0.0
  0
LINE
  5
169
330
166
100
AcDbEntity
  8
1
  6
Continuous
 62
     2
100
AcDbLine
 10
97.42798555379353
 20
172.3578907300899
 30
0.0
 11
115.3665517551509
 21
172.3578907300899
 31
0.0
  0
SOLID
  5
16A
330
166
100
AcDbEntity
  8
1
 62
     2
100
AcDbTrace
 10
114.8273354967068
 20
196.3578907300899
 30
0.0
 11
113.905768013595
 21
196.3578907300899
 31
0.0
 12
114.3665517551509
 22
199.8578907300899
 32
0.0
 13
114.3665517551509
 23
199.8578907300899
 33
0.0
  0
SOLID
  5
16B
330
166
100
AcDbEntity
  8
1
 62
     2
100
AcDbTrace
 10
113.905768013595
 20
175.8578907300899
 30
0.0
 11
114.8273354967068
 21
175.8578907300899
 31
0.0
 12
114.3665517551509
 22
172.3578907300899
 32
0.0
 13
114.3665517551509
 23
172.3578907300899
 33
0.0
  0
MTEXT
  5
16C
330
166
100
AcDbEntity
  8
1
 62
     7
100
AcDbMText
 10
113.3665517551509
 20
183.4828907300899
 30
0.0
 40
3.5
 41
0.0
 71
     7
 72
     1
  1
28
  7
CONVERTER_12
 11
0.0
 21
1.0
 31
0.0
 73
     1
 44
0.60024009603842
  0
ENDBLK
  5
16E
330
166
100
AcDbEntity
  8
0
100
AcDbBlockEnd
  0
BLOCK
  5
178
330
171
100
AcDbEntity
  8
0
100
AcDbBlockBegin
  2
*D6
 70
     1
 10
0.0
 20
0.0
 30
0.0
  3
*D6
  1

  0
LINE
  5
172
330
171
100
AcDbEntity
  8
1
  6
Continuous
 62
     2
100
AcDbLine
 10
54.61228694972153
 20
150.8834036067212
 30
0.0
 11
54.61228694972153
 21
110.3834036067212
 31
0.0
  0
LINE
  5
173
330
171
100
AcDbEntity
  8
1
  6
Continuous
 62
     2
100
AcDbLine
 10
80.72004435243623
 20
150.8834036067212
 30
0.0
 11
53.61228694972153
 21
150.8834036067212
 31
0.0
  0
LINE
  5
174
330
171
100
AcDbEntity
  8
1
  6
Continuous
 62
     2
100
AcDbLine
 10
76.23941935243623
 20
110.3834036067212
 30
0.0
 11
53.61228694972153
 21
110.3834036067212
 31
0.0
  0
SOLID
  5
175
330
171
100
AcDbEntity
  8
1
 62
     2
100
AcDbTrace
 10
55.07307069127742
 20
147.3834036067212
 30
0.0
 11
54.15150320816564
 21
147.3834036067212
 31
0.0
 12
54.61228694972153
 22
150.8834036067212
 32
0.0
 13
54.61228694972153
 23
150.8834036067212
 33
0.0
  0
SOLID
  5
176
330
171
100
AcDbEntity
  8
1
 62
     2
100
AcDbTrace
 10
54.15150320816564
 20
113.8834036067212
 30
0.0
 11
55.07307069127742
 21
113.8834036067212
 31
0.0
 12
54.61228694972153
 22
110.3834036067212
 32
0.0
 13
54.61228694972153
 23
110.3834036067212
 33
0.0
  0
MTEXT
  5
177
330
171
100
AcDbEntity
  8
1
 62
     7
100
AcDbMText
 10
53.61228694972153
 20
128.3479566652975
 30
0.0
 40
3.5
 41
0.0
 71
     7
 72
     1
  1
41
  7
CONVERTER_12
 11
0.0
 21
1.0
 31
0.0
 73
     1
 44
0.60024009603842
  0
ENDBLK
  5
179
330
171
100
AcDbEntity
  8
0
100
AcDbBlockEnd
  0
BLOCK
  5
183
330
17C
100
AcDbEntity
  8
0
100
AcDbBlockBegin
  2
*D7
 70
     1
 10
0.0
 20
0.0
 30
0.0
  3
*D7
  1

  0
LINE
  5
17D
330
17C
100
AcDbEntity
  8
1
  6
Continuous
 62
     2
100
AcDbLine
 10
62.61228694972154
 20
150.8834036067211
 30
0.0
 11
62.61228694972154
 21
134.8834036067211
 31
0.0
  0
LINE
  5
17E
330
17C
100
AcDbEntity
  8
1
  6
Continuous
 62
     2
100
AcDbLine
 10
80.72004435243625
 20
150.8834036067211
 30
0.0
 11
61.61228694972154
 21
150.8834036067211
 31
0.0
  0
LINE
  5
17F
330
17C
100
AcDbEntity
  8
1
  6
Continuous
 62
     2
100
AcDbLine
 10
73.61228694972154
 20
134.8834036067211
 30
0.0
 11
61.61228694972154
 21
134.8834036067211
 31
0.0
  0
SOLID
  5
180
330
17C
100
AcDbEntity
  8
1
 62
     2
100
AcDbTrace
 10
63.07307069127743
 20
147.3834036067211
 30
0.0
 11
62.15150320816566
 21
147.3834036067211
 31
0.0
 12
62.61228694972154
 22
150.8834036067211
 32
0.0
 13
62.61228694972154
 23
150.8834036067211
 33
0.0
  0
SOLID
  5
181
330
17C
100
AcDbEntity
  8
1
 62
     2
100
AcDbTrace
 10
62.15150320816566
 20
138.3834036067211
 30
0.0
 11
63.07307069127743
 21
138.3834036067211
 31
0.0
 12
62.61228694972154
 22
134.8834036067211
 32
0.0
 13
62.61228694972154
 23
134.8834036067211
 33
0.0
  0
MTEXT
  5
182
330
17C
100
AcDbEntity
  8
1
 62
     7
100
AcDbMText
 10
61.61228694972154
 20
140.6776828591019
 30
0.0
 40
3.5
 41
0.0
 71
     7
 72
     1
  1
16
  7
CONVERTER_12
 11
0.0
 21
1.0
 31
0.0
 73
     1
 44
0.60024009603842
  0
ENDBLK
  5
184
330
17C
100
AcDbEntity
  8
0
100
AcDbBlockEnd
  0
BLOCK
  5
18F
330
187
100
AcDbEntity
  8
0
100
AcDbBlockBegin
  2
*D8
 70
     1
 10
0.0
 20
0.0
 30
0.0
  3
*D8
  1

  0
LINE
  5
188
330
187
100
AcDbEntity
  8
1
  6
Continuous
 62
     2
100
AcDbLine
 10
75.73941935243623
 20
89.8776057628778
 30
0.0
 11
103.2394193524362
 21
89.8776057628778
 31
0.0
  0
LINE
  5
189
330
187
100
AcDbEntity
  8
1
  6
Continuous
 62
     2
100
AcDbLine
 10
75.73941935243623
 20
110.8834036067211
 30
0.0
 11
75.73941935243623
 21
100.2236190426226
 31
0.0
  0
LINE
  5
18A
330
187
100
AcDbEntity
  8
1
  6
Continuous
 62
     2
100
AcDbLine
 10
75.73941935243623
 20
97.5250174691695
 30
0.0
 11
75.73941935243623
 21
88.8776057628778
 31
0.0
  0
LINE
  5
18B
330
187
100
AcDbEntity
  8
1
  6
Continuous
 62
     2
100
AcDbLine
 10
103.2394193524362
 20
110.8834036067211
 30
0.0
 11
103.2394193524362
 21
88.8776057628778
 31
0.0
  0
SOLID
  5
18C
330
187
100
AcDbEntity
  8
1
 62
     2
100
AcDbTrace
 10
79.23941935243623
 20
90.33838950443369
 30
0.0
 11
79.23941935243623
 21
89.41682202132192
 31
0.0
 12
75.73941935243623
 22
89.8776057628778
 32
0.0
 13
75.73941935243623
 23
89.8776057628778
 33
0.0
  0
SOLID
  5
18D
330
187
100
AcDbEntity
  8
1
 62
     2
100
AcDbTrace
 10
99.73941935243624
 20
89.41682202132192
 30
0.0
 11
99.73941935243624
 21
90.33838950443369
 31
0.0
 12
103.2394193524362
 22
89.8776057628778
 32
0.0
 13
103.2394193524362
 23
89.8776057628778
 33
0.0
  0
MTEXT
  5
18E
330
187
100
AcDbEntity
  8
1
 62
     7
100
AcDbMText
 10
86.55423369604969
 20
90.87759880580148
 30
0.0
 40
3.5
 41
0.0
 71
     7
 72
     1
  1
\C7;{\Fgdt;n}\C7;28
  7
CONVERTER_12
 11
0.9999999999970619
 21
2.424068405545306E-6
 31
0.0
 73
     1
 44
0.60024009603842
  0
ENDBLK
  5
190
330
187
100
AcDbEntity
  8
0
100
AcDbBlockEnd
  0
BLOCK
  5
19A
330
193
100
AcDbEntity
  8
0
100
AcDbBlockBegin
  2
*D9
 70
     1
 10
0.0
 20
0.0
 30
0.0
  3
*D9
  1

  0
LINE
  5
194
330
193
100
AcDbEntity
  8
1
  6
Continuous
 62
     2
100
AcDbLine
 10
62.61228694972154
 20
127.3834036067211
 30
0.0
 11
62.61228694972154
 21
110.3834036067211
 31
0.0
  0
LINE
  5
195
330
193
100
AcDbEntity
  8
1
  6
Continuous
 62
     2
100
AcDbLine
 10
73.61228694972154
 20
127.3834036067211
 30
0.0
 11
61.61228694972154
 21
127.3834036067211
 31
0.0
  0
LINE
  5
196
330
193
100
AcDbEntity
  8
1
  6
Continuous
 62
     2
100
AcDbLine
 10
76.23941935243623
 20
110.3834036067211
 30
0.0
 11
61.61228694972154
 21
110.3834036067211
 31
0.0
  0
SOLID
  5
197
330
193
100
AcDbEntity
  8
1
 62
     2
100
AcDbTrace
 10
63.07307069127743
 20
123.8834036067211
 30
0.0
 11
62.15150320816566
 21
123.8834036067211
 31
0.0
 12
62.61228694972154
 22
127.3834036067211
 32
0.0
 13
62.61228694972154
 23
127.3834036067211
 33
0.0
  0
SOLID
  5
198
330
193
100
AcDbEntity
  8
1
 62
     2
100
AcDbTrace
 10
62.15150320816566
 20
113.8834036067211
 30
0.0
 11
63.07307069127743
 21
113.8834036067211
 31
0.0
 12
62.61228694972154
 22
110.3834036067211
 32
0.0
 13
62.61228694972154
 23
110.3834036067211
 33
0.0
  0
MTEXT
  5
199
330
193
100
AcDbEntity
  8
1
 62
     7
100
AcDbMText
 10
61.61228694972154
 20
116.2042495847584
 30
0.0
 40
3.5
 41
0.0
 71
     7
 72
     1
  1
17
  7
CONVERTER_12
 11
0.0
 21
1.0
 31
0.0
 73
     1
 44
0.60024009603842
  0
ENDBLK
  5
19B
330
193
100
AcDbEntity
  8
0
100
AcDbBlockEnd
  0
BLOCK
  5
1A3
330
19E
100
AcDbEntity
  8
0
100
AcDbBlockBegin
  2
*D10
 70
     1
 10
0.0
 20
0.0
 30
0.0
  3
*D10
  1

  0
LINE
  5
19F
330
19E
100
AcDbEntity
  8
1
  6
Continuous
 62
     2
100
AcDbLine
 10
100.6694193524362
 20
98.4557185819706
 30
0.0
 11
81.01640461907415
 21
98.4557185819706
 31
0.0
  0
LINE
  5
1A0
330
19E
100
AcDbEntity
  8
1
  6
Continuous
 62
     2
100
AcDbLine
 10
100.6694193524362
 20
110.3834036067211
 30
0.0
 11
100.6694193524362
 21
97.4557185819706
 31
0.0
  0
SOLID
  5
1A1
330
19E
100
AcDbEntity
  8
1
 62
     2
100
AcDbTrace
 10
97.16941935243622
 20
97.99493484041471
 30
0.0
 11
97.16941935243622
 21
98.91650232352649
 31
0.0
 12
100.6694193524362
 22
98.4557185819706
 32
0.0
 13
100.6694193524362
 23
98.4557185819706
 33
0.0
  0
MTEXT
  5
1A2
330
19E
100
AcDbEntity
  8
1
 62
     7
100
AcDbMText
 10
82.34640461908259
 20
99.80571162489427
 30
0.0
 40
3.5
 41
0.0
 71
     7
 72
     1
  1
\C7;{\Fgdt;n}\C7;22,36
  7
CONVERTER_12
 11
0.9999999999970619
 21
2.424068405545306E-6
 31
0.0
 73
     1
 44
0.60024009603842
  0
ENDBLK
  5
1A4
330
19E
100
AcDbEntity
  8
0
100
AcDbBlockEnd
  0
ENDSEC
  0
SECTION
  2
ENTITIES
  0
INSERT
  5
52
330
1F
100
AcDbEntity
  8
0
100
AcDbBlockReference
  2
開示A4枠
 10
0.0
 20
0.0
 30
0.0
  0
INSERT
  5
53
330
1F
100
AcDbEntity
  8
1
100
AcDbBlockReference
  2
T57
 10
73.61228694972152
 20
110.3834036067211
 30
0.0
  0
LINE
  5
13D
330
1F
100
AcDbEntity
  8
1
  6
DASH_CENTER
 62
     2
100
AcDbLine
 10
89.48941935243623
 20
153.8834036067211
 30
0.0
 11
89.48941935243623
 21
107.3834036067211
 31
0.0
  0
LINE
  5
13E
330
1F
100
AcDbEntity
  8
1
  6
DASH_CENTER
 62
     2
100
AcDbLine
 10
70.61228694972152
 20
186.1078907300899
 30
0.0
 11
108.3665517551509
 21
186.1078907300899
 31
0.0
  0
LINE
  5
13F
330
1F
100
AcDbEntity
  8
1
  6
DASH_CENTER
 62
     2
100
AcDbLine
 10
89.48941935243623
 20
202.8578907300899
 30
0.0
 11
89.48941935243623
 21
169.3578907300899
 31
0.0
  0
LINE
  5
140
330
1F
100
AcDbEntity
  8
1
  6
DASH_CENTER
 62
     2
100
AcDbLine
 10
156.9894193524362
 20
153.8834036067211
 30
0.0
 11
156.9894193524362
 21
107.3834036067211
 31
0.0
  0
LINE
  5
141
330
1F
100
AcDbEntity
  8
1
  6
Continuous
 62
     2
100
AcDbLine
 10
100.6694193524362
 20
110.3834036067211
 30
0.0
 11
100.6694193524362
 21
109.3834036067211
 31
0.0
  0
LINE
  5
142
330
1F
100
AcDbEntity
  8
1
  6
DASH_CENTER
 62
     2
100
AcDbLine
 10
100.6694193524362
 20
110.3834036067211
 30
0.0
 11
100.6694193524362
 21
109.3834036067211
 31
0.0
  0
SOLID
  5
143
330
1F
100
AcDbEntity
  8
1
 62
     2
100
AcDbTrace
 10
101.259639751175
 20
147.8482180042794
 30
0.0
 11
102.0577406028515
 21
147.3874342627235
 31
0.0
 12
99.90869017701327
 22
144.5867372202559
 32
0.0
 13
99.90869017701327
 23
144.5867372202559
 33
0.0
  0
LEADER
  5
144
330
1F
100
AcDbEntity
  8
1
  6
Continuous
 62
     2
100
AcDbLeader
  3
Standard
 71
     0
 76
     3
 10
99.90869017701327
 20
144.5867372202559
 30
0.0
 10
105.7025172878468
 20
154.6219401464895
 30
0.0
 10
120.3187878180777
 20
154.6219401464895
 30
0.0
  0
CIRCLE
  5
145
102
{ACAD_REACTORS
330
146
102
}
330
1F
100
AcDbEntity
  8
1
 62
     2
100
AcDbCircle
 10
89.48941935243623
 20
117.8834036067211
 30
0.0
 40
0.875
  0
HATCH
  5
146
330
1F
100
AcDbEntity
  8
1
 62
     2
100
AcDbHatch
 10
0.0
 20
0.0
 30
0.0
210
0.0
220
0.0
230
1.0
  2
SOLID
 70
     1
 71
     1
 91
        1
 92
        1
 93
        1
 72
     2
 10
89.48941935243623
 20
117.8834036067211
 40
0.875
 50
0.0
 51
360.0
 73
     1
 97
        1
330
145
 75
     0
 76
     1
 98
        0
  0
LEADER
  5
147
330
1F
100
AcDbEntity
  8
1
  6
Continuous
 62
     2
100
AcDbLeader
  3
Standard
 71
     0
 76
     3
 10
89.48941935243623
 20
117.8834036067211
 30
0.0
 10
78.92133603555192
 20
99.57894636325645
 30
0.0
 10
58.73941935243623
 20
99.57894636325645
 30
0.0
  0
MTEXT
  5
149
330
1F
100
AcDbEntity
  8
1
 62
     7
100
AcDbMText
 10
100.75
 20
12.49999999999999
 30
0.0
 40
2.5
 41
0.0
 71
     5
 72
     1
  1
22
  7
CONVERTER_12
 73
     1
 44
0.7202881152461
  0
MTEXT
  5
14A
330
1F
100
AcDbEntity
  8
1
 62
     7
100
AcDbMText
 10
112.25
 20
12.49999999999999
 30
0.0
 40
2.5
 41
0.0
 71
     5
 72
     1
  1
 1
  7
CONVERTER_12
 73
     1
 44
0.7202881152461
  0
MTEXT
  5
14B
330
1F
100
AcDbEntity
  8
1
 62
     7
100
AcDbMText
 10
106.5
 20
12.49999999999999
 30
0.0
 40
2.5
 41
0.0
 71
     5
 72
     1
  1
6
  7
CONVERTER_12
 73
     1
 44
0.7202881152461
  0
MTEXT
  5
14C
330
1F
100
AcDbEntity
  8
1
 62
     7
100
AcDbMText
 10
117.75
 20
12.49999999999999
 30
0.0
 40
2.5
 41
0.0
 71
     5
 72
     1
  1
22
  7
CONVERTER_12
 73
     1
 44
0.7202881152461
  0
MTEXT
  5
14D
330
1F
100
AcDbEntity
  8
1
 62
     7
100
AcDbMText
 10
129.25
 20
12.49999999999999
 30
0.0
 40
2.5
 41
0.0
 71
     5
 72
     1
  1
 1
  7
CONVERTER_12
 73
     1
 44
0.7202881152461
  0
MTEXT
  5
14E
330
1F
100
AcDbEntity
  8
1
 62
     7
100
AcDbMText
 10
123.5
 20
12.49999999999999
 30
0.0
 40
2.5
 41
0.0
 71
     5
 72
     1
  1
6
  7
CONVERTER_12
 73
     1
 44
0.7202881152461
  0
MTEXT
  5
14F
330
1F
100
AcDbEntity
  8
1
 62
     7
100
AcDbMText
 10
85.25
 20
16.99999999999999
 30
0.0
 40
3.5
 41
0.0
 71
     5
 72
     1
  1
1
  7
CONVERTER_12
 73
     1
 44
0.7202881152461
  0
MTEXT
  5
150
330
1F
100
AcDbEntity
  8
1
 62
     7
100
AcDbMText
 10
57.0
 20
22.75000000000001
 30
0.0
 40
3.5
 41
0.0
 71
     5
 72
     1
  1
オスネジ銅管アダプター
  7
CONVERTER_11
 73
     1
 44
0.54545454545455
  0
MTEXT
  5
151
330
1F
100
AcDbEntity
  8
1
 62
     7
100
AcDbMText
 10
57.0
 20
14.24999999999999
 30
0.0
 40
3.5
 41
0.0
 71
     5
 72
     1
  1
T57-13X22,22
  7
CONVERTER_12
 73
     1
 44
0.7202881152461
  0
MTEXT
  5
152
330
1F
100
AcDbEntity
  8
1
 62
     7
100
AcDbMText
 10
93.75
 20
16.99999999999999
 30
0.0
 40
3.5
 41
0.0
 71
     5
 72
     1
  1
1
  7
CONVERTER_12
 73
     1
 44
0.7202881152461
  0
MTEXT
  5
153
330
1F
100
AcDbEntity
  8
1
 62
     7
100
AcDbMText
 10
113.5676119020516
 20
157.2280841737612
 30
0.0
 40
3.0
 41
0.0
 71
     5
 72
     1
  1
R1/2
  7
CONVERTER_12
 73
     1
 44
1.32052821128451
  0
MTEXT
  5
155
330
1F
100
AcDbEntity
  8
1
 62
     7
100
AcDbMText
 10
67.23941935243623
 20
102.5789463632565
 30
0.0
 40
3.0
 41
0.0
 71
     5
 72
     1
  1
13-20
  7
CONVERTER_13
 73
     1
 44
1.32052821128451
  0
MTEXT
  5
156
330
1F
100
AcDbEntity
  8
1
 62
     7
100
AcDbMText
 10
140.5
 20
12.49999999999999
 30
0.0
 40
2.5
 41
0.0
 71
     5
 72
     1
  1
5
  7
CONVERTER_12
 73
     1
 44
0.7202881152461
  0
MTEXT
  5
157
330
1F
100
AcDbEntity
  8
1
 62
     7
100
AcDbMText
 10
146.25
 20
12.49999999999999
 30
0.0
 40
2.5
 41
0.0
 71
     5
 72
     1
  1
17
  7
CONVERTER_12
 73
     1
 44
0.7202881152461
  0
MTEXT
  5
158
330
1F
100
AcDbEntity
  8
1
 62
     7
100
AcDbMText
 10
134.75
 20
12.49999999999999
 30
0.0
 40
2.5
 41
0.0
 71
     5
 72
     1
  1
22
  7
CONVERTER_12
 73
     1
 44
0.7202881152461
  0
MTEXT
  5
159
330
1F
100
AcDbEntity
  8
1
 62
     7
100
AcDbMText
 10
157.4999999999999
 20
12.49999999999999
 30
0.0
 40
2.5
 41
0.0
 71
     5
 72
     1
  1
10
  7
CONVERTER_12
 73
     1
 44
0.7202881152461
  0
MTEXT
  5
15A
330
1F
100
AcDbEntity
  8
1
 62
     7
100
AcDbMText
 10
151.7499999999999
 20
12.49999999999999
 30
0.0
 40
2.5
 41
0.0
 71
     5
 72
     1
  1
03
  7
CONVERTER_12
 73
     1
 44
0.7202881152461
  0
DIMENSION
  5
165
330
1F
100
AcDbEntity
  8
1
100
AcDbDimension
  2
*D4
 10
73.61228694972152
 20
210.8578907300899
 30
0.0
 11
89.48941935243623
 21
213.6078907300899
 31
0.0
 70
    32
  1
32
 71
     5
 42
-1.0
 53
0.00013888888889
  3
ME10_DIM_10
100
AcDbAlignedDimension
 13
105.3665517551509
 23
186.1078907300899
 33
0.0
 14
73.61228694972152
 24
186.1078907300899
 34
0.0
100
AcDbRotatedDimension
  0
DIMENSION
  5
170
330
1F
100
AcDbEntity
  8
1
100
AcDbDimension
  2
*D5
 10
114.3665517551509
 20
199.8578907300899
 30
0.0
 11
111.6165517551509
 21
186.1078907300899
 31
0.0
 70
    32
  1
28
 71
     5
 42
-1.0
 53
90.0
  3
ME10_DIM_11
100
AcDbAlignedDimension
 13
97.42798555379358
 23
172.3578907300899
 33
0.0
 14
97.42798555379359
 24
199.8578907300899
 34
0.0
 50
90.0
100
AcDbRotatedDimension
  0
DIMENSION
  5
17B
330
1F
100
AcDbEntity
  8
1
100
AcDbDimension
  2
*D6
 10
54.61228694972153
 20
150.8834036067212
 30
0.0
 11
51.86228694972153
 21
130.4479566652975
 31
0.0
 70
    32
  1
41
 71
     5
 42
-1.0
 53
90.0
  3
ME10_DIM_12
100
AcDbAlignedDimension
 13
76.23941935243623
 23
110.3834036067211
 33
0.0
 14
80.72004435243623
 24
150.8834036067211
 34
0.0
 50
90.0
100
AcDbRotatedDimension
  0
DIMENSION
  5
186
330
1F
100
AcDbEntity
  8
1
100
AcDbDimension
  2
*D7
 10
62.61228694972154
 20
150.8834036067211
 30
0.0
 11
59.86228694972154
 21
142.7776828591019
 31
0.0
 70
    32
  1
<>
 71
     5
 42
-1.0
 53
90.0
  3
ME10_DIM_13
100
AcDbAlignedDimension
 13
73.61228694972152
 23
134.8834036067211
 33
0.0
 14
80.72004435243623
 24
150.8834036067211
 34
0.0
 50
90.0
100
AcDbRotatedDimension
  0
DIMENSION
  5
192
330
1F
100
AcDbEntity
  8
1
100
AcDbDimension
  2
*D8
 10
75.73941935243623
 20
89.8776057628778
 30
0.0
 11
89.94923369604126
 21
92.6276057628778
 31
0.0
 70
    33
  1
{\Fgdt;n}28
 71
     5
 42
-1.0
 53
0.00013888888889
  3
ME10_DIM_14
100
AcDbAlignedDimension
 13
103.2394193524362
 23
110.8834036067211
 33
0.0
 14
75.73941935243623
 24
110.8834036067211
 34
0.0
  0
DIMENSION
  5
19D
330
1F
100
AcDbEntity
  8
1
100
AcDbDimension
  2
*D9
 10
62.61228694972154
 20
127.3834036067211
 30
0.0
 11
59.86228694972154
 21
118.3042495847584
 31
0.0
 70
    32
  1
<>
 71
     5
 42
-1.0
 53
90.0
  3
ME10_DIM_15
100
AcDbAlignedDimension
 13
76.23941935243623
 23
110.3834036067211
 33
0.0
 14
73.61228694972152
 24
127.3834036067211
 34
0.0
 50
90.0
100
AcDbRotatedDimension
  0
INSERT
  5
1A5
330
1F
100
AcDbEntity
  8
1
100
AcDbBlockReference
  2
*D10
 10
0.0
 20
0.0
 30
0.0
  0
ENDSEC
  0
SECTION
  2
OBJECTS
  0
DICTIONARY
  5
C
330
0
100
AcDbDictionary
281
     1
  3
ACAD_GROUP
350
D
  3
ACAD_LAYOUT
350
1A
  3
ACAD_MATERIAL
350
3B
  3
ACAD_MLEADERSTYLE
350
1A8
  3
ACAD_MLINESTYLE
350
17
  3
ACAD_PLOTSETTINGS
350
19
  3
ACAD_PLOTSTYLENAME
350
E
  3
ACAD_VISUALSTYLE
350
2A
  3
AcDbVariableDictionary
350
1A6
  0
DICTIONARY
  5
D
102
{ACAD_REACTORS
330
C
102
}
330
C
100
AcDbDictionary
281
     1
  0
DICTIONARY
  5
1A
102
{ACAD_REACTORS
330
C
102
}
330
C
100
AcDbDictionary
281
     1
  3
Layout1
350
1E
  3
Layout2
350
26
  3
Model
350
22
  0
DICTIONARY
  5
3B
102
{ACAD_REACTORS
330
C
102
}
330
C
100
AcDbDictionary
281
     1
  3
ByBlock
350
3D
  3
ByLayer
350
3C
  3
Global
350
3E
  0
DICTIONARY
  5
1A8
102
{ACAD_REACTORS
330
C
102
}
330
C
100
AcDbDictionary
281
     1
  0
DICTIONARY
  5
17
102
{ACAD_REACTORS
330
C
102
}
330
C
100
AcDbDictionary
281
     1
  3
Standard
350
18
  0
DICTIONARY
  5
19
102
{ACAD_REACTORS
330
C
102
}
330
C
100
AcDbDictionary
281
     1
  0
ACDBDICTIONARYWDFLT
  5
E
102
{ACAD_REACTORS
330
C
102
}
330
C
100
AcDbDictionary
281
     1
  3
Normal
350
F
100
AcDbDictionaryWithDefault
340
F
  0
DICTIONARY
  5
2A
102
{ACAD_REACTORS
330
C
102
}
330
C
100
AcDbDictionary
281
     1
  3
2dWireframe
350
2F
  3
3D Hidden
350
31
  3
3dWireframe
350
30
  3
Basic
350
32
  3
Brighten
350
36
  3
ColorChange
350
3A
  3
Conceptual
350
34
  3
Dim
350
35
  3
Facepattern
350
39
  3
Flat
350
2B
  3
FlatWithEdges
350
2C
  3
Gouraud
350
2D
  3
GouraudWithEdges
350
2E
  3
Linepattern
350
38
  3
Realistic
350
33
  3
Thicken
350
37
  0
DICTIONARY
  5
1A6
102
{ACAD_REACTORS
330
C
102
}
330
C
100
AcDbDictionary
281
     1
  3
DIMASSOC
350
1A9
  3
HIDETEXT
350
1AA
  0
LAYOUT
  5
1E
102
{ACAD_REACTORS
330
1A
102
}
330
1A
100
AcDbPlotSettings
  1

  2
none_device
  4

  6

 40
0.0
 41
0.0
 42
0.0
 43
0.0
 44
0.0
 45
0.0
 46
0.0
 47
0.0
 48
0.0
 49
0.0
140
0.0
141
0.0
142
1.0
143
1.0
 70
   688
 72
     0
 73
     0
 74
     5
  7

 75
    16
147
1.0
148
0.0
149
0.0
100
AcDbLayout
  1
Layout1
 70
     1
 71
     1
 10
0.0
 20
0.0
 11
12.0
 21
9.0
 12
0.0
 22
0.0
 32
0.0
 14
1.00000000000000E+20
 24
1.00000000000000E+20
 34
1.00000000000000E+20
 15
-1.00000000000000E+20
 25
-1.00000000000000E+20
 35
-1.00000000000000E+20
146
0.0
 13
0.0
 23
0.0
 33
0.0
 16
1.0
 26
0.0
 36
0.0
 17
0.0
 27
1.0
 37
0.0
 76
     0
330
1B
  0
LAYOUT
  5
26
102
{ACAD_REACTORS
330
1A
102
}
330
1A
100
AcDbPlotSettings
  1

  2
none_device
  4

  6

 40
0.0
 41
0.0
 42
0.0
 43
0.0
 44
0.0
 45
0.0
 46
0.0
 47
0.0
 48
0.0
 49
0.0
140
0.0
141
0.0
142
1.0
143
1.0
 70
   688
 72
     0
 73
     0
 74
     5
  7

 75
    16
147
1.0
148
0.0
149
0.0
100
AcDbLayout
  1
Layout2
 70
     1
 71
     2
 10
0.0
 20
0.0
 11
0.0
 21
0.0
 12
0.0
 22
0.0
 32
0.0
 14
0.0
 24
0.0
 34
0.0
 15
0.0
 25
0.0
 35
0.0
146
0.0
 13
0.0
 23
0.0
 33
0.0
 16
1.0
 26
0.0
 36
0.0
 17
0.0
 27
1.0
 37
0.0
 76
     0
330
23
  0
LAYOUT
  5
22
102
{ACAD_REACTORS
330
1A
102
}
330
1A
100
AcDbPlotSettings
  1

  2
none_device
  4

  6

 40
0.0
 41
0.0
 42
0.0
 43
0.0
 44
0.0
 45
0.0
 46
0.0
 47
0.0
 48
0.0
 49
0.0
140
0.0
141
0.0
142
1.0
143
1.0
 70
  1712
 72
     0
 73
     0
 74
     0
  7

 75
     0
147
1.0
148
0.0
149
0.0
100
AcDbLayout
  1
Model
 70
     1
 71
     0
 10
0.0
 20
0.0
 11
12.0
 21
9.0
 12
0.0
 22
0.0
 32
0.0
 14
0.0
 24
0.0
 34
0.0
 15
210.0
 25
297.0
 35
0.0
146
0.0
 13
0.0
 23
0.0
 33
0.0
 16
1.0
 26
0.0
 36
0.0
 17
0.0
 27
1.0
 37
0.0
 76
     0
330
1F
331
29
  0
MATERIAL
  5
3D
102
{ACAD_REACTORS
330
3B
102
}
102
{ACAD_XDICTIONARY
360
1CD
102
}
330
3B
100
AcDbMaterial
  1
ByBlock
  0
MATERIAL
  5
3C
102
{ACAD_REACTORS
330
3B
102
}
102
{ACAD_XDICTIONARY
360
1CB
102
}
330
3B
100
AcDbMaterial
  1
ByLayer
  0
MATERIAL
  5
3E
102
{ACAD_REACTORS
330
3B
102
}
102
{ACAD_XDICTIONARY
360
1CF
102
}
330
3B
100
AcDbMaterial
  1
Global
  0
MLINESTYLE
  5
18
102
{ACAD_REACTORS
330
17
102
}
330
17
100
AcDbMlineStyle
  2
Standard
 70
     0
  3

 62
   256
 51
90.0
 52
90.0
 71
     2
 49
0.5
 62
   256
  6
BYLAYER
 49
-0.5
 62
   256
  6
BYLAYER
  0
ACDBPLACEHOLDER
  5
F
102
{ACAD_REACTORS
330
E
102
}
330
E
  0
VISUALSTYLE
  5
2F
102
{ACAD_REACTORS
330
2A
102
}
102
{ACAD_XDICTIONARY
360
1B3
102
}
330
2A
100
AcDbVisualStyle
  2
2dWireframe
 70
     4
 71
     0
 72
     2
 73
     0
 90
        0
 40
-0.6
 41
-30.0
 62
     5
 63
     7
 74
     1
 91
        4
 64
     7
 65
   257
 75
     1
175
     1
 42
1.0
 92
        0
 66
   257
 43
1.0
 76
     1
 77
     6
 78
     2
 67
     7
 79
     5
170
     0
171
     0
290
     0
174
     0
 93
        1
 44
0.0
173
     0
291
     0
 45
0.0
1001
ACAD
1000
AcDbSavedByObjectVersion
1070
     0
  0
VISUALSTYLE
  5
31
102
{ACAD_REACTORS
330
2A
102
}
102
{ACAD_XDICTIONARY
360
1B7
102
}
330
2A
100
AcDbVisualStyle
  2
3D Hidden
 70
     6
 71
     1
 72
     2
 73
     2
 90
        0
 40
-0.6
 41
-30.0
 62
     5
 63
     7
 74
     2
 91
        2
 64
     7
 65
   257
 75
     2
175
     1
 42
40.0
 92
        0
 66
   257
 43
1.0
 76
     1
 77
     6
 78
     2
 67
     7
 79
     3
170
     0
171
     0
290
     0
174
     0
 93
        1
 44
0.0
173
     0
291
     0
 45
0.0
1001
ACAD
1000
AcDbSavedByObjectVersion
1070
     0
  0
VISUALSTYLE
  5
30
102
{ACAD_REACTORS
330
2A
102
}
102
{ACAD_XDICTIONARY
360
1B5
102
}
330
2A
100
AcDbVisualStyle
  2
3dWireframe
 70
     5
 71
     0
 72
     2
 73
     0
 90
        0
 40
-0.6
 41
-30.0
 62
     5
 63
     7
 74
     1
 91
        4
 64
     7
 65
   257
 75
     1
175
     1
 42
1.0
 92
        0
 66
   257
 43
1.0
 76
     1
 77
     6
 78
     2
 67
     7
 79
     5
170
     0
171
     0
290
     0
174
     0
 93
        1
 44
0.0
173
     0
291
     0
 45
0.0
1001
ACAD
1000
AcDbSavedByObjectVersion
1070
     0
  0
VISUALSTYLE
  5
32
102
{ACAD_REACTORS
330
2A
102
}
102
{ACAD_XDICTIONARY
360
1B9
102
}
330
2A
100
AcDbVisualStyle
  2
Basic
 70
     7
 71
     1
 72
     0
 73
     1
 90
        0
 40
-0.6
 41
-30.0
 62
     5
 63
     7
 74
     0
 91
        4
 64
     7
 65
   257
 75
     1
175
     1
 42
1.0
 92
        8
 66
     7
 43
1.0
 76
     1
 77
     6
 78
     2
 67
     7
 79
     5
170
     0
171
     0
290
     0
174
     0
 93
        1
 44
0.0
173
     0
291
     1
 45
0.0
1001
ACAD
1000
AcDbSavedByObjectVersion
1070
     0
  0
VISUALSTYLE
  5
36
102
{ACAD_REACTORS
330
2A
102
}
102
{ACAD_XDICTIONARY
360
1C1
102
}
330
2A
100
AcDbVisualStyle
  2
Brighten
 70
    12
 71
     2
 72
     2
 73
     0
 90
        0
 40
-0.6
 41
-30.0
 62
     5
 63
     7
 74
     1
 91
        4
 64
     7
 65
   257
 75
     1
175
     1
 42
1.0
 92
        8
 66
     7
 43
1.0
 76
     1
 77
     6
 78
     2
 67
     7
 79
     5
170
     0
171
     0
290
     0
174
     0
 93
        1
 44
50.0
173
     0
291
     1
 45
0.0
1001
ACAD
1000
AcDbSavedByObjectVersion
1070
     0
  0
VISUALSTYLE
  5
3A
102
{ACAD_REACTORS
330
2A
102
}
102
{ACAD_XDICTIONARY
360
1C9
102
}
330
2A
100
AcDbVisualStyle
  2
ColorChange
 70
    16
 71
     2
 72
     2
 73
     3
 90
        0
 40
-0.6
 41
-30.0
 62
     5
 63
     8
 74
     1
 91
        4
 64
     7
 65
   257
 75
     1
175
     1
 42
1.0
 92
        8
 66
     8
 43
1.0
 76
     1
 77
     6
 78
     2
 67
     7
 79
     5
170
     0
171
     0
290
     0
174
     0
 93
        1
 44
0.0
173
     0
291
     1
 45
0.0
1001
ACAD
1000
AcDbSavedByObjectVersion
1070
     0
  0
VISUALSTYLE
  5
34
102
{ACAD_REACTORS
330
2A
102
}
102
{ACAD_XDICTIONARY
360
1BD
102
}
330
2A
100
AcDbVisualStyle
  2
Conceptual
 70
     9
 71
     3
 72
     2
 73
     0
 90
        0
 40
-0.6
 41
-30.0
 62
     5
 63
     7
 74
     2
 91
        2
 64
     7
 65
   257
 75
     1
175
     1
 42
40.0
 92
        8
 66
     7
 43
1.0
 76
     1
 77
     6
 78
     2
 67
     7
 79
     3
170
     0
171
     0
290
     0
174
     0
 93
        1
 44
0.0
173
     0
291
     0
 45
0.0
1001
ACAD
1000
AcDbSavedByObjectVersion
1070
     0
  0
VISUALSTYLE
  5
35
102
{ACAD_REACTORS
330
2A
102
}
102
{ACAD_XDICTIONARY
360
1BF
102
}
330
2A
100
AcDbVisualStyle
  2
Dim
 70
    11
 71
     2
 72
     2
 73
     0
 90
        0
 40
-0.6
 41
-30.0
 62
     5
 63
     7
 74
     1
 91
        4
 64
     7
 65
   257
 75
     1
175
     1
 42
1.0
 92
        8
 66
     7
 43
1.0
 76
     1
 77
     6
 78
     2
 67
     7
 79
     5
170
     0
171
     0
290
     0
174
     0
 93
        1
 44
-50.0
173
     0
291
     1
 45
0.0
1001
ACAD
1000
AcDbSavedByObjectVersion
1070
     0
  0
VISUALSTYLE
  5
39
102
{ACAD_REACTORS
330
2A
102
}
102
{ACAD_XDICTIONARY
360
1C7
102
}
330
2A
100
AcDbVisualStyle
  2
Facepattern
 70
    15
 71
     2
 72
     2
 73
     0
 90
        0
 40
-0.6
 41
-30.0
 62
     5
 63
     7
 74
     1
 91
        4
 64
     7
 65
   257
 75
     1
175
     1
 42
1.0
 92
        8
 66
     7
 43
1.0
 76
     1
 77
     6
 78
     2
 67
     7
 79
     5
170
     0
171
     0
290
     0
174
     0
 93
        1
 44
0.0
173
     0
291
     1
 45
0.0
1001
ACAD
1000
AcDbSavedByObjectVersion
1070
     0
  0
VISUALSTYLE
  5
2B
102
{ACAD_REACTORS
330
2A
102
}
102
{ACAD_XDICTIONARY
360
1AB
102
}
330
2A
100
AcDbVisualStyle
  2
Flat
 70
     0
 71
     2
 72
     1
 73
     1
 90
        2
 40
-0.6
 41
30.0
 62
     5
 63
     7
 74
     0
 91
        4
 64
     7
 65
   257
 75
     1
175
     1
 42
1.0
 92
        8
 66
     7
 43
1.0
 76
     1
 77
     6
 78
     2
 67
     7
 79
     5
170
     0
171
     0
290
     0
174
     0
 93
       13
 44
0.0
173
     0
291
     1
 45
0.0
1001
ACAD
1000
AcDbSavedByObjectVersion
1070
     0
  0
VISUALSTYLE
  5
2C
102
{ACAD_REACTORS
330
2A
102
}
102
{ACAD_XDICTIONARY
360
1AD
102
}
330
2A
100
AcDbVisualStyle
  2
FlatWithEdges
 70
     1
 71
     2
 72
     1
 73
     1
 90
        2
 40
-0.6
 41
30.0
 62
     5
 63
     7
 74
     1
 91
        4
 64
     7
 65
   257
 75
     1
175
     1
 42
1.0
 92
        0
 66
   257
 43
1.0
 76
     1
 77
     6
 78
     2
 67
     7
 79
     5
170
     0
171
     0
290
     0
174
     0
 93
       13
 44
0.0
173
     0
291
     1
 45
0.0
1001
ACAD
1000
AcDbSavedByObjectVersion
1070
     0
  0
VISUALSTYLE
  5
2D
102
{ACAD_REACTORS
330
2A
102
}
102
{ACAD_XDICTIONARY
360
1AF
102
}
330
2A
100
AcDbVisualStyle
  2
Gouraud
 70
     2
 71
     2
 72
     2
 73
     1
 90
        2
 40
-0.6
 41
30.0
 62
     5
 63
     7
 74
     0
 91
        4
 64
     7
 65
   257
 75
     1
175
     1
 42
1.0
 92
        0
 66
     7
 43
1.0
 76
     1
 77
     6
 78
     2
 67
     7
 79
     5
170
     0
171
     0
290
     0
174
     0
 93
       13
 44
0.0
173
     0
291
     1
 45
0.0
1001
ACAD
1000
AcDbSavedByObjectVersion
1070
     0
  0
VISUALSTYLE
  5
2E
102
{ACAD_REACTORS
330
2A
102
}
102
{ACAD_XDICTIONARY
360
1B1
102
}
330
2A
100
AcDbVisualStyle
  2
GouraudWithEdges
 70
     3
 71
     2
 72
     2
 73
     1
 90
        2
 40
-0.6
 41
30.0
 62
     5
 63
     7
 74
     1
 91
        4
 64
     7
 65
   257
 75
     1
175
     1
 42
1.0
 92
        0
 66
   257
 43
1.0
 76
     1
 77
     6
 78
     2
 67
     7
 79
     5
170
     0
171
     0
290
     0
174
     0
 93
       13
 44
0.0
173
     0
291
     1
 45
0.0
1001
ACAD
1000
AcDbSavedByObjectVersion
1070
     0
  0
VISUALSTYLE
  5
38
102
{ACAD_REACTORS
330
2A
102
}
102
{ACAD_XDICTIONARY
360
1C5
102
}
330
2A
100
AcDbVisualStyle
  2
Linepattern
 70
    14
 71
     2
 72
     2
 73
     0
 90
        0
 40
-0.6
 41
-30.0
 62
     5
 63
     7
 74
     1
 91
        4
 64
     7
 65
   257
 75
     7
175
     7
 42
1.0
 92
        8
 66
     7
 43
1.0
 76
     1
 77
     6
 78
     2
 67
     7
 79
     5
170
     0
171
     0
290
     0
174
     0
 93
        1
 44
0.0
173
     0
291
     1
 45
0.0
1001
ACAD
1000
AcDbSavedByObjectVersion
1070
     0
  0
VISUALSTYLE
  5
33
102
{ACAD_REACTORS
330
2A
102
}
102
{ACAD_XDICTIONARY
360
1BB
102
}
330
2A
100
AcDbVisualStyle
  2
Realistic
 70
     8
 71
     2
 72
     2
 73
     0
 90
        0
 40
-0.6
 41
-30.0
 62
     5
 63
     7
 74
     1
 91
        0
 64
     7
 65
   257
 75
     1
175
     1
 42
1.0
 92
        8
 66
     8
 43
1.0
 76
     1
 77
     6
 78
     2
 67
     7
 79
     5
170
     0
171
     0
290
     0
174
     0
 93
       13
 44
0.0
173
     0
291
     0
 45
0.0
1001
ACAD
1000
AcDbSavedByObjectVersion
1070
     0
  0
VISUALSTYLE
  5
37
102
{ACAD_REACTORS
330
2A
102
}
102
{ACAD_XDICTIONARY
360
1C3
102
}
330
2A
100
AcDbVisualStyle
  2
Thicken
 70
    13
 71
     2
 72
     2
 73
     0
 90
        0
 40
-0.6
 41
-30.0
 62
     5
 63
     7
 74
     1
 91
        4
 64
     7
 65
   257
 75
     1
175
     1
 42
1.0
 92
       12
 66
     7
 43
1.0
 76
     1
 77
     6
 78
     2
 67
     7
 79
     5
170
     0
171
     0
290
     0
174
     0
 93
        1
 44
0.0
173
     0
291
     1
 45
0.0
1001
ACAD
1000
AcDbSavedByObjectVersion
1070
     0
  0
DICTIONARYVAR
  5
1A9
102
{ACAD_REACTORS
330
1A6
102
}
330
1A6
100
DictionaryVariables
280
     0
  1
2
  0
DICTIONARYVAR
  5
1AA
102
{ACAD_REACTORS
330
1A6
102
}
330
1A6
100
DictionaryVariables
280
     0
  1
1
  0
DICTIONARY
  5
1CD
330
3D
100
AcDbDictionary
280
     1
281
     1
  3
ACAD_XREC_ROUNDTRIP
360
1CE
  0
DICTIONARY
  5
1CB
330
3C
100
AcDbDictionary
280
     1
281
     1
  3
ACAD_XREC_ROUNDTRIP
360
1CC
  0
DICTIONARY
  5
1CF
330
3E
100
AcDbDictionary
280
     1
281
     1
  3
ACAD_XREC_ROUNDTRIP
360
1D0
  0
DICTIONARY
  5
1B3
330
2F
100
AcDbDictionary
280
     1
281
     1
  3
ACAD_XREC_ROUNDTRIP
360
1B4
  0
DICTIONARY
  5
1B7
330
31
100
AcDbDictionary
280
     1
281
     1
  3
ACAD_XREC_ROUNDTRIP
360
1B8
  0
DICTIONARY
  5
1B5
330
30
100
AcDbDictionary
280
     1
281
     1
  3
ACAD_XREC_ROUNDTRIP
360
1B6
  0
DICTIONARY
  5
1B9
330
32
100
AcDbDictionary
280
     1
281
     1
  3
ACAD_XREC_ROUNDTRIP
360
1BA
  0
DICTIONARY
  5
1C1
330
36
100
AcDbDictionary
280
     1
281
     1
  3
ACAD_XREC_ROUNDTRIP
360
1C2
  0
DICTIONARY
  5
1C9
330
3A
100
AcDbDictionary
280
     1
281
     1
  3
ACAD_XREC_ROUNDTRIP
360
1CA
  0
DICTIONARY
  5
1BD
330
34
100
AcDbDictionary
280
     1
281
     1
  3
ACAD_XREC_ROUNDTRIP
360
1BE
  0
DICTIONARY
  5
1BF
330
35
100
AcDbDictionary
280
     1
281
     1
  3
ACAD_XREC_ROUNDTRIP
360
1C0
  0
DICTIONARY
  5
1C7
330
39
100
AcDbDictionary
280
     1
281
     1
  3
ACAD_XREC_ROUNDTRIP
360
1C8
  0
DICTIONARY
  5
1AB
330
2B
100
AcDbDictionary
280
     1
281
     1
  3
ACAD_XREC_ROUNDTRIP
360
1AC
  0
DICTIONARY
  5
1AD
330
2C
100
AcDbDictionary
280
     1
281
     1
  3
ACAD_XREC_ROUNDTRIP
360
1AE
  0
DICTIONARY
  5
1AF
330
2D
100
AcDbDictionary
280
     1
281
     1
  3
ACAD_XREC_ROUNDTRIP
360
1B0
  0
DICTIONARY
  5
1B1
330
2E
100
AcDbDictionary
280
     1
281
     1
  3
ACAD_XREC_ROUNDTRIP
360
1B2
  0
DICTIONARY
  5
1C5
330
38
100
AcDbDictionary
280
     1
281
     1
  3
ACAD_XREC_ROUNDTRIP
360
1C6
  0
DICTIONARY
  5
1BB
330
33
100
AcDbDictionary
280
     1
281
     1
  3
ACAD_XREC_ROUNDTRIP
360
1BC
  0
DICTIONARY
  5
1C3
330
37
100
AcDbDictionary
280
     1
281
     1
  3
ACAD_XREC_ROUNDTRIP
360
1C4
  0
XRECORD
  5
1CE
102
{ACAD_REACTORS
330
1CD
102
}
330
1CD
100
AcDbXrecord
280
     1
102
MATERIAL
148
0.0
149
0.0
149
0.0
 93
        0
 94
      127
282
     0
 72
     1
 77
     1
171
     1
175
     1
179
     1
273
     0
  0
XRECORD
  5
1CC
102
{ACAD_REACTORS
330
1CB
102
}
330
1CB
100
AcDbXrecord
280
     1
102
MATERIAL
148
0.0
149
0.0
149
0.0
 93
        0
 94
      127
282
     0
 72
     1
 77
     1
171
     1
175
     1
179
     1
273
     0
  0
XRECORD
  5
1D0
102
{ACAD_REACTORS
330
1CF
102
}
330
1CF
100
AcDbXrecord
280
     1
102
MATERIAL
148
0.0
149
0.0
149
0.0
 93
        0
 94
      127
282
     0
 72
     1
 77
     1
171
     1
175
     1
179
     1
273
     0
  0
XRECORD
  5
1B4
102
{ACAD_REACTORS
330
1B3
102
}
330
1B3
100
AcDbXrecord
280
     1
102
RTVSPropertyOp0
 70
     1
102
RTVSPropertyOp1
 70
     1
102
RTVSPropertyOp2
 70
     1
102
RTVSPropertyOp3
 70
     1
102
RTVSPropertyOp4
 70
     1
102
RTVSPropertyOp5
 70
     1
102
RTVSPropertyOp6
 70
     1
102
RTVSPropertyOp7
 70
     1
102
RTVSPropertyOp8
 70
     1
102
RTVSPropertyOp9
 70
     1
102
RTVSPropertyOp10
 70
     1
102
RTVSPropertyOp11
 70
     1
102
RTVSPropertyOp12
 70
     1
102
RTVSPropertyOp13
 70
     1
102
RTVSPropertyOp14
 70
     1
102
RTVSPropertyOp15
 70
     1
102
RTVSPropertyOp16
 70
     1
102
RTVSPropertyOp17
 70
     1
102
RTVSPropertyOp18
 70
     1
102
RTVSPropertyOp19
 70
     1
102
RTVSPropertyOp20
 70
     1
102
RTVSPropertyOp21
 70
     1
102
RTVSPropertyOp22
 70
     1
102
RTVSPropertyOp23
 70
     1
102
RTVSPropertyOp24
 70
     1
102
RTVSPropertyOp25
 70
     1
102
RTVSPropertyOp26
 70
     1
102
RTVSPropertyOp27
 70
     1
102
RTVSPropertyOp28
 70
     1
102
RTVSPropertyOp29
 70
     1
102
RTVSPropertyOp30
 70
     1
102
RTVSPropertyOp31
 70
     1
102
RTVSPropertyOp32
 70
     1
  0
XRECORD
  5
1B8
102
{ACAD_REACTORS
330
1B7
102
}
330
1B7
100
AcDbXrecord
280
     1
102
RTVSPropertyOp0
 70
     1
102
RTVSPropertyOp1
 70
     1
102
RTVSPropertyOp2
 70
     1
102
RTVSPropertyOp3
 70
     1
102
RTVSPropertyOp4
 70
     1
102
RTVSPropertyOp5
 70
     1
102
RTVSPropertyOp6
 70
     1
102
RTVSPropertyOp7
 70
     1
102
RTVSPropertyOp8
 70
     1
102
RTVSPropertyOp9
 70
     1
102
RTVSPropertyOp10
 70
     1
102
RTVSPropertyOp11
 70
     1
102
RTVSPropertyOp12
 70
     1
102
RTVSPropertyOp13
 70
     1
102
RTVSPropertyOp14
 70
     1
102
RTVSPropertyOp15
 70
     1
102
RTVSPropertyOp16
 70
     1
102
RTVSPropertyOp17
 70
     1
102
RTVSPropertyOp18
 70
     1
102
RTVSPropertyOp19
 70
     1
102
RTVSPropertyOp20
 70
     1
102
RTVSPropertyOp21
 70
     1
102
RTVSPropertyOp22
 70
     1
102
RTVSPropertyOp23
 70
     1
102
RTVSPropertyOp24
 70
     1
102
RTVSPropertyOp25
 70
     1
102
RTVSPropertyOp26
 70
     1
102
RTVSPropertyOp27
 70
     1
102
RTVSPropertyOp28
 70
     1
102
RTVSPropertyOp29
 70
     1
102
RTVSPropertyOp30
 70
     1
102
RTVSPropertyOp31
 70
     1
102
RTVSPropertyOp32
 70
     1
  0
XRECORD
  5
1B6
102
{ACAD_REACTORS
330
1B5
102
}
330
1B5
100
AcDbXrecord
280
     1
102
RTVSPropertyOp0
 70
     1
102
RTVSPropertyOp1
 70
     1
102
RTVSPropertyOp2
 70
     1
102
RTVSPropertyOp3
 70
     1
102
RTVSPropertyOp4
 70
     1
102
RTVSPropertyOp5
 70
     1
102
RTVSPropertyOp6
 70
     1
102
RTVSPropertyOp7
 70
     1
102
RTVSPropertyOp8
 70
     1
102
RTVSPropertyOp9
 70
     1
102
RTVSPropertyOp10
 70
     1
102
RTVSPropertyOp11
 70
     1
102
RTVSPropertyOp12
 70
     1
102
RTVSPropertyOp13
 70
     1
102
RTVSPropertyOp14
 70
     1
102
RTVSPropertyOp15
 70
     1
102
RTVSPropertyOp16
 70
     1
102
RTVSPropertyOp17
 70
     1
102
RTVSPropertyOp18
 70
     1
102
RTVSPropertyOp19
 70
     1
102
RTVSPropertyOp20
 70
     1
102
RTVSPropertyOp21
 70
     1
102
RTVSPropertyOp22
 70
     1
102
RTVSPropertyOp23
 70
     1
102
RTVSPropertyOp24
 70
     1
102
RTVSPropertyOp25
 70
     1
102
RTVSPropertyOp26
 70
     1
102
RTVSPropertyOp27
 70
     1
102
RTVSPropertyOp28
 70
     1
102
RTVSPropertyOp29
 70
     1
102
RTVSPropertyOp30
 70
     1
102
RTVSPropertyOp31
 70
     1
102
RTVSPropertyOp32
 70
     1
  0
XRECORD
  5
1BA
102
{ACAD_REACTORS
330
1B9
102
}
330
1B9
100
AcDbXrecord
280
     1
102
RTVSPropertyOp0
 70
     1
102
RTVSPropertyOp1
 70
     1
102
RTVSPropertyOp2
 70
     1
102
RTVSPropertyOp3
 70
     1
102
RTVSPropertyOp4
 70
     1
102
RTVSPropertyOp5
 70
     1
102
RTVSPropertyOp6
 70
     1
102
RTVSPropertyOp7
 70
     1
102
RTVSPropertyOp8
 70
     1
102
RTVSPropertyOp9
 70
     1
102
RTVSPropertyOp10
 70
     1
102
RTVSPropertyOp11
 70
     1
102
RTVSPropertyOp12
 70
     1
102
RTVSPropertyOp13
 70
     1
102
RTVSPropertyOp14
 70
     1
102
RTVSPropertyOp15
 70
     1
102
RTVSPropertyOp16
 70
     1
102
RTVSPropertyOp17
 70
     1
102
RTVSPropertyOp18
 70
     1
102
RTVSPropertyOp19
 70
     1
102
RTVSPropertyOp20
 70
     1
102
RTVSPropertyOp21
 70
     1
102
RTVSPropertyOp22
 70
     1
102
RTVSPropertyOp23
 70
     1
102
RTVSPropertyOp24
 70
     1
102
RTVSPropertyOp25
 70
     1
102
RTVSPropertyOp26
 70
     1
102
RTVSPropertyOp27
 70
     1
102
RTVSPropertyOp28
 70
     1
102
RTVSPropertyOp29
 70
     1
102
RTVSPropertyOp30
 70
     1
102
RTVSPropertyOp31
 70
     1
102
RTVSPropertyOp32
 70
     1
  0
XRECORD
  5
1C2
102
{ACAD_REACTORS
330
1C1
102
}
330
1C1
100
AcDbXrecord
280
     1
102
RTVSPropertyOp0
 70
     1
102
RTVSPropertyOp1
 70
     1
102
RTVSPropertyOp2
 70
     1
102
RTVSPropertyOp3
 70
     1
102
RTVSPropertyOp4
 70
     1
102
RTVSPropertyOp5
 70
     1
102
RTVSPropertyOp6
 70
     1
102
RTVSPropertyOp7
 70
     1
102
RTVSPropertyOp8
 70
     1
102
RTVSPropertyOp9
 70
     1
102
RTVSPropertyOp10
 70
     1
102
RTVSPropertyOp11
 70
     1
102
RTVSPropertyOp12
 70
     1
102
RTVSPropertyOp13
 70
     1
102
RTVSPropertyOp14
 70
     1
102
RTVSPropertyOp15
 70
     1
102
RTVSPropertyOp16
 70
     1
102
RTVSPropertyOp17
 70
     1
102
RTVSPropertyOp18
 70
     1
102
RTVSPropertyOp19
 70
     1
102
RTVSPropertyOp20
 70
     1
102
RTVSPropertyOp21
 70
     1
102
RTVSPropertyOp22
 70
     1
102
RTVSPropertyOp23
 70
     1
102
RTVSPropertyOp24
 70
     1
102
RTVSPropertyOp25
 70
     1
102
RTVSPropertyOp26
 70
     1
102
RTVSPropertyOp27
 70
     1
102
RTVSPropertyOp28
 70
     1
102
RTVSPropertyOp29
 70
     1
102
RTVSPropertyOp30
 70
     1
102
RTVSPropertyOp31
 70
     1
102
RTVSPropertyOp32
 70
     1
  0
XRECORD
  5
1CA
102
{ACAD_REACTORS
330
1C9
102
}
330
1C9
100
AcDbXrecord
280
     1
102
RTVSPropertyOp0
 70
     1
102
RTVSPropertyOp1
 70
     1
102
RTVSPropertyOp2
 70
     1
102
RTVSPropertyOp3
 70
     1
102
RTVSPropertyOp4
 70
     1
102
RTVSPropertyOp5
 70
     1
102
RTVSPropertyOp6
 70
     1
102
RTVSPropertyOp7
 70
     1
102
RTVSPropertyOp8
 70
     1
102
RTVSPropertyOp9
 70
     1
102
RTVSPropertyOp10
 70
     1
102
RTVSPropertyOp11
 70
     1
102
RTVSPropertyOp12
 70
     1
102
RTVSPropertyOp13
 70
     1
102
RTVSPropertyOp14
 70
     1
102
RTVSPropertyOp15
 70
     1
102
RTVSPropertyOp16
 70
     1
102
RTVSPropertyOp17
 70
     1
102
RTVSPropertyOp18
 70
     1
102
RTVSPropertyOp19
 70
     1
102
RTVSPropertyOp20
 70
     1
102
RTVSPropertyOp21
 70
     1
102
RTVSPropertyOp22
 70
     1
102
RTVSPropertyOp23
 70
     1
102
RTVSPropertyOp24
 70
     1
102
RTVSPropertyOp25
 70
     1
102
RTVSPropertyOp26
 70
     1
102
RTVSPropertyOp27
 70
     1
102
RTVSPropertyOp28
 70
     1
102
RTVSPropertyOp29
 70
     1
102
RTVSPropertyOp30
 70
     1
102
RTVSPropertyOp31
 70
     1
102
RTVSPropertyOp32
 70
     1
  0
XRECORD
  5
1BE
102
{ACAD_REACTORS
330
1BD
102
}
330
1BD
100
AcDbXrecord
280
     1
102
RTVSPropertyOp0
 70
     1
102
RTVSPropertyOp1
 70
     1
102
RTVSPropertyOp2
 70
     1
102
RTVSPropertyOp3
 70
     1
102
RTVSPropertyOp4
 70
     1
102
RTVSPropertyOp5
 70
     1
102
RTVSPropertyOp6
 70
     1
102
RTVSPropertyOp7
 70
     1
102
RTVSPropertyOp8
 70
     1
102
RTVSPropertyOp9
 70
     1
102
RTVSPropertyOp10
 70
     1
102
RTVSPropertyOp11
 70
     1
102
RTVSPropertyOp12
 70
     1
102
RTVSPropertyOp13
 70
     1
102
RTVSPropertyOp14
 70
     1
102
RTVSPropertyOp15
 70
     1
102
RTVSPropertyOp16
 70
     1
102
RTVSPropertyOp17
 70
     1
102
RTVSPropertyOp18
 70
     1
102
RTVSPropertyOp19
 70
     1
102
RTVSPropertyOp20
 70
     1
102
RTVSPropertyOp21
 70
     1
102
RTVSPropertyOp22
 70
     1
102
RTVSPropertyOp23
 70
     1
102
RTVSPropertyOp24
 70
     1
102
RTVSPropertyOp25
 70
     1
102
RTVSPropertyOp26
 70
     1
102
RTVSPropertyOp27
 70
     1
102
RTVSPropertyOp28
 70
     1
102
RTVSPropertyOp29
 70
     1
102
RTVSPropertyOp30
 70
     1
102
RTVSPropertyOp31
 70
     1
102
RTVSPropertyOp32
 70
     1
  0
XRECORD
  5
1C0
102
{ACAD_REACTORS
330
1BF
102
}
330
1BF
100
AcDbXrecord
280
     1
102
RTVSPropertyOp0
 70
     1
102
RTVSPropertyOp1
 70
     1
102
RTVSPropertyOp2
 70
     1
102
RTVSPropertyOp3
 70
     1
102
RTVSPropertyOp4
 70
     1
102
RTVSPropertyOp5
 70
     1
102
RTVSPropertyOp6
 70
     1
102
RTVSPropertyOp7
 70
     1
102
RTVSPropertyOp8
 70
     1
102
RTVSPropertyOp9
 70
     1
102
RTVSPropertyOp10
 70
     1
102
RTVSPropertyOp11
 70
     1
102
RTVSPropertyOp12
 70
     1
102
RTVSPropertyOp13
 70
     1
102
RTVSPropertyOp14
 70
     1
102
RTVSPropertyOp15
 70
     1
102
RTVSPropertyOp16
 70
     1
102
RTVSPropertyOp17
 70
     1
102
RTVSPropertyOp18
 70
     1
102
RTVSPropertyOp19
 70
     1
102
RTVSPropertyOp20
 70
     1
102
RTVSPropertyOp21
 70
     1
102
RTVSPropertyOp22
 70
     1
102
RTVSPropertyOp23
 70
     1
102
RTVSPropertyOp24
 70
     1
102
RTVSPropertyOp25
 70
     1
102
RTVSPropertyOp26
 70
     1
102
RTVSPropertyOp27
 70
     1
102
RTVSPropertyOp28
 70
     1
102
RTVSPropertyOp29
 70
     1
102
RTVSPropertyOp30
 70
     1
102
RTVSPropertyOp31
 70
     1
102
RTVSPropertyOp32
 70
     1
  0
XRECORD
  5
1C8
102
{ACAD_REACTORS
330
1C7
102
}
330
1C7
100
AcDbXrecord
280
     1
102
RTVSPropertyOp0
 70
     1
102
RTVSPropertyOp1
 70
     1
102
RTVSPropertyOp2
 70
     1
102
RTVSPropertyOp3
 70
     1
102
RTVSPropertyOp4
 70
     1
102
RTVSPropertyOp5
 70
     1
102
RTVSPropertyOp6
 70
     1
102
RTVSPropertyOp7
 70
     1
102
RTVSPropertyOp8
 70
     1
102
RTVSPropertyOp9
 70
     1
102
RTVSPropertyOp10
 70
     1
102
RTVSPropertyOp11
 70
     1
102
RTVSPropertyOp12
 70
     1
102
RTVSPropertyOp13
 70
     1
102
RTVSPropertyOp14
 70
     1
102
RTVSPropertyOp15
 70
     1
102
RTVSPropertyOp16
 70
     1
102
RTVSPropertyOp17
 70
     1
102
RTVSPropertyOp18
 70
     1
102
RTVSPropertyOp19
 70
     1
102
RTVSPropertyOp20
 70
     1
102
RTVSPropertyOp21
 70
     1
102
RTVSPropertyOp22
 70
     1
102
RTVSPropertyOp23
 70
     1
102
RTVSPropertyOp24
 70
     1
102
RTVSPropertyOp25
 70
     1
102
RTVSPropertyOp26
 70
     1
102
RTVSPropertyOp27
 70
     1
102
RTVSPropertyOp28
 70
     1
102
RTVSPropertyOp29
 70
     1
102
RTVSPropertyOp30
 70
     1
102
RTVSPropertyOp31
 70
     1
102
RTVSPropertyOp32
 70
     1
  0
XRECORD
  5
1AC
102
{ACAD_REACTORS
330
1AB
102
}
330
1AB
100
AcDbXrecord
280
     1
102
RTVSPropertyOp0
 70
     1
102
RTVSPropertyOp1
 70
     1
102
RTVSPropertyOp2
 70
     1
102
RTVSPropertyOp3
 70
     1
102
RTVSPropertyOp4
 70
     1
102
RTVSPropertyOp5
 70
     1
102
RTVSPropertyOp6
 70
     1
102
RTVSPropertyOp7
 70
     1
102
RTVSPropertyOp8
 70
     1
102
RTVSPropertyOp9
 70
     1
102
RTVSPropertyOp10
 70
     1
102
RTVSPropertyOp11
 70
     1
102
RTVSPropertyOp12
 70
     1
102
RTVSPropertyOp13
 70
     1
102
RTVSPropertyOp14
 70
     1
102
RTVSPropertyOp15
 70
     1
102
RTVSPropertyOp16
 70
     1
102
RTVSPropertyOp17
 70
     1
102
RTVSPropertyOp18
 70
     1
102
RTVSPropertyOp19
 70
     1
102
RTVSPropertyOp20
 70
     1
102
RTVSPropertyOp21
 70
     1
102
RTVSPropertyOp22
 70
     1
102
RTVSPropertyOp23
 70
     1
102
RTVSPropertyOp24
 70
     1
102
RTVSPropertyOp25
 70
     1
102
RTVSPropertyOp26
 70
     1
102
RTVSPropertyOp27
 70
     1
102
RTVSPropertyOp28
 70
     1
102
RTVSPropertyOp29
 70
     1
102
RTVSPropertyOp30
 70
     1
102
RTVSPropertyOp31
 70
     1
102
RTVSPropertyOp32
 70
     1
  0
XRECORD
  5
1AE
102
{ACAD_REACTORS
330
1AD
102
}
330
1AD
100
AcDbXrecord
280
     1
102
RTVSPropertyOp0
 70
     1
102
RTVSPropertyOp1
 70
     1
102
RTVSPropertyOp2
 70
     1
102
RTVSPropertyOp3
 70
     1
102
RTVSPropertyOp4
 70
     1
102
RTVSPropertyOp5
 70
     1
102
RTVSPropertyOp6
 70
     1
102
RTVSPropertyOp7
 70
     1
102
RTVSPropertyOp8
 70
     1
102
RTVSPropertyOp9
 70
     1
102
RTVSPropertyOp10
 70
     1
102
RTVSPropertyOp11
 70
     1
102
RTVSPropertyOp12
 70
     1
102
RTVSPropertyOp13
 70
     1
102
RTVSPropertyOp14
 70
     1
102
RTVSPropertyOp15
 70
     1
102
RTVSPropertyOp16
 70
     1
102
RTVSPropertyOp17
 70
     1
102
RTVSPropertyOp18
 70
     1
102
RTVSPropertyOp19
 70
     1
102
RTVSPropertyOp20
 70
     1
102
RTVSPropertyOp21
 70
     1
102
RTVSPropertyOp22
 70
     1
102
RTVSPropertyOp23
 70
     1
102
RTVSPropertyOp24
 70
     1
102
RTVSPropertyOp25
 70
     1
102
RTVSPropertyOp26
 70
     1
102
RTVSPropertyOp27
 70
     1
102
RTVSPropertyOp28
 70
     1
102
RTVSPropertyOp29
 70
     1
102
RTVSPropertyOp30
 70
     1
102
RTVSPropertyOp31
 70
     1
102
RTVSPropertyOp32
 70
     1
  0
XRECORD
  5
1B0
102
{ACAD_REACTORS
330
1AF
102
}
330
1AF
100
AcDbXrecord
280
     1
102
RTVSPropertyOp0
 70
     1
102
RTVSPropertyOp1
 70
     1
102
RTVSPropertyOp2
 70
     1
102
RTVSPropertyOp3
 70
     1
102
RTVSPropertyOp4
 70
     1
102
RTVSPropertyOp5
 70
     1
102
RTVSPropertyOp6
 70
     1
102
RTVSPropertyOp7
 70
     1
102
RTVSPropertyOp8
 70
     1
102
RTVSPropertyOp9
 70
     1
102
RTVSPropertyOp10
 70
     1
102
RTVSPropertyOp11
 70
     1
102
RTVSPropertyOp12
 70
     1
102
RTVSPropertyOp13
 70
     1
102
RTVSPropertyOp14
 70
     1
102
RTVSPropertyOp15
 70
     1
102
RTVSPropertyOp16
 70
     1
102
RTVSPropertyOp17
 70
     1
102
RTVSPropertyOp18
 70
     1
102
RTVSPropertyOp19
 70
     1
102
RTVSPropertyOp20
 70
     1
102
RTVSPropertyOp21
 70
     1
102
RTVSPropertyOp22
 70
     1
102
RTVSPropertyOp23
 70
     1
102
RTVSPropertyOp24
 70
     1
102
RTVSPropertyOp25
 70
     1
102
RTVSPropertyOp26
 70
     1
102
RTVSPropertyOp27
 70
     1
102
RTVSPropertyOp28
 70
     1
102
RTVSPropertyOp29
 70
     1
102
RTVSPropertyOp30
 70
     1
102
RTVSPropertyOp31
 70
     1
102
RTVSPropertyOp32
 70
     1
  0
XRECORD
  5
1B2
102
{ACAD_REACTORS
330
1B1
102
}
330
1B1
100
AcDbXrecord
280
     1
102
RTVSPropertyOp0
 70
     1
102
RTVSPropertyOp1
 70
     1
102
RTVSPropertyOp2
 70
     1
102
RTVSPropertyOp3
 70
     1
102
RTVSPropertyOp4
 70
     1
102
RTVSPropertyOp5
 70
     1
102
RTVSPropertyOp6
 70
     1
102
RTVSPropertyOp7
 70
     1
102
RTVSPropertyOp8
 70
     1
102
RTVSPropertyOp9
 70
     1
102
RTVSPropertyOp10
 70
     1
102
RTVSPropertyOp11
 70
     1
102
RTVSPropertyOp12
 70
     1
102
RTVSPropertyOp13
 70
     1
102
RTVSPropertyOp14
 70
     1
102
RTVSPropertyOp15
 70
     1
102
RTVSPropertyOp16
 70
     1
102
RTVSPropertyOp17
 70
     1
102
RTVSPropertyOp18
 70
     1
102
RTVSPropertyOp19
 70
     1
102
RTVSPropertyOp20
 70
     1
102
RTVSPropertyOp21
 70
     1
102
RTVSPropertyOp22
 70
     1
102
RTVSPropertyOp23
 70
     1
102
RTVSPropertyOp24
 70
     1
102
RTVSPropertyOp25
 70
     1
102
RTVSPropertyOp26
 70
     1
102
RTVSPropertyOp27
 70
     1
102
RTVSPropertyOp28
 70
     1
102
RTVSPropertyOp29
 70
     1
102
RTVSPropertyOp30
 70
     1
102
RTVSPropertyOp31
 70
     1
102
RTVSPropertyOp32
 70
     1
  0
XRECORD
  5
1C6
102
{ACAD_REACTORS
330
1C5
102
}
330
1C5
100
AcDbXrecord
280
     1
102
RTVSPropertyOp0
 70
     1
102
RTVSPropertyOp1
 70
     1
102
RTVSPropertyOp2
 70
     1
102
RTVSPropertyOp3
 70
     1
102
RTVSPropertyOp4
 70
     1
102
RTVSPropertyOp5
 70
     1
102
RTVSPropertyOp6
 70
     1
102
RTVSPropertyOp7
 70
     1
102
RTVSPropertyOp8
 70
     1
102
RTVSPropertyOp9
 70
     1
102
RTVSPropertyOp10
 70
     1
102
RTVSPropertyOp11
 70
     1
102
RTVSPropertyOp12
 70
     1
102
RTVSPropertyOp13
 70
     1
102
RTVSPropertyOp14
 70
     1
102
RTVSPropertyOp15
 70
     1
102
RTVSPropertyOp16
 70
     1
102
RTVSPropertyOp17
 70
     1
102
RTVSPropertyOp18
 70
     1
102
RTVSPropertyOp19
 70
     1
102
RTVSPropertyOp20
 70
     1
102
RTVSPropertyOp21
 70
     1
102
RTVSPropertyOp22
 70
     1
102
RTVSPropertyOp23
 70
     1
102
RTVSPropertyOp24
 70
     1
102
RTVSPropertyOp25
 70
     1
102
RTVSPropertyOp26
 70
     1
102
RTVSPropertyOp27
 70
     1
102
RTVSPropertyOp28
 70
     1
102
RTVSPropertyOp29
 70
     1
102
RTVSPropertyOp30
 70
     1
102
RTVSPropertyOp31
 70
     1
102
RTVSPropertyOp32
 70
     1
  0
XRECORD
  5
1BC
102
{ACAD_REACTORS
330
1BB
102
}
330
1BB
100
AcDbXrecord
280
     1
102
RTVSPropertyOp0
 70
     1
102
RTVSPropertyOp1
 70
     1
102
RTVSPropertyOp2
 70
     1
102
RTVSPropertyOp3
 70
     1
102
RTVSPropertyOp4
 70
     1
102
RTVSPropertyOp5
 70
     1
102
RTVSPropertyOp6
 70
     1
102
RTVSPropertyOp7
 70
     1
102
RTVSPropertyOp8
 70
     1
102
RTVSPropertyOp9
 70
     1
102
RTVSPropertyOp10
 70
     1
102
RTVSPropertyOp11
 70
     1
102
RTVSPropertyOp12
 70
     1
102
RTVSPropertyOp13
 70
     1
102
RTVSPropertyOp14
 70
     1
102
RTVSPropertyOp15
 70
     1
102
RTVSPropertyOp16
 70
     1
102
RTVSPropertyOp17
 70
     1
102
RTVSPropertyOp18
 70
     1
102
RTVSPropertyOp19
 70
     1
102
RTVSPropertyOp20
 70
     1
102
RTVSPropertyOp21
 70
     1
102
RTVSPropertyOp22
 70
     1
102
RTVSPropertyOp23
 70
     1
102
RTVSPropertyOp24
 70
     1
102
RTVSPropertyOp25
 70
     1
102
RTVSPropertyOp26
 70
     1
102
RTVSPropertyOp27
 70
     1
102
RTVSPropertyOp28
 70
     1
102
RTVSPropertyOp29
 70
     1
102
RTVSPropertyOp30
 70
     1
102
RTVSPropertyOp31
 70
     1
102
RTVSPropertyOp32
 70
     1
  0
XRECORD
  5
1C4
102
{ACAD_REACTORS
330
1C3
102
}
330
1C3
100
AcDbXrecord
280
     1
102
RTVSPropertyOp0
 70
     1
102
RTVSPropertyOp1
 70
     1
102
RTVSPropertyOp2
 70
     1
102
RTVSPropertyOp3
 70
     1
102
RTVSPropertyOp4
 70
     1
102
RTVSPropertyOp5
 70
     1
102
RTVSPropertyOp6
 70
     1
102
RTVSPropertyOp7
 70
     1
102
RTVSPropertyOp8
 70
     1
102
RTVSPropertyOp9
 70
     1
102
RTVSPropertyOp10
 70
     1
102
RTVSPropertyOp11
 70
     1
102
RTVSPropertyOp12
 70
     1
102
RTVSPropertyOp13
 70
     1
102
RTVSPropertyOp14
 70
     1
102
RTVSPropertyOp15
 70
     1
102
RTVSPropertyOp16
 70
     1
102
RTVSPropertyOp17
 70
     1
102
RTVSPropertyOp18
 70
     1
102
RTVSPropertyOp19
 70
     1
102
RTVSPropertyOp20
 70
     1
102
RTVSPropertyOp21
 70
     1
102
RTVSPropertyOp22
 70
     1
102
RTVSPropertyOp23
 70
     1
102
RTVSPropertyOp24
 70
     1
102
RTVSPropertyOp25
 70
     1
102
RTVSPropertyOp26
 70
     1
102
RTVSPropertyOp27
 70
     1
102
RTVSPropertyOp28
 70
     1
102
RTVSPropertyOp29
 70
     1
102
RTVSPropertyOp30
 70
     1
102
RTVSPropertyOp31
 70
     1
102
RTVSPropertyOp32
 70
     1
  0
ENDSEC
  0
EOF
