  0
SECTION
  2
HEADER
  9
$ACADVER
  1
AC1015
  9
$ACADMAINTVER
 70
     6
  9
$DWGCODEPAGE
  3
ANSI_932
  9
$INSBASE
 10
0.0
 20
0.0
 30
0.0
  9
$EXTMIN
 10
-148.1055915719432
 20
-35.2928392756599
 30
0.0
  9
$EXTMAX
 10
61.89440842805681
 20
261.7071607243403
 30
0.0
  9
$LIMMIN
 10
0.0
 20
0.0
  9
$LIMMAX
 10
12.0
 20
9.0
  9
$ORTHOMODE
 70
     0
  9
$REGENMODE
 70
     1
  9
$FILLMODE
 70
     1
  9
$QTEXTMODE
 70
     0
  9
$MIRRTEXT
 70
     1
  9
$LTSCALE
 40
1.0
  9
$ATTMODE
 70
     1
  9
$TEXTSIZE
 40
0.2
  9
$TRACEWID
 40
0.05
  9
$TEXTSTYLE
  7
Standard
  9
$CLAYER
  8
0
  9
$CELTYPE
  6
ByLayer
  9
$CECOLOR
 62
   256
  9
$CELTSCALE
 40
1.0
  9
$DISPSILH
 70
     0
  9
$DIMSCALE
 40
1.0
  9
$DIMASZ
 40
0.18
  9
$DIMEXO
 40
0.0625
  9
$DIMDLI
 40
0.38
  9
$DIMRND
 40
0.0
  9
$DIMDLE
 40
0.0
  9
$DIMEXE
 40
0.18
  9
$DIMTP
 40
0.0
  9
$DIMTM
 40
0.0
  9
$DIMTXT
 40
0.18
  9
$DIMCEN
 40
0.09
  9
$DIMTSZ
 40
0.0
  9
$DIMTOL
 70
     0
  9
$DIMLIM
 70
     0
  9
$DIMTIH
 70
     1
  9
$DIMTOH
 70
     1
  9
$DIMSE1
 70
     0
  9
$DIMSE2
 70
     0
  9
$DIMTAD
 70
     0
  9
$DIMZIN
 70
     0
  9
$DIMBLK
  1

  9
$DIMASO
 70
     1
  9
$DIMSHO
 70
     1
  9
$DIMPOST
  1

  9
$DIMAPOST
  1

  9
$DIMALT
 70
     0
  9
$DIMALTD
 70
     2
  9
$DIMALTF
 40
25.4
  9
$DIMLFAC
 40
1.0
  9
$DIMTOFL
 70
     0
  9
$DIMTVP
 40
0.0
  9
$DIMTIX
 70
     0
  9
$DIMSOXD
 70
     0
  9
$DIMSAH
 70
     0
  9
$DIMBLK1
  1

  9
$DIMBLK2
  1

  9
$DIMSTYLE
  2
Standard
  9
$DIMCLRD
 70
     0
  9
$DIMCLRE
 70
     0
  9
$DIMCLRT
 70
     0
  9
$DIMTFAC
 40
1.0
  9
$DIMGAP
 40
0.09
  9
$DIMJUST
 70
     0
  9
$DIMSD1
 70
     0
  9
$DIMSD2
 70
     0
  9
$DIMTOLJ
 70
     1
  9
$DIMTZIN
 70
     0
  9
$DIMALTZ
 70
     0
  9
$DIMALTTZ
 70
     0
  9
$DIMUPT
 70
     0
  9
$DIMDEC
 70
     4
  9
$DIMTDEC
 70
     4
  9
$DIMALTU
 70
     2
  9
$DIMALTTD
 70
     2
  9
$DIMTXSTY
  7
Standard
  9
$DIMAUNIT
 70
     0
  9
$DIMADEC
 70
     0
  9
$DIMALTRND
 40
0.0
  9
$DIMAZIN
 70
     0
  9
$DIMDSEP
 70
    46
  9
$DIMATFIT
 70
     3
  9
$DIMFRAC
 70
     0
  9
$DIMLDRBLK
  1

  9
$DIMLUNIT
 70
     2
  9
$DIMLWD
 70
    -2
  9
$DIMLWE
 70
    -2
  9
$DIMTMOVE
 70
     0
  9
$LUNITS
 70
     2
  9
$LUPREC
 70
     4
  9
$SKETCHINC
 40
0.1
  9
$FILLETRAD
 40
0.5
  9
$AUNITS
 70
     0
  9
$AUPREC
 70
     0
  9
$MENU
  1
.
  9
$ELEVATION
 40
0.0
  9
$PELEVATION
 40
0.0
  9
$THICKNESS
 40
0.0
  9
$LIMCHECK
 70
     0
  9
$CHAMFERA
 40
0.5
  9
$CHAMFERB
 40
0.5
  9
$CHAMFERC
 40
1.0
  9
$CHAMFERD
 40
0.0
  9
$SKPOLY
 70
     0
  9
$TDCREATE
 40
2459310.697616412
  9
$TDUCREATE
 40
2459310.322616412
  9
$TDUPDATE
 40
2459310.697618588
  9
$TDUUPDATE
 40
2459310.322618588
  9
$TDINDWG
 40
0.0000000116
  9
$TDUSRTIMER
 40
0.0000000116
  9
$USRTIMER
 70
     1
  9
$ANGBASE
 50
0.0
  9
$ANGDIR
 70
     0
  9
$PDMODE
 70
     0
  9
$PDSIZE
 40
0.0
  9
$PLINEWID
 40
0.0
  9
$SPLFRAME
 70
     0
  9
$SPLINETYPE
 70
     6
  9
$SPLINESEGS
 70
     8
  9
$HANDSEED
  5
1CD
  9
$SURFTAB1
 70
     6
  9
$SURFTAB2
 70
     6
  9
$SURFTYPE
 70
     6
  9
$SURFU
 70
     6
  9
$SURFV
 70
     6
  9
$UCSBASE
  2

  9
$UCSNAME
  2

  9
$UCSORG
 10
0.0
 20
0.0
 30
0.0
  9
$UCSXDIR
 10
1.0
 20
0.0
 30
0.0
  9
$UCSYDIR
 10
0.0
 20
1.0
 30
0.0
  9
$UCSORTHOREF
  2

  9
$UCSORTHOVIEW
 70
     0
  9
$UCSORGTOP
 10
0.0
 20
0.0
 30
0.0
  9
$UCSORGBOTTOM
 10
0.0
 20
0.0
 30
0.0
  9
$UCSORGLEFT
 10
0.0
 20
0.0
 30
0.0
  9
$UCSORGRIGHT
 10
0.0
 20
0.0
 30
0.0
  9
$UCSORGFRONT
 10
0.0
 20
0.0
 30
0.0
  9
$UCSORGBACK
 10
0.0
 20
0.0
 30
0.0
  9
$PUCSBASE
  2

  9
$PUCSNAME
  2

  9
$PUCSORG
 10
0.0
 20
0.0
 30
0.0
  9
$PUCSXDIR
 10
1.0
 20
0.0
 30
0.0
  9
$PUCSYDIR
 10
0.0
 20
1.0
 30
0.0
  9
$PUCSORTHOREF
  2

  9
$PUCSORTHOVIEW
 70
     0
  9
$PUCSORGTOP
 10
0.0
 20
0.0
 30
0.0
  9
$PUCSORGBOTTOM
 10
0.0
 20
0.0
 30
0.0
  9
$PUCSORGLEFT
 10
0.0
 20
0.0
 30
0.0
  9
$PUCSORGRIGHT
 10
0.0
 20
0.0
 30
0.0
  9
$PUCSORGFRONT
 10
0.0
 20
0.0
 30
0.0
  9
$PUCSORGBACK
 10
0.0
 20
0.0
 30
0.0
  9
$USERI1
 70
     0
  9
$USERI2
 70
     0
  9
$USERI3
 70
     0
  9
$USERI4
 70
     0
  9
$USERI5
 70
     0
  9
$USERR1
 40
18.1
  9
$USERR2
 40
0.0
  9
$USERR3
 40
0.0
  9
$USERR4
 40
0.0
  9
$USERR5
 40
0.0
  9
$WORLDVIEW
 70
     1
  9
$SHADEDGE
 70
     3
  9
$SHADEDIF
 70
    70
  9
$TILEMODE
 70
     1
  9
$MAXACTVP
 70
    64
  9
$PINSBASE
 10
0.0
 20
0.0
 30
0.0
  9
$PLIMCHECK
 70
     0
  9
$PEXTMIN
 10
1.00000000000000E+20
 20
1.00000000000000E+20
 30
1.00000000000000E+20
  9
$PEXTMAX
 10
-1.00000000000000E+20
 20
-1.00000000000000E+20
 30
-1.00000000000000E+20
  9
$PLIMMIN
 10
0.0
 20
0.0
  9
$PLIMMAX
 10
12.0
 20
9.0
  9
$UNITMODE
 70
     0
  9
$VISRETAIN
 70
     1
  9
$PLINEGEN
 70
     0
  9
$PSLTSCALE
 70
     1
  9
$TREEDEPTH
 70
  3020
  9
$CMLSTYLE
  2
Standard
  9
$CMLJUST
 70
     0
  9
$CMLSCALE
 40
1.0
  9
$PROXYGRAPHICS
 70
     1
  9
$MEASUREMENT
 70
     1
  9
$CELWEIGHT
370
    -1
  9
$ENDCAPS
280
     0
  9
$JOINSTYLE
280
     0
  9
$LWDISPLAY
290
     0
  9
$INSUNITS
 70
     4
  9
$HYPERLINKBASE
  1

  9
$STYLESHEET
  1

  9
$XEDIT
290
     1
  9
$CEPSNTYPE
380
     0
  9
$PSTYLEMODE
290
     1
  9
$FINGERPRINTGUID
  2
{F1FBB917-F472-4B0F-A5FF-D4248192F7FA}
  9
$VERSIONGUID
  2
{FAEB1C32-E019-11D5-929B-00C0DF256EC4}
  9
$EXTNAMES
290
     1
  9
$PSVPSCALE
 40
0.0
  9
$OLESTARTUP
290
     0
  0
ENDSEC
  0
SECTION
  2
CLASSES
  0
CLASS
  1
ACDBDICTIONARYWDFLT
  2
AcDbDictionaryWithDefault
  3
ObjectDBX Classes
 90
        0
280
     0
281
     0
  0
CLASS
  1
VISUALSTYLE
  2
AcDbVisualStyle
  3
ObjectDBX Classes
 90
     4095
280
     0
281
     0
  0
CLASS
  1
MATERIAL
  2
AcDbMaterial
  3
ObjectDBX Classes
 90
     1153
280
     0
281
     0
  0
CLASS
  1
DICTIONARYVAR
  2
AcDbDictionaryVar
  3
ObjectDBX Classes
 90
        0
280
     0
281
     0
  0
CLASS
  1
ACDBPLACEHOLDER
  2
AcDbPlaceHolder
  3
ObjectDBX Classes
 90
        0
280
     0
281
     0
  0
CLASS
  1
LAYOUT
  2
AcDbLayout
  3
ObjectDBX Classes
 90
        0
280
     0
281
     0
  0
ENDSEC
  0
SECTION
  2
TABLES
  0
TABLE
  2
VPORT
  5
8
330
0
100
AcDbSymbolTable
 70
     1
  0
VPORT
  5
29
330
8
100
AcDbSymbolTableRecord
100
AcDbViewportTableRecord
  2
*Active
 70
     0
 10
0.0
 20
0.0
 11
1.0
 21
1.0
 12
-43.10559157194319
 22
113.2071607243402
 13
0.0
 23
0.0
 14
0.5
 24
0.5
 15
0.5
 25
0.5
 16
0.0
 26
0.0
 36
1.0
 17
0.0
 27
0.0
 37
0.0
 40
326.7000000000003
 41
1.60267857142857
 42
50.0
 43
0.0
 44
0.0
 50
0.0
 51
0.0
 71
     0
 72
   100
 73
     1
 74
     3
 75
     0
 76
     0
 77
     0
 78
     0
281
     0
 65
     1
110
0.0
120
0.0
130
0.0
111
1.0
121
0.0
131
0.0
112
0.0
122
1.0
132
0.0
 79
     0
146
0.0
  0
ENDTAB
  0
TABLE
  2
LTYPE
  5
5
330
0
100
AcDbSymbolTable
 70
     8
  0
LTYPE
  5
14
330
5
100
AcDbSymbolTableRecord
100
AcDbLinetypeTableRecord
  2
ByBlock
 70
     0
  3

 72
    65
 73
     0
 40
0.0
  0
LTYPE
  5
15
330
5
100
AcDbSymbolTableRecord
100
AcDbLinetypeTableRecord
  2
ByLayer
 70
     0
  3

 72
    65
 73
     0
 40
0.0
  0
LTYPE
  5
16
330
5
100
AcDbSymbolTableRecord
100
AcDbLinetypeTableRecord
  2
Continuous
 70
     0
  3
Solid line
 72
    65
 73
     0
 40
0.0
  0
LTYPE
  5
3F
330
5
100
AcDbSymbolTableRecord
100
AcDbLinetypeTableRecord
  2
DASHED
 70
     0
  3
Dashed
 72
    65
 73
     2
 40
15.0
 49
7.0
 74
     0
 49
-8.0
 74
     0
  0
LTYPE
  5
40
330
5
100
AcDbSymbolTableRecord
100
AcDbLinetypeTableRecord
  2
DOTTED
 70
     0
  3
Dotted
 72
    65
 73
     2
 40
1.0
 49
0.0
 74
     0
 49
-1.0
 74
     0
  0
LTYPE
  5
41
330
5
100
AcDbSymbolTableRecord
100
AcDbLinetypeTableRecord
  2
DOT_CENTER
 70
     0
  3
Dot_Center
 72
    65
 73
     4
 40
14.0
 49
12.0
 74
     0
 49
-1.0
 74
     0
 49
0.0
 74
     0
 49
-1.0
 74
     0
  0
LTYPE
  5
42
330
5
100
AcDbSymbolTableRecord
100
AcDbLinetypeTableRecord
  2
LONG_DASHED
 70
     0
  3
Long_Dashed
 72
    65
 73
     2
 40
15.0
 49
10.0
 74
     0
 49
-5.0
 74
     0
  0
LTYPE
  5
43
330
5
100
AcDbSymbolTableRecord
100
AcDbLinetypeTableRecord
  2
DASH_CENTER
 70
     0
  3
Dash_Center
 72
    65
 73
     4
 40
14.0
 49
11.0
 74
     0
 49
-1.0
 74
     0
 49
1.0
 74
     0
 49
-1.0
 74
     0
  0
LTYPE
  5
44
330
5
100
AcDbSymbolTableRecord
100
AcDbLinetypeTableRecord
  2
PHANTOM
 70
     0
  3
Phantom
 72
    65
 73
     6
 40
13.0
 49
10.0
 74
     0
 49
-1.0
 74
     0
 49
0.0
 74
     0
 49
-1.0
 74
     0
 49
0.0
 74
     0
 49
-1.0
 74
     0
  0
LTYPE
  5
45
330
5
100
AcDbSymbolTableRecord
100
AcDbLinetypeTableRecord
  2
CENTER_DASH_DASH
 70
     0
  3
Center_Dash_Dash
 72
    65
 73
     6
 40
14.0
 49
9.0
 74
     0
 49
-1.0
 74
     0
 49
1.0
 74
     0
 49
-1.0
 74
     0
 49
1.0
 74
     0
 49
-1.0
 74
     0
  0
ENDTAB
  0
TABLE
  2
LAYER
  5
2
330
0
100
AcDbSymbolTable
 70
     2
  0
LAYER
  5
10
330
2
100
AcDbSymbolTableRecord
100
AcDbLayerTableRecord
  2
0
 70
     0
 62
     7
  6
Continuous
370
    -3
390
F
  0
LAYER
  5
46
330
2
100
AcDbSymbolTableRecord
100
AcDbLayerTableRecord
  2
1
 70
     0
 62
     7
  6
Continuous
370
    -3
390
F
  0
ENDTAB
  0
TABLE
  2
STYLE
  5
3
330
0
100
AcDbSymbolTable
 70
     3
  0
STYLE
  5
11
330
3
100
AcDbSymbolTableRecord
100
AcDbTextStyleTableRecord
  2
Standard
 70
     0
 40
0.0
 41
1.0
 50
0.0
 71
     0
 42
0.2
  3
txt
  4

  0
STYLE
  5
4F
330
3
100
AcDbSymbolTableRecord
100
AcDbTextStyleTableRecord
  2
CONVERTER_11
 70
     0
 40
0.0
 41
0.9
 50
0.0
 71
     0
 42
0.2
  3
txt.shx
  4

  0
STYLE
  5
51
330
3
100
AcDbSymbolTableRecord
100
AcDbTextStyleTableRecord
  2
CONVERTER_12
 70
     0
 40
0.0
 41
0.89
 50
0.0
 71
     0
 42
0.2
  3
MS Mincho.ttf
  4

1001
ACAD
1000
MS Mincho
1071
    32785
  0
ENDTAB
  0
TABLE
  2
VIEW
  5
6
330
0
100
AcDbSymbolTable
 70
     0
  0
ENDTAB
  0
TABLE
  2
UCS
  5
7
330
0
100
AcDbSymbolTable
 70
     0
  0
ENDTAB
  0
TABLE
  2
APPID
  5
9
330
0
100
AcDbSymbolTable
 70
     1
  0
APPID
  5
12
330
9
100
AcDbSymbolTableRecord
100
AcDbRegAppTableRecord
  2
ACAD
 70
     0
  0
ENDTAB
  0
TABLE
  2
DIMSTYLE
  5
A
330
0
100
AcDbSymbolTable
 70
     7
100
AcDbDimStyleTable
  0
DIMSTYLE
105
27
330
A
100
AcDbSymbolTableRecord
100
AcDbDimStyleTableRecord
  2
Standard
 70
     0
178
     0
340
11
  0
DIMSTYLE
105
169
102
{ACAD_REACTORS
330
16A
102
}
330
A
100
AcDbSymbolTableRecord
100
AcDbDimStyleTableRecord
  2
ME10_DIM_10
 70
     0
 41
3.5
 42
0.0
 44
2.0
 73
     0
 74
     0
 77
     1
 78
     8
140
3.0
147
2.0
172
     1
173
     1
174
     1
175
     1
176
     2
177
     2
271
     2
178
     7
271
     2
340
4F
  0
DIMSTYLE
105
174
102
{ACAD_REACTORS
330
175
102
}
330
A
100
AcDbSymbolTableRecord
100
AcDbDimStyleTableRecord
  2
ME10_DIM_11
 70
     0
 41
3.5
 42
0.0
 44
2.0
 73
     0
 74
     0
 77
     1
 78
     8
140
3.0
147
2.0
172
     1
173
     1
174
     1
175
     1
176
     2
177
     2
271
     2
178
     7
271
     2
340
4F
  0
DIMSTYLE
105
17F
102
{ACAD_REACTORS
330
180
102
}
330
A
100
AcDbSymbolTableRecord
100
AcDbDimStyleTableRecord
  2
ME10_DIM_12
 70
     0
 41
3.5
 42
0.0
 44
2.0
 73
     0
 74
     0
 77
     1
 78
     8
140
3.0
147
2.0
172
     1
173
     1
174
     1
175
     1
176
     2
177
     2
271
     2
178
     7
271
     2
340
4F
  0
DIMSTYLE
105
18A
102
{ACAD_REACTORS
330
18B
102
}
330
A
100
AcDbSymbolTableRecord
100
AcDbDimStyleTableRecord
  2
ME10_DIM_13
 70
     0
 41
3.5
 42
0.0
 44
2.0
 73
     0
 74
     0
 77
     1
 78
     8
140
3.0
147
2.0
172
     1
173
     1
174
     1
175
     1
176
     2
177
     2
271
     2
178
     7
271
     2
340
4F
  0
DIMSTYLE
105
195
102
{ACAD_REACTORS
330
196
102
}
330
A
100
AcDbSymbolTableRecord
100
AcDbDimStyleTableRecord
  2
ME10_DIM_14
 70
     0
 41
3.5
 42
0.0
 44
2.0
 73
     0
 74
     0
 77
     1
 78
     8
140
3.0
147
2.0
172
     1
173
     1
174
     1
175
     1
176
     2
177
     2
271
     2
178
     7
271
     2
340
4F
  0
DIMSTYLE
105
1A0
102
{ACAD_REACTORS
330
1A1
102
}
330
A
100
AcDbSymbolTableRecord
100
AcDbDimStyleTableRecord
  2
ME10_DIM_15
 70
     0
 41
3.5
 42
0.0
 44
2.0
 73
     0
 74
     0
 77
     1
 78
     8
140
3.0
147
2.0
172
     1
173
     1
174
     1
175
     1
176
     2
177
     2
271
     2
178
     7
271
     2
340
4F
  0
ENDTAB
  0
TABLE
  2
BLOCK_RECORD
  5
1
330
0
100
AcDbSymbolTable
 70
     9
  0
BLOCK_RECORD
  5
1F
330
1
100
AcDbSymbolTableRecord
100
AcDbBlockTableRecord
  2
*Model_Space
340
22
  0
BLOCK_RECORD
  5
1B
330
1
100
AcDbSymbolTableRecord
100
AcDbBlockTableRecord
  2
*Paper_Space
340
1E
  0
BLOCK_RECORD
  5
23
330
1
100
AcDbSymbolTableRecord
100
AcDbBlockTableRecord
  2
*Paper_Space0
340
26
  0
BLOCK_RECORD
  5
47
330
1
100
AcDbSymbolTableRecord
100
AcDbBlockTableRecord
  2
PLIST
340
0
102
{BLKREFS
331
4D
102
}
  0
BLOCK_RECORD
  5
4A
330
1
100
AcDbSymbolTableRecord
100
AcDbBlockTableRecord
  2
開示縦HP-A4
340
0
102
{BLKREFS
331
4E
102
}
  0
BLOCK_RECORD
  5
160
330
1
100
AcDbSymbolTableRecord
100
AcDbBlockTableRecord
  2
*D3
340
0
  0
BLOCK_RECORD
  5
16B
330
1
100
AcDbSymbolTableRecord
100
AcDbBlockTableRecord
  2
*D4
340
0
  0
BLOCK_RECORD
  5
176
330
1
100
AcDbSymbolTableRecord
100
AcDbBlockTableRecord
  2
*D5
340
0
  0
BLOCK_RECORD
  5
181
330
1
100
AcDbSymbolTableRecord
100
AcDbBlockTableRecord
  2
*D6
340
0
  0
BLOCK_RECORD
  5
18C
330
1
100
AcDbSymbolTableRecord
100
AcDbBlockTableRecord
  2
*D7
340
0
  0
BLOCK_RECORD
  5
197
330
1
100
AcDbSymbolTableRecord
100
AcDbBlockTableRecord
  2
*D8
340
0
  0
ENDTAB
  0
ENDSEC
  0
SECTION
  2
BLOCKS
  0
BLOCK
  5
20
330
1F
100
AcDbEntity
  8
0
100
AcDbBlockBegin
  2
*Model_Space
 70
     0
 10
0.0
 20
0.0
 30
0.0
  3
*Model_Space
  1

  0
ENDBLK
  5
21
330
1F
100
AcDbEntity
  8
0
100
AcDbBlockEnd
  0
BLOCK
  5
1C
330
1B
100
AcDbEntity
 67
     1
  8
0
100
AcDbBlockBegin
  2
*Paper_Space
 70
     0
 10
0.0
 20
0.0
 30
0.0
  3
*Paper_Space
  1

  0
ENDBLK
  5
1D
330
1B
100
AcDbEntity
 67
     1
  8
0
100
AcDbBlockEnd
  0
BLOCK
  5
24
330
23
100
AcDbEntity
  8
0
100
AcDbBlockBegin
  2
*Paper_Space0
 70
     0
 10
0.0
 20
0.0
 30
0.0
  3
*Paper_Space0
  1

  0
ENDBLK
  5
25
330
23
100
AcDbEntity
  8
0
100
AcDbBlockEnd
  0
BLOCK
  5
48
330
47
100
AcDbEntity
  8
0
100
AcDbBlockBegin
  2
PLIST
 70
     0
 10
-163.2500333516168
 20
-86.96510787551888
 30
0.0
  3
PLIST
  1

  0
MTEXT
  5
50
330
47
100
AcDbEntity
  8
0
 62
     7
100
AcDbMText
 10
-62.10559157194376
 20
-16.46510787551888
 30
0.0
 40
3.5
 41
0.0
 71
     5
 72
     1
  1
T82-1
  7
CONVERTER_11
 73
     1
 44
0.90036014405762
  0
MTEXT
  5
52
330
47
100
AcDbEntity
  8
0
 62
     7
100
AcDbMText
 10
-98.10559157194376
 20
-16.46510787551888
 30
0.0
 40
3.5
 41
0.0
 71
     5
 72
     1
  1
偏心管アダプター
  7
CONVERTER_12
 73
     1
 44
0.68181818181818
  0
MTEXT
  5
53
330
47
100
AcDbEntity
  8
0
 62
     7
100
AcDbMText
 10
-43.10559157194372
 20
-14.46510787551888
 30
0.0
 40
3.0
 41
0.0
 71
     5
 72
     1
  1
1
  7
CONVERTER_11
 73
     1
 44
0.90036014405762
  0
MTEXT
  5
54
330
47
100
AcDbEntity
  8
0
 62
     7
100
AcDbMText
 10
-40.10559157194372
 20
-20.96510787551888
 30
0.0
 40
3.0
 41
0.0
 71
     5
 72
     1
  1
1
  7
CONVERTER_11
 73
     1
 44
0.90036014405762
  0
ENDBLK
  5
49
330
47
100
AcDbEntity
  8
0
100
AcDbBlockEnd
  0
BLOCK
  5
4B
330
4A
100
AcDbEntity
  8
0
100
AcDbBlockBegin
  2
開示縦HP-A4
 70
     0
 10
51.89440842805624
 20
-25.2928392756599
 30
0.0
  3
開示縦HP-A4
  1

  0
LINE
  5
55
330
4A
100
AcDbEntity
  8
0
  6
Continuous
 62
     7
100
AcDbLine
 10
-118.1055915719431
 20
2.7071607243401
 30
0.0
 11
51.89440842805681
 21
2.7071607243401
 31
0.0
  0
LINE
  5
56
102
{ACAD_REACTORS
330
EC
102
}
330
4A
100
AcDbEntity
  8
0
  6
Continuous
 62
     7
100
AcDbLine
 10
38.35440842805673
 20
-16.39283927565991
 30
0.0
 11
38.99440842805683
 21
-16.39283927565991
 31
0.0
  0
LINE
  5
57
102
{ACAD_REACTORS
330
EC
102
}
330
4A
100
AcDbEntity
  8
0
  6
Continuous
 62
     7
100
AcDbLine
 10
38.99440842805683
 20
-16.39283927565991
 30
0.0
 11
38.99440842805683
 21
-13.19283927565991
 31
0.0
  0
LINE
  5
58
102
{ACAD_REACTORS
330
EC
102
}
330
4A
100
AcDbEntity
  8
0
  6
Continuous
 62
     7
100
AcDbLine
 10
38.99440842805683
 20
-13.19283927565991
 30
0.0
 11
38.35440842805673
 21
-13.19283927565991
 31
0.0
  0
LINE
  5
59
102
{ACAD_REACTORS
330
EC
102
}
330
4A
100
AcDbEntity
  8
0
  6
Continuous
 62
     7
100
AcDbLine
 10
38.35440842805673
 20
-13.19283927565991
 30
0.0
 11
38.35440842805673
 21
-16.39283927565991
 31
0.0
  0
LINE
  5
5A
102
{ACAD_REACTORS
330
F2
102
}
330
4A
100
AcDbEntity
  8
0
  6
Continuous
 62
     7
100
AcDbLine
 10
37.60240842805678
 20
-16.39283927565991
 30
0.0
 11
37.60240842805678
 21
-15.91283927565991
 31
0.0
  0
LINE
  5
5B
102
{ACAD_REACTORS
330
F2
102
}
330
4A
100
AcDbEntity
  8
0
  6
Continuous
 62
     7
100
AcDbLine
 10
37.60240842805678
 20
-15.91283927565991
 30
0.0
 11
35.8424084280569
 21
-15.91283927565991
 31
0.0
  0
LINE
  5
5C
102
{ACAD_REACTORS
330
F2
102
}
330
4A
100
AcDbEntity
  8
0
  6
Continuous
 62
     7
100
AcDbLine
 10
35.68240842805682
 20
-15.03283927565991
 30
0.0
 11
35.68240842805682
 21
-15.75283927565991
 31
0.0
  0
LINE
  5
5D
102
{ACAD_REACTORS
330
F2
102
}
330
4A
100
AcDbEntity
  8
0
  6
Continuous
 62
     7
100
AcDbLine
 10
37.60240842805678
 20
-15.03283927565991
 30
0.0
 11
35.68240842805682
 21
-15.03283927565991
 31
0.0
  0
LINE
  5
5E
102
{ACAD_REACTORS
330
F2
102
}
330
4A
100
AcDbEntity
  8
0
  6
Continuous
 62
     7
100
AcDbLine
 10
37.60240842805678
 20
-15.03283927565991
 30
0.0
 11
37.60240842805678
 21
-14.55283927565991
 31
0.0
  0
LINE
  5
5F
102
{ACAD_REACTORS
330
F2
102
}
330
4A
100
AcDbEntity
  8
0
  6
Continuous
 62
     7
100
AcDbLine
 10
37.60240842805678
 20
-14.55283927565991
 30
0.0
 11
35.68240842805682
 21
-14.55283927565991
 31
0.0
  0
LINE
  5
60
102
{ACAD_REACTORS
330
F2
102
}
330
4A
100
AcDbEntity
  8
0
  6
Continuous
 62
     7
100
AcDbLine
 10
35.68240842805682
 20
-13.83283927565991
 30
0.0
 11
35.68240842805682
 21
-14.55283927565991
 31
0.0
  0
LINE
  5
61
102
{ACAD_REACTORS
330
F2
102
}
330
4A
100
AcDbEntity
  8
0
  6
Continuous
 62
     7
100
AcDbLine
 10
37.60240842805678
 20
-13.67283927565991
 30
0.0
 11
35.8424084280569
 21
-13.67283927565991
 31
0.0
  0
LINE
  5
62
102
{ACAD_REACTORS
330
F2
102
}
330
4A
100
AcDbEntity
  8
0
  6
Continuous
 62
     7
100
AcDbLine
 10
37.60240842805678
 20
-13.67283927565991
 30
0.0
 11
37.60240842805678
 21
-13.19283927565991
 31
0.0
  0
LINE
  5
63
102
{ACAD_REACTORS
330
F2
102
}
330
4A
100
AcDbEntity
  8
0
  6
Continuous
 62
     7
100
AcDbLine
 10
37.60240842805678
 20
-13.19283927565991
 30
0.0
 11
35.60240842805678
 21
-13.19283927565991
 31
0.0
  0
LINE
  5
64
102
{ACAD_REACTORS
330
F2
102
}
330
4A
100
AcDbEntity
  8
0
  6
Continuous
 62
     7
100
AcDbLine
 10
35.2024084280568
 20
-15.99283927565991
 30
0.0
 11
35.2024084280568
 21
-13.59283927565991
 31
0.0
  0
LINE
  5
65
102
{ACAD_REACTORS
330
F2
102
}
330
4A
100
AcDbEntity
  8
0
  6
Continuous
 62
     7
100
AcDbLine
 10
37.60240842805678
 20
-16.39283927565991
 30
0.0
 11
35.60240842805678
 21
-16.39283927565991
 31
0.0
  0
LINE
  5
66
102
{ACAD_REACTORS
330
ED
102
}
330
4A
100
AcDbEntity
  8
0
  6
Continuous
 62
     7
100
AcDbLine
 10
32.85040842805694
 20
-15.0728392756599
 30
0.0
 11
34.45040842805673
 21
-15.0728392756599
 31
0.0
  0
LINE
  5
67
102
{ACAD_REACTORS
330
ED
102
}
330
4A
100
AcDbEntity
  8
0
  6
Continuous
 62
     7
100
AcDbLine
 10
34.45040842805673
 20
-15.0728392756599
 30
0.0
 11
34.45040842805673
 21
-14.51283927565992
 31
0.0
  0
LINE
  5
68
102
{ACAD_REACTORS
330
ED
102
}
330
4A
100
AcDbEntity
  8
0
  6
Continuous
 62
     7
100
AcDbLine
 10
34.45040842805673
 20
-14.51283927565992
 30
0.0
 11
32.85040842805694
 21
-14.51283927565992
 31
0.0
  0
LINE
  5
69
102
{ACAD_REACTORS
330
ED
102
}
330
4A
100
AcDbEntity
  8
0
  6
Continuous
 62
     7
100
AcDbLine
 10
32.85040842805694
 20
-14.51283927565992
 30
0.0
 11
32.85040842805694
 21
-15.0728392756599
 31
0.0
  0
LINE
  5
6A
102
{ACAD_REACTORS
330
EE
102
}
330
4A
100
AcDbEntity
  8
0
  6
Continuous
 62
     7
100
AcDbLine
 10
27.0264084280567
 20
-16.39283927565991
 30
0.0
 11
27.0264084280567
 21
-15.75283927565991
 31
0.0
  0
LINE
  5
6B
102
{ACAD_REACTORS
330
EE
102
}
330
4A
100
AcDbEntity
  8
0
  6
Continuous
 62
     7
100
AcDbLine
 10
28.46640842805692
 20
-14.39283927565991
 30
0.0
 11
28.46640842805692
 21
-15.27283927565991
 31
0.0
  0
LINE
  5
6C
102
{ACAD_REACTORS
330
EE
102
}
330
4A
100
AcDbEntity
  8
0
  6
Continuous
 62
     7
100
AcDbLine
 10
28.46640842805692
 20
-16.39283927565991
 30
0.0
 11
28.94640842805683
 21
-16.39283927565991
 31
0.0
  0
LINE
  5
6D
102
{ACAD_REACTORS
330
EE
102
}
330
4A
100
AcDbEntity
  8
0
  6
Continuous
 62
     7
100
AcDbLine
 10
28.94640842805683
 20
-16.39283927565991
 30
0.0
 11
28.94640842805683
 21
-14.39283927565991
 31
0.0
  0
LINE
  5
6E
102
{ACAD_REACTORS
330
EE
102
}
330
4A
100
AcDbEntity
  8
0
  6
Continuous
 62
     7
100
AcDbLine
 10
26.54640842805679
 20
-14.39283927565991
 30
0.0
 11
26.54640842805679
 21
-16.39283927565991
 31
0.0
  0
LINE
  5
6F
102
{ACAD_REACTORS
330
EE
102
}
330
4A
100
AcDbEntity
  8
0
  6
Continuous
 62
     7
100
AcDbLine
 10
26.54640842805679
 20
-16.39283927565991
 30
0.0
 11
27.0264084280567
 21
-16.39283927565991
 31
0.0
  0
LINE
  5
70
102
{ACAD_REACTORS
330
EE
102
}
330
4A
100
AcDbEntity
  8
0
  6
Continuous
 62
     7
100
AcDbLine
 10
27.0264084280567
 20
-15.27283927565991
 30
0.0
 11
28.46640842805692
 21
-15.27283927565991
 31
0.0
  0
LINE
  5
71
102
{ACAD_REACTORS
330
EE
102
}
330
4A
100
AcDbEntity
  8
0
  6
Continuous
 62
     7
100
AcDbLine
 10
27.0264084280567
 20
-15.27283927565991
 30
0.0
 11
27.0264084280567
 21
-14.39283927565991
 31
0.0
  0
LINE
  5
72
102
{ACAD_REACTORS
330
EE
102
}
330
4A
100
AcDbEntity
  8
0
  6
Continuous
 62
     7
100
AcDbLine
 10
27.0264084280567
 20
-15.75283927565991
 30
0.0
 11
28.46640842805692
 21
-15.75283927565991
 31
0.0
  0
LINE
  5
73
102
{ACAD_REACTORS
330
EE
102
}
330
4A
100
AcDbEntity
  8
0
  6
Continuous
 62
     7
100
AcDbLine
 10
28.46640842805692
 20
-15.75283927565991
 30
0.0
 11
28.46640842805692
 21
-16.39283927565991
 31
0.0
  0
LINE
  5
74
102
{ACAD_REACTORS
330
EF
102
}
330
4A
100
AcDbEntity
  8
0
  6
Continuous
 62
     7
100
AcDbLine
 10
25.63440842805682
 20
-13.67283927565991
 30
0.0
 11
25.63440842805682
 21
-13.19283927565991
 31
0.0
  0
LINE
  5
75
102
{ACAD_REACTORS
330
EF
102
}
330
4A
100
AcDbEntity
  8
0
  6
Continuous
 62
     7
100
AcDbLine
 10
25.63440842805682
 20
-13.19283927565991
 30
0.0
 11
24.31440842805682
 21
-13.19283927565991
 31
0.0
  0
LINE
  5
76
102
{ACAD_REACTORS
330
EF
102
}
330
4A
100
AcDbEntity
  8
0
  6
Continuous
 62
     7
100
AcDbLine
 10
24.31440842805682
 20
-15.03283927565991
 30
0.0
 11
24.87440842805682
 21
-15.03283927565991
 31
0.0
  0
LINE
  5
77
102
{ACAD_REACTORS
330
EF
102
}
330
4A
100
AcDbEntity
  8
0
  6
Continuous
 62
     7
100
AcDbLine
 10
24.87440842805682
 20
-15.91283927565991
 30
0.0
 11
23.39440842805681
 21
-15.91283927565991
 31
0.0
  0
LINE
  5
78
102
{ACAD_REACTORS
330
EF
102
}
330
4A
100
AcDbEntity
  8
0
  6
Continuous
 62
     7
100
AcDbLine
 10
23.39440842805681
 20
-15.91283927565991
 30
0.0
 11
23.39440842805681
 21
-16.39283927565991
 31
0.0
  0
LINE
  5
79
102
{ACAD_REACTORS
330
EF
102
}
330
4A
100
AcDbEntity
  8
0
  6
Continuous
 62
     7
100
AcDbLine
 10
23.39440842805681
 20
-16.39283927565991
 30
0.0
 11
24.87440842805682
 21
-16.39283927565991
 31
0.0
  0
LINE
  5
7A
102
{ACAD_REACTORS
330
EF
102
}
330
4A
100
AcDbEntity
  8
0
  6
Continuous
 62
     7
100
AcDbLine
 10
24.87440842805682
 20
-14.55283927565991
 30
0.0
 11
24.31440842805682
 21
-14.55283927565991
 31
0.0
  0
LINE
  5
7B
102
{ACAD_REACTORS
330
EF
102
}
330
4A
100
AcDbEntity
  8
0
  6
Continuous
 62
     7
100
AcDbLine
 10
24.31440842805682
 20
-13.67283927565991
 30
0.0
 11
25.63440842805682
 21
-13.67283927565991
 31
0.0
  0
LINE
  5
7C
102
{ACAD_REACTORS
330
F0
102
}
330
4A
100
AcDbEntity
  8
1
  6
Continuous
 62
     7
100
AcDbLine
 10
31.61840842805702
 20
-15.91283927565991
 30
0.0
 11
30.62234756615783
 21
-13.49030697259501
 31
0.0
  0
LINE
  5
7D
102
{ACAD_REACTORS
330
F0
102
}
330
4A
100
AcDbEntity
  8
1
  6
Continuous
 62
     7
100
AcDbLine
 10
30.17840842805691
 20
-13.67283927565991
 30
0.0
 11
31.17446928995594
 21
-16.09537157872481
 31
0.0
  0
LINE
  5
7E
102
{ACAD_REACTORS
330
F0
102
}
330
4A
100
AcDbEntity
  8
1
  6
Continuous
 62
     7
100
AcDbLine
 10
30.17840842805691
 20
-13.67283927565991
 30
0.0
 11
30.17840842805691
 21
-16.39283927565991
 31
0.0
  0
LINE
  5
7F
102
{ACAD_REACTORS
330
F0
102
}
330
4A
100
AcDbEntity
  8
1
  6
Continuous
 62
     7
100
AcDbLine
 10
30.17840842805691
 20
-16.39283927565991
 30
0.0
 11
29.69840842805684
 21
-16.39283927565991
 31
0.0
  0
LINE
  5
80
102
{ACAD_REACTORS
330
F0
102
}
330
4A
100
AcDbEntity
  8
1
  6
Continuous
 62
     7
100
AcDbLine
 10
29.69840842805684
 20
-16.39283927565991
 30
0.0
 11
29.69840842805684
 21
-13.67283927565991
 31
0.0
  0
LINE
  5
81
102
{ACAD_REACTORS
330
F0
102
}
330
4A
100
AcDbEntity
  8
1
  6
Continuous
 62
     7
100
AcDbLine
 10
31.61840842805702
 20
-15.91283927565991
 30
0.0
 11
31.61840842805702
 21
-13.19283927565991
 31
0.0
  0
LINE
  5
82
102
{ACAD_REACTORS
330
F0
102
}
330
4A
100
AcDbEntity
  8
1
  6
Continuous
 62
     7
100
AcDbLine
 10
31.61840842805702
 20
-13.19283927565991
 30
0.0
 11
32.09840842805693
 21
-13.19283927565991
 31
0.0
  0
LINE
  5
83
102
{ACAD_REACTORS
330
F0
102
}
330
4A
100
AcDbEntity
  8
1
  6
Continuous
 62
     7
100
AcDbLine
 10
32.09840842805693
 20
-13.19283927565991
 30
0.0
 11
32.09840842805693
 21
-15.91283927565991
 31
0.0
  0
LINE
  5
84
102
{ACAD_REACTORS
330
F1
102
}
330
4A
100
AcDbEntity
  8
1
  6
Continuous
 62
     7
100
AcDbLine
 10
18.7599674319095
 20
-16.50454363841931
 30
0.0
 11
19.72512639575422
 21
-14.83283927565991
 31
0.0
  0
LINE
  5
85
102
{ACAD_REACTORS
330
F1
102
}
330
4A
100
AcDbEntity
  8
1
  6
Continuous
 62
     7
100
AcDbLine
 10
19.7944084280569
 20
-14.87283927565992
 30
0.0
 11
19.0292994832829
 21
-16.19804684133371
 31
0.0
  0
LINE
  5
86
102
{ACAD_REACTORS
330
F1
102
}
330
4A
100
AcDbEntity
  8
1
  6
Continuous
 62
     7
100
AcDbLine
 10
19.7944084280569
 20
-14.87283927565992
 30
0.0
 11
20.55951737283073
 21
-16.19804684133371
 31
0.0
  0
LINE
  5
87
102
{ACAD_REACTORS
330
F1
102
}
330
4A
100
AcDbEntity
  8
1
  6
Continuous
 62
     7
100
AcDbLine
 10
19.86369046035952
 20
-14.83283927565991
 30
0.0
 11
20.82884942420424
 21
-16.50454363841931
 31
0.0
  0
LINE
  5
88
102
{ACAD_REACTORS
330
F1
102
}
330
4A
100
AcDbEntity
  8
1
  6
Continuous
 62
     7
100
AcDbLine
 10
19.7944084280569
 20
-14.71283927565991
 30
0.0
 11
20.75956739190161
 21
-13.04113491290051
 31
0.0
  0
LINE
  5
89
102
{ACAD_REACTORS
330
F1
102
}
330
4A
100
AcDbEntity
  8
1
  6
Continuous
 62
     7
100
AcDbLine
 10
19.86369046035952
 20
-14.75283927565991
 30
0.0
 11
20.62879940513363
 21
-13.4276317099861
 31
0.0
  0
LINE
  5
8A
102
{ACAD_REACTORS
330
F1
102
}
330
4A
100
AcDbEntity
  8
1
  6
Continuous
 62
     7
100
AcDbLine
 10
19.86369046035952
 20
-14.75283927565991
 30
0.0
 11
21.39390834990752
 21
-14.75283927565991
 31
0.0
  0
LINE
  5
8B
102
{ACAD_REACTORS
330
F1
102
}
330
4A
100
AcDbEntity
  8
1
  6
Continuous
 62
     7
100
AcDbLine
 10
21.79400838804872
 20
-14.83283927565991
 30
0.0
 11
19.86369046035952
 21
-14.83283927565991
 31
0.0
  0
LINE
  5
8C
102
{ACAD_REACTORS
330
F1
102
}
330
4A
100
AcDbEntity
  8
1
  6
Continuous
 62
     7
100
AcDbLine
 10
19.72512639575422
 20
-14.83283927565991
 30
0.0
 11
17.79480846806501
 21
-14.83283927565991
 31
0.0
  0
LINE
  5
8D
102
{ACAD_REACTORS
330
F1
102
}
330
4A
100
AcDbEntity
  8
1
  6
Continuous
 62
     7
100
AcDbLine
 10
19.72512639575422
 20
-14.75283927565991
 30
0.0
 11
18.19490850620633
 21
-14.75283927565991
 31
0.0
  0
LINE
  5
8E
102
{ACAD_REACTORS
330
F1
102
}
330
4A
100
AcDbEntity
  8
1
  6
Continuous
 62
     7
100
AcDbLine
 10
19.72512639575422
 20
-14.75283927565991
 30
0.0
 11
18.96001745098022
 21
-13.4276317099861
 31
0.0
  0
LINE
  5
8F
102
{ACAD_REACTORS
330
F1
102
}
330
4A
100
AcDbEntity
  8
1
  6
Continuous
 62
     7
100
AcDbLine
 10
18.82924946421213
 20
-13.04113491290051
 30
0.0
 11
19.7944084280569
 21
-14.71283927565991
 31
0.0
  0
LINE
  5
90
102
{ACAD_REACTORS
330
F1
102
}
330
4A
100
AcDbEntity
  8
1
  6
Continuous
 62
     7
100
AcDbLine
 10
17.79480846806501
 20
-14.75283927565991
 30
0.0
 11
18.11488468603943
 21
-14.75283927565991
 31
0.0
  0
LINE
  5
91
102
{ACAD_REACTORS
330
F1
102
}
330
4A
100
AcDbEntity
  8
1
  6
Continuous
 62
     7
100
AcDbLine
 10
18.92000554089674
 20
-13.35832904881382
 30
0.0
 11
18.7599674319095
 21
-13.08113491290051
 31
0.0
  0
LINE
  5
92
102
{ACAD_REACTORS
330
F1
102
}
330
4A
100
AcDbEntity
  8
1
  6
Continuous
 62
     7
100
AcDbLine
 10
18.98928757319959
 20
-16.26734950250601
 30
0.0
 11
18.82924946421213
 21
-16.54454363841932
 31
0.0
  0
LINE
  5
93
102
{ACAD_REACTORS
330
F1
102
}
330
4A
100
AcDbEntity
  8
1
  6
Continuous
 62
     7
100
AcDbLine
 10
20.75956739190161
 20
-16.54454363841932
 30
0.0
 11
20.59952928291409
 21
-16.26734950250601
 31
0.0
  0
LINE
  5
94
102
{ACAD_REACTORS
330
F1
102
}
330
4A
100
AcDbEntity
  8
1
  6
Continuous
 62
     7
100
AcDbLine
 10
21.47393217007431
 20
-14.75283927565991
 30
0.0
 11
21.79400838804872
 21
-14.75283927565991
 31
0.0
  0
LINE
  5
95
102
{ACAD_REACTORS
330
F1
102
}
330
4A
100
AcDbEntity
  8
1
  6
Continuous
 62
     7
100
AcDbLine
 10
20.82884942420424
 20
-13.08113491290051
 30
0.0
 11
20.66881131521689
 21
-13.35832904881382
 31
0.0
  0
LINE
  5
96
330
4A
100
AcDbEntity
  8
1
  6
Continuous
 62
     7
100
AcDbLine
 10
-43.10559157194319
 20
-25.2928392756599
 30
0.0
 11
51.89440842805681
 21
-25.2928392756599
 31
0.0
  0
LINE
  5
97
330
4A
100
AcDbEntity
  8
1
  6
Continuous
 62
     2
100
AcDbLine
 10
-43.10559157194319
 20
-25.2928392756599
 30
0.0
 11
-43.10559157194319
 21
-30.2928392756599
 31
0.0
  0
LINE
  5
98
330
4A
100
AcDbEntity
  8
1
  6
Continuous
 62
     7
100
AcDbLine
 10
-123.1055915719432
 20
109.2071607243402
 30
0.0
 11
-123.1055915719432
 21
237.7071607243403
 31
0.0
  0
LINE
  5
99
330
4A
100
AcDbEntity
  8
1
  6
Continuous
 62
     2
100
AcDbLine
 10
-123.1055915719432
 20
109.2071607243402
 30
0.0
 11
-128.1055915719432
 21
109.2071607243402
 31
0.0
  0
LINE
  5
9A
330
4A
100
AcDbEntity
  8
1
  6
Continuous
 62
     7
100
AcDbLine
 10
51.89440842805681
 20
109.2071607243402
 30
0.0
 11
51.89440842805681
 21
247.7071607243403
 31
0.0
  0
LINE
  5
9B
330
4A
100
AcDbEntity
  8
1
  6
Continuous
 62
     2
100
AcDbLine
 10
51.89440842805681
 20
109.2071607243402
 30
0.0
 11
56.89440842805681
 21
109.2071607243402
 31
0.0
  0
LINE
  5
9C
330
4A
100
AcDbEntity
  8
1
  6
Continuous
 62
     7
100
AcDbLine
 10
-43.10559157194319
 20
247.7071607243403
 30
0.0
 11
-93.10559157194322
 21
247.7071607243403
 31
0.0
  0
LINE
  5
9D
330
4A
100
AcDbEntity
  8
1
  6
Continuous
 62
     2
100
AcDbLine
 10
-43.10559157194319
 20
247.7071607243403
 30
0.0
 11
-43.10559157194319
 21
252.7071607243403
 31
0.0
  0
LINE
  5
9E
330
4A
100
AcDbEntity
  8
1
  6
Continuous
 62
     7
100
AcDbLine
 10
-123.1055915719432
 20
-25.2928392756599
 30
0.0
 11
-123.1055915719432
 21
109.2071607243402
 31
0.0
  0
LINE
  5
9F
330
4A
100
AcDbEntity
  8
1
  6
Continuous
 62
     7
100
AcDbLine
 10
-123.1055915719432
 20
-25.2928392756599
 30
0.0
 11
-43.10559157194319
 21
-25.2928392756599
 31
0.0
  0
LINE
  5
A0
330
4A
100
AcDbEntity
  8
1
  6
Continuous
 62
     7
100
AcDbLine
 10
51.89440842805681
 20
247.7071607243403
 30
0.0
 11
-43.10559157194319
 21
247.7071607243403
 31
0.0
  0
LINE
  5
A1
330
4A
100
AcDbEntity
  8
1
  6
Continuous
 62
     7
100
AcDbLine
 10
51.89440842805681
 20
-25.2928392756599
 30
0.0
 11
51.89440842805681
 21
109.2071607243402
 31
0.0
  0
LINE
  5
A2
330
4A
100
AcDbEntity
  8
1
  6
PHANTOM
 62
     4
100
AcDbLine
 10
61.89440842805681
 20
261.7071607243403
 30
0.0
 11
-148.1055915719432
 21
261.7071607243403
 31
0.0
  0
LINE
  5
A3
330
4A
100
AcDbEntity
  8
1
  6
PHANTOM
 62
     4
100
AcDbLine
 10
61.89440842805681
 20
-35.2928392756599
 30
0.0
 11
61.89440842805681
 21
261.7071607243403
 31
0.0
  0
LINE
  5
A4
330
4A
100
AcDbEntity
  8
1
  6
PHANTOM
 62
     4
100
AcDbLine
 10
-148.1055915719432
 20
261.7071607243403
 30
0.0
 11
-148.1055915719432
 21
-35.2928392756599
 31
0.0
  0
LINE
  5
A5
330
4A
100
AcDbEntity
  8
1
  6
PHANTOM
 62
     4
100
AcDbLine
 10
-148.1055915719432
 20
-35.2928392756599
 30
0.0
 11
61.89440842805681
 21
-35.2928392756599
 31
0.0
  0
LINE
  5
A6
330
4A
100
AcDbEntity
  8
0
  6
Continuous
 62
     7
100
AcDbLine
 10
-123.1055915719432
 20
2.7071607243401
 30
0.0
 11
-118.1055915719431
 21
2.7071607243401
 31
0.0
  0
LINE
  5
A7
330
4A
100
AcDbEntity
  8
0
  6
Continuous
 62
     2
100
AcDbLine
 10
-123.1055915719432
 20
-11.2928392756599
 30
0.0
 11
51.89440842805681
 21
-11.2928392756599
 31
0.0
  0
LINE
  5
A8
330
4A
100
AcDbEntity
  8
0
  6
Continuous
 62
     2
100
AcDbLine
 10
-118.1055915719431
 20
2.7071607243401
 30
0.0
 11
-118.1055915719431
 21
-25.2928392756599
 31
0.0
  0
LINE
  5
A9
330
4A
100
AcDbEntity
  8
0
  6
Continuous
 62
     2
100
AcDbLine
 10
-78.10559157194314
 20
-11.2928392756599
 30
0.0
 11
-78.10559157194314
 21
-25.2928392756599
 31
0.0
  0
LINE
  5
AA
330
4A
100
AcDbEntity
  8
0
  6
Continuous
 62
     2
100
AcDbLine
 10
-73.10559157194314
 20
-25.2928392756599
 30
0.0
 11
-73.10559157194314
 21
-11.2928392756599
 31
0.0
  0
LINE
  5
AB
330
4A
100
AcDbEntity
  8
0
  6
Continuous
 62
     2
100
AcDbLine
 10
-51.10559157194314
 20
-25.2928392756599
 30
0.0
 11
-51.10559157194324
 21
-11.2928392756599
 31
0.0
  0
LINE
  5
AC
330
4A
100
AcDbEntity
  8
0
  6
Continuous
 62
     2
100
AcDbLine
 10
-46.10559157194308
 20
-25.2928392756599
 30
0.0
 11
-46.10559157194308
 21
-11.2928392756599
 31
0.0
  0
LINE
  5
AD
330
4A
100
AcDbEntity
  8
0
  6
Continuous
 62
     2
100
AcDbLine
 10
-38.34336680393159
 20
-15.21826741430862
 30
0.0
 11
-44.58545360478217
 21
-22.92818021563172
 31
0.0
  0
LINE
  5
AE
330
4A
100
AcDbEntity
  8
0
  6
Continuous
 62
     2
100
AcDbLine
 10
-37.10559157194308
 20
-11.2928392756599
 30
0.0
 11
-37.10559157194308
 21
-25.2928392756599
 31
0.0
  0
LINE
  5
AF
330
4A
100
AcDbEntity
  8
0
  6
Continuous
 62
     2
100
AcDbLine
 10
-32.10559157194308
 20
-11.2928392756599
 30
0.0
 11
-32.10559157194308
 21
-25.2928392756599
 31
0.0
  0
LINE
  5
B0
330
4A
100
AcDbEntity
  8
0
  6
Continuous
 62
     2
100
AcDbLine
 10
-24.10559157194308
 20
-25.2928392756599
 30
0.0
 11
-24.10559157194308
 21
-11.2928392756599
 31
0.0
  0
LINE
  5
B1
330
4A
100
AcDbEntity
  8
0
  6
Continuous
 62
     2
100
AcDbLine
 10
-19.10559157194308
 20
-25.2928392756599
 30
0.0
 11
-19.10559157194319
 21
-11.2928392756599
 31
0.0
  0
LINE
  5
B2
330
4A
100
AcDbEntity
  8
0
  6
Continuous
 62
     2
100
AcDbLine
 10
-11.10559157194308
 20
-25.2928392756599
 30
0.0
 11
-11.10559157194308
 21
-11.2928392756599
 31
0.0
  0
LINE
  5
B3
330
4A
100
AcDbEntity
  8
0
  6
Continuous
 62
     2
100
AcDbLine
 10
-6.10559157194308
 20
-25.2928392756599
 30
0.0
 11
-6.10559157194308
 21
-11.2928392756599
 31
0.0
  0
LINE
  5
B4
330
4A
100
AcDbEntity
  8
0
  6
Continuous
 62
     2
100
AcDbLine
 10
1.89440842805681
 20
-25.2928392756599
 30
0.0
 11
1.89440842805681
 21
-11.2928392756599
 31
0.0
  0
LINE
  5
B5
330
4A
100
AcDbEntity
  8
0
  6
Continuous
 62
     2
100
AcDbLine
 10
6.89440842805681
 20
-25.2928392756599
 30
0.0
 11
6.89440842805681
 21
-11.2928392756599
 31
0.0
  0
LINE
  5
B6
330
4A
100
AcDbEntity
  8
0
  6
Continuous
 62
     2
100
AcDbLine
 10
14.89440842805681
 20
-11.2928392756599
 30
0.0
 11
14.89440842805681
 21
-25.2928392756599
 31
0.0
  0
LINE
  5
B7
330
4A
100
AcDbEntity
  8
1
  6
Continuous
 62
     2
100
AcDbLine
 10
-123.1055915719432
 20
237.7071607243403
 30
0.0
 11
-108.1055915719432
 21
237.7071607243403
 31
0.0
  0
LINE
  5
B8
330
4A
100
AcDbEntity
  8
1
  6
Continuous
 62
     7
100
AcDbLine
 10
-123.1055915719432
 20
237.7071607243403
 30
0.0
 11
-123.1055915719432
 21
247.7071607243403
 31
0.0
  0
LINE
  5
B9
330
4A
100
AcDbEntity
  8
1
  6
Continuous
 62
     2
100
AcDbLine
 10
-93.10559157194322
 20
237.7071607243403
 30
0.0
 11
-93.10559157194322
 21
247.7071607243403
 31
0.0
  0
LINE
  5
BA
330
4A
100
AcDbEntity
  8
1
  6
Continuous
 62
     7
100
AcDbLine
 10
-93.10559157194322
 20
247.7071607243403
 30
0.0
 11
-108.1055915719432
 21
247.7071607243403
 31
0.0
  0
LINE
  5
BB
330
4A
100
AcDbEntity
  8
1
  6
Continuous
 62
     2
100
AcDbLine
 10
-108.1055915719432
 20
247.7071607243403
 30
0.0
 11
-108.1055915719432
 21
237.7071607243403
 31
0.0
  0
LINE
  5
BC
330
4A
100
AcDbEntity
  8
1
  6
Continuous
 62
     2
100
AcDbLine
 10
-108.1055915719432
 20
237.7071607243403
 30
0.0
 11
-93.10559157194322
 21
237.7071607243403
 31
0.0
  0
LINE
  5
BD
330
4A
100
AcDbEntity
  8
1
  6
Continuous
 62
     7
100
AcDbLine
 10
-108.1055915719432
 20
247.7071607243403
 30
0.0
 11
-123.1055915719432
 21
247.7071607243403
 31
0.0
  0
ARC
  5
BE
102
{ACAD_REACTORS
330
EE
102
}
330
4A
100
AcDbEntity
  8
0
  6
Continuous
 62
     7
100
AcDbCircle
 10
27.74640842805684
 20
-14.39283927565991
 30
0.0
 40
0.7200000000000806
100
AcDbArc
 50
0.0
 51
180.0
  0
ARC
  5
BF
102
{ACAD_REACTORS
330
EE
102
}
330
4A
100
AcDbEntity
  8
0
  6
Continuous
 62
     7
100
AcDbCircle
 10
27.74640842805684
 20
-14.39283927565991
 30
0.0
 40
1.199999999999992
100
AcDbArc
 50
0.0
 51
180.0
  0
ARC
  5
C0
102
{ACAD_REACTORS
330
EF
102
}
330
4A
100
AcDbEntity
  8
0
  6
Continuous
 62
     7
100
AcDbCircle
 10
24.31440842805682
 20
-14.11283927565991
 30
0.0
 40
0.9199999999999999
100
AcDbArc
 50
90.0
 51
270.0
  0
ARC
  5
C1
102
{ACAD_REACTORS
330
EF
102
}
330
4A
100
AcDbEntity
  8
0
  6
Continuous
 62
     7
100
AcDbCircle
 10
24.87440842805682
 20
-15.47283927565981
 30
0.0
 40
0.4400000000001008
100
AcDbArc
 50
270.0
 51
90.0
  0
ARC
  5
C2
102
{ACAD_REACTORS
330
EF
102
}
330
4A
100
AcDbEntity
  8
0
  6
Continuous
 62
     7
100
AcDbCircle
 10
24.87440842805682
 20
-15.47283927565981
 30
0.0
 40
0.9200000000000994
100
AcDbArc
 50
270.0
 51
90.0
  0
ARC
  5
C3
102
{ACAD_REACTORS
330
EF
102
}
330
4A
100
AcDbEntity
  8
0
  6
Continuous
 62
     7
100
AcDbCircle
 10
24.31440842805682
 20
-14.11283927565991
 30
0.0
 40
0.4399999999999995
100
AcDbArc
 50
90.0
 51
270.0
  0
ARC
  5
C4
102
{ACAD_REACTORS
330
F0
102
}
330
4A
100
AcDbEntity
  8
1
  6
Continuous
 62
     7
100
AcDbCircle
 10
30.17840842805691
 20
-13.67283927565991
 30
0.0
 40
0.479999999999966
100
AcDbArc
 50
22.35075694191177
 51
180.0
  0
ARC
  5
C5
102
{ACAD_REACTORS
330
F0
102
}
330
4A
100
AcDbEntity
  8
1
  6
Continuous
 62
     7
100
AcDbCircle
 10
31.61840842805702
 20
-15.91283927565991
 30
0.0
 40
0.4800000000001092
100
AcDbArc
 50
202.3507569419043
 51
0.0
  0
ARC
  5
C6
102
{ACAD_REACTORS
330
F1
102
}
330
4A
100
AcDbEntity
  8
1
  6
Continuous
 62
     7
100
AcDbCircle
 10
19.7944084280569
 20
-14.7928392756599
 30
0.0
 40
1.600000000000031
100
AcDbArc
 50
241.4325437375635
 51
298.5674562624311
  0
ARC
  5
C7
102
{ACAD_REACTORS
330
F1
102
}
330
4A
100
AcDbEntity
  8
1
  6
Continuous
 62
     7
100
AcDbCircle
 10
19.7944084280569
 20
-14.7928392756599
 30
0.0
 40
1.679999999999982
100
AcDbArc
 50
241.3643141506652
 51
298.6356858493312
  0
ARC
  5
C8
102
{ACAD_REACTORS
330
F1
102
}
330
4A
100
AcDbEntity
  8
1
  6
Continuous
 62
     7
100
AcDbCircle
 10
19.7944084280569
 20
-14.7928392756599
 30
0.0
 40
2.000000000000075
100
AcDbArc
 50
241.1459919983849
 51
298.8540080016136
  0
ARC
  5
C9
102
{ACAD_REACTORS
330
F1
102
}
330
4A
100
AcDbEntity
  8
1
  6
Continuous
 62
     7
100
AcDbCircle
 10
19.7944084280569
 20
-14.7928392756599
 30
0.0
 40
1.999999999999821
100
AcDbArc
 50
1.14599199838837
 51
58.85400800161192
  0
ARC
  5
CA
102
{ACAD_REACTORS
330
F1
102
}
330
4A
100
AcDbEntity
  8
1
  6
Continuous
 62
     7
100
AcDbCircle
 10
19.7944084280569
 20
-14.7928392756599
 30
0.0
 40
1.680000000000047
100
AcDbArc
 50
1.3643141506654
 51
58.6356858493352
  0
ARC
  5
CB
102
{ACAD_REACTORS
330
F1
102
}
330
4A
100
AcDbEntity
  8
1
  6
Continuous
 62
     7
100
AcDbCircle
 10
19.7944084280569
 20
-14.7928392756599
 30
0.0
 40
1.600000000000042
100
AcDbArc
 50
1.43254373756606
 51
58.56745626243109
  0
ARC
  5
CC
102
{ACAD_REACTORS
330
F1
102
}
330
4A
100
AcDbEntity
  8
1
  6
Continuous
 62
     7
100
AcDbCircle
 10
19.7944084280569
 20
-14.7928392756599
 30
0.0
 40
1.999999999999988
100
AcDbArc
 50
121.1459919983896
 51
178.8540080016117
  0
ARC
  5
CD
102
{ACAD_REACTORS
330
F1
102
}
330
4A
100
AcDbEntity
  8
1
  6
Continuous
 62
     7
100
AcDbCircle
 10
19.7944084280569
 20
-14.7928392756599
 30
0.0
 40
1.680000000000005
100
AcDbArc
 50
121.3643141506699
 51
178.6356858493347
  0
ARC
  5
CE
102
{ACAD_REACTORS
330
F1
102
}
330
4A
100
AcDbEntity
  8
1
  6
Continuous
 62
     7
100
AcDbCircle
 10
19.7944084280569
 20
-14.7928392756599
 30
0.0
 40
1.599999999999987
100
AcDbArc
 50
121.4325437375674
 51
178.5674562624339
  0
ARC
  5
CF
102
{ACAD_REACTORS
330
F1
102
}
330
4A
100
AcDbEntity
  8
1
  6
Continuous
 62
     7
100
AcDbCircle
 10
19.7944084280569
 20
-14.7928392756599
 30
0.0
 40
2.000000000000016
100
AcDbArc
 50
61.14599199838604
 51
118.8540080016156
  0
ARC
  5
D0
102
{ACAD_REACTORS
330
F1
102
}
330
4A
100
AcDbEntity
  8
1
  6
Continuous
 62
     7
100
AcDbCircle
 10
19.7944084280569
 20
-14.7928392756599
 30
0.0
 40
1.999999999999893
100
AcDbArc
 50
181.145991998389
 51
238.8540080016108
  0
ARC
  5
D1
102
{ACAD_REACTORS
330
F1
102
}
330
4A
100
AcDbEntity
  8
1
  6
Continuous
 62
     7
100
AcDbCircle
 10
19.7944084280569
 20
-14.7928392756599
 30
0.0
 40
1.999999999999975
100
AcDbArc
 50
301.1459919983877
 51
358.854008001611
  0
CIRCLE
  5
D2
102
{ACAD_REACTORS
330
F1
102
}
330
4A
100
AcDbEntity
  8
1
  6
Continuous
 62
     7
100
AcDbCircle
 10
19.7944084280569
 20
-14.7928392756599
 30
0.0
 40
2.079999999999989
  0
CIRCLE
  5
D3
102
{ACAD_REACTORS
330
F3
102
}
330
4A
100
AcDbEntity
  8
1
  6
Continuous
 62
     7
100
AcDbCircle
 10
19.7944084280569
 20
-14.7928392756599
 30
0.0
 40
2.39999999999999
  0
CIRCLE
  5
D4
102
{ACAD_REACTORS
330
F3
102
}
330
4A
100
AcDbEntity
  8
1
  6
Continuous
 62
     7
100
AcDbCircle
 10
19.7944084280569
 20
-14.7928392756599
 30
0.0
 40
2.47999999999999
  0
ARC
  5
D5
102
{ACAD_REACTORS
330
F2
102
}
330
4A
100
AcDbEntity
  8
1
  6
Continuous
 62
     7
100
AcDbCircle
 10
35.60240842805678
 20
-13.59283927565991
 30
0.0
 40
0.4000000000000004
100
AcDbArc
 50
90.0
 51
180.0
  0
ARC
  5
D6
102
{ACAD_REACTORS
330
F2
102
}
330
4A
100
AcDbEntity
  8
1
  6
Continuous
 62
     7
100
AcDbCircle
 10
35.60240842805678
 20
-15.99283927565991
 30
0.0
 40
0.3999999999999844
100
AcDbArc
 50
180.0
 51
270.0
  0
ARC
  5
D7
102
{ACAD_REACTORS
330
F2
102
}
330
4A
100
AcDbEntity
  8
1
  6
Continuous
 62
     7
100
AcDbCircle
 10
35.8424084280569
 20
-15.75283927565991
 30
0.0
 40
0.1600000000000819
100
AcDbArc
 50
180.0
 51
270.0
  0
ARC
  5
D8
102
{ACAD_REACTORS
330
F2
102
}
330
4A
100
AcDbEntity
  8
1
  6
Continuous
 62
     7
100
AcDbCircle
 10
35.8424084280569
 20
-13.83283927565991
 30
0.0
 40
0.1600000000000001
100
AcDbArc
 50
90.0
 51
180.0
  0
MTEXT
  5
D9
330
4A
100
AcDbEntity
  8
1
 62
     2
100
AcDbMText
 10
-120.6055915719431
 20
-7.7928392756599
 30
0.0
 40
4.0
 41
0.0
 71
     5
 72
     1
  1
考
  7
CONVERTER_12
 73
     1
 44
1.0
  0
MTEXT
  5
DA
330
4A
100
AcDbEntity
  8
1
 62
     2
100
AcDbMText
 10
-120.6055915719431
 20
-0.7928392756599
 30
0.0
 40
4.0
 41
0.0
 71
     5
 72
     1
  1
備
  7
CONVERTER_12
 73
     1
 44
1.0
  0
MTEXT
  5
DB
330
4A
100
AcDbEntity
  8
1
 62
     2
100
AcDbMText
 10
-120.6055915719431
 20
-14.7928392756599
 30
0.0
 40
4.0
 41
0.0
 71
     5
 72
     1
  1
品
  7
CONVERTER_12
 73
     1
 44
1.0
  0
MTEXT
  5
DC
330
4A
100
AcDbEntity
  8
1
 62
     2
100
AcDbMText
 10
-120.6055915719431
 20
-21.7928392756599
 30
0.0
 40
4.0
 41
0.0
 71
     5
 72
     1
  1
名
  7
CONVERTER_12
 73
     1
 44
1.0
  0
MTEXT
  5
DD
330
4A
100
AcDbEntity
  8
1
 62
     2
100
AcDbMText
 10
-75.60559157194314
 20
-14.7928392756599
 30
0.0
 40
4.0
 41
0.0
 71
     5
 72
     1
  1
品
  7
CONVERTER_12
 73
     1
 44
1.0
  0
MTEXT
  5
DE
330
4A
100
AcDbEntity
  8
1
 62
     2
100
AcDbMText
 10
-75.60559157194314
 20
-21.7928392756599
 30
0.0
 40
4.0
 41
0.0
 71
     5
 72
     1
  1
番
  7
CONVERTER_12
 73
     1
 44
1.0
  0
MTEXT
  5
DF
330
4A
100
AcDbEntity
  8
1
 62
     2
100
AcDbMText
 10
-48.60559157194314
 20
-14.7928392756599
 30
0.0
 40
4.0
 41
0.0
 71
     5
 72
     1
  1
尺
  7
CONVERTER_12
 73
     1
 44
1.0
  0
MTEXT
  5
E0
330
4A
100
AcDbEntity
  8
1
 62
     2
100
AcDbMText
 10
-48.60559157194314
 20
-21.7928392756599
 30
0.0
 40
4.0
 41
0.0
 71
     5
 72
     1
  1
度
  7
CONVERTER_12
 73
     1
 44
1.0
  0
MTEXT
  5
E1
330
4A
100
AcDbEntity
  8
1
 62
     2
100
AcDbMText
 10
-34.60559157194308
 20
-14.7928392756599
 30
0.0
 40
4.0
 41
0.0
 71
     5
 72
     1
  1
承
  7
CONVERTER_12
 73
     1
 44
1.0
  0
MTEXT
  5
E2
330
4A
100
AcDbEntity
  8
1
 62
     2
100
AcDbMText
 10
-34.60559157194308
 20
-21.7928392756599
 30
0.0
 40
4.0
 41
0.0
 71
     5
 72
     1
  1
認
  7
CONVERTER_12
 73
     1
 44
1.0
  0
MTEXT
  5
E3
330
4A
100
AcDbEntity
  8
1
 62
     2
100
AcDbMText
 10
-21.60559157194319
 20
-14.7928392756599
 30
0.0
 40
4.0
 41
0.0
 71
     5
 72
     1
  1
検
  7
CONVERTER_12
 73
     1
 44
1.0
  0
MTEXT
  5
E4
330
4A
100
AcDbEntity
  8
1
 62
     2
100
AcDbMText
 10
-21.60559157194319
 20
-21.7928392756599
 30
0.0
 40
4.0
 41
0.0
 71
     5
 72
     1
  1
図
  7
CONVERTER_12
 73
     1
 44
1.0
  0
MTEXT
  5
E5
330
4A
100
AcDbEntity
  8
1
 62
     2
100
AcDbMText
 10
-8.60559157194319
 20
-14.7928392756599
 30
0.0
 40
4.0
 41
0.0
 71
     5
 72
     1
  1
製
  7
CONVERTER_12
 73
     1
 44
1.0
  0
MTEXT
  5
E6
330
4A
100
AcDbEntity
  8
1
 62
     2
100
AcDbMText
 10
-8.60559157194319
 20
-21.7928392756599
 30
0.0
 40
4.0
 41
0.0
 71
     5
 72
     1
  1
図
  7
CONVERTER_12
 73
     1
 44
1.0
  0
MTEXT
  5
E7
330
4A
100
AcDbEntity
  8
1
 62
     2
100
AcDbMText
 10
4.39440842805681
 20
-14.7928392756599
 30
0.0
 40
4.0
 41
0.0
 71
     5
 72
     1
  1
設
  7
CONVERTER_12
 73
     1
 44
1.0
  0
MTEXT
  5
E8
330
4A
100
AcDbEntity
  8
1
 62
     2
100
AcDbMText
 10
4.39440842805681
 20
-21.7928392756599
 30
0.0
 40
4.0
 41
0.0
 71
     5
 72
     1
  1
計
  7
CONVERTER_12
 73
     1
 44
1.0
  0
MTEXT
  5
E9
330
4A
100
AcDbEntity
  8
1
 62
     2
100
AcDbMText
 10
20.75303400195753
 20
-21.7928392756599
 30
0.0
 40
2.5
 41
0.0
 71
     5
 72
     1
  1
株式会社
  7
CONVERTER_12
 73
     1
 44
1.0
  0
MTEXT
  5
EA
330
4A
100
AcDbEntity
  8
1
 62
     2
100
AcDbMText
 10
38.03578285415603
 20
-21.7928392756599
 30
0.0
 40
3.0
 41
0.0
 71
     5
 72
     1
  1
三栄水栓製作所
  7
CONVERTER_12
 73
     1
 44
1.0
  0
MTEXT
  5
EB
330
4A
100
AcDbEntity
  8
1
 62
     2
100
AcDbMText
 10
-115.6055915719432
 20
242.7071607243403
 30
0.0
 40
4.5
 41
0.0
 71
     5
 72
     1
  1
図番
  7
CONVERTER_12
 73
     1
 44
0.54545454545455
  0
HATCH
  5
EC
330
4A
100
AcDbEntity
  8
0
  6
Continuous
 62
     2
100
AcDbHatch
 10
0.0
 20
0.0
 30
0.0
210
0.0
220
0.0
230
1.0
  2
CUSTOM0
 70
     0
 71
     1
 91
        1
 92
        1
 93
        4
 72
     1
 10
38.35440842805673
 20
-13.19283927565991
 11
38.35440842805673
 21
-16.39283927565991
 72
     1
 10
38.35440842805673
 20
-16.39283927565991
 11
38.99440842805683
 21
-16.39283927565991
 72
     1
 10
38.99440842805683
 20
-16.39283927565991
 11
38.99440842805683
 21
-13.19283927565991
 72
     1
 10
38.99440842805683
 20
-13.19283927565991
 11
38.35440842805673
 21
-13.19283927565991
 97
        4
330
57
330
56
330
59
330
58
 75
     1
 76
     2
 52
45.0
 41
0.2
 77
     0
 78
     1
 53
45.0
 43
-531.4265223413784
 44
-2.022523620948164
 45
-0.282842712474619
 46
0.0
 79
     0
 98
        1
 10
0.0
 20
0.0
  0
HATCH
  5
ED
330
4A
100
AcDbEntity
  8
0
  6
Continuous
 62
     2
100
AcDbHatch
 10
0.0
 20
0.0
 30
0.0
210
0.0
220
0.0
230
1.0
  2
CUSTOM1
 70
     0
 71
     1
 91
        1
 92
        1
 93
        4
 72
     1
 10
32.85040842805694
 20
-14.51283927565992
 11
32.85040842805694
 21
-15.0728392756599
 72
     1
 10
32.85040842805694
 20
-15.0728392756599
 11
34.45040842805673
 21
-15.0728392756599
 72
     1
 10
34.45040842805673
 20
-15.0728392756599
 11
34.45040842805673
 21
-14.51283927565992
 72
     1
 10
34.45040842805673
 20
-14.51283927565992
 11
32.85040842805694
 21
-14.51283927565992
 97
        4
330
67
330
66
330
69
330
68
 75
     1
 76
     2
 52
45.0
 41
0.2
 77
     0
 78
     1
 53
45.0
 43
-531.4265223413784
 44
-2.022523620948164
 45
-0.282842712474619
 46
0.0
 79
     0
 98
        1
 10
0.0
 20
0.0
  0
HATCH
  5
EE
330
4A
100
AcDbEntity
  8
0
  6
Continuous
 62
     2
100
AcDbHatch
 10
0.0
 20
0.0
 30
0.0
210
0.0
220
0.0
230
1.0
  2
CUSTOM2
 70
     0
 71
     1
 91
        2
 92
        1
 93
        8
 72
     1
 10
26.54640842805679
 20
-14.39283927565991
 11
26.54640842805679
 21
-16.39283927565991
 72
     1
 10
26.54640842805679
 20
-16.39283927565991
 11
27.0264084280567
 21
-16.39283927565991
 72
     1
 10
27.0264084280567
 20
-16.39283927565991
 11
27.0264084280567
 21
-15.75283927565991
 72
     1
 10
27.0264084280567
 20
-15.75283927565991
 11
28.46640842805692
 21
-15.75283927565991
 72
     1
 10
28.46640842805692
 20
-15.75283927565991
 11
28.46640842805692
 21
-16.39283927565991
 72
     1
 10
28.46640842805692
 20
-16.39283927565991
 11
28.94640842805683
 21
-16.39283927565991
 72
     1
 10
28.94640842805683
 20
-16.39283927565991
 11
28.94640842805683
 21
-14.39283927565991
 72
     2
 10
27.74640842805684
 20
-14.39283927565991
 40
1.199999999999992
 50
0.0
 51
180.0
 73
     1
 97
        8
330
6D
330
6C
330
73
330
72
330
6A
330
6F
330
6E
330
BF
 92
       16
 93
        4
 72
     1
 10
28.46640842805692
 20
-14.39283927565991
 11
28.46640842805692
 21
-15.27283927565991
 72
     1
 10
28.46640842805692
 20
-15.27283927565991
 11
27.0264084280567
 21
-15.27283927565991
 72
     1
 10
27.0264084280567
 20
-15.27283927565991
 11
27.0264084280567
 21
-14.39283927565991
 72
     2
 10
27.74640842805684
 20
-14.39283927565991
 40
0.7200000000000806
 50
180.0
 51
360.0
 73
     0
 97
        4
330
6B
330
70
330
71
330
BE
 75
     1
 76
     2
 52
45.0
 41
0.2
 77
     0
 78
     1
 53
45.0
 43
-531.4265223413784
 44
-2.022523620948164
 45
-0.282842712474619
 46
0.0
 79
     0
 98
        1
 10
0.0
 20
0.0
  0
HATCH
  5
EF
330
4A
100
AcDbEntity
  8
0
  6
Continuous
 62
     2
100
AcDbHatch
 10
0.0
 20
0.0
 30
0.0
210
0.0
220
0.0
230
1.0
  2
CUSTOM3
 70
     0
 71
     1
 91
        1
 92
        1
 93
       12
 72
     1
 10
24.31440842805682
 20
-15.03283927565991
 11
24.87440842805682
 21
-15.03283927565991
 72
     2
 10
24.87440842805682
 20
-15.47283927565981
 40
0.4400000000001008
 50
270.0
 51
450.0
 73
     0
 72
     1
 10
24.87440842805682
 20
-15.91283927565991
 11
23.39440842805681
 21
-15.91283927565991
 72
     1
 10
23.39440842805681
 20
-15.91283927565991
 11
23.39440842805681
 21
-16.39283927565991
 72
     1
 10
23.39440842805681
 20
-16.39283927565991
 11
24.87440842805682
 21
-16.39283927565991
 72
     2
 10
24.87440842805682
 20
-15.47283927565981
 40
0.9200000000000994
 50
270.0
 51
450.0
 73
     1
 72
     1
 10
24.87440842805682
 20
-14.55283927565991
 11
24.31440842805682
 21
-14.55283927565991
 72
     2
 10
24.31440842805682
 20
-14.11283927565991
 40
0.4399999999999995
 50
90.0
 51
270.0
 73
     0
 72
     1
 10
24.31440842805682
 20
-13.67283927565991
 11
25.63440842805682
 21
-13.67283927565991
 72
     1
 10
25.63440842805682
 20
-13.67283927565991
 11
25.63440842805682
 21
-13.19283927565991
 72
     1
 10
25.63440842805682
 20
-13.19283927565991
 11
24.31440842805682
 21
-13.19283927565991
 72
     2
 10
24.31440842805682
 20
-14.11283927565991
 40
0.9199999999999999
 50
90.0
 51
270.0
 73
     1
 97
       12
330
75
330
74
330
7B
330
C3
330
7A
330
C2
330
79
330
78
330
77
330
C1
330
76
330
C0
 75
     1
 76
     2
 52
45.0
 41
0.2
 77
     0
 78
     1
 53
45.0
 43
-531.4265223413784
 44
-2.022523620948164
 45
-0.282842712474619
 46
0.0
 79
     0
 98
        1
 10
0.0
 20
0.0
  0
HATCH
  5
F0
330
4A
100
AcDbEntity
  8
1
  6
Continuous
 62
     2
100
AcDbHatch
 10
0.0
 20
0.0
 30
0.0
210
0.0
220
0.0
230
1.0
  2
CUSTOM4
 70
     0
 71
     1
 91
        1
 92
        1
 93
       10
 72
     1
 10
29.69840842805684
 20
-13.67283927565991
 11
29.69840842805684
 21
-16.39283927565991
 72
     1
 10
29.69840842805684
 20
-16.39283927565991
 11
30.17840842805691
 21
-16.39283927565991
 72
     1
 10
30.17840842805691
 20
-16.39283927565991
 11
30.17840842805691
 21
-13.67283927565991
 72
     1
 10
30.17840842805691
 20
-13.67283927565991
 11
31.17446928995594
 21
-16.09537157872481
 72
     2
 10
31.61840842805702
 20
-15.91283927565991
 40
0.4800000000001092
 50
202.3507569419043
 51
360.0
 73
     1
 72
     1
 10
32.09840842805693
 20
-15.91283927565991
 11
32.09840842805693
 21
-13.19283927565991
 72
     1
 10
32.09840842805693
 20
-13.19283927565991
 11
31.61840842805702
 21
-13.19283927565991
 72
     1
 10
31.61840842805702
 20
-13.19283927565991
 11
31.61840842805702
 21
-15.91283927565991
 72
     1
 10
31.61840842805702
 20
-15.91283927565991
 11
30.62234756615783
 21
-13.49030697259501
 72
     2
 10
30.17840842805691
 20
-13.67283927565991
 40
0.479999999999966
 50
22.35075694191177
 51
180.0
 73
     1
 97
       10
330
7C
330
81
330
82
330
83
330
C5
330
7D
330
7E
330
7F
330
80
330
C4
 75
     1
 76
     2
 52
45.0
 41
0.2
 77
     0
 78
     1
 53
45.0
 43
-531.4265223413784
 44
-2.022523620948164
 45
-0.282842712474619
 46
0.0
 79
     0
 98
        1
 10
0.0
 20
0.0
  0
HATCH
  5
F1
330
4A
100
AcDbEntity
  8
1
  6
Continuous
 62
     2
100
AcDbHatch
 10
0.0
 20
0.0
 30
0.0
210
0.0
220
0.0
230
1.0
  2
CUSTOM5
 70
     0
 71
     1
 91
       10
 92
        1
 93
        1
 72
     2
 10
19.7944084280569
 20
-14.7928392756599
 40
2.079999999999989
 50
0.0
 51
360.0
 73
     1
 97
        1
330
D2
 92
       16
 93
        3
 72
     1
 10
21.79400838804872
 20
-14.83283927565991
 11
19.86369046035952
 21
-14.83283927565991
 72
     1
 10
19.86369046035952
 20
-14.83283927565991
 11
20.82884942420424
 21
-16.50454363841931
 72
     2
 10
19.7944084280569
 20
-14.7928392756599
 40
1.999999999999975
 50
301.1459919983877
 51
358.854008001611
 73
     1
 97
        3
330
87
330
8B
330
D1
 92
       16
 93
        3
 72
     1
 10
18.7599674319095
 20
-16.50454363841931
 11
19.72512639575422
 21
-14.83283927565991
 72
     1
 10
19.72512639575422
 20
-14.83283927565991
 11
17.79480846806501
 21
-14.83283927565991
 72
     2
 10
19.7944084280569
 20
-14.7928392756599
 40
1.999999999999893
 50
181.145991998389
 51
238.8540080016108
 73
     1
 97
        3
330
8C
330
84
330
D0
 92
       16
 93
        3
 72
     1
 10
18.82924946421213
 20
-13.04113491290051
 11
19.7944084280569
 21
-14.71283927565991
 72
     1
 10
19.7944084280569
 20
-14.71283927565991
 11
20.75956739190161
 21
-13.04113491290051
 72
     2
 10
19.7944084280569
 20
-14.7928392756599
 40
2.000000000000016
 50
61.14599199838604
 51
118.8540080016156
 73
     1
 97
        3
330
88
330
8F
330
CF
 92
       16
 93
        3
 72
     1
 10
18.19490850620633
 20
-14.75283927565991
 11
19.72512639575422
 21
-14.75283927565991
 72
     1
 10
19.72512639575422
 20
-14.75283927565991
 11
18.96001745098022
 21
-13.4276317099861
 72
     2
 10
19.7944084280569
 20
-14.7928392756599
 40
1.599999999999987
 50
121.4325437375674
 51
178.5674562624339
 73
     1
 97
        3
330
8E
330
8D
330
CE
 92
       16
 93
        4
 72
     1
 10
17.79480846806501
 20
-14.75283927565991
 11
18.11488468603943
 21
-14.75283927565991
 72
     2
 10
19.7944084280569
 20
-14.7928392756599
 40
1.680000000000005
 50
181.3643141506653
 51
238.6356858493301
 73
     0
 72
     1
 10
18.92000554089674
 20
-13.35832904881382
 11
18.7599674319095
 21
-13.08113491290051
 72
     2
 10
19.7944084280569
 20
-14.7928392756599
 40
1.999999999999988
 50
121.1459919983896
 51
178.8540080016117
 73
     1
 97
        4
330
91
330
CD
330
90
330
CC
 92
       16
 93
        3
 72
     1
 10
20.62879940513363
 20
-13.4276317099861
 11
19.86369046035952
 21
-14.75283927565991
 72
     1
 10
19.86369046035952
 20
-14.75283927565991
 11
21.39390834990752
 21
-14.75283927565991
 72
     2
 10
19.7944084280569
 20
-14.7928392756599
 40
1.600000000000042
 50
1.432543737566058
 51
58.56745626243109
 73
     1
 97
        3
330
8A
330
89
330
CB
 92
       16
 93
        4
 72
     1
 10
20.82884942420424
 20
-13.08113491290051
 11
20.66881131521689
 21
-13.35832904881382
 72
     2
 10
19.7944084280569
 20
-14.7928392756599
 40
1.680000000000047
 50
301.3643141506648
 51
358.6356858493346
 73
     0
 72
     1
 10
21.47393217007431
 20
-14.75283927565991
 11
21.79400838804872
 21
-14.75283927565991
 72
     2
 10
19.7944084280569
 20
-14.7928392756599
 40
1.999999999999821
 50
1.145991998388365
 51
58.85400800161192
 73
     1
 97
        4
330
94
330
CA
330
95
330
C9
 92
       16
 93
        4
 72
     1
 10
18.98928757319959
 20
-16.26734950250601
 11
18.82924946421213
 21
-16.54454363841932
 72
     2
 10
19.7944084280569
 20
-14.7928392756599
 40
2.000000000000075
 50
241.1459919983849
 51
298.8540080016136
 73
     1
 72
     1
 10
20.75956739190161
 20
-16.54454363841932
 11
20.59952928291409
 21
-16.26734950250601
 72
     2
 10
19.7944084280569
 20
-14.7928392756599
 40
1.679999999999982
 50
61.36431415066879
 51
118.6356858493348
 73
     0
 97
        4
330
92
330
C8
330
93
330
C7
 92
       16
 93
        3
 72
     1
 10
20.55951737283073
 20
-16.19804684133371
 11
19.7944084280569
 21
-14.87283927565992
 72
     1
 10
19.7944084280569
 20
-14.87283927565992
 11
19.0292994832829
 21
-16.19804684133371
 72
     2
 10
19.7944084280569
 20
-14.7928392756599
 40
1.600000000000031
 50
241.4325437375635
 51
298.5674562624311
 73
     1
 97
        3
330
85
330
86
330
C6
 75
     1
 76
     2
 52
45.0
 41
0.2
 77
     0
 78
     1
 53
45.0
 43
-531.4265223413784
 44
-2.022523620948164
 45
-0.282842712474619
 46
0.0
 79
     0
 98
        1
 10
0.0
 20
0.0
  0
HATCH
  5
F2
330
4A
100
AcDbEntity
  8
0
  6
Continuous
 62
     2
100
AcDbHatch
 10
0.0
 20
0.0
 30
0.0
210
0.0
220
0.0
230
1.0
  2
CUSTOM6
 70
     0
 71
     1
 91
        1
 92
        1
 93
       16
 72
     2
 10
35.60240842805678
 20
-13.59283927565991
 40
0.4000000000000004
 50
90.0
 51
180.0
 73
     1
 72
     1
 10
35.2024084280568
 20
-13.59283927565991
 11
35.2024084280568
 21
-15.99283927565991
 72
     2
 10
35.60240842805678
 20
-15.99283927565991
 40
0.3999999999999844
 50
180.0
 51
270.0
 73
     1
 72
     1
 10
35.60240842805678
 20
-16.39283927565991
 11
37.60240842805678
 21
-16.39283927565991
 72
     1
 10
37.60240842805678
 20
-16.39283927565991
 11
37.60240842805678
 21
-15.91283927565991
 72
     1
 10
37.60240842805678
 20
-15.91283927565991
 11
35.8424084280569
 21
-15.91283927565991
 72
     2
 10
35.8424084280569
 20
-15.75283927565991
 40
0.1600000000000819
 50
90.0
 51
180.0
 73
     0
 72
     1
 10
35.68240842805682
 20
-15.75283927565991
 11
35.68240842805682
 21
-15.03283927565991
 72
     1
 10
35.68240842805682
 20
-15.03283927565991
 11
37.60240842805678
 21
-15.03283927565991
 72
     1
 10
37.60240842805678
 20
-15.03283927565991
 11
37.60240842805678
 21
-14.55283927565991
 72
     1
 10
37.60240842805678
 20
-14.55283927565991
 11
35.68240842805682
 21
-14.55283927565991
 72
     1
 10
35.68240842805682
 20
-14.55283927565991
 11
35.68240842805682
 21
-13.83283927565991
 72
     2
 10
35.8424084280569
 20
-13.83283927565991
 40
0.1600000000000001
 50
180.0
 51
270.0
 73
     0
 72
     1
 10
35.8424084280569
 20
-13.67283927565991
 11
37.60240842805678
 21
-13.67283927565991
 72
     1
 10
37.60240842805678
 20
-13.67283927565991
 11
37.60240842805678
 21
-13.19283927565991
 72
     1
 10
37.60240842805678
 20
-13.19283927565991
 11
35.60240842805678
 21
-13.19283927565991
 97
       16
330
62
330
61
330
D8
330
60
330
5F
330
5E
330
5D
330
5C
330
D7
330
5B
330
5A
330
65
330
D6
330
64
330
D5
330
63
 75
     1
 76
     2
 52
45.0
 41
0.2
 77
     0
 78
     1
 53
45.0
 43
-531.4265223413784
 44
-2.022523620948164
 45
-0.282842712474619
 46
0.0
 79
     0
 98
        1
 10
0.0
 20
0.0
  0
HATCH
  5
F3
330
4A
100
AcDbEntity
  8
1
  6
Continuous
 62
     2
100
AcDbHatch
 10
0.0
 20
0.0
 30
0.0
210
0.0
220
0.0
230
1.0
  2
CUSTOM7
 70
     0
 71
     1
 91
        2
 92
        1
 93
        1
 72
     2
 10
19.7944084280569
 20
-14.7928392756599
 40
2.47999999999999
 50
0.0
 51
360.0
 73
     1
 97
        1
330
D4
 92
       16
 93
        1
 72
     2
 10
19.7944084280569
 20
-14.7928392756599
 40
2.39999999999999
 50
0.0
 51
360.0
 73
     1
 97
        1
330
D3
 75
     1
 76
     2
 52
45.0
 41
0.2
 77
     0
 78
     1
 53
45.0
 43
-531.4265223413784
 44
-2.022523620948164
 45
-0.282842712474619
 46
0.0
 79
     0
 98
        1
 10
0.0
 20
0.0
  0
ENDBLK
  5
4C
330
4A
100
AcDbEntity
  8
0
100
AcDbBlockEnd
  0
BLOCK
  5
167
330
160
100
AcDbEntity
  8
0
100
AcDbBlockBegin
  2
*D3
 70
     1
 10
0.0
 20
0.0
 30
0.0
  3
*D3
  1

  0
LINE
  5
161
330
160
100
AcDbEntity
  8
0
  6
Continuous
 62
     2
100
AcDbLine
 10
-103.925290065646
 20
61.25578457755137
 30
0.0
 11
-103.925290065646
 21
131.2557845775514
 31
0.0
  0
LINE
  5
162
330
160
100
AcDbEntity
  8
0
  6
Continuous
 62
     2
100
AcDbLine
 10
-76.0
 20
131.2557845775514
 30
0.0
 11
-105.925290065646
 21
131.2557845775514
 31
0.0
  0
LINE
  5
163
330
160
100
AcDbEntity
  8
0
  6
Continuous
 62
     2
100
AcDbLine
 10
-71.75
 20
61.25578457755137
 30
0.0
 11
-105.925290065646
 21
61.25578457755137
 31
0.0
  0
SOLID
  5
164
330
160
100
AcDbEntity
  8
0
 62
     2
100
AcDbTrace
 10
-104.3860738072019
 20
64.75578457755137
 30
0.0
 11
-103.4645063240901
 21
64.75578457755137
 31
0.0
 12
-103.925290065646
 22
61.25578457755137
 32
0.0
 13
-103.925290065646
 23
61.25578457755137
 33
0.0
  0
SOLID
  5
165
330
160
100
AcDbEntity
  8
0
 62
     2
100
AcDbTrace
 10
-103.4645063240901
 20
127.7557845775514
 30
0.0
 11
-104.3860738072019
 21
127.7557845775514
 31
0.0
 12
-103.925290065646
 22
131.2557845775514
 32
0.0
 13
-103.925290065646
 23
131.2557845775514
 33
0.0
  0
MTEXT
  5
166
330
160
100
AcDbEntity
  8
0
 62
     7
100
AcDbMText
 10
-105.925290065646
 20
93.878782422897
 30
0.0
 40
3.0
 41
0.0
 71
     7
 72
     1
  1
70
  7
CONVERTER_11
 11
0.0
 21
1.0
 31
0.0
 73
     1
 44
0.60024009603842
  0
ENDBLK
  5
168
330
160
100
AcDbEntity
  8
0
100
AcDbBlockEnd
  0
BLOCK
  5
172
330
16B
100
AcDbEntity
  8
0
100
AcDbBlockBegin
  2
*D4
 70
     1
 10
0.0
 20
0.0
 30
0.0
  3
*D4
  1

  0
LINE
  5
16C
330
16B
100
AcDbEntity
  8
1
  6
Continuous
 62
     2
100
AcDbLine
 10
-96.02305290293401
 20
101.2557845775513
 30
0.0
 11
-96.02305290293401
 21
131.2557845775513
 31
0.0
  0
LINE
  5
16D
330
16B
100
AcDbEntity
  8
1
  6
Continuous
 62
     2
100
AcDbLine
 10
-76.0
 20
101.2557845775513
 30
0.0
 11
-98.02305290293401
 21
101.2557845775513
 31
0.0
  0
LINE
  5
16E
330
16B
100
AcDbEntity
  8
1
  6
Continuous
 62
     2
100
AcDbLine
 10
-76.0
 20
131.2557845775513
 30
0.0
 11
-98.02305290293401
 21
131.2557845775513
 31
0.0
  0
SOLID
  5
16F
330
16B
100
AcDbEntity
  8
1
 62
     2
100
AcDbTrace
 10
-95.56226916137813
 20
127.7557845775513
 30
0.0
 11
-96.4838366444899
 21
127.7557845775513
 31
0.0
 12
-96.02305290293401
 22
131.2557845775513
 32
0.0
 13
-96.02305290293401
 23
131.2557845775513
 33
0.0
  0
SOLID
  5
170
330
16B
100
AcDbEntity
  8
1
 62
     2
100
AcDbTrace
 10
-96.4838366444899
 20
104.7557845775513
 30
0.0
 11
-95.56226916137813
 21
104.7557845775513
 31
0.0
 12
-96.02305290293401
 22
101.2557845775513
 32
0.0
 13
-96.02305290293401
 23
101.2557845775513
 33
0.0
  0
MTEXT
  5
171
330
16B
100
AcDbEntity
  8
1
 62
     7
100
AcDbMText
 10
-98.02305290293401
 20
115.2948530477502
 30
0.0
 40
3.0
 41
0.0
 71
     7
 72
     1
  1
30
  7
CONVERTER_11
 11
0.0
 21
1.0
 31
0.0
 73
     1
 44
0.60024009603842
  0
ENDBLK
  5
173
330
16B
100
AcDbEntity
  8
0
100
AcDbBlockEnd
  0
BLOCK
  5
17D
330
176
100
AcDbEntity
  8
0
100
AcDbBlockBegin
  2
*D5
 70
     1
 10
0.0
 20
0.0
 30
0.0
  3
*D5
  1

  0
LINE
  5
177
330
176
100
AcDbEntity
  8
1
  6
Continuous
 62
     2
100
AcDbLine
 10
-37.66852590370201
 20
156.886225288832
 30
0.0
 11
-37.66852590370201
 21
182.886225288832
 31
0.0
  0
LINE
  5
178
330
176
100
AcDbEntity
  8
1
  6
Continuous
 62
     2
100
AcDbLine
 10
-55.49444650053487
 20
182.886225288832
 30
0.0
 11
-35.66852590370201
 21
182.886225288832
 31
0.0
  0
LINE
  5
179
330
176
100
AcDbEntity
  8
1
  6
Continuous
 62
     2
100
AcDbLine
 10
-55.49444650053483
 20
156.886225288832
 30
0.0
 11
-35.66852590370201
 21
156.886225288832
 31
0.0
  0
SOLID
  5
17A
330
176
100
AcDbEntity
  8
1
 62
     2
100
AcDbTrace
 10
-37.20774216214613
 20
179.386225288832
 30
0.0
 11
-38.1293096452579
 21
179.386225288832
 31
0.0
 12
-37.66852590370201
 22
182.886225288832
 32
0.0
 13
-37.66852590370201
 23
182.886225288832
 33
0.0
  0
SOLID
  5
17B
330
176
100
AcDbEntity
  8
1
 62
     2
100
AcDbTrace
 10
-38.1293096452579
 20
160.386225288832
 30
0.0
 11
-37.20774216214613
 21
160.386225288832
 31
0.0
 12
-37.66852590370201
 22
156.886225288832
 32
0.0
 13
-37.66852590370201
 23
156.886225288832
 33
0.0
  0
MTEXT
  5
17C
330
176
100
AcDbEntity
  8
1
 62
     7
100
AcDbMText
 10
-39.66852590370201
 20
167.669595771484
 30
0.0
 40
3.0
 41
0.0
 71
     7
 72
     1
  1
26
  7
CONVERTER_11
 11
0.0
 21
1.0
 31
0.0
 73
     1
 44
0.60024009603842
  0
ENDBLK
  5
17E
330
176
100
AcDbEntity
  8
0
100
AcDbBlockEnd
  0
BLOCK
  5
188
330
181
100
AcDbEntity
  8
0
100
AcDbBlockBegin
  2
*D6
 70
     1
 10
0.0
 20
0.0
 30
0.0
  3
*D6
  1

  0
LINE
  5
182
330
181
100
AcDbEntity
  8
1
  6
Continuous
 62
     2
100
AcDbLine
 10
-87.98292295054301
 20
61.25578457755135
 30
0.0
 11
-87.98292295054301
 21
86.25578457755135
 31
0.0
  0
LINE
  5
183
330
181
100
AcDbEntity
  8
1
  6
Continuous
 62
     2
100
AcDbLine
 10
-71.75
 20
61.25578457755135
 30
0.0
 11
-89.98292295054301
 21
61.25578457755135
 31
0.0
  0
LINE
  5
184
330
181
100
AcDbEntity
  8
1
  6
Continuous
 62
     2
100
AcDbLine
 10
-73.25
 20
86.25578457755135
 30
0.0
 11
-89.98292295054301
 21
86.25578457755135
 31
0.0
  0
SOLID
  5
185
330
181
100
AcDbEntity
  8
1
 62
     2
100
AcDbTrace
 10
-87.52213920898713
 20
82.75578457755135
 30
0.0
 11
-88.4437066920989
 21
82.75578457755135
 31
0.0
 12
-87.98292295054301
 22
86.25578457755135
 32
0.0
 13
-87.98292295054301
 23
86.25578457755135
 33
0.0
  0
SOLID
  5
186
330
181
100
AcDbEntity
  8
1
 62
     2
100
AcDbTrace
 10
-88.4437066920989
 20
64.75578457755135
 30
0.0
 11
-87.52213920898713
 21
64.75578457755135
 31
0.0
 12
-87.98292295054301
 22
61.25578457755135
 32
0.0
 13
-87.98292295054301
 23
61.25578457755135
 33
0.0
  0
MTEXT
  5
187
330
181
100
AcDbEntity
  8
1
 62
     7
100
AcDbMText
 10
-89.98292295054301
 20
72.6821643000744
 30
0.0
 40
3.0
 41
0.0
 71
     7
 72
     1
  1
25
  7
CONVERTER_11
 11
0.0
 21
1.0
 31
0.0
 73
     1
 44
0.60024009603842
  0
ENDBLK
  5
189
330
181
100
AcDbEntity
  8
0
100
AcDbBlockEnd
  0
BLOCK
  5
193
330
18C
100
AcDbEntity
  8
0
100
AcDbBlockBegin
  2
*D7
 70
     1
 10
0.0
 20
0.0
 30
0.0
  3
*D7
  1

  0
LINE
  5
18D
330
18C
100
AcDbEntity
  8
1
  6
Continuous
 62
     2
100
AcDbLine
 10
-78.01110699893019
 20
194.081059090545
 30
0.0
 11
-47.9888930010697
 21
194.081059090545
 31
0.0
  0
LINE
  5
18E
330
18C
100
AcDbEntity
  8
1
  6
Continuous
 62
     2
100
AcDbLine
 10
-78.01110699893019
 20
169.886225288832
 30
0.0
 11
-78.01110699893019
 21
196.081059090545
 31
0.0
  0
LINE
  5
18F
330
18C
100
AcDbEntity
  8
1
  6
Continuous
 62
     2
100
AcDbLine
 10
-47.9888930010697
 20
169.886225288832
 30
0.0
 11
-47.9888930010697
 21
196.081059090545
 31
0.0
  0
SOLID
  5
190
330
18C
100
AcDbEntity
  8
1
 62
     2
100
AcDbTrace
 10
-74.51110699893019
 20
194.5418428321009
 30
0.0
 11
-74.51110699893019
 21
193.6202753489891
 31
0.0
 12
-78.01110699893019
 22
194.081059090545
 32
0.0
 13
-78.01110699893019
 23
194.081059090545
 33
0.0
  0
SOLID
  5
191
330
18C
100
AcDbEntity
  8
1
 62
     2
100
AcDbTrace
 10
-51.4888930010697
 20
193.6202753489891
 30
0.0
 11
-51.4888930010697
 21
194.5418428321009
 31
0.0
 12
-47.9888930010697
 22
194.081059090545
 32
0.0
 13
-47.9888930010697
 23
194.081059090545
 33
0.0
  0
MTEXT
  5
192
330
18C
100
AcDbEntity
  8
1
 62
     7
100
AcDbMText
 10
-65.5870918773453
 20
196.081059090545
 30
0.0
 40
3.0
 41
0.0
 71
     7
 72
     1
  1
30
  7
CONVERTER_11
 11
0.9999999999970619
 21
2.424068405545306E-6
 31
0.0
 73
     1
 44
0.60024009603842
  0
ENDBLK
  5
194
330
18C
100
AcDbEntity
  8
0
100
AcDbBlockEnd
  0
BLOCK
  5
19E
330
197
100
AcDbEntity
  8
0
100
AcDbBlockBegin
  2
*D8
 70
     1
 10
0.0
 20
0.0
 30
0.0
  3
*D8
  1

  0
LINE
  5
198
330
197
100
AcDbEntity
  8
0
  6
Continuous
 62
     2
100
AcDbLine
 10
-96.02305290293401
 20
61.25578457755135
 30
0.0
 11
-96.02305290293401
 21
91.25578457755135
 31
0.0
  0
LINE
  5
199
330
197
100
AcDbEntity
  8
0
  6
Continuous
 62
     2
100
AcDbLine
 10
-73.25
 20
91.25578457755135
 30
0.0
 11
-98.02305290293401
 21
91.25578457755135
 31
0.0
  0
LINE
  5
19A
330
197
100
AcDbEntity
  8
0
  6
Continuous
 62
     2
100
AcDbLine
 10
-71.75
 20
61.25578457755135
 30
0.0
 11
-98.02305290293401
 21
61.25578457755135
 31
0.0
  0
SOLID
  5
19B
330
197
100
AcDbEntity
  8
0
 62
     2
100
AcDbTrace
 10
-96.4838366444899
 20
64.75578457755135
 30
0.0
 11
-95.56226916137813
 21
64.75578457755135
 31
0.0
 12
-96.02305290293401
 22
61.25578457755135
 32
0.0
 13
-96.02305290293401
 23
61.25578457755135
 33
0.0
  0
SOLID
  5
19C
330
197
100
AcDbEntity
  8
0
 62
     2
100
AcDbTrace
 10
-95.56226916137813
 20
87.75578457755135
 30
0.0
 11
-96.4838366444899
 21
87.75578457755135
 31
0.0
 12
-96.02305290293401
 22
91.25578457755135
 32
0.0
 13
-96.02305290293401
 23
91.25578457755135
 33
0.0
  0
MTEXT
  5
19D
330
197
100
AcDbEntity
  8
0
 62
     7
100
AcDbMText
 10
-98.02305290293401
 20
75.0685590277855
 30
0.0
 40
3.0
 41
0.0
 71
     7
 72
     1
  1
30
  7
CONVERTER_11
 11
0.0
 21
1.0
 31
0.0
 73
     1
 44
0.60024009603842
  0
ENDBLK
  5
19F
330
197
100
AcDbEntity
  8
0
100
AcDbBlockEnd
  0
ENDSEC
  0
SECTION
  2
ENTITIES
  0
INSERT
  5
4D
330
1F
100
AcDbEntity
  8
0
100
AcDbBlockReference
  2
PLIST
 10
-163.2500333516168
 20
-86.96510787551888
 30
0.0
  0
INSERT
  5
4E
330
1F
100
AcDbEntity
  8
0
100
AcDbBlockReference
  2
開示縦HP-A4
 10
51.89440842805624
 20
-25.2928392756599
 30
0.0
  0
LINE
  5
F4
330
1F
100
AcDbEntity
  8
1
  6
Continuous
 62
     7
100
AcDbLine
 10
19.0
 20
130.2557845775514
 30
0.0
 11
19.0
 21
102.2557845775514
 31
0.0
  0
LINE
  5
F5
330
1F
100
AcDbEntity
  8
1
  6
Continuous
 62
     7
100
AcDbLine
 10
6.0
 20
102.2557845775514
 30
0.0
 11
6.0
 21
101.2557845775514
 31
0.0
  0
LINE
  5
F6
330
1F
100
AcDbEntity
  8
1
  6
Continuous
 62
     7
100
AcDbLine
 10
32.00000000000001
 20
102.2557845775514
 30
0.0
 11
32.0
 21
101.2557845775514
 31
0.0
  0
LINE
  5
F7
330
1F
100
AcDbEntity
  8
1
  6
DASH_CENTER
 62
     2
100
AcDbLine
 10
19.0
 20
102.2557845775514
 30
0.0
 11
19.0
 21
58.25578457755136
 31
0.0
  0
LINE
  5
F8
330
1F
100
AcDbEntity
  8
1
  6
Continuous
 62
     7
100
AcDbLine
 10
32.0
 20
130.2557845775514
 30
0.0
 11
32.00000000000001
 21
102.2557845775514
 31
0.0
  0
LINE
  5
F9
330
1F
100
AcDbEntity
  8
1
  6
Continuous
 62
     7
100
AcDbLine
 10
6.0
 20
130.2557845775514
 30
0.0
 11
6.0
 21
102.2557845775514
 31
0.0
  0
LINE
  5
FA
330
1F
100
AcDbEntity
  8
1
  6
DASH_CENTER
 62
     2
100
AcDbLine
 10
19.0
 20
130.2557845775514
 30
0.0
 11
19.0
 21
102.2557845775514
 31
0.0
  0
LINE
  5
FB
330
1F
100
AcDbEntity
  8
1
  6
Continuous
 62
     7
100
AcDbLine
 10
6.0
 20
131.2557845775514
 30
0.0
 11
6.0
 21
130.2557845775514
 31
0.0
  0
LINE
  5
FC
330
1F
100
AcDbEntity
  8
1
  6
Continuous
 62
     7
100
AcDbLine
 10
32.0
 20
131.2557845775514
 30
0.0
 11
32.0
 21
130.2557845775514
 31
0.0
  0
LINE
  5
FD
330
1F
100
AcDbEntity
  8
1
  6
Continuous
 62
     7
100
AcDbLine
 10
6.22612529417953
 20
101.2557845775514
 30
0.0
 11
31.77387470582048
 21
101.2557845775514
 31
0.0
  0
LINE
  5
FE
330
1F
100
AcDbEntity
  8
1
  6
Continuous
 62
     7
100
AcDbLine
 10
6.22612529417953
 20
91.25578457755135
 30
0.0
 11
6.22612529417953
 21
101.2557845775514
 31
0.0
  0
LINE
  5
FF
330
1F
100
AcDbEntity
  8
1
  6
Continuous
 62
     7
100
AcDbLine
 10
31.77387470582048
 20
101.2557845775514
 30
0.0
 11
32.0
 21
101.2557845775514
 31
0.0
  0
LINE
  5
100
330
1F
100
AcDbEntity
  8
1
  6
Continuous
 62
     7
100
AcDbLine
 10
31.77387470582048
 20
91.25578457755135
 30
0.0
 11
31.77387470582048
 21
101.2557845775514
 31
0.0
  0
LINE
  5
101
330
1F
100
AcDbEntity
  8
1
  6
Continuous
 62
     7
100
AcDbLine
 10
6.0
 20
101.2557845775514
 30
0.0
 11
6.22612529417953
 21
101.2557845775514
 31
0.0
  0
LINE
  5
102
330
1F
100
AcDbEntity
  8
1
  6
Continuous
 62
     7
100
AcDbLine
 10
6.0
 20
131.2557845775514
 30
0.0
 11
32.0
 21
131.2557845775514
 31
0.0
  0
LINE
  5
103
330
1F
100
AcDbEntity
  8
1
  6
Continuous
 62
     7
100
AcDbLine
 10
6.22612529417953
 20
91.25578457755135
 30
0.0
 11
31.77387470582048
 21
91.25578457755135
 31
0.0
  0
LINE
  5
104
330
1F
100
AcDbEntity
  8
1
  6
Continuous
 62
     7
100
AcDbLine
 10
6.5
 20
101.2557845775514
 30
0.0
 11
31.5
 21
101.2557845775514
 31
0.0
  0
LINE
  5
105
330
1F
100
AcDbEntity
  8
1
  6
Continuous
 62
     7
100
AcDbLine
 10
8.75
 20
62.75578457755135
 30
0.0
 11
29.25
 21
62.75578457755135
 31
0.0
  0
LINE
  5
106
330
1F
100
AcDbEntity
  8
1
  6
Continuous
 62
     7
100
AcDbLine
 10
8.75
 20
88.85386078890468
 30
0.0
 11
8.75
 21
91.25578457755135
 31
0.0
  0
LINE
  5
107
330
1F
100
AcDbEntity
  8
1
  6
Continuous
 62
     2
100
AcDbLine
 10
8.75
 20
88.85386078890468
 30
0.0
 11
10.25
 21
86.25578457755135
 31
0.0
  0
LINE
  5
108
330
1F
100
AcDbEntity
  8
1
  6
Continuous
 62
     7
100
AcDbLine
 10
29.25
 20
88.85386078890468
 30
0.0
 11
29.25
 21
86.25578457755135
 31
0.0
  0
LINE
  5
109
330
1F
100
AcDbEntity
  8
1
  6
Continuous
 62
     2
100
AcDbLine
 10
27.75
 20
86.25578457755135
 30
0.0
 11
29.25
 21
88.85386078890468
 31
0.0
  0
LINE
  5
10A
330
1F
100
AcDbEntity
  8
1
  6
Continuous
 62
     7
100
AcDbLine
 10
10.25
 20
86.25578457755135
 30
0.0
 11
27.75
 21
86.25578457755135
 31
0.0
  0
LINE
  5
10B
330
1F
100
AcDbEntity
  8
1
  6
Continuous
 62
     2
100
AcDbLine
 10
10.25
 20
86.25578457755135
 30
0.0
 11
10.25
 21
61.25578457755136
 31
0.0
  0
LINE
  5
10C
330
1F
100
AcDbEntity
  8
1
  6
Continuous
 62
     7
100
AcDbLine
 10
27.75
 20
86.25578457755135
 30
0.0
 11
29.25
 21
86.25578457755135
 31
0.0
  0
LINE
  5
10D
330
1F
100
AcDbEntity
  8
1
  6
Continuous
 62
     2
100
AcDbLine
 10
27.75
 20
61.25578457755136
 30
0.0
 11
27.75
 21
86.25578457755135
 31
0.0
  0
LINE
  5
10E
330
1F
100
AcDbEntity
  8
1
  6
Continuous
 62
     7
100
AcDbLine
 10
10.25
 20
61.25578457755136
 30
0.0
 11
8.75
 21
62.75578457755135
 31
0.0
  0
LINE
  5
10F
330
1F
100
AcDbEntity
  8
1
  6
Continuous
 62
     7
100
AcDbLine
 10
29.25
 20
62.75578457755135
 30
0.0
 11
27.75
 21
61.25578457755136
 31
0.0
  0
LINE
  5
110
330
1F
100
AcDbEntity
  8
1
  6
Continuous
 62
     7
100
AcDbLine
 10
10.25
 20
61.25578457755136
 30
0.0
 11
27.75
 21
61.25578457755136
 31
0.0
  0
LINE
  5
111
330
1F
100
AcDbEntity
  8
1
  6
Continuous
 62
     7
100
AcDbLine
 10
29.25
 20
86.25578457755135
 30
0.0
 11
29.25
 21
62.75578457755135
 31
0.0
  0
LINE
  5
112
330
1F
100
AcDbEntity
  8
1
  6
Continuous
 62
     7
100
AcDbLine
 10
8.75
 20
86.25578457755135
 30
0.0
 11
8.75
 21
88.85386078890468
 31
0.0
  0
LINE
  5
113
330
1F
100
AcDbEntity
  8
1
  6
Continuous
 62
     7
100
AcDbLine
 10
8.75
 20
86.25578457755135
 30
0.0
 11
10.25
 21
86.25578457755135
 31
0.0
  0
LINE
  5
114
330
1F
100
AcDbEntity
  8
1
  6
Continuous
 62
     7
100
AcDbLine
 10
29.25
 20
91.25578457755135
 30
0.0
 11
29.25
 21
88.85386078890468
 31
0.0
  0
LINE
  5
115
330
1F
100
AcDbEntity
  8
1
  6
Continuous
 62
     7
100
AcDbLine
 10
8.75
 20
62.75578457755135
 30
0.0
 11
8.75
 21
86.25578457755135
 31
0.0
  0
LINE
  5
116
330
1F
100
AcDbEntity
  8
1
  6
DASH_CENTER
 62
     2
100
AcDbLine
 10
19.0
 20
134.2557845775514
 30
0.0
 11
19.0
 21
130.2557845775514
 31
0.0
  0
LINE
  5
117
330
1F
100
AcDbEntity
  8
1
  6
DASH_CENTER
 62
     2
100
AcDbLine
 10
-63.0
 20
185.886225288832
 30
0.0
 11
-63.0
 21
153.886225288832
 31
0.0
  0
LINE
  5
118
330
1F
100
AcDbEntity
  8
1
  6
DASH_CENTER
 62
     2
100
AcDbLine
 10
-81.01110699893019
 20
169.886225288832
 30
0.0
 11
-44.9888930010697
 21
169.886225288832
 31
0.0
  0
LINE
  5
119
330
1F
100
AcDbEntity
  8
1
  6
Continuous
 62
     7
100
AcDbLine
 10
-56.9999999999999
 20
169.886225288832
 30
0.0
 11
-60.0
 21
175.0823777115386
 31
0.0
  0
LINE
  5
11A
330
1F
100
AcDbEntity
  8
1
  6
Continuous
 62
     7
100
AcDbLine
 10
-59.9999999999999
 20
164.6900728661253
 30
0.0
 11
-56.9999999999999
 21
169.886225288832
 31
0.0
  0
LINE
  5
11B
330
1F
100
AcDbEntity
  8
1
  6
Continuous
 62
     7
100
AcDbLine
 10
-66.0
 20
164.6900728661253
 30
0.0
 11
-59.9999999999999
 21
164.6900728661253
 31
0.0
  0
LINE
  5
11C
330
1F
100
AcDbEntity
  8
1
  6
Continuous
 62
     7
100
AcDbLine
 10
-69.0
 20
169.886225288832
 30
0.0
 11
-66.0
 21
164.6900728661253
 31
0.0
  0
LINE
  5
11D
330
1F
100
AcDbEntity
  8
1
  6
Continuous
 62
     7
100
AcDbLine
 10
-66.0
 20
175.0823777115386
 30
0.0
 11
-69.0
 21
169.886225288832
 31
0.0
  0
LINE
  5
11E
330
1F
100
AcDbEntity
  8
1
  6
Continuous
 62
     7
100
AcDbLine
 10
-60.0
 20
175.0823777115386
 30
0.0
 11
-66.0
 21
175.0823777115386
 31
0.0
  0
LINE
  5
11F
330
1F
100
AcDbEntity
  8
1
  6
Continuous
 62
     7
100
AcDbLine
 10
-70.5055534994651
 20
130.2557845775514
 30
0.0
 11
-70.5055534994651
 21
102.2557845775514
 31
0.0
  0
LINE
  5
120
330
1F
100
AcDbEntity
  8
1
  6
Continuous
 62
     7
100
AcDbLine
 10
-55.49444650053481
 20
130.2557845775514
 30
0.0
 11
-55.49444650053481
 21
102.2557845775514
 31
0.0
  0
LINE
  5
121
330
1F
100
AcDbEntity
  8
1
  6
Continuous
 62
     7
100
AcDbLine
 10
-78.01110699893019
 20
102.2557845775514
 30
0.0
 11
-78.01110699893019
 21
130.2557845775514
 31
0.0
  0
LINE
  5
122
330
1F
100
AcDbEntity
  8
1
  6
Continuous
 62
     7
100
AcDbLine
 10
-47.9888930010697
 20
130.2557845775514
 30
0.0
 11
-47.9888930010697
 21
102.2557845775514
 31
0.0
  0
LINE
  5
123
330
1F
100
AcDbEntity
  8
1
  6
Continuous
 62
     7
100
AcDbLine
 10
-50.0
 20
101.2557845775514
 30
0.0
 11
-47.9888930010697
 21
102.2557845775514
 31
0.0
  0
LINE
  5
124
330
1F
100
AcDbEntity
  8
1
  6
Continuous
 62
     7
100
AcDbLine
 10
-78.01110699893019
 20
102.2557845775514
 30
0.0
 11
-76.0
 21
101.2557845775514
 31
0.0
  0
LINE
  5
125
330
1F
100
AcDbEntity
  8
1
  6
Continuous
 62
     7
100
AcDbLine
 10
-50.0
 20
131.2557845775514
 30
0.0
 11
-47.9888930010697
 21
130.2557845775514
 31
0.0
  0
LINE
  5
126
330
1F
100
AcDbEntity
  8
1
  6
Continuous
 62
     7
100
AcDbLine
 10
-76.0
 20
131.2557845775514
 30
0.0
 11
-78.01110699893019
 21
130.2557845775514
 31
0.0
  0
LINE
  5
127
330
1F
100
AcDbEntity
  8
1
  6
Continuous
 62
     7
100
AcDbLine
 10
-47.9888930010697
 20
169.886225288832
 30
0.0
 11
-55.49444650053491
 21
182.886225288832
 31
0.0
  0
LINE
  5
128
330
1F
100
AcDbEntity
  8
1
  6
Continuous
 62
     7
100
AcDbLine
 10
-55.49444650053481
 20
156.886225288832
 30
0.0
 11
-47.9888930010697
 21
169.886225288832
 31
0.0
  0
LINE
  5
129
330
1F
100
AcDbEntity
  8
1
  6
Continuous
 62
     7
100
AcDbLine
 10
-70.5055534994651
 20
156.886225288832
 30
0.0
 11
-55.49444650053481
 21
156.886225288832
 31
0.0
  0
LINE
  5
12A
330
1F
100
AcDbEntity
  8
1
  6
Continuous
 62
     7
100
AcDbLine
 10
-78.01110699893019
 20
169.886225288832
 30
0.0
 11
-70.5055534994651
 21
156.886225288832
 31
0.0
  0
LINE
  5
12B
330
1F
100
AcDbEntity
  8
1
  6
Continuous
 62
     7
100
AcDbLine
 10
-70.5055534994651
 20
182.886225288832
 30
0.0
 11
-78.01110699893019
 21
169.886225288832
 31
0.0
  0
LINE
  5
12C
330
1F
100
AcDbEntity
  8
1
  6
Continuous
 62
     7
100
AcDbLine
 10
-55.49444650053491
 20
182.886225288832
 30
0.0
 11
-70.5055534994651
 21
182.886225288832
 31
0.0
  0
LINE
  5
12D
330
1F
100
AcDbEntity
  8
1
  6
Continuous
 62
     7
100
AcDbLine
 10
-76.0
 20
101.2557845775514
 30
0.0
 11
-50.0
 21
101.2557845775514
 31
0.0
  0
LINE
  5
12E
330
1F
100
AcDbEntity
  8
1
  6
Continuous
 62
     7
100
AcDbLine
 10
-76.0
 20
131.2557845775514
 30
0.0
 11
-50.0
 21
131.2557845775514
 31
0.0
  0
LINE
  5
12F
330
1F
100
AcDbEntity
  8
1
  6
Continuous
 62
     7
100
AcDbLine
 10
-75.5
 20
91.25578457755135
 30
0.0
 11
-50.5
 21
91.25578457755135
 31
0.0
  0
LINE
  5
130
330
1F
100
AcDbEntity
  8
1
  6
Continuous
 62
     7
100
AcDbLine
 10
-75.5
 20
101.2557845775514
 30
0.0
 11
-50.5
 21
101.2557845775514
 31
0.0
  0
LINE
  5
131
330
1F
100
AcDbEntity
  8
1
  6
Continuous
 62
     7
100
AcDbLine
 10
-73.25
 20
62.75578457755135
 30
0.0
 11
-52.75
 21
62.75578457755135
 31
0.0
  0
LINE
  5
132
330
1F
100
AcDbEntity
  8
1
  6
Continuous
 62
     7
100
AcDbLine
 10
-73.25
 20
88.85386078890468
 30
0.0
 11
-73.25
 21
91.25578457755135
 31
0.0
  0
LINE
  5
133
330
1F
100
AcDbEntity
  8
1
  6
Continuous
 62
     2
100
AcDbLine
 10
-73.25
 20
88.85386078890468
 30
0.0
 11
-71.75
 21
86.25578457755135
 31
0.0
  0
LINE
  5
134
330
1F
100
AcDbEntity
  8
1
  6
Continuous
 62
     7
100
AcDbLine
 10
-52.75
 20
88.85386078890468
 30
0.0
 11
-52.75
 21
86.25578457755135
 31
0.0
  0
LINE
  5
135
330
1F
100
AcDbEntity
  8
1
  6
Continuous
 62
     2
100
AcDbLine
 10
-54.25
 20
86.25578457755135
 30
0.0
 11
-52.75
 21
88.85386078890468
 31
0.0
  0
LINE
  5
136
330
1F
100
AcDbEntity
  8
1
  6
Continuous
 62
     7
100
AcDbLine
 10
-71.75
 20
86.25578457755135
 30
0.0
 11
-54.25
 21
86.25578457755135
 31
0.0
  0
LINE
  5
137
330
1F
100
AcDbEntity
  8
1
  6
Continuous
 62
     2
100
AcDbLine
 10
-71.75
 20
86.25578457755135
 30
0.0
 11
-71.75
 21
61.25578457755136
 31
0.0
  0
LINE
  5
138
330
1F
100
AcDbEntity
  8
1
  6
Continuous
 62
     7
100
AcDbLine
 10
-54.25
 20
86.25578457755135
 30
0.0
 11
-52.75
 21
86.25578457755135
 31
0.0
  0
LINE
  5
139
330
1F
100
AcDbEntity
  8
1
  6
Continuous
 62
     2
100
AcDbLine
 10
-54.25
 20
61.25578457755136
 30
0.0
 11
-54.25
 21
86.25578457755135
 31
0.0
  0
LINE
  5
13A
330
1F
100
AcDbEntity
  8
1
  6
Continuous
 62
     7
100
AcDbLine
 10
-71.75
 20
61.25578457755136
 30
0.0
 11
-73.25
 21
62.75578457755135
 31
0.0
  0
LINE
  5
13B
330
1F
100
AcDbEntity
  8
1
  6
Continuous
 62
     7
100
AcDbLine
 10
-52.75
 20
62.75578457755135
 30
0.0
 11
-54.25
 21
61.25578457755136
 31
0.0
  0
LINE
  5
13C
330
1F
100
AcDbEntity
  8
1
  6
Continuous
 62
     7
100
AcDbLine
 10
-71.75
 20
61.25578457755136
 30
0.0
 11
-54.25
 21
61.25578457755136
 31
0.0
  0
LINE
  5
13D
330
1F
100
AcDbEntity
  8
1
  6
Continuous
 62
     7
100
AcDbLine
 10
-52.75
 20
86.25578457755135
 30
0.0
 11
-52.75
 21
62.75578457755135
 31
0.0
  0
LINE
  5
13E
330
1F
100
AcDbEntity
  8
1
  6
Continuous
 62
     7
100
AcDbLine
 10
-73.25
 20
86.25578457755135
 30
0.0
 11
-73.25
 21
88.85386078890468
 31
0.0
  0
LINE
  5
13F
330
1F
100
AcDbEntity
  8
1
  6
Continuous
 62
     7
100
AcDbLine
 10
-73.25
 20
86.25578457755135
 30
0.0
 11
-71.75
 21
86.25578457755135
 31
0.0
  0
LINE
  5
140
330
1F
100
AcDbEntity
  8
1
  6
Continuous
 62
     7
100
AcDbLine
 10
-52.75
 20
91.25578457755135
 30
0.0
 11
-52.75
 21
88.85386078890468
 31
0.0
  0
LINE
  5
141
330
1F
100
AcDbEntity
  8
1
  6
Continuous
 62
     7
100
AcDbLine
 10
-73.25
 20
62.75578457755135
 30
0.0
 11
-73.25
 21
86.25578457755135
 31
0.0
  0
LINE
  5
142
330
1F
100
AcDbEntity
  8
1
  6
DASH_CENTER
 62
     2
100
AcDbLine
 10
-63.0
 20
134.2557845775514
 30
0.0
 11
-63.0
 21
58.25578457755136
 31
0.0
  0
ARC
  5
143
330
1F
100
AcDbEntity
  8
1
  6
Continuous
 62
     7
100
AcDbCircle
 10
12.5
 20
122.8743929964678
 30
0.0
 40
21.61890406872214
100
AcDbArc
 50
252.5025838722632
 51
287.4974161277368
  0
ARC
  5
144
330
1F
100
AcDbEntity
  8
1
  6
Continuous
 62
     7
100
AcDbCircle
 10
25.50000000000001
 20
122.8807845775511
 30
0.0
 40
21.62499999999972
100
AcDbArc
 50
252.5076754748893
 51
287.4923245251107
  0
ARC
  5
145
330
1F
100
AcDbEntity
  8
1
  6
Continuous
 62
     7
100
AcDbCircle
 10
25.5
 20
109.6307845775514
 30
0.0
 40
21.625
100
AcDbArc
 50
72.5076754748896
 51
107.4923245251104
  0
ARC
  5
146
330
1F
100
AcDbEntity
  8
1
  6
Continuous
 62
     7
100
AcDbCircle
 10
12.5
 20
109.6307845775514
 30
0.0
 40
21.625
100
AcDbArc
 50
72.5076754748896
 51
107.4923245251104
  0
ARC
  5
147
330
1F
100
AcDbEntity
  8
1
  6
Continuous
 62
     7
100
AcDbCircle
 10
-51.7416697508023
 20
108.7974512442193
 30
0.0
 40
7.541666666667716
100
AcDbArc
 50
240.1582758353207
 51
299.8417241646799
  0
ARC
  5
148
330
1F
100
AcDbEntity
  8
1
  6
Continuous
 62
     7
100
AcDbCircle
 10
-63.0
 20
129.9224512442182
 30
0.0
 40
28.66666666666678
100
AcDbArc
 50
254.8218210620503
 51
285.1781789379499
  0
ARC
  5
149
330
1F
100
AcDbEntity
  8
1
  6
Continuous
 62
     7
100
AcDbCircle
 10
-74.25833024919771
 20
108.7974512442174
 30
0.0
 40
7.541666666666046
100
AcDbArc
 50
240.1582758353137
 51
299.8417241646872
  0
ARC
  5
14A
330
1F
100
AcDbEntity
  8
1
  6
Continuous
 62
     7
100
AcDbCircle
 10
-51.7416697508023
 20
123.7141179108817
 30
0.0
 40
7.541666666669315
100
AcDbArc
 50
60.15827583532683
 51
119.8417241646726
  0
ARC
  5
14B
330
1F
100
AcDbEntity
  8
1
  6
Continuous
 62
     7
100
AcDbCircle
 10
-63.0
 20
102.5891179108845
 30
0.0
 40
28.66666666666691
100
AcDbArc
 50
74.82182106205013
 51
105.1781789379497
  0
ARC
  5
14C
330
1F
100
AcDbEntity
  8
1
  6
Continuous
 62
     7
100
AcDbCircle
 10
-74.25833024919771
 20
123.7141179108835
 30
0.0
 40
7.541666666667756
100
AcDbArc
 50
60.15827583531991
 51
119.8417241646791
  0
ARC
  5
14D
330
1F
100
AcDbEntity
  8
1
  6
Continuous
 62
     7
100
AcDbCircle
 10
-56.7678571428571
 20
96.25578457755137
 30
0.0
 40
8.017857142857121
100
AcDbArc
 50
321.4199075616223
 51
38.5800924383778
  0
ARC
  5
14E
330
1F
100
AcDbEntity
  8
1
  6
Continuous
 62
     7
100
AcDbCircle
 10
-69.23214285714491
 20
96.25578457755137
 30
0.0
 40
8.017857142855558
100
AcDbArc
 50
141.4199075616132
 51
218.5800924383867
  0
CIRCLE
  5
14F
330
1F
100
AcDbEntity
  8
1
  6
Continuous
 62
     7
100
AcDbCircle
 10
-63.0
 20
169.886225288832
 30
0.0
 40
6.5
  0
CIRCLE
  5
150
330
1F
100
AcDbEntity
  8
1
  6
Continuous
 62
     7
100
AcDbCircle
 10
-63.0
 20
169.886225288832
 30
0.0
 40
9.0
  0
CIRCLE
  5
151
330
1F
100
AcDbEntity
  8
1
  6
Continuous
 62
     7
100
AcDbCircle
 10
-63.0
 20
169.886225288832
 30
0.0
 40
6.0
  0
CIRCLE
  5
152
330
1F
100
AcDbEntity
  8
1
  6
Continuous
 62
     7
100
AcDbCircle
 10
-63.0
 20
169.886225288832
 30
0.0
 40
13.0
  0
CIRCLE
  5
153
330
1F
100
AcDbEntity
  8
1
  6
Continuous
 62
     2
100
AcDbCircle
 10
-63.0
 20
169.886225288832
 30
0.0
 40
10.5111069989303
  0
CIRCLE
  5
154
330
1F
100
AcDbEntity
  8
1
  6
Continuous
 62
     7
100
AcDbCircle
 10
-63.0
 20
169.886225288832
 30
0.0
 40
9.011106998930302
  0
SPLINE
  5
155
330
1F
100
AcDbEntity
  8
1
  6
Continuous
 62
     7
100
AcDbSpline
210
0.0
220
0.0
230
1.0
 70
    11
 71
     3
 72
    79
 73
    75
 74
    73
 42
0.000000001
 43
0.0000000001
 44
0.00000001
 40
0.0
 40
0.0
 40
0.0
 40
0.0
 40
0.4372551406444343
 40
0.8744865476595047
 40
1.31543179340352
 40
1.756334317854181
 40
2.202867440448458
 40
2.649346649372728
 40
3.102638241917718
 40
3.555873129963666
 40
4.01624801261395
 40
4.476570578677634
 40
4.943504061147015
 40
5.410394793482377
 40
5.882607013719116
 40
6.354789300205976
 40
6.830413152330038
 40
7.306021660449135
 40
7.782819658276868
 40
8.259617656094216
 40
8.7352261641822
 40
9.21085001625392
 40
9.683032302667241
 40
10.15524452280786
 40
10.62213525502484
 40
11.08906873735107
 40
11.54939130324759
 40
12.00976618570247
 40
12.46300107352544
 40
12.91629266581278
 40
13.36277187444157
 40
13.80930499668501
 40
14.25020752069732
 40
14.69115276580097
 40
15.12838417140756
 40
15.5656393208645
 40
16.00159733558779
 40
16.43755535031002
 40
16.8748104997637
 40
17.31204190536494
 40
17.75298715046119
 40
18.1938896744642
 40
18.64042279669647
 40
19.08690200531246
 40
19.54019359758538
 40
19.99342848539262
 40
20.45380336783037
 40
20.91412593370878
 40
21.3810594160158
 40
21.84795014821282
 40
22.32016236833258
 40
22.79234465472448
 40
23.26796850677412
 40
23.74357701483955
 40
24.22037501263385
 40
24.69717301043812
 40
25.17278151853339
 40
25.64840537063321
 40
26.12058765709551
 40
26.59279987730712
 40
27.05969060961692
 40
27.52662409205987
 40
27.98694665809616
 40
28.44732154071712
 40
28.900556428731
 40
29.35384802123867
 40
29.80032723011589
 40
30.24686035264266
 40
30.68776287697616
 40
31.12870812245491
 40
31.56593952852355
 40
32.00319467864041
 40
32.43915269479377
 40
32.87511070072049
 40
32.87511070072049
 40
32.87511070072049
 40
32.87511070072049
 10
7.16424743536423
 20
96.69857901530398
 30
0.0
 10
7.182146675174238
 20
96.84334126692923
 30
0.0
 10
7.217944177899702
 20
97.1328579133689
 30
0.0
 10
7.324301333100708
 20
97.55926954479978
 30
0.0
 10
7.467502843048228
 20
97.97552143313897
 30
0.0
 10
7.651345371300327
 20
98.37910515747164
 30
0.0
 10
7.872052192072773
 20
98.76580193485115
 30
0.0
 10
8.129677365995189
 20
99.13400380270659
 30
0.0
 10
8.420475992837432
 20
99.47951753086879
 30
0.0
 10
8.744047221712894
 20
99.80112448710227
 30
0.0
 10
9.095966779999898
 20
100.0950981501776
 30
0.0
 10
9.475533239561479
 20
100.3604006661296
 30
0.0
 10
9.877867584188465
 20
100.5940580032928
 30
0.0
 10
10.30181902710138
 20
100.7951058288371
 30
0.0
 10
10.74240703831585
 20
100.9614774772654
 30
0.0
 10
11.19784468012843
 20
101.0922902091314
 30
0.0
 10
11.66341054322358
 20
101.1863990103599
 30
0.0
 10
12.13653652354681
 20
101.2431212445458
 30
0.0
 10
12.61306263748414
 20
101.2621241475693
 30
0.0
 10
13.08958875143385
 20
101.2431212448941
 30
0.0
 10
13.56271473174075
 20
101.1863990110547
 30
0.0
 10
14.02828059495073
 20
101.0922902101869
 30
0.0
 10
14.48371823642809
 20
100.9614774786417
 30
0.0
 10
14.92430624901269
 20
100.7951058307016
 30
0.0
 10
15.34825768703142
 20
100.5940580050505
 30
0.0
 10
15.75059205000311
 20
100.3604006700181
 30
0.0
 10
16.1301584422798
 20
100.0950981479825
 30
0.0
 10
16.48207824996877
 20
99.80112450924976
 30
0.0
 10
16.80564856219622
 20
99.47951746537845
 30
0.0
 10
17.09645058258125
 20
99.13400406357935
 30
0.0
 10
17.35406327341729
 20
98.76580099720474
 30
0.0
 10
17.5748163447299
 20
98.3791086625863
 30
0.0
 10
17.75848833410523
 20
97.97550855899762
 30
0.0
 10
17.90232289180972
 20
97.55931747444673
 30
0.0
 10
18.00633635796335
 20
97.13268073499121
 30
0.0
 10
18.06870315819818
 20
96.69966911462916
 30
0.0
 10
18.08982999227885
 20
96.26312307500164
 30
0.0
 10
18.06870315822236
 20
95.82657703537404
 30
0.0
 10
18.00633635801164
 20
95.39356541501178
 30
0.0
 10
17.90232289188208
 20
94.96692867555588
 30
0.0
 10
17.75848833420152
 20
94.5507375910044
 30
0.0
 10
17.57481634485001
 20
94.14713748741516
 30
0.0
 10
17.35406327356106
 20
93.76044515279591
 30
0.0
 10
17.0964505827485
 20
93.3922420864205
 30
0.0
 10
16.80564856238679
 20
93.04672868462043
 30
0.0
 10
16.48207825018253
 20
92.72512164074811
 30
0.0
 10
16.13015844251652
 20
92.43114800201433
 30
0.0
 10
15.75059205026274
 20
92.16584547997755
 30
0.0
 10
15.34825768731385
 20
91.93218814494394
 30
0.0
 10
14.92430624931782
 20
91.7311403192915
 30
0.0
 10
14.48371823675592
 20
91.56476867135007
 30
0.0
 10
14.02828059530125
 20
91.43395593980341
 30
0.0
 10
13.5627147321142
 20
91.33984713893378
 30
0.0
 10
13.08958875182975
 20
91.28312490509262
 30
0.0
 10
12.61306263790491
 20
91.26412200241519
 30
0.0
 10
12.13653652398442
 20
91.28312490543539
 30
0.0
 10
11.66341054370904
 20
91.33984713962073
 30
0.0
 10
11.1978446805476
 20
91.43395594083535
 30
0.0
 10
10.74240703909359
 20
91.56476867273354
 30
0.0
 10
10.30181902666242
 20
91.73114032101809
 30
0.0
 10
9.87786758835649
 20
91.9321881470625
 30
0.0
 10
9.475533226772583
 20
92.16584548233268
 30
0.0
 10
9.095966829755353
 20
92.43114800520362
 30
0.0
 10
8.744047040039543
 20
92.72512164259702
 30
0.0
 10
8.420476662205392
 20
93.04672869316845
 30
0.0
 10
8.129674885221391
 20
93.39224207199777
 30
0.0
 10
7.872061299621581
 20
93.76044522473772
 30
0.0
 10
7.651311544132822
 20
94.14713724132025
 30
0.0
 10
7.467627329144331
 20
94.55073851962669
 30
0.0
 10
7.323838154373947
 20
94.96692524576497
 30
0.0
 10
7.219656671147235
 20
95.39357812353717
 30
0.0
 10
7.157915227539003
 20
95.82652968073359
 30
0.0
 10
7.134461025919149
 20
96.26329925706149
 30
0.0
 10
7.154318634100205
 20
96.55348576357783
 30
0.0
 10
7.16424743536423
 20
96.69857901530398
 30
0.0
 11
7.16424743536423
 21
96.69857901530398
 31
0.0
 11
7.226672559399052
 21
97.13135513501376
 31
0.0
 11
7.330032917943269
 21
97.55619385559069
 31
0.0
 11
7.474085436431103
 21
97.97294507786296
 31
0.0
 11
7.656494129386385
 21
98.37434525795331
 31
0.0
 11
7.877843943370743
 21
98.76215460449836
 31
0.0
 11
8.133595805129238
 21
99.12812546275651
 31
0.0
 11
8.425427317770579
 21
99.47497937438554
 31
0.0
 11
8.746723936835082
 21
99.79465162255877
 31
0.0
 11
9.099984576933743
 21
100.089866718177
 31
0.0
 11
9.47716475857211
 21
100.3537454315487
 31
0.0
 11
9.880899762341466
 21
100.5883193511548
 31
0.0
 11
10.30269049979289
 21
100.7885180767515
 31
0.0
 11
10.74443218557245
 21
100.9553972665471
 31
0.0
 11
11.19823466578142
 21
101.08585576815
 31
0.0
 11
11.66442317355845
 21
101.1801230686792
 31
0.0
 11
12.13664283164243
 21
101.2367979974187
 31
0.0
 11
12.61306264708973
 21
101.2557845775514
 31
0.0
 11
13.08948246253704
 21
101.2367979974188
 31
0.0
 11
13.56170212062102
 21
101.1801230686793
 31
0.0
 11
14.02789062839804
 21
101.0858557681501
 31
0.0
 11
14.48169310860702
 21
100.9553972665471
 31
0.0
 11
14.92343479438657
 21
100.7885180767515
 31
0.0
 11
15.345225531838
 21
100.5883193511548
 31
0.0
 11
15.74896053560736
 21
100.3537454315487
 31
0.0
 11
16.12614071724574
 21
100.089866718177
 31
0.0
 11
16.47940135734439
 21
99.79465162255877
 31
0.0
 11
16.80069797640889
 21
99.47497937438554
 31
0.0
 11
17.09252948905023
 21
99.12812546275653
 31
0.0
 11
17.34828135080873
 21
98.76215460449836
 31
0.0
 11
17.56963116479309
 21
98.37434525795331
 31
0.0
 11
17.75203985774838
 21
97.97294507786295
 31
0.0
 11
17.89609237623621
 21
97.55619385559069
 31
0.0
 11
17.99945273478042
 21
97.13135513501376
 31
0.0
 11
18.06187785881524
 21
96.69857901530399
 31
0.0
 11
18.08279470177028
 21
96.26312307441108
 31
0.0
 11
18.06187785881523
 21
95.82766713351815
 31
0.0
 11
17.99945273478042
 21
95.39489101380839
 31
0.0
 11
17.8960923762362
 21
94.97005229323146
 31
0.0
 11
17.75203985774838
 21
94.55330107095921
 31
0.0
 11
17.56963116479309
 21
94.15190089086884
 31
0.0
 11
17.34828135080873
 21
93.76409154432379
 31
0.0
 11
17.09252948905022
 21
93.39812068606562
 31
0.0
 11
16.80069797640888
 21
93.05126677443661
 31
0.0
 11
16.47940135734439
 21
92.7315945262634
 31
0.0
 11
16.12614071724574
 21
92.43637943064522
 31
0.0
 11
15.74896053560737
 21
92.1725007172735
 31
0.0
 11
15.34522553183801
 21
91.93792679766733
 31
0.0
 11
14.92343479438658
 21
91.73772807207071
 31
0.0
 11
14.48169310860702
 21
91.57084888227511
 31
0.0
 11
14.02789062839804
 21
91.44039038067211
 31
0.0
 11
13.56170212062101
 21
91.34612308014287
 31
0.0
 11
13.08948246253703
 21
91.2894481514034
 31
0.0
 11
12.61306264708973
 21
91.2704615712708
 31
0.0
 11
12.13664283164243
 21
91.2894481514034
 31
0.0
 11
11.66442317355845
 21
91.34612308014286
 31
0.0
 11
11.19823466578143
 21
91.44039038067211
 31
0.0
 11
10.74443218557245
 21
91.5708488822751
 31
0.0
 11
10.30269049979289
 21
91.73772807207071
 31
0.0
 11
9.880899762341457
 21
91.93792679766733
 31
0.0
 11
9.477164758572101
 21
92.1725007172735
 31
0.0
 11
9.09998457693374
 21
92.43637943064523
 31
0.0
 11
8.746723936835076
 21
92.73159452626341
 31
0.0
 11
8.42542731777057
 21
93.05126677443661
 31
0.0
 11
8.133595805129232
 21
93.39812068606562
 31
0.0
 11
7.877843943370744
 21
93.76409154432378
 31
0.0
 11
7.656494129386383
 21
94.15190089086883
 31
0.0
 11
7.474085436431094
 21
94.55330107095918
 31
0.0
 11
7.330032917943259
 21
94.97005229323145
 31
0.0
 11
7.226672559399039
 21
95.39489101380838
 31
0.0
 11
7.164247435364222
 21
95.82766713351816
 31
0.0
 11
7.143330592409184
 21
96.26312307441106
 31
0.0
 11
7.16424743536423
 21
96.69857901530398
 31
0.0
  0
SPLINE
  5
156
330
1F
100
AcDbEntity
  8
1
  6
Continuous
 62
     7
100
AcDbSpline
210
0.0
220
0.0
230
1.0
 70
    11
 71
     3
 72
    79
 73
    75
 74
    73
 42
0.000000001
 43
0.0000000001
 44
0.00000001
 40
0.0
 40
0.0
 40
0.0
 40
0.0
 40
0.4372551406444342
 40
0.8744865476595065
 40
1.315431793403518
 40
1.75633431785418
 40
2.202867440448455
 40
2.649346649372724
 40
3.102638241917716
 40
3.555873129963668
 40
4.016248012613947
 40
4.47657057867763
 40
4.943504061147009
 40
5.41039479348237
 40
5.882607013719111
 40
6.354789300205971
 40
6.830413152330036
 40
7.306021660449129
 40
7.782819658276863
 40
8.259617656094207
 40
8.735226164182192
 40
9.210850016253918
 40
9.683032302667245
 40
10.15524452280786
 40
10.62213525502485
 40
11.08906873735108
 40
11.54939130324759
 40
12.00976618570247
 40
12.46300107352544
 40
12.91629266581278
 40
13.36277187444157
 40
13.80930499668501
 40
14.25020752069732
 40
14.69115276580097
 40
15.12838417140756
 40
15.5656393208645
 40
16.00159733558779
 40
16.43755535031002
 40
16.8748104997637
 40
17.31204190536494
 40
17.75298715046118
 40
18.1938896744642
 40
18.64042279669647
 40
19.08690200531246
 40
19.54019359758538
 40
19.99342848539262
 40
20.45380336783038
 40
20.9141259337088
 40
21.38105941601581
 40
21.84795014821283
 40
22.32016236833259
 40
22.79234465472449
 40
23.26796850677413
 40
23.74357701483956
 40
24.22037501263386
 40
24.69717301043813
 40
25.1727815185334
 40
25.64840537063321
 40
26.12058765709552
 40
26.59279987730713
 40
27.05969060961693
 40
27.52662409205987
 40
27.98694665809616
 40
28.44732154071713
 40
28.90055642873101
 40
29.35384802123867
 40
29.80032723011589
 40
30.24686035264267
 40
30.68776287697616
 40
31.12870812245491
 40
31.56593952852356
 40
32.00319467864042
 40
32.43915269479378
 40
32.8751107007205
 40
32.8751107007205
 40
32.8751107007205
 40
32.8751107007205
 10
30.83575256463575
 20
96.69857901530398
 30
0.0
 10
30.81785332482575
 20
96.84334126692923
 30
0.0
 10
30.78205582210029
 20
97.13285791336891
 30
0.0
 10
30.67569866689927
 20
97.55926954479975
 30
0.0
 10
30.53249715695176
 20
97.97552143313897
 30
0.0
 10
30.34865462869966
 20
98.37910515747166
 30
0.0
 10
30.12794780792721
 20
98.76580193485113
 30
0.0
 10
29.8703226340048
 20
99.13400380270656
 30
0.0
 10
29.57952400716255
 20
99.47951753086879
 30
0.0
 10
29.2559527782871
 20
99.80112448710226
 30
0.0
 10
28.90403322000008
 20
100.0950981501775
 30
0.0
 10
28.5244667604385
 20
100.3604006661296
 30
0.0
 10
28.12213241581152
 20
100.5940580032928
 30
0.0
 10
27.69818097289861
 20
100.7951058288372
 30
0.0
 10
27.25759296168413
 20
100.9614774772654
 30
0.0
 10
26.80215531987156
 20
101.0922902091314
 30
0.0
 10
26.33658945677641
 20
101.1863990103599
 30
0.0
 10
25.86346347645317
 20
101.2431212445457
 30
0.0
 10
25.38693736251585
 20
101.2621241475693
 30
0.0
 10
24.91041124856614
 20
101.2431212448941
 30
0.0
 10
24.43728526825924
 20
101.1863990110548
 30
0.0
 10
23.97171940504926
 20
101.0922902101868
 30
0.0
 10
23.51628176357189
 20
100.9614774786418
 30
0.0
 10
23.07569375098728
 20
100.7951058307016
 30
0.0
 10
22.65174231296857
 20
100.5940580050505
 30
0.0
 10
22.24940794999686
 20
100.3604006700181
 30
0.0
 10
21.86984155772018
 20
100.0950981479825
 30
0.0
 10
21.51792175003121
 20
99.80112450924977
 30
0.0
 10
21.19435143780375
 20
99.47951746537842
 30
0.0
 10
20.90354941741874
 20
99.13400406357938
 30
0.0
 10
20.64593672658269
 20
98.76580099720472
 30
0.0
 10
20.4251836552701
 20
98.37910866258633
 30
0.0
 10
20.24151166589475
 20
97.97550855899763
 30
0.0
 10
20.09767710819027
 20
97.55931747444673
 30
0.0
 10
19.99366364203663
 20
97.1326807349912
 30
0.0
 10
19.9312968418018
 20
96.69966911462919
 30
0.0
 10
19.91017000772115
 20
96.26312307500164
 30
0.0
 10
19.93129684177763
 20
95.82657703537403
 30
0.0
 10
19.99366364198833
 20
95.39356541501179
 30
0.0
 10
20.0976771081179
 20
94.96692867555588
 30
0.0
 10
20.24151166579844
 20
94.55073759100443
 30
0.0
 10
20.42518365514998
 20
94.14713748741514
 30
0.0
 10
20.64593672643892
 20
93.76044515279595
 30
0.0
 10
20.90354941725148
 20
93.39224208642048
 30
0.0
 10
21.19435143761319
 20
93.0467286846204
 30
0.0
 10
21.51792174981746
 20
92.72512164074809
 30
0.0
 10
21.86984155748348
 20
92.43114800201435
 30
0.0
 10
22.24940794973725
 20
92.16584547997755
 30
0.0
 10
22.65174231268615
 20
91.93218814494395
 30
0.0
 10
23.07569375068216
 20
91.73114031929151
 30
0.0
 10
23.51628176324407
 20
91.56476867135005
 30
0.0
 10
23.97171940469874
 20
91.43395593980341
 30
0.0
 10
24.43728526788578
 20
91.33984713893376
 30
0.0
 10
24.91041124817024
 20
91.28312490509259
 30
0.0
 10
25.38693736209506
 20
91.26412200241522
 30
0.0
 10
25.86346347601557
 20
91.28312490543539
 30
0.0
 10
26.33658945629094
 20
91.33984713962073
 30
0.0
 10
26.80215531945239
 20
91.43395594083533
 30
0.0
 10
27.25759296090639
 20
91.56476867273355
 30
0.0
 10
27.69818097333756
 20
91.73114032101809
 30
0.0
 10
28.12213241164351
 20
91.9321881470625
 30
0.0
 10
28.52446677322739
 20
92.16584548233267
 30
0.0
 10
28.90403317024465
 20
92.43114800520364
 30
0.0
 10
29.25595295996044
 20
92.725121642597
 30
0.0
 10
29.57952333779458
 20
93.04672869316845
 30
0.0
 10
29.8703251147786
 20
93.39224207199777
 30
0.0
 10
30.12793870037839
 20
93.76044522473774
 30
0.0
 10
30.34868845586716
 20
94.14713724132025
 30
0.0
 10
30.53237267085564
 20
94.55073851962669
 30
0.0
 10
30.67616184562605
 20
94.96692524576498
 30
0.0
 10
30.78034332885275
 20
95.39357812353713
 30
0.0
 10
30.84208477246099
 20
95.8265296807336
 30
0.0
 10
30.86553897408086
 20
96.2632992570615
 30
0.0
 10
30.84568136589977
 20
96.55348576357783
 30
0.0
 10
30.83575256463575
 20
96.69857901530398
 30
0.0
 11
30.83575256463575
 21
96.69857901530398
 31
0.0
 11
30.77332744060093
 21
97.13135513501376
 31
0.0
 11
30.66996708205671
 21
97.55619385559069
 31
0.0
 11
30.52591456356888
 21
97.97294507786296
 31
0.0
 11
30.3435058706136
 21
98.37434525795331
 31
0.0
 11
30.12215605662924
 21
98.76215460449836
 31
0.0
 11
29.86640419487075
 21
99.12812546275651
 31
0.0
 11
29.57457268222941
 21
99.47497937438554
 31
0.0
 11
29.2532760631649
 21
99.79465162255877
 31
0.0
 11
28.90001542306625
 21
100.089866718177
 31
0.0
 11
28.52283524142788
 21
100.3537454315487
 31
0.0
 11
28.11910023765853
 21
100.5883193511548
 31
0.0
 11
27.6973095002071
 21
100.7885180767515
 31
0.0
 11
27.25556781442754
 21
100.9553972665471
 31
0.0
 11
26.80176533421857
 21
101.08585576815
 31
0.0
 11
26.33557682644154
 21
101.1801230686792
 31
0.0
 11
25.86335716835756
 21
101.2367979974187
 31
0.0
 11
25.38693735291026
 21
101.2557845775514
 31
0.0
 11
24.91051753746295
 21
101.2367979974188
 31
0.0
 11
24.43829787937897
 21
101.1801230686793
 31
0.0
 11
23.97210937160194
 21
101.0858557681501
 31
0.0
 11
23.51830689139296
 21
100.9553972665471
 31
0.0
 11
23.07656520561341
 21
100.7885180767515
 31
0.0
 11
22.65477446816198
 21
100.5883193511548
 31
0.0
 11
22.25103946439261
 21
100.3537454315487
 31
0.0
 11
21.87385928275424
 21
100.089866718177
 31
0.0
 11
21.52059864265559
 21
99.79465162255877
 31
0.0
 11
21.19930202359109
 21
99.47497937438554
 31
0.0
 11
20.90747051094975
 21
99.12812546275653
 31
0.0
 11
20.65171864919126
 21
98.76215460449836
 31
0.0
 11
20.43036883520689
 21
98.37434525795331
 31
0.0
 11
20.24796014225161
 21
97.97294507786295
 31
0.0
 11
20.10390762376378
 21
97.55619385559069
 31
0.0
 11
20.00054726521957
 21
97.13135513501376
 31
0.0
 11
19.93812214118475
 21
96.69857901530399
 31
0.0
 11
19.91720529822971
 21
96.26312307441108
 31
0.0
 11
19.93812214118475
 21
95.82766713351815
 31
0.0
 11
20.00054726521957
 21
95.39489101380839
 31
0.0
 11
20.10390762376377
 21
94.97005229323146
 31
0.0
 11
20.2479601422516
 21
94.55330107095921
 31
0.0
 11
20.43036883520689
 21
94.15190089086884
 31
0.0
 11
20.65171864919126
 21
93.76409154432379
 31
0.0
 11
20.90747051094976
 21
93.39812068606562
 31
0.0
 11
21.1993020235911
 21
93.05126677443661
 31
0.0
 11
21.5205986426556
 21
92.7315945262634
 31
0.0
 11
21.87385928275425
 21
92.43637943064522
 31
0.0
 11
22.25103946439262
 21
92.1725007172735
 31
0.0
 11
22.65477446816197
 21
91.93792679766733
 31
0.0
 11
23.07656520561341
 21
91.73772807207071
 31
0.0
 11
23.51830689139297
 21
91.57084888227511
 31
0.0
 11
23.97210937160195
 21
91.44039038067211
 31
0.0
 11
24.43829787937898
 21
91.34612308014287
 31
0.0
 11
24.91051753746295
 21
91.2894481514034
 31
0.0
 11
25.38693735291026
 21
91.2704615712708
 31
0.0
 11
25.86335716835755
 21
91.2894481514034
 31
0.0
 11
26.33557682644154
 21
91.34612308014286
 31
0.0
 11
26.80176533421856
 21
91.44039038067211
 31
0.0
 11
27.25556781442754
 21
91.5708488822751
 31
0.0
 11
27.6973095002071
 21
91.73772807207071
 31
0.0
 11
28.11910023765853
 21
91.93792679766733
 31
0.0
 11
28.52283524142788
 21
92.1725007172735
 31
0.0
 11
28.90001542306625
 21
92.43637943064523
 31
0.0
 11
29.25327606316491
 21
92.73159452626341
 31
0.0
 11
29.57457268222942
 21
93.05126677443661
 31
0.0
 11
29.86640419487075
 21
93.39812068606562
 31
0.0
 11
30.12215605662924
 21
93.76409154432378
 31
0.0
 11
30.3435058706136
 21
94.15190089086883
 31
0.0
 11
30.52591456356889
 21
94.55330107095918
 31
0.0
 11
30.66996708205673
 21
94.97005229323145
 31
0.0
 11
30.77332744060095
 21
95.39489101380838
 31
0.0
 11
30.83575256463577
 21
95.82766713351816
 31
0.0
 11
30.85666940759081
 21
96.26312307441106
 31
0.0
 11
30.83575256463575
 21
96.69857901530398
 31
0.0
  0
SPLINE
  5
157
330
1F
100
AcDbEntity
  8
1
  6
Continuous
 62
     7
100
AcDbSpline
210
0.0
220
0.0
230
1.0
 70
    11
 71
     3
 72
    79
 73
    75
 74
    73
 42
0.000000001
 43
0.0000000001
 44
0.00000001
 40
0.0
 40
0.0
 40
0.0
 40
0.0
 40
0.2834667189312576
 40
0.5667176993979592
 40
0.866809905832975
 40
1.166597806494366
 40
1.490498815172076
 40
1.814125730480637
 40
2.165099084384813
 40
2.515868416986738
 40
2.893595159710414
 40
3.271182594373114
 40
3.672470933491099
 40
4.07366946221012
 40
4.493207986132005
 40
4.912693357129166
 40
5.343731733113465
 40
5.774745450958253
 40
6.209700187421928
 40
6.644654923884888
 40
7.075668641727169
 40
7.506707017706213
 40
7.92619238869384
 40
8.345730912599313
 40
8.746929441292535
 40
9.148217780369901
 40
9.52580521497475
 40
9.903531957612941
 40
10.25430129010041
 40
10.60527464384165
 40
10.92890155893833
 40
11.25280256731523
 40
11.55259046756095
 40
11.8526826732912
 40
12.13593365172555
 40
12.41940037807373
 40
12.6967767130979
 40
12.97415304812086
 40
13.25761977446562
 40
13.54087075289463
 40
13.84096295861765
 40
14.14075085885506
 40
14.46465186722228
 40
14.78827878230907
 40
15.13925213603963
 40
15.4900214685167
 40
15.86774821114412
 40
16.24533564573884
 40
16.64662398480612
 40
17.04782251348989
 40
17.4673610373862
 40
17.88684640836547
 40
18.31788478433671
 40
18.74889850217198
 40
19.18385323862872
 40
19.61880797508702
 40
20.04982169292741
 40
20.48086006890824
 40
20.90034543990295
 40
21.31988396382321
 40
21.72108249254135
 40
22.12237083165873
 40
22.49995826632081
 40
22.87768500904258
 40
23.22845434164018
 40
23.5794276955342
 40
23.90305461082225
 40
24.22695561945495
 40
24.52674352001416
 40
24.82683572615532
 40
25.11008670512157
 40
25.3935534322638
 40
25.67092976941131
 40
25.9483060972406
 40
25.9483060972406
 40
25.9483060972406
 40
25.9483060972406
 10
-73.7858095009179
 20
101.2362910137971
 30
0.0
 10
-73.69265249593082
 20
101.2195824735424
 30
0.0
 10
-73.50640938343885
 20
101.1861781179152
 30
0.0
 10
-73.23387949532965
 20
101.0864751620593
 30
0.0
 10
-72.97023849315207
 20
100.9542884857863
 30
0.0
 10
-72.71323629026176
 20
100.7833798630297
 30
0.0
 10
-72.4701020976597
 20
100.5810009441907
 30
0.0
 10
-72.23659742629347
 20
100.3431278539804
 30
0.0
 10
-72.02031372815713
 20
100.077876332816
 30
0.0
 10
-71.81699327974948
 20
99.7805475087284
 30
0.0
 10
-71.6332999392472
 20
99.46044730726575
 30
0.0
 10
-71.46593049731607
 20
99.11280146709058
 30
0.0
 10
-71.31995369953405
 20
98.7472082956717
 30
0.0
 10
-71.1932997179847
 20
98.3597864007707
 30
0.0
 10
-71.0893094252331
 20
97.95940602477037
 30
0.0
 10
-71.00697119356678
 20
97.54390086773267
 30
0.0
 10
-70.94813136501449
 20
97.12056026980284
 30
0.0
 10
-70.91240894263552
 20
96.68948363092534
 30
0.0
 10
-70.9006007330931
 20
96.2557845874999
 30
0.0
 10
-70.91240894261637
 20
95.82208554406125
 30
0.0
 10
-70.9481313649785
 20
95.39100890522522
 30
0.0
 10
-71.00697119347899
 20
94.96766830715082
 30
0.0
 10
-71.08930942517588
 20
94.55216315064634
 30
0.0
 10
-71.19329971759089
 20
94.15178277270584
 30
0.0
 10
-71.31995370003565
 20
93.76436088475239
 30
0.0
 10
-71.46593049415057
 20
93.3987676881575
 30
0.0
 10
-71.63329994845438
 20
93.05112193665659
 30
0.0
 10
-71.81699324373844
 20
92.73102141620286
 30
0.0
 10
-72.02031384859494
 20
92.4336937019226
 30
0.0
 10
-72.23659698561923
 20
92.16843820824292
 30
0.0
 10
-72.47010359529489
 20
91.93057885013283
 30
0.0
 10
-72.71323084915531
 20
91.72815078534866
 30
0.0
 10
-72.97025712554768
 20
91.55741268638313
 30
0.0
 10
-73.23381134004558
 20
91.4246112769679
 30
0.0
 10
-73.5066479995944
 20
91.32708126100064
 30
0.0
 10
-73.7829230710399
 20
91.26936903649964
 30
0.0
 10
-74.06249999960943
 20
91.24906612221423
 30
0.0
 10
-74.34207692817873
 20
91.26936903648826
 30
0.0
 10
-74.6183519996232
 20
91.32708126097793
 30
0.0
 10
-74.89118865917033
 20
91.42461127693429
 30
0.0
 10
-75.1547428736658
 20
91.55741268633892
 30
0.0
 10
-75.4117691500549
 20
91.72815078529439
 30
0.0
 10
-75.65489640391121
 20
91.93057885006897
 30
0.0
 10
-75.88840301358186
 20
92.16843820816997
 30
0.0
 10
-76.10468615060034
 20
92.43369370184112
 30
0.0
 10
-76.30800675544984
 20
92.73102141611332
 30
0.0
 10
-76.49170005072597
 20
93.05112193655967
 30
0.0
 10
-76.65906950502053
 20
93.3987676880536
 30
0.0
 10
-76.80504629912494
 20
93.76436088464206
 30
0.0
 10
-76.93170028155762
 20
94.15178277258946
 30
0.0
 10
-77.03569057395872
 20
94.55216315052428
 30
0.0
 10
-77.11802880563992
 20
94.96766830702336
 30
0.0
 10
-77.1768686341224
 20
95.3910089050923
 30
0.0
 10
-77.21259105646435
 20
95.82208554392382
 30
0.0
 10
-77.22439926596424
 20
96.25578458735419
 30
0.0
 10
-77.212591056398
 20
96.68948363078361
 30
0.0
 10
-77.17686863398453
 20
97.12056026961763
 30
0.0
 10
-77.1180288054232
 20
97.5439008676754
 30
0.0
 10
-77.03569057364233
 20
97.9594060242105
 30
0.0
 10
-76.93170028114803
 20
98.35978640200398
 30
0.0
 10
-76.80504629850948
 20
98.74720829043869
 30
0.0
 10
-76.65906950449427
 20
99.11280148522945
 30
0.0
 10
-76.49170004911414
 20
99.46044724300512
 30
0.0
 10
-76.30800675680428
 20
99.78054774077634
 30
0.0
 10
-76.10468614055334
 20
100.0778755338254
 30
0.0
 10
-75.88840304304344
 20
100.3431307453526
 30
0.0
 10
-75.65489629533177
 20
100.5809910785365
 30
0.0
 10
-75.41176953376012
 20
100.7834156532552
 30
0.0
 10
-75.1547415473172
 20
100.9541658613807
 30
0.0
 10
-74.89119349517557
 20
101.0869236169787
 30
0.0
 10
-74.61833505040283
 20
101.1846079383653
 30
0.0
 10
-74.34213976261837
 20
101.2417550238909
 30
0.0
 10
-74.06227104991872
 20
101.2641247336485
 30
0.0
 10
-73.8779633498008
 20
101.2455689173124
 30
0.0
 10
-73.7858095009179
 20
101.2362910137971
 30
0.0
 11
-73.7858095009179
 21
101.2362910137971
 31
0.0
 11
-73.50835598702687
 21
101.1782140592068
 31
0.0
 11
-73.241357964585
 21
101.0836457089624
 31
0.0
 11
-72.97319858687007
 21
100.9489390641553
 31
0.0
 11
-72.72305017923722
 21
100.7837163073874
 31
0.0
 11
-72.47372590266075
 21
100.5769573453144
 31
0.0
 11
-72.24655137520695
 21
100.3464663166376
 31
0.0
 11
-72.02423437179412
 21
100.0748830972064
 31
0.0
 11
-71.82583318837192
 21
99.78561489109478
 31
0.0
 11
-71.63731311117752
 21
99.4582959753087
 31
0.0
 11
-71.47320541157978
 21
99.11823578397663
 31
0.0
 11
-71.3239676974427
 21
98.7457301655239
 31
0.0
 11
-71.199082570522
 21
98.3644639009346
 31
0.0
 11
-71.09329461710144
 21
97.95848178068505
 31
0.0
 11
-71.01163390088934
 21
97.54702157130015
 31
0.0
 11
-70.95208970555208
 21
97.12011576158037
 31
0.0
 11
-70.91647879774621
 21
96.69057567239685
 31
0.0
 11
-70.904548725835
 21
96.25578457755135
 31
0.0
 11
-70.91647879774621
 21
95.82099348270586
 31
0.0
 11
-70.9520897055521
 21
95.39145339352234
 31
0.0
 11
-71.01163390088938
 21
94.96454758380258
 31
0.0
 11
-71.09329461710149
 21
94.5530873744177
 31
0.0
 11
-71.19908257052205
 21
94.14710525416811
 31
0.0
 11
-71.32396769744268
 21
93.76583898957881
 31
0.0
 11
-71.47320541157974
 21
93.39333337112609
 31
0.0
 11
-71.63731311117746
 21
93.05327317979403
 31
0.0
 11
-71.82583318837189
 21
92.72595426400794
 31
0.0
 11
-72.02423437179411
 21
92.43668605789628
 31
0.0
 11
-72.24655137520693
 21
92.16510283846516
 31
0.0
 11
-72.47372590266075
 21
91.93461180978831
 31
0.0
 11
-72.72305017923722
 21
91.72785284771534
 31
0.0
 11
-72.97319858687007
 21
91.56263009094744
 31
0.0
 11
-73.24135796458499
 21
91.42792344614031
 31
0.0
 11
-73.50835598702689
 21
91.33335509589594
 31
0.0
 11
-73.7858095009179
 21
91.2752781413056
 31
0.0
 11
-74.06249999999999
 21
91.25578457755137
 31
0.0
 11
-74.33919049908205
 21
91.27527814130562
 31
0.0
 11
-74.61664401297305
 21
91.33335509589594
 31
0.0
 11
-74.88364203541497
 21
91.42792344614031
 31
0.0
 11
-75.15180141312992
 21
91.56263009094741
 31
0.0
 11
-75.40194982076275
 21
91.72785284771533
 31
0.0
 11
-75.6512740973392
 21
91.93461180978828
 31
0.0
 11
-75.87844862479301
 21
92.16510283846515
 31
0.0
 11
-76.10076562820588
 21
92.43668605789625
 31
0.0
 11
-76.29916681162808
 21
92.72595426400792
 31
0.0
 11
-76.48768688882248
 21
93.05327317979399
 31
0.0
 11
-76.65179458842022
 21
93.39333337112609
 31
0.0
 11
-76.8010323025573
 21
93.76583898957884
 31
0.0
 11
-76.92591742947795
 21
94.14710525416812
 31
0.0
 11
-77.0317053828985
 21
94.55308737441769
 31
0.0
 11
-77.11336609911062
 21
94.96454758380258
 31
0.0
 11
-77.17291029444789
 21
95.39145339352235
 31
0.0
 11
-77.20852120225373
 21
95.82099348270589
 31
0.0
 11
-77.22045127416492
 21
96.25578457755137
 31
0.0
 11
-77.20852120225373
 21
96.69057567239685
 31
0.0
 11
-77.17291029444789
 21
97.12011576158037
 31
0.0
 11
-77.11336609911062
 21
97.54702157130014
 31
0.0
 11
-77.0317053828985
 21
97.95848178068503
 31
0.0
 11
-76.92591742947795
 21
98.3644639009346
 31
0.0
 11
-76.8010323025573
 21
98.7457301655239
 31
0.0
 11
-76.65179458842022
 21
99.11823578397662
 31
0.0
 11
-76.48768688882247
 21
99.4582959753087
 31
0.0
 11
-76.29916681162801
 21
99.78561489109475
 31
0.0
 11
-76.10076562820579
 21
100.0748830972064
 31
0.0
 11
-75.87844862479295
 21
100.3464663166376
 31
0.0
 11
-75.65127409733918
 21
100.5769573453144
 31
0.0
 11
-75.40194982076275
 21
100.7837163073874
 31
0.0
 11
-75.15180141312993
 21
100.9489390641553
 31
0.0
 11
-74.88364203541497
 21
101.0836457089624
 31
0.0
 11
-74.61664401297304
 21
101.1782140592068
 31
0.0
 11
-74.33919049908204
 21
101.2362910137971
 31
0.0
 11
-74.06249999999999
 21
101.2557845775513
 31
0.0
 11
-73.7858095009179
 21
101.2362910137971
 31
0.0
  0
SPLINE
  5
158
330
1F
100
AcDbEntity
  8
1
  6
Continuous
 62
     7
100
AcDbSpline
210
0.0
220
0.0
230
1.0
 70
    11
 71
     3
 72
    79
 73
    75
 74
    73
 42
0.000000001
 43
0.0000000001
 44
0.00000001
 40
0.0
 40
0.0
 40
0.0
 40
0.0
 40
0.2834667189312576
 40
0.5667176993979927
 40
0.8668099058330148
 40
1.166597806494388
 40
1.490498815172104
 40
1.81412573048066
 40
2.165099084384832
 40
2.51586841698674
 40
2.893595159710427
 40
3.271182594373127
 40
3.672470933491109
 40
4.073669462210114
 40
4.493207986131998
 40
4.912693357129164
 40
5.343731733113466
 40
5.774745450958253
 40
6.209700187421927
 40
6.644654923884886
 40
7.075668641727164
 40
7.506707017706205
 40
7.926192388693837
 40
8.34573091259931
 40
8.746929441292536
 40
9.148217780369908
 40
9.525805214974765
 40
9.903531957612952
 40
10.25430129010039
 40
10.60527464384164
 40
10.9289015589383
 40
11.25280256731519
 40
11.55259046756093
 40
11.85268267329123
 40
12.1359336517256
 40
12.41940037807377
 40
12.69677671309789
 40
12.97415304812087
 40
13.25761977446565
 40
13.54087075289463
 40
13.84096295861766
 40
14.14075085885507
 40
14.4646518672223
 40
14.78827878230908
 40
15.13925213603961
 40
15.49002146851667
 40
15.86774821114409
 40
16.24533564573882
 40
16.64662398480608
 40
17.04782251348986
 40
17.46736103738618
 40
17.88684640836545
 40
18.31788478433668
 40
18.74889850217196
 40
19.18385323862869
 40
19.61880797508699
 40
20.04982169292738
 40
20.48086006890822
 40
20.90034543990292
 40
21.31988396382319
 40
21.72108249254133
 40
22.12237083165871
 40
22.49995826632079
 40
22.87768500904254
 40
23.22845434164013
 40
23.57942769553411
 40
23.90305461082217
 40
24.22695561945491
 40
24.52674352001414
 40
24.82683572615528
 40
25.11008670512151
 40
25.39355343226375
 40
25.67092976941131
 40
25.9483060972406
 40
25.9483060972406
 40
25.9483060972406
 40
25.9483060972406
 10
-52.21419049908208
 20
101.2362910137971
 30
0.0
 10
-52.30734750406921
 20
101.2195824735424
 30
0.0
 10
-52.49359061656113
 20
101.1861781179152
 30
0.0
 10
-52.76612050467035
 20
101.0864751620593
 30
0.0
 10
-53.02976150684795
 20
100.9542884857863
 30
0.0
 10
-53.28676370973827
 20
100.7833798630297
 30
0.0
 10
-53.52989790234032
 20
100.5810009441907
 30
0.0
 10
-53.76340257370654
 20
100.3431278539804
 30
0.0
 10
-53.97968627184284
 20
100.077876332816
 30
0.0
 10
-54.1830067202505
 20
99.78054750872836
 30
0.0
 10
-54.36670006075279
 20
99.46044730726575
 30
0.0
 10
-54.53406950268393
 20
99.11280146709059
 30
0.0
 10
-54.68004630046595
 20
98.74720829567175
 30
0.0
 10
-54.80670028201521
 20
98.35978640077064
 30
0.0
 10
-54.91069057476682
 20
97.95940602477037
 30
0.0
 10
-54.99302880643316
 20
97.54390086773265
 30
0.0
 10
-55.05186863498549
 20
97.12056026980284
 30
0.0
 10
-55.08759105736444
 20
96.68948363092534
 30
0.0
 10
-55.09939926690681
 20
96.25578458749989
 30
0.0
 10
-55.08759105738359
 20
95.82208554406131
 30
0.0
 10
-55.05186863502151
 20
95.39100890522522
 30
0.0
 10
-54.99302880652105
 20
94.96766830715083
 30
0.0
 10
-54.91069057482407
 20
94.55216315064636
 30
0.0
 10
-54.80670028240911
 20
94.15178277270581
 30
0.0
 10
-54.68004629996432
 20
93.76436088475242
 30
0.0
 10
-54.53406950584937
 20
93.39876768815749
 30
0.0
 10
-54.36670005154556
 20
93.05112193665657
 30
0.0
 10
-54.18300675626148
 20
92.73102141620284
 30
0.0
 10
-53.9796861514051
 20
92.4336937019226
 30
0.0
 10
-53.76340301438076
 20
92.16843820824289
 30
0.0
 10
-53.52989640470513
 20
91.93057885013285
 30
0.0
 10
-53.28676915084471
 20
91.72815078534863
 30
0.0
 10
-53.02974287445233
 20
91.55741268638312
 30
0.0
 10
-52.76618865995437
 20
91.42461127696791
 30
0.0
 10
-52.49335200040555
 20
91.32708126100061
 30
0.0
 10
-52.21707692896004
 20
91.26936903649964
 30
0.0
 10
-51.93750000039052
 20
91.24906612221424
 30
0.0
 10
-51.65792307182125
 20
91.26936903648824
 30
0.0
 10
-51.38164800037673
 20
91.3270812609779
 30
0.0
 10
-51.10881134082965
 20
91.42461127693433
 30
0.0
 10
-50.84525712633413
 20
91.55741268633892
 30
0.0
 10
-50.58823084994508
 20
91.72815078529437
 30
0.0
 10
-50.34510359608871
 20
91.93057885006901
 30
0.0
 10
-50.1115969864181
 20
92.16843820816993
 30
0.0
 10
-49.89531384939966
 20
92.43369370184115
 30
0.0
 10
-49.69199324455017
 20
92.73102141611335
 30
0.0
 10
-49.50829994927405
 20
93.05112193655967
 30
0.0
 10
-49.34093049497949
 20
93.3987676880536
 30
0.0
 10
-49.19495370087509
 20
93.76436088464209
 30
0.0
 10
-49.06829971844238
 20
94.15178277258944
 30
0.0
 10
-48.96430942604127
 20
94.55216315052432
 30
0.0
 10
-48.88197119436007
 20
94.96766830702333
 30
0.0
 10
-48.82313136587756
 20
95.39100890509235
 30
0.0
 10
-48.78740894353565
 20
95.82208554392375
 30
0.0
 10
-48.77560073403574
 20
96.25578458735421
 30
0.0
 10
-48.78740894360203
 20
96.68948363078361
 30
0.0
 10
-48.82313136601544
 20
97.12056026961761
 30
0.0
 10
-48.88197119457682
 20
97.54390086767542
 30
0.0
 10
-48.96430942635764
 20
97.95940602421047
 30
0.0
 10
-49.06829971885199
 20
98.35978640200399
 30
0.0
 10
-49.19495370149054
 20
98.74720829043869
 30
0.0
 10
-49.34093049550575
 20
99.11280148522948
 30
0.0
 10
-49.50829995088587
 20
99.46044724300512
 30
0.0
 10
-49.6919932431957
 20
99.78054774077636
 30
0.0
 10
-49.89531385944657
 20
100.0778755338254
 30
0.0
 10
-50.11159695695648
 20
100.3431307453526
 30
0.0
 10
-50.34510370466815
 20
100.5809910785365
 30
0.0
 10
-50.58823046623984
 20
100.7834156532551
 30
0.0
 10
-50.84525845268276
 20
100.9541658613807
 30
0.0
 10
-51.10880650482437
 20
101.0869236169787
 30
0.0
 10
-51.38166494959712
 20
101.1846079383653
 30
0.0
 10
-51.65786023738158
 20
101.2417550238909
 30
0.0
 10
-51.93772895008127
 20
101.2641247336485
 30
0.0
 10
-52.12203665019919
 20
101.2455689173124
 30
0.0
 10
-52.21419049908208
 20
101.2362910137971
 30
0.0
 11
-52.21419049908208
 21
101.2362910137971
 31
0.0
 11
-52.49164401297311
 21
101.1782140592068
 31
0.0
 11
-52.75864203541501
 21
101.0836457089624
 31
0.0
 11
-53.02680141312996
 21
100.9489390641553
 31
0.0
 11
-53.27694982076279
 21
100.7837163073874
 31
0.0
 11
-53.52627409733926
 21
100.5769573453144
 31
0.0
 11
-53.75344862479305
 21
100.3464663166376
 31
0.0
 11
-53.97576562820588
 21
100.0748830972064
 31
0.0
 11
-54.17416681162806
 21
99.78561489109478
 31
0.0
 11
-54.36268688882247
 21
99.4582959753087
 31
0.0
 11
-54.52679458842021
 21
99.11823578397663
 31
0.0
 11
-54.67603230255729
 21
98.7457301655239
 31
0.0
 11
-54.80091742947794
 21
98.3644639009346
 31
0.0
 11
-54.90670538289849
 21
97.95848178068505
 31
0.0
 11
-54.98836609911063
 21
97.54702157130015
 31
0.0
 11
-55.04791029444789
 21
97.12011576158037
 31
0.0
 11
-55.08352120225374
 21
96.69057567239685
 31
0.0
 11
-55.09545127416492
 21
96.25578457755135
 31
0.0
 11
-55.08352120225374
 21
95.82099348270586
 31
0.0
 11
-55.0479102944479
 21
95.39145339352234
 31
0.0
 11
-54.98836609911064
 21
94.96454758380258
 31
0.0
 11
-54.90670538289849
 21
94.5530873744177
 31
0.0
 11
-54.80091742947794
 21
94.14710525416811
 31
0.0
 11
-54.67603230255729
 21
93.76583898957881
 31
0.0
 11
-54.52679458842021
 21
93.39333337112609
 31
0.0
 11
-54.36268688882247
 21
93.05327317979403
 31
0.0
 11
-54.17416681162806
 21
92.72595426400794
 31
0.0
 11
-53.97576562820589
 21
92.43668605789628
 31
0.0
 11
-53.75344862479305
 21
92.16510283846516
 31
0.0
 11
-53.52627409733926
 21
91.93461180978831
 31
0.0
 11
-53.27694982076279
 21
91.72785284771534
 31
0.0
 11
-53.02680141312993
 21
91.56263009094744
 31
0.0
 11
-52.75864203541495
 21
91.42792344614031
 31
0.0
 11
-52.49164401297304
 21
91.33335509589594
 31
0.0
 11
-52.21419049908203
 21
91.2752781413056
 31
0.0
 11
-51.93749999999999
 21
91.25578457755137
 31
0.0
 11
-51.66080950091791
 21
91.27527814130562
 31
0.0
 11
-51.38335598702688
 21
91.33335509589594
 31
0.0
 11
-51.116357964585
 21
91.42792344614031
 31
0.0
 11
-50.84819858687004
 21
91.56263009094741
 31
0.0
 11
-50.59805017923721
 21
91.72785284771533
 31
0.0
 11
-50.34872590266074
 21
91.93461180978828
 31
0.0
 11
-50.12155137520695
 21
92.16510283846515
 31
0.0
 11
-49.89923437179413
 21
92.43668605789625
 31
0.0
 11
-49.70083318837194
 21
92.72595426400792
 31
0.0
 11
-49.51231311117753
 21
93.05327317979399
 31
0.0
 11
-49.3482054115798
 21
93.39333337112609
 31
0.0
 11
-49.19896769744273
 21
93.76583898957884
 31
0.0
 11
-49.07408257052206
 21
94.14710525416812
 31
0.0
 11
-48.96829461710151
 21
94.55308737441769
 31
0.0
 11
-48.88663390088936
 21
94.96454758380258
 31
0.0
 11
-48.8270897055521
 21
95.39145339352235
 31
0.0
 11
-48.79147879774626
 21
95.82099348270589
 31
0.0
 11
-48.77954872583508
 21
96.25578457755137
 31
0.0
 11
-48.79147879774626
 21
96.69057567239685
 31
0.0
 11
-48.8270897055521
 21
97.12011576158037
 31
0.0
 11
-48.88663390088936
 21
97.54702157130014
 31
0.0
 11
-48.9682946171015
 21
97.95848178068503
 31
0.0
 11
-49.07408257052207
 21
98.3644639009346
 31
0.0
 11
-49.19896769744273
 21
98.7457301655239
 31
0.0
 11
-49.3482054115798
 21
99.11823578397662
 31
0.0
 11
-49.51231311117754
 21
99.4582959753087
 31
0.0
 11
-49.70083318837194
 21
99.78561489109475
 31
0.0
 11
-49.89923437179414
 21
100.0748830972064
 31
0.0
 11
-50.12155137520696
 21
100.3464663166376
 31
0.0
 11
-50.34872590266073
 21
100.5769573453144
 31
0.0
 11
-50.59805017923721
 21
100.7837163073874
 31
0.0
 11
-50.84819858687005
 21
100.9489390641553
 31
0.0
 11
-51.11635796458499
 21
101.0836457089624
 31
0.0
 11
-51.38335598702688
 21
101.1782140592068
 31
0.0
 11
-51.66080950091791
 21
101.2362910137971
 31
0.0
 11
-51.9375
 21
101.2557845775513
 31
0.0
 11
-52.21419049908208
 21
101.2362910137971
 31
0.0
  0
SPLINE
  5
159
330
1F
100
AcDbEntity
  8
1
  6
Continuous
 62
     7
100
AcDbSpline
210
0.0
220
0.0
230
1.0
 70
    11
 71
     3
 72
    79
 73
    75
 74
    73
 42
0.000000001
 43
0.0000000001
 44
0.00000001
 40
0.0
 40
0.0
 40
0.0
 40
0.0
 40
0.4412387893398303
 40
0.882385836868447
 40
1.334426558211921
 40
1.786315089948809
 40
2.254406053980237
 40
2.722326041483917
 40
3.209392711564174
 40
3.696301366205176
 40
4.202799305223363
 40
4.709168325014375
 40
5.233285206390587
 40
5.757307111573595
 40
6.295368475091752
 40
6.83336826912226
 40
7.380339151918987
 40
7.927279927084017
 40
8.47730240653448
 40
9.027324885978727
 40
9.57426566112491
 40
10.12123654388936
 40
10.65923633787349
 40
11.19729770132879
 40
11.7213196064321
 40
12.24543648770695
 40
12.7518055073753
 40
13.25830344624131
 40
13.74521210070182
 40
14.23227877055979
 40
14.70019875779835
 40
15.1682897214947
 40
15.62017825279482
 40
16.07221897345758
 40
16.51336601930393
 40
16.954604817041
 40
17.39199718515776
 40
17.82938955327328
 40
18.27062835100683
 40
18.7117753968474
 40
19.16381611750228
 40
19.6157046487928
 40
20.08379561247778
 40
20.55171559970379
 40
21.03878226954783
 40
21.52569092399382
 40
22.03218886284428
 40
22.53855788249686
 40
23.06267476375528
 40
23.58669666884217
 40
24.1247580322807
 40
24.66275782624815
 40
25.20972870899569
 40
25.75666948412516
 40
26.30669196355271
 40
26.85671444298651
 40
27.40365521813496
 40
27.95062610091494
 40
28.48862589492871
 40
29.02668725842966
 40
29.5507091635953
 40
30.07482604495322
 40
30.58119506472511
 40
31.08769300372187
 40
31.57460165833859
 40
32.06166832838836
 40
32.5295883158511
 40
32.99767927981826
 40
33.44956781143527
 40
33.9016085324854
 40
34.34275557882268
 40
34.78399437728512
 40
35.22138674713836
 40
35.65877910691729
 40
35.65877910691729
 40
35.65877910691729
 40
35.65877910691729
 10
-56.70839397112393
 20
96.69250160605333
 30
0.0
 10
-56.72919634616995
 20
96.83825681137932
 30
0.0
 10
-56.77079676457619
 20
97.12973691777877
 30
0.0
 10
-56.89465698872357
 20
97.55831598386447
 30
0.0
 10
-57.06057420948677
 20
97.97552793023017
 30
0.0
 10
-57.27424434842067
 20
98.38084656600539
 30
0.0
 10
-57.52949396746692
 20
98.76756428681514
 30
0.0
 10
-57.82830990568569
 20
99.1368664052083
 30
0.0
 10
-58.16400248361536
 20
99.48176766472571
 30
0.0
 10
-58.53863189438616
 20
99.80391802705857
 30
0.0
 10
-58.94434610086653
 20
100.0970236402743
 30
0.0
 10
-59.38315889905118
 20
100.3624857364539
 30
0.0
 10
-59.84666207964015
 20
100.5953165340405
 30
0.0
 10
-60.33622231712927
 20
100.7963180861187
 30
0.0
 10
-60.84367968901167
 20
100.9620691589903
 30
0.0
 10
-61.36912817259404
 20
101.0927810458544
 30
0.0
 10
-61.90541694606638
 20
101.1865261284914
 30
0.0
 10
-62.45089332779491
 20
101.2432150952211
 30
0.0
 10
-62.99999999021306
 20
101.2620869712941
 30
0.0
 10
-63.54910665264501
 20
101.2432150954426
 30
0.0
 10
-64.09458303434
 20
101.1865261289324
 30
0.0
 10
-64.63087180795553
 20
101.0927810465393
 30
0.0
 10
-65.15632029104773
 20
100.962069159857
 30
0.0
 10
-65.66377766478925
 20
100.7963180874383
 30
0.0
 10
-66.15333789558471
 20
100.595316534876
 30
0.0
 10
-66.61684110083681
 20
100.3624857403083
 30
0.0
 10
-67.05565381007693
 20
100.0970236345295
 30
0.0
 10
-67.46136834208667
 20
99.80391805784555
 30
0.0
 10
-67.83599658289629
 20
99.4817675656993
 30
0.0
 10
-68.17169343561812
 20
99.13686678213176
 30
0.0
 10
-68.47049401623366
 20
98.7675629556159
 30
0.0
 10
-68.72579982881764
 20
98.38085148687378
 30
0.0
 10
-68.93926713609673
 20
97.97551028653183
 30
0.0
 10
-69.10592991216666
 20
97.55838128493895
 30
0.0
 10
-69.2270711449273
 20
97.12949972696451
 30
0.0
 10
-69.29936070022927
 20
96.6946550943705
 30
0.0
 10
-69.32413724935978
 20
96.25578457805764
 30
0.0
 10
-69.29936070024738
 20
95.81691406174488
 30
0.0
 10
-69.22707114496343
 20
95.38206942915146
 30
0.0
 10
-69.10592991222072
 20
94.95318787117787
 30
0.0
 10
-68.93926713616844
 20
94.53605886958624
 30
0.0
 10
-68.72579982890682
 20
94.13071766924594
 30
0.0
 10
-68.47049401633994
 20
93.74400620050586
 30
0.0
 10
-68.17169343574119
 20
93.37470237399256
 30
0.0
 10
-67.83599658303572
 20
93.02980159042815
 30
0.0
 10
-67.46136834224231
 20
92.70765109828544
 30
0.0
 10
-67.05565381024846
 20
92.4145455216056
 30
0.0
 10
-66.61684110102397
 20
92.14908341583154
 30
0.0
 10
-66.15333789578727
 20
91.91625262126931
 30
0.0
 10
-65.66377766500722
 20
91.71525106871293
 30
0.0
 10
-65.15632029128096
 20
91.54949999630101
 30
0.0
 10
-64.63087180820418
 20
91.41878810962606
 30
0.0
 10
-64.09458303460438
 20
91.32504302724104
 30
0.0
 10
-63.54910665292462
 20
91.26835406073967
 30
0.0
 10
-62.99999999051151
 20
91.24948218489789
 30
0.0
 10
-62.45089332810115
 20
91.26835406097996
 30
0.0
 10
-61.90541694642456
 20
91.32504302772469
 30
0.0
 10
-61.36912817284458
 20
91.41878811035647
 30
0.0
 10
-60.84367968974694
 20
91.54949999729142
 30
0.0
 10
-60.33622231617314
 20
91.715251069954
 30
0.0
 10
-59.84666208494059
 20
91.91625262284259
 30
0.0
 10
-59.38315888150013
 20
92.14908341750102
 30
0.0
 10
-58.9443461659605
 20
92.41454552429329
 30
0.0
 10
-58.53863165728862
 20
92.70765109871216
 30
0.0
 10
-58.16400333293309
 20
93.0298016005099
 30
0.0
 10
-57.82830678587152
 20
93.37470235045157
 30
0.0
 10
-57.52950510761227
 20
93.74400629949317
 30
0.0
 10
-57.27420331188689
 20
94.1307173217964
 30
0.0
 10
-57.06072150635864
 20
94.53606013557254
 30
0.0
 10
-56.89411202285834
 20
94.95318320886265
 30
0.0
 10
-56.77277643654318
 20
95.38208638955281
 30
0.0
 10
-56.70120655030417
 20
95.81685095939287
 30
0.0
 10
-56.67376608962984
 20
96.25601783685201
 30
0.0
 10
-56.69685134627238
 20
96.54700701728129
 30
0.0
 10
-56.70839397112393
 20
96.69250160605333
 30
0.0
 11
-56.70839397112393
 21
96.69250160605333
 31
0.0
 11
-56.7808786437416
 21
97.12774596157928
 31
0.0
 11
-56.90029837173149
 21
97.55242189069747
 31
0.0
 11
-57.0679133112481
 21
97.97223857132519
 31
0.0
 11
-57.27797534750209
 21
98.37233504191673
 31
0.0
 11
-57.53562761575303
 21
98.7631348104572
 31
0.0
 11
-57.8295248282358
 21
99.12724131008498
 31
0.0
 11
-58.16896764718567
 21
99.47654420681663
 31
0.0
 11
-58.53784406161849
 21
99.79436527088501
 31
0.0
 11
-58.94817664223288
 21
100.0912951202745
 31
0.0
 11
-59.3812431090406
 21
100.3537127635279
 31
0.0
 11
-59.84943439615056
 21
100.5892874310739
 31
0.0
 11
-60.33408876431768
 21
100.7885588552958
 31
0.0
 11
-60.84547508844248
 21
100.9558731057396
 31
0.0
 11
-61.36752601267784
 21
101.0858985297255
 31
0.0
 11
-61.90629804304968
 21
101.1802481239214
 31
0.0
 11
-62.45030422621645
 21
101.2368297837583
 31
0.0
 11
-63.00000000000001
 21
101.2557845775514
 31
0.0
 11
-63.54969577378358
 21
101.2368297837583
 31
0.0
 11
-64.0937019569504
 21
101.1802481239214
 31
0.0
 11
-64.63247398732227
 21
101.0858985297255
 31
0.0
 11
-65.15452491155763
 21
100.9558731057395
 31
0.0
 11
-65.66591123568242
 21
100.7885588552957
 31
0.0
 11
-66.15056560384953
 21
100.5892874310738
 31
0.0
 11
-66.6187568909595
 21
100.3537127635278
 31
0.0
 11
-67.05182335776722
 21
100.0912951202744
 31
0.0
 11
-67.46215593838163
 21
99.79436527088491
 31
0.0
 11
-67.83103235281442
 21
99.47654420681653
 31
0.0
 11
-68.17047517176425
 21
99.12724131008486
 31
0.0
 11
-68.46437238424701
 21
98.76313481045706
 31
0.0
 11
-68.72202465249796
 21
98.37233504191661
 31
0.0
 11
-68.93208668875201
 21
97.97223857132508
 31
0.0
 11
-69.0997016282686
 21
97.55242189069735
 31
0.0
 11
-69.21912135625848
 21
97.12774596157912
 31
0.0
 11
-69.29160602887612
 21
96.69250160605318
 31
0.0
 11
-69.31590254832984
 21
96.25578457755127
 31
0.0
 11
-69.29160602887607
 21
95.81906754904938
 31
0.0
 11
-69.2191213562584
 21
95.38382319352345
 31
0.0
 11
-69.09970162826852
 21
94.95914726440525
 31
0.0
 11
-68.93208668875191
 21
94.53933058377754
 31
0.0
 11
-68.72202465249791
 21
94.13923411318599
 31
0.0
 11
-68.46437238424697
 21
93.7484343446455
 31
0.0
 11
-68.1704751717642
 21
93.38432784501774
 31
0.0
 11
-67.83103235281433
 21
93.0350249482861
 31
0.0
 11
-67.46215593838153
 21
92.7172038842177
 31
0.0
 11
-67.05182335776713
 21
92.42027403482817
 31
0.0
 11
-66.6187568909594
 21
92.15785639157488
 31
0.0
 11
-66.15056560384943
 21
91.92228172402889
 31
0.0
 11
-65.66591123568233
 21
91.72301029980694
 31
0.0
 11
-65.15452491155753
 21
91.55569604936318
 31
0.0
 11
-64.6324739873222
 21
91.4256706253772
 31
0.0
 11
-64.0937019569504
 21
91.33132103118132
 31
0.0
 11
-63.5496957737836
 21
91.27473937134448
 31
0.0
 11
-63.0
 21
91.25578457755135
 31
0.0
 11
-62.45030422621641
 21
91.2747393713445
 31
0.0
 11
-61.9062980430496
 21
91.33132103118135
 31
0.0
 11
-61.36752601267773
 21
91.42567062537722
 31
0.0
 11
-60.84547508844238
 21
91.5556960493632
 31
0.0
 11
-60.33408876431763
 21
91.72301029980699
 31
0.0
 11
-59.84943439615055
 21
91.92228172402895
 31
0.0
 11
-59.38124310904054
 21
92.15785639157495
 31
0.0
 11
-58.94817664223278
 21
92.42027403482825
 31
0.0
 11
-58.53784406161837
 21
92.71720388421777
 31
0.0
 11
-58.16896764718558
 21
93.03502494828616
 31
0.0
 11
-57.82952482823575
 21
93.38432784501782
 31
0.0
 11
-57.53562761575301
 21
93.74843434464563
 31
0.0
 11
-57.27797534750209
 21
94.13923411318612
 31
0.0
 11
-57.06791331124809
 21
94.53933058377767
 31
0.0
 11
-56.90029837173144
 21
94.95914726440537
 31
0.0
 11
-56.78087864374152
 21
95.38382319352357
 31
0.0
 11
-56.70839397112387
 21
95.8190675490495
 31
0.0
 11
-56.68409745167014
 21
96.25578457755141
 31
0.0
 11
-56.70839397112393
 21
96.69250160605333
 31
0.0
  0
SOLID
  5
15A
330
1F
100
AcDbEntity
  8
1
 62
     2
100
AcDbTrace
 10
-50.60094957416175
 20
72.81859833219642
 30
0.0
 11
-51.39905042583823
 21
72.35781459064053
 31
0.0
 12
-52.75
 22
75.619295374664
 32
0.0
 13
-52.75
 23
75.619295374664
 33
0.0
  0
LEADER
  5
15B
330
1F
100
AcDbEntity
  8
1
  6
Continuous
 62
     2
100
AcDbLeader
  3
Standard
 71
     0
 76
     3
 10
-52.75
 20
75.619295374664
 30
0.0
 10
-41.1341193995322
 20
55.50000000000001
 30
0.0
 10
-27.5861258101591
 20
55.50000000000001
 30
0.0
  0
SOLID
  5
15C
330
1F
100
AcDbEntity
  8
1
 62
     2
100
AcDbTrace
 10
-51.13794342690795
 20
134.5172653615749
 30
0.0
 11
-50.33984257523147
 21
134.056481620019
 31
0.0
 12
-52.4888930010697
 22
131.2557845775514
 32
0.0
 13
-52.4888930010697
 23
131.2557845775514
 33
0.0
  0
LEADER
  5
15D
330
1F
100
AcDbEntity
  8
1
  6
Continuous
 62
     2
100
AcDbLeader
  3
Standard
 71
     0
 76
     3
 10
-52.4888930010697
 20
131.2557845775514
 30
0.0
 10
-45.4196919309032
 20
143.5
 30
0.0
 10
-32.5355234970349
 20
143.5
 30
0.0
  0
TEXT
  5
15E
330
1F
100
AcDbEntity
  8
1
 62
     7
100
AcDbText
 10
-42.7559560104875
 20
144.6496243369684
 30
0.0
 40
3.0
  1
G1/2
 41
0.9
  7
CONVERTER_11
100
AcDbText
  0
TEXT
  5
15F
330
1F
100
AcDbEntity
  8
1
 62
     7
100
AcDbText
 10
-40.1463353298487
 20
56.50207873747332
 30
0.0
 40
3.0
  1
PJ1/2
 41
0.9
  7
CONVERTER_11
100
AcDbText
  0
DIMENSION
  5
16A
330
1F
100
AcDbEntity
  8
0
100
AcDbDimension
  2
*D3
 10
-103.925290065646
 20
61.25578457755137
 30
0.0
 11
-107.425290065646
 21
96.128782422897
 31
0.0
 70
    32
  1
<>
 71
     5
 42
-1.0
 53
90.0
  3
ME10_DIM_10
100
AcDbAlignedDimension
 13
-76.0
 23
131.2557845775514
 33
0.0
 14
-71.75
 24
61.25578457755136
 34
0.0
 50
90.0
100
AcDbRotatedDimension
  0
DIMENSION
  5
175
330
1F
100
AcDbEntity
  8
1
100
AcDbDimension
  2
*D4
 10
-96.02305290293401
 20
131.2557845775513
 30
0.0
 11
-99.52305290293401
 21
117.5448530477502
 31
0.0
 70
    32
  1
<>
 71
     5
 42
-1.0
 53
90.0
  3
ME10_DIM_11
100
AcDbAlignedDimension
 13
-76.0
 23
101.2557845775514
 33
0.0
 14
-76.0
 24
131.2557845775514
 34
0.0
 50
90.0
100
AcDbRotatedDimension
  0
DIMENSION
  5
180
330
1F
100
AcDbEntity
  8
1
100
AcDbDimension
  2
*D5
 10
-37.66852590370201
 20
182.886225288832
 30
0.0
 11
-41.16852590370201
 21
169.919595771484
 31
0.0
 70
    32
  1
<>
 71
     5
 42
-1.0
 53
90.0
  3
ME10_DIM_12
100
AcDbAlignedDimension
 13
-55.49444650053481
 23
156.886225288832
 33
0.0
 14
-55.49444650053491
 24
182.886225288832
 34
0.0
 50
90.0
100
AcDbRotatedDimension
  0
DIMENSION
  5
18B
330
1F
100
AcDbEntity
  8
1
100
AcDbDimension
  2
*D6
 10
-87.98292295054301
 20
86.25578457755135
 30
0.0
 11
-91.48292295054301
 21
74.9321643000744
 31
0.0
 70
    32
  1
<>
 71
     5
 42
-1.0
 53
90.0
  3
ME10_DIM_13
100
AcDbAlignedDimension
 13
-71.75
 23
61.25578457755136
 33
0.0
 14
-73.25
 24
86.25578457755135
 34
0.0
 50
90.0
100
AcDbRotatedDimension
  0
DIMENSION
  5
196
330
1F
100
AcDbEntity
  8
1
100
AcDbDimension
  2
*D7
 10
-78.01110699893019
 20
194.081059090545
 30
0.0
 11
-63.3370918773453
 21
197.581059090545
 31
0.0
 70
    33
  1
30
 71
     5
 42
-1.0
 53
0.00013888888889
  3
ME10_DIM_14
100
AcDbAlignedDimension
 13
-47.9888930010697
 23
169.886225288832
 33
0.0
 14
-78.01110699893019
 24
169.886225288832
 34
0.0
  0
DIMENSION
  5
1A1
330
1F
100
AcDbEntity
  8
0
100
AcDbDimension
  2
*D8
 10
-96.02305290293401
 20
61.25578457755135
 30
0.0
 11
-99.52305290293401
 21
77.3185590277855
 31
0.0
 70
    32
  1
<>
 71
     5
 42
-1.0
 53
90.0
  3
ME10_DIM_15
100
AcDbAlignedDimension
 13
-73.25
 23
91.25578457755135
 33
0.0
 14
-71.75
 24
61.25578457755136
 34
0.0
 50
90.0
100
AcDbRotatedDimension
  0
ENDSEC
  0
SECTION
  2
OBJECTS
  0
DICTIONARY
  5
C
330
0
100
AcDbDictionary
281
     1
  3
ACAD_GROUP
350
D
  3
ACAD_LAYOUT
350
1A
  3
ACAD_MATERIAL
350
3B
  3
ACAD_MLEADERSTYLE
350
1A4
  3
ACAD_MLINESTYLE
350
17
  3
ACAD_PLOTSETTINGS
350
19
  3
ACAD_PLOTSTYLENAME
350
E
  3
ACAD_VISUALSTYLE
350
2A
  3
AcDbVariableDictionary
350
1A2
  0
DICTIONARY
  5
D
102
{ACAD_REACTORS
330
C
102
}
330
C
100
AcDbDictionary
281
     1
  0
DICTIONARY
  5
1A
102
{ACAD_REACTORS
330
C
102
}
330
C
100
AcDbDictionary
281
     1
  3
Layout1
350
1E
  3
Layout2
350
26
  3
Model
350
22
  0
DICTIONARY
  5
3B
102
{ACAD_REACTORS
330
C
102
}
330
C
100
AcDbDictionary
281
     1
  3
ByBlock
350
3D
  3
ByLayer
350
3C
  3
Global
350
3E
  0
DICTIONARY
  5
1A4
102
{ACAD_REACTORS
330
C
102
}
330
C
100
AcDbDictionary
281
     1
  0
DICTIONARY
  5
17
102
{ACAD_REACTORS
330
C
102
}
330
C
100
AcDbDictionary
281
     1
  3
Standard
350
18
  0
DICTIONARY
  5
19
102
{ACAD_REACTORS
330
C
102
}
330
C
100
AcDbDictionary
281
     1
  0
ACDBDICTIONARYWDFLT
  5
E
102
{ACAD_REACTORS
330
C
102
}
330
C
100
AcDbDictionary
281
     1
  3
Normal
350
F
100
AcDbDictionaryWithDefault
340
F
  0
DICTIONARY
  5
2A
102
{ACAD_REACTORS
330
C
102
}
330
C
100
AcDbDictionary
281
     1
  3
2dWireframe
350
2F
  3
3D Hidden
350
31
  3
3dWireframe
350
30
  3
Basic
350
32
  3
Brighten
350
36
  3
ColorChange
350
3A
  3
Conceptual
350
34
  3
Dim
350
35
  3
Facepattern
350
39
  3
Flat
350
2B
  3
FlatWithEdges
350
2C
  3
Gouraud
350
2D
  3
GouraudWithEdges
350
2E
  3
Linepattern
350
38
  3
Realistic
350
33
  3
Thicken
350
37
  0
DICTIONARY
  5
1A2
102
{ACAD_REACTORS
330
C
102
}
330
C
100
AcDbDictionary
281
     1
  3
DIMASSOC
350
1A5
  3
HIDETEXT
350
1A6
  0
LAYOUT
  5
1E
102
{ACAD_REACTORS
330
1A
102
}
330
1A
100
AcDbPlotSettings
  1

  2
none_device
  4

  6

 40
0.0
 41
0.0
 42
0.0
 43
0.0
 44
0.0
 45
0.0
 46
0.0
 47
0.0
 48
0.0
 49
0.0
140
0.0
141
0.0
142
1.0
143
1.0
 70
   688
 72
     0
 73
     0
 74
     5
  7

 75
    16
147
1.0
148
0.0
149
0.0
100
AcDbLayout
  1
Layout1
 70
     1
 71
     1
 10
0.0
 20
0.0
 11
12.0
 21
9.0
 12
0.0
 22
0.0
 32
0.0
 14
1.00000000000000E+20
 24
1.00000000000000E+20
 34
1.00000000000000E+20
 15
-1.00000000000000E+20
 25
-1.00000000000000E+20
 35
-1.00000000000000E+20
146
0.0
 13
0.0
 23
0.0
 33
0.0
 16
1.0
 26
0.0
 36
0.0
 17
0.0
 27
1.0
 37
0.0
 76
     0
330
1B
  0
LAYOUT
  5
26
102
{ACAD_REACTORS
330
1A
102
}
330
1A
100
AcDbPlotSettings
  1

  2
none_device
  4

  6

 40
0.0
 41
0.0
 42
0.0
 43
0.0
 44
0.0
 45
0.0
 46
0.0
 47
0.0
 48
0.0
 49
0.0
140
0.0
141
0.0
142
1.0
143
1.0
 70
   688
 72
     0
 73
     0
 74
     5
  7

 75
    16
147
1.0
148
0.0
149
0.0
100
AcDbLayout
  1
Layout2
 70
     1
 71
     2
 10
0.0
 20
0.0
 11
0.0
 21
0.0
 12
0.0
 22
0.0
 32
0.0
 14
0.0
 24
0.0
 34
0.0
 15
0.0
 25
0.0
 35
0.0
146
0.0
 13
0.0
 23
0.0
 33
0.0
 16
1.0
 26
0.0
 36
0.0
 17
0.0
 27
1.0
 37
0.0
 76
     0
330
23
  0
LAYOUT
  5
22
102
{ACAD_REACTORS
330
1A
102
}
330
1A
100
AcDbPlotSettings
  1

  2
none_device
  4

  6

 40
0.0
 41
0.0
 42
0.0
 43
0.0
 44
0.0
 45
0.0
 46
0.0
 47
0.0
 48
0.0
 49
0.0
140
0.0
141
0.0
142
1.0
143
1.0
 70
  1712
 72
     0
 73
     0
 74
     0
  7

 75
     0
147
1.0
148
0.0
149
0.0
100
AcDbLayout
  1
Model
 70
     1
 71
     0
 10
0.0
 20
0.0
 11
12.0
 21
9.0
 12
0.0
 22
0.0
 32
0.0
 14
-148.1055915719432
 24
-35.2928392756599
 34
0.0
 15
61.89440842805681
 25
261.7071607243403
 35
0.0
146
0.0
 13
0.0
 23
0.0
 33
0.0
 16
1.0
 26
0.0
 36
0.0
 17
0.0
 27
1.0
 37
0.0
 76
     0
330
1F
331
29
  0
MATERIAL
  5
3D
102
{ACAD_REACTORS
330
3B
102
}
102
{ACAD_XDICTIONARY
360
1C9
102
}
330
3B
100
AcDbMaterial
  1
ByBlock
  0
MATERIAL
  5
3C
102
{ACAD_REACTORS
330
3B
102
}
102
{ACAD_XDICTIONARY
360
1C7
102
}
330
3B
100
AcDbMaterial
  1
ByLayer
  0
MATERIAL
  5
3E
102
{ACAD_REACTORS
330
3B
102
}
102
{ACAD_XDICTIONARY
360
1CB
102
}
330
3B
100
AcDbMaterial
  1
Global
  0
MLINESTYLE
  5
18
102
{ACAD_REACTORS
330
17
102
}
330
17
100
AcDbMlineStyle
  2
Standard
 70
     0
  3

 62
   256
 51
90.0
 52
90.0
 71
     2
 49
0.5
 62
   256
  6
BYLAYER
 49
-0.5
 62
   256
  6
BYLAYER
  0
ACDBPLACEHOLDER
  5
F
102
{ACAD_REACTORS
330
E
102
}
330
E
  0
VISUALSTYLE
  5
2F
102
{ACAD_REACTORS
330
2A
102
}
102
{ACAD_XDICTIONARY
360
1AF
102
}
330
2A
100
AcDbVisualStyle
  2
2dWireframe
 70
     4
 71
     0
 72
     2
 73
     0
 90
        0
 40
-0.6
 41
-30.0
 62
     5
 63
     7
 74
     1
 91
        4
 64
     7
 65
   257
 75
     1
175
     1
 42
1.0
 92
        0
 66
   257
 43
1.0
 76
     1
 77
     6
 78
     2
 67
     7
 79
     5
170
     0
171
     0
290
     0
174
     0
 93
        1
 44
0.0
173
     0
291
     0
 45
0.0
1001
ACAD
1000
AcDbSavedByObjectVersion
1070
     0
  0
VISUALSTYLE
  5
31
102
{ACAD_REACTORS
330
2A
102
}
102
{ACAD_XDICTIONARY
360
1B3
102
}
330
2A
100
AcDbVisualStyle
  2
3D Hidden
 70
     6
 71
     1
 72
     2
 73
     2
 90
        0
 40
-0.6
 41
-30.0
 62
     5
 63
     7
 74
     2
 91
        2
 64
     7
 65
   257
 75
     2
175
     1
 42
40.0
 92
        0
 66
   257
 43
1.0
 76
     1
 77
     6
 78
     2
 67
     7
 79
     3
170
     0
171
     0
290
     0
174
     0
 93
        1
 44
0.0
173
     0
291
     0
 45
0.0
1001
ACAD
1000
AcDbSavedByObjectVersion
1070
     0
  0
VISUALSTYLE
  5
30
102
{ACAD_REACTORS
330
2A
102
}
102
{ACAD_XDICTIONARY
360
1B1
102
}
330
2A
100
AcDbVisualStyle
  2
3dWireframe
 70
     5
 71
     0
 72
     2
 73
     0
 90
        0
 40
-0.6
 41
-30.0
 62
     5
 63
     7
 74
     1
 91
        4
 64
     7
 65
   257
 75
     1
175
     1
 42
1.0
 92
        0
 66
   257
 43
1.0
 76
     1
 77
     6
 78
     2
 67
     7
 79
     5
170
     0
171
     0
290
     0
174
     0
 93
        1
 44
0.0
173
     0
291
     0
 45
0.0
1001
ACAD
1000
AcDbSavedByObjectVersion
1070
     0
  0
VISUALSTYLE
  5
32
102
{ACAD_REACTORS
330
2A
102
}
102
{ACAD_XDICTIONARY
360
1B5
102
}
330
2A
100
AcDbVisualStyle
  2
Basic
 70
     7
 71
     1
 72
     0
 73
     1
 90
        0
 40
-0.6
 41
-30.0
 62
     5
 63
     7
 74
     0
 91
        4
 64
     7
 65
   257
 75
     1
175
     1
 42
1.0
 92
        8
 66
     7
 43
1.0
 76
     1
 77
     6
 78
     2
 67
     7
 79
     5
170
     0
171
     0
290
     0
174
     0
 93
        1
 44
0.0
173
     0
291
     1
 45
0.0
1001
ACAD
1000
AcDbSavedByObjectVersion
1070
     0
  0
VISUALSTYLE
  5
36
102
{ACAD_REACTORS
330
2A
102
}
102
{ACAD_XDICTIONARY
360
1BD
102
}
330
2A
100
AcDbVisualStyle
  2
Brighten
 70
    12
 71
     2
 72
     2
 73
     0
 90
        0
 40
-0.6
 41
-30.0
 62
     5
 63
     7
 74
     1
 91
        4
 64
     7
 65
   257
 75
     1
175
     1
 42
1.0
 92
        8
 66
     7
 43
1.0
 76
     1
 77
     6
 78
     2
 67
     7
 79
     5
170
     0
171
     0
290
     0
174
     0
 93
        1
 44
50.0
173
     0
291
     1
 45
0.0
1001
ACAD
1000
AcDbSavedByObjectVersion
1070
     0
  0
VISUALSTYLE
  5
3A
102
{ACAD_REACTORS
330
2A
102
}
102
{ACAD_XDICTIONARY
360
1C5
102
}
330
2A
100
AcDbVisualStyle
  2
ColorChange
 70
    16
 71
     2
 72
     2
 73
     3
 90
        0
 40
-0.6
 41
-30.0
 62
     5
 63
     8
 74
     1
 91
        4
 64
     7
 65
   257
 75
     1
175
     1
 42
1.0
 92
        8
 66
     8
 43
1.0
 76
     1
 77
     6
 78
     2
 67
     7
 79
     5
170
     0
171
     0
290
     0
174
     0
 93
        1
 44
0.0
173
     0
291
     1
 45
0.0
1001
ACAD
1000
AcDbSavedByObjectVersion
1070
     0
  0
VISUALSTYLE
  5
34
102
{ACAD_REACTORS
330
2A
102
}
102
{ACAD_XDICTIONARY
360
1B9
102
}
330
2A
100
AcDbVisualStyle
  2
Conceptual
 70
     9
 71
     3
 72
     2
 73
     0
 90
        0
 40
-0.6
 41
-30.0
 62
     5
 63
     7
 74
     2
 91
        2
 64
     7
 65
   257
 75
     1
175
     1
 42
40.0
 92
        8
 66
     7
 43
1.0
 76
     1
 77
     6
 78
     2
 67
     7
 79
     3
170
     0
171
     0
290
     0
174
     0
 93
        1
 44
0.0
173
     0
291
     0
 45
0.0
1001
ACAD
1000
AcDbSavedByObjectVersion
1070
     0
  0
VISUALSTYLE
  5
35
102
{ACAD_REACTORS
330
2A
102
}
102
{ACAD_XDICTIONARY
360
1BB
102
}
330
2A
100
AcDbVisualStyle
  2
Dim
 70
    11
 71
     2
 72
     2
 73
     0
 90
        0
 40
-0.6
 41
-30.0
 62
     5
 63
     7
 74
     1
 91
        4
 64
     7
 65
   257
 75
     1
175
     1
 42
1.0
 92
        8
 66
     7
 43
1.0
 76
     1
 77
     6
 78
     2
 67
     7
 79
     5
170
     0
171
     0
290
     0
174
     0
 93
        1
 44
-50.0
173
     0
291
     1
 45
0.0
1001
ACAD
1000
AcDbSavedByObjectVersion
1070
     0
  0
VISUALSTYLE
  5
39
102
{ACAD_REACTORS
330
2A
102
}
102
{ACAD_XDICTIONARY
360
1C3
102
}
330
2A
100
AcDbVisualStyle
  2
Facepattern
 70
    15
 71
     2
 72
     2
 73
     0
 90
        0
 40
-0.6
 41
-30.0
 62
     5
 63
     7
 74
     1
 91
        4
 64
     7
 65
   257
 75
     1
175
     1
 42
1.0
 92
        8
 66
     7
 43
1.0
 76
     1
 77
     6
 78
     2
 67
     7
 79
     5
170
     0
171
     0
290
     0
174
     0
 93
        1
 44
0.0
173
     0
291
     1
 45
0.0
1001
ACAD
1000
AcDbSavedByObjectVersion
1070
     0
  0
VISUALSTYLE
  5
2B
102
{ACAD_REACTORS
330
2A
102
}
102
{ACAD_XDICTIONARY
360
1A7
102
}
330
2A
100
AcDbVisualStyle
  2
Flat
 70
     0
 71
     2
 72
     1
 73
     1
 90
        2
 40
-0.6
 41
30.0
 62
     5
 63
     7
 74
     0
 91
        4
 64
     7
 65
   257
 75
     1
175
     1
 42
1.0
 92
        8
 66
     7
 43
1.0
 76
     1
 77
     6
 78
     2
 67
     7
 79
     5
170
     0
171
     0
290
     0
174
     0
 93
       13
 44
0.0
173
     0
291
     1
 45
0.0
1001
ACAD
1000
AcDbSavedByObjectVersion
1070
     0
  0
VISUALSTYLE
  5
2C
102
{ACAD_REACTORS
330
2A
102
}
102
{ACAD_XDICTIONARY
360
1A9
102
}
330
2A
100
AcDbVisualStyle
  2
FlatWithEdges
 70
     1
 71
     2
 72
     1
 73
     1
 90
        2
 40
-0.6
 41
30.0
 62
     5
 63
     7
 74
     1
 91
        4
 64
     7
 65
   257
 75
     1
175
     1
 42
1.0
 92
        0
 66
   257
 43
1.0
 76
     1
 77
     6
 78
     2
 67
     7
 79
     5
170
     0
171
     0
290
     0
174
     0
 93
       13
 44
0.0
173
     0
291
     1
 45
0.0
1001
ACAD
1000
AcDbSavedByObjectVersion
1070
     0
  0
VISUALSTYLE
  5
2D
102
{ACAD_REACTORS
330
2A
102
}
102
{ACAD_XDICTIONARY
360
1AB
102
}
330
2A
100
AcDbVisualStyle
  2
Gouraud
 70
     2
 71
     2
 72
     2
 73
     1
 90
        2
 40
-0.6
 41
30.0
 62
     5
 63
     7
 74
     0
 91
        4
 64
     7
 65
   257
 75
     1
175
     1
 42
1.0
 92
        0
 66
     7
 43
1.0
 76
     1
 77
     6
 78
     2
 67
     7
 79
     5
170
     0
171
     0
290
     0
174
     0
 93
       13
 44
0.0
173
     0
291
     1
 45
0.0
1001
ACAD
1000
AcDbSavedByObjectVersion
1070
     0
  0
VISUALSTYLE
  5
2E
102
{ACAD_REACTORS
330
2A
102
}
102
{ACAD_XDICTIONARY
360
1AD
102
}
330
2A
100
AcDbVisualStyle
  2
GouraudWithEdges
 70
     3
 71
     2
 72
     2
 73
     1
 90
        2
 40
-0.6
 41
30.0
 62
     5
 63
     7
 74
     1
 91
        4
 64
     7
 65
   257
 75
     1
175
     1
 42
1.0
 92
        0
 66
   257
 43
1.0
 76
     1
 77
     6
 78
     2
 67
     7
 79
     5
170
     0
171
     0
290
     0
174
     0
 93
       13
 44
0.0
173
     0
291
     1
 45
0.0
1001
ACAD
1000
AcDbSavedByObjectVersion
1070
     0
  0
VISUALSTYLE
  5
38
102
{ACAD_REACTORS
330
2A
102
}
102
{ACAD_XDICTIONARY
360
1C1
102
}
330
2A
100
AcDbVisualStyle
  2
Linepattern
 70
    14
 71
     2
 72
     2
 73
     0
 90
        0
 40
-0.6
 41
-30.0
 62
     5
 63
     7
 74
     1
 91
        4
 64
     7
 65
   257
 75
     7
175
     7
 42
1.0
 92
        8
 66
     7
 43
1.0
 76
     1
 77
     6
 78
     2
 67
     7
 79
     5
170
     0
171
     0
290
     0
174
     0
 93
        1
 44
0.0
173
     0
291
     1
 45
0.0
1001
ACAD
1000
AcDbSavedByObjectVersion
1070
     0
  0
VISUALSTYLE
  5
33
102
{ACAD_REACTORS
330
2A
102
}
102
{ACAD_XDICTIONARY
360
1B7
102
}
330
2A
100
AcDbVisualStyle
  2
Realistic
 70
     8
 71
     2
 72
     2
 73
     0
 90
        0
 40
-0.6
 41
-30.0
 62
     5
 63
     7
 74
     1
 91
        0
 64
     7
 65
   257
 75
     1
175
     1
 42
1.0
 92
        8
 66
     8
 43
1.0
 76
     1
 77
     6
 78
     2
 67
     7
 79
     5
170
     0
171
     0
290
     0
174
     0
 93
       13
 44
0.0
173
     0
291
     0
 45
0.0
1001
ACAD
1000
AcDbSavedByObjectVersion
1070
     0
  0
VISUALSTYLE
  5
37
102
{ACAD_REACTORS
330
2A
102
}
102
{ACAD_XDICTIONARY
360
1BF
102
}
330
2A
100
AcDbVisualStyle
  2
Thicken
 70
    13
 71
     2
 72
     2
 73
     0
 90
        0
 40
-0.6
 41
-30.0
 62
     5
 63
     7
 74
     1
 91
        4
 64
     7
 65
   257
 75
     1
175
     1
 42
1.0
 92
       12
 66
     7
 43
1.0
 76
     1
 77
     6
 78
     2
 67
     7
 79
     5
170
     0
171
     0
290
     0
174
     0
 93
        1
 44
0.0
173
     0
291
     1
 45
0.0
1001
ACAD
1000
AcDbSavedByObjectVersion
1070
     0
  0
DICTIONARYVAR
  5
1A5
102
{ACAD_REACTORS
330
1A2
102
}
330
1A2
100
DictionaryVariables
280
     0
  1
2
  0
DICTIONARYVAR
  5
1A6
102
{ACAD_REACTORS
330
1A2
102
}
330
1A2
100
DictionaryVariables
280
     0
  1
1
  0
DICTIONARY
  5
1C9
330
3D
100
AcDbDictionary
280
     1
281
     1
  3
ACAD_XREC_ROUNDTRIP
360
1CA
  0
DICTIONARY
  5
1C7
330
3C
100
AcDbDictionary
280
     1
281
     1
  3
ACAD_XREC_ROUNDTRIP
360
1C8
  0
DICTIONARY
  5
1CB
330
3E
100
AcDbDictionary
280
     1
281
     1
  3
ACAD_XREC_ROUNDTRIP
360
1CC
  0
DICTIONARY
  5
1AF
330
2F
100
AcDbDictionary
280
     1
281
     1
  3
ACAD_XREC_ROUNDTRIP
360
1B0
  0
DICTIONARY
  5
1B3
330
31
100
AcDbDictionary
280
     1
281
     1
  3
ACAD_XREC_ROUNDTRIP
360
1B4
  0
DICTIONARY
  5
1B1
330
30
100
AcDbDictionary
280
     1
281
     1
  3
ACAD_XREC_ROUNDTRIP
360
1B2
  0
DICTIONARY
  5
1B5
330
32
100
AcDbDictionary
280
     1
281
     1
  3
ACAD_XREC_ROUNDTRIP
360
1B6
  0
DICTIONARY
  5
1BD
330
36
100
AcDbDictionary
280
     1
281
     1
  3
ACAD_XREC_ROUNDTRIP
360
1BE
  0
DICTIONARY
  5
1C5
330
3A
100
AcDbDictionary
280
     1
281
     1
  3
ACAD_XREC_ROUNDTRIP
360
1C6
  0
DICTIONARY
  5
1B9
330
34
100
AcDbDictionary
280
     1
281
     1
  3
ACAD_XREC_ROUNDTRIP
360
1BA
  0
DICTIONARY
  5
1BB
330
35
100
AcDbDictionary
280
     1
281
     1
  3
ACAD_XREC_ROUNDTRIP
360
1BC
  0
DICTIONARY
  5
1C3
330
39
100
AcDbDictionary
280
     1
281
     1
  3
ACAD_XREC_ROUNDTRIP
360
1C4
  0
DICTIONARY
  5
1A7
330
2B
100
AcDbDictionary
280
     1
281
     1
  3
ACAD_XREC_ROUNDTRIP
360
1A8
  0
DICTIONARY
  5
1A9
330
2C
100
AcDbDictionary
280
     1
281
     1
  3
ACAD_XREC_ROUNDTRIP
360
1AA
  0
DICTIONARY
  5
1AB
330
2D
100
AcDbDictionary
280
     1
281
     1
  3
ACAD_XREC_ROUNDTRIP
360
1AC
  0
DICTIONARY
  5
1AD
330
2E
100
AcDbDictionary
280
     1
281
     1
  3
ACAD_XREC_ROUNDTRIP
360
1AE
  0
DICTIONARY
  5
1C1
330
38
100
AcDbDictionary
280
     1
281
     1
  3
ACAD_XREC_ROUNDTRIP
360
1C2
  0
DICTIONARY
  5
1B7
330
33
100
AcDbDictionary
280
     1
281
     1
  3
ACAD_XREC_ROUNDTRIP
360
1B8
  0
DICTIONARY
  5
1BF
330
37
100
AcDbDictionary
280
     1
281
     1
  3
ACAD_XREC_ROUNDTRIP
360
1C0
  0
XRECORD
  5
1CA
102
{ACAD_REACTORS
330
1C9
102
}
330
1C9
100
AcDbXrecord
280
     1
102
MATERIAL
148
0.0
149
0.0
149
0.0
 93
        0
 94
      127
282
     0
 72
     1
 77
     1
171
     1
175
     1
179
     1
273
     0
  0
XRECORD
  5
1C8
102
{ACAD_REACTORS
330
1C7
102
}
330
1C7
100
AcDbXrecord
280
     1
102
MATERIAL
148
0.0
149
0.0
149
0.0
 93
        0
 94
      127
282
     0
 72
     1
 77
     1
171
     1
175
     1
179
     1
273
     0
  0
XRECORD
  5
1CC
102
{ACAD_REACTORS
330
1CB
102
}
330
1CB
100
AcDbXrecord
280
     1
102
MATERIAL
148
0.0
149
0.0
149
0.0
 93
        0
 94
      127
282
     0
 72
     1
 77
     1
171
     1
175
     1
179
     1
273
     0
  0
XRECORD
  5
1B0
102
{ACAD_REACTORS
330
1AF
102
}
330
1AF
100
AcDbXrecord
280
     1
102
RTVSPropertyOp0
 70
     1
102
RTVSPropertyOp1
 70
     1
102
RTVSPropertyOp2
 70
     1
102
RTVSPropertyOp3
 70
     1
102
RTVSPropertyOp4
 70
     1
102
RTVSPropertyOp5
 70
     1
102
RTVSPropertyOp6
 70
     1
102
RTVSPropertyOp7
 70
     1
102
RTVSPropertyOp8
 70
     1
102
RTVSPropertyOp9
 70
     1
102
RTVSPropertyOp10
 70
     1
102
RTVSPropertyOp11
 70
     1
102
RTVSPropertyOp12
 70
     1
102
RTVSPropertyOp13
 70
     1
102
RTVSPropertyOp14
 70
     1
102
RTVSPropertyOp15
 70
     1
102
RTVSPropertyOp16
 70
     1
102
RTVSPropertyOp17
 70
     1
102
RTVSPropertyOp18
 70
     1
102
RTVSPropertyOp19
 70
     1
102
RTVSPropertyOp20
 70
     1
102
RTVSPropertyOp21
 70
     1
102
RTVSPropertyOp22
 70
     1
102
RTVSPropertyOp23
 70
     1
102
RTVSPropertyOp24
 70
     1
102
RTVSPropertyOp25
 70
     1
102
RTVSPropertyOp26
 70
     1
102
RTVSPropertyOp27
 70
     1
102
RTVSPropertyOp28
 70
     1
102
RTVSPropertyOp29
 70
     1
102
RTVSPropertyOp30
 70
     1
102
RTVSPropertyOp31
 70
     1
102
RTVSPropertyOp32
 70
     1
  0
XRECORD
  5
1B4
102
{ACAD_REACTORS
330
1B3
102
}
330
1B3
100
AcDbXrecord
280
     1
102
RTVSPropertyOp0
 70
     1
102
RTVSPropertyOp1
 70
     1
102
RTVSPropertyOp2
 70
     1
102
RTVSPropertyOp3
 70
     1
102
RTVSPropertyOp4
 70
     1
102
RTVSPropertyOp5
 70
     1
102
RTVSPropertyOp6
 70
     1
102
RTVSPropertyOp7
 70
     1
102
RTVSPropertyOp8
 70
     1
102
RTVSPropertyOp9
 70
     1
102
RTVSPropertyOp10
 70
     1
102
RTVSPropertyOp11
 70
     1
102
RTVSPropertyOp12
 70
     1
102
RTVSPropertyOp13
 70
     1
102
RTVSPropertyOp14
 70
     1
102
RTVSPropertyOp15
 70
     1
102
RTVSPropertyOp16
 70
     1
102
RTVSPropertyOp17
 70
     1
102
RTVSPropertyOp18
 70
     1
102
RTVSPropertyOp19
 70
     1
102
RTVSPropertyOp20
 70
     1
102
RTVSPropertyOp21
 70
     1
102
RTVSPropertyOp22
 70
     1
102
RTVSPropertyOp23
 70
     1
102
RTVSPropertyOp24
 70
     1
102
RTVSPropertyOp25
 70
     1
102
RTVSPropertyOp26
 70
     1
102
RTVSPropertyOp27
 70
     1
102
RTVSPropertyOp28
 70
     1
102
RTVSPropertyOp29
 70
     1
102
RTVSPropertyOp30
 70
     1
102
RTVSPropertyOp31
 70
     1
102
RTVSPropertyOp32
 70
     1
  0
XRECORD
  5
1B2
102
{ACAD_REACTORS
330
1B1
102
}
330
1B1
100
AcDbXrecord
280
     1
102
RTVSPropertyOp0
 70
     1
102
RTVSPropertyOp1
 70
     1
102
RTVSPropertyOp2
 70
     1
102
RTVSPropertyOp3
 70
     1
102
RTVSPropertyOp4
 70
     1
102
RTVSPropertyOp5
 70
     1
102
RTVSPropertyOp6
 70
     1
102
RTVSPropertyOp7
 70
     1
102
RTVSPropertyOp8
 70
     1
102
RTVSPropertyOp9
 70
     1
102
RTVSPropertyOp10
 70
     1
102
RTVSPropertyOp11
 70
     1
102
RTVSPropertyOp12
 70
     1
102
RTVSPropertyOp13
 70
     1
102
RTVSPropertyOp14
 70
     1
102
RTVSPropertyOp15
 70
     1
102
RTVSPropertyOp16
 70
     1
102
RTVSPropertyOp17
 70
     1
102
RTVSPropertyOp18
 70
     1
102
RTVSPropertyOp19
 70
     1
102
RTVSPropertyOp20
 70
     1
102
RTVSPropertyOp21
 70
     1
102
RTVSPropertyOp22
 70
     1
102
RTVSPropertyOp23
 70
     1
102
RTVSPropertyOp24
 70
     1
102
RTVSPropertyOp25
 70
     1
102
RTVSPropertyOp26
 70
     1
102
RTVSPropertyOp27
 70
     1
102
RTVSPropertyOp28
 70
     1
102
RTVSPropertyOp29
 70
     1
102
RTVSPropertyOp30
 70
     1
102
RTVSPropertyOp31
 70
     1
102
RTVSPropertyOp32
 70
     1
  0
XRECORD
  5
1B6
102
{ACAD_REACTORS
330
1B5
102
}
330
1B5
100
AcDbXrecord
280
     1
102
RTVSPropertyOp0
 70
     1
102
RTVSPropertyOp1
 70
     1
102
RTVSPropertyOp2
 70
     1
102
RTVSPropertyOp3
 70
     1
102
RTVSPropertyOp4
 70
     1
102
RTVSPropertyOp5
 70
     1
102
RTVSPropertyOp6
 70
     1
102
RTVSPropertyOp7
 70
     1
102
RTVSPropertyOp8
 70
     1
102
RTVSPropertyOp9
 70
     1
102
RTVSPropertyOp10
 70
     1
102
RTVSPropertyOp11
 70
     1
102
RTVSPropertyOp12
 70
     1
102
RTVSPropertyOp13
 70
     1
102
RTVSPropertyOp14
 70
     1
102
RTVSPropertyOp15
 70
     1
102
RTVSPropertyOp16
 70
     1
102
RTVSPropertyOp17
 70
     1
102
RTVSPropertyOp18
 70
     1
102
RTVSPropertyOp19
 70
     1
102
RTVSPropertyOp20
 70
     1
102
RTVSPropertyOp21
 70
     1
102
RTVSPropertyOp22
 70
     1
102
RTVSPropertyOp23
 70
     1
102
RTVSPropertyOp24
 70
     1
102
RTVSPropertyOp25
 70
     1
102
RTVSPropertyOp26
 70
     1
102
RTVSPropertyOp27
 70
     1
102
RTVSPropertyOp28
 70
     1
102
RTVSPropertyOp29
 70
     1
102
RTVSPropertyOp30
 70
     1
102
RTVSPropertyOp31
 70
     1
102
RTVSPropertyOp32
 70
     1
  0
XRECORD
  5
1BE
102
{ACAD_REACTORS
330
1BD
102
}
330
1BD
100
AcDbXrecord
280
     1
102
RTVSPropertyOp0
 70
     1
102
RTVSPropertyOp1
 70
     1
102
RTVSPropertyOp2
 70
     1
102
RTVSPropertyOp3
 70
     1
102
RTVSPropertyOp4
 70
     1
102
RTVSPropertyOp5
 70
     1
102
RTVSPropertyOp6
 70
     1
102
RTVSPropertyOp7
 70
     1
102
RTVSPropertyOp8
 70
     1
102
RTVSPropertyOp9
 70
     1
102
RTVSPropertyOp10
 70
     1
102
RTVSPropertyOp11
 70
     1
102
RTVSPropertyOp12
 70
     1
102
RTVSPropertyOp13
 70
     1
102
RTVSPropertyOp14
 70
     1
102
RTVSPropertyOp15
 70
     1
102
RTVSPropertyOp16
 70
     1
102
RTVSPropertyOp17
 70
     1
102
RTVSPropertyOp18
 70
     1
102
RTVSPropertyOp19
 70
     1
102
RTVSPropertyOp20
 70
     1
102
RTVSPropertyOp21
 70
     1
102
RTVSPropertyOp22
 70
     1
102
RTVSPropertyOp23
 70
     1
102
RTVSPropertyOp24
 70
     1
102
RTVSPropertyOp25
 70
     1
102
RTVSPropertyOp26
 70
     1
102
RTVSPropertyOp27
 70
     1
102
RTVSPropertyOp28
 70
     1
102
RTVSPropertyOp29
 70
     1
102
RTVSPropertyOp30
 70
     1
102
RTVSPropertyOp31
 70
     1
102
RTVSPropertyOp32
 70
     1
  0
XRECORD
  5
1C6
102
{ACAD_REACTORS
330
1C5
102
}
330
1C5
100
AcDbXrecord
280
     1
102
RTVSPropertyOp0
 70
     1
102
RTVSPropertyOp1
 70
     1
102
RTVSPropertyOp2
 70
     1
102
RTVSPropertyOp3
 70
     1
102
RTVSPropertyOp4
 70
     1
102
RTVSPropertyOp5
 70
     1
102
RTVSPropertyOp6
 70
     1
102
RTVSPropertyOp7
 70
     1
102
RTVSPropertyOp8
 70
     1
102
RTVSPropertyOp9
 70
     1
102
RTVSPropertyOp10
 70
     1
102
RTVSPropertyOp11
 70
     1
102
RTVSPropertyOp12
 70
     1
102
RTVSPropertyOp13
 70
     1
102
RTVSPropertyOp14
 70
     1
102
RTVSPropertyOp15
 70
     1
102
RTVSPropertyOp16
 70
     1
102
RTVSPropertyOp17
 70
     1
102
RTVSPropertyOp18
 70
     1
102
RTVSPropertyOp19
 70
     1
102
RTVSPropertyOp20
 70
     1
102
RTVSPropertyOp21
 70
     1
102
RTVSPropertyOp22
 70
     1
102
RTVSPropertyOp23
 70
     1
102
RTVSPropertyOp24
 70
     1
102
RTVSPropertyOp25
 70
     1
102
RTVSPropertyOp26
 70
     1
102
RTVSPropertyOp27
 70
     1
102
RTVSPropertyOp28
 70
     1
102
RTVSPropertyOp29
 70
     1
102
RTVSPropertyOp30
 70
     1
102
RTVSPropertyOp31
 70
     1
102
RTVSPropertyOp32
 70
     1
  0
XRECORD
  5
1BA
102
{ACAD_REACTORS
330
1B9
102
}
330
1B9
100
AcDbXrecord
280
     1
102
RTVSPropertyOp0
 70
     1
102
RTVSPropertyOp1
 70
     1
102
RTVSPropertyOp2
 70
     1
102
RTVSPropertyOp3
 70
     1
102
RTVSPropertyOp4
 70
     1
102
RTVSPropertyOp5
 70
     1
102
RTVSPropertyOp6
 70
     1
102
RTVSPropertyOp7
 70
     1
102
RTVSPropertyOp8
 70
     1
102
RTVSPropertyOp9
 70
     1
102
RTVSPropertyOp10
 70
     1
102
RTVSPropertyOp11
 70
     1
102
RTVSPropertyOp12
 70
     1
102
RTVSPropertyOp13
 70
     1
102
RTVSPropertyOp14
 70
     1
102
RTVSPropertyOp15
 70
     1
102
RTVSPropertyOp16
 70
     1
102
RTVSPropertyOp17
 70
     1
102
RTVSPropertyOp18
 70
     1
102
RTVSPropertyOp19
 70
     1
102
RTVSPropertyOp20
 70
     1
102
RTVSPropertyOp21
 70
     1
102
RTVSPropertyOp22
 70
     1
102
RTVSPropertyOp23
 70
     1
102
RTVSPropertyOp24
 70
     1
102
RTVSPropertyOp25
 70
     1
102
RTVSPropertyOp26
 70
     1
102
RTVSPropertyOp27
 70
     1
102
RTVSPropertyOp28
 70
     1
102
RTVSPropertyOp29
 70
     1
102
RTVSPropertyOp30
 70
     1
102
RTVSPropertyOp31
 70
     1
102
RTVSPropertyOp32
 70
     1
  0
XRECORD
  5
1BC
102
{ACAD_REACTORS
330
1BB
102
}
330
1BB
100
AcDbXrecord
280
     1
102
RTVSPropertyOp0
 70
     1
102
RTVSPropertyOp1
 70
     1
102
RTVSPropertyOp2
 70
     1
102
RTVSPropertyOp3
 70
     1
102
RTVSPropertyOp4
 70
     1
102
RTVSPropertyOp5
 70
     1
102
RTVSPropertyOp6
 70
     1
102
RTVSPropertyOp7
 70
     1
102
RTVSPropertyOp8
 70
     1
102
RTVSPropertyOp9
 70
     1
102
RTVSPropertyOp10
 70
     1
102
RTVSPropertyOp11
 70
     1
102
RTVSPropertyOp12
 70
     1
102
RTVSPropertyOp13
 70
     1
102
RTVSPropertyOp14
 70
     1
102
RTVSPropertyOp15
 70
     1
102
RTVSPropertyOp16
 70
     1
102
RTVSPropertyOp17
 70
     1
102
RTVSPropertyOp18
 70
     1
102
RTVSPropertyOp19
 70
     1
102
RTVSPropertyOp20
 70
     1
102
RTVSPropertyOp21
 70
     1
102
RTVSPropertyOp22
 70
     1
102
RTVSPropertyOp23
 70
     1
102
RTVSPropertyOp24
 70
     1
102
RTVSPropertyOp25
 70
     1
102
RTVSPropertyOp26
 70
     1
102
RTVSPropertyOp27
 70
     1
102
RTVSPropertyOp28
 70
     1
102
RTVSPropertyOp29
 70
     1
102
RTVSPropertyOp30
 70
     1
102
RTVSPropertyOp31
 70
     1
102
RTVSPropertyOp32
 70
     1
  0
XRECORD
  5
1C4
102
{ACAD_REACTORS
330
1C3
102
}
330
1C3
100
AcDbXrecord
280
     1
102
RTVSPropertyOp0
 70
     1
102
RTVSPropertyOp1
 70
     1
102
RTVSPropertyOp2
 70
     1
102
RTVSPropertyOp3
 70
     1
102
RTVSPropertyOp4
 70
     1
102
RTVSPropertyOp5
 70
     1
102
RTVSPropertyOp6
 70
     1
102
RTVSPropertyOp7
 70
     1
102
RTVSPropertyOp8
 70
     1
102
RTVSPropertyOp9
 70
     1
102
RTVSPropertyOp10
 70
     1
102
RTVSPropertyOp11
 70
     1
102
RTVSPropertyOp12
 70
     1
102
RTVSPropertyOp13
 70
     1
102
RTVSPropertyOp14
 70
     1
102
RTVSPropertyOp15
 70
     1
102
RTVSPropertyOp16
 70
     1
102
RTVSPropertyOp17
 70
     1
102
RTVSPropertyOp18
 70
     1
102
RTVSPropertyOp19
 70
     1
102
RTVSPropertyOp20
 70
     1
102
RTVSPropertyOp21
 70
     1
102
RTVSPropertyOp22
 70
     1
102
RTVSPropertyOp23
 70
     1
102
RTVSPropertyOp24
 70
     1
102
RTVSPropertyOp25
 70
     1
102
RTVSPropertyOp26
 70
     1
102
RTVSPropertyOp27
 70
     1
102
RTVSPropertyOp28
 70
     1
102
RTVSPropertyOp29
 70
     1
102
RTVSPropertyOp30
 70
     1
102
RTVSPropertyOp31
 70
     1
102
RTVSPropertyOp32
 70
     1
  0
XRECORD
  5
1A8
102
{ACAD_REACTORS
330
1A7
102
}
330
1A7
100
AcDbXrecord
280
     1
102
RTVSPropertyOp0
 70
     1
102
RTVSPropertyOp1
 70
     1
102
RTVSPropertyOp2
 70
     1
102
RTVSPropertyOp3
 70
     1
102
RTVSPropertyOp4
 70
     1
102
RTVSPropertyOp5
 70
     1
102
RTVSPropertyOp6
 70
     1
102
RTVSPropertyOp7
 70
     1
102
RTVSPropertyOp8
 70
     1
102
RTVSPropertyOp9
 70
     1
102
RTVSPropertyOp10
 70
     1
102
RTVSPropertyOp11
 70
     1
102
RTVSPropertyOp12
 70
     1
102
RTVSPropertyOp13
 70
     1
102
RTVSPropertyOp14
 70
     1
102
RTVSPropertyOp15
 70
     1
102
RTVSPropertyOp16
 70
     1
102
RTVSPropertyOp17
 70
     1
102
RTVSPropertyOp18
 70
     1
102
RTVSPropertyOp19
 70
     1
102
RTVSPropertyOp20
 70
     1
102
RTVSPropertyOp21
 70
     1
102
RTVSPropertyOp22
 70
     1
102
RTVSPropertyOp23
 70
     1
102
RTVSPropertyOp24
 70
     1
102
RTVSPropertyOp25
 70
     1
102
RTVSPropertyOp26
 70
     1
102
RTVSPropertyOp27
 70
     1
102
RTVSPropertyOp28
 70
     1
102
RTVSPropertyOp29
 70
     1
102
RTVSPropertyOp30
 70
     1
102
RTVSPropertyOp31
 70
     1
102
RTVSPropertyOp32
 70
     1
  0
XRECORD
  5
1AA
102
{ACAD_REACTORS
330
1A9
102
}
330
1A9
100
AcDbXrecord
280
     1
102
RTVSPropertyOp0
 70
     1
102
RTVSPropertyOp1
 70
     1
102
RTVSPropertyOp2
 70
     1
102
RTVSPropertyOp3
 70
     1
102
RTVSPropertyOp4
 70
     1
102
RTVSPropertyOp5
 70
     1
102
RTVSPropertyOp6
 70
     1
102
RTVSPropertyOp7
 70
     1
102
RTVSPropertyOp8
 70
     1
102
RTVSPropertyOp9
 70
     1
102
RTVSPropertyOp10
 70
     1
102
RTVSPropertyOp11
 70
     1
102
RTVSPropertyOp12
 70
     1
102
RTVSPropertyOp13
 70
     1
102
RTVSPropertyOp14
 70
     1
102
RTVSPropertyOp15
 70
     1
102
RTVSPropertyOp16
 70
     1
102
RTVSPropertyOp17
 70
     1
102
RTVSPropertyOp18
 70
     1
102
RTVSPropertyOp19
 70
     1
102
RTVSPropertyOp20
 70
     1
102
RTVSPropertyOp21
 70
     1
102
RTVSPropertyOp22
 70
     1
102
RTVSPropertyOp23
 70
     1
102
RTVSPropertyOp24
 70
     1
102
RTVSPropertyOp25
 70
     1
102
RTVSPropertyOp26
 70
     1
102
RTVSPropertyOp27
 70
     1
102
RTVSPropertyOp28
 70
     1
102
RTVSPropertyOp29
 70
     1
102
RTVSPropertyOp30
 70
     1
102
RTVSPropertyOp31
 70
     1
102
RTVSPropertyOp32
 70
     1
  0
XRECORD
  5
1AC
102
{ACAD_REACTORS
330
1AB
102
}
330
1AB
100
AcDbXrecord
280
     1
102
RTVSPropertyOp0
 70
     1
102
RTVSPropertyOp1
 70
     1
102
RTVSPropertyOp2
 70
     1
102
RTVSPropertyOp3
 70
     1
102
RTVSPropertyOp4
 70
     1
102
RTVSPropertyOp5
 70
     1
102
RTVSPropertyOp6
 70
     1
102
RTVSPropertyOp7
 70
     1
102
RTVSPropertyOp8
 70
     1
102
RTVSPropertyOp9
 70
     1
102
RTVSPropertyOp10
 70
     1
102
RTVSPropertyOp11
 70
     1
102
RTVSPropertyOp12
 70
     1
102
RTVSPropertyOp13
 70
     1
102
RTVSPropertyOp14
 70
     1
102
RTVSPropertyOp15
 70
     1
102
RTVSPropertyOp16
 70
     1
102
RTVSPropertyOp17
 70
     1
102
RTVSPropertyOp18
 70
     1
102
RTVSPropertyOp19
 70
     1
102
RTVSPropertyOp20
 70
     1
102
RTVSPropertyOp21
 70
     1
102
RTVSPropertyOp22
 70
     1
102
RTVSPropertyOp23
 70
     1
102
RTVSPropertyOp24
 70
     1
102
RTVSPropertyOp25
 70
     1
102
RTVSPropertyOp26
 70
     1
102
RTVSPropertyOp27
 70
     1
102
RTVSPropertyOp28
 70
     1
102
RTVSPropertyOp29
 70
     1
102
RTVSPropertyOp30
 70
     1
102
RTVSPropertyOp31
 70
     1
102
RTVSPropertyOp32
 70
     1
  0
XRECORD
  5
1AE
102
{ACAD_REACTORS
330
1AD
102
}
330
1AD
100
AcDbXrecord
280
     1
102
RTVSPropertyOp0
 70
     1
102
RTVSPropertyOp1
 70
     1
102
RTVSPropertyOp2
 70
     1
102
RTVSPropertyOp3
 70
     1
102
RTVSPropertyOp4
 70
     1
102
RTVSPropertyOp5
 70
     1
102
RTVSPropertyOp6
 70
     1
102
RTVSPropertyOp7
 70
     1
102
RTVSPropertyOp8
 70
     1
102
RTVSPropertyOp9
 70
     1
102
RTVSPropertyOp10
 70
     1
102
RTVSPropertyOp11
 70
     1
102
RTVSPropertyOp12
 70
     1
102
RTVSPropertyOp13
 70
     1
102
RTVSPropertyOp14
 70
     1
102
RTVSPropertyOp15
 70
     1
102
RTVSPropertyOp16
 70
     1
102
RTVSPropertyOp17
 70
     1
102
RTVSPropertyOp18
 70
     1
102
RTVSPropertyOp19
 70
     1
102
RTVSPropertyOp20
 70
     1
102
RTVSPropertyOp21
 70
     1
102
RTVSPropertyOp22
 70
     1
102
RTVSPropertyOp23
 70
     1
102
RTVSPropertyOp24
 70
     1
102
RTVSPropertyOp25
 70
     1
102
RTVSPropertyOp26
 70
     1
102
RTVSPropertyOp27
 70
     1
102
RTVSPropertyOp28
 70
     1
102
RTVSPropertyOp29
 70
     1
102
RTVSPropertyOp30
 70
     1
102
RTVSPropertyOp31
 70
     1
102
RTVSPropertyOp32
 70
     1
  0
XRECORD
  5
1C2
102
{ACAD_REACTORS
330
1C1
102
}
330
1C1
100
AcDbXrecord
280
     1
102
RTVSPropertyOp0
 70
     1
102
RTVSPropertyOp1
 70
     1
102
RTVSPropertyOp2
 70
     1
102
RTVSPropertyOp3
 70
     1
102
RTVSPropertyOp4
 70
     1
102
RTVSPropertyOp5
 70
     1
102
RTVSPropertyOp6
 70
     1
102
RTVSPropertyOp7
 70
     1
102
RTVSPropertyOp8
 70
     1
102
RTVSPropertyOp9
 70
     1
102
RTVSPropertyOp10
 70
     1
102
RTVSPropertyOp11
 70
     1
102
RTVSPropertyOp12
 70
     1
102
RTVSPropertyOp13
 70
     1
102
RTVSPropertyOp14
 70
     1
102
RTVSPropertyOp15
 70
     1
102
RTVSPropertyOp16
 70
     1
102
RTVSPropertyOp17
 70
     1
102
RTVSPropertyOp18
 70
     1
102
RTVSPropertyOp19
 70
     1
102
RTVSPropertyOp20
 70
     1
102
RTVSPropertyOp21
 70
     1
102
RTVSPropertyOp22
 70
     1
102
RTVSPropertyOp23
 70
     1
102
RTVSPropertyOp24
 70
     1
102
RTVSPropertyOp25
 70
     1
102
RTVSPropertyOp26
 70
     1
102
RTVSPropertyOp27
 70
     1
102
RTVSPropertyOp28
 70
     1
102
RTVSPropertyOp29
 70
     1
102
RTVSPropertyOp30
 70
     1
102
RTVSPropertyOp31
 70
     1
102
RTVSPropertyOp32
 70
     1
  0
XRECORD
  5
1B8
102
{ACAD_REACTORS
330
1B7
102
}
330
1B7
100
AcDbXrecord
280
     1
102
RTVSPropertyOp0
 70
     1
102
RTVSPropertyOp1
 70
     1
102
RTVSPropertyOp2
 70
     1
102
RTVSPropertyOp3
 70
     1
102
RTVSPropertyOp4
 70
     1
102
RTVSPropertyOp5
 70
     1
102
RTVSPropertyOp6
 70
     1
102
RTVSPropertyOp7
 70
     1
102
RTVSPropertyOp8
 70
     1
102
RTVSPropertyOp9
 70
     1
102
RTVSPropertyOp10
 70
     1
102
RTVSPropertyOp11
 70
     1
102
RTVSPropertyOp12
 70
     1
102
RTVSPropertyOp13
 70
     1
102
RTVSPropertyOp14
 70
     1
102
RTVSPropertyOp15
 70
     1
102
RTVSPropertyOp16
 70
     1
102
RTVSPropertyOp17
 70
     1
102
RTVSPropertyOp18
 70
     1
102
RTVSPropertyOp19
 70
     1
102
RTVSPropertyOp20
 70
     1
102
RTVSPropertyOp21
 70
     1
102
RTVSPropertyOp22
 70
     1
102
RTVSPropertyOp23
 70
     1
102
RTVSPropertyOp24
 70
     1
102
RTVSPropertyOp25
 70
     1
102
RTVSPropertyOp26
 70
     1
102
RTVSPropertyOp27
 70
     1
102
RTVSPropertyOp28
 70
     1
102
RTVSPropertyOp29
 70
     1
102
RTVSPropertyOp30
 70
     1
102
RTVSPropertyOp31
 70
     1
102
RTVSPropertyOp32
 70
     1
  0
XRECORD
  5
1C0
102
{ACAD_REACTORS
330
1BF
102
}
330
1BF
100
AcDbXrecord
280
     1
102
RTVSPropertyOp0
 70
     1
102
RTVSPropertyOp1
 70
     1
102
RTVSPropertyOp2
 70
     1
102
RTVSPropertyOp3
 70
     1
102
RTVSPropertyOp4
 70
     1
102
RTVSPropertyOp5
 70
     1
102
RTVSPropertyOp6
 70
     1
102
RTVSPropertyOp7
 70
     1
102
RTVSPropertyOp8
 70
     1
102
RTVSPropertyOp9
 70
     1
102
RTVSPropertyOp10
 70
     1
102
RTVSPropertyOp11
 70
     1
102
RTVSPropertyOp12
 70
     1
102
RTVSPropertyOp13
 70
     1
102
RTVSPropertyOp14
 70
     1
102
RTVSPropertyOp15
 70
     1
102
RTVSPropertyOp16
 70
     1
102
RTVSPropertyOp17
 70
     1
102
RTVSPropertyOp18
 70
     1
102
RTVSPropertyOp19
 70
     1
102
RTVSPropertyOp20
 70
     1
102
RTVSPropertyOp21
 70
     1
102
RTVSPropertyOp22
 70
     1
102
RTVSPropertyOp23
 70
     1
102
RTVSPropertyOp24
 70
     1
102
RTVSPropertyOp25
 70
     1
102
RTVSPropertyOp26
 70
     1
102
RTVSPropertyOp27
 70
     1
102
RTVSPropertyOp28
 70
     1
102
RTVSPropertyOp29
 70
     1
102
RTVSPropertyOp30
 70
     1
102
RTVSPropertyOp31
 70
     1
102
RTVSPropertyOp32
 70
     1
  0
ENDSEC
  0
EOF
