  0
SECTION
  2
HEADER
  9
$ACADVER
  1
AC1015
  9
$ACADMAINTVER
 70
     6
  9
$DWGCODEPAGE
  3
ANSI_932
  9
$INSBASE
 10
0.0
 20
0.0
 30
0.0
  9
$EXTMIN
 10
0.0
 20
0.0
 30
0.0
  9
$EXTMAX
 10
420.0
 20
594.0
 30
0.0
  9
$LIMMIN
 10
0.0
 20
0.0
  9
$LIMMAX
 10
12.0
 20
9.0
  9
$ORTHOMODE
 70
     0
  9
$REGENMODE
 70
     1
  9
$FILLMODE
 70
     1
  9
$QTEXTMODE
 70
     0
  9
$MIRRTEXT
 70
     1
  9
$LTSCALE
 40
1.0
  9
$ATTMODE
 70
     1
  9
$TEXTSIZE
 40
0.2
  9
$TRACEWID
 40
0.05
  9
$TEXTSTYLE
  7
Standard
  9
$CLAYER
  8
0
  9
$CELTYPE
  6
ByLayer
  9
$CECOLOR
 62
   256
  9
$CELTSCALE
 40
1.0
  9
$DISPSILH
 70
     0
  9
$DIMSCALE
 40
1.0
  9
$DIMASZ
 40
0.18
  9
$DIMEXO
 40
0.0625
  9
$DIMDLI
 40
0.38
  9
$DIMRND
 40
0.0
  9
$DIMDLE
 40
0.0
  9
$DIMEXE
 40
0.18
  9
$DIMTP
 40
0.0
  9
$DIMTM
 40
0.0
  9
$DIMTXT
 40
0.18
  9
$DIMCEN
 40
0.09
  9
$DIMTSZ
 40
0.0
  9
$DIMTOL
 70
     0
  9
$DIMLIM
 70
     0
  9
$DIMTIH
 70
     1
  9
$DIMTOH
 70
     1
  9
$DIMSE1
 70
     0
  9
$DIMSE2
 70
     0
  9
$DIMTAD
 70
     0
  9
$DIMZIN
 70
     0
  9
$DIMBLK
  1

  9
$DIMASO
 70
     1
  9
$DIMSHO
 70
     1
  9
$DIMPOST
  1

  9
$DIMAPOST
  1

  9
$DIMALT
 70
     0
  9
$DIMALTD
 70
     2
  9
$DIMALTF
 40
25.4
  9
$DIMLFAC
 40
1.0
  9
$DIMTOFL
 70
     0
  9
$DIMTVP
 40
0.0
  9
$DIMTIX
 70
     0
  9
$DIMSOXD
 70
     0
  9
$DIMSAH
 70
     0
  9
$DIMBLK1
  1

  9
$DIMBLK2
  1

  9
$DIMSTYLE
  2
Standard
  9
$DIMCLRD
 70
     0
  9
$DIMCLRE
 70
     0
  9
$DIMCLRT
 70
     0
  9
$DIMTFAC
 40
1.0
  9
$DIMGAP
 40
0.09
  9
$DIMJUST
 70
     0
  9
$DIMSD1
 70
     0
  9
$DIMSD2
 70
     0
  9
$DIMTOLJ
 70
     1
  9
$DIMTZIN
 70
     0
  9
$DIMALTZ
 70
     0
  9
$DIMALTTZ
 70
     0
  9
$DIMUPT
 70
     0
  9
$DIMDEC
 70
     4
  9
$DIMTDEC
 70
     4
  9
$DIMALTU
 70
     2
  9
$DIMALTTD
 70
     2
  9
$DIMTXSTY
  7
Standard
  9
$DIMAUNIT
 70
     0
  9
$DIMADEC
 70
     0
  9
$DIMALTRND
 40
0.0
  9
$DIMAZIN
 70
     0
  9
$DIMDSEP
 70
    46
  9
$DIMATFIT
 70
     3
  9
$DIMFRAC
 70
     0
  9
$DIMLDRBLK
  1

  9
$DIMLUNIT
 70
     2
  9
$DIMLWD
 70
    -2
  9
$DIMLWE
 70
    -2
  9
$DIMTMOVE
 70
     0
  9
$LUNITS
 70
     2
  9
$LUPREC
 70
     4
  9
$SKETCHINC
 40
0.1
  9
$FILLETRAD
 40
0.5
  9
$AUNITS
 70
     0
  9
$AUPREC
 70
     0
  9
$MENU
  1
.
  9
$ELEVATION
 40
0.0
  9
$PELEVATION
 40
0.0
  9
$THICKNESS
 40
0.0
  9
$LIMCHECK
 70
     0
  9
$CHAMFERA
 40
0.5
  9
$CHAMFERB
 40
0.5
  9
$CHAMFERC
 40
1.0
  9
$CHAMFERD
 40
0.0
  9
$SKPOLY
 70
     0
  9
$TDCREATE
 40
2457529.432721296
  9
$TDUCREATE
 40
2457529.057721296
  9
$TDUPDATE
 40
2457529.432722199
  9
$TDUUPDATE
 40
2457529.057722199
  9
$TDINDWG
 40
0.0000000116
  9
$TDUSRTIMER
 40
0.0000000116
  9
$USRTIMER
 70
     1
  9
$ANGBASE
 50
0.0
  9
$ANGDIR
 70
     0
  9
$PDMODE
 70
     0
  9
$PDSIZE
 40
0.0
  9
$PLINEWID
 40
0.0
  9
$SPLFRAME
 70
     0
  9
$SPLINETYPE
 70
     6
  9
$SPLINESEGS
 70
     8
  9
$HANDSEED
  5
2FC
  9
$SURFTAB1
 70
     6
  9
$SURFTAB2
 70
     6
  9
$SURFTYPE
 70
     6
  9
$SURFU
 70
     6
  9
$SURFV
 70
     6
  9
$UCSBASE
  2

  9
$UCSNAME
  2

  9
$UCSORG
 10
0.0
 20
0.0
 30
0.0
  9
$UCSXDIR
 10
1.0
 20
0.0
 30
0.0
  9
$UCSYDIR
 10
0.0
 20
1.0
 30
0.0
  9
$UCSORTHOREF
  2

  9
$UCSORTHOVIEW
 70
     0
  9
$UCSORGTOP
 10
0.0
 20
0.0
 30
0.0
  9
$UCSORGBOTTOM
 10
0.0
 20
0.0
 30
0.0
  9
$UCSORGLEFT
 10
0.0
 20
0.0
 30
0.0
  9
$UCSORGRIGHT
 10
0.0
 20
0.0
 30
0.0
  9
$UCSORGFRONT
 10
0.0
 20
0.0
 30
0.0
  9
$UCSORGBACK
 10
0.0
 20
0.0
 30
0.0
  9
$PUCSBASE
  2

  9
$PUCSNAME
  2

  9
$PUCSORG
 10
0.0
 20
0.0
 30
0.0
  9
$PUCSXDIR
 10
1.0
 20
0.0
 30
0.0
  9
$PUCSYDIR
 10
0.0
 20
1.0
 30
0.0
  9
$PUCSORTHOREF
  2

  9
$PUCSORTHOVIEW
 70
     0
  9
$PUCSORGTOP
 10
0.0
 20
0.0
 30
0.0
  9
$PUCSORGBOTTOM
 10
0.0
 20
0.0
 30
0.0
  9
$PUCSORGLEFT
 10
0.0
 20
0.0
 30
0.0
  9
$PUCSORGRIGHT
 10
0.0
 20
0.0
 30
0.0
  9
$PUCSORGFRONT
 10
0.0
 20
0.0
 30
0.0
  9
$PUCSORGBACK
 10
0.0
 20
0.0
 30
0.0
  9
$USERI1
 70
     0
  9
$USERI2
 70
     0
  9
$USERI3
 70
     0
  9
$USERI4
 70
     0
  9
$USERI5
 70
     0
  9
$USERR1
 40
18.1
  9
$USERR2
 40
0.0
  9
$USERR3
 40
0.0
  9
$USERR4
 40
0.0
  9
$USERR5
 40
0.0
  9
$WORLDVIEW
 70
     1
  9
$SHADEDGE
 70
     3
  9
$SHADEDIF
 70
    70
  9
$TILEMODE
 70
     1
  9
$MAXACTVP
 70
    64
  9
$PINSBASE
 10
0.0
 20
0.0
 30
0.0
  9
$PLIMCHECK
 70
     0
  9
$PEXTMIN
 10
1.00000000000000E+20
 20
1.00000000000000E+20
 30
1.00000000000000E+20
  9
$PEXTMAX
 10
-1.00000000000000E+20
 20
-1.00000000000000E+20
 30
-1.00000000000000E+20
  9
$PLIMMIN
 10
0.0
 20
0.0
  9
$PLIMMAX
 10
12.0
 20
9.0
  9
$UNITMODE
 70
     0
  9
$VISRETAIN
 70
     1
  9
$PLINEGEN
 70
     0
  9
$PSLTSCALE
 70
     1
  9
$TREEDEPTH
 70
  3020
  9
$CMLSTYLE
  2
Standard
  9
$CMLJUST
 70
     0
  9
$CMLSCALE
 40
1.0
  9
$PROXYGRAPHICS
 70
     1
  9
$MEASUREMENT
 70
     1
  9
$CELWEIGHT
370
    -1
  9
$ENDCAPS
280
     0
  9
$JOINSTYLE
280
     0
  9
$LWDISPLAY
290
     0
  9
$INSUNITS
 70
     4
  9
$HYPERLINKBASE
  1

  9
$STYLESHEET
  1

  9
$XEDIT
290
     1
  9
$CEPSNTYPE
380
     0
  9
$PSTYLEMODE
290
     1
  9
$FINGERPRINTGUID
  2
{247B4D92-93B9-4BB3-800D-CC956EDA6C37}
  9
$VERSIONGUID
  2
{FAEB1C32-E019-11D5-929B-00C0DF256EC4}
  9
$EXTNAMES
290
     1
  9
$PSVPSCALE
 40
0.0
  9
$OLESTARTUP
290
     0
  0
ENDSEC
  0
SECTION
  2
CLASSES
  0
CLASS
  1
ACDBDICTIONARYWDFLT
  2
AcDbDictionaryWithDefault
  3
ObjectDBX Classes
 90
        0
280
     0
281
     0
  0
CLASS
  1
VISUALSTYLE
  2
AcDbVisualStyle
  3
ObjectDBX Classes
 90
     4095
280
     0
281
     0
  0
CLASS
  1
MATERIAL
  2
AcDbMaterial
  3
ObjectDBX Classes
 90
     1153
280
     0
281
     0
  0
CLASS
  1
DICTIONARYVAR
  2
AcDbDictionaryVar
  3
ObjectDBX Classes
 90
        0
280
     0
281
     0
  0
CLASS
  1
ACDBPLACEHOLDER
  2
AcDbPlaceHolder
  3
ObjectDBX Classes
 90
        0
280
     0
281
     0
  0
CLASS
  1
LAYOUT
  2
AcDbLayout
  3
ObjectDBX Classes
 90
        0
280
     0
281
     0
  0
ENDSEC
  0
SECTION
  2
TABLES
  0
TABLE
  2
VPORT
  5
8
330
0
100
AcDbSymbolTable
 70
     1
  0
VPORT
  5
29
330
8
100
AcDbSymbolTableRecord
100
AcDbViewportTableRecord
  2
*Active
 70
     0
 10
0.0
 20
0.0
 11
1.0
 21
1.0
 12
210.0
 22
297.0
 13
0.0
 23
0.0
 14
0.5
 24
0.5
 15
0.5
 25
0.5
 16
0.0
 26
0.0
 36
1.0
 17
0.0
 27
0.0
 37
0.0
 40
653.4000000000001
 41
1.60267857142857
 42
50.0
 43
0.0
 44
0.0
 50
0.0
 51
0.0
 71
     0
 72
   100
 73
     1
 74
     3
 75
     0
 76
     0
 77
     0
 78
     0
281
     0
 65
     1
110
0.0
120
0.0
130
0.0
111
1.0
121
0.0
131
0.0
112
0.0
122
1.0
132
0.0
 79
     0
146
0.0
  0
ENDTAB
  0
TABLE
  2
LTYPE
  5
5
330
0
100
AcDbSymbolTable
 70
     8
  0
LTYPE
  5
14
330
5
100
AcDbSymbolTableRecord
100
AcDbLinetypeTableRecord
  2
ByBlock
 70
     0
  3

 72
    65
 73
     0
 40
0.0
  0
LTYPE
  5
15
330
5
100
AcDbSymbolTableRecord
100
AcDbLinetypeTableRecord
  2
ByLayer
 70
     0
  3

 72
    65
 73
     0
 40
0.0
  0
LTYPE
  5
16
330
5
100
AcDbSymbolTableRecord
100
AcDbLinetypeTableRecord
  2
Continuous
 70
     0
  3
Solid line
 72
    65
 73
     0
 40
0.0
  0
LTYPE
  5
3F
330
5
100
AcDbSymbolTableRecord
100
AcDbLinetypeTableRecord
  2
DASHED
 70
     0
  3
Dashed
 72
    65
 73
     2
 40
15.0
 49
7.0
 74
     0
 49
-8.0
 74
     0
  0
LTYPE
  5
40
330
5
100
AcDbSymbolTableRecord
100
AcDbLinetypeTableRecord
  2
DOTTED
 70
     0
  3
Dotted
 72
    65
 73
     2
 40
1.0
 49
0.0
 74
     0
 49
-1.0
 74
     0
  0
LTYPE
  5
41
330
5
100
AcDbSymbolTableRecord
100
AcDbLinetypeTableRecord
  2
DOT_CENTER
 70
     0
  3
Dot_Center
 72
    65
 73
     4
 40
14.0
 49
12.0
 74
     0
 49
-1.0
 74
     0
 49
0.0
 74
     0
 49
-1.0
 74
     0
  0
LTYPE
  5
42
330
5
100
AcDbSymbolTableRecord
100
AcDbLinetypeTableRecord
  2
LONG_DASHED
 70
     0
  3
Long_Dashed
 72
    65
 73
     2
 40
15.0
 49
10.0
 74
     0
 49
-5.0
 74
     0
  0
LTYPE
  5
43
330
5
100
AcDbSymbolTableRecord
100
AcDbLinetypeTableRecord
  2
DASH_CENTER
 70
     0
  3
Dash_Center
 72
    65
 73
     4
 40
14.0
 49
11.0
 74
     0
 49
-1.0
 74
     0
 49
1.0
 74
     0
 49
-1.0
 74
     0
  0
LTYPE
  5
44
330
5
100
AcDbSymbolTableRecord
100
AcDbLinetypeTableRecord
  2
PHANTOM
 70
     0
  3
Phantom
 72
    65
 73
     6
 40
13.0
 49
10.0
 74
     0
 49
-1.0
 74
     0
 49
0.0
 74
     0
 49
-1.0
 74
     0
 49
0.0
 74
     0
 49
-1.0
 74
     0
  0
LTYPE
  5
45
330
5
100
AcDbSymbolTableRecord
100
AcDbLinetypeTableRecord
  2
CENTER_DASH_DASH
 70
     0
  3
Center_Dash_Dash
 72
    65
 73
     6
 40
14.0
 49
9.0
 74
     0
 49
-1.0
 74
     0
 49
1.0
 74
     0
 49
-1.0
 74
     0
 49
1.0
 74
     0
 49
-1.0
 74
     0
  0
ENDTAB
  0
TABLE
  2
LAYER
  5
2
330
0
100
AcDbSymbolTable
 70
     2
  0
LAYER
  5
10
330
2
100
AcDbSymbolTableRecord
100
AcDbLayerTableRecord
  2
0
 70
     0
 62
     7
  6
Continuous
370
    -3
390
F
  0
LAYER
  5
46
330
2
100
AcDbSymbolTableRecord
100
AcDbLayerTableRecord
  2
1
 70
     0
 62
     7
  6
Continuous
370
    -3
390
F
  0
ENDTAB
  0
TABLE
  2
STYLE
  5
3
330
0
100
AcDbSymbolTable
 70
     3
  0
STYLE
  5
11
330
3
100
AcDbSymbolTableRecord
100
AcDbTextStyleTableRecord
  2
Standard
 70
     0
 40
0.0
 41
1.0
 50
0.0
 71
     0
 42
0.2
  3
txt
  4

  0
STYLE
  5
235
330
3
100
AcDbSymbolTableRecord
100
AcDbTextStyleTableRecord
  2
CONVERTER_11
 70
     0
 40
0.0
 41
0.89
 50
0.0
 71
     0
 42
0.2
  3
MS Mincho.ttf
  4

1001
ACAD
1000
MS Mincho
1071
    32785
  0
STYLE
  5
263
330
3
100
AcDbSymbolTableRecord
100
AcDbTextStyleTableRecord
  2
CONVERTER_12
 70
     0
 40
0.0
 41
0.9
 50
0.0
 71
     0
 42
0.2
  3
txt.shx
  4

  0
ENDTAB
  0
TABLE
  2
VIEW
  5
6
330
0
100
AcDbSymbolTable
 70
     0
  0
ENDTAB
  0
TABLE
  2
UCS
  5
7
330
0
100
AcDbSymbolTable
 70
     0
  0
ENDTAB
  0
TABLE
  2
APPID
  5
9
330
0
100
AcDbSymbolTable
 70
     1
  0
APPID
  5
12
330
9
100
AcDbSymbolTableRecord
100
AcDbRegAppTableRecord
  2
ACAD
 70
     0
  0
ENDTAB
  0
TABLE
  2
DIMSTYLE
  5
A
330
0
100
AcDbSymbolTable
 70
     8
100
AcDbDimStyleTable
  0
DIMSTYLE
105
27
330
A
100
AcDbSymbolTableRecord
100
AcDbDimStyleTableRecord
  2
Standard
 70
     0
178
     0
340
11
  0
DIMSTYLE
105
28D
102
{ACAD_REACTORS
330
28E
102
}
330
A
100
AcDbSymbolTableRecord
100
AcDbDimStyleTableRecord
  2
ME10_DIM_10
 70
     0
 41
7.0
 42
0.0
 44
2.0
 73
     0
 74
     0
 77
     1
 78
     8
140
7.0
147
2.0
172
     1
173
     1
174
     1
175
     1
176
     2
177
     2
271
     2
178
     7
271
     2
340
263
  0
DIMSTYLE
105
298
102
{ACAD_REACTORS
330
299
102
}
330
A
100
AcDbSymbolTableRecord
100
AcDbDimStyleTableRecord
  2
ME10_DIM_11
 70
     0
 41
7.0
 42
0.0
 44
2.0
 73
     0
 74
     0
 77
     1
 78
     8
140
7.0
147
2.0
172
     1
173
     1
174
     1
175
     1
176
     2
177
     2
271
     2
178
     7
271
     2
340
263
  0
DIMSTYLE
105
2A3
102
{ACAD_REACTORS
330
2A4
102
}
330
A
100
AcDbSymbolTableRecord
100
AcDbDimStyleTableRecord
  2
ME10_DIM_12
 70
     0
  3
{\Fgdt;n}<>
 41
7.0
 42
0.0
 44
2.0
 73
     0
 74
     0
 77
     1
 78
     8
140
7.0
147
2.0
172
     1
173
     1
174
     1
175
     1
176
     2
177
     2
271
     2
178
     7
271
     2
340
263
  0
DIMSTYLE
105
2AE
102
{ACAD_REACTORS
330
2AF
102
}
330
A
100
AcDbSymbolTableRecord
100
AcDbDimStyleTableRecord
  2
ME10_DIM_13
 70
     0
  3
{\Fgdt;n}<>
 41
7.0
 42
0.0
 44
2.0
 73
     0
 74
     0
 77
     1
 78
     8
140
7.0
147
2.0
172
     1
173
     1
174
     1
175
     1
176
     2
177
     2
271
     2
178
     7
271
     2
340
263
  0
DIMSTYLE
105
2B9
102
{ACAD_REACTORS
330
2BA
102
}
330
A
100
AcDbSymbolTableRecord
100
AcDbDimStyleTableRecord
  2
ME10_DIM_14
 70
     0
 41
7.0
 42
0.0
 44
2.0
 73
     0
 74
     0
 77
     1
 78
     8
140
7.0
147
2.0
172
     1
173
     1
174
     1
175
     1
176
     2
177
     2
271
     2
178
     7
271
     2
340
263
  0
DIMSTYLE
105
2C4
102
{ACAD_REACTORS
330
2C5
102
}
330
A
100
AcDbSymbolTableRecord
100
AcDbDimStyleTableRecord
  2
ME10_DIM_15
 70
     0
 41
7.0
 42
0.0
 44
2.0
 73
     0
 74
     0
 77
     1
 78
     8
140
7.0
147
2.0
172
     1
173
     1
174
     1
175
     1
176
     2
177
     2
271
     2
178
     7
271
     2
340
263
  0
DIMSTYLE
105
2CF
102
{ACAD_REACTORS
330
2D0
102
}
330
A
100
AcDbSymbolTableRecord
100
AcDbDimStyleTableRecord
  2
ME10_DIM_16
 70
     0
 41
7.0
 42
0.0
 44
2.0
 73
     0
 74
     0
 77
     1
 78
     8
140
7.0
147
2.0
172
     1
173
     1
174
     1
175
     1
176
     2
177
     2
271
     2
178
     7
271
     2
340
263
  0
ENDTAB
  0
TABLE
  2
BLOCK_RECORD
  5
1
330
0
100
AcDbSymbolTable
 70
    18
  0
BLOCK_RECORD
  5
1F
330
1
100
AcDbSymbolTableRecord
100
AcDbBlockTableRecord
  2
*Model_Space
340
22
  0
BLOCK_RECORD
  5
1B
330
1
100
AcDbSymbolTableRecord
100
AcDbBlockTableRecord
  2
*Paper_Space
340
1E
  0
BLOCK_RECORD
  5
23
330
1
100
AcDbSymbolTableRecord
100
AcDbBlockTableRecord
  2
*Paper_Space0
340
26
  0
BLOCK_RECORD
  5
47
330
1
100
AcDbSymbolTableRecord
100
AcDbBlockTableRecord
  2
V18-H2
340
0
102
{BLKREFS
331
65
102
}
  0
BLOCK_RECORD
  5
4A
330
1
100
AcDbSymbolTableRecord
100
AcDbBlockTableRecord
  2
V18-H3
340
0
102
{BLKREFS
331
66
102
}
  0
BLOCK_RECORD
  5
4D
330
1
100
AcDbSymbolTableRecord
100
AcDbBlockTableRecord
  2
V18-H11
340
0
102
{BLKREFS
331
67
102
}
  0
BLOCK_RECORD
  5
50
330
1
100
AcDbSymbolTableRecord
100
AcDbBlockTableRecord
  2
V18-H12
340
0
102
{BLKREFS
331
68
102
}
  0
BLOCK_RECORD
  5
53
330
1
100
AcDbSymbolTableRecord
100
AcDbBlockTableRecord
  2
V18-H1
340
0
102
{BLKREFS
331
69
102
}
  0
BLOCK_RECORD
  5
56
330
1
100
AcDbSymbolTableRecord
100
AcDbBlockTableRecord
  2
V18-H15
340
0
102
{BLKREFS
331
6A
102
}
  0
BLOCK_RECORD
  5
59
330
1
100
AcDbSymbolTableRecord
100
AcDbBlockTableRecord
  2
V18-H7
340
0
102
{BLKREFS
331
6B
102
}
  0
BLOCK_RECORD
  5
5C
330
1
100
AcDbSymbolTableRecord
100
AcDbBlockTableRecord
  2
V18-H10
340
0
102
{BLKREFS
331
6C
102
}
  0
BLOCK_RECORD
  5
5F
330
1
100
AcDbSymbolTableRecord
100
AcDbBlockTableRecord
  2
V18-H10-40_50
340
0
102
{BLKREFS
331
6D
102
}
  0
BLOCK_RECORD
  5
62
330
1
100
AcDbSymbolTableRecord
100
AcDbBlockTableRecord
  2
開示A4
340
0
102
{BLKREFS
331
6E
102
}
  0
BLOCK_RECORD
  5
284
330
1
100
AcDbSymbolTableRecord
100
AcDbBlockTableRecord
  2
*D11
340
0
  0
BLOCK_RECORD
  5
28F
330
1
100
AcDbSymbolTableRecord
100
AcDbBlockTableRecord
  2
*D12
340
0
  0
BLOCK_RECORD
  5
29A
330
1
100
AcDbSymbolTableRecord
100
AcDbBlockTableRecord
  2
*D13
340
0
  0
BLOCK_RECORD
  5
2A5
330
1
100
AcDbSymbolTableRecord
100
AcDbBlockTableRecord
  2
*D14
340
0
  0
BLOCK_RECORD
  5
2B0
330
1
100
AcDbSymbolTableRecord
100
AcDbBlockTableRecord
  2
*D15
340
0
  0
BLOCK_RECORD
  5
2BB
330
1
100
AcDbSymbolTableRecord
100
AcDbBlockTableRecord
  2
*D16
340
0
  0
BLOCK_RECORD
  5
2C6
330
1
100
AcDbSymbolTableRecord
100
AcDbBlockTableRecord
  2
*D17
340
0
  0
ENDTAB
  0
ENDSEC
  0
SECTION
  2
BLOCKS
  0
BLOCK
  5
20
330
1F
100
AcDbEntity
  8
0
100
AcDbBlockBegin
  2
*Model_Space
 70
     0
 10
0.0
 20
0.0
 30
0.0
  3
*Model_Space
  1

  0
ENDBLK
  5
21
330
1F
100
AcDbEntity
  8
0
100
AcDbBlockEnd
  0
BLOCK
  5
1C
330
1B
100
AcDbEntity
 67
     1
  8
0
100
AcDbBlockBegin
  2
*Paper_Space
 70
     0
 10
0.0
 20
0.0
 30
0.0
  3
*Paper_Space
  1

  0
ENDBLK
  5
1D
330
1B
100
AcDbEntity
 67
     1
  8
0
100
AcDbBlockEnd
  0
BLOCK
  5
24
330
23
100
AcDbEntity
  8
0
100
AcDbBlockBegin
  2
*Paper_Space0
 70
     0
 10
0.0
 20
0.0
 30
0.0
  3
*Paper_Space0
  1

  0
ENDBLK
  5
25
330
23
100
AcDbEntity
  8
0
100
AcDbBlockEnd
  0
BLOCK
  5
48
330
47
100
AcDbEntity
  8
0
100
AcDbBlockBegin
  2
V18-H2
 70
     0
 10
195.7441151240421
 20
292.3503473399228
 30
0.0
  3
V18-H2
  1

  0
LINE
  5
6F
330
47
100
AcDbEntity
  8
0
  6
Continuous
 62
     7
100
AcDbLine
 10
193.7441151240421
 20
318.8503473399228
 30
0.0
 11
193.7441151240421
 21
315.8503473399228
 31
0.0
  0
LINE
  5
70
330
47
100
AcDbEntity
  8
0
  6
Continuous
 62
     2
100
AcDbLine
 10
194.7441151240421
 20
318.8503473399228
 30
0.0
 11
194.7441151240421
 21
317.3503473399228
 31
0.0
  0
LINE
  5
71
330
47
100
AcDbEntity
  8
0
  6
Continuous
 62
     7
100
AcDbLine
 10
216.7441151240421
 20
304.3503473399228
 30
0.0
 11
216.7441151240421
 21
311.8503473399228
 31
0.0
  0
LINE
  5
72
330
47
100
AcDbEntity
  8
0
  6
Continuous
 62
     7
100
AcDbLine
 10
219.9441151240421
 20
304.3503473399228
 30
0.0
 11
219.9441151240421
 21
300.3503473399228
 31
0.0
  0
LINE
  5
73
330
47
100
AcDbEntity
  8
0
  6
Continuous
 62
     7
100
AcDbLine
 10
219.9441151240421
 20
304.3503473399228
 30
0.0
 11
216.7441151240421
 21
304.3503473399228
 31
0.0
  0
LINE
  5
74
330
47
100
AcDbEntity
  8
0
  6
Continuous
 62
     7
100
AcDbLine
 10
219.9441151240421
 20
300.3503473399228
 30
0.0
 11
188.9941151240421
 21
300.3503473399228
 31
0.0
  0
LINE
  5
75
330
47
100
AcDbEntity
  8
0
  6
Continuous
 62
     7
100
AcDbLine
 10
211.7441151240421
 20
315.8503473399228
 30
0.0
 11
211.7441151240421
 21
318.8503473399228
 31
0.0
  0
LINE
  5
76
330
47
100
AcDbEntity
  8
1
  6
Continuous
 62
     2
100
AcDbLine
 10
210.7441151240421
 20
317.3503473399228
 30
0.0
 11
211.7516293382753
 21
315.6052815315238
 31
0.0
  0
LINE
  5
77
330
47
100
AcDbEntity
  8
0
  6
Continuous
 62
     2
100
AcDbLine
 10
210.7441151240421
 20
317.3503473399228
 30
0.0
 11
210.7441151240421
 21
318.8503473399228
 31
0.0
  0
LINE
  5
78
330
47
100
AcDbEntity
  8
1
  6
Continuous
 62
     7
100
AcDbLine
 10
189.7441151240421
 20
311.8503473399228
 30
0.0
 11
216.7441151240421
 21
311.8503473399228
 31
0.0
  0
LINE
  5
79
330
47
100
AcDbEntity
  8
0
  6
Continuous
 62
     7
100
AcDbLine
 10
188.7441151240421
 20
311.8503473399228
 30
0.0
 11
188.7441151240421
 21
304.3503473399228
 31
0.0
  0
LINE
  5
7A
330
47
100
AcDbEntity
  8
0
  6
Continuous
 62
     7
100
AcDbLine
 10
185.5441151240423
 20
300.3503473399228
 30
0.0
 11
185.5441151240423
 21
304.3503473399228
 31
0.0
  0
LINE
  5
7B
330
47
100
AcDbEntity
  8
0
  6
Continuous
 62
     7
100
AcDbLine
 10
216.7441151240421
 20
304.3503473399228
 30
0.0
 11
185.5441151240423
 21
304.3503473399228
 31
0.0
  0
LINE
  5
7C
330
47
100
AcDbEntity
  8
0
  6
Continuous
 62
     7
100
AcDbLine
 10
188.9941151240421
 20
300.3503473399228
 30
0.0
 11
185.5441151240423
 21
300.3503473399228
 31
0.0
  0
LINE
  5
7D
330
47
100
AcDbEntity
  8
1
  6
Continuous
 62
     2
100
AcDbLine
 10
193.7366009098091
 20
315.6052815315238
 30
0.0
 11
194.7441151240421
 21
317.3503473399228
 31
0.0
  0
LINE
  5
7E
330
47
100
AcDbEntity
  8
1
  6
Continuous
 62
     7
100
AcDbLine
 10
193.7441151240421
 20
317.3503473399228
 30
0.0
 11
211.7441151240421
 21
317.3503473399228
 31
0.0
  0
LINE
  5
7F
330
47
100
AcDbEntity
  8
1
  6
Continuous
 62
     7
100
AcDbLine
 10
188.7441151240421
 20
311.8503473399228
 30
0.0
 11
189.7441151240421
 21
311.8503473399228
 31
0.0
  0
LINE
  5
80
330
47
100
AcDbEntity
  8
0
  6
Continuous
 62
     7
100
AcDbLine
 10
336.7441151240412
 20
304.3503473399228
 30
0.0
 11
336.7441151240412
 21
311.8503473399228
 31
0.0
  0
LINE
  5
81
330
47
100
AcDbEntity
  8
0
  6
Continuous
 62
     7
100
AcDbLine
 10
339.9441151240412
 20
304.3503473399228
 30
0.0
 11
339.9441151240412
 21
300.3503473399228
 31
0.0
  0
LINE
  5
82
330
47
100
AcDbEntity
  8
0
  6
Continuous
 62
     7
100
AcDbLine
 10
339.9441151240412
 20
304.3503473399228
 30
0.0
 11
336.7441151240412
 21
304.3503473399228
 31
0.0
  0
LINE
  5
83
330
47
100
AcDbEntity
  8
0
  6
Continuous
 62
     7
100
AcDbLine
 10
339.9441151240412
 20
300.3503473399228
 30
0.0
 11
336.4941151240412
 21
300.3503473399228
 31
0.0
  0
LINE
  5
84
330
47
100
AcDbEntity
  8
0
  6
Continuous
 62
     7
100
AcDbLine
 10
331.7441151240412
 20
315.8503473399228
 30
0.0
 11
331.7441151240412
 21
318.8503473399228
 31
0.0
  0
LINE
  5
85
330
47
100
AcDbEntity
  8
1
  6
Continuous
 62
     2
100
AcDbLine
 10
330.7441151240412
 20
317.3503473399228
 30
0.0
 11
331.7516293382741
 21
315.6052815315238
 31
0.0
  0
LINE
  5
86
330
47
100
AcDbEntity
  8
1
  6
Continuous
 62
     7
100
AcDbLine
 10
335.7441151240412
 20
311.8503473399228
 30
0.0
 11
336.7441151240412
 21
311.8503473399228
 31
0.0
  0
LINE
  5
87
330
47
100
AcDbEntity
  8
0
  6
Continuous
 62
     2
100
AcDbLine
 10
330.7441151240412
 20
317.3503473399228
 30
0.0
 11
330.7441151240412
 21
318.8503473399228
 31
0.0
  0
LINE
  5
88
330
47
100
AcDbEntity
  8
0
  6
Continuous
 62
     7
100
AcDbLine
 10
336.4941151240412
 20
299.3503473399228
 30
0.0
 11
336.4941151240412
 21
300.3503473399228
 31
0.0
  0
LINE
  5
89
330
47
100
AcDbEntity
  8
0
  6
Continuous
 62
     7
100
AcDbLine
 10
336.4941151240412
 20
300.3503473399228
 30
0.0
 11
322.7441151240412
 21
300.3503473399228
 31
0.0
  0
LINE
  5
8A
330
47
100
AcDbEntity
  8
0
  6
Continuous
 62
     7
100
AcDbLine
 10
336.7441151240412
 20
304.3503473399228
 30
0.0
 11
322.7441151240412
 21
304.3503473399228
 31
0.0
  0
LINE
  5
8B
330
47
100
AcDbEntity
  8
0
  6
Continuous
 62
     7
100
AcDbLine
 10
335.7441151240412
 20
311.8503473399228
 30
0.0
 11
322.7441151240412
 21
311.8503473399228
 31
0.0
  0
LINE
  5
8C
330
47
100
AcDbEntity
  8
0
  6
Continuous
 62
     7
100
AcDbLine
 10
308.7441151240412
 20
311.8503473399228
 30
0.0
 11
308.7441151240412
 21
304.3503473399228
 31
0.0
  0
LINE
  5
8D
330
47
100
AcDbEntity
  8
0
  6
Continuous
 62
     7
100
AcDbLine
 10
305.5441151240411
 20
300.3503473399228
 30
0.0
 11
305.5441151240411
 21
304.3503473399228
 31
0.0
  0
LINE
  5
8E
330
47
100
AcDbEntity
  8
0
  6
Continuous
 62
     7
100
AcDbLine
 10
308.7441151240412
 20
304.3503473399228
 30
0.0
 11
305.5441151240411
 21
304.3503473399228
 31
0.0
  0
LINE
  5
8F
330
47
100
AcDbEntity
  8
0
  6
Continuous
 62
     7
100
AcDbLine
 10
308.9941151240412
 20
300.3503473399228
 30
0.0
 11
305.5441151240411
 21
300.3503473399228
 31
0.0
  0
LINE
  5
90
330
47
100
AcDbEntity
  8
0
  6
Continuous
 62
     7
100
AcDbLine
 10
313.7441151240412
 20
318.8503473399228
 30
0.0
 11
313.7441151240412
 21
315.8503473399228
 31
0.0
  0
LINE
  5
91
330
47
100
AcDbEntity
  8
1
  6
Continuous
 62
     2
100
AcDbLine
 10
313.7366009098082
 20
315.6052815315238
 30
0.0
 11
314.7441151240412
 21
317.3503473399228
 31
0.0
  0
LINE
  5
92
330
47
100
AcDbEntity
  8
1
  6
Continuous
 62
     7
100
AcDbLine
 10
313.7441151240412
 20
317.3503473399228
 30
0.0
 11
331.7441151240412
 21
317.3503473399228
 31
0.0
  0
LINE
  5
93
330
47
100
AcDbEntity
  8
1
  6
Continuous
 62
     7
100
AcDbLine
 10
308.7441151240412
 20
311.8503473399228
 30
0.0
 11
309.7441151240412
 21
311.8503473399228
 31
0.0
  0
LINE
  5
94
330
47
100
AcDbEntity
  8
0
  6
Continuous
 62
     2
100
AcDbLine
 10
314.7441151240412
 20
318.8503473399228
 30
0.0
 11
314.7441151240412
 21
317.3503473399228
 31
0.0
  0
LINE
  5
95
330
47
100
AcDbEntity
  8
0
  6
Continuous
 62
     7
100
AcDbLine
 10
308.9941151240412
 20
300.3503473399228
 30
0.0
 11
308.9941151240412
 21
299.3503473399228
 31
0.0
  0
LINE
  5
96
330
47
100
AcDbEntity
  8
0
  6
Continuous
 62
     7
100
AcDbLine
 10
322.7441151240412
 20
300.3503473399228
 30
0.0
 11
308.9941151240412
 21
300.3503473399228
 31
0.0
  0
LINE
  5
97
330
47
100
AcDbEntity
  8
0
  6
Continuous
 62
     7
100
AcDbLine
 10
322.7441151240412
 20
304.3503473399228
 30
0.0
 11
308.7441151240412
 21
304.3503473399228
 31
0.0
  0
LINE
  5
98
330
47
100
AcDbEntity
  8
0
  6
Continuous
 62
     7
100
AcDbLine
 10
322.7441151240412
 20
311.8503473399228
 30
0.0
 11
309.7441151240412
 21
311.8503473399228
 31
0.0
  0
LWPOLYLINE
  5
99
330
47
100
AcDbEntity
  8
1
  6
Continuous
 62
     7
 60
     1
100
AcDbPolyline
 90
        2
 70
     0
 43
0.0
 10
210.7441151240421
 20
325.3503473399228
 10
210.7441151240421
 20
317.3503473399228
  0
LWPOLYLINE
  5
9A
330
47
100
AcDbEntity
  8
1
  6
Continuous
 62
     7
 60
     1
100
AcDbPolyline
 90
        2
 70
     0
 43
0.0
 10
328.7441151240412
 20
292.3503473399228
 10
328.7441151240412
 20
306.4361337775499
  0
ARC
  5
9B
330
47
100
AcDbEntity
  8
1
  6
Continuous
 62
     7
100
AcDbCircle
 10
215.7441151240421
 20
315.8503473399228
 30
0.0
 40
3.999999999999526
100
AcDbArc
 50
183.5125088853235
 51
270.0
  0
ARC
  5
9C
330
47
100
AcDbEntity
  8
1
  6
Continuous
 62
     7
100
AcDbCircle
 10
215.7441151240421
 20
315.8503473399228
 30
0.0
 40
4.0
100
AcDbArc
 50
180.0
 51
183.5125088853235
  0
ARC
  5
9D
330
47
100
AcDbEntity
  8
1
  6
Continuous
 62
     7
100
AcDbCircle
 10
189.7441151240421
 20
315.8503473399228
 30
0.0
 40
4.0
100
AcDbArc
 50
270.0
 51
356.4874911146766
  0
ARC
  5
9E
330
47
100
AcDbEntity
  8
1
  6
Continuous
 62
     7
100
AcDbCircle
 10
189.7441151240421
 20
315.8503473399228
 30
0.0
 40
3.999999999999725
100
AcDbArc
 50
356.4874911146766
 51
0.0
  0
ARC
  5
9F
330
47
100
AcDbEntity
  8
1
  6
Continuous
 62
     7
100
AcDbCircle
 10
335.7441151240412
 20
315.8503473399228
 30
0.0
 40
3.99999999999981
100
AcDbArc
 50
183.5125088853233
 51
270.0
  0
ARC
  5
A0
330
47
100
AcDbEntity
  8
1
  6
Continuous
 62
     7
100
AcDbCircle
 10
335.7441151240412
 20
315.8503473399228
 30
0.0
 40
4.0
100
AcDbArc
 50
180.0
 51
183.5125088853233
  0
ARC
  5
A1
330
47
100
AcDbEntity
  8
1
  6
Continuous
 62
     7
100
AcDbCircle
 10
309.7441151240412
 20
315.8503473399228
 30
0.0
 40
4.0
100
AcDbArc
 50
270.0
 51
356.4874911146766
  0
ARC
  5
A2
330
47
100
AcDbEntity
  8
1
  6
Continuous
 62
     7
100
AcDbCircle
 10
309.7441151240412
 20
315.8503473399228
 30
0.0
 40
3.999999999999753
100
AcDbArc
 50
356.4874911146766
 51
0.0
  0
ENDBLK
  5
49
330
47
100
AcDbEntity
  8
0
100
AcDbBlockEnd
  0
BLOCK
  5
4B
330
4A
100
AcDbEntity
  8
0
100
AcDbBlockBegin
  2
V18-H3
 70
     0
 10
196.7441151240421
 20
271.3503473399228
 30
0.0
  3
V18-H3
  1

  0
LINE
  5
A3
330
4A
100
AcDbEntity
  8
0
  6
Continuous
 62
     7
100
AcDbLine
 10
198.2441151240421
 20
328.8503473399228
 30
0.0
 11
198.2441151240421
 21
341.3503473399228
 31
0.0
  0
LINE
  5
A4
330
4A
100
AcDbEntity
  8
0
  6
Continuous
 62
     7
100
AcDbLine
 10
207.2441151240421
 20
341.3503473399228
 30
0.0
 11
207.2441151240421
 21
328.8503473399228
 31
0.0
  0
LINE
  5
A5
330
4A
100
AcDbEntity
  8
0
  6
Continuous
 62
     7
100
AcDbLine
 10
318.2441151240412
 20
328.8503473399228
 30
0.0
 11
318.2441151240412
 21
341.3503473399228
 31
0.0
  0
LINE
  5
A6
330
4A
100
AcDbEntity
  8
0
  6
Continuous
 62
     7
100
AcDbLine
 10
327.2441151240412
 20
341.3503473399228
 30
0.0
 11
327.2441151240412
 21
328.8503473399228
 31
0.0
  0
ENDBLK
  5
4C
330
4A
100
AcDbEntity
  8
0
100
AcDbBlockEnd
  0
BLOCK
  5
4E
330
4D
100
AcDbEntity
  8
0
100
AcDbBlockBegin
  2
V18-H11
 70
     0
 10
132.8910667968371
 20
279.702115061782
 30
0.0
  3
V18-H11
  1

  0
LINE
  5
A7
330
4D
100
AcDbEntity
  8
0
  6
Continuous
 62
     7
100
AcDbLine
 10
162.9431049972652
 20
312.2290269963628
 30
0.0
 11
157.6398041383661
 21
317.5323278552619
 31
0.0
  0
LINE
  5
A8
330
4D
100
AcDbEntity
  8
0
  6
Continuous
 62
     7
100
AcDbLine
 10
157.6398041383661
 20
317.5323278552619
 30
0.0
 11
139.9621346087022
 21
299.8546583255978
 31
0.0
  0
LINE
  5
A9
330
4D
100
AcDbEntity
  8
0
  6
Continuous
 62
     7
100
AcDbLine
 10
159.0540177007392
 20
318.9465414176357
 30
0.0
 11
153.3971634512472
 21
324.6033956671281
 31
0.0
  0
LINE
  5
AA
330
4D
100
AcDbEntity
  8
0
  6
Continuous
 62
     7
100
AcDbLine
 10
153.3971634512472
 20
324.6033956671281
 30
0.0
 11
150.2151829359072
 21
321.421415151789
 31
0.0
  0
LINE
  5
AB
330
4D
100
AcDbEntity
  8
0
  6
Continuous
 62
     7
100
AcDbLine
 10
159.0540177007392
 20
318.9465414176357
 30
0.0
 11
157.6398041383661
 21
317.5323278552619
 31
0.0
  0
LINE
  5
AC
330
4D
100
AcDbEntity
  8
0
  6
Continuous
 62
     7
100
AcDbLine
 10
150.2151829359072
 20
321.421415151789
 30
0.0
 11
143.1441151240422
 21
314.3503473399228
 31
0.0
  0
LINE
  5
AD
330
4D
100
AcDbEntity
  8
0
  6
Continuous
 62
     7
100
AcDbLine
 10
132.8910667968371
 20
304.0972990127178
 30
0.0
 11
138.5479210463293
 21
298.440444763226
 31
0.0
  0
LINE
  5
AE
330
4D
100
AcDbEntity
  8
0
  6
Continuous
 62
     7
100
AcDbLine
 10
136.0730473121762
 20
307.2792795280566
 30
0.0
 11
132.8910667968371
 21
304.0972990127178
 31
0.0
  0
LINE
  5
AF
330
4D
100
AcDbEntity
  8
0
  6
Continuous
 62
     7
100
AcDbLine
 10
139.9621346087022
 20
299.8546583255978
 30
0.0
 11
138.5479210463293
 21
298.440444763226
 31
0.0
  0
LINE
  5
B0
330
4D
100
AcDbEntity
  8
0
  6
Continuous
 62
     7
100
AcDbLine
 10
143.1441151240422
 20
314.3503473399228
 30
0.0
 11
136.0730473121762
 21
307.2792795280566
 31
0.0
  0
LINE
  5
B1
330
4D
100
AcDbEntity
  8
0
  6
Continuous
 62
     7
100
AcDbLine
 10
139.9621346087022
 20
299.8546583255978
 30
0.0
 11
145.2654354676022
 21
294.5513574666998
 31
0.0
  0
ENDBLK
  5
4F
330
4D
100
AcDbEntity
  8
0
100
AcDbBlockEnd
  0
BLOCK
  5
51
330
50
100
AcDbEntity
  8
0
100
AcDbBlockBegin
  2
V18-H12
 70
     0
 10
143.6744452099322
 20
278.641454890002
 30
0.0
  3
V18-H12
  1

  0
LINE
  5
B2
330
50
100
AcDbEntity
  8
0
  6
Continuous
 62
     7
100
AcDbLine
 10
178.8530075739623
 20
306.9257261374642
 30
0.0
 11
150.5687363265013
 21
278.641454890002
 31
0.0
  0
LINE
  5
B3
330
50
100
AcDbEntity
  8
0
  6
Continuous
 62
     7
100
AcDbLine
 10
148.8009693735341
 20
280.4092218429687
 30
0.0
 11
177.0852406209963
 21
308.6934930904308
 31
0.0
  0
LINE
  5
B4
330
50
100
AcDbEntity
  8
0
  6
Continuous
 62
     7
100
AcDbLine
 10
164.5340952549352
 20
313.8200172540328
 30
0.0
 11
143.6744452099322
 21
292.9603672090298
 31
0.0
  0
LINE
  5
B5
330
50
100
AcDbEntity
  8
0
  6
Continuous
 62
     7
100
AcDbLine
 10
173.3729300197672
 20
304.9811824892008
 30
0.0
 11
164.5340952549352
 21
313.8200172540328
 31
0.0
  0
LINE
  5
B6
330
50
100
AcDbEntity
  8
0
  6
Continuous
 62
     7
100
AcDbLine
 10
178.8530075739623
 20
306.9257261374642
 30
0.0
 11
177.0852406209963
 21
308.6934930904308
 31
0.0
  0
LINE
  5
B7
330
50
100
AcDbEntity
  8
0
  6
Continuous
 62
     7
100
AcDbLine
 10
143.6744452099322
 20
292.9603672090298
 30
0.0
 11
152.5132799747641
 21
284.1215324441978
 31
0.0
  0
LINE
  5
B8
330
50
100
AcDbEntity
  8
0
  6
Continuous
 62
     7
100
AcDbLine
 10
148.8009693735341
 20
280.4092218429687
 30
0.0
 11
150.5687363265013
 21
278.641454890002
 31
0.0
  0
ENDBLK
  5
52
330
50
100
AcDbEntity
  8
0
100
AcDbBlockEnd
  0
BLOCK
  5
54
330
53
100
AcDbEntity
  8
0
100
AcDbBlockBegin
  2
V18-H1
 70
     0
 10
154.2810469277301
 20
244.3503473399228
 30
0.0
  3
V18-H1
  1

  0
LINE
  5
B9
330
53
100
AcDbEntity
  8
0
  6
Continuous
 62
     7
100
AcDbLine
 10
180.7975512222263
 20
297.5565612867431
 30
0.0
 11
159.9379011772221
 21
276.696911241739
 31
0.0
  0
LINE
  5
BA
330
53
100
AcDbEntity
  8
0
  6
Continuous
 62
     7
100
AcDbLine
 10
185.4236070483532
 20
258.5101987089088
 30
0.0
 11
185.0491890470582
 21
258.5101987089088
 31
0.0
  0
LINE
  5
BB
330
53
100
AcDbEntity
  8
0
  6
Continuous
 62
     7
100
AcDbLine
 10
191.1971097402493
 20
244.3503473399228
 30
0.0
 11
179.6536229781102
 21
244.3503473399228
 31
0.0
  0
LINE
  5
BC
330
53
100
AcDbEntity
  8
0
  6
Continuous
 62
     7
100
AcDbLine
 10
191.1971097402493
 20
254.3503473399242
 30
0.0
 11
191.1971097402493
 21
244.3503473399228
 31
0.0
  0
LINE
  5
BD
330
53
100
AcDbEntity
  8
0
  6
Continuous
 62
     7
100
AcDbLine
 10
220.1330519686091
 20
257.6441733051238
 30
0.0
 11
225.8381258916272
 21
254.3503473399228
 31
0.0
  0
LINE
  5
BE
330
53
100
AcDbEntity
  8
0
  6
Continuous
 62
     7
100
AcDbLine
 10
214.2911205078342
 20
244.3503473399228
 30
0.0
 11
214.2911205078342
 21
254.3503473399242
 31
0.0
  0
LINE
  5
BF
330
53
100
AcDbEntity
  8
0
  6
Continuous
 62
     7
100
AcDbLine
 10
214.2911205078342
 20
244.3503473399228
 30
0.0
 11
191.1971097402493
 21
244.3503473399228
 31
0.0
  0
LINE
  5
C0
330
53
100
AcDbEntity
  8
0
  6
Continuous
 62
     7
100
AcDbLine
 10
219.6330519686091
 20
258.5101987089088
 30
0.0
 11
185.4236070483532
 21
258.5101987089088
 31
0.0
  0
LINE
  5
C1
330
53
100
AcDbEntity
  8
0
  6
Continuous
 62
     7
100
AcDbLine
 10
219.9441151240421
 20
295.3503473399187
 30
0.0
 11
219.9441151240421
 21
299.3503473399228
 31
0.0
  0
LINE
  5
C2
330
53
100
AcDbEntity
  8
0
  6
Continuous
 62
     7
100
AcDbLine
 10
185.5441151240423
 20
295.3503473399187
 30
0.0
 11
185.5441151240423
 21
295.1548639692937
 31
0.0
  0
LINE
  5
C3
330
53
100
AcDbEntity
  8
0
  6
Continuous
 62
     7
100
AcDbLine
 10
322.7441151240412
 20
295.3503473399187
 30
0.0
 11
305.5441151240423
 21
295.3503473399187
 31
0.0
  0
LINE
  5
C4
330
53
100
AcDbEntity
  8
0
  6
Continuous
 62
     7
100
AcDbLine
 10
219.9441151240421
 20
295.3503473399187
 30
0.0
 11
185.5441151240423
 21
295.3503473399187
 31
0.0
  0
LINE
  5
C5
330
53
100
AcDbEntity
  8
0
  6
Continuous
 62
     7
100
AcDbLine
 10
225.8381258916272
 20
244.3503473399228
 30
0.0
 11
214.2911205078342
 21
244.3503473399228
 31
0.0
  0
LINE
  5
C6
330
53
100
AcDbEntity
  8
0
  6
Continuous
 62
     7
100
AcDbLine
 10
180.7975512222263
 20
297.5565612867431
 30
0.0
 11
175.1406969727332
 21
303.2134155362346
 31
0.0
  0
LINE
  5
C7
330
53
100
AcDbEntity
  8
0
  6
Continuous
 62
     7
100
AcDbLine
 10
175.1406969727332
 20
303.2134155362346
 30
0.0
 11
155.8720371854001
 21
283.944755748902
 31
0.0
  0
LINE
  5
C8
330
53
100
AcDbEntity
  8
0
  6
Continuous
 62
     7
100
AcDbLine
 10
154.2810469277301
 20
282.3537654912316
 30
0.0
 11
159.9379011772221
 21
276.696911241739
 31
0.0
  0
LINE
  5
C9
330
53
100
AcDbEntity
  8
0
  6
Continuous
 62
     7
100
AcDbLine
 10
155.8720371854001
 20
283.944755748902
 30
0.0
 11
154.2810469277301
 21
282.3537654912316
 31
0.0
  0
LINE
  5
CA
330
53
100
AcDbEntity
  8
0
  6
Continuous
 62
     7
100
AcDbLine
 10
160.7256698849783
 20
277.4846799494949
 30
0.0
 11
159.9379011772221
 21
276.696911241739
 31
0.0
  0
LINE
  5
CB
330
53
100
AcDbEntity
  8
0
  6
Continuous
 62
     7
100
AcDbLine
 10
179.6536229781111
 20
254.3503473399228
 30
0.0
 11
179.6536229781102
 21
244.3503473399228
 31
0.0
  0
LINE
  5
CC
330
53
100
AcDbEntity
  8
0
  6
Continuous
 62
     7
100
AcDbLine
 10
179.6536229781111
 20
254.3503473399228
 30
0.0
 11
184.5491890470603
 21
257.6441733051238
 31
0.0
  0
LINE
  5
CD
330
53
100
AcDbEntity
  8
0
  6
Continuous
 62
     7
100
AcDbLine
 10
188.9941151240421
 20
299.3503473399228
 30
0.0
 11
187.9941151240421
 21
299.3503473399228
 31
0.0
  0
LINE
  5
CE
330
53
100
AcDbEntity
  8
0
  6
Continuous
 62
     7
100
AcDbLine
 10
187.9941151240421
 20
299.3503473399228
 30
0.0
 11
185.5441151240423
 21
299.3503473399228
 31
0.0
  0
LINE
  5
CF
330
53
100
AcDbEntity
  8
0
  6
Continuous
 62
     7
100
AcDbLine
 10
219.9441151240421
 20
299.3503473399228
 30
0.0
 11
188.9941151240421
 21
299.3503473399228
 31
0.0
  0
LINE
  5
D0
330
53
100
AcDbEntity
  8
0
  6
Continuous
 62
     7
100
AcDbLine
 10
219.9441151240421
 20
295.1548639692937
 30
0.0
 11
219.9441151240421
 21
295.3503473399187
 31
0.0
  0
LINE
  5
D1
330
53
100
AcDbEntity
  8
0
  6
Continuous
 62
     7
100
AcDbLine
 10
180.7975512222263
 20
297.5565612867431
 30
0.0
 11
180.3644370654442
 21
297.1234471299608
 31
0.0
  0
LINE
  5
D2
330
53
100
AcDbEntity
  8
0
  6
Continuous
 62
     7
100
AcDbLine
 10
185.5441151240423
 20
299.3503473399228
 30
0.0
 11
185.5441151240423
 21
295.3503473399187
 31
0.0
  0
LINE
  5
D3
330
53
100
AcDbEntity
  8
0
  6
Continuous
 62
     7
100
AcDbLine
 10
182.9721948753493
 20
291.7887482732331
 30
0.0
 11
180.7906106996452
 21
293.9703324489356
 31
0.0
  0
LINE
  5
D4
330
53
100
AcDbEntity
  8
0
  6
Continuous
 62
     7
100
AcDbLine
 10
340.1330519686091
 20
257.6441733051238
 30
0.0
 11
342.7441151240421
 21
254.3503473399228
 31
0.0
  0
LINE
  5
D5
330
53
100
AcDbEntity
  8
0
  6
Continuous
 62
     7
100
AcDbLine
 10
339.9441151240421
 20
299.3503473399228
 30
0.0
 11
322.7441151240412
 21
299.3503473399228
 31
0.0
  0
LINE
  5
D6
330
53
100
AcDbEntity
  8
0
  6
Continuous
 62
     7
100
AcDbLine
 10
339.9441151240421
 20
295.1548639692937
 30
0.0
 11
339.9441151240421
 21
295.3503473399187
 31
0.0
  0
LINE
  5
D7
330
53
100
AcDbEntity
  8
0
  6
Continuous
 62
     7
100
AcDbLine
 10
339.6330519686091
 20
258.5101987089088
 30
0.0
 11
322.7441151240421
 21
258.5101987089088
 31
0.0
  0
LINE
  5
D8
330
53
100
AcDbEntity
  8
0
  6
Continuous
 62
     7
100
AcDbLine
 10
339.9441151240421
 20
295.3503473399187
 30
0.0
 11
322.7441151240412
 21
295.3503473399187
 31
0.0
  0
LINE
  5
D9
330
53
100
AcDbEntity
  8
0
  6
Continuous
 62
     7
100
AcDbLine
 10
339.9441151240421
 20
295.3503473399187
 30
0.0
 11
339.9441151240421
 21
299.3503473399228
 31
0.0
  0
LINE
  5
DA
330
53
100
AcDbEntity
  8
0
  6
Continuous
 62
     7
100
AcDbLine
 10
302.7441151240421
 20
254.3503473399228
 30
0.0
 11
305.3551782794741
 21
257.6441733051238
 31
0.0
  0
LINE
  5
DB
330
53
100
AcDbEntity
  8
0
  6
Continuous
 62
     7
100
AcDbLine
 10
322.7441151240421
 20
244.3503473399228
 30
0.0
 11
302.7441151240421
 21
244.3503473399228
 31
0.0
  0
LINE
  5
DC
330
53
100
AcDbEntity
  8
0
  6
Continuous
 62
     7
100
AcDbLine
 10
322.7441151240432
 20
299.3503473399228
 30
0.0
 11
305.5441151240423
 21
299.3503473399228
 31
0.0
  0
LINE
  5
DD
330
53
100
AcDbEntity
  8
0
  6
Continuous
 62
     7
100
AcDbLine
 10
305.5441151240423
 20
295.3503473399187
 30
0.0
 11
305.5441151240423
 21
295.1548639692937
 31
0.0
  0
LINE
  5
DE
330
53
100
AcDbEntity
  8
0
  6
Continuous
 62
     7
100
AcDbLine
 10
322.7441151240421
 20
258.5101987089088
 30
0.0
 11
305.8551782794741
 21
258.5101987089088
 31
0.0
  0
LINE
  5
DF
330
53
100
AcDbEntity
  8
0
  6
Continuous
 62
     7
100
AcDbLine
 10
322.7441151240432
 20
295.3503473399187
 30
0.0
 11
322.7441151240412
 21
295.3503473399187
 31
0.0
  0
LINE
  5
E0
330
53
100
AcDbEntity
  8
0
  6
Continuous
 62
     7
100
AcDbLine
 10
305.5441151240423
 20
299.3503473399228
 30
0.0
 11
305.5441151240423
 21
295.3503473399187
 31
0.0
  0
LINE
  5
E1
330
53
100
AcDbEntity
  8
0
  6
Continuous
 62
     7
100
AcDbLine
 10
322.7441151240421
 20
254.3503473399228
 30
0.0
 11
322.7441151240421
 21
244.3503473399228
 31
0.0
  0
LINE
  5
E2
330
53
100
AcDbEntity
  8
0
  6
Continuous
 62
     7
100
AcDbLine
 10
225.8381258916272
 20
244.3503473399228
 30
0.0
 11
225.8381258916272
 21
254.3503473399228
 31
0.0
  0
LINE
  5
E3
330
53
100
AcDbEntity
  8
0
  6
Continuous
 62
     7
100
AcDbLine
 10
342.7441151240421
 20
254.3503473399228
 30
0.0
 11
342.7441151240421
 21
244.3503473399228
 31
0.0
  0
LINE
  5
E4
330
53
100
AcDbEntity
  8
0
  6
Continuous
 62
     7
100
AcDbLine
 10
342.7441151240421
 20
244.3503473399228
 30
0.0
 11
322.7441151240421
 21
244.3503473399228
 31
0.0
  0
LINE
  5
E5
330
53
100
AcDbEntity
  8
0
  6
Continuous
 62
     7
100
AcDbLine
 10
302.7441151240421
 20
254.3503473399228
 30
0.0
 11
302.7441151240421
 21
244.3503473399228
 31
0.0
  0
ARC
  5
E6
330
53
100
AcDbEntity
  8
0
  6
Continuous
 62
     7
100
AcDbCircle
 10
185.4236070483532
 20
252.4237196194258
 30
0.0
 40
6.086479089483854
100
AcDbArc
 50
18.45394250436225
 51
90.0
  0
ARC
  5
E7
330
53
100
AcDbEntity
  8
0
  6
Continuous
 62
     7
100
AcDbCircle
 10
220.0646231997312
 20
252.4237196194258
 30
0.0
 40
6.086479089482964
100
AcDbArc
 50
90.0
 51
161.5460574956405
  0
ARC
  5
E8
330
53
100
AcDbEntity
  8
0
  6
Continuous
 62
     7
100
AcDbCircle
 10
202.7441151240421
 20
240.4040594044491
 30
0.0
 40
18.10613930445975
100
AcDbArc
 50
50.37651332613514
 51
129.6234866738667
  0
ARC
  5
E9
330
53
100
AcDbEntity
  8
0
  6
Continuous
 62
     7
100
AcDbCircle
 10
184.0491890470603
 20
258.5101987089088
 30
0.0
 40
1.0
100
AcDbArc
 50
0.0
 51
43.42093982467583
  0
ARC
  5
EA
330
53
100
AcDbEntity
  8
0
  6
Continuous
 62
     7
100
AcDbCircle
 10
184.0491890470603
 20
258.5101987089088
 30
0.0
 40
1.000000000000476
100
AcDbArc
 50
299.9999999999842
 51
0.0
  0
ARC
  5
EB
330
53
100
AcDbEntity
  8
0
  6
Continuous
 62
     7
100
AcDbCircle
 10
202.7441151240421
 20
275.3503473399228
 30
0.0
 40
23.5
100
AcDbArc
 50
0.0
 51
44.90087215598257
  0
ARC
  5
EC
330
53
100
AcDbEntity
  8
0
  6
Continuous
 62
     7
100
AcDbCircle
 10
220.6330519686091
 20
258.5101987089088
 30
0.0
 40
0.999999999997868
100
AcDbArc
 50
136.579060175332
 51
180.0
  0
ARC
  5
ED
330
53
100
AcDbEntity
  8
0
  6
Continuous
 62
     7
100
AcDbCircle
 10
220.6330519686091
 20
258.5101987089088
 30
0.0
 40
1.0
100
AcDbArc
 50
180.0
 51
240.0000000000157
  0
ARC
  5
EE
330
53
100
AcDbEntity
  8
0
  6
Continuous
 62
     7
100
AcDbCircle
 10
202.7911205078342
 20
275.2322908265096
 30
0.0
 40
23.45329174781669
100
AcDbArc
 50
316.8674703737837
 51
0.2884101984755
  0
ARC
  5
EF
330
53
100
AcDbEntity
  8
0
  6
Continuous
 62
     7
100
AcDbCircle
 10
202.2941151240423
 20
270.6170358081481
 30
0.0
 40
20.91186392346113
100
AcDbArc
 50
202.2366079854055
 51
213.0982803081798
  0
ARC
  5
F0
330
53
100
AcDbEntity
  8
0
  6
Continuous
 62
     7
100
AcDbCircle
 10
190.2920263326971
 20
293.4555595670181
 30
0.0
 40
31.08752958308107
100
AcDbArc
 50
211.6970170941528
 51
254.1439727799946
  0
ARC
  5
F1
330
53
100
AcDbEntity
  8
0
  6
Continuous
 62
     7
100
AcDbCircle
 10
181.2518173973663
 20
261.6269680757687
 30
0.0
 40
1.999999999998037
100
AcDbArc
 50
32.55926750191526
 51
74.14397278000445
  0
ARC
  5
F2
330
53
100
AcDbEntity
  8
0
  6
Continuous
 62
     7
100
AcDbCircle
 10
162.1398834473512
 20
276.070466387122
 30
0.0
 40
1.999999999989986
100
AcDbArc
 50
31.6970170941572
 51
135.0000000000006
  0
ARC
  5
F3
330
53
100
AcDbEntity
  8
0
  6
Continuous
 62
     7
100
AcDbCircle
 10
220.8065069922243
 20
293.3503473399228
 30
0.0
 40
1.999999999995713
100
AcDbArc
 50
115.5434810907151
 51
224.9008721559829
  0
ARC
  5
F4
330
53
100
AcDbEntity
  8
0
  6
Continuous
 62
     7
100
AcDbCircle
 10
181.7786506278171
 20
295.7092335675878
 30
0.0
 40
1.999999999999815
100
AcDbArc
 50
134.9999999999965
 51
240.394853597345
  0
ARC
  5
F5
330
53
100
AcDbEntity
  8
0
  6
Continuous
 62
     7
100
AcDbCircle
 10
184.5498957726122
 20
296.9258189409338
 30
0.0
 40
5.026529303225874
100
AcDbArc
 50
203.7016260647698
 51
205.8390315477404
  0
ARC
  5
F6
330
53
100
AcDbEntity
  8
0
  6
Continuous
 62
     7
100
AcDbCircle
 10
184.6817232558601
 20
293.3503473399228
 30
0.0
 40
1.999999999995472
100
AcDbArc
 50
2.85087658956172
 51
64.45651890928565
  0
ARC
  5
F7
330
53
100
AcDbEntity
  8
0
  6
Continuous
 62
     7
100
AcDbCircle
 10
184.4599477048353
 20
293.4355900333048
 30
0.0
 40
2.219345909127167
100
AcDbArc
 50
227.9054187923446
 51
317.5826171627546
  0
ARC
  5
F8
330
53
100
AcDbEntity
  8
0
  6
Continuous
 62
     7
100
AcDbCircle
 10
184.6817232558601
 20
293.3503473399228
 30
0.0
 40
1.999999999995663
100
AcDbArc
 50
315.0991280163087
 51
2.85087658956172
  0
ARC
  5
F9
330
53
100
AcDbEntity
  8
0
  6
Continuous
 62
     7
100
AcDbCircle
 10
322.7441151240421
 20
275.3503473399228
 30
0.0
 40
23.5
100
AcDbArc
 50
0.0
 51
44.90087215598257
  0
ARC
  5
FA
330
53
100
AcDbEntity
  8
0
  6
Continuous
 62
     7
100
AcDbCircle
 10
340.6330519686091
 20
258.5101987089088
 30
0.0
 40
0.999999999997868
100
AcDbArc
 50
136.579060175332
 51
180.0
  0
ARC
  5
FB
330
53
100
AcDbEntity
  8
0
  6
Continuous
 62
     7
100
AcDbCircle
 10
340.6330519686091
 20
258.5101987089088
 30
0.0
 40
1.0
100
AcDbArc
 50
180.0
 51
240.0000000000157
  0
ARC
  5
FC
330
53
100
AcDbEntity
  8
0
  6
Continuous
 62
     7
100
AcDbCircle
 10
322.7911205078342
 20
275.2322908265096
 30
0.0
 40
23.45329174781669
100
AcDbArc
 50
316.8674703737837
 51
0.2884101984755
  0
ARC
  5
FD
330
53
100
AcDbEntity
  8
0
  6
Continuous
 62
     7
100
AcDbCircle
 10
340.8065069922243
 20
293.3503473399228
 30
0.0
 40
1.999999999995689
100
AcDbArc
 50
115.5434810907136
 51
224.9008721559829
  0
ARC
  5
FE
330
53
100
AcDbEntity
  8
0
  6
Continuous
 62
     7
100
AcDbCircle
 10
322.7441151240421
 20
275.3503473399228
 30
0.0
 40
23.49999999999953
100
AcDbArc
 50
135.0991278440171
 51
180.0
  0
ARC
  5
FF
330
53
100
AcDbEntity
  8
0
  6
Continuous
 62
     7
100
AcDbCircle
 10
304.8551782794741
 20
258.5101987089088
 30
0.0
 40
1.0
100
AcDbArc
 50
0.0
 51
43.420939824668
  0
ARC
  5
100
330
53
100
AcDbEntity
  8
0
  6
Continuous
 62
     7
100
AcDbCircle
 10
304.8551782794741
 20
258.5101987089088
 30
0.0
 40
1.000000000000476
100
AcDbArc
 50
299.9999999999842
 51
0.0
  0
ARC
  5
101
330
53
100
AcDbEntity
  8
0
  6
Continuous
 62
     7
100
AcDbCircle
 10
322.6971097402493
 20
275.2322908265096
 30
0.0
 40
23.45329174781662
100
AcDbArc
 50
179.7115898015245
 51
223.1325296262159
  0
ARC
  5
102
330
53
100
AcDbEntity
  8
0
  6
Continuous
 62
     7
100
AcDbCircle
 10
304.6817232558601
 20
293.3503473399228
 30
0.0
 40
1.999999999995889
100
AcDbArc
 50
315.0991278440171
 51
64.45651890928491
  0
ARC
  5
103
330
53
100
AcDbEntity
  8
0
  6
Continuous
 62
     7
100
AcDbCircle
 10
332.7441151240421
 20
244.701449942148
 30
0.0
 40
13.89608653516468
100
AcDbArc
 50
43.97630099874037
 51
136.0236990012596
  0
ARC
  5
104
330
53
100
AcDbEntity
  8
0
  6
Continuous
 62
     7
100
AcDbCircle
 10
312.7441151240421
 20
244.701449942148
 30
0.0
 40
13.89608653516468
100
AcDbArc
 50
43.97630099874037
 51
136.0236990012596
  0
LWPOLYLINE
  5
105
330
53
100
AcDbEntity
  8
0
  6
Continuous
 62
     7
 60
     1
100
AcDbPolyline
 90
        2
 70
     0
 43
0.0
 10
225.8381258916272
 20
244.3503473399228
 10
219.3686151240422
 20
244.3503473399228
  0
ENDBLK
  5
55
330
53
100
AcDbEntity
  8
0
100
AcDbBlockEnd
  0
BLOCK
  5
57
330
56
100
AcDbEntity
  8
0
100
AcDbBlockBegin
  2
V18-H15
 70
     0
 10
185.5441151240423
 20
299.3503473399228
 30
0.0
  3
V18-H15
  1

  0
LINE
  5
106
330
56
100
AcDbEntity
  8
1
  6
Continuous
 62
     7
100
AcDbLine
 10
219.9441151240421
 20
300.3503473399228
 30
0.0
 11
188.9941151240421
 21
300.3503473399228
 31
0.0
  0
LINE
  5
107
330
56
100
AcDbEntity
  8
1
  6
Continuous
 62
     7
100
AcDbLine
 10
219.9441151240421
 20
299.3503473399228
 30
0.0
 11
216.4941151240421
 21
299.3503473399228
 31
0.0
  0
LINE
  5
108
330
56
100
AcDbEntity
  8
1
  6
Continuous
 62
     7
100
AcDbLine
 10
219.9441151240421
 20
300.3503473399228
 30
0.0
 11
219.9441151240421
 21
299.3503473399228
 31
0.0
  0
LINE
  5
109
330
56
100
AcDbEntity
  8
1
  6
Continuous
 62
     7
100
AcDbLine
 10
188.9941151240421
 20
300.3503473399228
 30
0.0
 11
185.5441151240423
 21
300.3503473399228
 31
0.0
  0
LINE
  5
10A
330
56
100
AcDbEntity
  8
1
  6
Continuous
 62
     7
100
AcDbLine
 10
216.4941151240421
 20
299.3503473399228
 30
0.0
 11
185.5441151240423
 21
299.3503473399228
 31
0.0
  0
LINE
  5
10B
330
56
100
AcDbEntity
  8
1
  6
Continuous
 62
     7
100
AcDbLine
 10
185.5441151240423
 20
299.3503473399228
 30
0.0
 11
185.5441151240423
 21
300.3503473399228
 31
0.0
  0
ENDBLK
  5
58
330
56
100
AcDbEntity
  8
0
100
AcDbBlockEnd
  0
BLOCK
  5
5A
330
59
100
AcDbEntity
  8
0
100
AcDbBlockBegin
  2
V18-H7
 70
     0
 10
189.2441151240421
 20
318.8503473399228
 30
0.0
  3
V18-H7
  1

  0
LINE
  5
10C
330
59
100
AcDbEntity
  8
1
  6
Continuous
 62
     7
100
AcDbLine
 10
203.0263648136711
 20
328.8503473399228
 30
0.0
 11
191.8421913353952
 21
328.8503473399228
 31
0.0
  0
LINE
  5
10D
330
59
100
AcDbEntity
  8
1
  6
Continuous
 62
     7
100
AcDbLine
 10
191.8421913353952
 20
328.8503473399228
 30
0.0
 11
191.6683193318211
 21
328.7499622918549
 31
0.0
  0
LINE
  5
10E
330
59
100
AcDbEntity
  8
1
  6
Continuous
 62
     7
100
AcDbLine
 10
191.8421913353952
 20
318.8503473399228
 30
0.0
 11
191.6786495692982
 21
318.9447682226028
 31
0.0
  0
LINE
  5
10F
330
59
100
AcDbEntity
  8
0
  6
Continuous
 62
     7
100
AcDbLine
 10
195.9941151240412
 20
320.3503473399228
 30
0.0
 11
195.9941151240412
 21
327.3503473399228
 31
0.0
  0
LINE
  5
110
330
59
100
AcDbEntity
  8
1
  6
Continuous
 62
     7
100
AcDbLine
 10
202.7441151240421
 20
318.8503473399228
 30
0.0
 11
191.8421913353952
 21
318.8503473399228
 31
0.0
  0
LINE
  5
111
330
59
100
AcDbEntity
  8
1
  6
Continuous
 62
     7
100
AcDbLine
 10
189.2441151240412
 20
327.3503473399228
 30
0.0
 11
189.2441151240412
 21
320.3503473399228
 31
0.0
  0
LINE
  5
112
330
59
100
AcDbEntity
  8
1
  6
Continuous
 62
     7
100
AcDbLine
 10
213.6460389126882
 20
328.8503473399228
 30
0.0
 11
202.4618654344122
 21
328.8503473399228
 31
0.0
  0
LINE
  5
113
330
59
100
AcDbEntity
  8
0
  6
Continuous
 62
     7
100
AcDbLine
 10
195.9941151240412
 20
320.3503473399228
 30
0.0
 11
195.9941151240412
 21
327.3503473399228
 31
0.0
  0
LINE
  5
114
330
59
100
AcDbEntity
  8
1
  6
Continuous
 62
     7
100
AcDbLine
 10
213.8199109162622
 20
328.7499622918549
 30
0.0
 11
213.6460389126882
 21
328.8503473399228
 31
0.0
  0
LINE
  5
115
330
59
100
AcDbEntity
  8
1
  6
Continuous
 62
     7
100
AcDbLine
 10
213.8095806787851
 20
318.9447682226028
 30
0.0
 11
213.6460389126882
 21
318.8503473399228
 31
0.0
  0
LINE
  5
116
330
59
100
AcDbEntity
  8
0
  6
Continuous
 62
     7
100
AcDbLine
 10
209.4941151240421
 20
327.3503473399228
 30
0.0
 11
209.4941151240421
 21
320.3503473399228
 31
0.0
  0
LINE
  5
117
330
59
100
AcDbEntity
  8
1
  6
Continuous
 62
     7
100
AcDbLine
 10
213.6460389126882
 20
318.8503473399228
 30
0.0
 11
202.7441151240421
 21
318.8503473399228
 31
0.0
  0
LINE
  5
118
330
59
100
AcDbEntity
  8
1
  6
Continuous
 62
     7
100
AcDbLine
 10
216.2441151240421
 20
320.3503473399228
 30
0.0
 11
216.2441151240421
 21
327.3503473399228
 31
0.0
  0
LINE
  5
119
330
59
100
AcDbEntity
  8
1
  6
Continuous
 62
     7
100
AcDbLine
 10
331.8373818637781
 20
328.8503473399228
 30
0.0
 11
322.7441151240412
 21
328.8503473399228
 31
0.0
  0
LINE
  5
11A
330
59
100
AcDbEntity
  8
1
  6
Continuous
 62
     7
100
AcDbLine
 10
331.8373818637781
 20
318.8503473399228
 30
0.0
 11
322.7441151240412
 21
318.8503473399228
 31
0.0
  0
LINE
  5
11B
330
59
100
AcDbEntity
  8
1
  6
Continuous
 62
     7
100
AcDbLine
 10
334.4354580751312
 20
320.3503473399228
 30
0.0
 11
334.4354580751312
 21
327.3503473399228
 31
0.0
  0
LINE
  5
11C
330
59
100
AcDbEntity
  8
1
  6
Continuous
 62
     7
100
AcDbLine
 10
334.4354580751312
 20
327.3503473399228
 30
0.0
 11
331.8373818637781
 21
328.8503473399228
 31
0.0
  0
LINE
  5
11D
330
59
100
AcDbEntity
  8
1
  6
Continuous
 62
     7
100
AcDbLine
 10
334.4354580751312
 20
320.3503473399228
 30
0.0
 11
331.8373818637781
 21
318.8503473399228
 31
0.0
  0
LINE
  5
11E
330
59
100
AcDbEntity
  8
1
  6
Continuous
 62
     7
100
AcDbLine
 10
322.7441151240432
 20
328.8503473399228
 30
0.0
 11
313.6508483843061
 21
328.8503473399228
 31
0.0
  0
LINE
  5
11F
330
59
100
AcDbEntity
  8
1
  6
Continuous
 62
     7
100
AcDbLine
 10
322.7441151240432
 20
318.8503473399228
 30
0.0
 11
313.6508483843061
 21
318.8503473399228
 31
0.0
  0
LINE
  5
120
330
59
100
AcDbEntity
  8
1
  6
Continuous
 62
     7
100
AcDbLine
 10
311.0527721729522
 20
327.3503473399228
 30
0.0
 11
311.0527721729522
 21
320.3503473399228
 31
0.0
  0
LINE
  5
121
330
59
100
AcDbEntity
  8
1
  6
Continuous
 62
     7
100
AcDbLine
 10
313.6508483843061
 20
328.8503473399228
 30
0.0
 11
311.0527721729522
 21
327.3503473399228
 31
0.0
  0
LINE
  5
122
330
59
100
AcDbEntity
  8
1
  6
Continuous
 62
     7
100
AcDbLine
 10
313.6508483843061
 20
318.8503473399228
 30
0.0
 11
311.0527721729522
 21
320.3503473399228
 31
0.0
  0
LINE
  5
123
330
59
100
AcDbEntity
  8
0
  6
Continuous
 62
     7
100
AcDbLine
 10
322.7441151240421
 20
327.3503473399228
 30
0.0
 11
322.7441151240421
 21
320.3503473399228
 31
0.0
  0
ARC
  5
124
330
59
100
AcDbEntity
  8
0
  6
Continuous
 62
     7
100
AcDbCircle
 10
192.6191151240412
 20
323.3848605810017
 30
0.0
 40
4.538600622469799
100
AcDbArc
 50
221.9591864670472
 51
318.0408135329528
  0
ARC
  5
125
330
59
100
AcDbEntity
  8
0
  6
Continuous
 62
     7
100
AcDbCircle
 10
192.6191151240412
 20
324.3039057684209
 30
0.0
 40
4.546584569605497
100
AcDbArc
 50
42.07096775361753
 51
137.9290322463825
  0
ARC
  5
126
330
59
100
AcDbEntity
  8
0
  6
Continuous
 62
     7
100
AcDbCircle
 10
202.7441151240421
 20
334.7878473399469
 30
0.0
 40
15.93750000002222
100
AcDbArc
 50
244.9423845817307
 51
295.0576154182663
  0
ARC
  5
127
330
59
100
AcDbEntity
  8
0
  6
Continuous
 62
     7
100
AcDbCircle
 10
202.7441151240421
 20
312.9128473399228
 30
0.0
 40
15.9375
100
AcDbArc
 50
64.94238458169698
 51
115.057615418306
  0
ARC
  5
128
330
59
100
AcDbEntity
  8
0
  6
Continuous
 62
     7
100
AcDbCircle
 10
212.8691151240421
 20
323.3848605810017
 30
0.0
 40
4.538600622469799
100
AcDbArc
 50
221.9591864670472
 51
318.0408135329528
  0
ARC
  5
129
330
59
100
AcDbEntity
  8
0
  6
Continuous
 62
     7
100
AcDbCircle
 10
212.8691151240421
 20
324.3039057684209
 30
0.0
 40
4.546584569605497
100
AcDbArc
 50
42.07096775361753
 51
137.9290322463825
  0
ARC
  5
12A
330
59
100
AcDbEntity
  8
0
  6
Continuous
 62
     7
100
AcDbCircle
 10
328.5897865995862
 20
316.7097223399228
 30
0.0
 40
12.14062500000001
100
AcDbArc
 50
61.21679720615818
 51
118.7832027938383
  0
ARC
  5
12B
330
59
100
AcDbEntity
  8
0
  6
Continuous
 62
     7
100
AcDbCircle
 10
328.5897865995862
 20
330.990972339921
 30
0.0
 40
12.140624999998
100
AcDbArc
 50
241.2167972061575
 51
298.7832027938459
  0
ARC
  5
12C
330
59
100
AcDbEntity
  8
0
  6
Continuous
 62
     7
100
AcDbCircle
 10
316.8984436484973
 20
316.7097223399228
 30
0.0
 40
12.14062499999993
100
AcDbArc
 50
61.21679720615889
 51
118.7832027938423
  0
ARC
  5
12D
330
59
100
AcDbEntity
  8
0
  6
Continuous
 62
     7
100
AcDbCircle
 10
316.8984436484973
 20
330.990972339921
 30
0.0
 40
12.14062499999847
100
AcDbArc
 50
241.2167972061536
 51
298.7832027938452
  0
LWPOLYLINE
  5
12E
330
59
100
AcDbEntity
  8
1
  6
Continuous
 62
     7
 60
     1
100
AcDbPolyline
 90
        2
 70
     0
 43
0.0
 10
329.9354580751312
 20
318.8503473399228
 10
331.8373818637781
 20
318.8503473399228
  0
LWPOLYLINE
  5
12F
330
59
100
AcDbEntity
  8
1
  6
Continuous
 62
     7
 60
     1
100
AcDbPolyline
 90
        2
 70
     0
 43
0.0
 10
315.5527721729522
 20
318.8503473399228
 10
313.6508483843061
 20
318.8503473399228
  0
ENDBLK
  5
5B
330
59
100
AcDbEntity
  8
0
100
AcDbBlockEnd
  0
BLOCK
  5
5D
330
5C
100
AcDbEntity
  8
0
100
AcDbBlockBegin
  2
V18-H10
 70
     0
 10
172.7441151240421
 20
341.3503473399228
 30
0.0
  3
V18-H10
  1

  0
LINE
  5
130
330
5C
100
AcDbEntity
  8
1
  6
Continuous
 62
     7
100
AcDbLine
 10
157.7441151240429
 20
346.3503473399228
 30
0.0
 11
170.9243099706489
 21
346.3503473399228
 31
0.0
  0
LINE
  5
131
330
5C
100
AcDbEntity
  8
1
  6
Continuous
 62
     7
100
AcDbLine
 10
170.2028380026438
 20
358.3503473399228
 30
0.0
 11
170.9243099706488
 21
358.3503473399228
 31
0.0
  0
LINE
  5
132
330
5C
100
AcDbEntity
  8
1
  6
Continuous
 62
     7
100
AcDbLine
 10
160.7441151240429
 20
358.3503473399228
 30
0.0
 11
170.9243099706488
 21
358.3503473399228
 31
0.0
  0
LINE
  5
133
330
5C
100
AcDbEntity
  8
0
  6
Continuous
 62
     7
100
AcDbLine
 10
170.9243099706488
 20
358.3503473399228
 30
0.0
 11
170.9243099706489
 21
346.3503473399228
 31
0.0
  0
LINE
  5
134
330
5C
100
AcDbEntity
  8
1
  6
Continuous
 62
     7
100
AcDbLine
 10
187.5575029051495
 20
355.9808499163199
 30
0.0
 11
187.0540943970745
 21
346.3503473399228
 31
0.0
  0
LINE
  5
135
330
5C
100
AcDbEntity
  8
1
  6
Continuous
 62
     7
100
AcDbLine
 10
195.744115124044
 20
341.3503473399228
 30
0.0
 11
202.744115124044
 21
341.3503473399228
 31
0.0
  0
LINE
  5
136
330
5C
100
AcDbEntity
  8
1
  6
Continuous
 62
     7
100
AcDbLine
 10
195.744115124044
 20
344.0652967143551
 30
0.0
 11
195.744115124044
 21
343.975273007477
 31
0.0
  0
LINE
  5
137
330
5C
100
AcDbEntity
  8
1
  6
Continuous
 62
     7
100
AcDbLine
 10
194.378606805769
 20
345.4692315034017
 30
0.0
 11
186.176283864438
 21
346.2076350195912
 31
0.0
  0
LINE
  5
138
330
5C
100
AcDbEntity
  8
1
  6
Continuous
 62
     7
100
AcDbLine
 10
170.9243099706489
 20
346.3503473399228
 30
0.0
 11
202.744115124044
 21
346.3503473399228
 31
0.0
  0
LINE
  5
139
330
5C
100
AcDbEntity
  8
1
  6
Continuous
 62
     7
100
AcDbLine
 10
195.744115124044
 20
343.975273007477
 30
0.0
 11
195.744115124044
 21
341.3503473399228
 31
0.0
  0
LINE
  5
13A
330
5C
100
AcDbEntity
  8
1
  6
Continuous
 62
     7
100
AcDbLine
 10
158.2475236321178
 20
355.9808499163199
 30
0.0
 11
157.7441151240429
 21
346.3503473399228
 31
0.0
  0
LINE
  5
13B
330
5C
100
AcDbEntity
  8
1
  6
Continuous
 62
     7
100
AcDbLine
 10
170.9243099706488
 20
358.3503473399228
 30
0.0
 11
202.744115124044
 21
358.3503473399228
 31
0.0
  0
LINE
  5
13C
330
5C
100
AcDbEntity
  8
1
  6
Continuous
 62
     7
100
AcDbLine
 10
170.9243099706488
 20
358.3503473399228
 30
0.0
 11
181.2755504072369
 21
358.3503473399228
 31
0.0
  0
LINE
  5
13D
330
5C
100
AcDbEntity
  8
1
  6
Continuous
 62
     7
100
AcDbLine
 10
234.5639202774374
 20
346.3503473399228
 30
0.0
 11
247.7441151240429
 21
346.3503473399228
 31
0.0
  0
LINE
  5
13E
330
5C
100
AcDbEntity
  8
1
  6
Continuous
 62
     7
100
AcDbLine
 10
234.5639202774374
 20
358.3503473399228
 30
0.0
 11
235.2853922454424
 21
358.3503473399228
 31
0.0
  0
LINE
  5
13F
330
5C
100
AcDbEntity
  8
1
  6
Continuous
 62
     7
100
AcDbLine
 10
234.5639202774374
 20
358.3503473399228
 30
0.0
 11
244.7441151240429
 21
358.3503473399228
 31
0.0
  0
LINE
  5
140
330
5C
100
AcDbEntity
  8
0
  6
Continuous
 62
     7
100
AcDbLine
 10
234.5639202774374
 20
346.3503473399228
 30
0.0
 11
234.5639202774374
 21
358.3503473399228
 31
0.0
  0
LINE
  5
141
330
5C
100
AcDbEntity
  8
1
  6
Continuous
 62
     7
100
AcDbLine
 10
218.4341358510117
 20
346.3503473399228
 30
0.0
 11
217.9307273429378
 21
355.98084991632
 31
0.0
  0
LINE
  5
142
330
5C
100
AcDbEntity
  8
1
  6
Continuous
 62
     7
100
AcDbLine
 10
202.744115124042
 20
341.3503473399228
 30
0.0
 11
209.744115124042
 21
341.3503473399228
 31
0.0
  0
LINE
  5
143
330
5C
100
AcDbEntity
  8
1
  6
Continuous
 62
     7
100
AcDbLine
 10
209.744115124042
 20
343.975273007477
 30
0.0
 11
209.744115124042
 21
344.0652967143551
 31
0.0
  0
LINE
  5
144
330
5C
100
AcDbEntity
  8
1
  6
Continuous
 62
     7
100
AcDbLine
 10
219.311946383648
 20
346.2076350195912
 30
0.0
 11
211.109623442317
 21
345.4692315034017
 31
0.0
  0
LINE
  5
145
330
5C
100
AcDbEntity
  8
1
  6
Continuous
 62
     7
100
AcDbLine
 10
202.744115124042
 20
346.3503473399228
 30
0.0
 11
234.5639202774374
 21
346.3503473399228
 31
0.0
  0
LINE
  5
146
330
5C
100
AcDbEntity
  8
1
  6
Continuous
 62
     7
100
AcDbLine
 10
209.744115124042
 20
341.3503473399228
 30
0.0
 11
209.744115124042
 21
343.975273007477
 31
0.0
  0
LINE
  5
147
330
5C
100
AcDbEntity
  8
1
  6
Continuous
 62
     7
100
AcDbLine
 10
247.7441151240429
 20
346.3503473399228
 30
0.0
 11
247.2407066159679
 21
355.9808499163199
 31
0.0
  0
LINE
  5
148
330
5C
100
AcDbEntity
  8
1
  6
Continuous
 62
     7
100
AcDbLine
 10
202.744115124042
 20
358.3503473399228
 30
0.0
 11
234.5639202774374
 21
358.3503473399228
 31
0.0
  0
LINE
  5
149
330
5C
100
AcDbEntity
  8
1
  6
Continuous
 62
     7
100
AcDbLine
 10
232.2539569622494
 20
358.3503473399228
 30
0.0
 11
234.5639202774374
 21
358.3503473399228
 31
0.0
  0
LINE
  5
14A
330
5C
100
AcDbEntity
  8
1
  6
Continuous
 62
     7
100
AcDbLine
 10
352.2539569622485
 20
358.3503473399228
 30
0.0
 11
354.5639202774365
 21
358.3503473399228
 31
0.0
  0
LINE
  5
14B
330
5C
100
AcDbEntity
  8
1
  6
Continuous
 62
     7
100
AcDbLine
 10
322.7441151240412
 20
358.3503473399228
 30
0.0
 11
354.5639202774365
 21
358.3503473399228
 31
0.0
  0
LINE
  5
14C
330
5C
100
AcDbEntity
  8
1
  6
Continuous
 62
     7
100
AcDbLine
 10
367.7441151240421
 20
346.3503473399228
 30
0.0
 11
367.2407066159671
 21
355.9808499163199
 31
0.0
  0
LINE
  5
14D
330
5C
100
AcDbEntity
  8
1
  6
Continuous
 62
     7
100
AcDbLine
 10
329.7441151240412
 20
341.3503473399228
 30
0.0
 11
329.7441151240412
 21
343.975273007477
 31
0.0
  0
LINE
  5
14E
330
5C
100
AcDbEntity
  8
1
  6
Continuous
 62
     7
100
AcDbLine
 10
322.7441151240412
 20
346.3503473399228
 30
0.0
 11
354.5639202774365
 21
346.3503473399228
 31
0.0
  0
LINE
  5
14F
330
5C
100
AcDbEntity
  8
1
  6
Continuous
 62
     7
100
AcDbLine
 10
339.3119463836472
 20
346.2076350195912
 30
0.0
 11
331.1096234423162
 21
345.4692315034017
 31
0.0
  0
LINE
  5
150
330
5C
100
AcDbEntity
  8
1
  6
Continuous
 62
     7
100
AcDbLine
 10
329.7441151240412
 20
343.975273007477
 30
0.0
 11
329.7441151240412
 21
344.0652967143551
 31
0.0
  0
LINE
  5
151
330
5C
100
AcDbEntity
  8
1
  6
Continuous
 62
     7
100
AcDbLine
 10
322.7441151240412
 20
341.3503473399228
 30
0.0
 11
329.7441151240412
 21
341.3503473399228
 31
0.0
  0
LINE
  5
152
330
5C
100
AcDbEntity
  8
1
  6
Continuous
 62
     7
100
AcDbLine
 10
338.4341358510109
 20
346.3503473399228
 30
0.0
 11
337.930727342937
 21
355.98084991632
 31
0.0
  0
LINE
  5
153
330
5C
100
AcDbEntity
  8
0
  6
Continuous
 62
     7
100
AcDbLine
 10
354.5639202774365
 20
346.3503473399228
 30
0.0
 11
354.5639202774365
 21
358.3503473399228
 31
0.0
  0
LINE
  5
154
330
5C
100
AcDbEntity
  8
1
  6
Continuous
 62
     7
100
AcDbLine
 10
354.5639202774365
 20
358.3503473399228
 30
0.0
 11
364.7441151240421
 21
358.3503473399228
 31
0.0
  0
LINE
  5
155
330
5C
100
AcDbEntity
  8
1
  6
Continuous
 62
     7
100
AcDbLine
 10
354.5639202774365
 20
358.3503473399228
 30
0.0
 11
355.2853922454416
 21
358.3503473399228
 31
0.0
  0
LINE
  5
156
330
5C
100
AcDbEntity
  8
1
  6
Continuous
 62
     7
100
AcDbLine
 10
354.5639202774365
 20
346.3503473399228
 30
0.0
 11
367.7441151240421
 21
346.3503473399228
 31
0.0
  0
LINE
  5
157
330
5C
100
AcDbEntity
  8
1
  6
Continuous
 62
     7
100
AcDbLine
 10
290.924309970648
 20
358.3503473399228
 30
0.0
 11
301.2755504072361
 21
358.3503473399228
 31
0.0
  0
LINE
  5
158
330
5C
100
AcDbEntity
  8
1
  6
Continuous
 62
     7
100
AcDbLine
 10
290.924309970648
 20
358.3503473399228
 30
0.0
 11
322.7441151240432
 21
358.3503473399228
 31
0.0
  0
LINE
  5
159
330
5C
100
AcDbEntity
  8
1
  6
Continuous
 62
     7
100
AcDbLine
 10
278.247523632117
 20
355.9808499163199
 30
0.0
 11
277.7441151240421
 21
346.3503473399228
 31
0.0
  0
LINE
  5
15A
330
5C
100
AcDbEntity
  8
1
  6
Continuous
 62
     7
100
AcDbLine
 10
315.7441151240432
 20
343.975273007477
 30
0.0
 11
315.7441151240432
 21
341.3503473399228
 31
0.0
  0
LINE
  5
15B
330
5C
100
AcDbEntity
  8
1
  6
Continuous
 62
     7
100
AcDbLine
 10
290.9243099706481
 20
346.3503473399228
 30
0.0
 11
322.7441151240432
 21
346.3503473399228
 31
0.0
  0
LINE
  5
15C
330
5C
100
AcDbEntity
  8
1
  6
Continuous
 62
     7
100
AcDbLine
 10
314.3786068057682
 20
345.4692315034017
 30
0.0
 11
306.1762838644372
 21
346.2076350195912
 31
0.0
  0
LINE
  5
15D
330
5C
100
AcDbEntity
  8
1
  6
Continuous
 62
     7
100
AcDbLine
 10
315.7441151240432
 20
344.0652967143551
 30
0.0
 11
315.7441151240432
 21
343.975273007477
 31
0.0
  0
LINE
  5
15E
330
5C
100
AcDbEntity
  8
1
  6
Continuous
 62
     7
100
AcDbLine
 10
315.7441151240432
 20
341.3503473399228
 30
0.0
 11
322.7441151240432
 21
341.3503473399228
 31
0.0
  0
LINE
  5
15F
330
5C
100
AcDbEntity
  8
1
  6
Continuous
 62
     7
100
AcDbLine
 10
307.5575029051487
 20
355.9808499163199
 30
0.0
 11
307.0540943970736
 21
346.3503473399228
 31
0.0
  0
LINE
  5
160
330
5C
100
AcDbEntity
  8
0
  6
Continuous
 62
     7
100
AcDbLine
 10
290.924309970648
 20
358.3503473399228
 30
0.0
 11
290.9243099706481
 21
346.3503473399228
 31
0.0
  0
LINE
  5
161
330
5C
100
AcDbEntity
  8
1
  6
Continuous
 62
     7
100
AcDbLine
 10
280.7441151240421
 20
358.3503473399228
 30
0.0
 11
290.924309970648
 21
358.3503473399228
 31
0.0
  0
LINE
  5
162
330
5C
100
AcDbEntity
  8
1
  6
Continuous
 62
     7
100
AcDbLine
 10
290.202838002643
 20
358.3503473399228
 30
0.0
 11
290.924309970648
 21
358.3503473399228
 31
0.0
  0
LINE
  5
163
330
5C
100
AcDbEntity
  8
1
  6
Continuous
 62
     7
100
AcDbLine
 10
277.7441151240421
 20
346.3503473399228
 30
0.0
 11
290.9243099706481
 21
346.3503473399228
 31
0.0
  0
ARC
  5
164
330
5C
100
AcDbEntity
  8
1
  6
Continuous
 62
     7
100
AcDbCircle
 10
190.0540943970745
 20
355.8503473399228
 30
0.0
 40
2.5
100
AcDbArc
 50
90.0
 51
177.0077412540194
  0
ARC
  5
165
330
5C
100
AcDbEntity
  8
1
  6
Continuous
 62
     7
100
AcDbCircle
 10
160.7441151240429
 20
355.8503473399228
 30
0.0
 40
2.5
100
AcDbArc
 50
90.0
 51
177.0077412540195
  0
ARC
  5
166
330
5C
100
AcDbEntity
  8
1
  6
Continuous
 62
     7
100
AcDbCircle
 10
215.4341358510117
 20
355.8503473399228
 30
0.0
 40
2.500000000000815
100
AcDbArc
 50
2.99225874598065
 51
90.0
  0
ARC
  5
167
330
5C
100
AcDbEntity
  8
1
  6
Continuous
 62
     7
100
AcDbCircle
 10
244.7441151240429
 20
355.8503473399228
 30
0.0
 40
2.499999999999706
100
AcDbArc
 50
2.99225874598067
 51
90.0
  0
ARC
  5
168
330
5C
100
AcDbEntity
  8
1
  6
Continuous
 62
     7
100
AcDbCircle
 10
364.7441151240421
 20
355.8503473399228
 30
0.0
 40
2.499999999999734
100
AcDbArc
 50
2.99225874598064
 51
90.0
  0
ARC
  5
169
330
5C
100
AcDbEntity
  8
1
  6
Continuous
 62
     7
100
AcDbCircle
 10
335.4341358510109
 20
355.8503473399228
 30
0.0
 40
2.500000000000815
100
AcDbArc
 50
2.99225874598065
 51
90.0
  0
ARC
  5
16A
330
5C
100
AcDbEntity
  8
1
  6
Continuous
 62
     7
100
AcDbCircle
 10
280.7441151240421
 20
355.8503473399228
 30
0.0
 40
2.5
100
AcDbArc
 50
90.0
 51
177.0077412540194
  0
ARC
  5
16B
330
5C
100
AcDbEntity
  8
1
  6
Continuous
 62
     7
100
AcDbCircle
 10
310.0540943970736
 20
355.8503473399228
 30
0.0
 40
2.5
100
AcDbArc
 50
90.0
 51
177.0077412540192
  0
ARC
  5
16C
330
5C
100
AcDbEntity
  8
1
  6
Continuous
 62
     7
100
AcDbCircle
 10
186.490097788463
 20
349.6935381767489
 30
0.0
 40
3.499999999999606
100
AcDbArc
 50
252.7843163837265
 51
264.8558880547745
  0
ARC
  5
16D
330
5C
100
AcDbEntity
  8
1
  6
Continuous
 62
     7
100
AcDbCircle
 10
194.244115124044
 20
343.975273007477
 30
0.0
 40
1.5
100
AcDbArc
 50
0.0
 51
84.85588805477339
  0
ARC
  5
16E
330
5C
100
AcDbEntity
  8
1
  6
Continuous
 62
     7
100
AcDbCircle
 10
193.244115124044
 20
344.0652967143551
 30
0.0
 40
2.5
100
AcDbArc
 50
0.0
 51
66.06697054124996
  0
ARC
  5
16F
330
5C
100
AcDbEntity
  8
1
  6
Continuous
 62
     7
100
AcDbCircle
 10
218.998132459623
 20
349.6935381767489
 30
0.0
 40
3.499999999999177
100
AcDbArc
 50
275.1441119452255
 51
287.2156836162736
  0
ARC
  5
170
330
5C
100
AcDbEntity
  8
1
  6
Continuous
 62
     7
100
AcDbCircle
 10
211.244115124042
 20
343.975273007477
 30
0.0
 40
1.49999999999959
100
AcDbArc
 50
95.14411194522553
 51
180.0
  0
ARC
  5
171
330
5C
100
AcDbEntity
  8
1
  6
Continuous
 62
     7
100
AcDbCircle
 10
212.244115124042
 20
344.0652967143551
 30
0.0
 40
2.499999999999389
100
AcDbArc
 50
113.9330294587453
 51
180.0
  0
ARC
  5
172
330
5C
100
AcDbEntity
  8
1
  6
Continuous
 62
     7
100
AcDbCircle
 10
332.2441151240412
 20
344.0652967143551
 30
0.0
 40
2.499999999999412
100
AcDbArc
 50
113.9330294587465
 51
180.0
  0
ARC
  5
173
330
5C
100
AcDbEntity
  8
1
  6
Continuous
 62
     7
100
AcDbCircle
 10
331.2441151240412
 20
343.975273007477
 30
0.0
 40
1.499999999999588
100
AcDbArc
 50
95.14411194522445
 51
180.0
  0
ARC
  5
174
330
5C
100
AcDbEntity
  8
1
  6
Continuous
 62
     7
100
AcDbCircle
 10
338.9981324596222
 20
349.6935381767489
 30
0.0
 40
3.499999999999177
100
AcDbArc
 50
275.1441119452255
 51
287.215683616274
  0
ARC
  5
175
330
5C
100
AcDbEntity
  8
1
  6
Continuous
 62
     7
100
AcDbCircle
 10
313.2441151240432
 20
344.0652967143551
 30
0.0
 40
2.5
100
AcDbArc
 50
0.0
 51
66.06697054125235
  0
ARC
  5
176
330
5C
100
AcDbEntity
  8
1
  6
Continuous
 62
     7
100
AcDbCircle
 10
314.2441151240432
 20
343.975273007477
 30
0.0
 40
1.5
100
AcDbArc
 50
0.0
 51
84.85588805477555
  0
ARC
  5
177
330
5C
100
AcDbEntity
  8
1
  6
Continuous
 62
     7
100
AcDbCircle
 10
306.4900977884622
 20
349.6935381767489
 30
0.0
 40
3.499999999999614
100
AcDbArc
 50
252.784316383726
 51
264.8558880547745
  0
ENDBLK
  5
5E
330
5C
100
AcDbEntity
  8
0
100
AcDbBlockEnd
  0
BLOCK
  5
60
330
5F
100
AcDbEntity
  8
0
100
AcDbBlockBegin
  2
V18-H10-40_50
 70
     0
 10
260.7380532482171
 20
452.109217804225
 30
0.0
  3
V18-H10-40_50
  1

  0
LINE
  5
178
330
5F
100
AcDbEntity
  8
0
  6
Continuous
 62
     7
100
AcDbLine
 10
365.7441151240421
 20
506.3897986246248
 30
0.0
 11
365.7441151240421
 21
507.5242858201036
 31
0.0
  0
LINE
  5
179
330
5F
100
AcDbEntity
  8
0
  6
Continuous
 62
     7
100
AcDbLine
 10
354.5639202774367
 20
538.2096037780198
 30
0.0
 11
353.7617166883445
 21
539.0118073671119
 31
0.0
  0
LINE
  5
17A
330
5F
100
AcDbEntity
  8
0
  6
Continuous
 62
     7
100
AcDbLine
 10
353.1497067150638
 20
536.7953902156469
 30
0.0
 11
352.3475031259711
 21
537.5975938047386
 31
0.0
  0
LINE
  5
17B
330
5F
100
AcDbEntity
  8
0
  6
Continuous
 62
     7
100
AcDbLine
 10
322.7441151240421
 20
551.3897986246247
 30
0.0
 11
321.6096279285632
 21
551.3897986246247
 31
0.0
  0
LINE
  5
17C
330
5F
100
AcDbEntity
  8
0
  6
Continuous
 62
     7
100
AcDbLine
 10
322.7441151240421
 20
549.3897986246247
 30
0.0
 11
321.6096279285632
 21
549.3897986246247
 31
0.0
  0
LINE
  5
17D
330
5F
100
AcDbEntity
  8
0
  6
Continuous
 62
     7
100
AcDbLine
 10
290.9243099706475
 20
538.2096037780198
 30
0.0
 11
290.1221063815551
 21
537.4074001889267
 31
0.0
  0
LINE
  5
17E
330
5F
100
AcDbEntity
  8
0
  6
Continuous
 62
     7
100
AcDbLine
 10
292.3385235330206
 20
536.7953902156469
 30
0.0
 11
291.5363199439282
 21
535.9931866265538
 31
0.0
  0
LINE
  5
17F
330
5F
100
AcDbEntity
  8
0
  6
Continuous
 62
     7
100
AcDbLine
 10
277.7441151240421
 20
506.3897986246248
 30
0.0
 11
277.7441151240421
 21
505.2553114291459
 31
0.0
  0
LINE
  5
180
330
5F
100
AcDbEntity
  8
0
  6
Continuous
 62
     7
100
AcDbLine
 10
279.7441151240421
 20
506.3897986246248
 30
0.0
 11
279.7441151240421
 21
505.2553114291459
 31
0.0
  0
LINE
  5
181
330
5F
100
AcDbEntity
  8
0
  6
Continuous
 62
     7
100
AcDbLine
 10
290.9243099706475
 20
474.5699934712311
 30
0.0
 11
291.7265135597402
 21
473.7677898821376
 31
0.0
  0
LINE
  5
182
330
5F
100
AcDbEntity
  8
0
  6
Continuous
 62
     7
100
AcDbLine
 10
292.3385235330204
 20
475.9842070336035
 30
0.0
 11
293.1407271221131
 21
475.1820034445109
 31
0.0
  0
LINE
  5
183
330
5F
100
AcDbEntity
  8
0
  6
Continuous
 62
     7
100
AcDbLine
 10
322.7441151240421
 20
461.3897986246248
 30
0.0
 11
323.878602319521
 21
461.3897986246257
 31
0.0
  0
LINE
  5
184
330
5F
100
AcDbEntity
  8
0
  6
Continuous
 62
     7
100
AcDbLine
 10
322.7441151240419
 20
463.3897986246248
 30
0.0
 11
323.878602319521
 21
463.3897986246248
 31
0.0
  0
LINE
  5
185
330
5F
100
AcDbEntity
  8
0
  6
Continuous
 62
     7
100
AcDbLine
 10
354.5639202774369
 20
474.5699934712311
 30
0.0
 11
355.3661238665288
 21
475.3721970603228
 31
0.0
  0
LINE
  5
186
330
5F
100
AcDbEntity
  8
0
  6
Continuous
 62
     7
100
AcDbLine
 10
353.1497067150633
 20
475.9842070336026
 30
0.0
 11
353.951910304156
 21
476.7864106226962
 31
0.0
  0
LINE
  5
187
330
5F
100
AcDbEntity
  8
0
  6
Continuous
 62
     7
100
AcDbLine
 10
367.7441151240421
 20
505.2553114291459
 30
0.0
 11
367.7441151240421
 21
507.5242858201036
 31
0.0
  0
LINE
  5
188
330
5F
100
AcDbEntity
  8
0
  6
Continuous
 62
     7
100
AcDbLine
 10
365.7441151240421
 20
505.2553114291459
 30
0.0
 11
365.7441151240421
 21
506.3897986246248
 31
0.0
  0
LINE
  5
189
330
5F
100
AcDbEntity
  8
0
  6
Continuous
 62
     7
100
AcDbLine
 10
355.3661238665293
 20
537.4074001889276
 30
0.0
 11
354.5639202774367
 21
538.2096037780198
 31
0.0
  0
LINE
  5
18A
330
5F
100
AcDbEntity
  8
0
  6
Continuous
 62
     7
100
AcDbLine
 10
353.951910304156
 20
535.9931866265538
 30
0.0
 11
353.1497067150638
 21
536.7953902156469
 31
0.0
  0
LINE
  5
18B
330
5F
100
AcDbEntity
  8
0
  6
Continuous
 62
     7
100
AcDbLine
 10
291.72651355974
 20
539.0118073671119
 30
0.0
 11
290.9243099706475
 21
538.2096037780198
 31
0.0
  0
LINE
  5
18C
330
5F
100
AcDbEntity
  8
0
  6
Continuous
 62
     7
100
AcDbLine
 10
293.1407271221128
 20
537.5975938047386
 30
0.0
 11
292.3385235330206
 21
536.7953902156469
 31
0.0
  0
LINE
  5
18D
330
5F
100
AcDbEntity
  8
0
  6
Continuous
 62
     7
100
AcDbLine
 10
277.7441151240421
 20
507.5242858201036
 30
0.0
 11
277.7441151240421
 21
506.3897986246248
 31
0.0
  0
LINE
  5
18E
330
5F
100
AcDbEntity
  8
0
  6
Continuous
 62
     7
100
AcDbLine
 10
279.7441151240421
 20
507.5242858201036
 30
0.0
 11
279.7441151240421
 21
506.3897986246248
 31
0.0
  0
LINE
  5
18F
330
5F
100
AcDbEntity
  8
0
  6
Continuous
 62
     7
100
AcDbLine
 10
323.878602319521
 20
551.3897986246247
 30
0.0
 11
322.7441151240421
 21
551.3897986246247
 31
0.0
  0
LINE
  5
190
330
5F
100
AcDbEntity
  8
0
  6
Continuous
 62
     7
100
AcDbLine
 10
323.878602319521
 20
549.3897986246247
 30
0.0
 11
322.7441151240421
 21
549.3897986246247
 31
0.0
  0
LINE
  5
191
330
5F
100
AcDbEntity
  8
0
  6
Continuous
 62
     7
100
AcDbLine
 10
321.6096279285632
 20
461.3897986246257
 30
0.0
 11
322.7441151240421
 21
461.3897986246248
 31
0.0
  0
LINE
  5
192
330
5F
100
AcDbEntity
  8
0
  6
Continuous
 62
     7
100
AcDbLine
 10
321.6096279285632
 20
463.3897986246248
 30
0.0
 11
322.7441151240419
 21
463.3897986246248
 31
0.0
  0
LINE
  5
193
330
5F
100
AcDbEntity
  8
0
  6
Continuous
 62
     7
100
AcDbLine
 10
290.1221063815554
 20
475.3721970603228
 30
0.0
 11
290.9243099706475
 21
474.5699934712311
 31
0.0
  0
LINE
  5
194
330
5F
100
AcDbEntity
  8
0
  6
Continuous
 62
     7
100
AcDbLine
 10
291.5363199439282
 20
476.7864106226962
 30
0.0
 11
292.3385235330204
 21
475.9842070336035
 31
0.0
  0
LINE
  5
195
330
5F
100
AcDbEntity
  8
0
  6
Continuous
 62
     7
100
AcDbLine
 10
353.761716688344
 20
473.7677898821389
 30
0.0
 11
354.5639202774369
 21
474.5699934712311
 31
0.0
  0
LINE
  5
196
330
5F
100
AcDbEntity
  8
0
  6
Continuous
 62
     7
100
AcDbLine
 10
352.3475031259711
 20
475.1820034445109
 30
0.0
 11
353.1497067150633
 21
475.9842070336026
 31
0.0
  0
LINE
  5
197
330
5F
100
AcDbEntity
  8
0
  6
Continuous
 62
     7
100
AcDbLine
 10
330.7908535937577
 20
513.8897986246247
 30
0.0
 11
351.5147598856736
 21
513.8897986246247
 31
0.0
  0
LINE
  5
198
330
5F
100
AcDbEntity
  8
0
  6
Continuous
 62
     7
100
AcDbLine
 10
351.5147598856736
 20
498.8897986246248
 30
0.0
 11
330.7908535937577
 21
498.8897986246248
 31
0.0
  0
LINE
  5
199
330
5F
100
AcDbEntity
  8
0
  6
Continuous
 62
     7
100
AcDbLine
 10
315.2441151240421
 20
514.4365370943406
 30
0.0
 11
315.2441151240421
 21
535.1604433862567
 31
0.0
  0
LINE
  5
19A
330
5F
100
AcDbEntity
  8
0
  6
Continuous
 62
     7
100
AcDbLine
 10
330.2441151240421
 20
535.1604433862567
 30
0.0
 11
330.2441151240421
 21
514.4365370943406
 31
0.0
  0
LINE
  5
19B
330
5F
100
AcDbEntity
  8
0
  6
Continuous
 62
     7
100
AcDbLine
 10
314.6973766543267
 20
498.8897986246248
 30
0.0
 11
293.9734703624106
 21
498.8897986246248
 31
0.0
  0
LINE
  5
19C
330
5F
100
AcDbEntity
  8
0
  6
Continuous
 62
     7
100
AcDbLine
 10
293.9734703624106
 20
513.8897986246247
 30
0.0
 11
314.6973766543267
 21
513.8897986246247
 31
0.0
  0
LINE
  5
19D
330
5F
100
AcDbEntity
  8
0
  6
Continuous
 62
     7
100
AcDbLine
 10
330.2441151240421
 20
498.3430601549098
 30
0.0
 11
330.2441151240421
 21
477.6191538629937
 31
0.0
  0
LINE
  5
19E
330
5F
100
AcDbEntity
  8
0
  6
Continuous
 62
     7
100
AcDbLine
 10
315.2441151240421
 20
477.6191538629937
 30
0.0
 11
315.2441151240421
 21
498.3430601549098
 31
0.0
  0
LINE
  5
19F
330
5F
100
AcDbEntity
  8
1
  6
Continuous
 62
     7
100
AcDbLine
 10
358.9941151240426
 20
506.3897986246248
 30
0.0
 11
362.9941151240416
 21
506.3897986246248
 31
0.0
  0
LINE
  5
1A0
330
5F
100
AcDbEntity
  8
1
  6
DASH_CENTER
 62
     2
100
AcDbLine
 10
358.9941151240426
 20
506.3897986246248
 30
0.0
 11
362.9941151240416
 21
506.3897986246248
 31
0.0
  0
LINE
  5
1A1
330
5F
100
AcDbEntity
  8
0
  6
Continuous
 62
     7
100
AcDbLine
 10
329.7441151240421
 20
506.3897986246248
 30
0.0
 11
322.7441151240421
 21
499.3897986246248
 31
0.0
  0
LINE
  5
1A2
330
5F
100
AcDbEntity
  8
0
  6
Continuous
 62
     7
100
AcDbLine
 10
322.7441151240421
 20
499.3897986246248
 30
0.0
 11
315.7441151240421
 21
506.3897986246248
 31
0.0
  0
LINE
  5
1A3
330
5F
100
AcDbEntity
  8
0
  6
Continuous
 62
     7
100
AcDbLine
 10
322.7441151240421
 20
513.3897986246247
 30
0.0
 11
329.7441151240421
 21
506.3897986246248
 31
0.0
  0
LINE
  5
1A4
330
5F
100
AcDbEntity
  8
0
  6
Continuous
 62
     7
100
AcDbLine
 10
315.7441151240421
 20
506.3897986246248
 30
0.0
 11
322.7441151240421
 21
513.3897986246247
 31
0.0
  0
LINE
  5
1A5
330
5F
100
AcDbEntity
  8
0
  6
PHANTOM
 62
     4
100
AcDbLine
 10
322.7441151240421
 20
452.109217804225
 30
0.0
 11
322.7441151240421
 21
560.670379445025
 31
0.0
  0
LINE
  5
1A6
330
5F
100
AcDbEntity
  8
0
  6
PHANTOM
 62
     4
100
AcDbLine
 10
377.0246959444419
 20
506.3897986246248
 30
0.0
 11
268.4635343036419
 21
506.3897986246248
 31
0.0
  0
ARC
  5
1A7
330
5F
100
AcDbEntity
  8
0
  6
Continuous
 62
     7
100
AcDbCircle
 10
442.7154119699003
 20
556.083536873668
 30
0.0
 40
88.85599596492003
100
AcDbArc
 50
193.2215707886447
 51
211.9139765479169
  0
ARC
  5
1A8
330
5F
100
AcDbEntity
  8
0
  6
Continuous
 62
     7
100
AcDbCircle
 10
364.7441151240421
 20
507.5242858201036
 30
0.0
 40
3.0
100
AcDbArc
 50
0.0
 51
31.91397654791253
  0
ARC
  5
1A9
330
5F
100
AcDbEntity
  8
0
  6
Continuous
 62
     7
100
AcDbCircle
 10
442.7154119699003
 20
556.083536873668
 30
0.0
 40
90.85599596492065
100
AcDbArc
 50
193.2215707886446
 51
211.9139765479163
  0
ARC
  5
1AA
330
5F
100
AcDbEntity
  8
0
  6
Continuous
 62
     7
100
AcDbCircle
 10
364.7441151240421
 20
507.5242858201036
 30
0.0
 40
1.0
100
AcDbArc
 50
0.0
 51
31.91397654795704
  0
ARC
  5
1AB
330
5F
100
AcDbEntity
  8
0
  6
Continuous
 62
     7
100
AcDbCircle
 10
372.4378533730853
 20
626.3610954704827
 30
0.0
 40
88.85599596491934
100
AcDbArc
 50
238.2215707886443
 51
256.9139765479164
  0
ARC
  5
1AC
330
5F
100
AcDbEntity
  8
0
  6
Continuous
 62
     7
100
AcDbCircle
 10
351.6403963447847
 20
536.8904870235519
 30
0.0
 40
3.000000000000386
100
AcDbArc
 50
45.0000000000023
 51
76.91397654791935
  0
ARC
  5
1AD
330
5F
100
AcDbEntity
  8
0
  6
Continuous
 62
     7
100
AcDbCircle
 10
372.4378533730853
 20
626.3610954704827
 30
0.0
 40
90.85599596492064
100
AcDbArc
 50
238.2215707886445
 51
256.9139765479164
  0
ARC
  5
1AE
330
5F
100
AcDbEntity
  8
0
  6
Continuous
 62
     7
100
AcDbCircle
 10
351.6403963447847
 20
536.8904870235519
 30
0.0
 40
1.000000000000008
100
AcDbArc
 50
45.00000000000922
 51
76.91397654792601
  0
ARC
  5
1AF
330
5F
100
AcDbEntity
  8
0
  6
Continuous
 62
     7
100
AcDbCircle
 10
273.0503768749989
 20
626.3610954704827
 30
0.0
 40
88.85599596491946
100
AcDbArc
 50
283.221570788645
 51
301.9139765479167
  0
ARC
  5
1B0
330
5F
100
AcDbEntity
  8
0
  6
Continuous
 62
     7
100
AcDbCircle
 10
321.6096279285632
 20
548.3897986246247
 30
0.0
 40
3.0
100
AcDbArc
 50
90.0
 51
121.913976547919
  0
ARC
  5
1B1
330
5F
100
AcDbEntity
  8
0
  6
Continuous
 62
     7
100
AcDbCircle
 10
273.0503768749989
 20
626.3610954704827
 30
0.0
 40
90.8559959649197
100
AcDbArc
 50
283.2215707886452
 51
301.9139765479168
  0
ARC
  5
1B2
330
5F
100
AcDbEntity
  8
0
  6
Continuous
 62
     7
100
AcDbCircle
 10
321.6096279285632
 20
548.3897986246247
 30
0.0
 40
1.0
100
AcDbArc
 50
90.0
 51
121.9139765479173
  0
ARC
  5
1B3
330
5F
100
AcDbEntity
  8
0
  6
Continuous
 62
     7
100
AcDbCircle
 10
202.7728182781839
 20
556.083536873668
 30
0.0
 40
88.85599596492081
100
AcDbArc
 50
328.2215707886447
 51
346.9139765479166
  0
ARC
  5
1B4
330
5F
100
AcDbEntity
  8
0
  6
Continuous
 62
     7
100
AcDbCircle
 10
292.2434267251149
 20
535.2860798453676
 30
0.0
 40
2.999999999999703
100
AcDbArc
 50
135.0000000000092
 51
166.9139765479187
  0
ARC
  5
1B5
330
5F
100
AcDbEntity
  8
0
  6
Continuous
 62
     7
100
AcDbCircle
 10
202.7728182781839
 20
556.083536873668
 30
0.0
 40
90.85599596492061
100
AcDbArc
 50
328.2215707886445
 51
346.9139765479171
  0
ARC
  5
1B6
330
5F
100
AcDbEntity
  8
0
  6
Continuous
 62
     7
100
AcDbCircle
 10
292.2434267251149
 20
535.2860798453676
 30
0.0
 40
0.9999999999998473
100
AcDbArc
 50
135.0000000000184
 51
166.9139765478813
  0
ARC
  5
1B7
330
5F
100
AcDbEntity
  8
0
  6
Continuous
 62
     7
100
AcDbCircle
 10
202.7728182781839
 20
456.6960603755829
 30
0.0
 40
88.85599596492003
100
AcDbArc
 50
13.22157078864409
 51
31.91397654791624
  0
ARC
  5
1B8
330
5F
100
AcDbEntity
  8
0
  6
Continuous
 62
     7
100
AcDbCircle
 10
280.7441151240421
 20
505.2553114291459
 30
0.0
 40
3.0
100
AcDbArc
 50
180.0
 51
211.9139765479102
  0
ARC
  5
1B9
330
5F
100
AcDbEntity
  8
0
  6
Continuous
 62
     7
100
AcDbCircle
 10
202.7728182781839
 20
456.6960603755829
 30
0.0
 40
90.85599596492064
100
AcDbArc
 50
13.22157078864464
 51
31.91397654791628
  0
ARC
  5
1BA
330
5F
100
AcDbEntity
  8
0
  6
Continuous
 62
     7
100
AcDbCircle
 10
280.7441151240421
 20
505.2553114291459
 30
0.0
 40
1.0
100
AcDbArc
 50
180.0
 51
211.9139765478952
  0
ARC
  5
1BB
330
5F
100
AcDbEntity
  8
0
  6
Continuous
 62
     7
100
AcDbCircle
 10
273.0503768749989
 20
386.4185017787668
 30
0.0
 40
88.85599596492098
100
AcDbArc
 50
58.22157078864481
 51
76.91397654791633
  0
ARC
  5
1BC
330
5F
100
AcDbEntity
  8
0
  6
Continuous
 62
     7
100
AcDbCircle
 10
293.8478339032997
 20
475.8891102256976
 30
0.0
 40
3.000000000000145
100
AcDbArc
 50
225.0000000000069
 51
256.9139765479176
  0
ARC
  5
1BD
330
5F
100
AcDbEntity
  8
0
  6
Continuous
 62
     7
100
AcDbCircle
 10
273.0503768749989
 20
386.4185017787668
 30
0.0
 40
90.8559959649206
100
AcDbArc
 50
58.22157078864449
 51
76.91397654791632
  0
ARC
  5
1BE
330
5F
100
AcDbEntity
  8
0
  6
Continuous
 62
     7
100
AcDbCircle
 10
293.8478339032997
 20
475.8891102256976
 30
0.0
 40
1.000000000000169
100
AcDbArc
 50
225.0000000000046
 51
256.9139765479208
  0
ARC
  5
1BF
330
5F
100
AcDbEntity
  8
0
  6
Continuous
 62
     7
100
AcDbCircle
 10
372.4378533730849
 20
386.4185017787668
 30
0.0
 40
88.85599596492015
100
AcDbArc
 50
103.2215707886445
 51
121.9139765479165
  0
ARC
  5
1C0
330
5F
100
AcDbEntity
  8
0
  6
Continuous
 62
     7
100
AcDbCircle
 10
323.878602319521
 20
464.3897986246248
 30
0.0
 40
2.999999999999091
100
AcDbArc
 50
270.0
 51
301.9139765479184
  0
ARC
  5
1C1
330
5F
100
AcDbEntity
  8
0
  6
Continuous
 62
     7
100
AcDbCircle
 10
372.4378533730849
 20
386.4185017787668
 30
0.0
 40
90.85599596492082
100
AcDbArc
 50
103.2215707886446
 51
121.9139765479161
  0
ARC
  5
1C2
330
5F
100
AcDbEntity
  8
0
  6
Continuous
 62
     7
100
AcDbCircle
 10
323.878602319521
 20
464.3897986246248
 30
0.0
 40
1.0
100
AcDbArc
 50
270.0
 51
301.9139765479586
  0
ARC
  5
1C3
330
5F
100
AcDbEntity
  8
0
  6
Continuous
 62
     7
100
AcDbCircle
 10
442.7154119698999
 20
456.6960603755829
 30
0.0
 40
88.85599596491915
100
AcDbArc
 50
148.2215707886451
 51
166.9139765479165
  0
ARC
  5
1C4
330
5F
100
AcDbEntity
  8
0
  6
Continuous
 62
     7
100
AcDbCircle
 10
353.2448035229693
 20
477.4935174038828
 30
0.0
 40
3.000000000000185
100
AcDbArc
 50
314.9999999999939
 51
346.9139765479292
  0
ARC
  5
1C5
330
5F
100
AcDbEntity
  8
0
  6
Continuous
 62
     7
100
AcDbCircle
 10
442.7154119698999
 20
456.6960603755829
 30
0.0
 40
90.85599596491973
100
AcDbArc
 50
148.2215707886452
 51
166.913976547917
  0
ARC
  5
1C6
330
5F
100
AcDbEntity
  8
0
  6
Continuous
 62
     7
100
AcDbCircle
 10
353.2448035229693
 20
477.4935174038828
 30
0.0
 40
1.000000000000129
100
AcDbArc
 50
315.0000000000069
 51
346.9139765479106
  0
ARC
  5
1C7
330
5F
100
AcDbEntity
  8
0
  6
Continuous
 62
     7
100
AcDbCircle
 10
364.7441151240421
 20
505.2553114291459
 30
0.0
 40
3.000000000002352
100
AcDbArc
 50
328.0860234520875
 51
0.0
  0
ARC
  5
1C8
330
5F
100
AcDbEntity
  8
0
  6
Continuous
 62
     7
100
AcDbCircle
 10
364.7441151240421
 20
505.2553114291459
 30
0.0
 40
1.000000000002429
100
AcDbArc
 50
328.0860234521066
 51
0.0
  0
ARC
  5
1C9
330
5F
100
AcDbEntity
  8
0
  6
Continuous
 62
     7
100
AcDbCircle
 10
353.2448035229693
 20
535.2860798453676
 30
0.0
 40
3.000000000002834
100
AcDbArc
 50
13.08602345208037
 51
45.0
  0
ARC
  5
1CA
330
5F
100
AcDbEntity
  8
0
  6
Continuous
 62
     7
100
AcDbCircle
 10
353.2448035229693
 20
535.2860798453676
 30
0.0
 40
1.000000000002809
100
AcDbArc
 50
13.08602345211795
 51
44.99999999997927
  0
ARC
  5
1CB
330
5F
100
AcDbEntity
  8
0
  6
Continuous
 62
     7
100
AcDbCircle
 10
293.8478339032995
 20
536.8904870235519
 30
0.0
 40
3.000000000002834
100
AcDbArc
 50
103.0860234520804
 51
134.9999999999931
  0
ARC
  5
1CC
330
5F
100
AcDbEntity
  8
0
  6
Continuous
 62
     7
100
AcDbCircle
 10
293.8478339032995
 20
536.8904870235519
 30
0.0
 40
1.000000000003098
100
AcDbArc
 50
103.086023452074
 51
135.0
  0
ARC
  5
1CD
330
5F
100
AcDbEntity
  8
0
  6
Continuous
 62
     7
100
AcDbCircle
 10
280.7441151240421
 20
507.5242858201036
 30
0.0
 40
3.000000000003026
100
AcDbArc
 50
148.086023452075
 51
180.0
  0
ARC
  5
1CE
330
5F
100
AcDbEntity
  8
0
  6
Continuous
 62
     7
100
AcDbCircle
 10
280.7441151240421
 20
507.5242858201036
 30
0.0
 40
1.000000000003072
100
AcDbArc
 50
148.0860234520412
 51
180.0
  0
ARC
  5
1CF
330
5F
100
AcDbEntity
  8
0
  6
Continuous
 62
     7
100
AcDbCircle
 10
323.878602319521
 20
548.3897986246247
 30
0.0
 40
3.000000000002562
100
AcDbArc
 50
58.08602345208102
 51
90.0
  0
ARC
  5
1D0
330
5F
100
AcDbEntity
  8
0
  6
Continuous
 62
     7
100
AcDbCircle
 10
323.878602319521
 20
548.3897986246247
 30
0.0
 40
1.000000000002621
100
AcDbArc
 50
58.08602345208271
 51
90.0
  0
ARC
  5
1D1
330
5F
100
AcDbEntity
  8
0
  6
Continuous
 62
     7
100
AcDbCircle
 10
321.6096279285632
 20
464.3897986246248
 30
0.0
 40
3.00000000000261
100
AcDbArc
 50
238.0860234520815
 51
270.0
  0
ARC
  5
1D2
330
5F
100
AcDbEntity
  8
0
  6
Continuous
 62
     7
100
AcDbCircle
 10
321.6096279285632
 20
464.3897986246248
 30
0.0
 40
1.000000000001463
100
AcDbArc
 50
238.0860234520414
 51
270.0
  0
ARC
  5
1D3
330
5F
100
AcDbEntity
  8
0
  6
Continuous
 62
     7
100
AcDbCircle
 10
292.2434267251149
 20
477.4935174038828
 30
0.0
 40
3.000000000002869
100
AcDbArc
 50
193.086023452088
 51
225.0000000000069
  0
ARC
  5
1D4
330
5F
100
AcDbEntity
  8
0
  6
Continuous
 62
     7
100
AcDbCircle
 10
292.2434267251149
 20
477.4935174038828
 30
0.0
 40
1.000000000002638
100
AcDbArc
 50
193.0860234520901
 51
224.9999999999954
  0
ARC
  5
1D5
330
5F
100
AcDbEntity
  8
0
  6
Continuous
 62
     7
100
AcDbCircle
 10
351.6403963447845
 20
475.8891102256976
 30
0.0
 40
3.000000000002391
100
AcDbArc
 50
283.0860234520824
 51
315.0000000000107
  0
ARC
  5
1D6
330
5F
100
AcDbEntity
  8
0
  6
Continuous
 62
     7
100
AcDbCircle
 10
351.6403963447845
 20
475.8891102256976
 30
0.0
 40
1.000000000002633
100
AcDbArc
 50
283.0860234520601
 51
314.9999999999953
  0
ARC
  5
1D7
330
5F
100
AcDbEntity
  8
0
  6
Continuous
 62
     7
100
AcDbCircle
 10
351.5147598856736
 20
514.8897986246247
 30
0.0
 40
1.0
100
AcDbArc
 50
0.0
 51
16.45924962830686
  0
ARC
  5
1D8
330
5F
100
AcDbEntity
  8
0
  6
Continuous
 62
     7
100
AcDbCircle
 10
351.5147598856736
 20
514.8897986246247
 30
0.0
 40
1.0
100
AcDbArc
 50
270.0
 51
0.0
  0
ARC
  5
1D9
330
5F
100
AcDbEntity
  8
0
  6
Continuous
 62
     7
100
AcDbCircle
 10
351.5147598856736
 20
497.8897986246248
 30
0.0
 40
0.9999999999999771
100
AcDbArc
 50
343.5407503717649
 51
0.0
  0
ARC
  5
1DA
330
5F
100
AcDbEntity
  8
0
  6
Continuous
 62
     7
100
AcDbCircle
 10
351.5147598856736
 20
497.8897986246248
 30
0.0
 40
1.0
100
AcDbArc
 50
0.0
 51
90.0
  0
ARC
  5
1DB
330
5F
100
AcDbEntity
  8
0
  6
Continuous
 62
     7
100
AcDbCircle
 10
314.2441151240421
 20
535.1604433862567
 30
0.0
 40
1.0
100
AcDbArc
 50
90.0
 51
106.4592496282569
  0
ARC
  5
1DC
330
5F
100
AcDbEntity
  8
0
  6
Continuous
 62
     7
100
AcDbCircle
 10
314.2441151240421
 20
535.1604433862567
 30
0.0
 40
1.0
100
AcDbArc
 50
0.0
 51
90.0
  0
ARC
  5
1DD
330
5F
100
AcDbEntity
  8
0
  6
Continuous
 62
     7
100
AcDbCircle
 10
331.2441151240421
 20
535.1604433862567
 30
0.0
 40
1.00000000000009
100
AcDbArc
 50
73.54075037174312
 51
90.0
  0
ARC
  5
1DE
330
5F
100
AcDbEntity
  8
0
  6
Continuous
 62
     7
100
AcDbCircle
 10
331.2441151240421
 20
535.1604433862567
 30
0.0
 40
1.0
100
AcDbArc
 50
90.0
 51
180.0
  0
ARC
  5
1DF
330
5F
100
AcDbEntity
  8
0
  6
Continuous
 62
     7
100
AcDbCircle
 10
293.9734703624106
 20
497.8897986246248
 30
0.0
 40
1.0
100
AcDbArc
 50
180.0
 51
196.459249628235
  0
ARC
  5
1E0
330
5F
100
AcDbEntity
  8
0
  6
Continuous
 62
     7
100
AcDbCircle
 10
293.9734703624106
 20
497.8897986246248
 30
0.0
 40
1.0
100
AcDbArc
 50
90.0
 51
180.0
  0
ARC
  5
1E1
330
5F
100
AcDbEntity
  8
0
  6
Continuous
 62
     7
100
AcDbCircle
 10
293.9734703624106
 20
514.8897986246247
 30
0.0
 40
1.000000000000347
100
AcDbArc
 50
163.5407503716932
 51
180.0
  0
ARC
  5
1E2
330
5F
100
AcDbEntity
  8
0
  6
Continuous
 62
     7
100
AcDbCircle
 10
293.9734703624106
 20
514.8897986246247
 30
0.0
 40
1.0
100
AcDbArc
 50
180.0
 51
270.0
  0
ARC
  5
1E3
330
5F
100
AcDbEntity
  8
0
  6
Continuous
 62
     7
100
AcDbCircle
 10
331.2441151240421
 20
477.6191538629937
 30
0.0
 40
1.0
100
AcDbArc
 50
270.0
 51
286.4592496282504
  0
ARC
  5
1E4
330
5F
100
AcDbEntity
  8
0
  6
Continuous
 62
     7
100
AcDbCircle
 10
331.2441151240421
 20
477.6191538629937
 30
0.0
 40
1.0
100
AcDbArc
 50
180.0
 51
270.0
  0
ARC
  5
1E5
330
5F
100
AcDbEntity
  8
0
  6
Continuous
 62
     7
100
AcDbCircle
 10
314.2441151240421
 20
477.6191538629937
 30
0.0
 40
1.000000000000471
100
AcDbArc
 50
253.5407503717496
 51
270.0
  0
ARC
  5
1E6
330
5F
100
AcDbEntity
  8
0
  6
Continuous
 62
     7
100
AcDbCircle
 10
314.2441151240421
 20
477.6191538629937
 30
0.0
 40
1.0
100
AcDbArc
 50
270.0
 51
0.0
  0
CIRCLE
  5
1E7
330
5F
100
AcDbEntity
  8
0
  6
Continuous
 62
     7
100
AcDbCircle
 10
322.7441151240421
 20
506.3897986246248
 30
0.0
 40
33.5
  0
CIRCLE
  5
1E8
330
5F
100
AcDbEntity
  8
0
  6
Continuous
 62
     7
100
AcDbCircle
 10
322.7441151240421
 20
506.3897986246248
 30
0.0
 40
11.0
  0
CIRCLE
  5
1E9
330
5F
100
AcDbEntity
  8
0
  6
Continuous
 62
     7
100
AcDbCircle
 10
322.7441151240421
 20
506.3897986246248
 30
0.0
 40
31.0
  0
ENDBLK
  5
61
330
5F
100
AcDbEntity
  8
0
100
AcDbBlockEnd
  0
BLOCK
  5
63
330
62
100
AcDbEntity
  8
0
100
AcDbBlockBegin
  2
開示A4
 70
     0
 10
0.0
 20
0.0
 30
0.0
  3
開示A4
  1

  0
POINT
  5
1EA
330
62
100
AcDbEntity
  8
1
 62
     4
100
AcDbPoint
 10
93.75
 20
17.0
 30
0.0
  0
POINT
  5
1EB
330
62
100
AcDbEntity
  8
1
 62
     4
100
AcDbPoint
 10
85.25
 20
17.0
 30
0.0
  0
POINT
  5
1EC
330
62
100
AcDbEntity
  8
1
 62
     4
100
AcDbPoint
 10
106.5
 20
19.00000000000001
 30
0.0
  0
POINT
  5
1ED
330
62
100
AcDbEntity
  8
1
 62
     4
100
AcDbPoint
 10
106.5
 20
12.5
 30
0.0
  0
POINT
  5
1EE
330
62
100
AcDbEntity
  8
1
 62
     4
100
AcDbPoint
 10
112.25
 20
12.5
 30
0.0
  0
POINT
  5
1EF
330
62
100
AcDbEntity
  8
1
 62
     4
100
AcDbPoint
 10
100.75
 20
12.5
 30
0.0
  0
POINT
  5
1F0
330
62
100
AcDbEntity
  8
1
 62
     4
100
AcDbPoint
 10
123.5
 20
19.00000000000001
 30
0.0
  0
POINT
  5
1F1
330
62
100
AcDbEntity
  8
1
 62
     4
100
AcDbPoint
 10
123.5
 20
12.5
 30
0.0
  0
POINT
  5
1F2
330
62
100
AcDbEntity
  8
1
 62
     4
100
AcDbPoint
 10
129.25
 20
12.5
 30
0.0
  0
POINT
  5
1F3
330
62
100
AcDbEntity
  8
1
 62
     4
100
AcDbPoint
 10
117.75
 20
12.5
 30
0.0
  0
POINT
  5
1F4
330
62
100
AcDbEntity
  8
1
 62
     4
100
AcDbPoint
 10
140.5
 20
19.00000000000001
 30
0.0
  0
POINT
  5
1F5
330
62
100
AcDbEntity
  8
1
 62
     4
100
AcDbPoint
 10
140.5
 20
12.5
 30
0.0
  0
POINT
  5
1F6
330
62
100
AcDbEntity
  8
1
 62
     4
100
AcDbPoint
 10
146.25
 20
12.5
 30
0.0
  0
POINT
  5
1F7
330
62
100
AcDbEntity
  8
1
 62
     4
100
AcDbPoint
 10
134.75
 20
12.5
 30
0.0
  0
POINT
  5
1F8
330
62
100
AcDbEntity
  8
1
 62
     4
100
AcDbPoint
 10
151.75
 20
12.5
 30
0.0
  0
POINT
  5
1F9
330
62
100
AcDbEntity
  8
1
 62
     4
100
AcDbPoint
 10
163.25
 20
12.5
 30
0.0
  0
POINT
  5
1FA
330
62
100
AcDbEntity
  8
1
 62
     4
100
AcDbPoint
 10
157.5
 20
12.5
 30
0.0
  0
POINT
  5
1FB
330
62
100
AcDbEntity
  8
1
 62
     4
100
AcDbPoint
 10
57.0
 20
14.25
 30
0.0
  0
POINT
  5
1FC
330
62
100
AcDbEntity
  8
1
 62
     4
100
AcDbPoint
 10
57.0
 20
22.75000000000001
 30
0.0
  0
POINT
  5
1FD
330
62
100
AcDbEntity
  8
1
 62
     4
100
AcDbPoint
 10
47.5
 20
282.0000000000003
 30
0.0
  0
POINT
  5
1FE
330
62
100
AcDbEntity
  8
1
 62
     4
100
AcDbPoint
 10
157.5
 20
19.00000000000001
 30
0.0
  0
POINT
  5
1FF
330
62
100
AcDbEntity
  8
1
 62
     4
100
AcDbPoint
 10
57.0
 20
16.25
 30
0.0
  0
POINT
  5
200
330
62
100
AcDbEntity
  8
1
 62
     4
100
AcDbPoint
 10
57.0
 20
24.75000000000001
 30
0.0
  0
POINT
  5
201
330
62
100
AcDbEntity
  8
1
 62
     4
100
AcDbPoint
 10
57.0
 20
20.75000000000001
 30
0.0
  0
POINT
  5
202
330
62
100
AcDbEntity
  8
1
 62
     4
100
AcDbPoint
 10
57.0
 20
12.25
 30
0.0
  0
POINT
  5
203
330
62
100
AcDbEntity
  8
1
 62
     4
100
AcDbPoint
 10
34.0
 20
34.00000000000001
 30
0.0
  0
LINE
  5
204
330
62
100
AcDbEntity
  8
1
  6
Continuous
 62
     7
100
AcDbLine
 10
105.0
 20
10.0
 30
0.0
 11
200.0
 21
10.0
 31
0.0
  0
LINE
  5
205
330
62
100
AcDbEntity
  8
1
  6
Continuous
 62
     2
100
AcDbLine
 10
105.0
 20
10.0
 30
0.0
 11
105.0
 21
5.0
 31
0.0
  0
LINE
  5
206
330
62
100
AcDbEntity
  8
1
  6
Continuous
 62
     7
100
AcDbLine
 10
200.0
 20
148.5
 30
0.0
 11
200.0
 21
287.0000000000003
 31
0.0
  0
LINE
  5
207
330
62
100
AcDbEntity
  8
1
  6
Continuous
 62
     2
100
AcDbLine
 10
200.0
 20
148.5
 30
0.0
 11
205.0
 21
148.5
 31
0.0
  0
LINE
  5
208
330
62
100
AcDbEntity
  8
1
  6
Continuous
 62
     7
100
AcDbLine
 10
25.0
 20
148.5
 30
0.0
 11
25.0
 21
287.0000000000003
 31
0.0
  0
LINE
  5
209
330
62
100
AcDbEntity
  8
1
  6
Continuous
 62
     2
100
AcDbLine
 10
25.0
 20
148.5
 30
0.0
 11
20.0
 21
148.5
 31
0.0
  0
LINE
  5
20A
330
62
100
AcDbEntity
  8
1
  6
Continuous
 62
     7
100
AcDbLine
 10
105.0
 20
287.0000000000003
 30
0.0
 11
25.0
 21
287.0000000000003
 31
0.0
  0
LINE
  5
20B
330
62
100
AcDbEntity
  8
1
  6
Continuous
 62
     2
100
AcDbLine
 10
105.0
 20
287.0000000000003
 30
0.0
 11
105.0
 21
292.0000000000003
 31
0.0
  0
LINE
  5
20C
330
62
100
AcDbEntity
  8
1
  6
Continuous
 62
     2
100
AcDbLine
 10
166.0
 20
20.00000000000001
 30
0.0
 11
200.0
 21
20.00000000000001
 31
0.0
  0
LINE
  5
20D
330
62
100
AcDbEntity
  8
1
  6
Continuous
 62
     2
100
AcDbLine
 10
98.0
 20
27.00000000000001
 30
0.0
 11
98.0
 21
9.99999999999999
 31
0.0
  0
LINE
  5
20E
330
62
100
AcDbEntity
  8
1
  6
Continuous
 62
     2
100
AcDbLine
 10
115.0
 20
27.00000000000001
 30
0.0
 11
115.0
 21
9.99999999999999
 31
0.0
  0
LINE
  5
20F
330
62
100
AcDbEntity
  8
1
  6
Continuous
 62
     2
100
AcDbLine
 10
149.0
 20
27.00000000000001
 30
0.0
 11
149.0
 21
10.0
 31
0.0
  0
LINE
  5
210
330
62
100
AcDbEntity
  8
1
  6
Continuous
 62
     2
100
AcDbLine
 10
132.0
 20
27.00000000000001
 30
0.0
 11
132.0
 21
9.99999999999999
 31
0.0
  0
LINE
  5
211
330
62
100
AcDbEntity
  8
1
  6
Continuous
 62
     2
100
AcDbLine
 10
166.0
 20
27.00000000000001
 30
0.0
 11
166.0
 21
10.0
 31
0.0
  0
LINE
  5
212
330
62
100
AcDbEntity
  8
1
  6
Continuous
 62
     2
100
AcDbLine
 10
55.0
 20
277.0000000000003
 30
0.0
 11
25.0
 21
277.0000000000003
 31
0.0
  0
LINE
  5
213
330
62
100
AcDbEntity
  8
1
  6
Continuous
 62
     7
100
AcDbLine
 10
25.0
 20
10.0
 30
0.0
 11
25.0
 21
148.5
 31
0.0
  0
LINE
  5
214
330
62
100
AcDbEntity
  8
1
  6
Continuous
 62
     2
100
AcDbLine
 10
40.0
 20
287.0000000000003
 30
0.0
 11
40.0
 21
277.0000000000003
 31
0.0
  0
LINE
  5
215
330
62
100
AcDbEntity
  8
1
  6
Continuous
 62
     2
100
AcDbLine
 10
55.0
 20
287.0000000000003
 30
0.0
 11
55.0
 21
277.0000000000003
 31
0.0
  0
LINE
  5
216
330
62
100
AcDbEntity
  8
1
  6
Continuous
 62
     2
100
AcDbLine
 10
33.0
 20
41.00000000000001
 30
0.0
 11
33.0
 21
27.0
 31
0.0
  0
LINE
  5
217
330
62
100
AcDbEntity
  8
1
  6
Continuous
 62
     7
100
AcDbLine
 10
200.0
 20
27.00000000000001
 30
0.0
 11
25.0
 21
27.00000000000001
 31
0.0
  0
LINE
  5
218
330
62
100
AcDbEntity
  8
1
  6
Continuous
 62
     7
100
AcDbLine
 10
25.0
 20
41.0
 30
0.0
 11
200.0
 21
41.0
 31
0.0
  0
LINE
  5
219
330
62
100
AcDbEntity
  8
1
  6
PHANTOM
 62
     4
100
AcDbLine
 10
0.0
 20
0.0
 30
0.0
 11
210.0
 21
0.0
 31
0.0
  0
LINE
  5
21A
330
62
100
AcDbEntity
  8
1
  6
PHANTOM
 62
     4
100
AcDbLine
 10
210.0
 20
0.0
 30
0.0
 11
210.0
 21
297.0
 31
0.0
  0
LINE
  5
21B
330
62
100
AcDbEntity
  8
1
  6
PHANTOM
 62
     4
100
AcDbLine
 10
210.0
 20
297.0
 30
0.0
 11
0.0
 21
297.0
 31
0.0
  0
LINE
  5
21C
330
62
100
AcDbEntity
  8
1
  6
PHANTOM
 62
     4
100
AcDbLine
 10
0.0
 20
297.0
 30
0.0
 11
0.0
 21
0.0
 31
0.0
  0
LINE
  5
21D
330
62
100
AcDbEntity
  8
1
  6
Continuous
 62
     7
100
AcDbLine
 10
25.0
 20
10.0
 30
0.0
 11
105.0
 21
10.0
 31
0.0
  0
LINE
  5
21E
330
62
100
AcDbEntity
  8
1
  6
Continuous
 62
     7
100
AcDbLine
 10
200.0
 20
10.0
 30
0.0
 11
200.0
 21
148.5
 31
0.0
  0
LINE
  5
21F
330
62
100
AcDbEntity
  8
1
  6
Continuous
 62
     7
100
AcDbLine
 10
200.0
 20
287.0000000000003
 30
0.0
 11
105.0
 21
287.0000000000003
 31
0.0
  0
LINE
  5
220
330
62
100
AcDbEntity
  8
1
  6
Continuous
 62
     2
100
AcDbLine
 10
25.0
 20
18.50000000000001
 30
0.0
 11
81.0
 21
18.50000000000001
 31
0.0
  0
LINE
  5
221
330
62
100
AcDbEntity
  8
1
  6
Continuous
 62
     2
100
AcDbLine
 10
33.0
 20
27.0
 30
0.0
 11
33.0
 21
10.0
 31
0.0
  0
LINE
  5
222
330
62
100
AcDbEntity
  8
1
  6
Continuous
 62
     7
100
AcDbLine
 10
191.0
 20
24.70000000000001
 30
0.0
 11
191.0
 21
22.30000000000001
 31
0.0
  0
LINE
  5
223
330
62
100
AcDbEntity
  8
1
  6
Continuous
 62
     7
100
AcDbLine
 10
191.0
 20
24.70000000000001
 30
0.0
 11
196.0
 21
25.50000000000001
 31
0.0
  0
LINE
  5
224
330
62
100
AcDbEntity
  8
1
  6
Continuous
 62
     7
100
AcDbLine
 10
196.0
 20
25.50000000000001
 30
0.0
 11
196.0
 21
21.50000000000001
 31
0.0
  0
LINE
  5
225
330
62
100
AcDbEntity
  8
1
  6
Continuous
 62
     7
100
AcDbLine
 10
196.0
 20
21.50000000000001
 30
0.0
 11
191.0
 21
22.30000000000001
 31
0.0
  0
LINE
  5
226
330
62
100
AcDbEntity
  8
1
  6
DOT_CENTER
 62
     2
100
AcDbLine
 10
184.0
 20
23.50000000000001
 30
0.0
 11
197.0
 21
23.50000000000001
 31
0.0
  0
LINE
  5
227
330
62
100
AcDbEntity
  8
1
  6
DOT_CENTER
 62
     2
100
AcDbLine
 10
187.0
 20
26.50000000000001
 30
0.0
 11
187.0
 21
20.50000000000001
 31
0.0
  0
LINE
  5
228
330
62
100
AcDbEntity
  8
1
  6
Continuous
 62
     2
100
AcDbLine
 10
81.0
 20
27.00000000000001
 30
0.0
 11
81.0
 21
10.0
 31
0.0
  0
CIRCLE
  5
229
330
62
100
AcDbEntity
  8
1
  6
Continuous
 62
     7
100
AcDbCircle
 10
103.5
 20
12.5
 30
0.0
 40
0.2999999999999972
  0
CIRCLE
  5
22A
330
62
100
AcDbEntity
  8
1
  6
Continuous
 62
     7
100
AcDbCircle
 10
109.5
 20
12.5
 30
0.0
 40
0.2999999999999972
  0
CIRCLE
  5
22B
330
62
100
AcDbEntity
  8
1
  6
Continuous
 62
     7
100
AcDbCircle
 10
120.5
 20
12.5
 30
0.0
 40
0.2999999999999972
  0
CIRCLE
  5
22C
330
62
100
AcDbEntity
  8
1
  6
Continuous
 62
     7
100
AcDbCircle
 10
126.5
 20
12.5
 30
0.0
 40
0.2999999999999972
  0
CIRCLE
  5
22D
330
62
100
AcDbEntity
  8
1
  6
Continuous
 62
     7
100
AcDbCircle
 10
137.5
 20
12.5
 30
0.0
 40
0.3000000000000114
  0
CIRCLE
  5
22E
330
62
100
AcDbEntity
  8
1
  6
Continuous
 62
     7
100
AcDbCircle
 10
143.5
 20
12.5
 30
0.0
 40
0.3000000000000114
  0
CIRCLE
  5
22F
330
62
100
AcDbEntity
  8
1
  6
Continuous
 62
     7
100
AcDbCircle
 10
160.5
 20
12.5
 30
0.0
 40
0.3000000000000114
  0
CIRCLE
  5
230
330
62
100
AcDbEntity
  8
1
  6
Continuous
 62
     7
100
AcDbCircle
 10
154.5
 20
12.5
 30
0.0
 40
0.3000000000000114
  0
CIRCLE
  5
231
330
62
100
AcDbEntity
  8
1
  6
Continuous
 62
     7
100
AcDbCircle
 10
187.0
 20
23.50000000000001
 30
0.0
 40
1.200000000000102
  0
CIRCLE
  5
232
330
62
100
AcDbEntity
  8
1
  6
Continuous
 62
     7
100
AcDbCircle
 10
187.0
 20
23.50000000000001
 30
0.0
 40
2.0
  0
CIRCLE
  5
233
330
62
100
AcDbEntity
  8
1
  6
DOT_CENTER
 62
     7
100
AcDbCircle
 10
89.5
 20
16.0
 30
0.0
 40
0.1000000000000227
  0
CIRCLE
  5
234
330
62
100
AcDbEntity
  8
1
  6
DOT_CENTER
 62
     7
100
AcDbCircle
 10
89.5
 20
18.0
 30
0.0
 40
0.1000000000000227
  0
MTEXT
  5
236
330
62
100
AcDbEntity
  8
1
 62
     7
100
AcDbMText
 10
188.5
 20
15.0
 30
0.0
 40
3.0
 41
0.0
 71
     5
 72
     1
  1
三栄水栓製作所
  7
CONVERTER_11
 73
     1
 44
1.0
  0
MTEXT
  5
237
330
62
100
AcDbEntity
  8
1
 62
     7
100
AcDbMText
 10
171.5
 20
15.0
 30
0.0
 40
2.5
 41
0.0
 71
     5
 72
     1
  1
株式会社
  7
CONVERTER_11
 73
     1
 44
1.0
  0
MTEXT
  5
238
330
62
100
AcDbEntity
  8
1
 62
     2
100
AcDbMText
 10
32.5
 20
282.0000000000003
 30
0.0
 40
5.0
 41
0.0
 71
     5
 72
     1
  1
図番
  7
CONVERTER_11
 73
     1
 44
0.45454545454545
  0
MTEXT
  5
239
330
62
100
AcDbEntity
  8
1
 62
     2
100
AcDbMText
 10
29.0
 20
34.00000000000001
 30
0.0
 40
3.5
 41
0.0
 71
     5
 72
     1
  1
備考
  7
CONVERTER_11
 73
     1
 44
0.45454545454545
  0
MTEXT
  5
23A
330
62
100
AcDbEntity
  8
1
 62
     2
100
AcDbMText
 10
29.0
 20
22.75
 30
0.0
 40
3.5
 41
0.0
 71
     5
 72
     1
  1
品名
  7
CONVERTER_11
 73
     1
 44
0.72727272727273
  0
MTEXT
  5
23B
330
62
100
AcDbEntity
  8
1
 62
     2
100
AcDbMText
 10
29.0
 20
14.25
 30
0.0
 40
3.5
 41
0.0
 71
     5
 72
     1
  1
品番
  7
CONVERTER_11
 73
     1
 44
0.72727272727273
  0
MTEXT
  5
23C
330
62
100
AcDbEntity
  8
1
 62
     2
100
AcDbMText
 10
101.5
 20
25.00000000000001
 30
0.0
 40
3.0
 41
0.0
 71
     5
 72
     1
  1
承認
  7
CONVERTER_11
 73
     1
 44
0.59090909090909
  0
MTEXT
  5
23D
330
62
100
AcDbEntity
  8
1
 62
     2
100
AcDbMText
 10
175.0
 20
23.50000000000001
 30
0.0
 40
3.5
 41
0.0
 71
     5
 72
     1
  1
第三角法
  7
CONVERTER_11
 73
     1
 44
0.54545454545455
  0
MTEXT
  5
23E
330
62
100
AcDbEntity
  8
1
 62
     2
100
AcDbMText
 10
118.5
 20
25.00000000000001
 30
0.0
 40
3.0
 41
0.0
 71
     5
 72
     1
  1
検図
  7
CONVERTER_11
 73
     1
 44
0.59090909090909
  0
MTEXT
  5
23F
330
62
100
AcDbEntity
  8
1
 62
     2
100
AcDbMText
 10
152.5
 20
25.00000000000001
 30
0.0
 40
3.0
 41
0.0
 71
     5
 72
     1
  1
担当
  7
CONVERTER_11
 73
     1
 44
0.59090909090909
  0
MTEXT
  5
240
330
62
100
AcDbEntity
  8
1
 62
     2
100
AcDbMText
 10
135.5
 20
25.00000000000001
 30
0.0
 40
3.0
 41
0.0
 71
     5
 72
     1
  1
製図
  7
CONVERTER_11
 73
     1
 44
0.59090909090909
  0
MTEXT
  5
241
330
62
100
AcDbEntity
  8
1
 62
     2
100
AcDbMText
 10
89.5
 20
24.00000000000001
 30
0.0
 40
3.5
 41
0.0
 71
     5
 72
     1
  1
尺度
  7
CONVERTER_11
 73
     1
 44
0.54545454545455
  0
MTEXT
  5
242
330
62
100
AcDbEntity
  8
1
 62
   250
100
AcDbMText
 10
25.0
 20
5.0
 30
0.0
 40
3.5
 41
0.0
 71
     4
 72
     1
  1
備考欄の文字列 原点位置=4
  7
CONVERTER_11
 73
     1
 44
0.54545454545455
  0
ENDBLK
  5
64
330
62
100
AcDbEntity
  8
0
100
AcDbBlockEnd
  0
BLOCK
  5
28B
330
284
100
AcDbEntity
  8
0
100
AcDbBlockBegin
  2
*D11
 70
     1
 10
0.0
 20
0.0
 30
0.0
  3
*D11
  1

  0
LINE
  5
285
330
284
100
AcDbEntity
  8
1
  6
Continuous
 62
     2
100
AcDbLine
 10
267.7441151240429
 20
358.3503473399228
 30
0.0
 11
267.7441151240429
 21
244.3503473399228
 31
0.0
  0
LINE
  5
286
330
284
100
AcDbEntity
  8
1
  6
Continuous
 62
     2
100
AcDbLine
 10
225.8381258916272
 20
244.3503473399228
 30
0.0
 11
269.7441151240429
 21
244.3503473399228
 31
0.0
  0
LINE
  5
287
330
284
100
AcDbEntity
  8
1
  6
Continuous
 62
     2
100
AcDbLine
 10
244.7441151240429
 20
358.3503473399228
 30
0.0
 11
269.7441151240429
 21
358.3503473399228
 31
0.0
  0
SOLID
  5
288
330
284
100
AcDbEntity
  8
1
 62
     2
100
AcDbTrace
 10
268.6656826071546
 20
351.3503473399228
 30
0.0
 11
266.8225476409311
 21
351.3503473399228
 31
0.0
 12
267.7441151240429
 22
358.3503473399228
 32
0.0
 13
267.7441151240429
 23
358.3503473399228
 33
0.0
  0
SOLID
  5
289
330
284
100
AcDbEntity
  8
1
 62
     2
100
AcDbTrace
 10
266.8225476409311
 20
251.3503473399228
 30
0.0
 11
268.6656826071546
 21
251.3503473399228
 31
0.0
 12
267.7441151240429
 22
244.3503473399228
 32
0.0
 13
267.7441151240429
 23
244.3503473399228
 33
0.0
  0
MTEXT
  5
28A
330
284
100
AcDbEntity
  8
1
 62
     7
100
AcDbMText
 10
265.7441151240429
 20
298.9003473399228
 30
0.0
 40
7.0
 41
0.0
 71
     7
 72
     1
  1
H
  7
CONVERTER_12
 11
0.0
 21
1.0
 31
0.0
 73
     1
 44
0.60024009603842
  0
ENDBLK
  5
28C
330
284
100
AcDbEntity
  8
0
100
AcDbBlockEnd
  0
BLOCK
  5
296
330
28F
100
AcDbEntity
  8
0
100
AcDbBlockBegin
  2
*D12
 70
     1
 10
0.0
 20
0.0
 30
0.0
  3
*D12
  1

  0
LINE
  5
290
330
28F
100
AcDbEntity
  8
1
  6
Continuous
 62
     2
100
AcDbLine
 10
157.7441151240429
 20
378.3503473399228
 30
0.0
 11
247.7441151240429
 21
378.3503473399228
 31
0.0
  0
LINE
  5
291
330
28F
100
AcDbEntity
  8
1
  6
Continuous
 62
     2
100
AcDbLine
 10
247.7441151240429
 20
346.3503473399228
 30
0.0
 11
247.7441151240429
 21
380.3503473399228
 31
0.0
  0
LINE
  5
292
330
28F
100
AcDbEntity
  8
1
  6
Continuous
 62
     2
100
AcDbLine
 10
157.7441151240429
 20
346.3503473399228
 30
0.0
 11
157.7441151240429
 21
380.3503473399228
 31
0.0
  0
SOLID
  5
293
330
28F
100
AcDbEntity
  8
1
 62
     2
100
AcDbTrace
 10
164.7441151240429
 20
379.2719148230345
 30
0.0
 11
164.7441151240429
 21
377.428779856811
 31
0.0
 12
157.7441151240429
 22
378.3503473399228
 32
0.0
 13
157.7441151240429
 23
378.3503473399228
 33
0.0
  0
SOLID
  5
294
330
28F
100
AcDbEntity
  8
1
 62
     2
100
AcDbTrace
 10
240.7441151240429
 20
377.428779856811
 30
0.0
 11
240.7441151240429
 21
379.2719148230345
 31
0.0
 12
247.7441151240429
 22
378.3503473399228
 32
0.0
 13
247.7441151240429
 23
378.3503473399228
 33
0.0
  0
MTEXT
  5
295
330
28F
100
AcDbEntity
  8
1
 62
     7
100
AcDbMText
 10
219.9941151240425
 20
380.3503473399228
 30
0.0
 40
7.0
 41
0.0
 71
     7
 72
     1
  1
90
  7
CONVERTER_12
 11
0.9999999999970619
 21
2.424068405545306E-6
 31
0.0
 73
     1
 44
0.60024009603842
  0
ENDBLK
  5
297
330
28F
100
AcDbEntity
  8
0
100
AcDbBlockEnd
  0
BLOCK
  5
2A1
330
29A
100
AcDbEntity
  8
0
100
AcDbBlockBegin
  2
*D13
 70
     1
 10
0.0
 20
0.0
 30
0.0
  3
*D13
  1

  0
LINE
  5
29B
330
29A
100
AcDbEntity
  8
1
  6
Continuous
 62
     2
100
AcDbLine
 10
98.94994129988258
 20
338.038424509672
 30
0.0
 11
119.4560379542927
 21
358.5445211640823
 31
0.0
  0
LINE
  5
29C
330
29A
100
AcDbEntity
  8
1
  6
Continuous
 62
     2
100
AcDbLine
 10
132.8910667968371
 20
304.0972990127178
 30
0.0
 11
97.53572773750946
 21
339.4526380720451
 31
0.0
  0
LINE
  5
29D
330
29A
100
AcDbEntity
  8
1
  6
Continuous
 62
     2
100
AcDbLine
 10
153.3971634512472
 20
324.6033956671281
 30
0.0
 11
118.0418243919196
 21
359.9587347264554
 31
0.0
  0
SOLID
  5
29E
330
29A
100
AcDbEntity
  8
1
 62
     2
100
AcDbTrace
 10
103.248042151559
 20
343.6398185946073
 30
0.0
 11
104.5513353848177
 21
342.3365253613485
 31
0.0
 12
98.94994129988258
 22
338.038424509672
 32
0.0
 13
98.94994129988258
 23
338.038424509672
 33
0.0
  0
SOLID
  5
29F
330
29A
100
AcDbEntity
  8
1
 62
     2
100
AcDbTrace
 10
115.1579371026163
 20
352.9431270791471
 30
0.0
 11
113.8546438693575
 21
354.2464203124057
 31
0.0
 12
119.4560379542927
 22
358.5445211640823
 32
0.0
 13
119.4560379542927
 23
358.5445211640823
 33
0.0
  0
MTEXT
  5
2A0
330
29A
100
AcDbEntity
  8
1
 62
     7
100
AcDbMText
 10
105.6988144316893
 20
347.6157247662251
 30
0.0
 40
7.0
 41
0.0
 71
     7
 72
     1
  1
\C7;{\Fgdt;n}\C7;E
  7
CONVERTER_12
 11
0.7071067811865447
 21
0.7071067811865503
 31
0.0
 73
     1
 44
0.60024009603842
  0
ENDBLK
  5
2A2
330
29A
100
AcDbEntity
  8
0
100
AcDbBlockEnd
  0
BLOCK
  5
2AC
330
2A5
100
AcDbEntity
  8
0
100
AcDbBlockBegin
  2
*D14
 70
     1
 10
0.0
 20
0.0
 30
0.0
  3
*D14
  1

  0
LINE
  5
2A6
330
2A5
100
AcDbEntity
  8
1
  6
Continuous
 62
     2
100
AcDbLine
 10
113.4456303142056
 20
329.9066965260249
 30
0.0
 11
127.5877659379366
 21
344.0488321497573
 31
0.0
  0
LINE
  5
2A7
330
2A5
100
AcDbEntity
  8
1
  6
Continuous
 62
     2
100
AcDbLine
 10
136.0730473121762
 20
307.2792795280566
 30
0.0
 11
112.0314167518324
 21
331.320910088398
 31
0.0
  0
LINE
  5
2A8
330
2A5
100
AcDbEntity
  8
1
  6
Continuous
 62
     2
100
AcDbLine
 10
150.2151829359072
 20
321.421415151789
 30
0.0
 11
126.1735523755634
 21
345.4630457121304
 31
0.0
  0
SOLID
  5
2A9
330
2A5
100
AcDbEntity
  8
1
 62
     2
100
AcDbTrace
 10
117.7437311658817
 20
335.5080906109604
 30
0.0
 11
119.0470243991405
 21
334.2047973777018
 31
0.0
 12
113.4456303142056
 22
329.9066965260249
 32
0.0
 13
113.4456303142056
 23
329.9066965260249
 33
0.0
  0
SOLID
  5
2AA
330
2A5
100
AcDbEntity
  8
1
 62
     2
100
AcDbTrace
 10
123.2896650862605
 20
338.4474380648219
 30
0.0
 11
121.9863718530017
 21
339.7507312980805
 31
0.0
 12
127.5877659379366
 22
344.0488321497573
 32
0.0
 13
127.5877659379366
 23
344.0488321497573
 33
0.0
  0
MTEXT
  5
2AB
330
2A5
100
AcDbEntity
  8
1
 62
     7
100
AcDbMText
 10
116.7851264757226
 20
336.0746198122885
 30
0.0
 40
7.0
 41
0.0
 71
     7
 72
     1
  1
\C7;{\Fgdt;n}\C7;F
  7
CONVERTER_12
 11
0.7071067811865116
 21
0.7071067811865834
 31
0.0
 73
     1
 44
0.60024009603842
  0
ENDBLK
  5
2AD
330
2A5
100
AcDbEntity
  8
0
100
AcDbBlockEnd
  0
BLOCK
  5
2B7
330
2B0
100
AcDbEntity
  8
0
100
AcDbBlockBegin
  2
*D15
 70
     1
 10
0.0
 20
0.0
 30
0.0
  3
*D15
  1

  0
LINE
  5
2B1
330
2B0
100
AcDbEntity
  8
1
  6
Continuous
 62
     2
100
AcDbLine
 10
302.7441151240421
 20
227.736985156613
 30
0.0
 11
342.7441151240421
 21
227.736985156613
 31
0.0
  0
LINE
  5
2B2
330
2B0
100
AcDbEntity
  8
1
  6
Continuous
 62
     2
100
AcDbLine
 10
302.7441151240421
 20
244.3503473399228
 30
0.0
 11
302.7441151240421
 21
225.736985156613
 31
0.0
  0
LINE
  5
2B3
330
2B0
100
AcDbEntity
  8
1
  6
Continuous
 62
     2
100
AcDbLine
 10
342.7441151240421
 20
244.3503473399228
 30
0.0
 11
342.7441151240421
 21
225.736985156613
 31
0.0
  0
SOLID
  5
2B4
330
2B0
100
AcDbEntity
  8
1
 62
     2
100
AcDbTrace
 10
309.7441151240421
 20
228.6585526397248
 30
0.0
 11
309.7441151240421
 21
226.8154176735012
 31
0.0
 12
302.7441151240421
 22
227.736985156613
 32
0.0
 13
302.7441151240421
 23
227.736985156613
 33
0.0
  0
SOLID
  5
2B5
330
2B0
100
AcDbEntity
  8
1
 62
     2
100
AcDbTrace
 10
335.7441151240421
 20
226.8154176735012
 30
0.0
 11
335.7441151240421
 21
228.6585526397248
 31
0.0
 12
342.7441151240421
 22
227.736985156613
 32
0.0
 13
342.7441151240421
 23
227.736985156613
 33
0.0
  0
MTEXT
  5
2B6
330
2B0
100
AcDbEntity
  8
1
 62
     7
100
AcDbMText
 10
320.734548838467
 20
229.736985156613
 30
0.0
 40
7.0
 41
0.0
 71
     7
 72
     1
  1
B
  7
CONVERTER_12
 11
0.9999999999970619
 21
2.424068405545306E-6
 31
0.0
 73
     1
 44
0.60024009603842
  0
ENDBLK
  5
2B8
330
2B0
100
AcDbEntity
  8
0
100
AcDbBlockEnd
  0
BLOCK
  5
2C2
330
2BB
100
AcDbEntity
  8
0
100
AcDbBlockBegin
  2
*D16
 70
     1
 10
0.0
 20
0.0
 30
0.0
  3
*D16
  1

  0
LINE
  5
2BC
330
2BB
100
AcDbEntity
  8
1
  6
Continuous
 62
     2
100
AcDbLine
 10
143.1441151240423
 20
394.3503473399228
 30
0.0
 11
202.7441151240422
 21
394.3503473399228
 31
0.0
  0
LINE
  5
2BD
330
2BB
100
AcDbEntity
  8
1
  6
Continuous
 62
     2
100
AcDbLine
 10
202.7441151240422
 20
360.3503473399228
 30
0.0
 11
202.7441151240422
 21
396.3503473399228
 31
0.0
  0
LINE
  5
2BE
330
2BB
100
AcDbEntity
  8
1
  6
Continuous
 62
     2
100
AcDbLine
 10
143.1441151240423
 20
314.3503473399228
 30
0.0
 11
143.1441151240423
 21
396.3503473399228
 31
0.0
  0
SOLID
  5
2BF
330
2BB
100
AcDbEntity
  8
1
 62
     2
100
AcDbTrace
 10
150.1441151240423
 20
395.2719148230345
 30
0.0
 11
150.1441151240423
 21
393.428779856811
 31
0.0
 12
143.1441151240423
 22
394.3503473399228
 32
0.0
 13
143.1441151240423
 23
394.3503473399228
 33
0.0
  0
SOLID
  5
2C0
330
2BB
100
AcDbEntity
  8
1
 62
     2
100
AcDbTrace
 10
195.7441151240422
 20
393.428779856811
 30
0.0
 11
195.7441151240422
 21
395.2719148230345
 31
0.0
 12
202.7441151240422
 22
394.3503473399228
 32
0.0
 13
202.7441151240422
 23
394.3503473399228
 33
0.0
  0
MTEXT
  5
2C1
330
2BB
100
AcDbEntity
  8
1
 62
     7
100
AcDbMText
 10
171.5441151240422
 20
396.3503473399228
 30
0.0
 40
7.0
 41
0.0
 71
     7
 72
     1
  1
J
  7
CONVERTER_12
 11
0.9999999999970619
 21
2.424068405545306E-6
 31
0.0
 73
     1
 44
0.60024009603842
  0
ENDBLK
  5
2C3
330
2BB
100
AcDbEntity
  8
0
100
AcDbBlockEnd
  0
BLOCK
  5
2CD
330
2C6
100
AcDbEntity
  8
0
100
AcDbBlockBegin
  2
*D17
 70
     1
 10
0.0
 20
0.0
 30
0.0
  3
*D17
  1

  0
LINE
  5
2C7
330
2C6
100
AcDbEntity
  8
1
  6
Continuous
 62
     2
100
AcDbLine
 10
101.1245167120821
 20
244.3503473399228
 30
0.0
 11
101.1245167120821
 21
314.3503473399228
 31
0.0
  0
LINE
  5
2C8
330
2C6
100
AcDbEntity
  8
1
  6
Continuous
 62
     2
100
AcDbLine
 10
179.6536229781102
 20
244.3503473399228
 30
0.0
 11
99.12451671208208
 21
244.3503473399228
 31
0.0
  0
LINE
  5
2C9
330
2C6
100
AcDbEntity
  8
1
  6
Continuous
 62
     2
100
AcDbLine
 10
143.1441151240422
 20
314.3503473399228
 30
0.0
 11
99.12451671208208
 21
314.3503473399228
 31
0.0
  0
SOLID
  5
2CA
330
2C6
100
AcDbEntity
  8
1
 62
     2
100
AcDbTrace
 10
100.2029492289703
 20
251.3503473399228
 30
0.0
 11
102.0460841951939
 21
251.3503473399228
 31
0.0
 12
101.1245167120821
 22
244.3503473399228
 32
0.0
 13
101.1245167120821
 23
244.3503473399228
 33
0.0
  0
SOLID
  5
2CB
330
2C6
100
AcDbEntity
  8
1
 62
     2
100
AcDbTrace
 10
102.0460841951939
 20
307.3503473399228
 30
0.0
 11
100.2029492289703
 21
307.3503473399228
 31
0.0
 12
101.1245167120821
 22
314.3503473399228
 32
0.0
 13
101.1245167120821
 23
314.3503473399228
 33
0.0
  0
MTEXT
  5
2CC
330
2C6
100
AcDbEntity
  8
1
 62
     7
100
AcDbMText
 10
99.12451671208208
 20
278.9460003321727
 30
0.0
 40
7.0
 41
0.0
 71
     7
 72
     1
  1
G
  7
CONVERTER_12
 11
0.0
 21
1.0
 31
0.0
 73
     1
 44
0.60024009603842
  0
ENDBLK
  5
2CE
330
2C6
100
AcDbEntity
  8
0
100
AcDbBlockEnd
  0
ENDSEC
  0
SECTION
  2
ENTITIES
  0
INSERT
  5
65
330
1F
100
AcDbEntity
  8
0
100
AcDbBlockReference
  2
V18-H2
 10
195.7441151240421
 20
292.3503473399228
 30
0.0
  0
INSERT
  5
66
330
1F
100
AcDbEntity
  8
0
100
AcDbBlockReference
  2
V18-H3
 10
196.7441151240421
 20
271.3503473399228
 30
0.0
  0
INSERT
  5
67
330
1F
100
AcDbEntity
  8
0
100
AcDbBlockReference
  2
V18-H11
 10
132.8910667968371
 20
279.702115061782
 30
0.0
  0
INSERT
  5
68
330
1F
100
AcDbEntity
  8
0
100
AcDbBlockReference
  2
V18-H12
 10
143.6744452099322
 20
278.641454890002
 30
0.0
  0
INSERT
  5
69
330
1F
100
AcDbEntity
  8
0
100
AcDbBlockReference
  2
V18-H1
 10
154.2810469277301
 20
244.3503473399228
 30
0.0
  0
INSERT
  5
6A
330
1F
100
AcDbEntity
  8
1
100
AcDbBlockReference
  2
V18-H15
 10
185.5441151240423
 20
299.3503473399228
 30
0.0
  0
INSERT
  5
6B
330
1F
100
AcDbEntity
  8
1
100
AcDbBlockReference
  2
V18-H7
 10
189.2441151240421
 20
318.8503473399228
 30
0.0
  0
INSERT
  5
6C
330
1F
100
AcDbEntity
  8
1
100
AcDbBlockReference
  2
V18-H10
 10
172.7441151240421
 20
341.3503473399228
 30
0.0
  0
INSERT
  5
6D
330
1F
100
AcDbEntity
  8
0
100
AcDbBlockReference
  2
V18-H10-40_50
 10
260.7380532482171
 20
452.109217804225
 30
0.0
  0
INSERT
  5
6E
330
1F
100
AcDbEntity
  8
1
100
AcDbBlockReference
  2
開示A4
 10
0.0
 20
0.0
 30
0.0
 41
2.0
 42
2.0
 43
2.0
  0
LINE
  5
243
330
1F
100
AcDbEntity
  8
1
  6
Continuous
 62
     2
100
AcDbLine
 10
320.8326991244226
 20
149.499999999999
 30
0.0
 11
320.8326991244226
 21
107.5
 31
0.0
  0
LINE
  5
244
330
1F
100
AcDbEntity
  8
1
  6
Continuous
 62
     7
100
AcDbLine
 10
381.8326991244227
 20
135.5
 30
0.0
 11
381.8326991244226
 21
121.4999999999986
 31
0.0
  0
LINE
  5
245
330
1F
100
AcDbEntity
  8
1
  6
Continuous
 62
     7
100
AcDbLine
 10
381.8326991244226
 20
107.5
 30
0.0
 11
66.83269912442307
 21
107.5
 31
0.0
  0
LINE
  5
246
330
1F
100
AcDbEntity
  8
1
  6
Continuous
 62
     2
100
AcDbLine
 10
381.8326991244227
 20
135.5
 30
0.0
 11
66.83269912442302
 21
135.5
 31
0.0
  0
LINE
  5
247
330
1F
100
AcDbEntity
  8
1
  6
Continuous
 62
     7
100
AcDbLine
 10
66.83269912442302
 20
135.5
 30
0.0
 11
66.83269912442302
 21
149.5
 31
0.0
  0
LINE
  5
248
330
1F
100
AcDbEntity
  8
1
  6
Continuous
 62
     7
100
AcDbLine
 10
66.83269912442307
 20
107.5
 30
0.0
 11
66.83269912442302
 21
135.5
 31
0.0
  0
LINE
  5
249
330
1F
100
AcDbEntity
  8
1
  6
Continuous
 62
     7
100
AcDbLine
 10
118.8326991244221
 20
149.5
 30
0.0
 11
66.83269912442302
 21
149.5
 31
0.0
  0
LINE
  5
24A
330
1F
100
AcDbEntity
  8
1
  6
Continuous
 62
     7
100
AcDbLine
 10
381.8326991244226
 20
149.4999999999987
 30
0.0
 11
381.8326991244227
 21
135.5
 31
0.0
  0
LINE
  5
24B
330
1F
100
AcDbEntity
  8
1
  6
Continuous
 62
     7
100
AcDbLine
 10
381.8326991244226
 20
149.5
 30
0.0
 11
118.8326991244221
 21
149.5
 31
0.0
  0
LINE
  5
24C
330
1F
100
AcDbEntity
  8
1
  6
DASH_CENTER
 62
     2
100
AcDbLine
 10
322.7441151240421
 20
455.3897986246248
 30
0.0
 11
322.7441151240421
 21
557.3897986246247
 31
0.0
  0
LINE
  5
24D
330
1F
100
AcDbEntity
  8
1
  6
DASH_CENTER
 62
     2
100
AcDbLine
 10
271.7441151240421
 20
506.3897986246248
 30
0.0
 11
373.7441151240421
 21
506.3897986246248
 31
0.0
  0
LINE
  5
24E
330
1F
100
AcDbEntity
  8
0
  6
DASH_CENTER
 62
     2
100
AcDbLine
 10
322.7441151240412
 20
364.3503473399228
 30
0.0
 11
322.7441151240421
 21
240.1628473399228
 31
0.0
  0
LINE
  5
24F
330
1F
100
AcDbEntity
  8
0
  6
DASH_CENTER
 62
     2
100
AcDbLine
 10
143.1441151240422
 20
314.3503473399228
 30
0.0
 11
138.9493520042872
 21
318.5451104596776
 31
0.0
  0
LINE
  5
250
330
1F
100
AcDbEntity
  8
0
  6
DASH_CENTER
 62
     2
100
AcDbLine
 10
202.7441151240421
 20
360.3503473399228
 30
0.0
 11
202.7441151240421
 21
240.1628473399228
 31
0.0
  0
LINE
  5
251
330
1F
100
AcDbEntity
  8
0
  6
Continuous
 62
     7
100
AcDbLine
 10
145.2654354676022
 20
294.5513574666998
 30
0.0
 11
144.9118820770082
 21
294.1978040761069
 31
0.0
  0
LINE
  5
252
330
1F
100
AcDbEntity
  8
0
  6
DASH_CENTER
 62
     2
100
AcDbLine
 10
202.7441151240421
 20
254.7503473399238
 30
0.0
 11
143.1441151240422
 21
314.3503473399228
 31
0.0
  0
LINE
  5
253
330
1F
100
AcDbEntity
  8
1
  6
Continuous
 62
     7
100
AcDbLine
 10
381.8326991244226
 20
121.4999999999986
 30
0.0
 11
381.8326991244226
 21
107.5
 31
0.0
  0
LINE
  5
254
330
1F
100
AcDbEntity
  8
1
  6
Continuous
 62
     2
100
AcDbLine
 10
183.8326991244221
 20
149.5
 30
0.0
 11
183.8326991244221
 21
107.5
 31
0.0
  0
LINE
  5
255
330
1F
100
AcDbEntity
  8
1
  6
Continuous
 62
     2
100
AcDbLine
 10
158.8326991244221
 20
149.5
 30
0.0
 11
158.8326991244221
 21
107.5
 31
0.0
  0
LINE
  5
256
330
1F
100
AcDbEntity
  8
1
  6
Continuous
 62
     2
100
AcDbLine
 10
381.8326991244226
 20
121.4999999999986
 30
0.0
 11
66.83269912442307
 21
121.4999999999986
 31
0.0
  0
LINE
  5
257
330
1F
100
AcDbEntity
  8
1
  6
Continuous
 62
     2
100
AcDbLine
 10
118.8326991244221
 20
107.5
 30
0.0
 11
118.8326991244221
 21
149.5
 31
0.0
  0
LINE
  5
258
330
1F
100
AcDbEntity
  8
1
  6
Continuous
 62
     2
100
AcDbLine
 10
207.8326991244221
 20
149.5
 30
0.0
 11
207.8326991244221
 21
107.5
 31
0.0
  0
LINE
  5
259
330
1F
100
AcDbEntity
  8
1
  6
Continuous
 62
     2
100
AcDbLine
 10
345.8326991244226
 20
149.499999999999
 30
0.0
 11
345.8326991244226
 21
107.5
 31
0.0
  0
LINE
  5
25A
330
1F
100
AcDbEntity
  8
1
  6
Continuous
 62
     2
100
AcDbLine
 10
232.8326991244221
 20
149.4999999999997
 30
0.0
 11
232.8326991244221
 21
107.5
 31
0.0
  0
LINE
  5
25B
330
1F
100
AcDbEntity
  8
1
  6
Continuous
 62
     2
100
AcDbLine
 10
257.8326991244221
 20
149.4999999999997
 30
0.0
 11
257.8326991244221
 21
107.5
 31
0.0
  0
SOLID
  5
25C
330
1F
100
AcDbEntity
  8
0
 62
     2
100
AcDbTrace
 10
223.4071273007316
 20
238.7489532549876
 30
0.0
 11
221.8109255973786
 21
237.8273857718758
 31
0.0
 12
219.1090264490551
 22
244.3503473399228
 32
0.0
 13
219.1090264490551
 23
244.3503473399228
 33
0.0
  0
LEADER
  5
25D
330
1F
100
AcDbEntity
  8
0
  6
Continuous
 62
     2
100
AcDbLeader
  3
Standard
 71
     0
 76
     3
 10
219.1090264490551
 20
244.3503473399228
 30
0.0
 10
230.4216030453716
 20
224.756389910588
 30
0.0
 10
239.5963775015044
 20
224.756389910588
 30
0.0
  0
SOLID
  5
25E
330
1F
100
AcDbEntity
  8
1
 62
     2
100
AcDbTrace
 10
348.9460142723657
 20
281.8733089079697
 30
0.0
 11
350.5422159757186
 21
280.9517414248579
 31
0.0
 12
346.2441151240421
 22
275.3503473399228
 32
0.0
 13
346.2441151240421
 23
275.3503473399228
 33
0.0
  0
LEADER
  5
25F
330
1F
100
AcDbEntity
  8
1
  6
Continuous
 62
     2
100
AcDbLeader
  3
Standard
 71
     0
 76
     3
 10
346.2441151240421
 20
275.3503473399228
 30
0.0
 10
355.9245042622922
 20
292.1172731644092
 30
0.0
 10
364.6893295999803
 20
292.1172731644092
 30
0.0
  0
MTEXT
  5
260
330
1F
100
AcDbEntity
  8
1
 62
     7
100
AcDbMText
 10
114.0
 20
45.50000000000001
 30
0.0
 40
7.0
 41
0.0
 71
     5
 72
     1
  1
差込45°消火栓
  7
CONVERTER_11
 73
     1
 44
1.0
  0
MTEXT
  5
261
330
1F
100
AcDbEntity
  8
1
 62
     7
100
AcDbMText
 10
114.0
 20
28.50000000000001
 30
0.0
 40
7.0
 41
0.0
 71
     5
 72
     1
  1
V180-(呼び)
  7
CONVERTER_11
 73
     1
 44
0.68181818181818
  0
MTEXT
  5
262
330
1F
100
AcDbEntity
  8
1
 62
     7
100
AcDbMText
 10
360.8326991244221
 20
128.4999999999986
 30
0.0
 40
7.0
 41
0.0
 71
     5
 72
     1
  1
Rc1　/
  7
CONVERTER_11
 73
     1
 44
0.54545454545455
  0
MTEXT
  5
264
330
1F
100
AcDbEntity
  8
1
 62
     7
100
AcDbMText
 10
369.2931698165844
 20
131.0541730468344
 30
0.0
 40
7.0
 41
0.0
 71
     5
 72
     1
  1
1
  7
CONVERTER_12
 73
     1
 44
1.32052821128451
  0
MTEXT
  5
265
330
1F
100
AcDbEntity
  8
1
 62
     7
100
AcDbMText
 10
376.0030260566105
 20
125.9364704059412
 30
0.0
 40
7.0
 41
0.0
 71
     5
 72
     1
  1
2
  7
CONVERTER_12
 73
     1
 44
1.32052821128451
  0
MTEXT
  5
266
330
1F
100
AcDbEntity
  8
1
 62
     7
100
AcDbMText
 10
333.3326991244226
 20
114.5
 30
0.0
 40
7.0
 41
0.0
 71
     5
 72
     1
  1
97
  7
CONVERTER_12
 73
     1
 44
0.7202881152461
  0
MTEXT
  5
267
330
1F
100
AcDbEntity
  8
1
 62
     7
100
AcDbMText
 10
333.3326991244226
 20
128.5
 30
0.0
 40
7.0
 41
0.0
 71
     5
 72
     1
  1
79
  7
CONVERTER_12
 73
     1
 44
0.7202881152461
  0
MTEXT
  5
268
330
1F
100
AcDbEntity
  8
1
 62
     2
100
AcDbMText
 10
333.3326991244226
 20
142.5
 30
0.0
 40
7.0
 41
0.0
 71
     5
 72
     1
  1
J
  7
CONVERTER_12
 73
     1
 44
0.7202881152461
  0
MTEXT
  5
269
330
1F
100
AcDbEntity
  8
0
 62
     7
100
AcDbMText
 10
234.7694882734246
 20
230.756389910588
 30
0.0
 40
7.0
 41
0.0
 71
     5
 72
     1
  1
L
  7
CONVERTER_12
 73
     1
 44
0.7202881152461
  0
MTEXT
  5
26A
330
1F
100
AcDbEntity
  8
1
 62
     7
100
AcDbMText
 10
360.5055886251503
 20
298.1172731644092
 30
0.0
 40
7.0
 41
0.0
 71
     5
 72
     1
  1
A
  7
CONVERTER_12
 73
     1
 44
1.32052821128451
  0
MTEXT
  5
26B
330
1F
100
AcDbEntity
  8
1
 62
     7
100
AcDbMText
 10
171.3326991244221
 20
114.5
 30
0.0
 40
7.0
 41
0.0
 71
     5
 72
     1
  1
68
  7
CONVERTER_12
 73
     1
 44
0.7202881152461
  0
MTEXT
  5
26C
330
1F
100
AcDbEntity
  8
1
 62
     7
100
AcDbMText
 10
171.3326991244221
 20
128.5
 30
0.0
 40
7.0
 41
0.0
 71
     5
 72
     1
  1
57
  7
CONVERTER_12
 73
     1
 44
0.7202881152461
  0
MTEXT
  5
26D
330
1F
100
AcDbEntity
  8
1
 62
     2
100
AcDbMText
 10
171.3326991244221
 20
142.5
 30
0.0
 40
7.0
 41
0.0
 71
     5
 72
     1
  1
B
  7
CONVERTER_12
 73
     1
 44
0.7202881152461
  0
MTEXT
  5
26E
330
1F
100
AcDbEntity
  8
1
 62
     2
100
AcDbMText
 10
92.8326991244221
 20
142.5
 30
0.0
 40
7.0
 41
0.0
 71
     5
 72
     1
  1
品番
  7
CONVERTER_11
 73
     1
 44
0.54545454545455
  0
MTEXT
  5
26F
330
1F
100
AcDbEntity
  8
1
 62
     7
100
AcDbMText
 10
92.8326991244221
 20
128.5
 30
0.0
 40
7.0
 41
0.0
 71
     5
 72
     1
  1
V180-40
  7
CONVERTER_12
 73
     1
 44
0.7202881152461
  0
MTEXT
  5
270
330
1F
100
AcDbEntity
  8
1
 62
     7
100
AcDbMText
 10
92.8326991244221
 20
114.5
 30
0.0
 40
7.0
 41
0.0
 71
     5
 72
     1
  1
V180-50
  7
CONVERTER_12
 73
     1
 44
0.7202881152461
  0
MTEXT
  5
271
330
1F
100
AcDbEntity
  8
1
 62
     2
100
AcDbMText
 10
138.8326991244221
 20
142.5
 30
0.0
 40
7.0
 41
0.0
 71
     5
 72
     1
  1
A（呼び）
  7
CONVERTER_11
 73
     1
 44
0.54545454545455
  0
MTEXT
  5
272
330
1F
100
AcDbEntity
  8
1
 62
     7
100
AcDbMText
 10
138.8326991244221
 20
128.5
 30
0.0
 40
7.0
 41
0.0
 71
     5
 72
     1
  1
40
  7
CONVERTER_12
 73
     1
 44
0.7202881152461
  0
MTEXT
  5
273
330
1F
100
AcDbEntity
  8
1
 62
     7
100
AcDbMText
 10
138.8326991244221
 20
114.5
 30
0.0
 40
7.0
 41
0.0
 71
     5
 72
     1
  1
50
  7
CONVERTER_12
 73
     1
 44
0.7202881152461
  0
MTEXT
  5
274
330
1F
100
AcDbEntity
  8
1
 62
     7
100
AcDbMText
 10
195.8326991244221
 20
128.5
 30
0.0
 40
7.0
 41
0.0
 71
     5
 72
     1
  1
43,6
  7
CONVERTER_12
 73
     1
 44
0.7202881152461
  0
MTEXT
  5
275
330
1F
100
AcDbEntity
  8
1
 62
     7
100
AcDbMText
 10
195.8326991244221
 20
114.5
 30
0.0
 40
7.0
 41
0.0
 71
     5
 72
     1
  1
55,6
  7
CONVERTER_12
 73
     1
 44
0.7202881152461
  0
MTEXT
  5
276
330
1F
100
AcDbEntity
  8
1
 62
     2
100
AcDbMText
 10
195.8326991244221
 20
142.5
 30
0.0
 40
7.0
 41
0.0
 71
     5
 72
     1
  1
{\Fgdt;n}E
  7
CONVERTER_12
 73
     1
 44
0.7202881152461
  0
MTEXT
  5
277
330
1F
100
AcDbEntity
  8
1
 62
     7
100
AcDbMText
 10
289.3326991244223
 20
128.5
 30
0.0
 40
7.0
 41
0.0
 71
     5
 72
     1
  1
155リフト13
  7
CONVERTER_11
 73
     1
 44
0.54545454545455
  0
MTEXT
  5
278
330
1F
100
AcDbEntity
  8
1
 62
     7
100
AcDbMText
 10
289.3326991244223
 20
114.5
 30
0.0
 40
7.0
 41
0.0
 71
     5
 72
     1
  1
170リフト18,5
  7
CONVERTER_11
 73
     1
 44
0.54545454545455
  0
MTEXT
  5
279
330
1F
100
AcDbEntity
  8
1
 62
     2
100
AcDbMText
 10
289.3326991244223
 20
142.5
 30
0.0
 40
7.0
 41
0.0
 71
     5
 72
     1
  1
H
  7
CONVERTER_12
 73
     1
 44
0.7202881152461
  0
MTEXT
  5
27A
330
1F
100
AcDbEntity
  8
1
 62
     7
100
AcDbMText
 10
363.8326991244227
 20
114.4999999999986
 30
0.0
 40
7.0
 41
0.0
 71
     5
 72
     1
  1
Rc2
  7
CONVERTER_12
 73
     1
 44
0.7202881152461
  0
MTEXT
  5
27B
330
1F
100
AcDbEntity
  8
1
 62
     2
100
AcDbMText
 10
363.8326991244227
 20
142.5000000000009
 30
0.0
 40
7.0
 41
0.0
 71
     5
 72
     1
  1
L
  7
CONVERTER_12
 73
     1
 44
0.7202881152461
  0
MTEXT
  5
27C
330
1F
100
AcDbEntity
  8
1
 62
     2
100
AcDbMText
 10
220.3326991244221
 20
142.5
 30
0.0
 40
7.0
 41
0.0
 71
     5
 72
     1
  1
{\Fgdt;n}F
  7
CONVERTER_12
 73
     1
 44
0.7202881152461
  0
MTEXT
  5
27D
330
1F
100
AcDbEntity
  8
1
 62
     7
100
AcDbMText
 10
220.3326991244221
 20
128.5
 30
0.0
 40
7.0
 41
0.0
 71
     5
 72
     1
  1
32,5
  7
CONVERTER_12
 73
     1
 44
0.7202881152461
  0
MTEXT
  5
27E
330
1F
100
AcDbEntity
  8
1
 62
     7
100
AcDbMText
 10
220.3326991244221
 20
114.5
 30
0.0
 40
7.0
 41
0.0
 71
     5
 72
     1
  1
44,5
  7
CONVERTER_12
 73
     1
 44
0.7202881152461
  0
MTEXT
  5
27F
330
1F
100
AcDbEntity
  8
1
 62
     2
100
AcDbMText
 10
245.3326991244221
 20
142.5
 30
0.0
 40
7.0
 41
0.0
 71
     5
 72
     1
  1
G
  7
CONVERTER_12
 73
     1
 44
0.7202881152461
  0
MTEXT
  5
280
330
1F
100
AcDbEntity
  8
1
 62
     7
100
AcDbMText
 10
245.3326991244221
 20
128.5
 30
0.0
 40
7.0
 41
0.0
 71
     5
 72
     1
  1
91
  7
CONVERTER_12
 73
     1
 44
0.7202881152461
  0
MTEXT
  5
281
330
1F
100
AcDbEntity
  8
1
 62
     7
100
AcDbMText
 10
245.3326991244221
 20
114.5
 30
0.0
 40
7.0
 41
0.0
 71
     5
 72
     1
  1
100
  7
CONVERTER_12
 73
     1
 44
0.7202881152461
  0
MTEXT
  5
282
330
1F
100
AcDbEntity
  8
1
 62
     7
100
AcDbMText
 10
170.5
 20
34.0
 30
0.0
 40
7.0
 41
0.0
 71
     5
 72
     1
  1
1
  7
CONVERTER_12
 73
     1
 44
0.7202881152461
  0
MTEXT
  5
283
330
1F
100
AcDbEntity
  8
1
 62
     7
100
AcDbMText
 10
187.5
 20
34.0
 30
0.0
 40
7.0
 41
0.0
 71
     5
 72
     1
  1
2
  7
CONVERTER_12
 73
     1
 44
0.7202881152461
  0
DIMENSION
  5
28E
330
1F
100
AcDbEntity
  8
1
100
AcDbDimension
  2
*D11
 10
267.7441151240429
 20
358.3503473399228
 30
0.0
 11
262.2441151240429
 21
301.3503473399228
 31
0.0
 70
    32
  1
H
 71
     5
 42
-1.0
 53
90.0
  3
ME10_DIM_10
100
AcDbAlignedDimension
 13
225.8381258916272
 23
244.3503473399228
 33
0.0
 14
244.7441151240429
 24
358.3503473399228
 34
0.0
 50
90.0
100
AcDbRotatedDimension
  0
DIMENSION
  5
299
330
1F
100
AcDbEntity
  8
1
100
AcDbDimension
  2
*D12
 10
157.7441151240429
 20
378.3503473399228
 30
0.0
 11
225.2441151240425
 21
383.8503473399228
 31
0.0
 70
    32
  1
<>
 71
     5
 42
-1.0
 53
0.00013888888889
  3
ME10_DIM_11
100
AcDbAlignedDimension
 13
247.7441151240429
 23
346.3503473399228
 33
0.0
 14
157.7441151240429
 24
346.3503473399228
 34
0.0
100
AcDbRotatedDimension
  0
DIMENSION
  5
2A4
330
1F
100
AcDbEntity
  8
1
100
AcDbDimension
  2
*D13
 10
98.94994129988258
 20
338.038424509672
 30
0.0
 11
106.0452967544707
 21
352.9119545573123
 31
0.0
 70
    33
  1
{\Fgdt;n}E
 71
     5
 42
-1.0
 53
45.00000000000024
  3
ME10_DIM_12
100
AcDbAlignedDimension
 13
153.3971634512472
 23
324.6033956671281
 33
0.0
 14
132.8910667968371
 24
304.0972990127178
 34
0.0
  0
DIMENSION
  5
2AF
330
1F
100
AcDbEntity
  8
1
100
AcDbDimension
  2
*D14
 10
113.4456303142056
 20
329.9066965260249
 30
0.0
 11
117.1316087985037
 21
341.3708496033758
 31
0.0
 70
    33
  1
{\Fgdt;n}F
 71
     5
 42
-1.0
 53
45.00000000000288
  3
ME10_DIM_13
100
AcDbAlignedDimension
 13
150.2151829359072
 23
321.421415151789
 33
0.0
 14
136.0730473121762
 24
307.2792795280566
 34
0.0
  0
DIMENSION
  5
2BA
330
1F
100
AcDbEntity
  8
1
100
AcDbDimension
  2
*D15
 10
302.7441151240421
 20
227.736985156613
 30
0.0
 11
323.009548838467
 21
233.236985156613
 31
0.0
 70
    33
  1
B
 71
     5
 42
-1.0
 53
0.00013888888889
  3
ME10_DIM_14
100
AcDbAlignedDimension
 13
342.7441151240421
 23
244.3503473399228
 33
0.0
 14
302.7441151240421
 24
244.3503473399228
 34
0.0
  0
DIMENSION
  5
2C5
330
1F
100
AcDbEntity
  8
1
100
AcDbDimension
  2
*D16
 10
143.1441151240423
 20
394.3503473399228
 30
0.0
 11
172.9441151240422
 21
399.8503473399228
 31
0.0
 70
    32
  1
J
 71
     5
 42
-1.0
 53
0.00013888888889
  3
ME10_DIM_15
100
AcDbAlignedDimension
 13
202.7441151240421
 23
360.3503473399228
 33
0.0
 14
143.1441151240422
 24
314.3503473399228
 34
0.0
100
AcDbRotatedDimension
  0
DIMENSION
  5
2D0
330
1F
100
AcDbEntity
  8
1
100
AcDbDimension
  2
*D17
 10
101.1245167120821
 20
244.3503473399228
 30
0.0
 11
95.62451671208208
 21
281.3960003321727
 31
0.0
 70
    32
  1
G
 71
     5
 42
-1.0
 53
90.0
  3
ME10_DIM_16
100
AcDbAlignedDimension
 13
143.1441151240422
 23
314.3503473399228
 33
0.0
 14
179.6536229781102
 24
244.3503473399228
 34
0.0
 50
90.0
100
AcDbRotatedDimension
  0
ENDSEC
  0
SECTION
  2
OBJECTS
  0
DICTIONARY
  5
C
330
0
100
AcDbDictionary
281
     1
  3
ACAD_GROUP
350
D
  3
ACAD_LAYOUT
350
1A
  3
ACAD_MATERIAL
350
3B
  3
ACAD_MLEADERSTYLE
350
2D3
  3
ACAD_MLINESTYLE
350
17
  3
ACAD_PLOTSETTINGS
350
19
  3
ACAD_PLOTSTYLENAME
350
E
  3
ACAD_VISUALSTYLE
350
2A
  3
AcDbVariableDictionary
350
2D1
  0
DICTIONARY
  5
D
102
{ACAD_REACTORS
330
C
102
}
330
C
100
AcDbDictionary
281
     1
  0
DICTIONARY
  5
1A
102
{ACAD_REACTORS
330
C
102
}
330
C
100
AcDbDictionary
281
     1
  3
Layout1
350
1E
  3
Layout2
350
26
  3
Model
350
22
  0
DICTIONARY
  5
3B
102
{ACAD_REACTORS
330
C
102
}
330
C
100
AcDbDictionary
281
     1
  3
ByBlock
350
3D
  3
ByLayer
350
3C
  3
Global
350
3E
  0
DICTIONARY
  5
2D3
102
{ACAD_REACTORS
330
C
102
}
330
C
100
AcDbDictionary
281
     1
  0
DICTIONARY
  5
17
102
{ACAD_REACTORS
330
C
102
}
330
C
100
AcDbDictionary
281
     1
  3
Standard
350
18
  0
DICTIONARY
  5
19
102
{ACAD_REACTORS
330
C
102
}
330
C
100
AcDbDictionary
281
     1
  0
ACDBDICTIONARYWDFLT
  5
E
102
{ACAD_REACTORS
330
C
102
}
330
C
100
AcDbDictionary
281
     1
  3
Normal
350
F
100
AcDbDictionaryWithDefault
340
F
  0
DICTIONARY
  5
2A
102
{ACAD_REACTORS
330
C
102
}
330
C
100
AcDbDictionary
281
     1
  3
2dWireframe
350
2F
  3
3D Hidden
350
31
  3
3dWireframe
350
30
  3
Basic
350
32
  3
Brighten
350
36
  3
ColorChange
350
3A
  3
Conceptual
350
34
  3
Dim
350
35
  3
Facepattern
350
39
  3
Flat
350
2B
  3
FlatWithEdges
350
2C
  3
Gouraud
350
2D
  3
GouraudWithEdges
350
2E
  3
Linepattern
350
38
  3
Realistic
350
33
  3
Thicken
350
37
  0
DICTIONARY
  5
2D1
102
{ACAD_REACTORS
330
C
102
}
330
C
100
AcDbDictionary
281
     1
  3
DIMASSOC
350
2D4
  3
HIDETEXT
350
2D5
  0
LAYOUT
  5
1E
102
{ACAD_REACTORS
330
1A
102
}
330
1A
100
AcDbPlotSettings
  1

  2
none_device
  4

  6

 40
0.0
 41
0.0
 42
0.0
 43
0.0
 44
0.0
 45
0.0
 46
0.0
 47
0.0
 48
0.0
 49
0.0
140
0.0
141
0.0
142
1.0
143
1.0
 70
   688
 72
     0
 73
     0
 74
     5
  7

 75
    16
147
1.0
148
0.0
149
0.0
100
AcDbLayout
  1
Layout1
 70
     1
 71
     1
 10
0.0
 20
0.0
 11
12.0
 21
9.0
 12
0.0
 22
0.0
 32
0.0
 14
1.00000000000000E+20
 24
1.00000000000000E+20
 34
1.00000000000000E+20
 15
-1.00000000000000E+20
 25
-1.00000000000000E+20
 35
-1.00000000000000E+20
146
0.0
 13
0.0
 23
0.0
 33
0.0
 16
1.0
 26
0.0
 36
0.0
 17
0.0
 27
1.0
 37
0.0
 76
     0
330
1B
  0
LAYOUT
  5
26
102
{ACAD_REACTORS
330
1A
102
}
330
1A
100
AcDbPlotSettings
  1

  2
none_device
  4

  6

 40
0.0
 41
0.0
 42
0.0
 43
0.0
 44
0.0
 45
0.0
 46
0.0
 47
0.0
 48
0.0
 49
0.0
140
0.0
141
0.0
142
1.0
143
1.0
 70
   688
 72
     0
 73
     0
 74
     5
  7

 75
    16
147
1.0
148
0.0
149
0.0
100
AcDbLayout
  1
Layout2
 70
     1
 71
     2
 10
0.0
 20
0.0
 11
0.0
 21
0.0
 12
0.0
 22
0.0
 32
0.0
 14
0.0
 24
0.0
 34
0.0
 15
0.0
 25
0.0
 35
0.0
146
0.0
 13
0.0
 23
0.0
 33
0.0
 16
1.0
 26
0.0
 36
0.0
 17
0.0
 27
1.0
 37
0.0
 76
     0
330
23
  0
LAYOUT
  5
22
102
{ACAD_REACTORS
330
1A
102
}
330
1A
100
AcDbPlotSettings
  1

  2
none_device
  4

  6

 40
0.0
 41
0.0
 42
0.0
 43
0.0
 44
0.0
 45
0.0
 46
0.0
 47
0.0
 48
0.0
 49
0.0
140
0.0
141
0.0
142
1.0
143
1.0
 70
  1712
 72
     0
 73
     0
 74
     0
  7

 75
     0
147
1.0
148
0.0
149
0.0
100
AcDbLayout
  1
Model
 70
     1
 71
     0
 10
0.0
 20
0.0
 11
12.0
 21
9.0
 12
0.0
 22
0.0
 32
0.0
 14
0.0
 24
0.0
 34
0.0
 15
420.0
 25
594.0
 35
0.0
146
0.0
 13
0.0
 23
0.0
 33
0.0
 16
1.0
 26
0.0
 36
0.0
 17
0.0
 27
1.0
 37
0.0
 76
     0
330
1F
331
29
  0
MATERIAL
  5
3D
102
{ACAD_REACTORS
330
3B
102
}
102
{ACAD_XDICTIONARY
360
2F8
102
}
330
3B
100
AcDbMaterial
  1
ByBlock
  0
MATERIAL
  5
3C
102
{ACAD_REACTORS
330
3B
102
}
102
{ACAD_XDICTIONARY
360
2F6
102
}
330
3B
100
AcDbMaterial
  1
ByLayer
  0
MATERIAL
  5
3E
102
{ACAD_REACTORS
330
3B
102
}
102
{ACAD_XDICTIONARY
360
2FA
102
}
330
3B
100
AcDbMaterial
  1
Global
  0
MLINESTYLE
  5
18
102
{ACAD_REACTORS
330
17
102
}
330
17
100
AcDbMlineStyle
  2
Standard
 70
     0
  3

 62
   256
 51
90.0
 52
90.0
 71
     2
 49
0.5
 62
   256
  6
BYLAYER
 49
-0.5
 62
   256
  6
BYLAYER
  0
ACDBPLACEHOLDER
  5
F
102
{ACAD_REACTORS
330
E
102
}
330
E
  0
VISUALSTYLE
  5
2F
102
{ACAD_REACTORS
330
2A
102
}
102
{ACAD_XDICTIONARY
360
2DE
102
}
330
2A
100
AcDbVisualStyle
  2
2dWireframe
 70
     4
 71
     0
 72
     2
 73
     0
 90
        0
 40
-0.6
 41
-30.0
 62
     5
 63
     7
 74
     1
 91
        4
 64
     7
 65
   257
 75
     1
175
     1
 42
1.0
 92
        0
 66
   257
 43
1.0
 76
     1
 77
     6
 78
     2
 67
     7
 79
     5
170
     0
171
     0
290
     0
174
     0
 93
        1
 44
0.0
173
     0
291
     0
 45
0.0
1001
ACAD
1000
AcDbSavedByObjectVersion
1070
     0
  0
VISUALSTYLE
  5
31
102
{ACAD_REACTORS
330
2A
102
}
102
{ACAD_XDICTIONARY
360
2E2
102
}
330
2A
100
AcDbVisualStyle
  2
3D Hidden
 70
     6
 71
     1
 72
     2
 73
     2
 90
        0
 40
-0.6
 41
-30.0
 62
     5
 63
     7
 74
     2
 91
        2
 64
     7
 65
   257
 75
     2
175
     1
 42
40.0
 92
        0
 66
   257
 43
1.0
 76
     1
 77
     6
 78
     2
 67
     7
 79
     3
170
     0
171
     0
290
     0
174
     0
 93
        1
 44
0.0
173
     0
291
     0
 45
0.0
1001
ACAD
1000
AcDbSavedByObjectVersion
1070
     0
  0
VISUALSTYLE
  5
30
102
{ACAD_REACTORS
330
2A
102
}
102
{ACAD_XDICTIONARY
360
2E0
102
}
330
2A
100
AcDbVisualStyle
  2
3dWireframe
 70
     5
 71
     0
 72
     2
 73
     0
 90
        0
 40
-0.6
 41
-30.0
 62
     5
 63
     7
 74
     1
 91
        4
 64
     7
 65
   257
 75
     1
175
     1
 42
1.0
 92
        0
 66
   257
 43
1.0
 76
     1
 77
     6
 78
     2
 67
     7
 79
     5
170
     0
171
     0
290
     0
174
     0
 93
        1
 44
0.0
173
     0
291
     0
 45
0.0
1001
ACAD
1000
AcDbSavedByObjectVersion
1070
     0
  0
VISUALSTYLE
  5
32
102
{ACAD_REACTORS
330
2A
102
}
102
{ACAD_XDICTIONARY
360
2E4
102
}
330
2A
100
AcDbVisualStyle
  2
Basic
 70
     7
 71
     1
 72
     0
 73
     1
 90
        0
 40
-0.6
 41
-30.0
 62
     5
 63
     7
 74
     0
 91
        4
 64
     7
 65
   257
 75
     1
175
     1
 42
1.0
 92
        8
 66
     7
 43
1.0
 76
     1
 77
     6
 78
     2
 67
     7
 79
     5
170
     0
171
     0
290
     0
174
     0
 93
        1
 44
0.0
173
     0
291
     1
 45
0.0
1001
ACAD
1000
AcDbSavedByObjectVersion
1070
     0
  0
VISUALSTYLE
  5
36
102
{ACAD_REACTORS
330
2A
102
}
102
{ACAD_XDICTIONARY
360
2EC
102
}
330
2A
100
AcDbVisualStyle
  2
Brighten
 70
    12
 71
     2
 72
     2
 73
     0
 90
        0
 40
-0.6
 41
-30.0
 62
     5
 63
     7
 74
     1
 91
        4
 64
     7
 65
   257
 75
     1
175
     1
 42
1.0
 92
        8
 66
     7
 43
1.0
 76
     1
 77
     6
 78
     2
 67
     7
 79
     5
170
     0
171
     0
290
     0
174
     0
 93
        1
 44
50.0
173
     0
291
     1
 45
0.0
1001
ACAD
1000
AcDbSavedByObjectVersion
1070
     0
  0
VISUALSTYLE
  5
3A
102
{ACAD_REACTORS
330
2A
102
}
102
{ACAD_XDICTIONARY
360
2F4
102
}
330
2A
100
AcDbVisualStyle
  2
ColorChange
 70
    16
 71
     2
 72
     2
 73
     3
 90
        0
 40
-0.6
 41
-30.0
 62
     5
 63
     8
 74
     1
 91
        4
 64
     7
 65
   257
 75
     1
175
     1
 42
1.0
 92
        8
 66
     8
 43
1.0
 76
     1
 77
     6
 78
     2
 67
     7
 79
     5
170
     0
171
     0
290
     0
174
     0
 93
        1
 44
0.0
173
     0
291
     1
 45
0.0
1001
ACAD
1000
AcDbSavedByObjectVersion
1070
     0
  0
VISUALSTYLE
  5
34
102
{ACAD_REACTORS
330
2A
102
}
102
{ACAD_XDICTIONARY
360
2E8
102
}
330
2A
100
AcDbVisualStyle
  2
Conceptual
 70
     9
 71
     3
 72
     2
 73
     0
 90
        0
 40
-0.6
 41
-30.0
 62
     5
 63
     7
 74
     2
 91
        2
 64
     7
 65
   257
 75
     1
175
     1
 42
40.0
 92
        8
 66
     7
 43
1.0
 76
     1
 77
     6
 78
     2
 67
     7
 79
     3
170
     0
171
     0
290
     0
174
     0
 93
        1
 44
0.0
173
     0
291
     0
 45
0.0
1001
ACAD
1000
AcDbSavedByObjectVersion
1070
     0
  0
VISUALSTYLE
  5
35
102
{ACAD_REACTORS
330
2A
102
}
102
{ACAD_XDICTIONARY
360
2EA
102
}
330
2A
100
AcDbVisualStyle
  2
Dim
 70
    11
 71
     2
 72
     2
 73
     0
 90
        0
 40
-0.6
 41
-30.0
 62
     5
 63
     7
 74
     1
 91
        4
 64
     7
 65
   257
 75
     1
175
     1
 42
1.0
 92
        8
 66
     7
 43
1.0
 76
     1
 77
     6
 78
     2
 67
     7
 79
     5
170
     0
171
     0
290
     0
174
     0
 93
        1
 44
-50.0
173
     0
291
     1
 45
0.0
1001
ACAD
1000
AcDbSavedByObjectVersion
1070
     0
  0
VISUALSTYLE
  5
39
102
{ACAD_REACTORS
330
2A
102
}
102
{ACAD_XDICTIONARY
360
2F2
102
}
330
2A
100
AcDbVisualStyle
  2
Facepattern
 70
    15
 71
     2
 72
     2
 73
     0
 90
        0
 40
-0.6
 41
-30.0
 62
     5
 63
     7
 74
     1
 91
        4
 64
     7
 65
   257
 75
     1
175
     1
 42
1.0
 92
        8
 66
     7
 43
1.0
 76
     1
 77
     6
 78
     2
 67
     7
 79
     5
170
     0
171
     0
290
     0
174
     0
 93
        1
 44
0.0
173
     0
291
     1
 45
0.0
1001
ACAD
1000
AcDbSavedByObjectVersion
1070
     0
  0
VISUALSTYLE
  5
2B
102
{ACAD_REACTORS
330
2A
102
}
102
{ACAD_XDICTIONARY
360
2D6
102
}
330
2A
100
AcDbVisualStyle
  2
Flat
 70
     0
 71
     2
 72
     1
 73
     1
 90
        2
 40
-0.6
 41
30.0
 62
     5
 63
     7
 74
     0
 91
        4
 64
     7
 65
   257
 75
     1
175
     1
 42
1.0
 92
        8
 66
     7
 43
1.0
 76
     1
 77
     6
 78
     2
 67
     7
 79
     5
170
     0
171
     0
290
     0
174
     0
 93
       13
 44
0.0
173
     0
291
     1
 45
0.0
1001
ACAD
1000
AcDbSavedByObjectVersion
1070
     0
  0
VISUALSTYLE
  5
2C
102
{ACAD_REACTORS
330
2A
102
}
102
{ACAD_XDICTIONARY
360
2D8
102
}
330
2A
100
AcDbVisualStyle
  2
FlatWithEdges
 70
     1
 71
     2
 72
     1
 73
     1
 90
        2
 40
-0.6
 41
30.0
 62
     5
 63
     7
 74
     1
 91
        4
 64
     7
 65
   257
 75
     1
175
     1
 42
1.0
 92
        0
 66
   257
 43
1.0
 76
     1
 77
     6
 78
     2
 67
     7
 79
     5
170
     0
171
     0
290
     0
174
     0
 93
       13
 44
0.0
173
     0
291
     1
 45
0.0
1001
ACAD
1000
AcDbSavedByObjectVersion
1070
     0
  0
VISUALSTYLE
  5
2D
102
{ACAD_REACTORS
330
2A
102
}
102
{ACAD_XDICTIONARY
360
2DA
102
}
330
2A
100
AcDbVisualStyle
  2
Gouraud
 70
     2
 71
     2
 72
     2
 73
     1
 90
        2
 40
-0.6
 41
30.0
 62
     5
 63
     7
 74
     0
 91
        4
 64
     7
 65
   257
 75
     1
175
     1
 42
1.0
 92
        0
 66
     7
 43
1.0
 76
     1
 77
     6
 78
     2
 67
     7
 79
     5
170
     0
171
     0
290
     0
174
     0
 93
       13
 44
0.0
173
     0
291
     1
 45
0.0
1001
ACAD
1000
AcDbSavedByObjectVersion
1070
     0
  0
VISUALSTYLE
  5
2E
102
{ACAD_REACTORS
330
2A
102
}
102
{ACAD_XDICTIONARY
360
2DC
102
}
330
2A
100
AcDbVisualStyle
  2
GouraudWithEdges
 70
     3
 71
     2
 72
     2
 73
     1
 90
        2
 40
-0.6
 41
30.0
 62
     5
 63
     7
 74
     1
 91
        4
 64
     7
 65
   257
 75
     1
175
     1
 42
1.0
 92
        0
 66
   257
 43
1.0
 76
     1
 77
     6
 78
     2
 67
     7
 79
     5
170
     0
171
     0
290
     0
174
     0
 93
       13
 44
0.0
173
     0
291
     1
 45
0.0
1001
ACAD
1000
AcDbSavedByObjectVersion
1070
     0
  0
VISUALSTYLE
  5
38
102
{ACAD_REACTORS
330
2A
102
}
102
{ACAD_XDICTIONARY
360
2F0
102
}
330
2A
100
AcDbVisualStyle
  2
Linepattern
 70
    14
 71
     2
 72
     2
 73
     0
 90
        0
 40
-0.6
 41
-30.0
 62
     5
 63
     7
 74
     1
 91
        4
 64
     7
 65
   257
 75
     7
175
     7
 42
1.0
 92
        8
 66
     7
 43
1.0
 76
     1
 77
     6
 78
     2
 67
     7
 79
     5
170
     0
171
     0
290
     0
174
     0
 93
        1
 44
0.0
173
     0
291
     1
 45
0.0
1001
ACAD
1000
AcDbSavedByObjectVersion
1070
     0
  0
VISUALSTYLE
  5
33
102
{ACAD_REACTORS
330
2A
102
}
102
{ACAD_XDICTIONARY
360
2E6
102
}
330
2A
100
AcDbVisualStyle
  2
Realistic
 70
     8
 71
     2
 72
     2
 73
     0
 90
        0
 40
-0.6
 41
-30.0
 62
     5
 63
     7
 74
     1
 91
        0
 64
     7
 65
   257
 75
     1
175
     1
 42
1.0
 92
        8
 66
     8
 43
1.0
 76
     1
 77
     6
 78
     2
 67
     7
 79
     5
170
     0
171
     0
290
     0
174
     0
 93
       13
 44
0.0
173
     0
291
     0
 45
0.0
1001
ACAD
1000
AcDbSavedByObjectVersion
1070
     0
  0
VISUALSTYLE
  5
37
102
{ACAD_REACTORS
330
2A
102
}
102
{ACAD_XDICTIONARY
360
2EE
102
}
330
2A
100
AcDbVisualStyle
  2
Thicken
 70
    13
 71
     2
 72
     2
 73
     0
 90
        0
 40
-0.6
 41
-30.0
 62
     5
 63
     7
 74
     1
 91
        4
 64
     7
 65
   257
 75
     1
175
     1
 42
1.0
 92
       12
 66
     7
 43
1.0
 76
     1
 77
     6
 78
     2
 67
     7
 79
     5
170
     0
171
     0
290
     0
174
     0
 93
        1
 44
0.0
173
     0
291
     1
 45
0.0
1001
ACAD
1000
AcDbSavedByObjectVersion
1070
     0
  0
DICTIONARYVAR
  5
2D4
102
{ACAD_REACTORS
330
2D1
102
}
330
2D1
100
DictionaryVariables
280
     0
  1
2
  0
DICTIONARYVAR
  5
2D5
102
{ACAD_REACTORS
330
2D1
102
}
330
2D1
100
DictionaryVariables
280
     0
  1
1
  0
DICTIONARY
  5
2F8
330
3D
100
AcDbDictionary
280
     1
281
     1
  3
ACAD_XREC_ROUNDTRIP
360
2F9
  0
DICTIONARY
  5
2F6
330
3C
100
AcDbDictionary
280
     1
281
     1
  3
ACAD_XREC_ROUNDTRIP
360
2F7
  0
DICTIONARY
  5
2FA
330
3E
100
AcDbDictionary
280
     1
281
     1
  3
ACAD_XREC_ROUNDTRIP
360
2FB
  0
DICTIONARY
  5
2DE
330
2F
100
AcDbDictionary
280
     1
281
     1
  3
ACAD_XREC_ROUNDTRIP
360
2DF
  0
DICTIONARY
  5
2E2
330
31
100
AcDbDictionary
280
     1
281
     1
  3
ACAD_XREC_ROUNDTRIP
360
2E3
  0
DICTIONARY
  5
2E0
330
30
100
AcDbDictionary
280
     1
281
     1
  3
ACAD_XREC_ROUNDTRIP
360
2E1
  0
DICTIONARY
  5
2E4
330
32
100
AcDbDictionary
280
     1
281
     1
  3
ACAD_XREC_ROUNDTRIP
360
2E5
  0
DICTIONARY
  5
2EC
330
36
100
AcDbDictionary
280
     1
281
     1
  3
ACAD_XREC_ROUNDTRIP
360
2ED
  0
DICTIONARY
  5
2F4
330
3A
100
AcDbDictionary
280
     1
281
     1
  3
ACAD_XREC_ROUNDTRIP
360
2F5
  0
DICTIONARY
  5
2E8
330
34
100
AcDbDictionary
280
     1
281
     1
  3
ACAD_XREC_ROUNDTRIP
360
2E9
  0
DICTIONARY
  5
2EA
330
35
100
AcDbDictionary
280
     1
281
     1
  3
ACAD_XREC_ROUNDTRIP
360
2EB
  0
DICTIONARY
  5
2F2
330
39
100
AcDbDictionary
280
     1
281
     1
  3
ACAD_XREC_ROUNDTRIP
360
2F3
  0
DICTIONARY
  5
2D6
330
2B
100
AcDbDictionary
280
     1
281
     1
  3
ACAD_XREC_ROUNDTRIP
360
2D7
  0
DICTIONARY
  5
2D8
330
2C
100
AcDbDictionary
280
     1
281
     1
  3
ACAD_XREC_ROUNDTRIP
360
2D9
  0
DICTIONARY
  5
2DA
330
2D
100
AcDbDictionary
280
     1
281
     1
  3
ACAD_XREC_ROUNDTRIP
360
2DB
  0
DICTIONARY
  5
2DC
330
2E
100
AcDbDictionary
280
     1
281
     1
  3
ACAD_XREC_ROUNDTRIP
360
2DD
  0
DICTIONARY
  5
2F0
330
38
100
AcDbDictionary
280
     1
281
     1
  3
ACAD_XREC_ROUNDTRIP
360
2F1
  0
DICTIONARY
  5
2E6
330
33
100
AcDbDictionary
280
     1
281
     1
  3
ACAD_XREC_ROUNDTRIP
360
2E7
  0
DICTIONARY
  5
2EE
330
37
100
AcDbDictionary
280
     1
281
     1
  3
ACAD_XREC_ROUNDTRIP
360
2EF
  0
XRECORD
  5
2F9
102
{ACAD_REACTORS
330
2F8
102
}
330
2F8
100
AcDbXrecord
280
     1
102
MATERIAL
148
0.0
149
0.0
149
0.0
 93
        0
 94
      127
282
     0
 72
     1
 77
     1
171
     1
175
     1
179
     1
273
     0
  0
XRECORD
  5
2F7
102
{ACAD_REACTORS
330
2F6
102
}
330
2F6
100
AcDbXrecord
280
     1
102
MATERIAL
148
0.0
149
0.0
149
0.0
 93
        0
 94
      127
282
     0
 72
     1
 77
     1
171
     1
175
     1
179
     1
273
     0
  0
XRECORD
  5
2FB
102
{ACAD_REACTORS
330
2FA
102
}
330
2FA
100
AcDbXrecord
280
     1
102
MATERIAL
148
0.0
149
0.0
149
0.0
 93
        0
 94
      127
282
     0
 72
     1
 77
     1
171
     1
175
     1
179
     1
273
     0
  0
XRECORD
  5
2DF
102
{ACAD_REACTORS
330
2DE
102
}
330
2DE
100
AcDbXrecord
280
     1
102
RTVSPropertyOp0
 70
     1
102
RTVSPropertyOp1
 70
     1
102
RTVSPropertyOp2
 70
     1
102
RTVSPropertyOp3
 70
     1
102
RTVSPropertyOp4
 70
     1
102
RTVSPropertyOp5
 70
     1
102
RTVSPropertyOp6
 70
     1
102
RTVSPropertyOp7
 70
     1
102
RTVSPropertyOp8
 70
     1
102
RTVSPropertyOp9
 70
     1
102
RTVSPropertyOp10
 70
     1
102
RTVSPropertyOp11
 70
     1
102
RTVSPropertyOp12
 70
     1
102
RTVSPropertyOp13
 70
     1
102
RTVSPropertyOp14
 70
     1
102
RTVSPropertyOp15
 70
     1
102
RTVSPropertyOp16
 70
     1
102
RTVSPropertyOp17
 70
     1
102
RTVSPropertyOp18
 70
     1
102
RTVSPropertyOp19
 70
     1
102
RTVSPropertyOp20
 70
     1
102
RTVSPropertyOp21
 70
     1
102
RTVSPropertyOp22
 70
     1
102
RTVSPropertyOp23
 70
     1
102
RTVSPropertyOp24
 70
     1
102
RTVSPropertyOp25
 70
     1
102
RTVSPropertyOp26
 70
     1
102
RTVSPropertyOp27
 70
     1
102
RTVSPropertyOp28
 70
     1
102
RTVSPropertyOp29
 70
     1
102
RTVSPropertyOp30
 70
     1
102
RTVSPropertyOp31
 70
     1
102
RTVSPropertyOp32
 70
     1
  0
XRECORD
  5
2E3
102
{ACAD_REACTORS
330
2E2
102
}
330
2E2
100
AcDbXrecord
280
     1
102
RTVSPropertyOp0
 70
     1
102
RTVSPropertyOp1
 70
     1
102
RTVSPropertyOp2
 70
     1
102
RTVSPropertyOp3
 70
     1
102
RTVSPropertyOp4
 70
     1
102
RTVSPropertyOp5
 70
     1
102
RTVSPropertyOp6
 70
     1
102
RTVSPropertyOp7
 70
     1
102
RTVSPropertyOp8
 70
     1
102
RTVSPropertyOp9
 70
     1
102
RTVSPropertyOp10
 70
     1
102
RTVSPropertyOp11
 70
     1
102
RTVSPropertyOp12
 70
     1
102
RTVSPropertyOp13
 70
     1
102
RTVSPropertyOp14
 70
     1
102
RTVSPropertyOp15
 70
     1
102
RTVSPropertyOp16
 70
     1
102
RTVSPropertyOp17
 70
     1
102
RTVSPropertyOp18
 70
     1
102
RTVSPropertyOp19
 70
     1
102
RTVSPropertyOp20
 70
     1
102
RTVSPropertyOp21
 70
     1
102
RTVSPropertyOp22
 70
     1
102
RTVSPropertyOp23
 70
     1
102
RTVSPropertyOp24
 70
     1
102
RTVSPropertyOp25
 70
     1
102
RTVSPropertyOp26
 70
     1
102
RTVSPropertyOp27
 70
     1
102
RTVSPropertyOp28
 70
     1
102
RTVSPropertyOp29
 70
     1
102
RTVSPropertyOp30
 70
     1
102
RTVSPropertyOp31
 70
     1
102
RTVSPropertyOp32
 70
     1
  0
XRECORD
  5
2E1
102
{ACAD_REACTORS
330
2E0
102
}
330
2E0
100
AcDbXrecord
280
     1
102
RTVSPropertyOp0
 70
     1
102
RTVSPropertyOp1
 70
     1
102
RTVSPropertyOp2
 70
     1
102
RTVSPropertyOp3
 70
     1
102
RTVSPropertyOp4
 70
     1
102
RTVSPropertyOp5
 70
     1
102
RTVSPropertyOp6
 70
     1
102
RTVSPropertyOp7
 70
     1
102
RTVSPropertyOp8
 70
     1
102
RTVSPropertyOp9
 70
     1
102
RTVSPropertyOp10
 70
     1
102
RTVSPropertyOp11
 70
     1
102
RTVSPropertyOp12
 70
     1
102
RTVSPropertyOp13
 70
     1
102
RTVSPropertyOp14
 70
     1
102
RTVSPropertyOp15
 70
     1
102
RTVSPropertyOp16
 70
     1
102
RTVSPropertyOp17
 70
     1
102
RTVSPropertyOp18
 70
     1
102
RTVSPropertyOp19
 70
     1
102
RTVSPropertyOp20
 70
     1
102
RTVSPropertyOp21
 70
     1
102
RTVSPropertyOp22
 70
     1
102
RTVSPropertyOp23
 70
     1
102
RTVSPropertyOp24
 70
     1
102
RTVSPropertyOp25
 70
     1
102
RTVSPropertyOp26
 70
     1
102
RTVSPropertyOp27
 70
     1
102
RTVSPropertyOp28
 70
     1
102
RTVSPropertyOp29
 70
     1
102
RTVSPropertyOp30
 70
     1
102
RTVSPropertyOp31
 70
     1
102
RTVSPropertyOp32
 70
     1
  0
XRECORD
  5
2E5
102
{ACAD_REACTORS
330
2E4
102
}
330
2E4
100
AcDbXrecord
280
     1
102
RTVSPropertyOp0
 70
     1
102
RTVSPropertyOp1
 70
     1
102
RTVSPropertyOp2
 70
     1
102
RTVSPropertyOp3
 70
     1
102
RTVSPropertyOp4
 70
     1
102
RTVSPropertyOp5
 70
     1
102
RTVSPropertyOp6
 70
     1
102
RTVSPropertyOp7
 70
     1
102
RTVSPropertyOp8
 70
     1
102
RTVSPropertyOp9
 70
     1
102
RTVSPropertyOp10
 70
     1
102
RTVSPropertyOp11
 70
     1
102
RTVSPropertyOp12
 70
     1
102
RTVSPropertyOp13
 70
     1
102
RTVSPropertyOp14
 70
     1
102
RTVSPropertyOp15
 70
     1
102
RTVSPropertyOp16
 70
     1
102
RTVSPropertyOp17
 70
     1
102
RTVSPropertyOp18
 70
     1
102
RTVSPropertyOp19
 70
     1
102
RTVSPropertyOp20
 70
     1
102
RTVSPropertyOp21
 70
     1
102
RTVSPropertyOp22
 70
     1
102
RTVSPropertyOp23
 70
     1
102
RTVSPropertyOp24
 70
     1
102
RTVSPropertyOp25
 70
     1
102
RTVSPropertyOp26
 70
     1
102
RTVSPropertyOp27
 70
     1
102
RTVSPropertyOp28
 70
     1
102
RTVSPropertyOp29
 70
     1
102
RTVSPropertyOp30
 70
     1
102
RTVSPropertyOp31
 70
     1
102
RTVSPropertyOp32
 70
     1
  0
XRECORD
  5
2ED
102
{ACAD_REACTORS
330
2EC
102
}
330
2EC
100
AcDbXrecord
280
     1
102
RTVSPropertyOp0
 70
     1
102
RTVSPropertyOp1
 70
     1
102
RTVSPropertyOp2
 70
     1
102
RTVSPropertyOp3
 70
     1
102
RTVSPropertyOp4
 70
     1
102
RTVSPropertyOp5
 70
     1
102
RTVSPropertyOp6
 70
     1
102
RTVSPropertyOp7
 70
     1
102
RTVSPropertyOp8
 70
     1
102
RTVSPropertyOp9
 70
     1
102
RTVSPropertyOp10
 70
     1
102
RTVSPropertyOp11
 70
     1
102
RTVSPropertyOp12
 70
     1
102
RTVSPropertyOp13
 70
     1
102
RTVSPropertyOp14
 70
     1
102
RTVSPropertyOp15
 70
     1
102
RTVSPropertyOp16
 70
     1
102
RTVSPropertyOp17
 70
     1
102
RTVSPropertyOp18
 70
     1
102
RTVSPropertyOp19
 70
     1
102
RTVSPropertyOp20
 70
     1
102
RTVSPropertyOp21
 70
     1
102
RTVSPropertyOp22
 70
     1
102
RTVSPropertyOp23
 70
     1
102
RTVSPropertyOp24
 70
     1
102
RTVSPropertyOp25
 70
     1
102
RTVSPropertyOp26
 70
     1
102
RTVSPropertyOp27
 70
     1
102
RTVSPropertyOp28
 70
     1
102
RTVSPropertyOp29
 70
     1
102
RTVSPropertyOp30
 70
     1
102
RTVSPropertyOp31
 70
     1
102
RTVSPropertyOp32
 70
     1
  0
XRECORD
  5
2F5
102
{ACAD_REACTORS
330
2F4
102
}
330
2F4
100
AcDbXrecord
280
     1
102
RTVSPropertyOp0
 70
     1
102
RTVSPropertyOp1
 70
     1
102
RTVSPropertyOp2
 70
     1
102
RTVSPropertyOp3
 70
     1
102
RTVSPropertyOp4
 70
     1
102
RTVSPropertyOp5
 70
     1
102
RTVSPropertyOp6
 70
     1
102
RTVSPropertyOp7
 70
     1
102
RTVSPropertyOp8
 70
     1
102
RTVSPropertyOp9
 70
     1
102
RTVSPropertyOp10
 70
     1
102
RTVSPropertyOp11
 70
     1
102
RTVSPropertyOp12
 70
     1
102
RTVSPropertyOp13
 70
     1
102
RTVSPropertyOp14
 70
     1
102
RTVSPropertyOp15
 70
     1
102
RTVSPropertyOp16
 70
     1
102
RTVSPropertyOp17
 70
     1
102
RTVSPropertyOp18
 70
     1
102
RTVSPropertyOp19
 70
     1
102
RTVSPropertyOp20
 70
     1
102
RTVSPropertyOp21
 70
     1
102
RTVSPropertyOp22
 70
     1
102
RTVSPropertyOp23
 70
     1
102
RTVSPropertyOp24
 70
     1
102
RTVSPropertyOp25
 70
     1
102
RTVSPropertyOp26
 70
     1
102
RTVSPropertyOp27
 70
     1
102
RTVSPropertyOp28
 70
     1
102
RTVSPropertyOp29
 70
     1
102
RTVSPropertyOp30
 70
     1
102
RTVSPropertyOp31
 70
     1
102
RTVSPropertyOp32
 70
     1
  0
XRECORD
  5
2E9
102
{ACAD_REACTORS
330
2E8
102
}
330
2E8
100
AcDbXrecord
280
     1
102
RTVSPropertyOp0
 70
     1
102
RTVSPropertyOp1
 70
     1
102
RTVSPropertyOp2
 70
     1
102
RTVSPropertyOp3
 70
     1
102
RTVSPropertyOp4
 70
     1
102
RTVSPropertyOp5
 70
     1
102
RTVSPropertyOp6
 70
     1
102
RTVSPropertyOp7
 70
     1
102
RTVSPropertyOp8
 70
     1
102
RTVSPropertyOp9
 70
     1
102
RTVSPropertyOp10
 70
     1
102
RTVSPropertyOp11
 70
     1
102
RTVSPropertyOp12
 70
     1
102
RTVSPropertyOp13
 70
     1
102
RTVSPropertyOp14
 70
     1
102
RTVSPropertyOp15
 70
     1
102
RTVSPropertyOp16
 70
     1
102
RTVSPropertyOp17
 70
     1
102
RTVSPropertyOp18
 70
     1
102
RTVSPropertyOp19
 70
     1
102
RTVSPropertyOp20
 70
     1
102
RTVSPropertyOp21
 70
     1
102
RTVSPropertyOp22
 70
     1
102
RTVSPropertyOp23
 70
     1
102
RTVSPropertyOp24
 70
     1
102
RTVSPropertyOp25
 70
     1
102
RTVSPropertyOp26
 70
     1
102
RTVSPropertyOp27
 70
     1
102
RTVSPropertyOp28
 70
     1
102
RTVSPropertyOp29
 70
     1
102
RTVSPropertyOp30
 70
     1
102
RTVSPropertyOp31
 70
     1
102
RTVSPropertyOp32
 70
     1
  0
XRECORD
  5
2EB
102
{ACAD_REACTORS
330
2EA
102
}
330
2EA
100
AcDbXrecord
280
     1
102
RTVSPropertyOp0
 70
     1
102
RTVSPropertyOp1
 70
     1
102
RTVSPropertyOp2
 70
     1
102
RTVSPropertyOp3
 70
     1
102
RTVSPropertyOp4
 70
     1
102
RTVSPropertyOp5
 70
     1
102
RTVSPropertyOp6
 70
     1
102
RTVSPropertyOp7
 70
     1
102
RTVSPropertyOp8
 70
     1
102
RTVSPropertyOp9
 70
     1
102
RTVSPropertyOp10
 70
     1
102
RTVSPropertyOp11
 70
     1
102
RTVSPropertyOp12
 70
     1
102
RTVSPropertyOp13
 70
     1
102
RTVSPropertyOp14
 70
     1
102
RTVSPropertyOp15
 70
     1
102
RTVSPropertyOp16
 70
     1
102
RTVSPropertyOp17
 70
     1
102
RTVSPropertyOp18
 70
     1
102
RTVSPropertyOp19
 70
     1
102
RTVSPropertyOp20
 70
     1
102
RTVSPropertyOp21
 70
     1
102
RTVSPropertyOp22
 70
     1
102
RTVSPropertyOp23
 70
     1
102
RTVSPropertyOp24
 70
     1
102
RTVSPropertyOp25
 70
     1
102
RTVSPropertyOp26
 70
     1
102
RTVSPropertyOp27
 70
     1
102
RTVSPropertyOp28
 70
     1
102
RTVSPropertyOp29
 70
     1
102
RTVSPropertyOp30
 70
     1
102
RTVSPropertyOp31
 70
     1
102
RTVSPropertyOp32
 70
     1
  0
XRECORD
  5
2F3
102
{ACAD_REACTORS
330
2F2
102
}
330
2F2
100
AcDbXrecord
280
     1
102
RTVSPropertyOp0
 70
     1
102
RTVSPropertyOp1
 70
     1
102
RTVSPropertyOp2
 70
     1
102
RTVSPropertyOp3
 70
     1
102
RTVSPropertyOp4
 70
     1
102
RTVSPropertyOp5
 70
     1
102
RTVSPropertyOp6
 70
     1
102
RTVSPropertyOp7
 70
     1
102
RTVSPropertyOp8
 70
     1
102
RTVSPropertyOp9
 70
     1
102
RTVSPropertyOp10
 70
     1
102
RTVSPropertyOp11
 70
     1
102
RTVSPropertyOp12
 70
     1
102
RTVSPropertyOp13
 70
     1
102
RTVSPropertyOp14
 70
     1
102
RTVSPropertyOp15
 70
     1
102
RTVSPropertyOp16
 70
     1
102
RTVSPropertyOp17
 70
     1
102
RTVSPropertyOp18
 70
     1
102
RTVSPropertyOp19
 70
     1
102
RTVSPropertyOp20
 70
     1
102
RTVSPropertyOp21
 70
     1
102
RTVSPropertyOp22
 70
     1
102
RTVSPropertyOp23
 70
     1
102
RTVSPropertyOp24
 70
     1
102
RTVSPropertyOp25
 70
     1
102
RTVSPropertyOp26
 70
     1
102
RTVSPropertyOp27
 70
     1
102
RTVSPropertyOp28
 70
     1
102
RTVSPropertyOp29
 70
     1
102
RTVSPropertyOp30
 70
     1
102
RTVSPropertyOp31
 70
     1
102
RTVSPropertyOp32
 70
     1
  0
XRECORD
  5
2D7
102
{ACAD_REACTORS
330
2D6
102
}
330
2D6
100
AcDbXrecord
280
     1
102
RTVSPropertyOp0
 70
     1
102
RTVSPropertyOp1
 70
     1
102
RTVSPropertyOp2
 70
     1
102
RTVSPropertyOp3
 70
     1
102
RTVSPropertyOp4
 70
     1
102
RTVSPropertyOp5
 70
     1
102
RTVSPropertyOp6
 70
     1
102
RTVSPropertyOp7
 70
     1
102
RTVSPropertyOp8
 70
     1
102
RTVSPropertyOp9
 70
     1
102
RTVSPropertyOp10
 70
     1
102
RTVSPropertyOp11
 70
     1
102
RTVSPropertyOp12
 70
     1
102
RTVSPropertyOp13
 70
     1
102
RTVSPropertyOp14
 70
     1
102
RTVSPropertyOp15
 70
     1
102
RTVSPropertyOp16
 70
     1
102
RTVSPropertyOp17
 70
     1
102
RTVSPropertyOp18
 70
     1
102
RTVSPropertyOp19
 70
     1
102
RTVSPropertyOp20
 70
     1
102
RTVSPropertyOp21
 70
     1
102
RTVSPropertyOp22
 70
     1
102
RTVSPropertyOp23
 70
     1
102
RTVSPropertyOp24
 70
     1
102
RTVSPropertyOp25
 70
     1
102
RTVSPropertyOp26
 70
     1
102
RTVSPropertyOp27
 70
     1
102
RTVSPropertyOp28
 70
     1
102
RTVSPropertyOp29
 70
     1
102
RTVSPropertyOp30
 70
     1
102
RTVSPropertyOp31
 70
     1
102
RTVSPropertyOp32
 70
     1
  0
XRECORD
  5
2D9
102
{ACAD_REACTORS
330
2D8
102
}
330
2D8
100
AcDbXrecord
280
     1
102
RTVSPropertyOp0
 70
     1
102
RTVSPropertyOp1
 70
     1
102
RTVSPropertyOp2
 70
     1
102
RTVSPropertyOp3
 70
     1
102
RTVSPropertyOp4
 70
     1
102
RTVSPropertyOp5
 70
     1
102
RTVSPropertyOp6
 70
     1
102
RTVSPropertyOp7
 70
     1
102
RTVSPropertyOp8
 70
     1
102
RTVSPropertyOp9
 70
     1
102
RTVSPropertyOp10
 70
     1
102
RTVSPropertyOp11
 70
     1
102
RTVSPropertyOp12
 70
     1
102
RTVSPropertyOp13
 70
     1
102
RTVSPropertyOp14
 70
     1
102
RTVSPropertyOp15
 70
     1
102
RTVSPropertyOp16
 70
     1
102
RTVSPropertyOp17
 70
     1
102
RTVSPropertyOp18
 70
     1
102
RTVSPropertyOp19
 70
     1
102
RTVSPropertyOp20
 70
     1
102
RTVSPropertyOp21
 70
     1
102
RTVSPropertyOp22
 70
     1
102
RTVSPropertyOp23
 70
     1
102
RTVSPropertyOp24
 70
     1
102
RTVSPropertyOp25
 70
     1
102
RTVSPropertyOp26
 70
     1
102
RTVSPropertyOp27
 70
     1
102
RTVSPropertyOp28
 70
     1
102
RTVSPropertyOp29
 70
     1
102
RTVSPropertyOp30
 70
     1
102
RTVSPropertyOp31
 70
     1
102
RTVSPropertyOp32
 70
     1
  0
XRECORD
  5
2DB
102
{ACAD_REACTORS
330
2DA
102
}
330
2DA
100
AcDbXrecord
280
     1
102
RTVSPropertyOp0
 70
     1
102
RTVSPropertyOp1
 70
     1
102
RTVSPropertyOp2
 70
     1
102
RTVSPropertyOp3
 70
     1
102
RTVSPropertyOp4
 70
     1
102
RTVSPropertyOp5
 70
     1
102
RTVSPropertyOp6
 70
     1
102
RTVSPropertyOp7
 70
     1
102
RTVSPropertyOp8
 70
     1
102
RTVSPropertyOp9
 70
     1
102
RTVSPropertyOp10
 70
     1
102
RTVSPropertyOp11
 70
     1
102
RTVSPropertyOp12
 70
     1
102
RTVSPropertyOp13
 70
     1
102
RTVSPropertyOp14
 70
     1
102
RTVSPropertyOp15
 70
     1
102
RTVSPropertyOp16
 70
     1
102
RTVSPropertyOp17
 70
     1
102
RTVSPropertyOp18
 70
     1
102
RTVSPropertyOp19
 70
     1
102
RTVSPropertyOp20
 70
     1
102
RTVSPropertyOp21
 70
     1
102
RTVSPropertyOp22
 70
     1
102
RTVSPropertyOp23
 70
     1
102
RTVSPropertyOp24
 70
     1
102
RTVSPropertyOp25
 70
     1
102
RTVSPropertyOp26
 70
     1
102
RTVSPropertyOp27
 70
     1
102
RTVSPropertyOp28
 70
     1
102
RTVSPropertyOp29
 70
     1
102
RTVSPropertyOp30
 70
     1
102
RTVSPropertyOp31
 70
     1
102
RTVSPropertyOp32
 70
     1
  0
XRECORD
  5
2DD
102
{ACAD_REACTORS
330
2DC
102
}
330
2DC
100
AcDbXrecord
280
     1
102
RTVSPropertyOp0
 70
     1
102
RTVSPropertyOp1
 70
     1
102
RTVSPropertyOp2
 70
     1
102
RTVSPropertyOp3
 70
     1
102
RTVSPropertyOp4
 70
     1
102
RTVSPropertyOp5
 70
     1
102
RTVSPropertyOp6
 70
     1
102
RTVSPropertyOp7
 70
     1
102
RTVSPropertyOp8
 70
     1
102
RTVSPropertyOp9
 70
     1
102
RTVSPropertyOp10
 70
     1
102
RTVSPropertyOp11
 70
     1
102
RTVSPropertyOp12
 70
     1
102
RTVSPropertyOp13
 70
     1
102
RTVSPropertyOp14
 70
     1
102
RTVSPropertyOp15
 70
     1
102
RTVSPropertyOp16
 70
     1
102
RTVSPropertyOp17
 70
     1
102
RTVSPropertyOp18
 70
     1
102
RTVSPropertyOp19
 70
     1
102
RTVSPropertyOp20
 70
     1
102
RTVSPropertyOp21
 70
     1
102
RTVSPropertyOp22
 70
     1
102
RTVSPropertyOp23
 70
     1
102
RTVSPropertyOp24
 70
     1
102
RTVSPropertyOp25
 70
     1
102
RTVSPropertyOp26
 70
     1
102
RTVSPropertyOp27
 70
     1
102
RTVSPropertyOp28
 70
     1
102
RTVSPropertyOp29
 70
     1
102
RTVSPropertyOp30
 70
     1
102
RTVSPropertyOp31
 70
     1
102
RTVSPropertyOp32
 70
     1
  0
XRECORD
  5
2F1
102
{ACAD_REACTORS
330
2F0
102
}
330
2F0
100
AcDbXrecord
280
     1
102
RTVSPropertyOp0
 70
     1
102
RTVSPropertyOp1
 70
     1
102
RTVSPropertyOp2
 70
     1
102
RTVSPropertyOp3
 70
     1
102
RTVSPropertyOp4
 70
     1
102
RTVSPropertyOp5
 70
     1
102
RTVSPropertyOp6
 70
     1
102
RTVSPropertyOp7
 70
     1
102
RTVSPropertyOp8
 70
     1
102
RTVSPropertyOp9
 70
     1
102
RTVSPropertyOp10
 70
     1
102
RTVSPropertyOp11
 70
     1
102
RTVSPropertyOp12
 70
     1
102
RTVSPropertyOp13
 70
     1
102
RTVSPropertyOp14
 70
     1
102
RTVSPropertyOp15
 70
     1
102
RTVSPropertyOp16
 70
     1
102
RTVSPropertyOp17
 70
     1
102
RTVSPropertyOp18
 70
     1
102
RTVSPropertyOp19
 70
     1
102
RTVSPropertyOp20
 70
     1
102
RTVSPropertyOp21
 70
     1
102
RTVSPropertyOp22
 70
     1
102
RTVSPropertyOp23
 70
     1
102
RTVSPropertyOp24
 70
     1
102
RTVSPropertyOp25
 70
     1
102
RTVSPropertyOp26
 70
     1
102
RTVSPropertyOp27
 70
     1
102
RTVSPropertyOp28
 70
     1
102
RTVSPropertyOp29
 70
     1
102
RTVSPropertyOp30
 70
     1
102
RTVSPropertyOp31
 70
     1
102
RTVSPropertyOp32
 70
     1
  0
XRECORD
  5
2E7
102
{ACAD_REACTORS
330
2E6
102
}
330
2E6
100
AcDbXrecord
280
     1
102
RTVSPropertyOp0
 70
     1
102
RTVSPropertyOp1
 70
     1
102
RTVSPropertyOp2
 70
     1
102
RTVSPropertyOp3
 70
     1
102
RTVSPropertyOp4
 70
     1
102
RTVSPropertyOp5
 70
     1
102
RTVSPropertyOp6
 70
     1
102
RTVSPropertyOp7
 70
     1
102
RTVSPropertyOp8
 70
     1
102
RTVSPropertyOp9
 70
     1
102
RTVSPropertyOp10
 70
     1
102
RTVSPropertyOp11
 70
     1
102
RTVSPropertyOp12
 70
     1
102
RTVSPropertyOp13
 70
     1
102
RTVSPropertyOp14
 70
     1
102
RTVSPropertyOp15
 70
     1
102
RTVSPropertyOp16
 70
     1
102
RTVSPropertyOp17
 70
     1
102
RTVSPropertyOp18
 70
     1
102
RTVSPropertyOp19
 70
     1
102
RTVSPropertyOp20
 70
     1
102
RTVSPropertyOp21
 70
     1
102
RTVSPropertyOp22
 70
     1
102
RTVSPropertyOp23
 70
     1
102
RTVSPropertyOp24
 70
     1
102
RTVSPropertyOp25
 70
     1
102
RTVSPropertyOp26
 70
     1
102
RTVSPropertyOp27
 70
     1
102
RTVSPropertyOp28
 70
     1
102
RTVSPropertyOp29
 70
     1
102
RTVSPropertyOp30
 70
     1
102
RTVSPropertyOp31
 70
     1
102
RTVSPropertyOp32
 70
     1
  0
XRECORD
  5
2EF
102
{ACAD_REACTORS
330
2EE
102
}
330
2EE
100
AcDbXrecord
280
     1
102
RTVSPropertyOp0
 70
     1
102
RTVSPropertyOp1
 70
     1
102
RTVSPropertyOp2
 70
     1
102
RTVSPropertyOp3
 70
     1
102
RTVSPropertyOp4
 70
     1
102
RTVSPropertyOp5
 70
     1
102
RTVSPropertyOp6
 70
     1
102
RTVSPropertyOp7
 70
     1
102
RTVSPropertyOp8
 70
     1
102
RTVSPropertyOp9
 70
     1
102
RTVSPropertyOp10
 70
     1
102
RTVSPropertyOp11
 70
     1
102
RTVSPropertyOp12
 70
     1
102
RTVSPropertyOp13
 70
     1
102
RTVSPropertyOp14
 70
     1
102
RTVSPropertyOp15
 70
     1
102
RTVSPropertyOp16
 70
     1
102
RTVSPropertyOp17
 70
     1
102
RTVSPropertyOp18
 70
     1
102
RTVSPropertyOp19
 70
     1
102
RTVSPropertyOp20
 70
     1
102
RTVSPropertyOp21
 70
     1
102
RTVSPropertyOp22
 70
     1
102
RTVSPropertyOp23
 70
     1
102
RTVSPropertyOp24
 70
     1
102
RTVSPropertyOp25
 70
     1
102
RTVSPropertyOp26
 70
     1
102
RTVSPropertyOp27
 70
     1
102
RTVSPropertyOp28
 70
     1
102
RTVSPropertyOp29
 70
     1
102
RTVSPropertyOp30
 70
     1
102
RTVSPropertyOp31
 70
     1
102
RTVSPropertyOp32
 70
     1
  0
ENDSEC
  0
EOF
