  0
SECTION
  2
HEADER
  9
$ACADVER
  1
AC1015
  9
$ACADMAINTVER
 70
     6
  9
$DWGCODEPAGE
  3
ANSI_932
  9
$INSBASE
 10
0.0
 20
0.0
 30
0.0
  9
$EXTMIN
 10
0.0
 20
0.0
 30
0.0
  9
$EXTMAX
 10
420.0
 20
594.0
 30
0.0
  9
$LIMMIN
 10
0.0
 20
0.0
  9
$LIMMAX
 10
12.0
 20
9.0
  9
$ORTHOMODE
 70
     0
  9
$REGENMODE
 70
     1
  9
$FILLMODE
 70
     1
  9
$QTEXTMODE
 70
     0
  9
$MIRRTEXT
 70
     1
  9
$LTSCALE
 40
1.0
  9
$ATTMODE
 70
     1
  9
$TEXTSIZE
 40
0.2
  9
$TRACEWID
 40
0.05
  9
$TEXTSTYLE
  7
Standard
  9
$CLAYER
  8
0
  9
$CELTYPE
  6
ByLayer
  9
$CECOLOR
 62
   256
  9
$CELTSCALE
 40
1.0
  9
$DISPSILH
 70
     0
  9
$DIMSCALE
 40
1.0
  9
$DIMASZ
 40
0.18
  9
$DIMEXO
 40
0.0625
  9
$DIMDLI
 40
0.38
  9
$DIMRND
 40
0.0
  9
$DIMDLE
 40
0.0
  9
$DIMEXE
 40
0.18
  9
$DIMTP
 40
0.0
  9
$DIMTM
 40
0.0
  9
$DIMTXT
 40
0.18
  9
$DIMCEN
 40
0.09
  9
$DIMTSZ
 40
0.0
  9
$DIMTOL
 70
     0
  9
$DIMLIM
 70
     0
  9
$DIMTIH
 70
     1
  9
$DIMTOH
 70
     1
  9
$DIMSE1
 70
     0
  9
$DIMSE2
 70
     0
  9
$DIMTAD
 70
     0
  9
$DIMZIN
 70
     0
  9
$DIMBLK
  1

  9
$DIMASO
 70
     1
  9
$DIMSHO
 70
     1
  9
$DIMPOST
  1

  9
$DIMAPOST
  1

  9
$DIMALT
 70
     0
  9
$DIMALTD
 70
     2
  9
$DIMALTF
 40
25.4
  9
$DIMLFAC
 40
1.0
  9
$DIMTOFL
 70
     0
  9
$DIMTVP
 40
0.0
  9
$DIMTIX
 70
     0
  9
$DIMSOXD
 70
     0
  9
$DIMSAH
 70
     0
  9
$DIMBLK1
  1

  9
$DIMBLK2
  1

  9
$DIMSTYLE
  2
Standard
  9
$DIMCLRD
 70
     0
  9
$DIMCLRE
 70
     0
  9
$DIMCLRT
 70
     0
  9
$DIMTFAC
 40
1.0
  9
$DIMGAP
 40
0.09
  9
$DIMJUST
 70
     0
  9
$DIMSD1
 70
     0
  9
$DIMSD2
 70
     0
  9
$DIMTOLJ
 70
     1
  9
$DIMTZIN
 70
     0
  9
$DIMALTZ
 70
     0
  9
$DIMALTTZ
 70
     0
  9
$DIMUPT
 70
     0
  9
$DIMDEC
 70
     4
  9
$DIMTDEC
 70
     4
  9
$DIMALTU
 70
     2
  9
$DIMALTTD
 70
     2
  9
$DIMTXSTY
  7
Standard
  9
$DIMAUNIT
 70
     0
  9
$DIMADEC
 70
     0
  9
$DIMALTRND
 40
0.0
  9
$DIMAZIN
 70
     0
  9
$DIMDSEP
 70
    46
  9
$DIMATFIT
 70
     3
  9
$DIMFRAC
 70
     0
  9
$DIMLDRBLK
  1

  9
$DIMLUNIT
 70
     2
  9
$DIMLWD
 70
    -2
  9
$DIMLWE
 70
    -2
  9
$DIMTMOVE
 70
     0
  9
$LUNITS
 70
     2
  9
$LUPREC
 70
     4
  9
$SKETCHINC
 40
0.1
  9
$FILLETRAD
 40
0.5
  9
$AUNITS
 70
     0
  9
$AUPREC
 70
     0
  9
$MENU
  1
.
  9
$ELEVATION
 40
0.0
  9
$PELEVATION
 40
0.0
  9
$THICKNESS
 40
0.0
  9
$LIMCHECK
 70
     0
  9
$CHAMFERA
 40
0.5
  9
$CHAMFERB
 40
0.5
  9
$CHAMFERC
 40
1.0
  9
$CHAMFERD
 40
0.0
  9
$SKPOLY
 70
     0
  9
$TDCREATE
 40
2457529.432931829
  9
$TDUCREATE
 40
2457529.057931829
  9
$TDUPDATE
 40
2457529.43293309
  9
$TDUUPDATE
 40
2457529.05793309
  9
$TDINDWG
 40
0.0000000116
  9
$TDUSRTIMER
 40
0.0000000116
  9
$USRTIMER
 70
     1
  9
$ANGBASE
 50
0.0
  9
$ANGDIR
 70
     0
  9
$PDMODE
 70
     0
  9
$PDSIZE
 40
0.0
  9
$PLINEWID
 40
0.0
  9
$SPLFRAME
 70
     0
  9
$SPLINETYPE
 70
     6
  9
$SPLINESEGS
 70
     8
  9
$HANDSEED
  5
2F1
  9
$SURFTAB1
 70
     6
  9
$SURFTAB2
 70
     6
  9
$SURFTYPE
 70
     6
  9
$SURFU
 70
     6
  9
$SURFV
 70
     6
  9
$UCSBASE
  2

  9
$UCSNAME
  2

  9
$UCSORG
 10
0.0
 20
0.0
 30
0.0
  9
$UCSXDIR
 10
1.0
 20
0.0
 30
0.0
  9
$UCSYDIR
 10
0.0
 20
1.0
 30
0.0
  9
$UCSORTHOREF
  2

  9
$UCSORTHOVIEW
 70
     0
  9
$UCSORGTOP
 10
0.0
 20
0.0
 30
0.0
  9
$UCSORGBOTTOM
 10
0.0
 20
0.0
 30
0.0
  9
$UCSORGLEFT
 10
0.0
 20
0.0
 30
0.0
  9
$UCSORGRIGHT
 10
0.0
 20
0.0
 30
0.0
  9
$UCSORGFRONT
 10
0.0
 20
0.0
 30
0.0
  9
$UCSORGBACK
 10
0.0
 20
0.0
 30
0.0
  9
$PUCSBASE
  2

  9
$PUCSNAME
  2

  9
$PUCSORG
 10
0.0
 20
0.0
 30
0.0
  9
$PUCSXDIR
 10
1.0
 20
0.0
 30
0.0
  9
$PUCSYDIR
 10
0.0
 20
1.0
 30
0.0
  9
$PUCSORTHOREF
  2

  9
$PUCSORTHOVIEW
 70
     0
  9
$PUCSORGTOP
 10
0.0
 20
0.0
 30
0.0
  9
$PUCSORGBOTTOM
 10
0.0
 20
0.0
 30
0.0
  9
$PUCSORGLEFT
 10
0.0
 20
0.0
 30
0.0
  9
$PUCSORGRIGHT
 10
0.0
 20
0.0
 30
0.0
  9
$PUCSORGFRONT
 10
0.0
 20
0.0
 30
0.0
  9
$PUCSORGBACK
 10
0.0
 20
0.0
 30
0.0
  9
$USERI1
 70
     0
  9
$USERI2
 70
     0
  9
$USERI3
 70
     0
  9
$USERI4
 70
     0
  9
$USERI5
 70
     0
  9
$USERR1
 40
18.1
  9
$USERR2
 40
0.0
  9
$USERR3
 40
0.0
  9
$USERR4
 40
0.0
  9
$USERR5
 40
0.0
  9
$WORLDVIEW
 70
     1
  9
$SHADEDGE
 70
     3
  9
$SHADEDIF
 70
    70
  9
$TILEMODE
 70
     1
  9
$MAXACTVP
 70
    64
  9
$PINSBASE
 10
0.0
 20
0.0
 30
0.0
  9
$PLIMCHECK
 70
     0
  9
$PEXTMIN
 10
1.00000000000000E+20
 20
1.00000000000000E+20
 30
1.00000000000000E+20
  9
$PEXTMAX
 10
-1.00000000000000E+20
 20
-1.00000000000000E+20
 30
-1.00000000000000E+20
  9
$PLIMMIN
 10
0.0
 20
0.0
  9
$PLIMMAX
 10
12.0
 20
9.0
  9
$UNITMODE
 70
     0
  9
$VISRETAIN
 70
     1
  9
$PLINEGEN
 70
     0
  9
$PSLTSCALE
 70
     1
  9
$TREEDEPTH
 70
  3020
  9
$CMLSTYLE
  2
Standard
  9
$CMLJUST
 70
     0
  9
$CMLSCALE
 40
1.0
  9
$PROXYGRAPHICS
 70
     1
  9
$MEASUREMENT
 70
     1
  9
$CELWEIGHT
370
    -1
  9
$ENDCAPS
280
     0
  9
$JOINSTYLE
280
     0
  9
$LWDISPLAY
290
     0
  9
$INSUNITS
 70
     4
  9
$HYPERLINKBASE
  1

  9
$STYLESHEET
  1

  9
$XEDIT
290
     1
  9
$CEPSNTYPE
380
     0
  9
$PSTYLEMODE
290
     1
  9
$FINGERPRINTGUID
  2
{F7BA6CFC-806D-4D08-87CA-9187A72EC2C7}
  9
$VERSIONGUID
  2
{FAEB1C32-E019-11D5-929B-00C0DF256EC4}
  9
$EXTNAMES
290
     1
  9
$PSVPSCALE
 40
0.0
  9
$OLESTARTUP
290
     0
  0
ENDSEC
  0
SECTION
  2
CLASSES
  0
CLASS
  1
ACDBDICTIONARYWDFLT
  2
AcDbDictionaryWithDefault
  3
ObjectDBX Classes
 90
        0
280
     0
281
     0
  0
CLASS
  1
VISUALSTYLE
  2
AcDbVisualStyle
  3
ObjectDBX Classes
 90
     4095
280
     0
281
     0
  0
CLASS
  1
MATERIAL
  2
AcDbMaterial
  3
ObjectDBX Classes
 90
     1153
280
     0
281
     0
  0
CLASS
  1
DICTIONARYVAR
  2
AcDbDictionaryVar
  3
ObjectDBX Classes
 90
        0
280
     0
281
     0
  0
CLASS
  1
ACDBPLACEHOLDER
  2
AcDbPlaceHolder
  3
ObjectDBX Classes
 90
        0
280
     0
281
     0
  0
CLASS
  1
LAYOUT
  2
AcDbLayout
  3
ObjectDBX Classes
 90
        0
280
     0
281
     0
  0
ENDSEC
  0
SECTION
  2
TABLES
  0
TABLE
  2
VPORT
  5
8
330
0
100
AcDbSymbolTable
 70
     1
  0
VPORT
  5
29
330
8
100
AcDbSymbolTableRecord
100
AcDbViewportTableRecord
  2
*Active
 70
     0
 10
0.0
 20
0.0
 11
1.0
 21
1.0
 12
210.0
 22
297.0
 13
0.0
 23
0.0
 14
0.5
 24
0.5
 15
0.5
 25
0.5
 16
0.0
 26
0.0
 36
1.0
 17
0.0
 27
0.0
 37
0.0
 40
653.4000000000001
 41
1.60267857142857
 42
50.0
 43
0.0
 44
0.0
 50
0.0
 51
0.0
 71
     0
 72
   100
 73
     1
 74
     3
 75
     0
 76
     0
 77
     0
 78
     0
281
     0
 65
     1
110
0.0
120
0.0
130
0.0
111
1.0
121
0.0
131
0.0
112
0.0
122
1.0
132
0.0
 79
     0
146
0.0
  0
ENDTAB
  0
TABLE
  2
LTYPE
  5
5
330
0
100
AcDbSymbolTable
 70
     8
  0
LTYPE
  5
14
330
5
100
AcDbSymbolTableRecord
100
AcDbLinetypeTableRecord
  2
ByBlock
 70
     0
  3

 72
    65
 73
     0
 40
0.0
  0
LTYPE
  5
15
330
5
100
AcDbSymbolTableRecord
100
AcDbLinetypeTableRecord
  2
ByLayer
 70
     0
  3

 72
    65
 73
     0
 40
0.0
  0
LTYPE
  5
16
330
5
100
AcDbSymbolTableRecord
100
AcDbLinetypeTableRecord
  2
Continuous
 70
     0
  3
Solid line
 72
    65
 73
     0
 40
0.0
  0
LTYPE
  5
3F
330
5
100
AcDbSymbolTableRecord
100
AcDbLinetypeTableRecord
  2
DASHED
 70
     0
  3
Dashed
 72
    65
 73
     2
 40
15.0
 49
7.0
 74
     0
 49
-8.0
 74
     0
  0
LTYPE
  5
40
330
5
100
AcDbSymbolTableRecord
100
AcDbLinetypeTableRecord
  2
DOTTED
 70
     0
  3
Dotted
 72
    65
 73
     2
 40
1.0
 49
0.0
 74
     0
 49
-1.0
 74
     0
  0
LTYPE
  5
41
330
5
100
AcDbSymbolTableRecord
100
AcDbLinetypeTableRecord
  2
DOT_CENTER
 70
     0
  3
Dot_Center
 72
    65
 73
     4
 40
14.0
 49
12.0
 74
     0
 49
-1.0
 74
     0
 49
0.0
 74
     0
 49
-1.0
 74
     0
  0
LTYPE
  5
42
330
5
100
AcDbSymbolTableRecord
100
AcDbLinetypeTableRecord
  2
LONG_DASHED
 70
     0
  3
Long_Dashed
 72
    65
 73
     2
 40
15.0
 49
10.0
 74
     0
 49
-5.0
 74
     0
  0
LTYPE
  5
43
330
5
100
AcDbSymbolTableRecord
100
AcDbLinetypeTableRecord
  2
DASH_CENTER
 70
     0
  3
Dash_Center
 72
    65
 73
     4
 40
14.0
 49
11.0
 74
     0
 49
-1.0
 74
     0
 49
1.0
 74
     0
 49
-1.0
 74
     0
  0
LTYPE
  5
44
330
5
100
AcDbSymbolTableRecord
100
AcDbLinetypeTableRecord
  2
PHANTOM
 70
     0
  3
Phantom
 72
    65
 73
     6
 40
13.0
 49
10.0
 74
     0
 49
-1.0
 74
     0
 49
0.0
 74
     0
 49
-1.0
 74
     0
 49
0.0
 74
     0
 49
-1.0
 74
     0
  0
LTYPE
  5
45
330
5
100
AcDbSymbolTableRecord
100
AcDbLinetypeTableRecord
  2
CENTER_DASH_DASH
 70
     0
  3
Center_Dash_Dash
 72
    65
 73
     6
 40
14.0
 49
9.0
 74
     0
 49
-1.0
 74
     0
 49
1.0
 74
     0
 49
-1.0
 74
     0
 49
1.0
 74
     0
 49
-1.0
 74
     0
  0
ENDTAB
  0
TABLE
  2
LAYER
  5
2
330
0
100
AcDbSymbolTable
 70
     2
  0
LAYER
  5
10
330
2
100
AcDbSymbolTableRecord
100
AcDbLayerTableRecord
  2
0
 70
     0
 62
     7
  6
Continuous
370
    -3
390
F
  0
LAYER
  5
46
330
2
100
AcDbSymbolTableRecord
100
AcDbLayerTableRecord
  2
1
 70
     0
 62
     7
  6
Continuous
370
    -3
390
F
  0
ENDTAB
  0
TABLE
  2
STYLE
  5
3
330
0
100
AcDbSymbolTable
 70
     3
  0
STYLE
  5
11
330
3
100
AcDbSymbolTableRecord
100
AcDbTextStyleTableRecord
  2
Standard
 70
     0
 40
0.0
 41
1.0
 50
0.0
 71
     0
 42
0.2
  3
txt
  4

  0
STYLE
  5
BA
330
3
100
AcDbSymbolTableRecord
100
AcDbTextStyleTableRecord
  2
CONVERTER_11
 70
     0
 40
0.0
 41
0.89
 50
0.0
 71
     0
 42
0.2
  3
MS Mincho.ttf
  4

1001
ACAD
1000
MS Mincho
1071
    32785
  0
STYLE
  5
256
330
3
100
AcDbSymbolTableRecord
100
AcDbTextStyleTableRecord
  2
CONVERTER_12
 70
     0
 40
0.0
 41
0.9
 50
0.0
 71
     0
 42
0.2
  3
txt.shx
  4

  0
ENDTAB
  0
TABLE
  2
VIEW
  5
6
330
0
100
AcDbSymbolTable
 70
     0
  0
ENDTAB
  0
TABLE
  2
UCS
  5
7
330
0
100
AcDbSymbolTable
 70
     0
  0
ENDTAB
  0
TABLE
  2
APPID
  5
9
330
0
100
AcDbSymbolTable
 70
     1
  0
APPID
  5
12
330
9
100
AcDbSymbolTableRecord
100
AcDbRegAppTableRecord
  2
ACAD
 70
     0
  0
ENDTAB
  0
TABLE
  2
DIMSTYLE
  5
A
330
0
100
AcDbSymbolTable
 70
     8
100
AcDbDimStyleTable
  0
DIMSTYLE
105
27
330
A
100
AcDbSymbolTableRecord
100
AcDbDimStyleTableRecord
  2
Standard
 70
     0
178
     0
340
11
  0
DIMSTYLE
105
281
102
{ACAD_REACTORS
330
282
102
}
330
A
100
AcDbSymbolTableRecord
100
AcDbDimStyleTableRecord
  2
ME10_DIM_10
 70
     0
 41
7.0
 42
0.0
 44
2.0
 73
     0
 74
     0
 77
     1
 78
     8
140
7.0
147
2.0
172
     1
173
     1
174
     1
175
     1
176
     2
177
     2
271
     2
178
     7
271
     2
340
256
  0
DIMSTYLE
105
28C
102
{ACAD_REACTORS
330
28D
102
}
330
A
100
AcDbSymbolTableRecord
100
AcDbDimStyleTableRecord
  2
ME10_DIM_11
 70
     0
 41
7.0
 42
0.0
 44
2.0
 73
     0
 74
     0
 77
     1
 78
     8
140
7.0
147
2.0
172
     1
173
     1
174
     1
175
     1
176
     2
177
     2
271
     2
178
     7
271
     2
340
256
  0
DIMSTYLE
105
297
102
{ACAD_REACTORS
330
298
102
}
330
A
100
AcDbSymbolTableRecord
100
AcDbDimStyleTableRecord
  2
ME10_DIM_12
 70
     0
 41
7.0
 42
0.0
 44
2.0
 73
     0
 74
     0
 77
     1
 78
     8
140
7.0
147
2.0
172
     1
173
     1
174
     1
175
     1
176
     2
177
     2
271
     2
178
     7
271
     2
340
256
  0
DIMSTYLE
105
2A2
102
{ACAD_REACTORS
330
2A3
102
}
330
A
100
AcDbSymbolTableRecord
100
AcDbDimStyleTableRecord
  2
ME10_DIM_13
 70
     0
 41
7.0
 42
0.0
 44
2.0
 73
     0
 74
     0
 77
     1
 78
     8
140
7.0
147
2.0
172
     1
173
     1
174
     1
175
     1
176
     2
177
     2
271
     2
178
     7
271
     2
340
256
  0
DIMSTYLE
105
2AD
102
{ACAD_REACTORS
330
2AE
102
}
330
A
100
AcDbSymbolTableRecord
100
AcDbDimStyleTableRecord
  2
ME10_DIM_14
 70
     0
 41
7.0
 42
0.0
 44
2.0
 73
     0
 74
     0
 77
     1
 78
     8
140
7.0
147
2.0
172
     1
173
     1
174
     1
175
     1
176
     2
177
     2
271
     2
178
     7
271
     2
340
256
  0
DIMSTYLE
105
2B9
102
{ACAD_REACTORS
330
2BA
102
}
330
A
100
AcDbSymbolTableRecord
100
AcDbDimStyleTableRecord
  2
ME10_DIM_15
 70
     0
  3
{\Fgdt;n}<>
 41
7.0
 42
0.0
 44
2.0
 73
     0
 74
     0
 77
     1
 78
     8
140
7.0
147
2.0
172
     1
173
     1
174
     1
175
     1
176
     2
177
     2
271
     2
178
     7
271
     2
340
256
  0
DIMSTYLE
105
2C4
102
{ACAD_REACTORS
330
2C5
102
}
330
A
100
AcDbSymbolTableRecord
100
AcDbDimStyleTableRecord
  2
ME10_DIM_16
 70
     0
  3
{\Fgdt;n}<>
 41
7.0
 42
0.0
 44
2.0
 73
     0
 74
     0
 77
     1
 78
     8
140
7.0
147
2.0
172
     1
173
     1
174
     1
175
     1
176
     2
177
     2
271
     2
178
     7
271
     2
340
256
  0
ENDTAB
  0
TABLE
  2
BLOCK_RECORD
  5
1
330
0
100
AcDbSymbolTable
 70
    18
  0
BLOCK_RECORD
  5
1F
330
1
100
AcDbSymbolTableRecord
100
AcDbBlockTableRecord
  2
*Model_Space
340
22
  0
BLOCK_RECORD
  5
1B
330
1
100
AcDbSymbolTableRecord
100
AcDbBlockTableRecord
  2
*Paper_Space
340
1E
  0
BLOCK_RECORD
  5
23
330
1
100
AcDbSymbolTableRecord
100
AcDbBlockTableRecord
  2
*Paper_Space0
340
26
  0
BLOCK_RECORD
  5
47
330
1
100
AcDbSymbolTableRecord
100
AcDbBlockTableRecord
  2
開示A4
340
0
102
{BLKREFS
331
65
102
}
  0
BLOCK_RECORD
  5
4A
330
1
100
AcDbSymbolTableRecord
100
AcDbBlockTableRecord
  2
V18-H11
340
0
102
{BLKREFS
331
66
102
}
  0
BLOCK_RECORD
  5
4D
330
1
100
AcDbSymbolTableRecord
100
AcDbBlockTableRecord
  2
V18-H12
340
0
102
{BLKREFS
331
67
102
}
  0
BLOCK_RECORD
  5
50
330
1
100
AcDbSymbolTableRecord
100
AcDbBlockTableRecord
  2
V18-H2
340
0
102
{BLKREFS
331
68
102
}
  0
BLOCK_RECORD
  5
53
330
1
100
AcDbSymbolTableRecord
100
AcDbBlockTableRecord
  2
V18-H3
340
0
102
{BLKREFS
331
69
102
}
  0
BLOCK_RECORD
  5
56
330
1
100
AcDbSymbolTableRecord
100
AcDbBlockTableRecord
  2
V18-H1
340
0
102
{BLKREFS
331
6A
102
}
  0
BLOCK_RECORD
  5
59
330
1
100
AcDbSymbolTableRecord
100
AcDbBlockTableRecord
  2
V18-H15
340
0
102
{BLKREFS
331
6B
102
}
  0
BLOCK_RECORD
  5
5C
330
1
100
AcDbSymbolTableRecord
100
AcDbBlockTableRecord
  2
V18-H7
340
0
102
{BLKREFS
331
6C
102
}
  0
BLOCK_RECORD
  5
5F
330
1
100
AcDbSymbolTableRecord
100
AcDbBlockTableRecord
  2
V18-H10
340
0
102
{BLKREFS
331
6D
102
}
  0
BLOCK_RECORD
  5
62
330
1
100
AcDbSymbolTableRecord
100
AcDbBlockTableRecord
  2
V18-H10-40_50
340
0
102
{BLKREFS
331
6E
102
}
  0
BLOCK_RECORD
  5
278
330
1
100
AcDbSymbolTableRecord
100
AcDbBlockTableRecord
  2
*D11
340
0
  0
BLOCK_RECORD
  5
283
330
1
100
AcDbSymbolTableRecord
100
AcDbBlockTableRecord
  2
*D12
340
0
  0
BLOCK_RECORD
  5
28E
330
1
100
AcDbSymbolTableRecord
100
AcDbBlockTableRecord
  2
*D13
340
0
  0
BLOCK_RECORD
  5
299
330
1
100
AcDbSymbolTableRecord
100
AcDbBlockTableRecord
  2
*D14
340
0
  0
BLOCK_RECORD
  5
2A4
330
1
100
AcDbSymbolTableRecord
100
AcDbBlockTableRecord
  2
*D15
340
0
  0
BLOCK_RECORD
  5
2AF
330
1
100
AcDbSymbolTableRecord
100
AcDbBlockTableRecord
  2
*D16
340
0
  0
BLOCK_RECORD
  5
2BB
330
1
100
AcDbSymbolTableRecord
100
AcDbBlockTableRecord
  2
*D17
340
0
  0
ENDTAB
  0
ENDSEC
  0
SECTION
  2
BLOCKS
  0
BLOCK
  5
20
330
1F
100
AcDbEntity
  8
0
100
AcDbBlockBegin
  2
*Model_Space
 70
     0
 10
0.0
 20
0.0
 30
0.0
  3
*Model_Space
  1

  0
ENDBLK
  5
21
330
1F
100
AcDbEntity
  8
0
100
AcDbBlockEnd
  0
BLOCK
  5
1C
330
1B
100
AcDbEntity
 67
     1
  8
0
100
AcDbBlockBegin
  2
*Paper_Space
 70
     0
 10
0.0
 20
0.0
 30
0.0
  3
*Paper_Space
  1

  0
ENDBLK
  5
1D
330
1B
100
AcDbEntity
 67
     1
  8
0
100
AcDbBlockEnd
  0
BLOCK
  5
24
330
23
100
AcDbEntity
  8
0
100
AcDbBlockBegin
  2
*Paper_Space0
 70
     0
 10
0.0
 20
0.0
 30
0.0
  3
*Paper_Space0
  1

  0
ENDBLK
  5
25
330
23
100
AcDbEntity
  8
0
100
AcDbBlockEnd
  0
BLOCK
  5
48
330
47
100
AcDbEntity
  8
0
100
AcDbBlockBegin
  2
開示A4
 70
     0
 10
0.0
 20
0.0
 30
0.0
  3
開示A4
  1

  0
POINT
  5
6F
330
47
100
AcDbEntity
  8
1
 62
     4
100
AcDbPoint
 10
93.75
 20
17.0
 30
0.0
  0
POINT
  5
70
330
47
100
AcDbEntity
  8
1
 62
     4
100
AcDbPoint
 10
85.25
 20
17.0
 30
0.0
  0
POINT
  5
71
330
47
100
AcDbEntity
  8
1
 62
     4
100
AcDbPoint
 10
106.5
 20
19.00000000000001
 30
0.0
  0
POINT
  5
72
330
47
100
AcDbEntity
  8
1
 62
     4
100
AcDbPoint
 10
106.5
 20
12.5
 30
0.0
  0
POINT
  5
73
330
47
100
AcDbEntity
  8
1
 62
     4
100
AcDbPoint
 10
112.25
 20
12.5
 30
0.0
  0
POINT
  5
74
330
47
100
AcDbEntity
  8
1
 62
     4
100
AcDbPoint
 10
100.75
 20
12.5
 30
0.0
  0
POINT
  5
75
330
47
100
AcDbEntity
  8
1
 62
     4
100
AcDbPoint
 10
123.5
 20
19.00000000000001
 30
0.0
  0
POINT
  5
76
330
47
100
AcDbEntity
  8
1
 62
     4
100
AcDbPoint
 10
123.5
 20
12.5
 30
0.0
  0
POINT
  5
77
330
47
100
AcDbEntity
  8
1
 62
     4
100
AcDbPoint
 10
129.25
 20
12.5
 30
0.0
  0
POINT
  5
78
330
47
100
AcDbEntity
  8
1
 62
     4
100
AcDbPoint
 10
117.75
 20
12.5
 30
0.0
  0
POINT
  5
79
330
47
100
AcDbEntity
  8
1
 62
     4
100
AcDbPoint
 10
140.5
 20
19.00000000000001
 30
0.0
  0
POINT
  5
7A
330
47
100
AcDbEntity
  8
1
 62
     4
100
AcDbPoint
 10
140.5
 20
12.5
 30
0.0
  0
POINT
  5
7B
330
47
100
AcDbEntity
  8
1
 62
     4
100
AcDbPoint
 10
146.25
 20
12.5
 30
0.0
  0
POINT
  5
7C
330
47
100
AcDbEntity
  8
1
 62
     4
100
AcDbPoint
 10
134.75
 20
12.5
 30
0.0
  0
POINT
  5
7D
330
47
100
AcDbEntity
  8
1
 62
     4
100
AcDbPoint
 10
151.75
 20
12.5
 30
0.0
  0
POINT
  5
7E
330
47
100
AcDbEntity
  8
1
 62
     4
100
AcDbPoint
 10
163.25
 20
12.5
 30
0.0
  0
POINT
  5
7F
330
47
100
AcDbEntity
  8
1
 62
     4
100
AcDbPoint
 10
157.5
 20
12.5
 30
0.0
  0
POINT
  5
80
330
47
100
AcDbEntity
  8
1
 62
     4
100
AcDbPoint
 10
57.0
 20
14.25
 30
0.0
  0
POINT
  5
81
330
47
100
AcDbEntity
  8
1
 62
     4
100
AcDbPoint
 10
57.0
 20
22.75000000000001
 30
0.0
  0
POINT
  5
82
330
47
100
AcDbEntity
  8
1
 62
     4
100
AcDbPoint
 10
47.5
 20
282.0000000000003
 30
0.0
  0
POINT
  5
83
330
47
100
AcDbEntity
  8
1
 62
     4
100
AcDbPoint
 10
157.5
 20
19.00000000000001
 30
0.0
  0
POINT
  5
84
330
47
100
AcDbEntity
  8
1
 62
     4
100
AcDbPoint
 10
57.0
 20
16.25
 30
0.0
  0
POINT
  5
85
330
47
100
AcDbEntity
  8
1
 62
     4
100
AcDbPoint
 10
57.0
 20
24.75000000000001
 30
0.0
  0
POINT
  5
86
330
47
100
AcDbEntity
  8
1
 62
     4
100
AcDbPoint
 10
57.0
 20
20.75000000000001
 30
0.0
  0
POINT
  5
87
330
47
100
AcDbEntity
  8
1
 62
     4
100
AcDbPoint
 10
57.0
 20
12.25
 30
0.0
  0
POINT
  5
88
330
47
100
AcDbEntity
  8
1
 62
     4
100
AcDbPoint
 10
34.0
 20
34.00000000000001
 30
0.0
  0
LINE
  5
89
330
47
100
AcDbEntity
  8
1
  6
Continuous
 62
     7
100
AcDbLine
 10
105.0
 20
10.0
 30
0.0
 11
200.0
 21
10.0
 31
0.0
  0
LINE
  5
8A
330
47
100
AcDbEntity
  8
1
  6
Continuous
 62
     2
100
AcDbLine
 10
105.0
 20
10.0
 30
0.0
 11
105.0
 21
5.0
 31
0.0
  0
LINE
  5
8B
330
47
100
AcDbEntity
  8
1
  6
Continuous
 62
     7
100
AcDbLine
 10
200.0
 20
148.5
 30
0.0
 11
200.0
 21
287.0000000000003
 31
0.0
  0
LINE
  5
8C
330
47
100
AcDbEntity
  8
1
  6
Continuous
 62
     2
100
AcDbLine
 10
200.0
 20
148.5
 30
0.0
 11
205.0
 21
148.5
 31
0.0
  0
LINE
  5
8D
330
47
100
AcDbEntity
  8
1
  6
Continuous
 62
     7
100
AcDbLine
 10
25.0
 20
148.5
 30
0.0
 11
25.0
 21
287.0000000000003
 31
0.0
  0
LINE
  5
8E
330
47
100
AcDbEntity
  8
1
  6
Continuous
 62
     2
100
AcDbLine
 10
25.0
 20
148.5
 30
0.0
 11
20.0
 21
148.5
 31
0.0
  0
LINE
  5
8F
330
47
100
AcDbEntity
  8
1
  6
Continuous
 62
     7
100
AcDbLine
 10
105.0
 20
287.0000000000003
 30
0.0
 11
25.0
 21
287.0000000000003
 31
0.0
  0
LINE
  5
90
330
47
100
AcDbEntity
  8
1
  6
Continuous
 62
     2
100
AcDbLine
 10
105.0
 20
287.0000000000003
 30
0.0
 11
105.0
 21
292.0000000000003
 31
0.0
  0
LINE
  5
91
330
47
100
AcDbEntity
  8
1
  6
Continuous
 62
     2
100
AcDbLine
 10
166.0
 20
20.00000000000001
 30
0.0
 11
200.0
 21
20.00000000000001
 31
0.0
  0
LINE
  5
92
330
47
100
AcDbEntity
  8
1
  6
Continuous
 62
     2
100
AcDbLine
 10
98.0
 20
27.00000000000001
 30
0.0
 11
98.0
 21
9.99999999999999
 31
0.0
  0
LINE
  5
93
330
47
100
AcDbEntity
  8
1
  6
Continuous
 62
     2
100
AcDbLine
 10
115.0
 20
27.00000000000001
 30
0.0
 11
115.0
 21
9.99999999999999
 31
0.0
  0
LINE
  5
94
330
47
100
AcDbEntity
  8
1
  6
Continuous
 62
     2
100
AcDbLine
 10
149.0
 20
27.00000000000001
 30
0.0
 11
149.0
 21
10.0
 31
0.0
  0
LINE
  5
95
330
47
100
AcDbEntity
  8
1
  6
Continuous
 62
     2
100
AcDbLine
 10
132.0
 20
27.00000000000001
 30
0.0
 11
132.0
 21
9.99999999999999
 31
0.0
  0
LINE
  5
96
330
47
100
AcDbEntity
  8
1
  6
Continuous
 62
     2
100
AcDbLine
 10
166.0
 20
27.00000000000001
 30
0.0
 11
166.0
 21
10.0
 31
0.0
  0
LINE
  5
97
330
47
100
AcDbEntity
  8
1
  6
Continuous
 62
     2
100
AcDbLine
 10
55.0
 20
277.0000000000003
 30
0.0
 11
25.0
 21
277.0000000000003
 31
0.0
  0
LINE
  5
98
330
47
100
AcDbEntity
  8
1
  6
Continuous
 62
     7
100
AcDbLine
 10
25.0
 20
10.0
 30
0.0
 11
25.0
 21
148.5
 31
0.0
  0
LINE
  5
99
330
47
100
AcDbEntity
  8
1
  6
Continuous
 62
     2
100
AcDbLine
 10
40.0
 20
287.0000000000003
 30
0.0
 11
40.0
 21
277.0000000000003
 31
0.0
  0
LINE
  5
9A
330
47
100
AcDbEntity
  8
1
  6
Continuous
 62
     2
100
AcDbLine
 10
55.0
 20
287.0000000000003
 30
0.0
 11
55.0
 21
277.0000000000003
 31
0.0
  0
LINE
  5
9B
330
47
100
AcDbEntity
  8
1
  6
Continuous
 62
     2
100
AcDbLine
 10
33.0
 20
41.00000000000001
 30
0.0
 11
33.0
 21
27.0
 31
0.0
  0
LINE
  5
9C
330
47
100
AcDbEntity
  8
1
  6
Continuous
 62
     7
100
AcDbLine
 10
200.0
 20
27.00000000000001
 30
0.0
 11
25.0
 21
27.00000000000001
 31
0.0
  0
LINE
  5
9D
330
47
100
AcDbEntity
  8
1
  6
Continuous
 62
     7
100
AcDbLine
 10
25.0
 20
41.0
 30
0.0
 11
200.0
 21
41.0
 31
0.0
  0
LINE
  5
9E
330
47
100
AcDbEntity
  8
1
  6
PHANTOM
 62
     4
100
AcDbLine
 10
0.0
 20
0.0
 30
0.0
 11
210.0
 21
0.0
 31
0.0
  0
LINE
  5
9F
330
47
100
AcDbEntity
  8
1
  6
PHANTOM
 62
     4
100
AcDbLine
 10
210.0
 20
0.0
 30
0.0
 11
210.0
 21
297.0
 31
0.0
  0
LINE
  5
A0
330
47
100
AcDbEntity
  8
1
  6
PHANTOM
 62
     4
100
AcDbLine
 10
210.0
 20
297.0
 30
0.0
 11
0.0
 21
297.0
 31
0.0
  0
LINE
  5
A1
330
47
100
AcDbEntity
  8
1
  6
PHANTOM
 62
     4
100
AcDbLine
 10
0.0
 20
297.0
 30
0.0
 11
0.0
 21
0.0
 31
0.0
  0
LINE
  5
A2
330
47
100
AcDbEntity
  8
1
  6
Continuous
 62
     7
100
AcDbLine
 10
25.0
 20
10.0
 30
0.0
 11
105.0
 21
10.0
 31
0.0
  0
LINE
  5
A3
330
47
100
AcDbEntity
  8
1
  6
Continuous
 62
     7
100
AcDbLine
 10
200.0
 20
10.0
 30
0.0
 11
200.0
 21
148.5
 31
0.0
  0
LINE
  5
A4
330
47
100
AcDbEntity
  8
1
  6
Continuous
 62
     7
100
AcDbLine
 10
200.0
 20
287.0000000000003
 30
0.0
 11
105.0
 21
287.0000000000003
 31
0.0
  0
LINE
  5
A5
330
47
100
AcDbEntity
  8
1
  6
Continuous
 62
     2
100
AcDbLine
 10
25.0
 20
18.50000000000001
 30
0.0
 11
81.0
 21
18.50000000000001
 31
0.0
  0
LINE
  5
A6
330
47
100
AcDbEntity
  8
1
  6
Continuous
 62
     2
100
AcDbLine
 10
33.0
 20
27.0
 30
0.0
 11
33.0
 21
10.0
 31
0.0
  0
LINE
  5
A7
330
47
100
AcDbEntity
  8
1
  6
Continuous
 62
     7
100
AcDbLine
 10
191.0
 20
24.70000000000001
 30
0.0
 11
191.0
 21
22.30000000000001
 31
0.0
  0
LINE
  5
A8
330
47
100
AcDbEntity
  8
1
  6
Continuous
 62
     7
100
AcDbLine
 10
191.0
 20
24.70000000000001
 30
0.0
 11
196.0
 21
25.50000000000001
 31
0.0
  0
LINE
  5
A9
330
47
100
AcDbEntity
  8
1
  6
Continuous
 62
     7
100
AcDbLine
 10
196.0
 20
25.50000000000001
 30
0.0
 11
196.0
 21
21.50000000000001
 31
0.0
  0
LINE
  5
AA
330
47
100
AcDbEntity
  8
1
  6
Continuous
 62
     7
100
AcDbLine
 10
196.0
 20
21.50000000000001
 30
0.0
 11
191.0
 21
22.30000000000001
 31
0.0
  0
LINE
  5
AB
330
47
100
AcDbEntity
  8
1
  6
DOT_CENTER
 62
     2
100
AcDbLine
 10
184.0
 20
23.50000000000001
 30
0.0
 11
197.0
 21
23.50000000000001
 31
0.0
  0
LINE
  5
AC
330
47
100
AcDbEntity
  8
1
  6
DOT_CENTER
 62
     2
100
AcDbLine
 10
187.0
 20
26.50000000000001
 30
0.0
 11
187.0
 21
20.50000000000001
 31
0.0
  0
LINE
  5
AD
330
47
100
AcDbEntity
  8
1
  6
Continuous
 62
     2
100
AcDbLine
 10
81.0
 20
27.00000000000001
 30
0.0
 11
81.0
 21
10.0
 31
0.0
  0
CIRCLE
  5
AE
330
47
100
AcDbEntity
  8
1
  6
Continuous
 62
     7
100
AcDbCircle
 10
103.5
 20
12.5
 30
0.0
 40
0.2999999999999972
  0
CIRCLE
  5
AF
330
47
100
AcDbEntity
  8
1
  6
Continuous
 62
     7
100
AcDbCircle
 10
109.5
 20
12.5
 30
0.0
 40
0.2999999999999972
  0
CIRCLE
  5
B0
330
47
100
AcDbEntity
  8
1
  6
Continuous
 62
     7
100
AcDbCircle
 10
120.5
 20
12.5
 30
0.0
 40
0.2999999999999972
  0
CIRCLE
  5
B1
330
47
100
AcDbEntity
  8
1
  6
Continuous
 62
     7
100
AcDbCircle
 10
126.5
 20
12.5
 30
0.0
 40
0.2999999999999972
  0
CIRCLE
  5
B2
330
47
100
AcDbEntity
  8
1
  6
Continuous
 62
     7
100
AcDbCircle
 10
137.5
 20
12.5
 30
0.0
 40
0.3000000000000114
  0
CIRCLE
  5
B3
330
47
100
AcDbEntity
  8
1
  6
Continuous
 62
     7
100
AcDbCircle
 10
143.5
 20
12.5
 30
0.0
 40
0.3000000000000114
  0
CIRCLE
  5
B4
330
47
100
AcDbEntity
  8
1
  6
Continuous
 62
     7
100
AcDbCircle
 10
160.5
 20
12.5
 30
0.0
 40
0.3000000000000114
  0
CIRCLE
  5
B5
330
47
100
AcDbEntity
  8
1
  6
Continuous
 62
     7
100
AcDbCircle
 10
154.5
 20
12.5
 30
0.0
 40
0.3000000000000114
  0
CIRCLE
  5
B6
330
47
100
AcDbEntity
  8
1
  6
Continuous
 62
     7
100
AcDbCircle
 10
187.0
 20
23.50000000000001
 30
0.0
 40
1.200000000000102
  0
CIRCLE
  5
B7
330
47
100
AcDbEntity
  8
1
  6
Continuous
 62
     7
100
AcDbCircle
 10
187.0
 20
23.50000000000001
 30
0.0
 40
2.0
  0
CIRCLE
  5
B8
330
47
100
AcDbEntity
  8
1
  6
DOT_CENTER
 62
     7
100
AcDbCircle
 10
89.5
 20
16.0
 30
0.0
 40
0.1000000000000227
  0
CIRCLE
  5
B9
330
47
100
AcDbEntity
  8
1
  6
DOT_CENTER
 62
     7
100
AcDbCircle
 10
89.5
 20
18.0
 30
0.0
 40
0.1000000000000227
  0
MTEXT
  5
BB
330
47
100
AcDbEntity
  8
1
 62
     7
100
AcDbMText
 10
188.5
 20
15.0
 30
0.0
 40
3.0
 41
0.0
 71
     5
 72
     1
  1
三栄水栓製作所
  7
CONVERTER_11
 73
     1
 44
1.0
  0
MTEXT
  5
BC
330
47
100
AcDbEntity
  8
1
 62
     7
100
AcDbMText
 10
171.5
 20
15.0
 30
0.0
 40
2.5
 41
0.0
 71
     5
 72
     1
  1
株式会社
  7
CONVERTER_11
 73
     1
 44
1.0
  0
MTEXT
  5
BD
330
47
100
AcDbEntity
  8
1
 62
     2
100
AcDbMText
 10
32.5
 20
282.0000000000003
 30
0.0
 40
5.0
 41
0.0
 71
     5
 72
     1
  1
図番
  7
CONVERTER_11
 73
     1
 44
0.45454545454545
  0
MTEXT
  5
BE
330
47
100
AcDbEntity
  8
1
 62
     2
100
AcDbMText
 10
29.0
 20
34.00000000000001
 30
0.0
 40
3.5
 41
0.0
 71
     5
 72
     1
  1
備考
  7
CONVERTER_11
 73
     1
 44
0.45454545454545
  0
MTEXT
  5
BF
330
47
100
AcDbEntity
  8
1
 62
     2
100
AcDbMText
 10
29.0
 20
22.75
 30
0.0
 40
3.5
 41
0.0
 71
     5
 72
     1
  1
品名
  7
CONVERTER_11
 73
     1
 44
0.72727272727273
  0
MTEXT
  5
C0
330
47
100
AcDbEntity
  8
1
 62
     2
100
AcDbMText
 10
29.0
 20
14.25
 30
0.0
 40
3.5
 41
0.0
 71
     5
 72
     1
  1
品番
  7
CONVERTER_11
 73
     1
 44
0.72727272727273
  0
MTEXT
  5
C1
330
47
100
AcDbEntity
  8
1
 62
     2
100
AcDbMText
 10
101.5
 20
25.00000000000001
 30
0.0
 40
3.0
 41
0.0
 71
     5
 72
     1
  1
承認
  7
CONVERTER_11
 73
     1
 44
0.59090909090909
  0
MTEXT
  5
C2
330
47
100
AcDbEntity
  8
1
 62
     2
100
AcDbMText
 10
175.0
 20
23.50000000000001
 30
0.0
 40
3.5
 41
0.0
 71
     5
 72
     1
  1
第三角法
  7
CONVERTER_11
 73
     1
 44
0.54545454545455
  0
MTEXT
  5
C3
330
47
100
AcDbEntity
  8
1
 62
     2
100
AcDbMText
 10
118.5
 20
25.00000000000001
 30
0.0
 40
3.0
 41
0.0
 71
     5
 72
     1
  1
検図
  7
CONVERTER_11
 73
     1
 44
0.59090909090909
  0
MTEXT
  5
C4
330
47
100
AcDbEntity
  8
1
 62
     2
100
AcDbMText
 10
152.5
 20
25.00000000000001
 30
0.0
 40
3.0
 41
0.0
 71
     5
 72
     1
  1
担当
  7
CONVERTER_11
 73
     1
 44
0.59090909090909
  0
MTEXT
  5
C5
330
47
100
AcDbEntity
  8
1
 62
     2
100
AcDbMText
 10
135.5
 20
25.00000000000001
 30
0.0
 40
3.0
 41
0.0
 71
     5
 72
     1
  1
製図
  7
CONVERTER_11
 73
     1
 44
0.59090909090909
  0
MTEXT
  5
C6
330
47
100
AcDbEntity
  8
1
 62
     2
100
AcDbMText
 10
89.5
 20
24.00000000000001
 30
0.0
 40
3.5
 41
0.0
 71
     5
 72
     1
  1
尺度
  7
CONVERTER_11
 73
     1
 44
0.54545454545455
  0
MTEXT
  5
C7
330
47
100
AcDbEntity
  8
1
 62
   250
100
AcDbMText
 10
25.0
 20
5.0
 30
0.0
 40
3.5
 41
0.0
 71
     4
 72
     1
  1
備考欄の文字列 原点位置=4
  7
CONVERTER_11
 73
     1
 44
0.54545454545455
  0
ENDBLK
  5
49
330
47
100
AcDbEntity
  8
0
100
AcDbBlockEnd
  0
BLOCK
  5
4B
330
4A
100
AcDbEntity
  8
0
100
AcDbBlockBegin
  2
V18-H11
 70
     0
 10
-170.7900336126529
 20
845.436103418109
 30
0.0
  3
V18-H11
  1

  0
LINE
  5
C8
330
4A
100
AcDbEntity
  8
0
  6
Continuous
 62
     7
100
AcDbLine
 10
145.4448005577121
 20
246.587171406323
 30
0.0
 11
145.4448005577121
 21
234.087171406323
 31
0.0
  0
LINE
  5
C9
330
4A
100
AcDbEntity
  8
0
  6
Continuous
 62
     7
100
AcDbLine
 10
145.4448005577121
 20
234.087171406323
 30
0.0
 11
152.9448005577121
 21
234.087171406323
 31
0.0
  0
LINE
  5
CA
330
4A
100
AcDbEntity
  8
0
  6
Continuous
 62
     7
100
AcDbLine
 10
137.4448005577121
 20
246.587171406323
 30
0.0
 11
137.4448005577112
 21
236.587171406323
 31
0.0
  0
LINE
  5
CB
330
4A
100
AcDbEntity
  8
0
  6
Continuous
 62
     7
100
AcDbLine
 10
145.4448005577121
 20
234.087171406323
 30
0.0
 11
145.4448005577112
 21
232.0871714063221
 31
0.0
  0
LINE
  5
CC
330
4A
100
AcDbEntity
  8
0
  6
Continuous
 62
     7
100
AcDbLine
 10
137.4448005577112
 20
236.587171406323
 30
0.0
 11
137.4448005577121
 21
232.087171406323
 31
0.0
  0
LINE
  5
CD
330
4A
100
AcDbEntity
  8
0
  6
Continuous
 62
     7
100
AcDbLine
 10
137.4448005577121
 20
232.087171406323
 30
0.0
 11
145.4448005577112
 21
232.0871714063221
 31
0.0
  0
LINE
  5
CE
330
4A
100
AcDbEntity
  8
0
  6
Continuous
 62
     7
100
AcDbLine
 10
145.4448005577121
 20
259.0871714063221
 30
0.0
 11
145.4448005577121
 21
246.587171406323
 31
0.0
  0
LINE
  5
CF
330
4A
100
AcDbEntity
  8
0
  6
Continuous
 62
     7
100
AcDbLine
 10
152.9448005577121
 20
259.087171406323
 30
0.0
 11
145.4448005577121
 21
259.0871714063221
 31
0.0
  0
LINE
  5
D0
330
4A
100
AcDbEntity
  8
0
  6
Continuous
 62
     7
100
AcDbLine
 10
137.4448005577112
 20
256.587171406323
 30
0.0
 11
137.4448005577121
 21
246.587171406323
 31
0.0
  0
LINE
  5
D1
330
4A
100
AcDbEntity
  8
0
  6
Continuous
 62
     7
100
AcDbLine
 10
145.4448005577112
 20
261.087171406323
 30
0.0
 11
145.4448005577121
 21
259.0871714063221
 31
0.0
  0
LINE
  5
D2
330
4A
100
AcDbEntity
  8
0
  6
Continuous
 62
     7
100
AcDbLine
 10
137.4448005577121
 20
261.087171406323
 30
0.0
 11
137.4448005577112
 21
256.587171406323
 31
0.0
  0
LINE
  5
D3
330
4A
100
AcDbEntity
  8
0
  6
Continuous
 62
     7
100
AcDbLine
 10
145.4448005577112
 20
261.087171406323
 30
0.0
 11
137.4448005577121
 21
261.087171406323
 31
0.0
  0
ENDBLK
  5
4C
330
4A
100
AcDbEntity
  8
0
100
AcDbBlockEnd
  0
BLOCK
  5
4E
330
4D
100
AcDbEntity
  8
0
100
AcDbBlockBegin
  2
V18-H12
 70
     0
 10
-160.0066551995579
 20
844.375443246329
 30
0.0
  3
V18-H12
  1

  0
LINE
  5
D4
330
4D
100
AcDbEntity
  8
0
  6
Continuous
 62
     7
100
AcDbLine
 10
167.9448005577112
 20
266.5871714063221
 30
0.0
 11
167.9448005577112
 21
226.5871714063239
 31
0.0
  0
LINE
  5
D5
330
4D
100
AcDbEntity
  8
0
  6
Continuous
 62
     7
100
AcDbLine
 10
165.4448005577121
 20
246.587171406323
 30
0.0
 11
165.4448005577121
 21
231.837171406323
 31
0.0
  0
LINE
  5
D6
330
4D
100
AcDbEntity
  8
0
  6
Continuous
 62
     7
100
AcDbLine
 10
165.4448005577121
 20
231.837171406323
 30
0.0
 11
165.4448005577112
 21
226.587171406323
 31
0.0
  0
LINE
  5
D7
330
4D
100
AcDbEntity
  8
0
  6
Continuous
 62
     7
100
AcDbLine
 10
165.4448005577112
 20
226.587171406323
 30
0.0
 11
167.9448005577112
 21
226.5871714063239
 31
0.0
  0
LINE
  5
D8
330
4D
100
AcDbEntity
  8
0
  6
Continuous
 62
     7
100
AcDbLine
 10
152.9448005577112
 20
246.587171406323
 30
0.0
 11
152.9448005577121
 21
231.837171406323
 31
0.0
  0
LINE
  5
D9
330
4D
100
AcDbEntity
  8
0
  6
Continuous
 62
     7
100
AcDbLine
 10
152.9448005577121
 20
231.837171406323
 30
0.0
 11
165.4448005577121
 21
231.837171406323
 31
0.0
  0
LINE
  5
DA
330
4D
100
AcDbEntity
  8
0
  6
Continuous
 62
     7
100
AcDbLine
 10
165.4448005577121
 20
261.337171406323
 30
0.0
 11
165.4448005577121
 21
246.587171406323
 31
0.0
  0
LINE
  5
DB
330
4D
100
AcDbEntity
  8
0
  6
Continuous
 62
     7
100
AcDbLine
 10
165.4448005577112
 20
266.587171406323
 30
0.0
 11
165.4448005577121
 21
261.337171406323
 31
0.0
  0
LINE
  5
DC
330
4D
100
AcDbEntity
  8
0
  6
Continuous
 62
     7
100
AcDbLine
 10
167.9448005577112
 20
266.5871714063221
 30
0.0
 11
165.4448005577112
 21
266.587171406323
 31
0.0
  0
LINE
  5
DD
330
4D
100
AcDbEntity
  8
0
  6
Continuous
 62
     7
100
AcDbLine
 10
152.9448005577121
 20
261.337171406323
 30
0.0
 11
152.9448005577112
 21
246.587171406323
 31
0.0
  0
LINE
  5
DE
330
4D
100
AcDbEntity
  8
0
  6
Continuous
 62
     7
100
AcDbLine
 10
165.4448005577121
 20
261.337171406323
 30
0.0
 11
152.9448005577121
 21
261.337171406323
 31
0.0
  0
ENDBLK
  5
4F
330
4D
100
AcDbEntity
  8
0
100
AcDbBlockEnd
  0
BLOCK
  5
51
330
50
100
AcDbEntity
  8
0
100
AcDbBlockBegin
  2
V18-H2
 70
     0
 10
187.4448005577121
 20
263.587171406323
 30
0.0
  3
V18-H2
  1

  0
LINE
  5
DF
330
50
100
AcDbEntity
  8
0
  6
Continuous
 62
     7
100
AcDbLine
 10
314.4448005577112
 20
283.087171406323
 30
0.0
 11
301.4448005577112
 21
283.087171406323
 31
0.0
  0
LINE
  5
E0
330
50
100
AcDbEntity
  8
0
  6
Continuous
 62
     7
100
AcDbLine
 10
314.4448005577112
 20
275.587171406323
 30
0.0
 11
300.4448005577112
 21
275.587171406323
 31
0.0
  0
LINE
  5
E1
330
50
100
AcDbEntity
  8
0
  6
Continuous
 62
     7
100
AcDbLine
 10
314.4448005577112
 20
271.587171406323
 30
0.0
 11
300.6948005577112
 21
271.587171406323
 31
0.0
  0
LINE
  5
E2
330
50
100
AcDbEntity
  8
0
  6
Continuous
 62
     7
100
AcDbLine
 10
300.6948005577112
 20
271.587171406323
 30
0.0
 11
300.6948005577112
 21
270.587171406323
 31
0.0
  0
LINE
  5
E3
330
50
100
AcDbEntity
  8
0
  6
Continuous
 62
     2
100
AcDbLine
 10
306.4448005577112
 20
290.087171406323
 30
0.0
 11
306.4448005577112
 21
288.587171406323
 31
0.0
  0
LINE
  5
E4
330
50
100
AcDbEntity
  8
1
  6
Continuous
 62
     7
100
AcDbLine
 10
300.4448005577112
 20
283.087171406323
 30
0.0
 11
301.4448005577112
 21
283.087171406323
 31
0.0
  0
LINE
  5
E5
330
50
100
AcDbEntity
  8
1
  6
Continuous
 62
     7
100
AcDbLine
 10
305.4448005577112
 20
288.587171406323
 30
0.0
 11
323.4448005577112
 21
288.587171406323
 31
0.0
  0
LINE
  5
E6
330
50
100
AcDbEntity
  8
1
  6
Continuous
 62
     2
100
AcDbLine
 10
305.4372863434783
 20
286.8421055979241
 30
0.0
 11
306.4448005577112
 21
288.587171406323
 31
0.0
  0
LINE
  5
E7
330
50
100
AcDbEntity
  8
0
  6
Continuous
 62
     7
100
AcDbLine
 10
305.4448005577112
 20
290.087171406323
 30
0.0
 11
305.4448005577112
 21
287.087171406323
 31
0.0
  0
LINE
  5
E8
330
50
100
AcDbEntity
  8
0
  6
Continuous
 62
     7
100
AcDbLine
 10
300.6948005577112
 20
271.587171406323
 30
0.0
 11
297.2448005577112
 21
271.587171406323
 31
0.0
  0
LINE
  5
E9
330
50
100
AcDbEntity
  8
0
  6
Continuous
 62
     7
100
AcDbLine
 10
300.4448005577112
 20
275.587171406323
 30
0.0
 11
297.2448005577112
 21
275.587171406323
 31
0.0
  0
LINE
  5
EA
330
50
100
AcDbEntity
  8
0
  6
Continuous
 62
     7
100
AcDbLine
 10
297.2448005577112
 20
271.587171406323
 30
0.0
 11
297.2448005577112
 21
275.587171406323
 31
0.0
  0
LINE
  5
EB
330
50
100
AcDbEntity
  8
0
  6
Continuous
 62
     7
100
AcDbLine
 10
300.4448005577112
 20
283.087171406323
 30
0.0
 11
300.4448005577112
 21
275.587171406323
 31
0.0
  0
LINE
  5
EC
330
50
100
AcDbEntity
  8
0
  6
Continuous
 62
     7
100
AcDbLine
 10
327.4448005577112
 20
283.087171406323
 30
0.0
 11
314.4448005577112
 21
283.087171406323
 31
0.0
  0
LINE
  5
ED
330
50
100
AcDbEntity
  8
0
  6
Continuous
 62
     7
100
AcDbLine
 10
328.4448005577112
 20
275.587171406323
 30
0.0
 11
314.4448005577112
 21
275.587171406323
 31
0.0
  0
LINE
  5
EE
330
50
100
AcDbEntity
  8
0
  6
Continuous
 62
     7
100
AcDbLine
 10
328.1948005577112
 20
271.587171406323
 30
0.0
 11
314.4448005577112
 21
271.587171406323
 31
0.0
  0
LINE
  5
EF
330
50
100
AcDbEntity
  8
0
  6
Continuous
 62
     7
100
AcDbLine
 10
328.1948005577112
 20
270.587171406323
 30
0.0
 11
328.1948005577112
 21
271.587171406323
 31
0.0
  0
LINE
  5
F0
330
50
100
AcDbEntity
  8
0
  6
Continuous
 62
     2
100
AcDbLine
 10
322.4448005577112
 20
288.587171406323
 30
0.0
 11
322.4448005577112
 21
290.087171406323
 31
0.0
  0
LINE
  5
F1
330
50
100
AcDbEntity
  8
1
  6
Continuous
 62
     7
100
AcDbLine
 10
327.4448005577112
 20
283.087171406323
 30
0.0
 11
328.4448005577112
 21
283.087171406323
 31
0.0
  0
LINE
  5
F2
330
50
100
AcDbEntity
  8
1
  6
Continuous
 62
     2
100
AcDbLine
 10
322.4448005577112
 20
288.587171406323
 30
0.0
 11
323.4523147719442
 21
286.8421055979241
 31
0.0
  0
LINE
  5
F3
330
50
100
AcDbEntity
  8
0
  6
Continuous
 62
     7
100
AcDbLine
 10
323.4448005577112
 20
287.087171406323
 30
0.0
 11
323.4448005577112
 21
290.087171406323
 31
0.0
  0
LINE
  5
F4
330
50
100
AcDbEntity
  8
0
  6
Continuous
 62
     7
100
AcDbLine
 10
331.6448005577113
 20
271.587171406323
 30
0.0
 11
328.1948005577112
 21
271.587171406323
 31
0.0
  0
LINE
  5
F5
330
50
100
AcDbEntity
  8
0
  6
Continuous
 62
     7
100
AcDbLine
 10
331.6448005577113
 20
275.587171406323
 30
0.0
 11
328.4448005577112
 21
275.587171406323
 31
0.0
  0
LINE
  5
F6
330
50
100
AcDbEntity
  8
0
  6
Continuous
 62
     7
100
AcDbLine
 10
331.6448005577113
 20
275.587171406323
 30
0.0
 11
331.6448005577113
 21
271.587171406323
 31
0.0
  0
LINE
  5
F7
330
50
100
AcDbEntity
  8
0
  6
Continuous
 62
     7
100
AcDbLine
 10
328.4448005577112
 20
275.587171406323
 30
0.0
 11
328.4448005577112
 21
283.087171406323
 31
0.0
  0
LINE
  5
F8
330
50
100
AcDbEntity
  8
1
  6
Continuous
 62
     7
100
AcDbLine
 10
180.4448005577121
 20
283.087171406323
 30
0.0
 11
181.4448005577121
 21
283.087171406323
 31
0.0
  0
LINE
  5
F9
330
50
100
AcDbEntity
  8
1
  6
Continuous
 62
     7
100
AcDbLine
 10
185.4448005577121
 20
288.587171406323
 30
0.0
 11
203.4448005577121
 21
288.587171406323
 31
0.0
  0
LINE
  5
FA
330
50
100
AcDbEntity
  8
1
  6
Continuous
 62
     2
100
AcDbLine
 10
185.4372863434792
 20
286.8421055979241
 30
0.0
 11
186.4448005577121
 21
288.587171406323
 31
0.0
  0
LINE
  5
FB
330
50
100
AcDbEntity
  8
0
  6
Continuous
 62
     7
100
AcDbLine
 10
180.6948005577121
 20
271.587171406323
 30
0.0
 11
177.2448005577123
 21
271.587171406323
 31
0.0
  0
LINE
  5
FC
330
50
100
AcDbEntity
  8
0
  6
Continuous
 62
     7
100
AcDbLine
 10
208.4448005577121
 20
275.587171406323
 30
0.0
 11
177.2448005577123
 21
275.587171406323
 31
0.0
  0
LINE
  5
FD
330
50
100
AcDbEntity
  8
0
  6
Continuous
 62
     7
100
AcDbLine
 10
177.2448005577123
 20
271.587171406323
 30
0.0
 11
177.2448005577123
 21
275.587171406323
 31
0.0
  0
LINE
  5
FE
330
50
100
AcDbEntity
  8
0
  6
Continuous
 62
     7
100
AcDbLine
 10
180.4448005577121
 20
283.087171406323
 30
0.0
 11
180.4448005577121
 21
275.587171406323
 31
0.0
  0
LINE
  5
FF
330
50
100
AcDbEntity
  8
1
  6
Continuous
 62
     7
100
AcDbLine
 10
181.4448005577121
 20
283.087171406323
 30
0.0
 11
208.4448005577121
 21
283.087171406323
 31
0.0
  0
LINE
  5
100
330
50
100
AcDbEntity
  8
0
  6
Continuous
 62
     2
100
AcDbLine
 10
202.4448005577121
 20
288.587171406323
 30
0.0
 11
202.4448005577121
 21
290.087171406323
 31
0.0
  0
LINE
  5
101
330
50
100
AcDbEntity
  8
1
  6
Continuous
 62
     2
100
AcDbLine
 10
202.4448005577121
 20
288.587171406323
 30
0.0
 11
203.4523147719453
 21
286.8421055979241
 31
0.0
  0
LINE
  5
102
330
50
100
AcDbEntity
  8
0
  6
Continuous
 62
     7
100
AcDbLine
 10
203.4448005577121
 20
287.087171406323
 30
0.0
 11
203.4448005577121
 21
290.087171406323
 31
0.0
  0
LINE
  5
103
330
50
100
AcDbEntity
  8
0
  6
Continuous
 62
     7
100
AcDbLine
 10
211.6448005577122
 20
271.587171406323
 30
0.0
 11
180.6948005577121
 21
271.587171406323
 31
0.0
  0
LINE
  5
104
330
50
100
AcDbEntity
  8
0
  6
Continuous
 62
     7
100
AcDbLine
 10
211.6448005577122
 20
275.587171406323
 30
0.0
 11
208.4448005577121
 21
275.587171406323
 31
0.0
  0
LINE
  5
105
330
50
100
AcDbEntity
  8
0
  6
Continuous
 62
     7
100
AcDbLine
 10
211.6448005577122
 20
275.587171406323
 30
0.0
 11
211.6448005577122
 21
271.587171406323
 31
0.0
  0
LINE
  5
106
330
50
100
AcDbEntity
  8
0
  6
Continuous
 62
     7
100
AcDbLine
 10
208.4448005577121
 20
275.587171406323
 30
0.0
 11
208.4448005577121
 21
283.087171406323
 31
0.0
  0
LINE
  5
107
330
50
100
AcDbEntity
  8
0
  6
Continuous
 62
     2
100
AcDbLine
 10
186.4448005577121
 20
290.087171406323
 30
0.0
 11
186.4448005577121
 21
288.587171406323
 31
0.0
  0
LINE
  5
108
330
50
100
AcDbEntity
  8
0
  6
Continuous
 62
     7
100
AcDbLine
 10
185.444800557712
 20
290.087171406323
 30
0.0
 11
185.444800557712
 21
287.087171406323
 31
0.0
  0
LWPOLYLINE
  5
109
330
50
100
AcDbEntity
  8
1
  6
Continuous
 62
     7
 60
     1
100
AcDbPolyline
 90
        2
 70
     0
 43
0.0
 10
320.4448005577112
 20
263.587171406323
 10
320.4448005577112
 20
277.6729578439499
  0
LWPOLYLINE
  5
10A
330
50
100
AcDbEntity
  8
1
  6
Continuous
 62
     7
 60
     1
100
AcDbPolyline
 90
        2
 70
     0
 43
0.0
 10
202.4448005577121
 20
296.587171406323
 10
202.4448005577121
 20
288.587171406323
  0
ARC
  5
10B
330
50
100
AcDbEntity
  8
1
  6
Continuous
 62
     7
100
AcDbCircle
 10
301.4448005577112
 20
287.087171406323
 30
0.0
 40
3.999999999999863
100
AcDbArc
 50
356.4874911146776
 51
0.0
  0
ARC
  5
10C
330
50
100
AcDbEntity
  8
1
  6
Continuous
 62
     7
100
AcDbCircle
 10
301.4448005577112
 20
287.087171406323
 30
0.0
 40
4.0
100
AcDbArc
 50
270.0
 51
356.4874911146776
  0
ARC
  5
10D
330
50
100
AcDbEntity
  8
1
  6
Continuous
 62
     7
100
AcDbCircle
 10
327.4448005577112
 20
287.087171406323
 30
0.0
 40
4.0
100
AcDbArc
 50
180.0
 51
183.5125088853226
  0
ARC
  5
10E
330
50
100
AcDbEntity
  8
1
  6
Continuous
 62
     7
100
AcDbCircle
 10
327.4448005577112
 20
287.087171406323
 30
0.0
 40
3.999999999999693
100
AcDbArc
 50
183.5125088853226
 51
270.0
  0
ARC
  5
10F
330
50
100
AcDbEntity
  8
1
  6
Continuous
 62
     7
100
AcDbCircle
 10
181.4448005577121
 20
287.087171406323
 30
0.0
 40
3.999999999999806
100
AcDbArc
 50
356.4874911146775
 51
0.0
  0
ARC
  5
110
330
50
100
AcDbEntity
  8
1
  6
Continuous
 62
     7
100
AcDbCircle
 10
181.4448005577121
 20
287.087171406323
 30
0.0
 40
4.0
100
AcDbArc
 50
270.0
 51
356.4874911146775
  0
ARC
  5
111
330
50
100
AcDbEntity
  8
1
  6
Continuous
 62
     7
100
AcDbCircle
 10
207.4448005577121
 20
287.087171406323
 30
0.0
 40
4.0
100
AcDbArc
 50
180.0
 51
183.5125088853227
  0
ARC
  5
112
330
50
100
AcDbEntity
  8
1
  6
Continuous
 62
     7
100
AcDbCircle
 10
207.4448005577121
 20
287.087171406323
 30
0.0
 40
3.999999999999523
100
AcDbArc
 50
183.5125088853227
 51
270.0
  0
ENDBLK
  5
52
330
50
100
AcDbEntity
  8
0
100
AcDbBlockEnd
  0
BLOCK
  5
54
330
53
100
AcDbEntity
  8
0
100
AcDbBlockBegin
  2
V18-H3
 70
     0
 10
188.4448005577121
 20
242.587171406323
 30
0.0
  3
V18-H3
  1

  0
LINE
  5
113
330
53
100
AcDbEntity
  8
0
  6
Continuous
 62
     7
100
AcDbLine
 10
318.9448005577112
 20
312.587171406323
 30
0.0
 11
318.9448005577112
 21
300.087171406323
 31
0.0
  0
LINE
  5
114
330
53
100
AcDbEntity
  8
0
  6
Continuous
 62
     7
100
AcDbLine
 10
309.9448005577112
 20
300.087171406323
 30
0.0
 11
309.9448005577112
 21
312.587171406323
 31
0.0
  0
LINE
  5
115
330
53
100
AcDbEntity
  8
0
  6
Continuous
 62
     7
100
AcDbLine
 10
198.9448005577121
 20
312.587171406323
 30
0.0
 11
198.9448005577121
 21
300.087171406323
 31
0.0
  0
LINE
  5
116
330
53
100
AcDbEntity
  8
0
  6
Continuous
 62
     7
100
AcDbLine
 10
189.9448005577121
 20
300.087171406323
 30
0.0
 11
189.9448005577121
 21
312.587171406323
 31
0.0
  0
ENDBLK
  5
55
330
53
100
AcDbEntity
  8
0
100
AcDbBlockEnd
  0
BLOCK
  5
57
330
56
100
AcDbEntity
  8
0
100
AcDbBlockBegin
  2
V18-H1
 70
     0
 10
145.9817323614002
 20
215.587171406323
 30
0.0
  3
V18-H1
  1

  0
LINE
  5
117
330
56
100
AcDbEntity
  8
0
  6
Continuous
 62
     7
100
AcDbLine
 10
176.1503341812372
 20
261.337171406323
 30
0.0
 11
167.9448005577112
 21
261.337171406323
 31
0.0
  0
LINE
  5
118
330
56
100
AcDbEntity
  8
0
  6
Continuous
 62
     7
100
AcDbLine
 10
167.9448005577112
 20
261.337171406323
 30
0.0
 11
167.9448005577112
 21
234.087171406323
 31
0.0
  0
LINE
  5
119
330
56
100
AcDbEntity
  8
0
  6
Continuous
 62
     7
100
AcDbLine
 10
180.6948005577121
 20
270.587171406323
 30
0.0
 11
177.2448005577123
 21
270.587171406323
 31
0.0
  0
LINE
  5
11A
330
56
100
AcDbEntity
  8
0
  6
Continuous
 62
     7
100
AcDbLine
 10
177.2448005577123
 20
270.587171406323
 30
0.0
 11
177.2448005577123
 21
266.391688035694
 31
0.0
  0
LINE
  5
11B
330
56
100
AcDbEntity
  8
0
  6
Continuous
 62
     7
100
AcDbLine
 10
167.9448005577112
 20
231.837171406323
 30
0.0
 11
175.6380033184373
 21
231.8371714063221
 31
0.0
  0
LINE
  5
11C
330
56
100
AcDbEntity
  8
0
  6
Continuous
 62
     7
100
AcDbLine
 10
167.9448005577112
 20
234.087171406323
 30
0.0
 11
167.9448005577112
 21
231.837171406323
 31
0.0
  0
LINE
  5
11D
330
56
100
AcDbEntity
  8
0
  6
Continuous
 62
     7
100
AcDbLine
 10
294.4448005577121
 20
225.587171406323
 30
0.0
 11
294.4448005577121
 21
215.587171406323
 31
0.0
  0
LINE
  5
11E
330
56
100
AcDbEntity
  8
0
  6
Continuous
 62
     7
100
AcDbLine
 10
334.4448005577121
 20
215.587171406323
 30
0.0
 11
314.4448005577121
 21
215.587171406323
 31
0.0
  0
LINE
  5
11F
330
56
100
AcDbEntity
  8
0
  6
Continuous
 62
     7
100
AcDbLine
 10
334.4448005577121
 20
225.587171406323
 30
0.0
 11
334.4448005577121
 21
215.587171406323
 31
0.0
  0
LINE
  5
120
330
56
100
AcDbEntity
  8
0
  6
Continuous
 62
     7
100
AcDbLine
 10
217.5388113252973
 20
215.587171406323
 30
0.0
 11
217.5388113252973
 21
225.587171406323
 31
0.0
  0
LINE
  5
121
330
56
100
AcDbEntity
  8
0
  6
Continuous
 62
     7
100
AcDbLine
 10
314.4448005577121
 20
225.587171406323
 30
0.0
 11
314.4448005577121
 21
215.587171406323
 31
0.0
  0
LINE
  5
122
330
56
100
AcDbEntity
  8
0
  6
Continuous
 62
     7
100
AcDbLine
 10
297.2448005577123
 20
270.587171406323
 30
0.0
 11
297.2448005577123
 21
266.5871714063189
 31
0.0
  0
LINE
  5
123
330
56
100
AcDbEntity
  8
0
  6
Continuous
 62
     7
100
AcDbLine
 10
314.4448005577133
 20
266.5871714063189
 30
0.0
 11
314.4448005577112
 21
266.5871714063189
 31
0.0
  0
LINE
  5
124
330
56
100
AcDbEntity
  8
0
  6
Continuous
 62
     7
100
AcDbLine
 10
314.4448005577121
 20
229.747022775309
 30
0.0
 11
297.5558637131442
 21
229.747022775309
 31
0.0
  0
LINE
  5
125
330
56
100
AcDbEntity
  8
0
  6
Continuous
 62
     7
100
AcDbLine
 10
297.2448005577123
 20
266.5871714063189
 30
0.0
 11
297.2448005577123
 21
266.391688035694
 31
0.0
  0
LINE
  5
126
330
56
100
AcDbEntity
  8
0
  6
Continuous
 62
     7
100
AcDbLine
 10
314.4448005577133
 20
270.587171406323
 30
0.0
 11
297.2448005577123
 21
270.587171406323
 31
0.0
  0
LINE
  5
127
330
56
100
AcDbEntity
  8
0
  6
Continuous
 62
     7
100
AcDbLine
 10
314.4448005577121
 20
215.587171406323
 30
0.0
 11
294.4448005577121
 21
215.587171406323
 31
0.0
  0
LINE
  5
128
330
56
100
AcDbEntity
  8
0
  6
Continuous
 62
     7
100
AcDbLine
 10
294.4448005577121
 20
225.587171406323
 30
0.0
 11
297.0558637131442
 21
228.880997371524
 31
0.0
  0
LINE
  5
129
330
56
100
AcDbEntity
  8
0
  6
Continuous
 62
     7
100
AcDbLine
 10
331.6448005577122
 20
266.5871714063189
 30
0.0
 11
331.6448005577122
 21
270.587171406323
 31
0.0
  0
LINE
  5
12A
330
56
100
AcDbEntity
  8
0
  6
Continuous
 62
     7
100
AcDbLine
 10
331.6448005577122
 20
266.5871714063189
 30
0.0
 11
314.4448005577112
 21
266.5871714063189
 31
0.0
  0
LINE
  5
12B
330
56
100
AcDbEntity
  8
0
  6
Continuous
 62
     7
100
AcDbLine
 10
331.3337374022792
 20
229.747022775309
 30
0.0
 11
314.4448005577121
 21
229.747022775309
 31
0.0
  0
LINE
  5
12C
330
56
100
AcDbEntity
  8
0
  6
Continuous
 62
     7
100
AcDbLine
 10
331.6448005577122
 20
266.391688035694
 30
0.0
 11
331.6448005577122
 21
266.5871714063189
 31
0.0
  0
LINE
  5
12D
330
56
100
AcDbEntity
  8
0
  6
Continuous
 62
     7
100
AcDbLine
 10
331.6448005577122
 20
270.587171406323
 30
0.0
 11
314.4448005577112
 21
270.587171406323
 31
0.0
  0
LINE
  5
12E
330
56
100
AcDbEntity
  8
0
  6
Continuous
 62
     7
100
AcDbLine
 10
331.8337374022792
 20
228.880997371524
 30
0.0
 11
334.4448005577121
 21
225.587171406323
 31
0.0
  0
LINE
  5
12F
330
56
100
AcDbEntity
  8
0
  6
Continuous
 62
     7
100
AcDbLine
 10
211.6448005577122
 20
266.391688035694
 30
0.0
 11
211.6448005577122
 21
266.5871714063189
 31
0.0
  0
LINE
  5
130
330
56
100
AcDbEntity
  8
0
  6
Continuous
 62
     7
100
AcDbLine
 10
211.6448005577122
 20
270.587171406323
 30
0.0
 11
180.6948005577121
 21
270.587171406323
 31
0.0
  0
LINE
  5
131
330
56
100
AcDbEntity
  8
0
  6
Continuous
 62
     7
100
AcDbLine
 10
171.3543084117812
 20
225.587171406323
 30
0.0
 11
176.2498744807303
 21
228.880997371524
 31
0.0
  0
LINE
  5
132
330
56
100
AcDbEntity
  8
0
  6
Continuous
 62
     7
100
AcDbLine
 10
171.3543084117812
 20
225.587171406323
 30
0.0
 11
171.3543084117803
 21
215.587171406323
 31
0.0
  0
LINE
  5
133
330
56
100
AcDbEntity
  8
0
  6
Continuous
 62
     7
100
AcDbLine
 10
217.5388113252973
 20
215.587171406323
 30
0.0
 11
205.9918059415042
 21
215.587171406323
 31
0.0
  0
LINE
  5
134
330
56
100
AcDbEntity
  8
0
  6
Continuous
 62
     7
100
AcDbLine
 10
211.6448005577122
 20
266.5871714063189
 30
0.0
 11
177.2448005577123
 21
266.5871714063189
 31
0.0
  0
LINE
  5
135
330
56
100
AcDbEntity
  8
0
  6
Continuous
 62
     7
100
AcDbLine
 10
314.4448005577112
 20
266.5871714063189
 30
0.0
 11
297.2448005577123
 21
266.5871714063189
 31
0.0
  0
LINE
  5
136
330
56
100
AcDbEntity
  8
0
  6
Continuous
 62
     7
100
AcDbLine
 10
211.6448005577122
 20
266.5871714063189
 30
0.0
 11
211.6448005577122
 21
270.587171406323
 31
0.0
  0
LINE
  5
137
330
56
100
AcDbEntity
  8
0
  6
Continuous
 62
     7
100
AcDbLine
 10
211.3337374022792
 20
229.747022775309
 30
0.0
 11
177.1242924820233
 21
229.747022775309
 31
0.0
  0
LINE
  5
138
330
56
100
AcDbEntity
  8
0
  6
Continuous
 62
     7
100
AcDbLine
 10
205.9918059415042
 20
215.587171406323
 30
0.0
 11
182.8977951739193
 21
215.587171406323
 31
0.0
  0
LINE
  5
139
330
56
100
AcDbEntity
  8
0
  6
Continuous
 62
     7
100
AcDbLine
 10
205.9918059415042
 20
215.587171406323
 30
0.0
 11
205.9918059415042
 21
225.5871714063239
 31
0.0
  0
LINE
  5
13A
330
56
100
AcDbEntity
  8
0
  6
Continuous
 62
     7
100
AcDbLine
 10
211.8337374022792
 20
228.880997371524
 30
0.0
 11
217.5388113252973
 21
225.587171406323
 31
0.0
  0
LINE
  5
13B
330
56
100
AcDbEntity
  8
0
  6
Continuous
 62
     7
100
AcDbLine
 10
182.8977951739193
 20
225.5871714063239
 30
0.0
 11
182.8977951739193
 21
215.587171406323
 31
0.0
  0
LINE
  5
13C
330
56
100
AcDbEntity
  8
0
  6
Continuous
 62
     7
100
AcDbLine
 10
182.8977951739193
 20
215.587171406323
 30
0.0
 11
171.3543084117803
 21
215.587171406323
 31
0.0
  0
LINE
  5
13D
330
56
100
AcDbEntity
  8
0
  6
Continuous
 62
     7
100
AcDbLine
 10
177.1242924820233
 20
229.747022775309
 30
0.0
 11
176.7498744807283
 21
229.747022775309
 31
0.0
  0
ARC
  5
13E
330
56
100
AcDbEntity
  8
0
  6
Continuous
 62
     7
100
AcDbCircle
 10
193.9948005577123
 20
241.8538598745481
 30
0.0
 40
20.91186392346089
100
AcDbArc
 50
208.6198162959678
 51
213.0982803081787
  0
ARC
  5
13F
330
56
100
AcDbEntity
  8
0
  6
Continuous
 62
     7
100
AcDbCircle
 10
176.3824086895302
 20
264.587171406323
 30
0.0
 40
1.99999999999605
100
AcDbArc
 50
315.0991278440124
 51
64.45651890928924
  0
ARC
  5
140
330
56
100
AcDbEntity
  8
0
  6
Continuous
 62
     7
100
AcDbCircle
 10
194.4448005577121
 20
246.587171406323
 30
0.0
 40
23.49999999999935
100
AcDbArc
 50
135.0991278440173
 51
141.1223395105903
  0
ARC
  5
141
330
56
100
AcDbEntity
  8
0
  6
Continuous
 62
     7
100
AcDbCircle
 10
304.4448005577121
 20
215.938274008548
 30
0.0
 40
13.89608653516482
100
AcDbArc
 50
43.97630099874096
 51
136.023699001259
  0
ARC
  5
142
330
56
100
AcDbEntity
  8
0
  6
Continuous
 62
     7
100
AcDbCircle
 10
324.4448005577121
 20
215.938274008548
 30
0.0
 40
13.89608653516482
100
AcDbArc
 50
43.97630099874096
 51
136.023699001259
  0
ARC
  5
143
330
56
100
AcDbEntity
  8
0
  6
Continuous
 62
     7
100
AcDbCircle
 10
296.3824086895302
 20
264.587171406323
 30
0.0
 40
1.999999999996009
100
AcDbArc
 50
315.0991278440113
 51
64.45651890928924
  0
ARC
  5
144
330
56
100
AcDbEntity
  8
0
  6
Continuous
 62
     7
100
AcDbCircle
 10
314.3977951739194
 20
246.4691148929101
 30
0.0
 40
23.45329174781674
100
AcDbArc
 50
179.7115898015253
 51
223.1325296262159
  0
ARC
  5
145
330
56
100
AcDbEntity
  8
0
  6
Continuous
 62
     7
100
AcDbCircle
 10
296.5558637131442
 20
229.747022775309
 30
0.0
 40
1.0000000000005
100
AcDbArc
 50
299.9999999999834
 51
0.0
  0
ARC
  5
146
330
56
100
AcDbEntity
  8
0
  6
Continuous
 62
     7
100
AcDbCircle
 10
296.5558637131442
 20
229.747022775309
 30
0.0
 40
1.0
100
AcDbArc
 50
0.0
 51
43.42093982467982
  0
ARC
  5
147
330
56
100
AcDbEntity
  8
0
  6
Continuous
 62
     7
100
AcDbCircle
 10
314.4448005577121
 20
246.587171406323
 30
0.0
 40
23.49999999999935
100
AcDbArc
 50
135.0991278440173
 51
180.0
  0
ARC
  5
148
330
56
100
AcDbEntity
  8
0
  6
Continuous
 62
     7
100
AcDbCircle
 10
332.5071924258944
 20
264.587171406323
 30
0.0
 40
1.999999999995816
100
AcDbArc
 50
115.5434810907137
 51
224.9008721559853
  0
ARC
  5
149
330
56
100
AcDbEntity
  8
0
  6
Continuous
 62
     7
100
AcDbCircle
 10
314.4918059415043
 20
246.4691148929101
 30
0.0
 40
23.45329174781669
100
AcDbArc
 50
316.8674703737837
 51
0.28841019847474
  0
ARC
  5
14A
330
56
100
AcDbEntity
  8
0
  6
Continuous
 62
     7
100
AcDbCircle
 10
332.3337374022792
 20
229.747022775309
 30
0.0
 40
1.0
100
AcDbArc
 50
180.0
 51
240.0000000000165
  0
ARC
  5
14B
330
56
100
AcDbEntity
  8
0
  6
Continuous
 62
     7
100
AcDbCircle
 10
332.3337374022792
 20
229.747022775309
 30
0.0
 40
0.9999999999980634
100
AcDbArc
 50
136.5790601753202
 51
180.0
  0
ARC
  5
14C
330
56
100
AcDbEntity
  8
0
  6
Continuous
 62
     7
100
AcDbCircle
 10
314.4448005577121
 20
246.587171406323
 30
0.0
 40
23.5
100
AcDbArc
 50
0.0
 51
44.90087215598222
  0
ARC
  5
14D
330
56
100
AcDbEntity
  8
0
  6
Continuous
 62
     7
100
AcDbCircle
 10
212.5071924258943
 20
264.587171406323
 30
0.0
 40
1.999999999995767
100
AcDbArc
 50
115.5434810907108
 51
224.9008721559881
  0
ARC
  5
14E
330
56
100
AcDbEntity
  8
0
  6
Continuous
 62
     7
100
AcDbCircle
 10
194.4918059415042
 20
246.4691148929101
 30
0.0
 40
23.45329174781675
100
AcDbArc
 50
316.8674703737838
 51
0.28841019847474
  0
ARC
  5
14F
330
56
100
AcDbEntity
  8
0
  6
Continuous
 62
     7
100
AcDbCircle
 10
212.3337374022792
 20
229.747022775309
 30
0.0
 40
1.0
100
AcDbArc
 50
180.0
 51
240.0000000000165
  0
ARC
  5
150
330
56
100
AcDbEntity
  8
0
  6
Continuous
 62
     7
100
AcDbCircle
 10
212.3337374022792
 20
229.747022775309
 30
0.0
 40
0.9999999999980841
100
AcDbArc
 50
136.5790601753213
 51
180.0
  0
ARC
  5
151
330
56
100
AcDbEntity
  8
0
  6
Continuous
 62
     7
100
AcDbCircle
 10
194.4448005577121
 20
246.587171406323
 30
0.0
 40
23.5
100
AcDbArc
 50
0.0
 51
44.90087215598222
  0
ARC
  5
152
330
56
100
AcDbEntity
  8
0
  6
Continuous
 62
     7
100
AcDbCircle
 10
175.7498744807303
 20
229.747022775309
 30
0.0
 40
1.0000000000005
100
AcDbArc
 50
299.9999999999834
 51
0.0
  0
ARC
  5
153
330
56
100
AcDbEntity
  8
0
  6
Continuous
 62
     7
100
AcDbCircle
 10
175.7498744807303
 20
229.747022775309
 30
0.0
 40
1.0
100
AcDbArc
 50
0.0
 51
43.4209398246843
  0
ARC
  5
154
330
56
100
AcDbEntity
  8
0
  6
Continuous
 62
     7
100
AcDbCircle
 10
194.4448005577121
 20
211.6408834708491
 30
0.0
 40
18.1061393044595
100
AcDbArc
 50
50.37651332613451
 51
129.6234866738673
  0
ARC
  5
155
330
56
100
AcDbEntity
  8
0
  6
Continuous
 62
     7
100
AcDbCircle
 10
211.7653086334012
 20
223.660543685826
 30
0.0
 40
6.086479089482992
100
AcDbArc
 50
90.0
 51
161.546057495645
  0
ARC
  5
156
330
56
100
AcDbEntity
  8
0
  6
Continuous
 62
     7
100
AcDbCircle
 10
177.1242924820233
 20
223.660543685826
 30
0.0
 40
6.08647908948361
100
AcDbArc
 50
18.45394250435794
 51
90.0
  0
LWPOLYLINE
  5
157
330
56
100
AcDbEntity
  8
0
  6
Continuous
 62
     7
 60
     1
100
AcDbPolyline
 90
        2
 70
     0
 43
0.0
 10
217.5388113252973
 20
215.587171406323
 10
211.0693005577123
 20
215.587171406323
  0
ENDBLK
  5
58
330
56
100
AcDbEntity
  8
0
100
AcDbBlockEnd
  0
BLOCK
  5
5A
330
59
100
AcDbEntity
  8
0
100
AcDbBlockBegin
  2
V18-H15
 70
     0
 10
177.2448005577123
 20
270.587171406323
 30
0.0
  3
V18-H15
  1

  0
LINE
  5
158
330
59
100
AcDbEntity
  8
1
  6
Continuous
 62
     7
100
AcDbLine
 10
177.2448005577123
 20
270.587171406323
 30
0.0
 11
177.2448005577123
 21
271.587171406323
 31
0.0
  0
LINE
  5
159
330
59
100
AcDbEntity
  8
1
  6
Continuous
 62
     7
100
AcDbLine
 10
208.1948005577121
 20
270.587171406323
 30
0.0
 11
177.2448005577123
 21
270.587171406323
 31
0.0
  0
LINE
  5
15A
330
59
100
AcDbEntity
  8
1
  6
Continuous
 62
     7
100
AcDbLine
 10
180.6948005577121
 20
271.587171406323
 30
0.0
 11
177.2448005577123
 21
271.587171406323
 31
0.0
  0
LINE
  5
15B
330
59
100
AcDbEntity
  8
1
  6
Continuous
 62
     7
100
AcDbLine
 10
211.6448005577122
 20
271.587171406323
 30
0.0
 11
211.6448005577122
 21
270.587171406323
 31
0.0
  0
LINE
  5
15C
330
59
100
AcDbEntity
  8
1
  6
Continuous
 62
     7
100
AcDbLine
 10
211.6448005577122
 20
270.587171406323
 30
0.0
 11
208.1948005577121
 21
270.587171406323
 31
0.0
  0
LINE
  5
15D
330
59
100
AcDbEntity
  8
1
  6
Continuous
 62
     7
100
AcDbLine
 10
211.6448005577122
 20
271.587171406323
 30
0.0
 11
180.6948005577121
 21
271.587171406323
 31
0.0
  0
ENDBLK
  5
5B
330
59
100
AcDbEntity
  8
0
100
AcDbBlockEnd
  0
BLOCK
  5
5D
330
5C
100
AcDbEntity
  8
0
100
AcDbBlockBegin
  2
V18-H7
 70
     0
 10
180.9448005577121
 20
290.087171406323
 30
0.0
  3
V18-H7
  1

  0
LINE
  5
15E
330
5C
100
AcDbEntity
  8
0
  6
Continuous
 62
     7
100
AcDbLine
 10
314.4448005577121
 20
298.587171406323
 30
0.0
 11
314.4448005577121
 21
291.587171406323
 31
0.0
  0
LINE
  5
15F
330
5C
100
AcDbEntity
  8
1
  6
Continuous
 62
     7
100
AcDbLine
 10
305.3515338179761
 20
290.087171406323
 30
0.0
 11
302.7534576066223
 21
291.587171406323
 31
0.0
  0
LINE
  5
160
330
5C
100
AcDbEntity
  8
1
  6
Continuous
 62
     7
100
AcDbLine
 10
305.3515338179761
 20
300.087171406323
 30
0.0
 11
302.7534576066223
 21
298.587171406323
 31
0.0
  0
LINE
  5
161
330
5C
100
AcDbEntity
  8
1
  6
Continuous
 62
     7
100
AcDbLine
 10
302.7534576066223
 20
298.587171406323
 30
0.0
 11
302.7534576066223
 21
291.587171406323
 31
0.0
  0
LINE
  5
162
330
5C
100
AcDbEntity
  8
1
  6
Continuous
 62
     7
100
AcDbLine
 10
314.4448005577133
 20
290.087171406323
 30
0.0
 11
305.3515338179761
 21
290.087171406323
 31
0.0
  0
LINE
  5
163
330
5C
100
AcDbEntity
  8
1
  6
Continuous
 62
     7
100
AcDbLine
 10
314.4448005577133
 20
300.087171406323
 30
0.0
 11
305.3515338179761
 21
300.087171406323
 31
0.0
  0
LINE
  5
164
330
5C
100
AcDbEntity
  8
1
  6
Continuous
 62
     7
100
AcDbLine
 10
326.1361435088013
 20
291.587171406323
 30
0.0
 11
323.5380672974482
 21
290.087171406323
 31
0.0
  0
LINE
  5
165
330
5C
100
AcDbEntity
  8
1
  6
Continuous
 62
     7
100
AcDbLine
 10
326.1361435088013
 20
298.587171406323
 30
0.0
 11
323.5380672974482
 21
300.087171406323
 31
0.0
  0
LINE
  5
166
330
5C
100
AcDbEntity
  8
1
  6
Continuous
 62
     7
100
AcDbLine
 10
326.1361435088013
 20
291.587171406323
 30
0.0
 11
326.1361435088013
 21
298.587171406323
 31
0.0
  0
LINE
  5
167
330
5C
100
AcDbEntity
  8
1
  6
Continuous
 62
     7
100
AcDbLine
 10
323.5380672974482
 20
290.087171406323
 30
0.0
 11
314.4448005577112
 21
290.087171406323
 31
0.0
  0
LINE
  5
168
330
5C
100
AcDbEntity
  8
1
  6
Continuous
 62
     7
100
AcDbLine
 10
323.5380672974482
 20
300.087171406323
 30
0.0
 11
314.4448005577112
 21
300.087171406323
 31
0.0
  0
LINE
  5
169
330
5C
100
AcDbEntity
  8
1
  6
Continuous
 62
     7
100
AcDbLine
 10
207.9448005577121
 20
291.587171406323
 30
0.0
 11
207.9448005577121
 21
298.587171406323
 31
0.0
  0
LINE
  5
16A
330
5C
100
AcDbEntity
  8
1
  6
Continuous
 62
     7
100
AcDbLine
 10
205.3467243463583
 20
290.087171406323
 30
0.0
 11
194.4448005577121
 21
290.087171406323
 31
0.0
  0
LINE
  5
16B
330
5C
100
AcDbEntity
  8
0
  6
Continuous
 62
     7
100
AcDbLine
 10
201.1948005577121
 20
298.587171406323
 30
0.0
 11
201.1948005577121
 21
291.587171406323
 31
0.0
  0
LINE
  5
16C
330
5C
100
AcDbEntity
  8
1
  6
Continuous
 62
     7
100
AcDbLine
 10
205.5102661124552
 20
290.181592289003
 30
0.0
 11
205.3467243463583
 21
290.087171406323
 31
0.0
  0
LINE
  5
16D
330
5C
100
AcDbEntity
  8
1
  6
Continuous
 62
     7
100
AcDbLine
 10
205.5205963499322
 20
299.9867863582549
 30
0.0
 11
205.3467243463583
 21
300.087171406323
 31
0.0
  0
LINE
  5
16E
330
5C
100
AcDbEntity
  8
0
  6
Continuous
 62
     7
100
AcDbLine
 10
187.6948005577112
 20
291.587171406323
 30
0.0
 11
187.6948005577112
 21
298.587171406323
 31
0.0
  0
LINE
  5
16F
330
5C
100
AcDbEntity
  8
1
  6
Continuous
 62
     7
100
AcDbLine
 10
205.3467243463583
 20
300.087171406323
 30
0.0
 11
194.1625508680822
 21
300.087171406323
 31
0.0
  0
LINE
  5
170
330
5C
100
AcDbEntity
  8
1
  6
Continuous
 62
     7
100
AcDbLine
 10
180.9448005577112
 20
298.587171406323
 30
0.0
 11
180.9448005577112
 21
291.587171406323
 31
0.0
  0
LINE
  5
171
330
5C
100
AcDbEntity
  8
1
  6
Continuous
 62
     7
100
AcDbLine
 10
194.4448005577121
 20
290.087171406323
 30
0.0
 11
183.5428767690653
 21
290.087171406323
 31
0.0
  0
LINE
  5
172
330
5C
100
AcDbEntity
  8
0
  6
Continuous
 62
     7
100
AcDbLine
 10
187.6948005577112
 20
291.587171406323
 30
0.0
 11
187.6948005577112
 21
298.587171406323
 31
0.0
  0
LINE
  5
173
330
5C
100
AcDbEntity
  8
1
  6
Continuous
 62
     7
100
AcDbLine
 10
183.5428767690653
 20
290.087171406323
 30
0.0
 11
183.3793350029682
 21
290.181592289003
 31
0.0
  0
LINE
  5
174
330
5C
100
AcDbEntity
  8
1
  6
Continuous
 62
     7
100
AcDbLine
 10
183.5428767690653
 20
300.087171406323
 30
0.0
 11
183.3690047654911
 21
299.9867863582549
 31
0.0
  0
LINE
  5
175
330
5C
100
AcDbEntity
  8
1
  6
Continuous
 62
     7
100
AcDbLine
 10
194.7270502473411
 20
300.087171406323
 30
0.0
 11
183.5428767690653
 21
300.087171406323
 31
0.0
  0
ARC
  5
176
330
5C
100
AcDbEntity
  8
0
  6
Continuous
 62
     7
100
AcDbCircle
 10
308.5991290821673
 20
302.227796406321
 30
0.0
 40
12.14062499999821
100
AcDbArc
 50
241.2167972061535
 51
298.7832027938458
  0
ARC
  5
177
330
5C
100
AcDbEntity
  8
0
  6
Continuous
 62
     7
100
AcDbCircle
 10
308.5991290821673
 20
287.946546406323
 30
0.0
 40
12.14062499999993
100
AcDbArc
 50
61.21679720615889
 51
118.7832027938418
  0
ARC
  5
178
330
5C
100
AcDbEntity
  8
0
  6
Continuous
 62
     7
100
AcDbCircle
 10
320.2904720332563
 20
302.227796406321
 30
0.0
 40
12.14062499999786
100
AcDbArc
 50
241.2167972061566
 51
298.7832027938464
  0
ARC
  5
179
330
5C
100
AcDbEntity
  8
0
  6
Continuous
 62
     7
100
AcDbCircle
 10
320.2904720332563
 20
287.946546406323
 30
0.0
 40
12.14062500000001
100
AcDbArc
 50
61.21679720615818
 51
118.7832027938388
  0
ARC
  5
17A
330
5C
100
AcDbEntity
  8
0
  6
Continuous
 62
     7
100
AcDbCircle
 10
204.5698005577121
 20
295.5407298348209
 30
0.0
 40
4.546584569605649
100
AcDbArc
 50
42.07096775361966
 51
137.9290322463804
  0
ARC
  5
17B
330
5C
100
AcDbEntity
  8
0
  6
Continuous
 62
     7
100
AcDbCircle
 10
204.5698005577121
 20
294.6216846474019
 30
0.0
 40
4.538600622469761
100
AcDbArc
 50
221.9591864670467
 51
318.0408135329533
  0
ARC
  5
17C
330
5C
100
AcDbEntity
  8
0
  6
Continuous
 62
     7
100
AcDbCircle
 10
194.4448005577121
 20
284.149671406323
 30
0.0
 40
15.9375
100
AcDbArc
 50
64.94238458169698
 51
115.057615418306
  0
ARC
  5
17D
330
5C
100
AcDbEntity
  8
0
  6
Continuous
 62
     7
100
AcDbCircle
 10
194.4448005577121
 20
306.0246714063469
 30
0.0
 40
15.93750000002201
100
AcDbArc
 50
244.9423845817304
 51
295.0576154182667
  0
ARC
  5
17E
330
5C
100
AcDbEntity
  8
0
  6
Continuous
 62
     7
100
AcDbCircle
 10
184.3198005577112
 20
295.5407298348209
 30
0.0
 40
4.546584569605649
100
AcDbArc
 50
42.07096775361966
 51
137.9290322463804
  0
ARC
  5
17F
330
5C
100
AcDbEntity
  8
0
  6
Continuous
 62
     7
100
AcDbCircle
 10
184.3198005577112
 20
294.6216846474019
 30
0.0
 40
4.538600622469761
100
AcDbArc
 50
221.9591864670467
 51
318.0408135329533
  0
LWPOLYLINE
  5
180
330
5C
100
AcDbEntity
  8
1
  6
Continuous
 62
     7
 60
     1
100
AcDbPolyline
 90
        2
 70
     0
 43
0.0
 10
307.2534576066223
 20
290.087171406323
 10
305.3515338179761
 20
290.087171406323
  0
LWPOLYLINE
  5
181
330
5C
100
AcDbEntity
  8
1
  6
Continuous
 62
     7
 60
     1
100
AcDbPolyline
 90
        2
 70
     0
 43
0.0
 10
321.6361435088013
 20
290.087171406323
 10
323.5380672974482
 20
290.087171406323
  0
ENDBLK
  5
5E
330
5C
100
AcDbEntity
  8
0
100
AcDbBlockEnd
  0
BLOCK
  5
60
330
5F
100
AcDbEntity
  8
0
100
AcDbBlockBegin
  2
V18-H10
 70
     0
 10
164.4448005577121
 20
312.587171406323
 30
0.0
  3
V18-H10
  1

  0
LINE
  5
182
330
5F
100
AcDbEntity
  8
1
  6
Continuous
 62
     7
100
AcDbLine
 10
223.9546423959176
 20
329.587171406323
 30
0.0
 11
226.2646057111057
 21
329.587171406323
 31
0.0
  0
LINE
  5
183
330
5F
100
AcDbEntity
  8
1
  6
Continuous
 62
     7
100
AcDbLine
 10
194.4448005577112
 20
329.587171406323
 30
0.0
 11
226.2646057111057
 21
329.587171406323
 31
0.0
  0
LINE
  5
184
330
5F
100
AcDbEntity
  8
1
  6
Continuous
 62
     7
100
AcDbLine
 10
239.4448005577112
 20
317.587171406323
 30
0.0
 11
238.9413920496363
 21
327.21767398272
 31
0.0
  0
LINE
  5
185
330
5F
100
AcDbEntity
  8
1
  6
Continuous
 62
     7
100
AcDbLine
 10
201.4448005577112
 20
312.587171406323
 30
0.0
 11
201.4448005577112
 21
315.212097073877
 31
0.0
  0
LINE
  5
186
330
5F
100
AcDbEntity
  8
1
  6
Continuous
 62
     7
100
AcDbLine
 10
194.4448005577112
 20
317.587171406323
 30
0.0
 11
226.2646057111057
 21
317.587171406323
 31
0.0
  0
LINE
  5
187
330
5F
100
AcDbEntity
  8
1
  6
Continuous
 62
     7
100
AcDbLine
 10
211.0126318173172
 20
317.444459085991
 30
0.0
 11
202.8103088759863
 21
316.706055569802
 31
0.0
  0
LINE
  5
188
330
5F
100
AcDbEntity
  8
1
  6
Continuous
 62
     7
100
AcDbLine
 10
201.4448005577112
 20
315.212097073877
 30
0.0
 11
201.4448005577112
 21
315.3021207807551
 31
0.0
  0
LINE
  5
189
330
5F
100
AcDbEntity
  8
1
  6
Continuous
 62
     7
100
AcDbLine
 10
194.4448005577112
 20
312.587171406323
 30
0.0
 11
201.4448005577112
 21
312.587171406323
 31
0.0
  0
LINE
  5
18A
330
5F
100
AcDbEntity
  8
1
  6
Continuous
 62
     7
100
AcDbLine
 10
209.6196639978135
 20
317.587171406323
 30
0.0
 11
209.1162554897395
 21
327.2176739827199
 31
0.0
  0
LINE
  5
18B
330
5F
100
AcDbEntity
  8
0
  6
Continuous
 62
     7
100
AcDbLine
 10
226.2646057111057
 20
317.587171406323
 30
0.0
 11
226.2646057111057
 21
329.587171406323
 31
0.0
  0
LINE
  5
18C
330
5F
100
AcDbEntity
  8
1
  6
Continuous
 62
     7
100
AcDbLine
 10
226.2646057111057
 20
329.587171406323
 30
0.0
 11
236.4448005577112
 21
329.587171406323
 31
0.0
  0
LINE
  5
18D
330
5F
100
AcDbEntity
  8
1
  6
Continuous
 62
     7
100
AcDbLine
 10
226.2646057111057
 20
329.587171406323
 30
0.0
 11
226.9860776791107
 21
329.587171406323
 31
0.0
  0
LINE
  5
18E
330
5F
100
AcDbEntity
  8
1
  6
Continuous
 62
     7
100
AcDbLine
 10
226.2646057111057
 20
317.587171406323
 30
0.0
 11
239.4448005577112
 21
317.587171406323
 31
0.0
  0
LINE
  5
18F
330
5F
100
AcDbEntity
  8
1
  6
Continuous
 62
     7
100
AcDbLine
 10
162.6249954043166
 20
329.587171406323
 30
0.0
 11
164.9349587195045
 21
329.587171406323
 31
0.0
  0
LINE
  5
190
330
5F
100
AcDbEntity
  8
1
  6
Continuous
 62
     7
100
AcDbLine
 10
162.6249954043166
 20
329.587171406323
 30
0.0
 11
194.4448005577133
 21
329.587171406323
 31
0.0
  0
LINE
  5
191
330
5F
100
AcDbEntity
  8
1
  6
Continuous
 62
     7
100
AcDbLine
 10
149.948209065786
 20
327.21767398272
 30
0.0
 11
149.4448005577111
 21
317.587171406323
 31
0.0
  0
LINE
  5
192
330
5F
100
AcDbEntity
  8
1
  6
Continuous
 62
     7
100
AcDbLine
 10
187.4448005577133
 20
315.212097073877
 30
0.0
 11
187.4448005577133
 21
312.587171406323
 31
0.0
  0
LINE
  5
193
330
5F
100
AcDbEntity
  8
1
  6
Continuous
 62
     7
100
AcDbLine
 10
162.6249954043166
 20
317.587171406323
 30
0.0
 11
194.4448005577133
 21
317.587171406323
 31
0.0
  0
LINE
  5
194
330
5F
100
AcDbEntity
  8
1
  6
Continuous
 62
     7
100
AcDbLine
 10
186.0792922394383
 20
316.706055569802
 30
0.0
 11
177.8769692981073
 21
317.444459085991
 31
0.0
  0
LINE
  5
195
330
5F
100
AcDbEntity
  8
1
  6
Continuous
 62
     7
100
AcDbLine
 10
187.4448005577133
 20
315.3021207807551
 30
0.0
 11
187.4448005577133
 21
315.212097073877
 31
0.0
  0
LINE
  5
196
330
5F
100
AcDbEntity
  8
1
  6
Continuous
 62
     7
100
AcDbLine
 10
187.4448005577133
 20
312.587171406323
 30
0.0
 11
194.4448005577133
 21
312.587171406323
 31
0.0
  0
LINE
  5
197
330
5F
100
AcDbEntity
  8
1
  6
Continuous
 62
     7
100
AcDbLine
 10
179.773345625684
 20
327.21767398272
 30
0.0
 11
179.2699371176091
 21
317.587171406323
 31
0.0
  0
LINE
  5
198
330
5F
100
AcDbEntity
  8
0
  6
Continuous
 62
     7
100
AcDbLine
 10
162.6249954043166
 20
329.587171406323
 30
0.0
 11
162.6249954043166
 21
317.587171406323
 31
0.0
  0
LINE
  5
199
330
5F
100
AcDbEntity
  8
1
  6
Continuous
 62
     7
100
AcDbLine
 10
152.4448005577111
 20
329.587171406323
 30
0.0
 11
162.6249954043166
 21
329.587171406323
 31
0.0
  0
LINE
  5
19A
330
5F
100
AcDbEntity
  8
1
  6
Continuous
 62
     7
100
AcDbLine
 10
161.9035234363116
 20
329.587171406323
 30
0.0
 11
162.6249954043166
 21
329.587171406323
 31
0.0
  0
LINE
  5
19B
330
5F
100
AcDbEntity
  8
1
  6
Continuous
 62
     7
100
AcDbLine
 10
149.4448005577111
 20
317.587171406323
 30
0.0
 11
162.6249954043166
 21
317.587171406323
 31
0.0
  0
LINE
  5
19C
330
5F
100
AcDbEntity
  8
1
  6
Continuous
 62
     7
100
AcDbLine
 10
269.4448005577111
 20
317.587171406323
 30
0.0
 11
282.6249954043166
 21
317.587171406323
 31
0.0
  0
LINE
  5
19D
330
5F
100
AcDbEntity
  8
1
  6
Continuous
 62
     7
100
AcDbLine
 10
281.9035234363116
 20
329.587171406323
 30
0.0
 11
282.6249954043166
 21
329.587171406323
 31
0.0
  0
LINE
  5
19E
330
5F
100
AcDbEntity
  8
1
  6
Continuous
 62
     7
100
AcDbLine
 10
272.4448005577111
 20
329.587171406323
 30
0.0
 11
282.6249954043166
 21
329.587171406323
 31
0.0
  0
LINE
  5
19F
330
5F
100
AcDbEntity
  8
0
  6
Continuous
 62
     7
100
AcDbLine
 10
282.6249954043166
 20
329.587171406323
 30
0.0
 11
282.6249954043166
 21
317.587171406323
 31
0.0
  0
LINE
  5
1A0
330
5F
100
AcDbEntity
  8
1
  6
Continuous
 62
     7
100
AcDbLine
 10
299.773345625684
 20
327.21767398272
 30
0.0
 11
299.2699371176091
 21
317.587171406323
 31
0.0
  0
LINE
  5
1A1
330
5F
100
AcDbEntity
  8
1
  6
Continuous
 62
     7
100
AcDbLine
 10
307.4448005577133
 20
312.587171406323
 30
0.0
 11
314.4448005577133
 21
312.587171406323
 31
0.0
  0
LINE
  5
1A2
330
5F
100
AcDbEntity
  8
1
  6
Continuous
 62
     7
100
AcDbLine
 10
307.4448005577133
 20
315.3021207807551
 30
0.0
 11
307.4448005577133
 21
315.212097073877
 31
0.0
  0
LINE
  5
1A3
330
5F
100
AcDbEntity
  8
1
  6
Continuous
 62
     7
100
AcDbLine
 10
306.0792922394383
 20
316.706055569802
 30
0.0
 11
297.8769692981073
 21
317.444459085991
 31
0.0
  0
LINE
  5
1A4
330
5F
100
AcDbEntity
  8
1
  6
Continuous
 62
     7
100
AcDbLine
 10
282.6249954043166
 20
317.587171406323
 30
0.0
 11
314.4448005577133
 21
317.587171406323
 31
0.0
  0
LINE
  5
1A5
330
5F
100
AcDbEntity
  8
1
  6
Continuous
 62
     7
100
AcDbLine
 10
307.4448005577133
 20
315.212097073877
 30
0.0
 11
307.4448005577133
 21
312.587171406323
 31
0.0
  0
LINE
  5
1A6
330
5F
100
AcDbEntity
  8
1
  6
Continuous
 62
     7
100
AcDbLine
 10
269.948209065786
 20
327.21767398272
 30
0.0
 11
269.4448005577111
 21
317.587171406323
 31
0.0
  0
LINE
  5
1A7
330
5F
100
AcDbEntity
  8
1
  6
Continuous
 62
     7
100
AcDbLine
 10
282.6249954043166
 20
329.587171406323
 30
0.0
 11
314.4448005577133
 21
329.587171406323
 31
0.0
  0
LINE
  5
1A8
330
5F
100
AcDbEntity
  8
1
  6
Continuous
 62
     7
100
AcDbLine
 10
282.6249954043166
 20
329.587171406323
 30
0.0
 11
284.9349587195045
 21
329.587171406323
 31
0.0
  0
LINE
  5
1A9
330
5F
100
AcDbEntity
  8
1
  6
Continuous
 62
     7
100
AcDbLine
 10
346.2646057111057
 20
317.587171406323
 30
0.0
 11
359.4448005577112
 21
317.587171406323
 31
0.0
  0
LINE
  5
1AA
330
5F
100
AcDbEntity
  8
1
  6
Continuous
 62
     7
100
AcDbLine
 10
346.2646057111057
 20
329.587171406323
 30
0.0
 11
346.9860776791107
 21
329.587171406323
 31
0.0
  0
LINE
  5
1AB
330
5F
100
AcDbEntity
  8
1
  6
Continuous
 62
     7
100
AcDbLine
 10
346.2646057111057
 20
329.587171406323
 30
0.0
 11
356.4448005577112
 21
329.587171406323
 31
0.0
  0
LINE
  5
1AC
330
5F
100
AcDbEntity
  8
0
  6
Continuous
 62
     7
100
AcDbLine
 10
346.2646057111057
 20
317.587171406323
 30
0.0
 11
346.2646057111057
 21
329.587171406323
 31
0.0
  0
LINE
  5
1AD
330
5F
100
AcDbEntity
  8
1
  6
Continuous
 62
     7
100
AcDbLine
 10
329.6196639978135
 20
317.587171406323
 30
0.0
 11
329.1162554897395
 21
327.2176739827199
 31
0.0
  0
LINE
  5
1AE
330
5F
100
AcDbEntity
  8
1
  6
Continuous
 62
     7
100
AcDbLine
 10
314.4448005577112
 20
312.587171406323
 30
0.0
 11
321.4448005577112
 21
312.587171406323
 31
0.0
  0
LINE
  5
1AF
330
5F
100
AcDbEntity
  8
1
  6
Continuous
 62
     7
100
AcDbLine
 10
321.4448005577112
 20
315.212097073877
 30
0.0
 11
321.4448005577112
 21
315.3021207807551
 31
0.0
  0
LINE
  5
1B0
330
5F
100
AcDbEntity
  8
1
  6
Continuous
 62
     7
100
AcDbLine
 10
331.0126318173172
 20
317.444459085991
 30
0.0
 11
322.8103088759863
 21
316.706055569802
 31
0.0
  0
LINE
  5
1B1
330
5F
100
AcDbEntity
  8
1
  6
Continuous
 62
     7
100
AcDbLine
 10
314.4448005577112
 20
317.587171406323
 30
0.0
 11
346.2646057111057
 21
317.587171406323
 31
0.0
  0
LINE
  5
1B2
330
5F
100
AcDbEntity
  8
1
  6
Continuous
 62
     7
100
AcDbLine
 10
321.4448005577112
 20
312.587171406323
 30
0.0
 11
321.4448005577112
 21
315.212097073877
 31
0.0
  0
LINE
  5
1B3
330
5F
100
AcDbEntity
  8
1
  6
Continuous
 62
     7
100
AcDbLine
 10
359.4448005577112
 20
317.587171406323
 30
0.0
 11
358.9413920496363
 21
327.21767398272
 31
0.0
  0
LINE
  5
1B4
330
5F
100
AcDbEntity
  8
1
  6
Continuous
 62
     7
100
AcDbLine
 10
314.4448005577112
 20
329.587171406323
 30
0.0
 11
346.2646057111057
 21
329.587171406323
 31
0.0
  0
LINE
  5
1B5
330
5F
100
AcDbEntity
  8
1
  6
Continuous
 62
     7
100
AcDbLine
 10
343.9546423959176
 20
329.587171406323
 30
0.0
 11
346.2646057111057
 21
329.587171406323
 31
0.0
  0
ARC
  5
1B6
330
5F
100
AcDbEntity
  8
1
  6
Continuous
 62
     7
100
AcDbCircle
 10
236.4448005577112
 20
327.087171406323
 30
0.0
 40
2.49999999999981
100
AcDbArc
 50
2.99225874597663
 51
90.0
  0
ARC
  5
1B7
330
5F
100
AcDbEntity
  8
1
  6
Continuous
 62
     7
100
AcDbCircle
 10
206.6196639978135
 20
327.087171406323
 30
0.0
 40
2.500000000000713
100
AcDbArc
 50
2.99225874597294
 51
90.0
  0
ARC
  5
1B8
330
5F
100
AcDbEntity
  8
1
  6
Continuous
 62
     7
100
AcDbCircle
 10
152.4448005577111
 20
327.087171406323
 30
0.0
 40
2.5
100
AcDbArc
 50
90.0
 51
177.0077412540234
  0
ARC
  5
1B9
330
5F
100
AcDbEntity
  8
1
  6
Continuous
 62
     7
100
AcDbCircle
 10
182.269937117609
 20
327.0871714063231
 30
0.0
 40
2.499999999999943
100
AcDbArc
 50
89.99999999999805
 51
177.0077412540246
  0
ARC
  5
1BA
330
5F
100
AcDbEntity
  8
1
  6
Continuous
 62
     7
100
AcDbCircle
 10
302.269937117609
 20
327.0871714063231
 30
0.0
 40
2.499999999999943
100
AcDbArc
 50
89.99999999999739
 51
177.0077412540246
  0
ARC
  5
1BB
330
5F
100
AcDbEntity
  8
1
  6
Continuous
 62
     7
100
AcDbCircle
 10
272.4448005577111
 20
327.087171406323
 30
0.0
 40
2.5
100
AcDbArc
 50
90.0
 51
177.0077412540234
  0
ARC
  5
1BC
330
5F
100
AcDbEntity
  8
1
  6
Continuous
 62
     7
100
AcDbCircle
 10
326.6196639978135
 20
327.087171406323
 30
0.0
 40
2.500000000000684
100
AcDbArc
 50
2.99225874597298
 51
90.0
  0
ARC
  5
1BD
330
5F
100
AcDbEntity
  8
1
  6
Continuous
 62
     7
100
AcDbCircle
 10
356.4448005577112
 20
327.087171406323
 30
0.0
 40
2.499999999999839
100
AcDbArc
 50
2.9922587459766
 51
90.0
  0
ARC
  5
1BE
330
5F
100
AcDbEntity
  8
1
  6
Continuous
 62
     7
100
AcDbCircle
 10
203.9448005577112
 20
315.3021207807551
 30
0.0
 40
2.499999999999597
100
AcDbArc
 50
113.9330294587432
 51
180.0
  0
ARC
  5
1BF
330
5F
100
AcDbEntity
  8
1
  6
Continuous
 62
     7
100
AcDbCircle
 10
202.9448005577112
 20
315.212097073877
 30
0.0
 40
1.499999999999923
100
AcDbArc
 50
95.14411194522111
 51
180.0
  0
ARC
  5
1C0
330
5F
100
AcDbEntity
  8
1
  6
Continuous
 62
     7
100
AcDbCircle
 10
210.6988178932922
 20
320.9303622431489
 30
0.0
 40
3.499999999999349
100
AcDbArc
 50
275.1441119452257
 51
287.2156836162765
  0
ARC
  5
1C1
330
5F
100
AcDbEntity
  8
1
  6
Continuous
 62
     7
100
AcDbCircle
 10
184.9448005577133
 20
315.3021207807551
 30
0.0
 40
2.5
100
AcDbArc
 50
0.0
 51
66.06697054125684
  0
ARC
  5
1C2
330
5F
100
AcDbEntity
  8
1
  6
Continuous
 62
     7
100
AcDbCircle
 10
185.9448005577133
 20
315.212097073877
 30
0.0
 40
1.5
100
AcDbArc
 50
0.0
 51
84.85588805477565
  0
ARC
  5
1C3
330
5F
100
AcDbEntity
  8
1
  6
Continuous
 62
     7
100
AcDbCircle
 10
178.1907832221323
 20
320.9303622431489
 30
0.0
 40
3.499999999999389
100
AcDbArc
 50
252.7843163837254
 51
264.8558880547748
  0
ARC
  5
1C4
330
5F
100
AcDbEntity
  8
1
  6
Continuous
 62
     7
100
AcDbCircle
 10
298.1907832221323
 20
320.9303622431489
 30
0.0
 40
3.499999999999397
100
AcDbArc
 50
252.7843163837249
 51
264.8558880547748
  0
ARC
  5
1C5
330
5F
100
AcDbEntity
  8
1
  6
Continuous
 62
     7
100
AcDbCircle
 10
305.9448005577133
 20
315.212097073877
 30
0.0
 40
1.5
100
AcDbArc
 50
0.0
 51
84.85588805477457
  0
ARC
  5
1C6
330
5F
100
AcDbEntity
  8
1
  6
Continuous
 62
     7
100
AcDbCircle
 10
304.9448005577133
 20
315.3021207807551
 30
0.0
 40
2.5
100
AcDbArc
 50
0.0
 51
66.06697054125684
  0
ARC
  5
1C7
330
5F
100
AcDbEntity
  8
1
  6
Continuous
 62
     7
100
AcDbCircle
 10
330.6988178932922
 20
320.9303622431489
 30
0.0
 40
3.499999999999347
100
AcDbArc
 50
275.1441119452252
 51
287.2156836162769
  0
ARC
  5
1C8
330
5F
100
AcDbEntity
  8
1
  6
Continuous
 62
     7
100
AcDbCircle
 10
322.9448005577112
 20
315.212097073877
 30
0.0
 40
1.499999999999917
100
AcDbArc
 50
95.14411194521897
 51
180.0
  0
ARC
  5
1C9
330
5F
100
AcDbEntity
  8
1
  6
Continuous
 62
     7
100
AcDbCircle
 10
323.9448005577112
 20
315.3021207807551
 30
0.0
 40
2.499999999999597
100
AcDbArc
 50
113.9330294587432
 51
180.0
  0
ENDBLK
  5
61
330
5F
100
AcDbEntity
  8
0
100
AcDbBlockEnd
  0
BLOCK
  5
63
330
62
100
AcDbEntity
  8
0
100
AcDbBlockBegin
  2
V18-H10-40_50
 70
     0
 10
260.1642197373109
 20
426.937654245144
 30
0.0
  3
V18-H10-40_50
  1

  0
LINE
  5
1CA
330
62
100
AcDbEntity
  8
0
  6
PHANTOM
 62
     4
100
AcDbLine
 10
368.725381378111
 20
481.218235065544
 30
0.0
 11
260.1642197373109
 21
481.218235065544
 31
0.0
  0
LINE
  5
1CB
330
62
100
AcDbEntity
  8
0
  6
PHANTOM
 62
     4
100
AcDbLine
 10
314.4448005577112
 20
426.937654245144
 30
0.0
 11
314.4448005577112
 21
535.4988158859439
 31
0.0
  0
LINE
  5
1CC
330
62
100
AcDbEntity
  8
0
  6
Continuous
 62
     7
100
AcDbLine
 10
307.4448005577112
 20
481.218235065544
 30
0.0
 11
314.4448005577112
 21
488.218235065544
 31
0.0
  0
LINE
  5
1CD
330
62
100
AcDbEntity
  8
0
  6
Continuous
 62
     7
100
AcDbLine
 10
314.4448005577112
 20
488.218235065544
 30
0.0
 11
321.4448005577112
 21
481.218235065544
 31
0.0
  0
LINE
  5
1CE
330
62
100
AcDbEntity
  8
0
  6
Continuous
 62
     7
100
AcDbLine
 10
314.4448005577112
 20
474.218235065544
 30
0.0
 11
307.4448005577112
 21
481.218235065544
 31
0.0
  0
LINE
  5
1CF
330
62
100
AcDbEntity
  8
0
  6
Continuous
 62
     7
100
AcDbLine
 10
321.4448005577112
 20
481.218235065544
 30
0.0
 11
314.4448005577112
 21
474.218235065544
 31
0.0
  0
LINE
  5
1D0
330
62
100
AcDbEntity
  8
1
  6
DASH_CENTER
 62
     2
100
AcDbLine
 10
350.6948005577115
 20
481.218235065544
 30
0.0
 11
354.6948005577107
 21
481.218235065544
 31
0.0
  0
LINE
  5
1D1
330
62
100
AcDbEntity
  8
1
  6
Continuous
 62
     7
100
AcDbLine
 10
350.6948005577115
 20
481.218235065544
 30
0.0
 11
354.6948005577107
 21
481.218235065544
 31
0.0
  0
LINE
  5
1D2
330
62
100
AcDbEntity
  8
0
  6
Continuous
 62
     7
100
AcDbLine
 10
306.9448005577112
 20
452.4475903039129
 30
0.0
 11
306.9448005577112
 21
473.1714965958291
 31
0.0
  0
LINE
  5
1D3
330
62
100
AcDbEntity
  8
0
  6
Continuous
 62
     7
100
AcDbLine
 10
321.9448005577112
 20
473.1714965958291
 30
0.0
 11
321.9448005577112
 21
452.4475903039129
 31
0.0
  0
LINE
  5
1D4
330
62
100
AcDbEntity
  8
0
  6
Continuous
 62
     7
100
AcDbLine
 10
285.6741557960797
 20
488.718235065544
 30
0.0
 11
306.3980620879956
 21
488.718235065544
 31
0.0
  0
LINE
  5
1D5
330
62
100
AcDbEntity
  8
0
  6
Continuous
 62
     7
100
AcDbLine
 10
306.3980620879956
 20
473.718235065544
 30
0.0
 11
285.6741557960797
 21
473.718235065544
 31
0.0
  0
LINE
  5
1D6
330
62
100
AcDbEntity
  8
0
  6
Continuous
 62
     7
100
AcDbLine
 10
321.9448005577112
 20
509.9888798271759
 30
0.0
 11
321.9448005577112
 21
489.26497353526
 31
0.0
  0
LINE
  5
1D7
330
62
100
AcDbEntity
  8
0
  6
Continuous
 62
     7
100
AcDbLine
 10
306.9448005577112
 20
489.26497353526
 30
0.0
 11
306.9448005577112
 21
509.9888798271759
 31
0.0
  0
LINE
  5
1D8
330
62
100
AcDbEntity
  8
0
  6
Continuous
 62
     7
100
AcDbLine
 10
343.2154453193427
 20
473.718235065544
 30
0.0
 11
322.4915390274268
 21
473.718235065544
 31
0.0
  0
LINE
  5
1D9
330
62
100
AcDbEntity
  8
0
  6
Continuous
 62
     7
100
AcDbLine
 10
322.4915390274268
 20
488.718235065544
 30
0.0
 11
343.2154453193427
 21
488.718235065544
 31
0.0
  0
LINE
  5
1DA
330
62
100
AcDbEntity
  8
0
  6
Continuous
 62
     7
100
AcDbLine
 10
344.0481885596402
 20
450.0104398854299
 30
0.0
 11
344.8503921487323
 21
450.8126434745221
 31
0.0
  0
LINE
  5
1DB
330
62
100
AcDbEntity
  8
0
  6
Continuous
 62
     7
100
AcDbLine
 10
345.462402122013
 20
448.5962263230579
 30
0.0
 11
346.2646057111057
 21
449.3984299121501
 31
0.0
  0
LINE
  5
1DC
330
62
100
AcDbEntity
  8
0
  6
Continuous
 62
     7
100
AcDbLine
 10
283.2370053775974
 20
451.614847063615
 30
0.0
 11
284.0392089666896
 21
450.812643474523
 31
0.0
  0
LINE
  5
1DD
330
62
100
AcDbEntity
  8
0
  6
Continuous
 62
     7
100
AcDbLine
 10
281.8227918152244
 20
450.2006335012421
 30
0.0
 11
282.6249954043166
 21
449.3984299121501
 31
0.0
  0
LINE
  5
1DE
330
62
100
AcDbEntity
  8
0
  6
Continuous
 62
     7
100
AcDbLine
 10
313.3103133622323
 20
438.218235065544
 30
0.0
 11
314.4448005577108
 21
438.218235065544
 31
0.0
  0
LINE
  5
1DF
330
62
100
AcDbEntity
  8
0
  6
Continuous
 62
     7
100
AcDbLine
 10
313.3103133622323
 20
436.2182350655449
 30
0.0
 11
314.4448005577112
 21
436.218235065544
 31
0.0
  0
LINE
  5
1E0
330
62
100
AcDbEntity
  8
0
  6
Continuous
 62
     7
100
AcDbLine
 10
315.5792877531898
 20
524.2182350655439
 30
0.0
 11
314.4448005577112
 21
524.2182350655439
 31
0.0
  0
LINE
  5
1E1
330
62
100
AcDbEntity
  8
0
  6
Continuous
 62
     7
100
AcDbLine
 10
315.5792877531899
 20
526.2182350655439
 30
0.0
 11
314.4448005577112
 21
526.2182350655439
 31
0.0
  0
LINE
  5
1E2
330
62
100
AcDbEntity
  8
0
  6
Continuous
 62
     7
100
AcDbLine
 10
271.4448005577111
 20
482.3527222610231
 30
0.0
 11
271.4448005577111
 21
481.218235065544
 31
0.0
  0
LINE
  5
1E3
330
62
100
AcDbEntity
  8
0
  6
Continuous
 62
     7
100
AcDbLine
 10
269.4448005577111
 20
482.3527222610231
 30
0.0
 11
269.4448005577111
 21
481.218235065544
 31
0.0
  0
LINE
  5
1E4
330
62
100
AcDbEntity
  8
0
  6
Continuous
 62
     7
100
AcDbLine
 10
284.8414125557819
 20
512.426030245658
 30
0.0
 11
284.0392089666896
 21
511.6238266565661
 31
0.0
  0
LINE
  5
1E5
330
62
100
AcDbEntity
  8
0
  6
Continuous
 62
     7
100
AcDbLine
 10
283.4271989934089
 20
513.8402438080309
 30
0.0
 11
282.6249954043166
 21
513.0380402189389
 31
0.0
  0
LINE
  5
1E6
330
62
100
AcDbEntity
  8
0
  6
Continuous
 62
     7
100
AcDbLine
 10
345.6525957378248
 20
510.821623067473
 30
0.0
 11
344.8503921487326
 21
511.6238266565661
 31
0.0
  0
LINE
  5
1E7
330
62
100
AcDbEntity
  8
0
  6
Continuous
 62
     7
100
AcDbLine
 10
347.0668093001983
 20
512.235836629847
 30
0.0
 11
346.2646057111057
 21
513.0380402189389
 31
0.0
  0
LINE
  5
1E8
330
62
100
AcDbEntity
  8
0
  6
Continuous
 62
     7
100
AcDbLine
 10
357.4448005577112
 20
480.0837478700651
 30
0.0
 11
357.4448005577112
 21
481.218235065544
 31
0.0
  0
LINE
  5
1E9
330
62
100
AcDbEntity
  8
0
  6
Continuous
 62
     7
100
AcDbLine
 10
359.4448005577112
 20
480.0837478700651
 30
0.0
 11
359.4448005577112
 21
482.3527222610231
 31
0.0
  0
LINE
  5
1EA
330
62
100
AcDbEntity
  8
0
  6
Continuous
 62
     7
100
AcDbLine
 10
344.8503921487323
 20
450.8126434745221
 30
0.0
 11
345.652595737825
 21
451.614847063615
 31
0.0
  0
LINE
  5
1EB
330
62
100
AcDbEntity
  8
0
  6
Continuous
 62
     7
100
AcDbLine
 10
346.2646057111057
 20
449.3984299121501
 30
0.0
 11
347.0668093001976
 21
450.2006335012421
 31
0.0
  0
LINE
  5
1EC
330
62
100
AcDbEntity
  8
0
  6
Continuous
 62
     7
100
AcDbLine
 10
314.4448005577108
 20
438.218235065544
 30
0.0
 11
315.5792877531899
 21
438.218235065544
 31
0.0
  0
LINE
  5
1ED
330
62
100
AcDbEntity
  8
0
  6
Continuous
 62
     7
100
AcDbLine
 10
314.4448005577112
 20
436.218235065544
 30
0.0
 11
315.5792877531898
 21
436.2182350655449
 31
0.0
  0
LINE
  5
1EE
330
62
100
AcDbEntity
  8
0
  6
Continuous
 62
     7
100
AcDbLine
 10
284.0392089666896
 20
450.812643474523
 30
0.0
 11
284.8414125557819
 21
450.0104398854299
 31
0.0
  0
LINE
  5
1EF
330
62
100
AcDbEntity
  8
0
  6
Continuous
 62
     7
100
AcDbLine
 10
282.6249954043166
 20
449.3984299121501
 30
0.0
 11
283.427198993409
 21
448.596226323057
 31
0.0
  0
LINE
  5
1F0
330
62
100
AcDbEntity
  8
0
  6
Continuous
 62
     7
100
AcDbLine
 10
271.4448005577111
 20
481.218235065544
 30
0.0
 11
271.4448005577111
 21
480.0837478700651
 31
0.0
  0
LINE
  5
1F1
330
62
100
AcDbEntity
  8
0
  6
Continuous
 62
     7
100
AcDbLine
 10
269.4448005577111
 20
481.218235065544
 30
0.0
 11
269.4448005577111
 21
480.0837478700651
 31
0.0
  0
LINE
  5
1F2
330
62
100
AcDbEntity
  8
0
  6
Continuous
 62
     7
100
AcDbLine
 10
284.0392089666896
 20
511.6238266565661
 30
0.0
 11
283.2370053775974
 21
510.821623067473
 31
0.0
  0
LINE
  5
1F3
330
62
100
AcDbEntity
  8
0
  6
Continuous
 62
     7
100
AcDbLine
 10
282.6249954043166
 20
513.0380402189389
 30
0.0
 11
281.8227918152242
 21
512.2358366298458
 31
0.0
  0
LINE
  5
1F4
330
62
100
AcDbEntity
  8
0
  6
Continuous
 62
     7
100
AcDbLine
 10
314.4448005577112
 20
524.2182350655439
 30
0.0
 11
313.3103133622323
 21
524.2182350655439
 31
0.0
  0
LINE
  5
1F5
330
62
100
AcDbEntity
  8
0
  6
Continuous
 62
     7
100
AcDbLine
 10
314.4448005577112
 20
526.2182350655439
 30
0.0
 11
313.3103133622323
 21
526.2182350655439
 31
0.0
  0
LINE
  5
1F6
330
62
100
AcDbEntity
  8
0
  6
Continuous
 62
     7
100
AcDbLine
 10
344.8503921487326
 20
511.6238266565661
 30
0.0
 11
344.0481885596402
 21
512.426030245658
 31
0.0
  0
LINE
  5
1F7
330
62
100
AcDbEntity
  8
0
  6
Continuous
 62
     7
100
AcDbLine
 10
346.2646057111057
 20
513.0380402189389
 30
0.0
 11
345.4624021220133
 21
513.8402438080309
 31
0.0
  0
LINE
  5
1F8
330
62
100
AcDbEntity
  8
0
  6
Continuous
 62
     7
100
AcDbLine
 10
357.4448005577112
 20
481.218235065544
 30
0.0
 11
357.4448005577112
 21
482.3527222610231
 31
0.0
  0
ARC
  5
1F9
330
62
100
AcDbEntity
  8
0
  6
Continuous
 62
     7
100
AcDbCircle
 10
305.9448005577112
 20
452.4475903039129
 30
0.0
 40
1.0
100
AcDbArc
 50
270.0
 51
0.0
  0
ARC
  5
1FA
330
62
100
AcDbEntity
  8
0
  6
Continuous
 62
     7
100
AcDbCircle
 10
305.9448005577112
 20
452.4475903039129
 30
0.0
 40
1.000000000000471
100
AcDbArc
 50
253.5407503717496
 51
270.0
  0
ARC
  5
1FB
330
62
100
AcDbEntity
  8
0
  6
Continuous
 62
     7
100
AcDbCircle
 10
322.9448005577112
 20
452.4475903039129
 30
0.0
 40
1.0
100
AcDbArc
 50
180.0
 51
270.0
  0
ARC
  5
1FC
330
62
100
AcDbEntity
  8
0
  6
Continuous
 62
     7
100
AcDbCircle
 10
322.9448005577112
 20
452.4475903039129
 30
0.0
 40
1.0
100
AcDbArc
 50
270.0
 51
286.4592496282504
  0
ARC
  5
1FD
330
62
100
AcDbEntity
  8
0
  6
Continuous
 62
     7
100
AcDbCircle
 10
285.6741557960797
 20
489.718235065544
 30
0.0
 40
1.0
100
AcDbArc
 50
180.0
 51
270.0
  0
ARC
  5
1FE
330
62
100
AcDbEntity
  8
0
  6
Continuous
 62
     7
100
AcDbCircle
 10
285.6741557960797
 20
489.718235065544
 30
0.0
 40
1.000000000000299
100
AcDbArc
 50
163.5407503717025
 51
180.0
  0
ARC
  5
1FF
330
62
100
AcDbEntity
  8
0
  6
Continuous
 62
     7
100
AcDbCircle
 10
285.6741557960797
 20
472.718235065544
 30
0.0
 40
1.0
100
AcDbArc
 50
90.0
 51
180.0
  0
ARC
  5
200
330
62
100
AcDbEntity
  8
0
  6
Continuous
 62
     7
100
AcDbCircle
 10
285.6741557960797
 20
472.718235065544
 30
0.0
 40
1.0
100
AcDbArc
 50
180.0
 51
196.4592496282444
  0
ARC
  5
201
330
62
100
AcDbEntity
  8
0
  6
Continuous
 62
     7
100
AcDbCircle
 10
322.9448005577112
 20
509.9888798271759
 30
0.0
 40
1.0
100
AcDbArc
 50
90.0
 51
180.0
  0
ARC
  5
202
330
62
100
AcDbEntity
  8
0
  6
Continuous
 62
     7
100
AcDbCircle
 10
322.9448005577112
 20
509.9888798271759
 30
0.0
 40
0.9999999999997629
100
AcDbArc
 50
73.54075037173757
 51
90.0
  0
ARC
  5
203
330
62
100
AcDbEntity
  8
0
  6
Continuous
 62
     7
100
AcDbCircle
 10
305.9448005577112
 20
509.9888798271759
 30
0.0
 40
1.0
100
AcDbArc
 50
0.0
 51
90.0
  0
ARC
  5
204
330
62
100
AcDbEntity
  8
0
  6
Continuous
 62
     7
100
AcDbCircle
 10
305.9448005577112
 20
509.9888798271759
 30
0.0
 40
1.0
100
AcDbArc
 50
90.0
 51
106.4592496282624
  0
ARC
  5
205
330
62
100
AcDbEntity
  8
0
  6
Continuous
 62
     7
100
AcDbCircle
 10
343.2154453193427
 20
472.718235065544
 30
0.0
 40
1.0
100
AcDbArc
 50
0.0
 51
90.0
  0
ARC
  5
206
330
62
100
AcDbEntity
  8
0
  6
Continuous
 62
     7
100
AcDbCircle
 10
343.2154453193427
 20
472.718235065544
 30
0.0
 40
1.00000000000008
100
AcDbArc
 50
343.5407503717565
 51
0.0
  0
ARC
  5
207
330
62
100
AcDbEntity
  8
0
  6
Continuous
 62
     7
100
AcDbCircle
 10
343.2154453193427
 20
489.718235065544
 30
0.0
 40
1.0
100
AcDbArc
 50
270.0
 51
0.0
  0
ARC
  5
208
330
62
100
AcDbEntity
  8
0
  6
Continuous
 62
     7
100
AcDbCircle
 10
343.2154453193427
 20
489.718235065544
 30
0.0
 40
1.0
100
AcDbArc
 50
0.0
 51
16.45924962829657
  0
ARC
  5
209
330
62
100
AcDbEntity
  8
0
  6
Continuous
 62
     7
100
AcDbCircle
 10
343.3410817784534
 20
450.717546666617
 30
0.0
 40
1.000000000002919
100
AcDbArc
 50
283.0860234520731
 51
314.9999999999885
  0
ARC
  5
20A
330
62
100
AcDbEntity
  8
0
  6
Continuous
 62
     7
100
AcDbCircle
 10
343.3410817784534
 20
450.717546666617
 30
0.0
 40
3.000000000002626
100
AcDbArc
 50
283.0860234520824
 51
315.0000000000069
  0
ARC
  5
20B
330
62
100
AcDbEntity
  8
0
  6
Continuous
 62
     7
100
AcDbCircle
 10
283.944112158784
 20
452.3219538448021
 30
0.0
 40
1.000000000002787
100
AcDbArc
 50
193.0860234520982
 51
225.000000000023
  0
ARC
  5
20C
330
62
100
AcDbEntity
  8
0
  6
Continuous
 62
     7
100
AcDbCircle
 10
283.944112158784
 20
452.3219538448021
 30
0.0
 40
3.000000000003057
100
AcDbArc
 50
193.0860234520939
 51
225.0000000000053
  0
ARC
  5
20D
330
62
100
AcDbEntity
  8
0
  6
Continuous
 62
     7
100
AcDbCircle
 10
313.3103133622323
 20
439.218235065544
 30
0.0
 40
1.000000000001728
100
AcDbArc
 50
238.0860234520355
 51
270.0
  0
ARC
  5
20E
330
62
100
AcDbEntity
  8
0
  6
Continuous
 62
     7
100
AcDbCircle
 10
313.3103133622323
 20
439.218235065544
 30
0.0
 40
3.000000000002791
100
AcDbArc
 50
238.0860234520761
 51
270.0
  0
ARC
  5
20F
330
62
100
AcDbEntity
  8
0
  6
Continuous
 62
     7
100
AcDbCircle
 10
315.5792877531899
 20
523.2182350655439
 30
0.0
 40
1.000000000002399
100
AcDbArc
 50
58.08602345207859
 51
90.00000000000325
  0
ARC
  5
210
330
62
100
AcDbEntity
  8
0
  6
Continuous
 62
     7
100
AcDbCircle
 10
315.5792877531899
 20
523.2182350655439
 30
0.0
 40
3.000000000002532
100
AcDbArc
 50
58.08602345208195
 51
90.0
  0
ARC
  5
211
330
62
100
AcDbEntity
  8
0
  6
Continuous
 62
     7
100
AcDbCircle
 10
272.4448005577111
 20
482.3527222610231
 30
0.0
 40
1.000000000002784
100
AcDbArc
 50
148.0860234520616
 51
180.0
  0
ARC
  5
212
330
62
100
AcDbEntity
  8
0
  6
Continuous
 62
     7
100
AcDbCircle
 10
272.4448005577111
 20
482.3527222610231
 30
0.0
 40
3.000000000002947
100
AcDbArc
 50
148.0860234520754
 51
180.0
  0
ARC
  5
213
330
62
100
AcDbEntity
  8
0
  6
Continuous
 62
     7
100
AcDbCircle
 10
285.5485193369686
 20
511.718923464471
 30
0.0
 40
1.000000000002765
100
AcDbArc
 50
103.0860234520784
 51
134.9999999999862
  0
ARC
  5
214
330
62
100
AcDbEntity
  8
0
  6
Continuous
 62
     7
100
AcDbCircle
 10
285.5485193369686
 20
511.718923464471
 30
0.0
 40
3.000000000002528
100
AcDbArc
 50
103.086023452084
 51
134.9999999999969
  0
ARC
  5
215
330
62
100
AcDbEntity
  8
0
  6
Continuous
 62
     7
100
AcDbCircle
 10
344.9454889566384
 20
510.114516286287
 30
0.0
 40
1.000000000002331
100
AcDbArc
 50
13.08602345210091
 51
44.99999999998388
  0
ARC
  5
216
330
62
100
AcDbEntity
  8
0
  6
Continuous
 62
     7
100
AcDbCircle
 10
344.9454889566384
 20
510.114516286287
 30
0.0
 40
3.000000000002395
100
AcDbArc
 50
13.08602345207786
 51
45.00000000000077
  0
ARC
  5
217
330
62
100
AcDbEntity
  8
0
  6
Continuous
 62
     7
100
AcDbCircle
 10
356.4448005577112
 20
480.0837478700651
 30
0.0
 40
1.000000000002338
100
AcDbArc
 50
328.0860234520841
 51
0.0
  0
ARC
  5
218
330
62
100
AcDbEntity
  8
0
  6
Continuous
 62
     7
100
AcDbCircle
 10
356.4448005577112
 20
480.0837478700651
 30
0.0
 40
3.000000000002322
100
AcDbArc
 50
328.0860234520884
 51
0.0
  0
ARC
  5
219
330
62
100
AcDbEntity
  8
0
  6
Continuous
 62
     7
100
AcDbCircle
 10
344.9454889566384
 20
452.3219538448021
 30
0.0
 40
1.00000000000041
100
AcDbArc
 50
314.9999999999769
 51
346.913976547896
  0
ARC
  5
21A
330
62
100
AcDbEntity
  8
0
  6
Continuous
 62
     7
100
AcDbCircle
 10
434.4160974035689
 20
431.5244968165021
 30
0.0
 40
90.8559959649199
100
AcDbArc
 50
148.2215707886452
 51
166.9139765479171
  0
ARC
  5
21B
330
62
100
AcDbEntity
  8
0
  6
Continuous
 62
     7
100
AcDbCircle
 10
344.9454889566384
 20
452.3219538448021
 30
0.0
 40
2.999999999999904
100
AcDbArc
 50
314.9999999999885
 51
346.9139765479226
  0
ARC
  5
21C
330
62
100
AcDbEntity
  8
0
  6
Continuous
 62
     7
100
AcDbCircle
 10
434.4160974035689
 20
431.5244968165021
 30
0.0
 40
88.85599596491934
100
AcDbArc
 50
148.221570788645
 51
166.9139765479167
  0
ARC
  5
21D
330
62
100
AcDbEntity
  8
0
  6
Continuous
 62
     7
100
AcDbCircle
 10
315.5792877531899
 20
439.218235065544
 30
0.0
 40
1.0
100
AcDbArc
 50
270.0
 51
301.91397654797
  0
ARC
  5
21E
330
62
100
AcDbEntity
  8
0
  6
Continuous
 62
     7
100
AcDbCircle
 10
364.1385388067537
 20
361.246938219686
 30
0.0
 40
90.85599596492061
100
AcDbArc
 50
103.2215707886445
 51
121.9139765479159
  0
ARC
  5
21F
330
62
100
AcDbEntity
  8
0
  6
Continuous
 62
     7
100
AcDbCircle
 10
315.5792877531899
 20
439.218235065544
 30
0.0
 40
2.999999999999091
100
AcDbArc
 50
269.9999999999989
 51
301.9139765479202
  0
ARC
  5
220
330
62
100
AcDbEntity
  8
0
  6
Continuous
 62
     7
100
AcDbCircle
 10
364.1385388067537
 20
361.246938219686
 30
0.0
 40
88.85599596492015
100
AcDbArc
 50
103.2215707886444
 51
121.9139765479164
  0
ARC
  5
221
330
62
100
AcDbEntity
  8
0
  6
Continuous
 62
     7
100
AcDbCircle
 10
285.5485193369686
 20
450.717546666617
 30
0.0
 40
1.00000000000049
100
AcDbArc
 50
225.0000000000184
 51
256.9139765479301
  0
ARC
  5
222
330
62
100
AcDbEntity
  8
0
  6
Continuous
 62
     7
100
AcDbCircle
 10
264.7510623086679
 20
361.246938219686
 30
0.0
 40
90.85599596492055
100
AcDbArc
 50
58.22157078864461
 51
76.91397654791632
  0
ARC
  5
223
330
62
100
AcDbEntity
  8
0
  6
Continuous
 62
     7
100
AcDbCircle
 10
285.5485193369686
 20
450.717546666617
 30
0.0
 40
3.000000000000225
100
AcDbArc
 50
225.0000000000053
 51
256.9139765479208
  0
ARC
  5
224
330
62
100
AcDbEntity
  8
0
  6
Continuous
 62
     7
100
AcDbCircle
 10
264.7510623086679
 20
361.246938219686
 30
0.0
 40
88.8559959649206
100
AcDbArc
 50
58.22157078864456
 51
76.91397654791633
  0
ARC
  5
225
330
62
100
AcDbEntity
  8
0
  6
Continuous
 62
     7
100
AcDbCircle
 10
272.4448005577111
 20
480.0837478700651
 30
0.0
 40
1.0
100
AcDbArc
 50
180.0
 51
211.9139765479107
  0
ARC
  5
226
330
62
100
AcDbEntity
  8
0
  6
Continuous
 62
     7
100
AcDbCircle
 10
194.4735037118529
 20
431.5244968165021
 30
0.0
 40
90.85599596492072
100
AcDbArc
 50
13.22157078864448
 51
31.91397654791609
  0
ARC
  5
227
330
62
100
AcDbEntity
  8
0
  6
Continuous
 62
     7
100
AcDbCircle
 10
272.4448005577111
 20
480.0837478700651
 30
0.0
 40
3.0
100
AcDbArc
 50
180.0
 51
211.9139765479099
  0
ARC
  5
228
330
62
100
AcDbEntity
  8
0
  6
Continuous
 62
     7
100
AcDbCircle
 10
194.4735037118529
 20
431.5244968165021
 30
0.0
 40
88.85599596492006
100
AcDbArc
 50
13.22157078864394
 51
31.91397654791624
  0
ARC
  5
229
330
62
100
AcDbEntity
  8
0
  6
Continuous
 62
     7
100
AcDbCircle
 10
283.9441121587839
 20
510.114516286287
 30
0.0
 40
0.9999999999995659
100
AcDbArc
 50
135.0000000000207
 51
166.913976547905
  0
ARC
  5
22A
330
62
100
AcDbEntity
  8
0
  6
Continuous
 62
     7
100
AcDbCircle
 10
194.4735037118529
 20
530.9119733145869
 30
0.0
 40
90.85599596492054
100
AcDbArc
 50
328.2215707886447
 51
346.9139765479171
  0
ARC
  5
22B
330
62
100
AcDbEntity
  8
0
  6
Continuous
 62
     7
100
AcDbCircle
 10
283.9441121587839
 20
510.114516286287
 30
0.0
 40
2.999999999999461
100
AcDbArc
 50
135.0000000000123
 51
166.9139765479224
  0
ARC
  5
22C
330
62
100
AcDbEntity
  8
0
  6
Continuous
 62
     7
100
AcDbCircle
 10
194.4735037118529
 20
530.9119733145869
 30
0.0
 40
88.85599596492061
100
AcDbArc
 50
328.2215707886448
 51
346.9139765479168
  0
ARC
  5
22D
330
62
100
AcDbEntity
  8
0
  6
Continuous
 62
     7
100
AcDbCircle
 10
313.3103133622323
 20
523.2182350655439
 30
0.0
 40
1.0
100
AcDbArc
 50
90.0
 51
121.9139765479297
  0
ARC
  5
22E
330
62
100
AcDbEntity
  8
0
  6
Continuous
 62
     7
100
AcDbCircle
 10
264.7510623086679
 20
601.1895319114019
 30
0.0
 40
90.85599596491991
100
AcDbArc
 50
283.2215707886451
 51
301.9139765479167
  0
ARC
  5
22F
330
62
100
AcDbEntity
  8
0
  6
Continuous
 62
     7
100
AcDbCircle
 10
313.3103133622323
 20
523.2182350655439
 30
0.0
 40
3.0
100
AcDbArc
 50
90.0
 51
121.913976547919
  0
ARC
  5
230
330
62
100
AcDbEntity
  8
0
  6
Continuous
 62
     7
100
AcDbCircle
 10
264.7510623086679
 20
601.1895319114019
 30
0.0
 40
88.85599596491926
100
AcDbArc
 50
283.2215707886451
 51
301.9139765479168
  0
ARC
  5
231
330
62
100
AcDbEntity
  8
0
  6
Continuous
 62
     7
100
AcDbCircle
 10
343.3410817784538
 20
511.718923464471
 30
0.0
 40
1.000000000000209
100
AcDbArc
 50
45.00000000002534
 51
76.91397654792476
  0
ARC
  5
232
330
62
100
AcDbEntity
  8
0
  6
Continuous
 62
     7
100
AcDbCircle
 10
364.1385388067542
 20
601.1895319114019
 30
0.0
 40
90.85599596492033
100
AcDbArc
 50
238.2215707886445
 51
256.9139765479166
  0
ARC
  5
233
330
62
100
AcDbEntity
  8
0
  6
Continuous
 62
     7
100
AcDbCircle
 10
343.3410817784538
 20
511.718923464471
 30
0.0
 40
3.000000000000064
100
AcDbArc
 50
45.00000000000538
 51
76.91397654792202
  0
ARC
  5
234
330
62
100
AcDbEntity
  8
0
  6
Continuous
 62
     7
100
AcDbCircle
 10
364.1385388067542
 20
601.1895319114019
 30
0.0
 40
88.8559959649196
100
AcDbArc
 50
238.2215707886445
 51
256.9139765479165
  0
ARC
  5
235
330
62
100
AcDbEntity
  8
0
  6
Continuous
 62
     7
100
AcDbCircle
 10
356.4448005577112
 20
482.3527222610231
 30
0.0
 40
1.0
100
AcDbArc
 50
0.0
 51
31.91397654794353
  0
ARC
  5
236
330
62
100
AcDbEntity
  8
0
  6
Continuous
 62
     7
100
AcDbCircle
 10
434.4160974035694
 20
530.9119733145869
 30
0.0
 40
90.85599596492065
100
AcDbArc
 50
193.2215707886445
 51
211.9139765479162
  0
ARC
  5
237
330
62
100
AcDbEntity
  8
0
  6
Continuous
 62
     7
100
AcDbCircle
 10
356.4448005577112
 20
482.3527222610231
 30
0.0
 40
3.0
100
AcDbArc
 50
0.0
 51
31.91397654791161
  0
ARC
  5
238
330
62
100
AcDbEntity
  8
0
  6
Continuous
 62
     7
100
AcDbCircle
 10
434.4160974035694
 20
530.9119733145869
 30
0.0
 40
88.85599596492013
100
AcDbArc
 50
193.2215707886446
 51
211.9139765479167
  0
CIRCLE
  5
239
330
62
100
AcDbEntity
  8
0
  6
Continuous
 62
     7
100
AcDbCircle
 10
314.4448005577112
 20
481.218235065544
 30
0.0
 40
31.0
  0
CIRCLE
  5
23A
330
62
100
AcDbEntity
  8
0
  6
Continuous
 62
     7
100
AcDbCircle
 10
314.4448005577112
 20
481.218235065544
 30
0.0
 40
11.00000000000008
  0
CIRCLE
  5
23B
330
62
100
AcDbEntity
  8
0
  6
Continuous
 62
     7
100
AcDbCircle
 10
314.4448005577112
 20
481.218235065544
 30
0.0
 40
33.5
  0
ENDBLK
  5
64
330
62
100
AcDbEntity
  8
0
100
AcDbBlockEnd
  0
BLOCK
  5
27F
330
278
100
AcDbEntity
  8
0
100
AcDbBlockBegin
  2
*D11
 70
     1
 10
0.0
 20
0.0
 30
0.0
  3
*D11
  1

  0
LINE
  5
279
330
278
100
AcDbEntity
  8
1
  6
Continuous
 62
     2
100
AcDbLine
 10
149.444800557711
 20
349.587171406323
 30
0.0
 11
239.4448005577111
 21
349.587171406323
 31
0.0
  0
LINE
  5
27A
330
278
100
AcDbEntity
  8
1
  6
Continuous
 62
     2
100
AcDbLine
 10
239.4448005577111
 20
317.587171406323
 30
0.0
 11
239.4448005577111
 21
351.587171406323
 31
0.0
  0
LINE
  5
27B
330
278
100
AcDbEntity
  8
1
  6
Continuous
 62
     2
100
AcDbLine
 10
149.444800557711
 20
317.587171406323
 30
0.0
 11
149.444800557711
 21
351.587171406323
 31
0.0
  0
SOLID
  5
27C
330
278
100
AcDbEntity
  8
1
 62
     2
100
AcDbTrace
 10
156.444800557711
 20
350.5087388894348
 30
0.0
 11
156.444800557711
 21
348.6656039232113
 31
0.0
 12
149.444800557711
 22
349.587171406323
 32
0.0
 13
149.444800557711
 23
349.587171406323
 33
0.0
  0
SOLID
  5
27D
330
278
100
AcDbEntity
  8
1
 62
     2
100
AcDbTrace
 10
232.4448005577111
 20
348.6656039232113
 30
0.0
 11
232.4448005577111
 21
350.5087388894348
 31
0.0
 12
239.4448005577111
 22
349.587171406323
 32
0.0
 13
239.4448005577111
 23
349.587171406323
 33
0.0
  0
MTEXT
  5
27E
330
278
100
AcDbEntity
  8
1
 62
     7
100
AcDbMText
 10
211.6948005577112
 20
351.587171406323
 30
0.0
 40
7.0
 41
0.0
 71
     7
 72
     1
  1
90
  7
CONVERTER_12
 11
0.9999999999970619
 21
2.424068405545306E-6
 31
0.0
 73
     1
 44
0.60024009603842
  0
ENDBLK
  5
280
330
278
100
AcDbEntity
  8
0
100
AcDbBlockEnd
  0
BLOCK
  5
28A
330
283
100
AcDbEntity
  8
0
100
AcDbBlockBegin
  2
*D12
 70
     1
 10
0.0
 20
0.0
 30
0.0
  3
*D12
  1

  0
LINE
  5
284
330
283
100
AcDbEntity
  8
1
  6
Continuous
 62
     2
100
AcDbLine
 10
259.509452443067
 20
329.587171406323
 30
0.0
 11
259.509452443067
 21
215.587171406323
 31
0.0
  0
LINE
  5
285
330
283
100
AcDbEntity
  8
1
  6
Continuous
 62
     2
100
AcDbLine
 10
217.5388113252973
 20
215.587171406323
 30
0.0
 11
261.509452443067
 21
215.587171406323
 31
0.0
  0
LINE
  5
286
330
283
100
AcDbEntity
  8
1
  6
Continuous
 62
     2
100
AcDbLine
 10
236.4448005577112
 20
329.587171406323
 30
0.0
 11
261.509452443067
 21
329.587171406323
 31
0.0
  0
SOLID
  5
287
330
283
100
AcDbEntity
  8
1
 62
     2
100
AcDbTrace
 10
260.4310199261787
 20
322.587171406323
 30
0.0
 11
258.5878849599553
 21
322.587171406323
 31
0.0
 12
259.509452443067
 22
329.587171406323
 32
0.0
 13
259.509452443067
 23
329.587171406323
 33
0.0
  0
SOLID
  5
288
330
283
100
AcDbEntity
  8
1
 62
     2
100
AcDbTrace
 10
258.5878849599553
 20
222.587171406323
 30
0.0
 11
260.4310199261787
 21
222.587171406323
 31
0.0
 12
259.509452443067
 22
215.587171406323
 32
0.0
 13
259.509452443067
 23
215.587171406323
 33
0.0
  0
MTEXT
  5
289
330
283
100
AcDbEntity
  8
1
 62
     7
100
AcDbMText
 10
257.509452443067
 20
265.70129898831
 30
0.0
 40
7.0
 41
0.0
 71
     7
 72
     1
  1
H
  7
CONVERTER_12
 11
0.0
 21
1.0
 31
0.0
 73
     1
 44
0.60024009603842
  0
ENDBLK
  5
28B
330
283
100
AcDbEntity
  8
0
100
AcDbBlockEnd
  0
BLOCK
  5
295
330
28E
100
AcDbEntity
  8
0
100
AcDbBlockBegin
  2
*D13
 70
     1
 10
0.0
 20
0.0
 30
0.0
  3
*D13
  1

  0
LINE
  5
28F
330
28E
100
AcDbEntity
  8
0
  6
Continuous
 62
     2
100
AcDbLine
 10
137.4448005577121
 20
365.587171406323
 30
0.0
 11
194.4448005577112
 21
365.587171406323
 31
0.0
  0
LINE
  5
290
330
28E
100
AcDbEntity
  8
0
  6
Continuous
 62
     2
100
AcDbLine
 10
194.4448005577112
 20
335.587171406323
 30
0.0
 11
194.4448005577112
 21
367.587171406323
 31
0.0
  0
LINE
  5
291
330
28E
100
AcDbEntity
  8
0
  6
Continuous
 62
     2
100
AcDbLine
 10
137.4448005577121
 20
261.087171406323
 30
0.0
 11
137.4448005577121
 21
367.587171406323
 31
0.0
  0
SOLID
  5
292
330
28E
100
AcDbEntity
  8
0
 62
     2
100
AcDbTrace
 10
144.4448005577121
 20
366.5087388894348
 30
0.0
 11
144.4448005577121
 21
364.6656039232113
 31
0.0
 12
137.4448005577121
 22
365.587171406323
 32
0.0
 13
137.4448005577121
 23
365.587171406323
 33
0.0
  0
SOLID
  5
293
330
28E
100
AcDbEntity
  8
0
 62
     2
100
AcDbTrace
 10
187.4448005577112
 20
364.6656039232113
 30
0.0
 11
187.4448005577112
 21
366.5087388894348
 31
0.0
 12
194.4448005577112
 22
365.587171406323
 32
0.0
 13
194.4448005577112
 23
365.587171406323
 33
0.0
  0
MTEXT
  5
294
330
28E
100
AcDbEntity
  8
0
 62
     7
100
AcDbMText
 10
164.5448005577117
 20
367.587171406323
 30
0.0
 40
7.0
 41
0.0
 71
     7
 72
     1
  1
J
  7
CONVERTER_12
 11
0.9999999999970619
 21
2.424068405545306E-6
 31
0.0
 73
     1
 44
0.60024009603842
  0
ENDBLK
  5
296
330
28E
100
AcDbEntity
  8
0
100
AcDbBlockEnd
  0
BLOCK
  5
2A0
330
299
100
AcDbEntity
  8
0
100
AcDbBlockBegin
  2
*D14
 70
     1
 10
0.0
 20
0.0
 30
0.0
  3
*D14
  1

  0
LINE
  5
29A
330
299
100
AcDbEntity
  8
1
  6
Continuous
 62
     2
100
AcDbLine
 10
85.4448005577107
 20
215.587171406323
 30
0.0
 11
85.4448005577107
 21
246.5871714063221
 31
0.0
  0
LINE
  5
29B
330
299
100
AcDbEntity
  8
1
  6
Continuous
 62
     2
100
AcDbLine
 10
171.3543084117803
 20
215.587171406323
 30
0.0
 11
83.4448005577107
 21
215.587171406323
 31
0.0
  0
LINE
  5
29C
330
299
100
AcDbEntity
  8
1
  6
Continuous
 62
     2
100
AcDbLine
 10
118.6904716251619
 20
246.5871714063221
 30
0.0
 11
83.4448005577107
 21
246.5871714063221
 31
0.0
  0
SOLID
  5
29D
330
299
100
AcDbEntity
  8
1
 62
     2
100
AcDbTrace
 10
84.52323307459893
 20
222.587171406323
 30
0.0
 11
86.36636804082248
 21
222.587171406323
 31
0.0
 12
85.4448005577107
 22
215.587171406323
 32
0.0
 13
85.4448005577107
 23
215.587171406323
 33
0.0
  0
SOLID
  5
29E
330
299
100
AcDbEntity
  8
1
 62
     2
100
AcDbTrace
 10
86.36636804082248
 20
239.5871714063221
 30
0.0
 11
84.52323307459893
 21
239.5871714063221
 31
0.0
 12
85.4448005577107
 22
246.5871714063221
 32
0.0
 13
85.4448005577107
 23
246.5871714063221
 33
0.0
  0
MTEXT
  5
29F
330
299
100
AcDbEntity
  8
1
 62
     7
100
AcDbMText
 10
83.4448005577107
 20
228.6371714063228
 30
0.0
 40
7.0
 41
0.0
 71
     7
 72
     1
  1
G
  7
CONVERTER_12
 11
0.0
 21
1.0
 31
0.0
 73
     1
 44
0.60024009603842
  0
ENDBLK
  5
2A1
330
299
100
AcDbEntity
  8
0
100
AcDbBlockEnd
  0
BLOCK
  5
2AB
330
2A4
100
AcDbEntity
  8
0
100
AcDbBlockBegin
  2
*D15
 70
     1
 10
0.0
 20
0.0
 30
0.0
  3
*D15
  1

  0
LINE
  5
2A5
330
2A4
100
AcDbEntity
  8
1
  6
Continuous
 62
     2
100
AcDbLine
 10
294.4448005577121
 20
195.587171406323
 30
0.0
 11
334.4448005577121
 21
195.587171406323
 31
0.0
  0
LINE
  5
2A6
330
2A4
100
AcDbEntity
  8
1
  6
Continuous
 62
     2
100
AcDbLine
 10
294.4448005577121
 20
215.587171406323
 30
0.0
 11
294.4448005577121
 21
193.587171406323
 31
0.0
  0
LINE
  5
2A7
330
2A4
100
AcDbEntity
  8
1
  6
Continuous
 62
     2
100
AcDbLine
 10
334.4448005577121
 20
215.587171406323
 30
0.0
 11
334.4448005577121
 21
193.587171406323
 31
0.0
  0
SOLID
  5
2A8
330
2A4
100
AcDbEntity
  8
1
 62
     2
100
AcDbTrace
 10
301.4448005577121
 20
196.5087388894348
 30
0.0
 11
301.4448005577121
 21
194.6656039232112
 31
0.0
 12
294.4448005577121
 22
195.587171406323
 32
0.0
 13
294.4448005577121
 23
195.587171406323
 33
0.0
  0
SOLID
  5
2A9
330
2A4
100
AcDbEntity
  8
1
 62
     2
100
AcDbTrace
 10
327.4448005577121
 20
194.6656039232112
 30
0.0
 11
327.4448005577121
 21
196.5087388894348
 31
0.0
 12
334.4448005577121
 22
195.587171406323
 32
0.0
 13
334.4448005577121
 23
195.587171406323
 33
0.0
  0
MTEXT
  5
2AA
330
2A4
100
AcDbEntity
  8
1
 62
     7
100
AcDbMText
 10
312.1698005577121
 20
197.587171406323
 30
0.0
 40
7.0
 41
0.0
 71
     7
 72
     1
  1
B
  7
CONVERTER_12
 11
0.9999999999970619
 21
2.424068405545306E-6
 31
0.0
 73
     1
 44
0.60024009603842
  0
ENDBLK
  5
2AC
330
2A4
100
AcDbEntity
  8
0
100
AcDbBlockEnd
  0
BLOCK
  5
2B7
330
2AF
100
AcDbEntity
  8
0
100
AcDbBlockBegin
  2
*D16
 70
     1
 10
0.0
 20
0.0
 30
0.0
  3
*D16
  1

  0
LINE
  5
2B0
330
2AF
100
AcDbEntity
  8
1
  6
Continuous
 62
     2
100
AcDbLine
 10
117.44480055771
 20
236.5871714063231
 30
0.0
 11
117.44480055771
 21
216.934528359197
 31
0.0
  0
LINE
  5
2B1
330
2AF
100
AcDbEntity
  8
1
  6
Continuous
 62
     2
100
AcDbLine
 10
117.44480055771
 20
256.587171406323
 30
0.0
 11
117.44480055771
 21
236.5871714063231
 31
0.0
  0
LINE
  5
2B2
330
2AF
100
AcDbEntity
  8
1
  6
Continuous
 62
     2
100
AcDbLine
 10
137.4448005577111
 20
256.587171406323
 30
0.0
 11
115.44480055771
 21
256.587171406323
 31
0.0
  0
LINE
  5
2B3
330
2AF
100
AcDbEntity
  8
1
  6
Continuous
 62
     2
100
AcDbLine
 10
137.4448005577111
 20
236.5871714063231
 30
0.0
 11
115.44480055771
 21
236.5871714063231
 31
0.0
  0
SOLID
  5
2B4
330
2AF
100
AcDbEntity
  8
1
 62
     2
100
AcDbTrace
 10
118.3663680408218
 20
249.587171406323
 30
0.0
 11
116.5232330745982
 21
249.587171406323
 31
0.0
 12
117.44480055771
 22
256.587171406323
 32
0.0
 13
117.44480055771
 23
256.587171406323
 33
0.0
  0
SOLID
  5
2B5
330
2AF
100
AcDbEntity
  8
1
 62
     2
100
AcDbTrace
 10
116.5232330745982
 20
243.5871714063231
 30
0.0
 11
118.3663680408218
 21
243.5871714063231
 31
0.0
 12
117.44480055771
 22
236.5871714063231
 32
0.0
 13
117.44480055771
 23
236.5871714063231
 33
0.0
  0
MTEXT
  5
2B6
330
2AF
100
AcDbEntity
  8
1
 62
     7
100
AcDbMText
 10
115.44480055771
 20
219.594528359197
 30
0.0
 40
7.0
 41
0.0
 71
     7
 72
     1
  1
\C7;{\Fgdt;n}\C7;F
  7
CONVERTER_12
 11
0.0
 21
1.0
 31
0.0
 73
     1
 44
0.60024009603842
  0
ENDBLK
  5
2B8
330
2AF
100
AcDbEntity
  8
0
100
AcDbBlockEnd
  0
BLOCK
  5
2C2
330
2BB
100
AcDbEntity
  8
0
100
AcDbBlockBegin
  2
*D17
 70
     1
 10
0.0
 20
0.0
 30
0.0
  3
*D17
  1

  0
LINE
  5
2BC
330
2BB
100
AcDbEntity
  8
1
  6
Continuous
 62
     2
100
AcDbLine
 10
101.4448005577128
 20
232.087171406323
 30
0.0
 11
101.4448005577128
 21
261.087171406323
 31
0.0
  0
LINE
  5
2BD
330
2BB
100
AcDbEntity
  8
1
  6
Continuous
 62
     2
100
AcDbLine
 10
137.4448005577121
 20
232.087171406323
 30
0.0
 11
99.44480055771277
 21
232.087171406323
 31
0.0
  0
LINE
  5
2BE
330
2BB
100
AcDbEntity
  8
1
  6
Continuous
 62
     2
100
AcDbLine
 10
137.4448005577121
 20
261.087171406323
 30
0.0
 11
99.44480055771277
 21
261.087171406323
 31
0.0
  0
SOLID
  5
2BF
330
2BB
100
AcDbEntity
  8
1
 62
     2
100
AcDbTrace
 10
100.523233074601
 20
239.087171406323
 30
0.0
 11
102.3663680408245
 21
239.087171406323
 31
0.0
 12
101.4448005577128
 22
232.087171406323
 32
0.0
 13
101.4448005577128
 23
232.087171406323
 33
0.0
  0
SOLID
  5
2C0
330
2BB
100
AcDbEntity
  8
1
 62
     2
100
AcDbTrace
 10
102.3663680408245
 20
254.087171406323
 30
0.0
 11
100.523233074601
 21
254.087171406323
 31
0.0
 12
101.4448005577128
 22
261.087171406323
 32
0.0
 13
101.4448005577128
 23
261.087171406323
 33
0.0
  0
MTEXT
  5
2C1
330
2BB
100
AcDbEntity
  8
1
 62
     7
100
AcDbMText
 10
99.44480055771277
 20
249.847171406323
 30
0.0
 40
7.0
 41
0.0
 71
     7
 72
     1
  1
\C7;{\Fgdt;n}\C7;E
  7
CONVERTER_12
 11
0.0
 21
1.0
 31
0.0
 73
     1
 44
0.60024009603842
  0
ENDBLK
  5
2C3
330
2BB
100
AcDbEntity
  8
0
100
AcDbBlockEnd
  0
ENDSEC
  0
SECTION
  2
ENTITIES
  0
INSERT
  5
65
330
1F
100
AcDbEntity
  8
1
100
AcDbBlockReference
  2
開示A4
 10
0.0
 20
0.0
 30
0.0
 41
2.0
 42
2.0
 43
2.0
  0
INSERT
  5
66
330
1F
100
AcDbEntity
  8
0
100
AcDbBlockReference
  2
V18-H11
 10
-170.7900336126529
 20
845.436103418109
 30
0.0
  0
INSERT
  5
67
330
1F
100
AcDbEntity
  8
0
100
AcDbBlockReference
  2
V18-H12
 10
-160.0066551995579
 20
844.375443246329
 30
0.0
  0
INSERT
  5
68
330
1F
100
AcDbEntity
  8
0
100
AcDbBlockReference
  2
V18-H2
 10
187.4448005577121
 20
263.587171406323
 30
0.0
  0
INSERT
  5
69
330
1F
100
AcDbEntity
  8
0
100
AcDbBlockReference
  2
V18-H3
 10
188.4448005577121
 20
242.587171406323
 30
0.0
  0
INSERT
  5
6A
330
1F
100
AcDbEntity
  8
0
100
AcDbBlockReference
  2
V18-H1
 10
145.9817323614002
 20
215.587171406323
 30
0.0
  0
INSERT
  5
6B
330
1F
100
AcDbEntity
  8
1
100
AcDbBlockReference
  2
V18-H15
 10
177.2448005577123
 20
270.587171406323
 30
0.0
  0
INSERT
  5
6C
330
1F
100
AcDbEntity
  8
1
100
AcDbBlockReference
  2
V18-H7
 10
180.9448005577121
 20
290.087171406323
 30
0.0
  0
INSERT
  5
6D
330
1F
100
AcDbEntity
  8
1
100
AcDbBlockReference
  2
V18-H10
 10
164.4448005577121
 20
312.587171406323
 30
0.0
  0
INSERT
  5
6E
330
1F
100
AcDbEntity
  8
0
100
AcDbBlockReference
  2
V18-H10-40_50
 10
260.1642197373109
 20
426.937654245144
 30
0.0
  0
LINE
  5
23C
330
1F
100
AcDbEntity
  8
1
  6
Continuous
 62
     2
100
AcDbLine
 10
335.6785634122082
 20
174.7821430066578
 30
0.0
 11
335.6785634122082
 21
132.7821430066574
 31
0.0
  0
LINE
  5
23D
330
1F
100
AcDbEntity
  8
1
  6
DASH_CENTER
 62
     2
100
AcDbLine
 10
263.4448005577111
 20
481.218235065544
 30
0.0
 11
365.4448005577112
 21
481.218235065544
 31
0.0
  0
LINE
  5
23E
330
1F
100
AcDbEntity
  8
1
  6
DASH_CENTER
 62
     2
100
AcDbLine
 10
314.4448005577112
 20
430.218235065544
 30
0.0
 11
314.4448005577112
 21
532.2182350655439
 31
0.0
  0
LINE
  5
23F
330
1F
100
AcDbEntity
  8
0
  6
DASH_CENTER
 62
     2
100
AcDbLine
 10
173.8448005577128
 20
246.587171406323
 30
0.0
 11
118.6904716251619
 21
246.5871714063221
 31
0.0
  0
LINE
  5
240
330
1F
100
AcDbEntity
  8
0
  6
DASH_CENTER
 62
     2
100
AcDbLine
 10
194.4448005577112
 20
335.587171406323
 30
0.0
 11
194.4448005577121
 21
209.587171406323
 31
0.0
  0
LINE
  5
241
330
1F
100
AcDbEntity
  8
0
  6
DASH_CENTER
 62
     2
100
AcDbLine
 10
314.4448005577112
 20
335.587171406323
 30
0.0
 11
314.4448005577121
 21
209.587171406323
 31
0.0
  0
LINE
  5
242
330
1F
100
AcDbEntity
  8
1
  6
Continuous
 62
     2
100
AcDbLine
 10
371.6785634122082
 20
160.7821430066588
 30
0.0
 11
56.67856341220852
 21
160.7821430066588
 31
0.0
  0
LINE
  5
243
330
1F
100
AcDbEntity
  8
1
  6
Continuous
 62
     7
100
AcDbLine
 10
371.6785634122082
 20
174.7821430066575
 30
0.0
 11
371.6785634122082
 21
132.7821430066574
 31
0.0
  0
LINE
  5
244
330
1F
100
AcDbEntity
  8
1
  6
Continuous
 62
     7
100
AcDbLine
 10
56.67856341220863
 20
132.7821430066574
 30
0.0
 11
56.67856341220852
 21
174.7821430066588
 31
0.0
  0
LINE
  5
245
330
1F
100
AcDbEntity
  8
1
  6
Continuous
 62
     7
100
AcDbLine
 10
108.6785634122076
 20
174.7821430066588
 30
0.0
 11
56.67856341220852
 21
174.7821430066588
 31
0.0
  0
LINE
  5
246
330
1F
100
AcDbEntity
  8
1
  6
Continuous
 62
     7
100
AcDbLine
 10
371.6785634122082
 20
132.7821430066574
 30
0.0
 11
56.67856341220863
 21
132.7821430066574
 31
0.0
  0
LINE
  5
247
330
1F
100
AcDbEntity
  8
1
  6
Continuous
 62
     7
100
AcDbLine
 10
371.6785634122082
 20
174.7821430066588
 30
0.0
 11
108.6785634122076
 21
174.7821430066588
 31
0.0
  0
LINE
  5
248
330
1F
100
AcDbEntity
  8
1
  6
Continuous
 62
     2
100
AcDbLine
 10
310.6785634122082
 20
174.7821430066578
 30
0.0
 11
310.6785634122082
 21
132.7821430066574
 31
0.0
  0
LINE
  5
249
330
1F
100
AcDbEntity
  8
1
  6
Continuous
 62
     2
100
AcDbLine
 10
173.6785634122076
 20
174.7821430066588
 30
0.0
 11
173.6785634122076
 21
132.7821430066574
 31
0.0
  0
LINE
  5
24A
330
1F
100
AcDbEntity
  8
1
  6
Continuous
 62
     2
100
AcDbLine
 10
148.6785634122076
 20
174.7821430066588
 30
0.0
 11
148.6785634122076
 21
132.7821430066574
 31
0.0
  0
LINE
  5
24B
330
1F
100
AcDbEntity
  8
1
  6
Continuous
 62
     2
100
AcDbLine
 10
371.6785634122082
 20
146.7821430066574
 30
0.0
 11
56.67856341220863
 21
146.7821430066574
 31
0.0
  0
LINE
  5
24C
330
1F
100
AcDbEntity
  8
1
  6
Continuous
 62
     2
100
AcDbLine
 10
108.6785634122076
 20
132.7821430066574
 30
0.0
 11
108.6785634122076
 21
174.7821430066588
 31
0.0
  0
LINE
  5
24D
330
1F
100
AcDbEntity
  8
1
  6
Continuous
 62
     2
100
AcDbLine
 10
197.6785634122076
 20
174.7821430066588
 30
0.0
 11
197.6785634122076
 21
132.7821430066574
 31
0.0
  0
LINE
  5
24E
330
1F
100
AcDbEntity
  8
1
  6
Continuous
 62
     2
100
AcDbLine
 10
222.6785634122076
 20
174.7821430066584
 30
0.0
 11
222.6785634122076
 21
132.7821430066573
 31
0.0
  0
LINE
  5
24F
330
1F
100
AcDbEntity
  8
1
  6
Continuous
 62
     2
100
AcDbLine
 10
247.6785634122076
 20
174.7821430066584
 30
0.0
 11
247.6785634122076
 21
132.7821430066573
 31
0.0
  0
SOLID
  5
250
330
1F
100
AcDbEntity
  8
1
 62
     2
100
AcDbTrace
 10
340.6466997060356
 20
253.11013297437
 30
0.0
 11
342.2429014093885
 21
252.1885654912582
 31
0.0
 12
337.9448005577121
 22
246.587171406323
 32
0.0
 13
337.9448005577121
 23
246.587171406323
 33
0.0
  0
LEADER
  5
251
330
1F
100
AcDbEntity
  8
1
  6
Continuous
 62
     2
100
AcDbLeader
  3
Standard
 71
     0
 76
     3
 10
337.9448005577121
 20
246.587171406323
 30
0.0
 10
347.5220226701532
 20
263.1754067004431
 30
0.0
 10
357.2868480078413
 20
263.1754067004431
 30
0.0
  0
SOLID
  5
252
330
1F
100
AcDbEntity
  8
0
 62
     2
100
AcDbTrace
 10
215.1078127344016
 20
209.9857773213878
 30
0.0
 11
213.5116110310487
 21
209.064209838276
 31
0.0
 12
210.8097118827252
 22
215.587171406323
 32
0.0
 13
210.8097118827252
 23
215.587171406323
 33
0.0
  0
LEADER
  5
253
330
1F
100
AcDbEntity
  8
0
  6
Continuous
 62
     2
100
AcDbLeader
  3
Standard
 71
     0
 76
     3
 10
210.8097118827252
 20
215.587171406323
 30
0.0
 10
219.4699659205696
 20
200.587171406323
 30
0.0
 10
227.6447403767024
 20
200.587171406323
 30
0.0
  0
MTEXT
  5
254
330
1F
100
AcDbEntity
  8
1
 62
     7
100
AcDbMText
 10
114.0
 20
45.50000000000003
 30
0.0
 40
7.0
 41
0.0
 71
     5
 72
     1
  1
差込90°消火栓
  7
CONVERTER_11
 73
     1
 44
1.0
  0
MTEXT
  5
255
330
1F
100
AcDbEntity
  8
1
 62
     7
100
AcDbMText
 10
114.0
 20
28.5
 30
0.0
 40
7.0
 41
0.0
 71
     5
 72
     1
  1
V190-(呼び)
  7
CONVERTER_11
 73
     1
 44
0.68181818181818
  0
MTEXT
  5
257
330
1F
100
AcDbEntity
  8
1
 62
     7
100
AcDbMText
 10
352.6031070330113
 20
269.1730208978431
 30
0.0
 40
7.0
 41
0.0
 71
     5
 72
     1
  1
A
  7
CONVERTER_12
 73
     1
 44
1.32052821128451
  0
MTEXT
  5
258
330
1F
100
AcDbEntity
  8
0
 62
     7
100
AcDbMText
 10
223.8178511486226
 20
205.606197864915
 30
0.0
 40
7.0
 41
0.0
 71
     5
 72
     1
  1
L
  7
CONVERTER_12
 73
     1
 44
0.7202881152461
  0
MTEXT
  5
259
330
1F
100
AcDbEntity
  8
1
 62
     7
100
AcDbMText
 10
170.5
 20
34.0
 30
0.0
 40
7.0
 41
0.0
 71
     5
 72
     1
  1
1
  7
CONVERTER_12
 73
     1
 44
0.7202881152461
  0
MTEXT
  5
25A
330
1F
100
AcDbEntity
  8
1
 62
     7
100
AcDbMText
 10
187.5
 20
34.0
 30
0.0
 40
7.0
 41
0.0
 71
     5
 72
     1
  1
2
  7
CONVERTER_12
 73
     1
 44
0.7202881152461
  0
MTEXT
  5
25B
330
1F
100
AcDbEntity
  8
1
 62
     7
100
AcDbMText
 10
350.6785634122076
 20
153.7821430066574
 30
0.0
 40
7.0
 41
0.0
 71
     5
 72
     1
  1
Rc1　/
  7
CONVERTER_11
 73
     1
 44
0.54545454545455
  0
MTEXT
  5
25C
330
1F
100
AcDbEntity
  8
1
 62
     7
100
AcDbMText
 10
359.1390341043699
 20
156.3363160534931
 30
0.0
 40
7.0
 41
0.0
 71
     5
 72
     1
  1
1
  7
CONVERTER_12
 73
     1
 44
1.32052821128451
  0
MTEXT
  5
25D
330
1F
100
AcDbEntity
  8
1
 62
     7
100
AcDbMText
 10
365.8488903443961
 20
151.2186134126
 30
0.0
 40
7.0
 41
0.0
 71
     5
 72
     1
  1
2
  7
CONVERTER_12
 73
     1
 44
1.32052821128451
  0
MTEXT
  5
25E
330
1F
100
AcDbEntity
  8
1
 62
     7
100
AcDbMText
 10
323.1785634122082
 20
139.7821430066588
 30
0.0
 40
7.0
 41
0.0
 71
     5
 72
     1
  1
92
  7
CONVERTER_12
 73
     1
 44
0.7202881152461
  0
MTEXT
  5
25F
330
1F
100
AcDbEntity
  8
1
 62
     7
100
AcDbMText
 10
323.1785634122082
 20
153.7821430066588
 30
0.0
 40
7.0
 41
0.0
 71
     5
 72
     1
  1
73,5
  7
CONVERTER_12
 73
     1
 44
0.7202881152461
  0
MTEXT
  5
260
330
1F
100
AcDbEntity
  8
1
 62
     2
100
AcDbMText
 10
323.1785634122082
 20
167.7821430066588
 30
0.0
 40
7.0
 41
0.0
 71
     5
 72
     1
  1
J
  7
CONVERTER_12
 73
     1
 44
0.7202881152461
  0
MTEXT
  5
261
330
1F
100
AcDbEntity
  8
1
 62
     7
100
AcDbMText
 10
161.1785634122076
 20
139.7821430066588
 30
0.0
 40
7.0
 41
0.0
 71
     5
 72
     1
  1
68
  7
CONVERTER_12
 73
     1
 44
0.7202881152461
  0
MTEXT
  5
262
330
1F
100
AcDbEntity
  8
1
 62
     7
100
AcDbMText
 10
161.1785634122076
 20
153.7821430066588
 30
0.0
 40
7.0
 41
0.0
 71
     5
 72
     1
  1
57
  7
CONVERTER_12
 73
     1
 44
0.7202881152461
  0
MTEXT
  5
263
330
1F
100
AcDbEntity
  8
1
 62
     2
100
AcDbMText
 10
161.1785634122076
 20
167.7821430066588
 30
0.0
 40
7.0
 41
0.0
 71
     5
 72
     1
  1
B
  7
CONVERTER_12
 73
     1
 44
0.7202881152461
  0
MTEXT
  5
264
330
1F
100
AcDbEntity
  8
1
 62
     2
100
AcDbMText
 10
82.67856341220761
 20
167.7821430066588
 30
0.0
 40
7.0
 41
0.0
 71
     5
 72
     1
  1
品番
  7
CONVERTER_11
 73
     1
 44
0.54545454545455
  0
MTEXT
  5
265
330
1F
100
AcDbEntity
  8
1
 62
     7
100
AcDbMText
 10
82.67856341220761
 20
153.7821430066588
 30
0.0
 40
7.0
 41
0.0
 71
     5
 72
     1
  1
V190-40
  7
CONVERTER_12
 73
     1
 44
0.7202881152461
  0
MTEXT
  5
266
330
1F
100
AcDbEntity
  8
1
 62
     7
100
AcDbMText
 10
82.67856341220761
 20
139.7821430066588
 30
0.0
 40
7.0
 41
0.0
 71
     5
 72
     1
  1
V190-50
  7
CONVERTER_12
 73
     1
 44
0.7202881152461
  0
MTEXT
  5
267
330
1F
100
AcDbEntity
  8
1
 62
     2
100
AcDbMText
 10
128.6785634122076
 20
167.7821430066588
 30
0.0
 40
7.0
 41
0.0
 71
     5
 72
     1
  1
A（呼び）
  7
CONVERTER_11
 73
     1
 44
0.54545454545455
  0
MTEXT
  5
268
330
1F
100
AcDbEntity
  8
1
 62
     7
100
AcDbMText
 10
128.6785634122076
 20
153.7821430066588
 30
0.0
 40
7.0
 41
0.0
 71
     5
 72
     1
  1
40
  7
CONVERTER_12
 73
     1
 44
0.7202881152461
  0
MTEXT
  5
269
330
1F
100
AcDbEntity
  8
1
 62
     7
100
AcDbMText
 10
128.6785634122076
 20
139.7821430066588
 30
0.0
 40
7.0
 41
0.0
 71
     5
 72
     1
  1
50
  7
CONVERTER_12
 73
     1
 44
0.7202881152461
  0
MTEXT
  5
26A
330
1F
100
AcDbEntity
  8
1
 62
     7
100
AcDbMText
 10
185.6785634122076
 20
153.7821430066588
 30
0.0
 40
7.0
 41
0.0
 71
     5
 72
     1
  1
43,6
  7
CONVERTER_12
 73
     1
 44
0.7202881152461
  0
MTEXT
  5
26B
330
1F
100
AcDbEntity
  8
1
 62
     7
100
AcDbMText
 10
185.6785634122076
 20
139.7821430066588
 30
0.0
 40
7.0
 41
0.0
 71
     5
 72
     1
  1
55,6
  7
CONVERTER_12
 73
     1
 44
0.7202881152461
  0
MTEXT
  5
26C
330
1F
100
AcDbEntity
  8
1
 62
     2
100
AcDbMText
 10
185.6785634122076
 20
167.7821430066588
 30
0.0
 40
7.0
 41
0.0
 71
     5
 72
     1
  1
{\Fgdt;n}E
  7
CONVERTER_12
 73
     1
 44
0.7202881152461
  0
MTEXT
  5
26D
330
1F
100
AcDbEntity
  8
1
 62
     7
100
AcDbMText
 10
279.1785634122077
 20
153.7821430066588
 30
0.0
 40
7.0
 41
0.0
 71
     5
 72
     1
  1
155リフト13
  7
CONVERTER_11
 73
     1
 44
0.54545454545455
  0
MTEXT
  5
26E
330
1F
100
AcDbEntity
  8
1
 62
     7
100
AcDbMText
 10
279.1785634122077
 20
139.7821430066588
 30
0.0
 40
7.0
 41
0.0
 71
     5
 72
     1
  1
170リフト18,5
  7
CONVERTER_11
 73
     1
 44
0.54545454545455
  0
MTEXT
  5
26F
330
1F
100
AcDbEntity
  8
1
 62
     2
100
AcDbMText
 10
279.1785634122077
 20
167.7821430066588
 30
0.0
 40
7.0
 41
0.0
 71
     5
 72
     1
  1
H
  7
CONVERTER_12
 73
     1
 44
0.7202881152461
  0
MTEXT
  5
270
330
1F
100
AcDbEntity
  8
1
 62
     7
100
AcDbMText
 10
353.6785634122082
 20
139.7821430066574
 30
0.0
 40
7.0
 41
0.0
 71
     5
 72
     1
  1
Rc2
  7
CONVERTER_12
 73
     1
 44
0.7202881152461
  0
MTEXT
  5
271
330
1F
100
AcDbEntity
  8
1
 62
     2
100
AcDbMText
 10
353.6785634122082
 20
167.7821430066597
 30
0.0
 40
7.0
 41
0.0
 71
     5
 72
     1
  1
L
  7
CONVERTER_12
 73
     1
 44
0.7202881152461
  0
MTEXT
  5
272
330
1F
100
AcDbEntity
  8
1
 62
     2
100
AcDbMText
 10
210.1785634122076
 20
167.7821430066588
 30
0.0
 40
7.0
 41
0.0
 71
     5
 72
     1
  1
{\Fgdt;n}F
  7
CONVERTER_12
 73
     1
 44
0.7202881152461
  0
MTEXT
  5
273
330
1F
100
AcDbEntity
  8
1
 62
     7
100
AcDbMText
 10
210.1785634122076
 20
153.7821430066588
 30
0.0
 40
7.0
 41
0.0
 71
     5
 72
     1
  1
32,5
  7
CONVERTER_12
 73
     1
 44
0.7202881152461
  0
MTEXT
  5
274
330
1F
100
AcDbEntity
  8
1
 62
     7
100
AcDbMText
 10
210.1785634122076
 20
139.7821430066588
 30
0.0
 40
7.0
 41
0.0
 71
     5
 72
     1
  1
44,5
  7
CONVERTER_12
 73
     1
 44
0.7202881152461
  0
MTEXT
  5
275
330
1F
100
AcDbEntity
  8
1
 62
     2
100
AcDbMText
 10
235.1785634122076
 20
167.7821430066588
 30
0.0
 40
7.0
 41
0.0
 71
     5
 72
     1
  1
G
  7
CONVERTER_12
 73
     1
 44
0.7202881152461
  0
MTEXT
  5
276
330
1F
100
AcDbEntity
  8
1
 62
     7
100
AcDbMText
 10
235.1785634122076
 20
153.7821430066588
 30
0.0
 40
7.0
 41
0.0
 71
     5
 72
     1
  1
45
  7
CONVERTER_12
 73
     1
 44
0.7202881152461
  0
MTEXT
  5
277
330
1F
100
AcDbEntity
  8
1
 62
     7
100
AcDbMText
 10
235.1785634122076
 20
139.7821430066588
 30
0.0
 40
7.0
 41
0.0
 71
     5
 72
     1
  1
50
  7
CONVERTER_12
 73
     1
 44
0.7202881152461
  0
DIMENSION
  5
282
330
1F
100
AcDbEntity
  8
1
100
AcDbDimension
  2
*D11
 10
149.444800557711
 20
349.587171406323
 30
0.0
 11
216.9448005577112
 21
355.087171406323
 31
0.0
 70
    32
  1
<>
 71
     5
 42
-1.0
 53
0.00013888888889
  3
ME10_DIM_10
100
AcDbAlignedDimension
 13
239.4448005577112
 23
317.587171406323
 33
0.0
 14
149.4448005577111
 24
317.587171406323
 34
0.0
100
AcDbRotatedDimension
  0
DIMENSION
  5
28D
330
1F
100
AcDbEntity
  8
1
100
AcDbDimension
  2
*D12
 10
259.509452443067
 20
329.587171406323
 30
0.0
 11
254.009452443067
 21
268.15129898831
 31
0.0
 70
    32
  1
H
 71
     5
 42
-1.0
 53
90.0
  3
ME10_DIM_11
100
AcDbAlignedDimension
 13
217.5388113252973
 23
215.587171406323
 33
0.0
 14
236.4448005577112
 24
329.587171406323
 34
0.0
 50
90.0
100
AcDbRotatedDimension
  0
DIMENSION
  5
298
330
1F
100
AcDbEntity
  8
0
100
AcDbDimension
  2
*D13
 10
137.4448005577121
 20
365.587171406323
 30
0.0
 11
165.9448005577117
 21
371.087171406323
 31
0.0
 70
    32
  1
J
 71
     5
 42
-1.0
 53
0.00013888888889
  3
ME10_DIM_12
100
AcDbAlignedDimension
 13
194.4448005577112
 23
335.587171406323
 33
0.0
 14
137.4448005577121
 24
261.087171406323
 34
0.0
100
AcDbRotatedDimension
  0
DIMENSION
  5
2A3
330
1F
100
AcDbEntity
  8
1
100
AcDbDimension
  2
*D14
 10
85.4448005577107
 20
215.587171406323
 30
0.0
 11
79.9448005577107
 21
231.0871714063228
 31
0.0
 70
    32
  1
G
 71
     5
 42
-1.0
 53
90.0
  3
ME10_DIM_13
100
AcDbAlignedDimension
 13
118.6904716251619
 23
246.5871714063221
 33
0.0
 14
171.3543084117803
 24
215.587171406323
 34
0.0
 50
90.0
100
AcDbRotatedDimension
  0
DIMENSION
  5
2AE
330
1F
100
AcDbEntity
  8
1
100
AcDbDimension
  2
*D15
 10
294.4448005577121
 20
195.587171406323
 30
0.0
 11
314.4448005577121
 21
201.087171406323
 31
0.0
 70
    32
  1
B
 71
     5
 42
-1.0
 53
0.00013888888889
  3
ME10_DIM_14
100
AcDbAlignedDimension
 13
334.4448005577121
 23
215.587171406323
 33
0.0
 14
294.4448005577121
 24
215.587171406323
 34
0.0
100
AcDbRotatedDimension
  0
DIMENSION
  5
2BA
330
1F
100
AcDbEntity
  8
1
100
AcDbDimension
  2
*D16
 10
117.44480055771
 20
256.587171406323
 30
0.0
 11
111.94480055771
 21
223.584528359197
 31
0.0
 70
    32
  1
{\Fgdt;n}F
 71
     5
 42
-1.0
 53
90.0
  3
ME10_DIM_15
100
AcDbAlignedDimension
 13
137.4448005577112
 23
236.587171406323
 33
0.0
 14
137.4448005577112
 24
256.587171406323
 34
0.0
 50
90.0
100
AcDbRotatedDimension
  0
DIMENSION
  5
2C5
330
1F
100
AcDbEntity
  8
1
100
AcDbDimension
  2
*D17
 10
101.4448005577128
 20
232.087171406323
 30
0.0
 11
95.94480055771277
 21
253.837171406323
 31
0.0
 70
    32
  1
{\Fgdt;n}E
 71
     5
 42
-1.0
 53
90.0
  3
ME10_DIM_16
100
AcDbAlignedDimension
 13
137.4448005577121
 23
261.087171406323
 33
0.0
 14
137.4448005577121
 24
232.087171406323
 34
0.0
 50
90.0
100
AcDbRotatedDimension
  0
ENDSEC
  0
SECTION
  2
OBJECTS
  0
DICTIONARY
  5
C
330
0
100
AcDbDictionary
281
     1
  3
ACAD_GROUP
350
D
  3
ACAD_LAYOUT
350
1A
  3
ACAD_MATERIAL
350
3B
  3
ACAD_MLEADERSTYLE
350
2C8
  3
ACAD_MLINESTYLE
350
17
  3
ACAD_PLOTSETTINGS
350
19
  3
ACAD_PLOTSTYLENAME
350
E
  3
ACAD_VISUALSTYLE
350
2A
  3
AcDbVariableDictionary
350
2C6
  0
DICTIONARY
  5
D
102
{ACAD_REACTORS
330
C
102
}
330
C
100
AcDbDictionary
281
     1
  0
DICTIONARY
  5
1A
102
{ACAD_REACTORS
330
C
102
}
330
C
100
AcDbDictionary
281
     1
  3
Layout1
350
1E
  3
Layout2
350
26
  3
Model
350
22
  0
DICTIONARY
  5
3B
102
{ACAD_REACTORS
330
C
102
}
330
C
100
AcDbDictionary
281
     1
  3
ByBlock
350
3D
  3
ByLayer
350
3C
  3
Global
350
3E
  0
DICTIONARY
  5
2C8
102
{ACAD_REACTORS
330
C
102
}
330
C
100
AcDbDictionary
281
     1
  0
DICTIONARY
  5
17
102
{ACAD_REACTORS
330
C
102
}
330
C
100
AcDbDictionary
281
     1
  3
Standard
350
18
  0
DICTIONARY
  5
19
102
{ACAD_REACTORS
330
C
102
}
330
C
100
AcDbDictionary
281
     1
  0
ACDBDICTIONARYWDFLT
  5
E
102
{ACAD_REACTORS
330
C
102
}
330
C
100
AcDbDictionary
281
     1
  3
Normal
350
F
100
AcDbDictionaryWithDefault
340
F
  0
DICTIONARY
  5
2A
102
{ACAD_REACTORS
330
C
102
}
330
C
100
AcDbDictionary
281
     1
  3
2dWireframe
350
2F
  3
3D Hidden
350
31
  3
3dWireframe
350
30
  3
Basic
350
32
  3
Brighten
350
36
  3
ColorChange
350
3A
  3
Conceptual
350
34
  3
Dim
350
35
  3
Facepattern
350
39
  3
Flat
350
2B
  3
FlatWithEdges
350
2C
  3
Gouraud
350
2D
  3
GouraudWithEdges
350
2E
  3
Linepattern
350
38
  3
Realistic
350
33
  3
Thicken
350
37
  0
DICTIONARY
  5
2C6
102
{ACAD_REACTORS
330
C
102
}
330
C
100
AcDbDictionary
281
     1
  3
DIMASSOC
350
2C9
  3
HIDETEXT
350
2CA
  0
LAYOUT
  5
1E
102
{ACAD_REACTORS
330
1A
102
}
330
1A
100
AcDbPlotSettings
  1

  2
none_device
  4

  6

 40
0.0
 41
0.0
 42
0.0
 43
0.0
 44
0.0
 45
0.0
 46
0.0
 47
0.0
 48
0.0
 49
0.0
140
0.0
141
0.0
142
1.0
143
1.0
 70
   688
 72
     0
 73
     0
 74
     5
  7

 75
    16
147
1.0
148
0.0
149
0.0
100
AcDbLayout
  1
Layout1
 70
     1
 71
     1
 10
0.0
 20
0.0
 11
12.0
 21
9.0
 12
0.0
 22
0.0
 32
0.0
 14
1.00000000000000E+20
 24
1.00000000000000E+20
 34
1.00000000000000E+20
 15
-1.00000000000000E+20
 25
-1.00000000000000E+20
 35
-1.00000000000000E+20
146
0.0
 13
0.0
 23
0.0
 33
0.0
 16
1.0
 26
0.0
 36
0.0
 17
0.0
 27
1.0
 37
0.0
 76
     0
330
1B
  0
LAYOUT
  5
26
102
{ACAD_REACTORS
330
1A
102
}
330
1A
100
AcDbPlotSettings
  1

  2
none_device
  4

  6

 40
0.0
 41
0.0
 42
0.0
 43
0.0
 44
0.0
 45
0.0
 46
0.0
 47
0.0
 48
0.0
 49
0.0
140
0.0
141
0.0
142
1.0
143
1.0
 70
   688
 72
     0
 73
     0
 74
     5
  7

 75
    16
147
1.0
148
0.0
149
0.0
100
AcDbLayout
  1
Layout2
 70
     1
 71
     2
 10
0.0
 20
0.0
 11
0.0
 21
0.0
 12
0.0
 22
0.0
 32
0.0
 14
0.0
 24
0.0
 34
0.0
 15
0.0
 25
0.0
 35
0.0
146
0.0
 13
0.0
 23
0.0
 33
0.0
 16
1.0
 26
0.0
 36
0.0
 17
0.0
 27
1.0
 37
0.0
 76
     0
330
23
  0
LAYOUT
  5
22
102
{ACAD_REACTORS
330
1A
102
}
330
1A
100
AcDbPlotSettings
  1

  2
none_device
  4

  6

 40
0.0
 41
0.0
 42
0.0
 43
0.0
 44
0.0
 45
0.0
 46
0.0
 47
0.0
 48
0.0
 49
0.0
140
0.0
141
0.0
142
1.0
143
1.0
 70
  1712
 72
     0
 73
     0
 74
     0
  7

 75
     0
147
1.0
148
0.0
149
0.0
100
AcDbLayout
  1
Model
 70
     1
 71
     0
 10
0.0
 20
0.0
 11
12.0
 21
9.0
 12
0.0
 22
0.0
 32
0.0
 14
0.0
 24
0.0
 34
0.0
 15
420.0
 25
594.0
 35
0.0
146
0.0
 13
0.0
 23
0.0
 33
0.0
 16
1.0
 26
0.0
 36
0.0
 17
0.0
 27
1.0
 37
0.0
 76
     0
330
1F
331
29
  0
MATERIAL
  5
3D
102
{ACAD_REACTORS
330
3B
102
}
102
{ACAD_XDICTIONARY
360
2ED
102
}
330
3B
100
AcDbMaterial
  1
ByBlock
  0
MATERIAL
  5
3C
102
{ACAD_REACTORS
330
3B
102
}
102
{ACAD_XDICTIONARY
360
2EB
102
}
330
3B
100
AcDbMaterial
  1
ByLayer
  0
MATERIAL
  5
3E
102
{ACAD_REACTORS
330
3B
102
}
102
{ACAD_XDICTIONARY
360
2EF
102
}
330
3B
100
AcDbMaterial
  1
Global
  0
MLINESTYLE
  5
18
102
{ACAD_REACTORS
330
17
102
}
330
17
100
AcDbMlineStyle
  2
Standard
 70
     0
  3

 62
   256
 51
90.0
 52
90.0
 71
     2
 49
0.5
 62
   256
  6
BYLAYER
 49
-0.5
 62
   256
  6
BYLAYER
  0
ACDBPLACEHOLDER
  5
F
102
{ACAD_REACTORS
330
E
102
}
330
E
  0
VISUALSTYLE
  5
2F
102
{ACAD_REACTORS
330
2A
102
}
102
{ACAD_XDICTIONARY
360
2D3
102
}
330
2A
100
AcDbVisualStyle
  2
2dWireframe
 70
     4
 71
     0
 72
     2
 73
     0
 90
        0
 40
-0.6
 41
-30.0
 62
     5
 63
     7
 74
     1
 91
        4
 64
     7
 65
   257
 75
     1
175
     1
 42
1.0
 92
        0
 66
   257
 43
1.0
 76
     1
 77
     6
 78
     2
 67
     7
 79
     5
170
     0
171
     0
290
     0
174
     0
 93
        1
 44
0.0
173
     0
291
     0
 45
0.0
1001
ACAD
1000
AcDbSavedByObjectVersion
1070
     0
  0
VISUALSTYLE
  5
31
102
{ACAD_REACTORS
330
2A
102
}
102
{ACAD_XDICTIONARY
360
2D7
102
}
330
2A
100
AcDbVisualStyle
  2
3D Hidden
 70
     6
 71
     1
 72
     2
 73
     2
 90
        0
 40
-0.6
 41
-30.0
 62
     5
 63
     7
 74
     2
 91
        2
 64
     7
 65
   257
 75
     2
175
     1
 42
40.0
 92
        0
 66
   257
 43
1.0
 76
     1
 77
     6
 78
     2
 67
     7
 79
     3
170
     0
171
     0
290
     0
174
     0
 93
        1
 44
0.0
173
     0
291
     0
 45
0.0
1001
ACAD
1000
AcDbSavedByObjectVersion
1070
     0
  0
VISUALSTYLE
  5
30
102
{ACAD_REACTORS
330
2A
102
}
102
{ACAD_XDICTIONARY
360
2D5
102
}
330
2A
100
AcDbVisualStyle
  2
3dWireframe
 70
     5
 71
     0
 72
     2
 73
     0
 90
        0
 40
-0.6
 41
-30.0
 62
     5
 63
     7
 74
     1
 91
        4
 64
     7
 65
   257
 75
     1
175
     1
 42
1.0
 92
        0
 66
   257
 43
1.0
 76
     1
 77
     6
 78
     2
 67
     7
 79
     5
170
     0
171
     0
290
     0
174
     0
 93
        1
 44
0.0
173
     0
291
     0
 45
0.0
1001
ACAD
1000
AcDbSavedByObjectVersion
1070
     0
  0
VISUALSTYLE
  5
32
102
{ACAD_REACTORS
330
2A
102
}
102
{ACAD_XDICTIONARY
360
2D9
102
}
330
2A
100
AcDbVisualStyle
  2
Basic
 70
     7
 71
     1
 72
     0
 73
     1
 90
        0
 40
-0.6
 41
-30.0
 62
     5
 63
     7
 74
     0
 91
        4
 64
     7
 65
   257
 75
     1
175
     1
 42
1.0
 92
        8
 66
     7
 43
1.0
 76
     1
 77
     6
 78
     2
 67
     7
 79
     5
170
     0
171
     0
290
     0
174
     0
 93
        1
 44
0.0
173
     0
291
     1
 45
0.0
1001
ACAD
1000
AcDbSavedByObjectVersion
1070
     0
  0
VISUALSTYLE
  5
36
102
{ACAD_REACTORS
330
2A
102
}
102
{ACAD_XDICTIONARY
360
2E1
102
}
330
2A
100
AcDbVisualStyle
  2
Brighten
 70
    12
 71
     2
 72
     2
 73
     0
 90
        0
 40
-0.6
 41
-30.0
 62
     5
 63
     7
 74
     1
 91
        4
 64
     7
 65
   257
 75
     1
175
     1
 42
1.0
 92
        8
 66
     7
 43
1.0
 76
     1
 77
     6
 78
     2
 67
     7
 79
     5
170
     0
171
     0
290
     0
174
     0
 93
        1
 44
50.0
173
     0
291
     1
 45
0.0
1001
ACAD
1000
AcDbSavedByObjectVersion
1070
     0
  0
VISUALSTYLE
  5
3A
102
{ACAD_REACTORS
330
2A
102
}
102
{ACAD_XDICTIONARY
360
2E9
102
}
330
2A
100
AcDbVisualStyle
  2
ColorChange
 70
    16
 71
     2
 72
     2
 73
     3
 90
        0
 40
-0.6
 41
-30.0
 62
     5
 63
     8
 74
     1
 91
        4
 64
     7
 65
   257
 75
     1
175
     1
 42
1.0
 92
        8
 66
     8
 43
1.0
 76
     1
 77
     6
 78
     2
 67
     7
 79
     5
170
     0
171
     0
290
     0
174
     0
 93
        1
 44
0.0
173
     0
291
     1
 45
0.0
1001
ACAD
1000
AcDbSavedByObjectVersion
1070
     0
  0
VISUALSTYLE
  5
34
102
{ACAD_REACTORS
330
2A
102
}
102
{ACAD_XDICTIONARY
360
2DD
102
}
330
2A
100
AcDbVisualStyle
  2
Conceptual
 70
     9
 71
     3
 72
     2
 73
     0
 90
        0
 40
-0.6
 41
-30.0
 62
     5
 63
     7
 74
     2
 91
        2
 64
     7
 65
   257
 75
     1
175
     1
 42
40.0
 92
        8
 66
     7
 43
1.0
 76
     1
 77
     6
 78
     2
 67
     7
 79
     3
170
     0
171
     0
290
     0
174
     0
 93
        1
 44
0.0
173
     0
291
     0
 45
0.0
1001
ACAD
1000
AcDbSavedByObjectVersion
1070
     0
  0
VISUALSTYLE
  5
35
102
{ACAD_REACTORS
330
2A
102
}
102
{ACAD_XDICTIONARY
360
2DF
102
}
330
2A
100
AcDbVisualStyle
  2
Dim
 70
    11
 71
     2
 72
     2
 73
     0
 90
        0
 40
-0.6
 41
-30.0
 62
     5
 63
     7
 74
     1
 91
        4
 64
     7
 65
   257
 75
     1
175
     1
 42
1.0
 92
        8
 66
     7
 43
1.0
 76
     1
 77
     6
 78
     2
 67
     7
 79
     5
170
     0
171
     0
290
     0
174
     0
 93
        1
 44
-50.0
173
     0
291
     1
 45
0.0
1001
ACAD
1000
AcDbSavedByObjectVersion
1070
     0
  0
VISUALSTYLE
  5
39
102
{ACAD_REACTORS
330
2A
102
}
102
{ACAD_XDICTIONARY
360
2E7
102
}
330
2A
100
AcDbVisualStyle
  2
Facepattern
 70
    15
 71
     2
 72
     2
 73
     0
 90
        0
 40
-0.6
 41
-30.0
 62
     5
 63
     7
 74
     1
 91
        4
 64
     7
 65
   257
 75
     1
175
     1
 42
1.0
 92
        8
 66
     7
 43
1.0
 76
     1
 77
     6
 78
     2
 67
     7
 79
     5
170
     0
171
     0
290
     0
174
     0
 93
        1
 44
0.0
173
     0
291
     1
 45
0.0
1001
ACAD
1000
AcDbSavedByObjectVersion
1070
     0
  0
VISUALSTYLE
  5
2B
102
{ACAD_REACTORS
330
2A
102
}
102
{ACAD_XDICTIONARY
360
2CB
102
}
330
2A
100
AcDbVisualStyle
  2
Flat
 70
     0
 71
     2
 72
     1
 73
     1
 90
        2
 40
-0.6
 41
30.0
 62
     5
 63
     7
 74
     0
 91
        4
 64
     7
 65
   257
 75
     1
175
     1
 42
1.0
 92
        8
 66
     7
 43
1.0
 76
     1
 77
     6
 78
     2
 67
     7
 79
     5
170
     0
171
     0
290
     0
174
     0
 93
       13
 44
0.0
173
     0
291
     1
 45
0.0
1001
ACAD
1000
AcDbSavedByObjectVersion
1070
     0
  0
VISUALSTYLE
  5
2C
102
{ACAD_REACTORS
330
2A
102
}
102
{ACAD_XDICTIONARY
360
2CD
102
}
330
2A
100
AcDbVisualStyle
  2
FlatWithEdges
 70
     1
 71
     2
 72
     1
 73
     1
 90
        2
 40
-0.6
 41
30.0
 62
     5
 63
     7
 74
     1
 91
        4
 64
     7
 65
   257
 75
     1
175
     1
 42
1.0
 92
        0
 66
   257
 43
1.0
 76
     1
 77
     6
 78
     2
 67
     7
 79
     5
170
     0
171
     0
290
     0
174
     0
 93
       13
 44
0.0
173
     0
291
     1
 45
0.0
1001
ACAD
1000
AcDbSavedByObjectVersion
1070
     0
  0
VISUALSTYLE
  5
2D
102
{ACAD_REACTORS
330
2A
102
}
102
{ACAD_XDICTIONARY
360
2CF
102
}
330
2A
100
AcDbVisualStyle
  2
Gouraud
 70
     2
 71
     2
 72
     2
 73
     1
 90
        2
 40
-0.6
 41
30.0
 62
     5
 63
     7
 74
     0
 91
        4
 64
     7
 65
   257
 75
     1
175
     1
 42
1.0
 92
        0
 66
     7
 43
1.0
 76
     1
 77
     6
 78
     2
 67
     7
 79
     5
170
     0
171
     0
290
     0
174
     0
 93
       13
 44
0.0
173
     0
291
     1
 45
0.0
1001
ACAD
1000
AcDbSavedByObjectVersion
1070
     0
  0
VISUALSTYLE
  5
2E
102
{ACAD_REACTORS
330
2A
102
}
102
{ACAD_XDICTIONARY
360
2D1
102
}
330
2A
100
AcDbVisualStyle
  2
GouraudWithEdges
 70
     3
 71
     2
 72
     2
 73
     1
 90
        2
 40
-0.6
 41
30.0
 62
     5
 63
     7
 74
     1
 91
        4
 64
     7
 65
   257
 75
     1
175
     1
 42
1.0
 92
        0
 66
   257
 43
1.0
 76
     1
 77
     6
 78
     2
 67
     7
 79
     5
170
     0
171
     0
290
     0
174
     0
 93
       13
 44
0.0
173
     0
291
     1
 45
0.0
1001
ACAD
1000
AcDbSavedByObjectVersion
1070
     0
  0
VISUALSTYLE
  5
38
102
{ACAD_REACTORS
330
2A
102
}
102
{ACAD_XDICTIONARY
360
2E5
102
}
330
2A
100
AcDbVisualStyle
  2
Linepattern
 70
    14
 71
     2
 72
     2
 73
     0
 90
        0
 40
-0.6
 41
-30.0
 62
     5
 63
     7
 74
     1
 91
        4
 64
     7
 65
   257
 75
     7
175
     7
 42
1.0
 92
        8
 66
     7
 43
1.0
 76
     1
 77
     6
 78
     2
 67
     7
 79
     5
170
     0
171
     0
290
     0
174
     0
 93
        1
 44
0.0
173
     0
291
     1
 45
0.0
1001
ACAD
1000
AcDbSavedByObjectVersion
1070
     0
  0
VISUALSTYLE
  5
33
102
{ACAD_REACTORS
330
2A
102
}
102
{ACAD_XDICTIONARY
360
2DB
102
}
330
2A
100
AcDbVisualStyle
  2
Realistic
 70
     8
 71
     2
 72
     2
 73
     0
 90
        0
 40
-0.6
 41
-30.0
 62
     5
 63
     7
 74
     1
 91
        0
 64
     7
 65
   257
 75
     1
175
     1
 42
1.0
 92
        8
 66
     8
 43
1.0
 76
     1
 77
     6
 78
     2
 67
     7
 79
     5
170
     0
171
     0
290
     0
174
     0
 93
       13
 44
0.0
173
     0
291
     0
 45
0.0
1001
ACAD
1000
AcDbSavedByObjectVersion
1070
     0
  0
VISUALSTYLE
  5
37
102
{ACAD_REACTORS
330
2A
102
}
102
{ACAD_XDICTIONARY
360
2E3
102
}
330
2A
100
AcDbVisualStyle
  2
Thicken
 70
    13
 71
     2
 72
     2
 73
     0
 90
        0
 40
-0.6
 41
-30.0
 62
     5
 63
     7
 74
     1
 91
        4
 64
     7
 65
   257
 75
     1
175
     1
 42
1.0
 92
       12
 66
     7
 43
1.0
 76
     1
 77
     6
 78
     2
 67
     7
 79
     5
170
     0
171
     0
290
     0
174
     0
 93
        1
 44
0.0
173
     0
291
     1
 45
0.0
1001
ACAD
1000
AcDbSavedByObjectVersion
1070
     0
  0
DICTIONARYVAR
  5
2C9
102
{ACAD_REACTORS
330
2C6
102
}
330
2C6
100
DictionaryVariables
280
     0
  1
2
  0
DICTIONARYVAR
  5
2CA
102
{ACAD_REACTORS
330
2C6
102
}
330
2C6
100
DictionaryVariables
280
     0
  1
1
  0
DICTIONARY
  5
2ED
330
3D
100
AcDbDictionary
280
     1
281
     1
  3
ACAD_XREC_ROUNDTRIP
360
2EE
  0
DICTIONARY
  5
2EB
330
3C
100
AcDbDictionary
280
     1
281
     1
  3
ACAD_XREC_ROUNDTRIP
360
2EC
  0
DICTIONARY
  5
2EF
330
3E
100
AcDbDictionary
280
     1
281
     1
  3
ACAD_XREC_ROUNDTRIP
360
2F0
  0
DICTIONARY
  5
2D3
330
2F
100
AcDbDictionary
280
     1
281
     1
  3
ACAD_XREC_ROUNDTRIP
360
2D4
  0
DICTIONARY
  5
2D7
330
31
100
AcDbDictionary
280
     1
281
     1
  3
ACAD_XREC_ROUNDTRIP
360
2D8
  0
DICTIONARY
  5
2D5
330
30
100
AcDbDictionary
280
     1
281
     1
  3
ACAD_XREC_ROUNDTRIP
360
2D6
  0
DICTIONARY
  5
2D9
330
32
100
AcDbDictionary
280
     1
281
     1
  3
ACAD_XREC_ROUNDTRIP
360
2DA
  0
DICTIONARY
  5
2E1
330
36
100
AcDbDictionary
280
     1
281
     1
  3
ACAD_XREC_ROUNDTRIP
360
2E2
  0
DICTIONARY
  5
2E9
330
3A
100
AcDbDictionary
280
     1
281
     1
  3
ACAD_XREC_ROUNDTRIP
360
2EA
  0
DICTIONARY
  5
2DD
330
34
100
AcDbDictionary
280
     1
281
     1
  3
ACAD_XREC_ROUNDTRIP
360
2DE
  0
DICTIONARY
  5
2DF
330
35
100
AcDbDictionary
280
     1
281
     1
  3
ACAD_XREC_ROUNDTRIP
360
2E0
  0
DICTIONARY
  5
2E7
330
39
100
AcDbDictionary
280
     1
281
     1
  3
ACAD_XREC_ROUNDTRIP
360
2E8
  0
DICTIONARY
  5
2CB
330
2B
100
AcDbDictionary
280
     1
281
     1
  3
ACAD_XREC_ROUNDTRIP
360
2CC
  0
DICTIONARY
  5
2CD
330
2C
100
AcDbDictionary
280
     1
281
     1
  3
ACAD_XREC_ROUNDTRIP
360
2CE
  0
DICTIONARY
  5
2CF
330
2D
100
AcDbDictionary
280
     1
281
     1
  3
ACAD_XREC_ROUNDTRIP
360
2D0
  0
DICTIONARY
  5
2D1
330
2E
100
AcDbDictionary
280
     1
281
     1
  3
ACAD_XREC_ROUNDTRIP
360
2D2
  0
DICTIONARY
  5
2E5
330
38
100
AcDbDictionary
280
     1
281
     1
  3
ACAD_XREC_ROUNDTRIP
360
2E6
  0
DICTIONARY
  5
2DB
330
33
100
AcDbDictionary
280
     1
281
     1
  3
ACAD_XREC_ROUNDTRIP
360
2DC
  0
DICTIONARY
  5
2E3
330
37
100
AcDbDictionary
280
     1
281
     1
  3
ACAD_XREC_ROUNDTRIP
360
2E4
  0
XRECORD
  5
2EE
102
{ACAD_REACTORS
330
2ED
102
}
330
2ED
100
AcDbXrecord
280
     1
102
MATERIAL
148
0.0
149
0.0
149
0.0
 93
        0
 94
      127
282
     0
 72
     1
 77
     1
171
     1
175
     1
179
     1
273
     0
  0
XRECORD
  5
2EC
102
{ACAD_REACTORS
330
2EB
102
}
330
2EB
100
AcDbXrecord
280
     1
102
MATERIAL
148
0.0
149
0.0
149
0.0
 93
        0
 94
      127
282
     0
 72
     1
 77
     1
171
     1
175
     1
179
     1
273
     0
  0
XRECORD
  5
2F0
102
{ACAD_REACTORS
330
2EF
102
}
330
2EF
100
AcDbXrecord
280
     1
102
MATERIAL
148
0.0
149
0.0
149
0.0
 93
        0
 94
      127
282
     0
 72
     1
 77
     1
171
     1
175
     1
179
     1
273
     0
  0
XRECORD
  5
2D4
102
{ACAD_REACTORS
330
2D3
102
}
330
2D3
100
AcDbXrecord
280
     1
102
RTVSPropertyOp0
 70
     1
102
RTVSPropertyOp1
 70
     1
102
RTVSPropertyOp2
 70
     1
102
RTVSPropertyOp3
 70
     1
102
RTVSPropertyOp4
 70
     1
102
RTVSPropertyOp5
 70
     1
102
RTVSPropertyOp6
 70
     1
102
RTVSPropertyOp7
 70
     1
102
RTVSPropertyOp8
 70
     1
102
RTVSPropertyOp9
 70
     1
102
RTVSPropertyOp10
 70
     1
102
RTVSPropertyOp11
 70
     1
102
RTVSPropertyOp12
 70
     1
102
RTVSPropertyOp13
 70
     1
102
RTVSPropertyOp14
 70
     1
102
RTVSPropertyOp15
 70
     1
102
RTVSPropertyOp16
 70
     1
102
RTVSPropertyOp17
 70
     1
102
RTVSPropertyOp18
 70
     1
102
RTVSPropertyOp19
 70
     1
102
RTVSPropertyOp20
 70
     1
102
RTVSPropertyOp21
 70
     1
102
RTVSPropertyOp22
 70
     1
102
RTVSPropertyOp23
 70
     1
102
RTVSPropertyOp24
 70
     1
102
RTVSPropertyOp25
 70
     1
102
RTVSPropertyOp26
 70
     1
102
RTVSPropertyOp27
 70
     1
102
RTVSPropertyOp28
 70
     1
102
RTVSPropertyOp29
 70
     1
102
RTVSPropertyOp30
 70
     1
102
RTVSPropertyOp31
 70
     1
102
RTVSPropertyOp32
 70
     1
  0
XRECORD
  5
2D8
102
{ACAD_REACTORS
330
2D7
102
}
330
2D7
100
AcDbXrecord
280
     1
102
RTVSPropertyOp0
 70
     1
102
RTVSPropertyOp1
 70
     1
102
RTVSPropertyOp2
 70
     1
102
RTVSPropertyOp3
 70
     1
102
RTVSPropertyOp4
 70
     1
102
RTVSPropertyOp5
 70
     1
102
RTVSPropertyOp6
 70
     1
102
RTVSPropertyOp7
 70
     1
102
RTVSPropertyOp8
 70
     1
102
RTVSPropertyOp9
 70
     1
102
RTVSPropertyOp10
 70
     1
102
RTVSPropertyOp11
 70
     1
102
RTVSPropertyOp12
 70
     1
102
RTVSPropertyOp13
 70
     1
102
RTVSPropertyOp14
 70
     1
102
RTVSPropertyOp15
 70
     1
102
RTVSPropertyOp16
 70
     1
102
RTVSPropertyOp17
 70
     1
102
RTVSPropertyOp18
 70
     1
102
RTVSPropertyOp19
 70
     1
102
RTVSPropertyOp20
 70
     1
102
RTVSPropertyOp21
 70
     1
102
RTVSPropertyOp22
 70
     1
102
RTVSPropertyOp23
 70
     1
102
RTVSPropertyOp24
 70
     1
102
RTVSPropertyOp25
 70
     1
102
RTVSPropertyOp26
 70
     1
102
RTVSPropertyOp27
 70
     1
102
RTVSPropertyOp28
 70
     1
102
RTVSPropertyOp29
 70
     1
102
RTVSPropertyOp30
 70
     1
102
RTVSPropertyOp31
 70
     1
102
RTVSPropertyOp32
 70
     1
  0
XRECORD
  5
2D6
102
{ACAD_REACTORS
330
2D5
102
}
330
2D5
100
AcDbXrecord
280
     1
102
RTVSPropertyOp0
 70
     1
102
RTVSPropertyOp1
 70
     1
102
RTVSPropertyOp2
 70
     1
102
RTVSPropertyOp3
 70
     1
102
RTVSPropertyOp4
 70
     1
102
RTVSPropertyOp5
 70
     1
102
RTVSPropertyOp6
 70
     1
102
RTVSPropertyOp7
 70
     1
102
RTVSPropertyOp8
 70
     1
102
RTVSPropertyOp9
 70
     1
102
RTVSPropertyOp10
 70
     1
102
RTVSPropertyOp11
 70
     1
102
RTVSPropertyOp12
 70
     1
102
RTVSPropertyOp13
 70
     1
102
RTVSPropertyOp14
 70
     1
102
RTVSPropertyOp15
 70
     1
102
RTVSPropertyOp16
 70
     1
102
RTVSPropertyOp17
 70
     1
102
RTVSPropertyOp18
 70
     1
102
RTVSPropertyOp19
 70
     1
102
RTVSPropertyOp20
 70
     1
102
RTVSPropertyOp21
 70
     1
102
RTVSPropertyOp22
 70
     1
102
RTVSPropertyOp23
 70
     1
102
RTVSPropertyOp24
 70
     1
102
RTVSPropertyOp25
 70
     1
102
RTVSPropertyOp26
 70
     1
102
RTVSPropertyOp27
 70
     1
102
RTVSPropertyOp28
 70
     1
102
RTVSPropertyOp29
 70
     1
102
RTVSPropertyOp30
 70
     1
102
RTVSPropertyOp31
 70
     1
102
RTVSPropertyOp32
 70
     1
  0
XRECORD
  5
2DA
102
{ACAD_REACTORS
330
2D9
102
}
330
2D9
100
AcDbXrecord
280
     1
102
RTVSPropertyOp0
 70
     1
102
RTVSPropertyOp1
 70
     1
102
RTVSPropertyOp2
 70
     1
102
RTVSPropertyOp3
 70
     1
102
RTVSPropertyOp4
 70
     1
102
RTVSPropertyOp5
 70
     1
102
RTVSPropertyOp6
 70
     1
102
RTVSPropertyOp7
 70
     1
102
RTVSPropertyOp8
 70
     1
102
RTVSPropertyOp9
 70
     1
102
RTVSPropertyOp10
 70
     1
102
RTVSPropertyOp11
 70
     1
102
RTVSPropertyOp12
 70
     1
102
RTVSPropertyOp13
 70
     1
102
RTVSPropertyOp14
 70
     1
102
RTVSPropertyOp15
 70
     1
102
RTVSPropertyOp16
 70
     1
102
RTVSPropertyOp17
 70
     1
102
RTVSPropertyOp18
 70
     1
102
RTVSPropertyOp19
 70
     1
102
RTVSPropertyOp20
 70
     1
102
RTVSPropertyOp21
 70
     1
102
RTVSPropertyOp22
 70
     1
102
RTVSPropertyOp23
 70
     1
102
RTVSPropertyOp24
 70
     1
102
RTVSPropertyOp25
 70
     1
102
RTVSPropertyOp26
 70
     1
102
RTVSPropertyOp27
 70
     1
102
RTVSPropertyOp28
 70
     1
102
RTVSPropertyOp29
 70
     1
102
RTVSPropertyOp30
 70
     1
102
RTVSPropertyOp31
 70
     1
102
RTVSPropertyOp32
 70
     1
  0
XRECORD
  5
2E2
102
{ACAD_REACTORS
330
2E1
102
}
330
2E1
100
AcDbXrecord
280
     1
102
RTVSPropertyOp0
 70
     1
102
RTVSPropertyOp1
 70
     1
102
RTVSPropertyOp2
 70
     1
102
RTVSPropertyOp3
 70
     1
102
RTVSPropertyOp4
 70
     1
102
RTVSPropertyOp5
 70
     1
102
RTVSPropertyOp6
 70
     1
102
RTVSPropertyOp7
 70
     1
102
RTVSPropertyOp8
 70
     1
102
RTVSPropertyOp9
 70
     1
102
RTVSPropertyOp10
 70
     1
102
RTVSPropertyOp11
 70
     1
102
RTVSPropertyOp12
 70
     1
102
RTVSPropertyOp13
 70
     1
102
RTVSPropertyOp14
 70
     1
102
RTVSPropertyOp15
 70
     1
102
RTVSPropertyOp16
 70
     1
102
RTVSPropertyOp17
 70
     1
102
RTVSPropertyOp18
 70
     1
102
RTVSPropertyOp19
 70
     1
102
RTVSPropertyOp20
 70
     1
102
RTVSPropertyOp21
 70
     1
102
RTVSPropertyOp22
 70
     1
102
RTVSPropertyOp23
 70
     1
102
RTVSPropertyOp24
 70
     1
102
RTVSPropertyOp25
 70
     1
102
RTVSPropertyOp26
 70
     1
102
RTVSPropertyOp27
 70
     1
102
RTVSPropertyOp28
 70
     1
102
RTVSPropertyOp29
 70
     1
102
RTVSPropertyOp30
 70
     1
102
RTVSPropertyOp31
 70
     1
102
RTVSPropertyOp32
 70
     1
  0
XRECORD
  5
2EA
102
{ACAD_REACTORS
330
2E9
102
}
330
2E9
100
AcDbXrecord
280
     1
102
RTVSPropertyOp0
 70
     1
102
RTVSPropertyOp1
 70
     1
102
RTVSPropertyOp2
 70
     1
102
RTVSPropertyOp3
 70
     1
102
RTVSPropertyOp4
 70
     1
102
RTVSPropertyOp5
 70
     1
102
RTVSPropertyOp6
 70
     1
102
RTVSPropertyOp7
 70
     1
102
RTVSPropertyOp8
 70
     1
102
RTVSPropertyOp9
 70
     1
102
RTVSPropertyOp10
 70
     1
102
RTVSPropertyOp11
 70
     1
102
RTVSPropertyOp12
 70
     1
102
RTVSPropertyOp13
 70
     1
102
RTVSPropertyOp14
 70
     1
102
RTVSPropertyOp15
 70
     1
102
RTVSPropertyOp16
 70
     1
102
RTVSPropertyOp17
 70
     1
102
RTVSPropertyOp18
 70
     1
102
RTVSPropertyOp19
 70
     1
102
RTVSPropertyOp20
 70
     1
102
RTVSPropertyOp21
 70
     1
102
RTVSPropertyOp22
 70
     1
102
RTVSPropertyOp23
 70
     1
102
RTVSPropertyOp24
 70
     1
102
RTVSPropertyOp25
 70
     1
102
RTVSPropertyOp26
 70
     1
102
RTVSPropertyOp27
 70
     1
102
RTVSPropertyOp28
 70
     1
102
RTVSPropertyOp29
 70
     1
102
RTVSPropertyOp30
 70
     1
102
RTVSPropertyOp31
 70
     1
102
RTVSPropertyOp32
 70
     1
  0
XRECORD
  5
2DE
102
{ACAD_REACTORS
330
2DD
102
}
330
2DD
100
AcDbXrecord
280
     1
102
RTVSPropertyOp0
 70
     1
102
RTVSPropertyOp1
 70
     1
102
RTVSPropertyOp2
 70
     1
102
RTVSPropertyOp3
 70
     1
102
RTVSPropertyOp4
 70
     1
102
RTVSPropertyOp5
 70
     1
102
RTVSPropertyOp6
 70
     1
102
RTVSPropertyOp7
 70
     1
102
RTVSPropertyOp8
 70
     1
102
RTVSPropertyOp9
 70
     1
102
RTVSPropertyOp10
 70
     1
102
RTVSPropertyOp11
 70
     1
102
RTVSPropertyOp12
 70
     1
102
RTVSPropertyOp13
 70
     1
102
RTVSPropertyOp14
 70
     1
102
RTVSPropertyOp15
 70
     1
102
RTVSPropertyOp16
 70
     1
102
RTVSPropertyOp17
 70
     1
102
RTVSPropertyOp18
 70
     1
102
RTVSPropertyOp19
 70
     1
102
RTVSPropertyOp20
 70
     1
102
RTVSPropertyOp21
 70
     1
102
RTVSPropertyOp22
 70
     1
102
RTVSPropertyOp23
 70
     1
102
RTVSPropertyOp24
 70
     1
102
RTVSPropertyOp25
 70
     1
102
RTVSPropertyOp26
 70
     1
102
RTVSPropertyOp27
 70
     1
102
RTVSPropertyOp28
 70
     1
102
RTVSPropertyOp29
 70
     1
102
RTVSPropertyOp30
 70
     1
102
RTVSPropertyOp31
 70
     1
102
RTVSPropertyOp32
 70
     1
  0
XRECORD
  5
2E0
102
{ACAD_REACTORS
330
2DF
102
}
330
2DF
100
AcDbXrecord
280
     1
102
RTVSPropertyOp0
 70
     1
102
RTVSPropertyOp1
 70
     1
102
RTVSPropertyOp2
 70
     1
102
RTVSPropertyOp3
 70
     1
102
RTVSPropertyOp4
 70
     1
102
RTVSPropertyOp5
 70
     1
102
RTVSPropertyOp6
 70
     1
102
RTVSPropertyOp7
 70
     1
102
RTVSPropertyOp8
 70
     1
102
RTVSPropertyOp9
 70
     1
102
RTVSPropertyOp10
 70
     1
102
RTVSPropertyOp11
 70
     1
102
RTVSPropertyOp12
 70
     1
102
RTVSPropertyOp13
 70
     1
102
RTVSPropertyOp14
 70
     1
102
RTVSPropertyOp15
 70
     1
102
RTVSPropertyOp16
 70
     1
102
RTVSPropertyOp17
 70
     1
102
RTVSPropertyOp18
 70
     1
102
RTVSPropertyOp19
 70
     1
102
RTVSPropertyOp20
 70
     1
102
RTVSPropertyOp21
 70
     1
102
RTVSPropertyOp22
 70
     1
102
RTVSPropertyOp23
 70
     1
102
RTVSPropertyOp24
 70
     1
102
RTVSPropertyOp25
 70
     1
102
RTVSPropertyOp26
 70
     1
102
RTVSPropertyOp27
 70
     1
102
RTVSPropertyOp28
 70
     1
102
RTVSPropertyOp29
 70
     1
102
RTVSPropertyOp30
 70
     1
102
RTVSPropertyOp31
 70
     1
102
RTVSPropertyOp32
 70
     1
  0
XRECORD
  5
2E8
102
{ACAD_REACTORS
330
2E7
102
}
330
2E7
100
AcDbXrecord
280
     1
102
RTVSPropertyOp0
 70
     1
102
RTVSPropertyOp1
 70
     1
102
RTVSPropertyOp2
 70
     1
102
RTVSPropertyOp3
 70
     1
102
RTVSPropertyOp4
 70
     1
102
RTVSPropertyOp5
 70
     1
102
RTVSPropertyOp6
 70
     1
102
RTVSPropertyOp7
 70
     1
102
RTVSPropertyOp8
 70
     1
102
RTVSPropertyOp9
 70
     1
102
RTVSPropertyOp10
 70
     1
102
RTVSPropertyOp11
 70
     1
102
RTVSPropertyOp12
 70
     1
102
RTVSPropertyOp13
 70
     1
102
RTVSPropertyOp14
 70
     1
102
RTVSPropertyOp15
 70
     1
102
RTVSPropertyOp16
 70
     1
102
RTVSPropertyOp17
 70
     1
102
RTVSPropertyOp18
 70
     1
102
RTVSPropertyOp19
 70
     1
102
RTVSPropertyOp20
 70
     1
102
RTVSPropertyOp21
 70
     1
102
RTVSPropertyOp22
 70
     1
102
RTVSPropertyOp23
 70
     1
102
RTVSPropertyOp24
 70
     1
102
RTVSPropertyOp25
 70
     1
102
RTVSPropertyOp26
 70
     1
102
RTVSPropertyOp27
 70
     1
102
RTVSPropertyOp28
 70
     1
102
RTVSPropertyOp29
 70
     1
102
RTVSPropertyOp30
 70
     1
102
RTVSPropertyOp31
 70
     1
102
RTVSPropertyOp32
 70
     1
  0
XRECORD
  5
2CC
102
{ACAD_REACTORS
330
2CB
102
}
330
2CB
100
AcDbXrecord
280
     1
102
RTVSPropertyOp0
 70
     1
102
RTVSPropertyOp1
 70
     1
102
RTVSPropertyOp2
 70
     1
102
RTVSPropertyOp3
 70
     1
102
RTVSPropertyOp4
 70
     1
102
RTVSPropertyOp5
 70
     1
102
RTVSPropertyOp6
 70
     1
102
RTVSPropertyOp7
 70
     1
102
RTVSPropertyOp8
 70
     1
102
RTVSPropertyOp9
 70
     1
102
RTVSPropertyOp10
 70
     1
102
RTVSPropertyOp11
 70
     1
102
RTVSPropertyOp12
 70
     1
102
RTVSPropertyOp13
 70
     1
102
RTVSPropertyOp14
 70
     1
102
RTVSPropertyOp15
 70
     1
102
RTVSPropertyOp16
 70
     1
102
RTVSPropertyOp17
 70
     1
102
RTVSPropertyOp18
 70
     1
102
RTVSPropertyOp19
 70
     1
102
RTVSPropertyOp20
 70
     1
102
RTVSPropertyOp21
 70
     1
102
RTVSPropertyOp22
 70
     1
102
RTVSPropertyOp23
 70
     1
102
RTVSPropertyOp24
 70
     1
102
RTVSPropertyOp25
 70
     1
102
RTVSPropertyOp26
 70
     1
102
RTVSPropertyOp27
 70
     1
102
RTVSPropertyOp28
 70
     1
102
RTVSPropertyOp29
 70
     1
102
RTVSPropertyOp30
 70
     1
102
RTVSPropertyOp31
 70
     1
102
RTVSPropertyOp32
 70
     1
  0
XRECORD
  5
2CE
102
{ACAD_REACTORS
330
2CD
102
}
330
2CD
100
AcDbXrecord
280
     1
102
RTVSPropertyOp0
 70
     1
102
RTVSPropertyOp1
 70
     1
102
RTVSPropertyOp2
 70
     1
102
RTVSPropertyOp3
 70
     1
102
RTVSPropertyOp4
 70
     1
102
RTVSPropertyOp5
 70
     1
102
RTVSPropertyOp6
 70
     1
102
RTVSPropertyOp7
 70
     1
102
RTVSPropertyOp8
 70
     1
102
RTVSPropertyOp9
 70
     1
102
RTVSPropertyOp10
 70
     1
102
RTVSPropertyOp11
 70
     1
102
RTVSPropertyOp12
 70
     1
102
RTVSPropertyOp13
 70
     1
102
RTVSPropertyOp14
 70
     1
102
RTVSPropertyOp15
 70
     1
102
RTVSPropertyOp16
 70
     1
102
RTVSPropertyOp17
 70
     1
102
RTVSPropertyOp18
 70
     1
102
RTVSPropertyOp19
 70
     1
102
RTVSPropertyOp20
 70
     1
102
RTVSPropertyOp21
 70
     1
102
RTVSPropertyOp22
 70
     1
102
RTVSPropertyOp23
 70
     1
102
RTVSPropertyOp24
 70
     1
102
RTVSPropertyOp25
 70
     1
102
RTVSPropertyOp26
 70
     1
102
RTVSPropertyOp27
 70
     1
102
RTVSPropertyOp28
 70
     1
102
RTVSPropertyOp29
 70
     1
102
RTVSPropertyOp30
 70
     1
102
RTVSPropertyOp31
 70
     1
102
RTVSPropertyOp32
 70
     1
  0
XRECORD
  5
2D0
102
{ACAD_REACTORS
330
2CF
102
}
330
2CF
100
AcDbXrecord
280
     1
102
RTVSPropertyOp0
 70
     1
102
RTVSPropertyOp1
 70
     1
102
RTVSPropertyOp2
 70
     1
102
RTVSPropertyOp3
 70
     1
102
RTVSPropertyOp4
 70
     1
102
RTVSPropertyOp5
 70
     1
102
RTVSPropertyOp6
 70
     1
102
RTVSPropertyOp7
 70
     1
102
RTVSPropertyOp8
 70
     1
102
RTVSPropertyOp9
 70
     1
102
RTVSPropertyOp10
 70
     1
102
RTVSPropertyOp11
 70
     1
102
RTVSPropertyOp12
 70
     1
102
RTVSPropertyOp13
 70
     1
102
RTVSPropertyOp14
 70
     1
102
RTVSPropertyOp15
 70
     1
102
RTVSPropertyOp16
 70
     1
102
RTVSPropertyOp17
 70
     1
102
RTVSPropertyOp18
 70
     1
102
RTVSPropertyOp19
 70
     1
102
RTVSPropertyOp20
 70
     1
102
RTVSPropertyOp21
 70
     1
102
RTVSPropertyOp22
 70
     1
102
RTVSPropertyOp23
 70
     1
102
RTVSPropertyOp24
 70
     1
102
RTVSPropertyOp25
 70
     1
102
RTVSPropertyOp26
 70
     1
102
RTVSPropertyOp27
 70
     1
102
RTVSPropertyOp28
 70
     1
102
RTVSPropertyOp29
 70
     1
102
RTVSPropertyOp30
 70
     1
102
RTVSPropertyOp31
 70
     1
102
RTVSPropertyOp32
 70
     1
  0
XRECORD
  5
2D2
102
{ACAD_REACTORS
330
2D1
102
}
330
2D1
100
AcDbXrecord
280
     1
102
RTVSPropertyOp0
 70
     1
102
RTVSPropertyOp1
 70
     1
102
RTVSPropertyOp2
 70
     1
102
RTVSPropertyOp3
 70
     1
102
RTVSPropertyOp4
 70
     1
102
RTVSPropertyOp5
 70
     1
102
RTVSPropertyOp6
 70
     1
102
RTVSPropertyOp7
 70
     1
102
RTVSPropertyOp8
 70
     1
102
RTVSPropertyOp9
 70
     1
102
RTVSPropertyOp10
 70
     1
102
RTVSPropertyOp11
 70
     1
102
RTVSPropertyOp12
 70
     1
102
RTVSPropertyOp13
 70
     1
102
RTVSPropertyOp14
 70
     1
102
RTVSPropertyOp15
 70
     1
102
RTVSPropertyOp16
 70
     1
102
RTVSPropertyOp17
 70
     1
102
RTVSPropertyOp18
 70
     1
102
RTVSPropertyOp19
 70
     1
102
RTVSPropertyOp20
 70
     1
102
RTVSPropertyOp21
 70
     1
102
RTVSPropertyOp22
 70
     1
102
RTVSPropertyOp23
 70
     1
102
RTVSPropertyOp24
 70
     1
102
RTVSPropertyOp25
 70
     1
102
RTVSPropertyOp26
 70
     1
102
RTVSPropertyOp27
 70
     1
102
RTVSPropertyOp28
 70
     1
102
RTVSPropertyOp29
 70
     1
102
RTVSPropertyOp30
 70
     1
102
RTVSPropertyOp31
 70
     1
102
RTVSPropertyOp32
 70
     1
  0
XRECORD
  5
2E6
102
{ACAD_REACTORS
330
2E5
102
}
330
2E5
100
AcDbXrecord
280
     1
102
RTVSPropertyOp0
 70
     1
102
RTVSPropertyOp1
 70
     1
102
RTVSPropertyOp2
 70
     1
102
RTVSPropertyOp3
 70
     1
102
RTVSPropertyOp4
 70
     1
102
RTVSPropertyOp5
 70
     1
102
RTVSPropertyOp6
 70
     1
102
RTVSPropertyOp7
 70
     1
102
RTVSPropertyOp8
 70
     1
102
RTVSPropertyOp9
 70
     1
102
RTVSPropertyOp10
 70
     1
102
RTVSPropertyOp11
 70
     1
102
RTVSPropertyOp12
 70
     1
102
RTVSPropertyOp13
 70
     1
102
RTVSPropertyOp14
 70
     1
102
RTVSPropertyOp15
 70
     1
102
RTVSPropertyOp16
 70
     1
102
RTVSPropertyOp17
 70
     1
102
RTVSPropertyOp18
 70
     1
102
RTVSPropertyOp19
 70
     1
102
RTVSPropertyOp20
 70
     1
102
RTVSPropertyOp21
 70
     1
102
RTVSPropertyOp22
 70
     1
102
RTVSPropertyOp23
 70
     1
102
RTVSPropertyOp24
 70
     1
102
RTVSPropertyOp25
 70
     1
102
RTVSPropertyOp26
 70
     1
102
RTVSPropertyOp27
 70
     1
102
RTVSPropertyOp28
 70
     1
102
RTVSPropertyOp29
 70
     1
102
RTVSPropertyOp30
 70
     1
102
RTVSPropertyOp31
 70
     1
102
RTVSPropertyOp32
 70
     1
  0
XRECORD
  5
2DC
102
{ACAD_REACTORS
330
2DB
102
}
330
2DB
100
AcDbXrecord
280
     1
102
RTVSPropertyOp0
 70
     1
102
RTVSPropertyOp1
 70
     1
102
RTVSPropertyOp2
 70
     1
102
RTVSPropertyOp3
 70
     1
102
RTVSPropertyOp4
 70
     1
102
RTVSPropertyOp5
 70
     1
102
RTVSPropertyOp6
 70
     1
102
RTVSPropertyOp7
 70
     1
102
RTVSPropertyOp8
 70
     1
102
RTVSPropertyOp9
 70
     1
102
RTVSPropertyOp10
 70
     1
102
RTVSPropertyOp11
 70
     1
102
RTVSPropertyOp12
 70
     1
102
RTVSPropertyOp13
 70
     1
102
RTVSPropertyOp14
 70
     1
102
RTVSPropertyOp15
 70
     1
102
RTVSPropertyOp16
 70
     1
102
RTVSPropertyOp17
 70
     1
102
RTVSPropertyOp18
 70
     1
102
RTVSPropertyOp19
 70
     1
102
RTVSPropertyOp20
 70
     1
102
RTVSPropertyOp21
 70
     1
102
RTVSPropertyOp22
 70
     1
102
RTVSPropertyOp23
 70
     1
102
RTVSPropertyOp24
 70
     1
102
RTVSPropertyOp25
 70
     1
102
RTVSPropertyOp26
 70
     1
102
RTVSPropertyOp27
 70
     1
102
RTVSPropertyOp28
 70
     1
102
RTVSPropertyOp29
 70
     1
102
RTVSPropertyOp30
 70
     1
102
RTVSPropertyOp31
 70
     1
102
RTVSPropertyOp32
 70
     1
  0
XRECORD
  5
2E4
102
{ACAD_REACTORS
330
2E3
102
}
330
2E3
100
AcDbXrecord
280
     1
102
RTVSPropertyOp0
 70
     1
102
RTVSPropertyOp1
 70
     1
102
RTVSPropertyOp2
 70
     1
102
RTVSPropertyOp3
 70
     1
102
RTVSPropertyOp4
 70
     1
102
RTVSPropertyOp5
 70
     1
102
RTVSPropertyOp6
 70
     1
102
RTVSPropertyOp7
 70
     1
102
RTVSPropertyOp8
 70
     1
102
RTVSPropertyOp9
 70
     1
102
RTVSPropertyOp10
 70
     1
102
RTVSPropertyOp11
 70
     1
102
RTVSPropertyOp12
 70
     1
102
RTVSPropertyOp13
 70
     1
102
RTVSPropertyOp14
 70
     1
102
RTVSPropertyOp15
 70
     1
102
RTVSPropertyOp16
 70
     1
102
RTVSPropertyOp17
 70
     1
102
RTVSPropertyOp18
 70
     1
102
RTVSPropertyOp19
 70
     1
102
RTVSPropertyOp20
 70
     1
102
RTVSPropertyOp21
 70
     1
102
RTVSPropertyOp22
 70
     1
102
RTVSPropertyOp23
 70
     1
102
RTVSPropertyOp24
 70
     1
102
RTVSPropertyOp25
 70
     1
102
RTVSPropertyOp26
 70
     1
102
RTVSPropertyOp27
 70
     1
102
RTVSPropertyOp28
 70
     1
102
RTVSPropertyOp29
 70
     1
102
RTVSPropertyOp30
 70
     1
102
RTVSPropertyOp31
 70
     1
102
RTVSPropertyOp32
 70
     1
  0
ENDSEC
  0
EOF
