  0
SECTION
  2
HEADER
  9
$ACADVER
  1
AC1015
  9
$ACADMAINTVER
 70
     6
  9
$DWGCODEPAGE
  3
ANSI_932
  9
$INSBASE
 10
0.0
 20
0.0
 30
0.0
  9
$EXTMIN
 10
0.0
 20
0.0
 30
0.0
  9
$EXTMAX
 10
315.0
 20
445.5
 30
0.0
  9
$LIMMIN
 10
0.0
 20
0.0
  9
$LIMMAX
 10
12.0
 20
9.0
  9
$ORTHOMODE
 70
     0
  9
$REGENMODE
 70
     1
  9
$FILLMODE
 70
     1
  9
$QTEXTMODE
 70
     0
  9
$MIRRTEXT
 70
     1
  9
$LTSCALE
 40
1.0
  9
$ATTMODE
 70
     1
  9
$TEXTSIZE
 40
0.2
  9
$TRACEWID
 40
0.05
  9
$TEXTSTYLE
  7
Standard
  9
$CLAYER
  8
0
  9
$CELTYPE
  6
ByLayer
  9
$CECOLOR
 62
   256
  9
$CELTSCALE
 40
1.0
  9
$DISPSILH
 70
     0
  9
$DIMSCALE
 40
1.0
  9
$DIMASZ
 40
0.18
  9
$DIMEXO
 40
0.0625
  9
$DIMDLI
 40
0.38
  9
$DIMRND
 40
0.0
  9
$DIMDLE
 40
0.0
  9
$DIMEXE
 40
0.18
  9
$DIMTP
 40
0.0
  9
$DIMTM
 40
0.0
  9
$DIMTXT
 40
0.18
  9
$DIMCEN
 40
0.09
  9
$DIMTSZ
 40
0.0
  9
$DIMTOL
 70
     0
  9
$DIMLIM
 70
     0
  9
$DIMTIH
 70
     1
  9
$DIMTOH
 70
     1
  9
$DIMSE1
 70
     0
  9
$DIMSE2
 70
     0
  9
$DIMTAD
 70
     0
  9
$DIMZIN
 70
     0
  9
$DIMBLK
  1

  9
$DIMASO
 70
     1
  9
$DIMSHO
 70
     1
  9
$DIMPOST
  1

  9
$DIMAPOST
  1

  9
$DIMALT
 70
     0
  9
$DIMALTD
 70
     2
  9
$DIMALTF
 40
25.4
  9
$DIMLFAC
 40
1.0
  9
$DIMTOFL
 70
     0
  9
$DIMTVP
 40
0.0
  9
$DIMTIX
 70
     0
  9
$DIMSOXD
 70
     0
  9
$DIMSAH
 70
     0
  9
$DIMBLK1
  1

  9
$DIMBLK2
  1

  9
$DIMSTYLE
  2
Standard
  9
$DIMCLRD
 70
     0
  9
$DIMCLRE
 70
     0
  9
$DIMCLRT
 70
     0
  9
$DIMTFAC
 40
1.0
  9
$DIMGAP
 40
0.09
  9
$DIMJUST
 70
     0
  9
$DIMSD1
 70
     0
  9
$DIMSD2
 70
     0
  9
$DIMTOLJ
 70
     1
  9
$DIMTZIN
 70
     0
  9
$DIMALTZ
 70
     0
  9
$DIMALTTZ
 70
     0
  9
$DIMUPT
 70
     0
  9
$DIMDEC
 70
     4
  9
$DIMTDEC
 70
     4
  9
$DIMALTU
 70
     2
  9
$DIMALTTD
 70
     2
  9
$DIMTXSTY
  7
Standard
  9
$DIMAUNIT
 70
     0
  9
$DIMADEC
 70
     0
  9
$DIMALTRND
 40
0.0
  9
$DIMAZIN
 70
     0
  9
$DIMDSEP
 70
    46
  9
$DIMATFIT
 70
     3
  9
$DIMFRAC
 70
     0
  9
$DIMLDRBLK
  1

  9
$DIMLUNIT
 70
     2
  9
$DIMLWD
 70
    -2
  9
$DIMLWE
 70
    -2
  9
$DIMTMOVE
 70
     0
  9
$LUNITS
 70
     2
  9
$LUPREC
 70
     4
  9
$SKETCHINC
 40
0.1
  9
$FILLETRAD
 40
0.5
  9
$AUNITS
 70
     0
  9
$AUPREC
 70
     0
  9
$MENU
  1
.
  9
$ELEVATION
 40
0.0
  9
$PELEVATION
 40
0.0
  9
$THICKNESS
 40
0.0
  9
$LIMCHECK
 70
     0
  9
$CHAMFERA
 40
0.5
  9
$CHAMFERB
 40
0.5
  9
$CHAMFERC
 40
1.0
  9
$CHAMFERD
 40
0.0
  9
$SKPOLY
 70
     0
  9
$TDCREATE
 40
2457206.727285463
  9
$TDUCREATE
 40
2457206.352285463
  9
$TDUPDATE
 40
2457206.727286724
  9
$TDUUPDATE
 40
2457206.352286724
  9
$TDINDWG
 40
0.0000000116
  9
$TDUSRTIMER
 40
0.0000000116
  9
$USRTIMER
 70
     1
  9
$ANGBASE
 50
0.0
  9
$ANGDIR
 70
     0
  9
$PDMODE
 70
     0
  9
$PDSIZE
 40
0.0
  9
$PLINEWID
 40
0.0
  9
$SPLFRAME
 70
     0
  9
$SPLINETYPE
 70
     6
  9
$SPLINESEGS
 70
     8
  9
$HANDSEED
  5
24D
  9
$SURFTAB1
 70
     6
  9
$SURFTAB2
 70
     6
  9
$SURFTYPE
 70
     6
  9
$SURFU
 70
     6
  9
$SURFV
 70
     6
  9
$UCSBASE
  2

  9
$UCSNAME
  2

  9
$UCSORG
 10
0.0
 20
0.0
 30
0.0
  9
$UCSXDIR
 10
1.0
 20
0.0
 30
0.0
  9
$UCSYDIR
 10
0.0
 20
1.0
 30
0.0
  9
$UCSORTHOREF
  2

  9
$UCSORTHOVIEW
 70
     0
  9
$UCSORGTOP
 10
0.0
 20
0.0
 30
0.0
  9
$UCSORGBOTTOM
 10
0.0
 20
0.0
 30
0.0
  9
$UCSORGLEFT
 10
0.0
 20
0.0
 30
0.0
  9
$UCSORGRIGHT
 10
0.0
 20
0.0
 30
0.0
  9
$UCSORGFRONT
 10
0.0
 20
0.0
 30
0.0
  9
$UCSORGBACK
 10
0.0
 20
0.0
 30
0.0
  9
$PUCSBASE
  2

  9
$PUCSNAME
  2

  9
$PUCSORG
 10
0.0
 20
0.0
 30
0.0
  9
$PUCSXDIR
 10
1.0
 20
0.0
 30
0.0
  9
$PUCSYDIR
 10
0.0
 20
1.0
 30
0.0
  9
$PUCSORTHOREF
  2

  9
$PUCSORTHOVIEW
 70
     0
  9
$PUCSORGTOP
 10
0.0
 20
0.0
 30
0.0
  9
$PUCSORGBOTTOM
 10
0.0
 20
0.0
 30
0.0
  9
$PUCSORGLEFT
 10
0.0
 20
0.0
 30
0.0
  9
$PUCSORGRIGHT
 10
0.0
 20
0.0
 30
0.0
  9
$PUCSORGFRONT
 10
0.0
 20
0.0
 30
0.0
  9
$PUCSORGBACK
 10
0.0
 20
0.0
 30
0.0
  9
$USERI1
 70
     0
  9
$USERI2
 70
     0
  9
$USERI3
 70
     0
  9
$USERI4
 70
     0
  9
$USERI5
 70
     0
  9
$USERR1
 40
18.1
  9
$USERR2
 40
0.0
  9
$USERR3
 40
0.0
  9
$USERR4
 40
0.0
  9
$USERR5
 40
0.0
  9
$WORLDVIEW
 70
     1
  9
$SHADEDGE
 70
     3
  9
$SHADEDIF
 70
    70
  9
$TILEMODE
 70
     1
  9
$MAXACTVP
 70
    64
  9
$PINSBASE
 10
0.0
 20
0.0
 30
0.0
  9
$PLIMCHECK
 70
     0
  9
$PEXTMIN
 10
1.00000000000000E+20
 20
1.00000000000000E+20
 30
1.00000000000000E+20
  9
$PEXTMAX
 10
-1.00000000000000E+20
 20
-1.00000000000000E+20
 30
-1.00000000000000E+20
  9
$PLIMMIN
 10
0.0
 20
0.0
  9
$PLIMMAX
 10
12.0
 20
9.0
  9
$UNITMODE
 70
     0
  9
$VISRETAIN
 70
     1
  9
$PLINEGEN
 70
     0
  9
$PSLTSCALE
 70
     1
  9
$TREEDEPTH
 70
  3020
  9
$CMLSTYLE
  2
Standard
  9
$CMLJUST
 70
     0
  9
$CMLSCALE
 40
1.0
  9
$PROXYGRAPHICS
 70
     1
  9
$MEASUREMENT
 70
     1
  9
$CELWEIGHT
370
    -1
  9
$ENDCAPS
280
     0
  9
$JOINSTYLE
280
     0
  9
$LWDISPLAY
290
     0
  9
$INSUNITS
 70
     4
  9
$HYPERLINKBASE
  1

  9
$STYLESHEET
  1

  9
$XEDIT
290
     1
  9
$CEPSNTYPE
380
     0
  9
$PSTYLEMODE
290
     1
  9
$FINGERPRINTGUID
  2
{FEF2EFD2-7F9E-4E17-8292-60C650CB9664}
  9
$VERSIONGUID
  2
{FAEB1C32-E019-11D5-929B-00C0DF256EC4}
  9
$EXTNAMES
290
     1
  9
$PSVPSCALE
 40
0.0
  9
$OLESTARTUP
290
     0
  0
ENDSEC
  0
SECTION
  2
CLASSES
  0
CLASS
  1
ACDBDICTIONARYWDFLT
  2
AcDbDictionaryWithDefault
  3
ObjectDBX Classes
 90
        0
280
     0
281
     0
  0
CLASS
  1
VISUALSTYLE
  2
AcDbVisualStyle
  3
ObjectDBX Classes
 90
     4095
280
     0
281
     0
  0
CLASS
  1
MATERIAL
  2
AcDbMaterial
  3
ObjectDBX Classes
 90
     1153
280
     0
281
     0
  0
CLASS
  1
DICTIONARYVAR
  2
AcDbDictionaryVar
  3
ObjectDBX Classes
 90
        0
280
     0
281
     0
  0
CLASS
  1
ACDBPLACEHOLDER
  2
AcDbPlaceHolder
  3
ObjectDBX Classes
 90
        0
280
     0
281
     0
  0
CLASS
  1
LAYOUT
  2
AcDbLayout
  3
ObjectDBX Classes
 90
        0
280
     0
281
     0
  0
ENDSEC
  0
SECTION
  2
TABLES
  0
TABLE
  2
VPORT
  5
8
330
0
100
AcDbSymbolTable
 70
     1
  0
VPORT
  5
29
330
8
100
AcDbSymbolTableRecord
100
AcDbViewportTableRecord
  2
*Active
 70
     0
 10
0.0
 20
0.0
 11
1.0
 21
1.0
 12
157.5
 22
222.75
 13
0.0
 23
0.0
 14
0.5
 24
0.5
 15
0.5
 25
0.5
 16
0.0
 26
0.0
 36
1.0
 17
0.0
 27
0.0
 37
0.0
 40
490.05
 41
1.60267857142857
 42
50.0
 43
0.0
 44
0.0
 50
0.0
 51
0.0
 71
     0
 72
   100
 73
     1
 74
     3
 75
     0
 76
     0
 77
     0
 78
     0
281
     0
 65
     1
110
0.0
120
0.0
130
0.0
111
1.0
121
0.0
131
0.0
112
0.0
122
1.0
132
0.0
 79
     0
146
0.0
  0
ENDTAB
  0
TABLE
  2
LTYPE
  5
5
330
0
100
AcDbSymbolTable
 70
     8
  0
LTYPE
  5
14
330
5
100
AcDbSymbolTableRecord
100
AcDbLinetypeTableRecord
  2
ByBlock
 70
     0
  3

 72
    65
 73
     0
 40
0.0
  0
LTYPE
  5
15
330
5
100
AcDbSymbolTableRecord
100
AcDbLinetypeTableRecord
  2
ByLayer
 70
     0
  3

 72
    65
 73
     0
 40
0.0
  0
LTYPE
  5
16
330
5
100
AcDbSymbolTableRecord
100
AcDbLinetypeTableRecord
  2
Continuous
 70
     0
  3
Solid line
 72
    65
 73
     0
 40
0.0
  0
LTYPE
  5
3F
330
5
100
AcDbSymbolTableRecord
100
AcDbLinetypeTableRecord
  2
DASHED
 70
     0
  3
Dashed
 72
    65
 73
     2
 40
15.0
 49
7.0
 74
     0
 49
-8.0
 74
     0
  0
LTYPE
  5
40
330
5
100
AcDbSymbolTableRecord
100
AcDbLinetypeTableRecord
  2
DOTTED
 70
     0
  3
Dotted
 72
    65
 73
     2
 40
1.0
 49
0.0
 74
     0
 49
-1.0
 74
     0
  0
LTYPE
  5
41
330
5
100
AcDbSymbolTableRecord
100
AcDbLinetypeTableRecord
  2
DOT_CENTER
 70
     0
  3
Dot_Center
 72
    65
 73
     4
 40
14.0
 49
12.0
 74
     0
 49
-1.0
 74
     0
 49
0.0
 74
     0
 49
-1.0
 74
     0
  0
LTYPE
  5
42
330
5
100
AcDbSymbolTableRecord
100
AcDbLinetypeTableRecord
  2
LONG_DASHED
 70
     0
  3
Long_Dashed
 72
    65
 73
     2
 40
15.0
 49
10.0
 74
     0
 49
-5.0
 74
     0
  0
LTYPE
  5
43
330
5
100
AcDbSymbolTableRecord
100
AcDbLinetypeTableRecord
  2
DASH_CENTER
 70
     0
  3
Dash_Center
 72
    65
 73
     4
 40
14.0
 49
11.0
 74
     0
 49
-1.0
 74
     0
 49
1.0
 74
     0
 49
-1.0
 74
     0
  0
LTYPE
  5
44
330
5
100
AcDbSymbolTableRecord
100
AcDbLinetypeTableRecord
  2
PHANTOM
 70
     0
  3
Phantom
 72
    65
 73
     6
 40
13.0
 49
10.0
 74
     0
 49
-1.0
 74
     0
 49
0.0
 74
     0
 49
-1.0
 74
     0
 49
0.0
 74
     0
 49
-1.0
 74
     0
  0
LTYPE
  5
45
330
5
100
AcDbSymbolTableRecord
100
AcDbLinetypeTableRecord
  2
CENTER_DASH_DASH
 70
     0
  3
Center_Dash_Dash
 72
    65
 73
     6
 40
14.0
 49
9.0
 74
     0
 49
-1.0
 74
     0
 49
1.0
 74
     0
 49
-1.0
 74
     0
 49
1.0
 74
     0
 49
-1.0
 74
     0
  0
ENDTAB
  0
TABLE
  2
LAYER
  5
2
330
0
100
AcDbSymbolTable
 70
     2
  0
LAYER
  5
10
330
2
100
AcDbSymbolTableRecord
100
AcDbLayerTableRecord
  2
0
 70
     0
 62
     7
  6
Continuous
370
    -3
390
F
  0
LAYER
  5
46
330
2
100
AcDbSymbolTableRecord
100
AcDbLayerTableRecord
  2
1
 70
     0
 62
     7
  6
Continuous
370
    -3
390
F
  0
ENDTAB
  0
TABLE
  2
STYLE
  5
3
330
0
100
AcDbSymbolTable
 70
     3
  0
STYLE
  5
11
330
3
100
AcDbSymbolTableRecord
100
AcDbTextStyleTableRecord
  2
Standard
 70
     0
 40
0.0
 41
1.0
 50
0.0
 71
     0
 42
0.2
  3
txt
  4

  0
STYLE
  5
1BB
330
3
100
AcDbSymbolTableRecord
100
AcDbTextStyleTableRecord
  2
CONVERTER_11
 70
     0
 40
0.0
 41
0.89
 50
0.0
 71
     0
 42
0.2
  3
MS Mincho.ttf
  4

1001
ACAD
1000
MS Mincho
1071
    32785
  0
STYLE
  5
1FA
330
3
100
AcDbSymbolTableRecord
100
AcDbTextStyleTableRecord
  2
CONVERTER_12
 70
     0
 40
0.0
 41
0.9
 50
0.0
 71
     0
 42
0.2
  3
txt.shx
  4

  0
ENDTAB
  0
TABLE
  2
VIEW
  5
6
330
0
100
AcDbSymbolTable
 70
     0
  0
ENDTAB
  0
TABLE
  2
UCS
  5
7
330
0
100
AcDbSymbolTable
 70
     0
  0
ENDTAB
  0
TABLE
  2
APPID
  5
9
330
0
100
AcDbSymbolTable
 70
     1
  0
APPID
  5
12
330
9
100
AcDbSymbolTableRecord
100
AcDbRegAppTableRecord
  2
ACAD
 70
     0
  0
ENDTAB
  0
TABLE
  2
DIMSTYLE
  5
A
330
0
100
AcDbSymbolTable
 70
     4
100
AcDbDimStyleTable
  0
DIMSTYLE
105
27
330
A
100
AcDbSymbolTableRecord
100
AcDbDimStyleTableRecord
  2
Standard
 70
     0
178
     0
340
11
  0
DIMSTYLE
105
20A
102
{ACAD_REACTORS
330
20B
102
}
330
A
100
AcDbSymbolTableRecord
100
AcDbDimStyleTableRecord
  2
ME10_DIM_10
 70
     0
 41
5.25
 42
0.0
 44
1.5
 73
     0
 74
     0
 77
     1
 78
     8
140
5.25
147
1.5
172
     1
173
     1
174
     1
175
     1
176
     2
177
     2
271
     2
178
     7
271
     2
340
1FA
  0
DIMSTYLE
105
215
102
{ACAD_REACTORS
330
216
102
}
330
A
100
AcDbSymbolTableRecord
100
AcDbDimStyleTableRecord
  2
ME10_DIM_11
 70
     0
 41
5.25
 42
0.0
 44
1.5
 73
     0
 74
     0
 77
     1
 78
     8
140
5.25
147
1.5
172
     1
173
     1
174
     1
175
     1
176
     2
177
     2
271
     2
178
     7
271
     2
340
1BB
  0
DIMSTYLE
105
220
102
{ACAD_REACTORS
330
221
102
}
330
A
100
AcDbSymbolTableRecord
100
AcDbDimStyleTableRecord
  2
ME10_DIM_12
 70
     0
 41
5.25
 42
0.0
 44
1.5
 73
     0
 74
     0
 77
     1
 78
     8
140
5.25
147
1.5
172
     1
173
     1
174
     1
175
     1
176
     2
177
     2
271
     2
178
     7
271
     2
340
1FA
  0
ENDTAB
  0
TABLE
  2
BLOCK_RECORD
  5
1
330
0
100
AcDbSymbolTable
 70
    12
  0
BLOCK_RECORD
  5
1F
330
1
100
AcDbSymbolTableRecord
100
AcDbBlockTableRecord
  2
*Model_Space
340
22
  0
BLOCK_RECORD
  5
1B
330
1
100
AcDbSymbolTableRecord
100
AcDbBlockTableRecord
  2
*Paper_Space
340
1E
  0
BLOCK_RECORD
  5
23
330
1
100
AcDbSymbolTableRecord
100
AcDbBlockTableRecord
  2
*Paper_Space0
340
26
  0
BLOCK_RECORD
  5
47
330
1
100
AcDbSymbolTableRecord
100
AcDbBlockTableRecord
  2
91-1
340
0
102
{BLKREFS
331
57
102
}
  0
BLOCK_RECORD
  5
4A
330
1
100
AcDbSymbolTableRecord
100
AcDbBlockTableRecord
  2
42-1
340
0
102
{BLKREFS
331
58
102
}
  0
BLOCK_RECORD
  5
4D
330
1
100
AcDbSymbolTableRecord
100
AcDbBlockTableRecord
  2
37-1-13
340
0
102
{BLKREFS
331
59
102
}
  0
BLOCK_RECORD
  5
50
330
1
100
AcDbSymbolTableRecord
100
AcDbBlockTableRecord
  2
36-54-M11
340
0
102
{BLKREFS
331
5A
102
}
  0
BLOCK_RECORD
  5
53
330
1
100
AcDbSymbolTableRecord
100
AcDbBlockTableRecord
  2
21-1D-M1
340
0
102
{BLKREFS
331
5B
102
}
  0
BLOCK_RECORD
  5
56
330
1
100
AcDbSymbolTableRecord
100
AcDbBlockTableRecord
  2
R10AK-13-B
340
0
102
{BLKREFS
331
64
102
}
  0
BLOCK_RECORD
  5
5E
330
1
100
AcDbSymbolTableRecord
100
AcDbBlockTableRecord
  2
V20-0A-13-M11
340
0
102
{BLKREFS
331
65
102
}
  0
BLOCK_RECORD
  5
61
330
1
100
AcDbSymbolTableRecord
100
AcDbBlockTableRecord
  2
開示A4
340
0
102
{BLKREFS
331
66
102
}
  0
BLOCK_RECORD
  5
201
330
1
100
AcDbSymbolTableRecord
100
AcDbBlockTableRecord
  2
*D9
340
0
  0
BLOCK_RECORD
  5
20C
330
1
100
AcDbSymbolTableRecord
100
AcDbBlockTableRecord
  2
*D10
340
0
  0
BLOCK_RECORD
  5
217
330
1
100
AcDbSymbolTableRecord
100
AcDbBlockTableRecord
  2
*D11
340
0
  0
ENDTAB
  0
ENDSEC
  0
SECTION
  2
BLOCKS
  0
BLOCK
  5
20
330
1F
100
AcDbEntity
  8
0
100
AcDbBlockBegin
  2
*Model_Space
 70
     0
 10
0.0
 20
0.0
 30
0.0
  3
*Model_Space
  1

  0
ENDBLK
  5
21
330
1F
100
AcDbEntity
  8
0
100
AcDbBlockEnd
  0
BLOCK
  5
1C
330
1B
100
AcDbEntity
 67
     1
  8
0
100
AcDbBlockBegin
  2
*Paper_Space
 70
     0
 10
0.0
 20
0.0
 30
0.0
  3
*Paper_Space
  1

  0
ENDBLK
  5
1D
330
1B
100
AcDbEntity
 67
     1
  8
0
100
AcDbBlockEnd
  0
BLOCK
  5
24
330
23
100
AcDbEntity
  8
0
100
AcDbBlockBegin
  2
*Paper_Space0
 70
     0
 10
0.0
 20
0.0
 30
0.0
  3
*Paper_Space0
  1

  0
ENDBLK
  5
25
330
23
100
AcDbEntity
  8
0
100
AcDbBlockEnd
  0
BLOCK
  5
48
330
47
100
AcDbEntity
  8
0
100
AcDbBlockBegin
  2
91-1
 70
     0
 10
500.6019908200762
 20
-63.82366676874992
 30
0.0
  3
91-1
  1

  0
LINE
  5
67
330
47
100
AcDbEntity
  8
1
  6
Continuous
 62
     7
100
AcDbLine
 10
104.5085189853276
 20
180.7118832851017
 30
0.0
 11
96.2018951224098
 21
180.7118832851016
 31
0.0
  0
ENDBLK
  5
49
330
47
100
AcDbEntity
  8
0
100
AcDbBlockEnd
  0
BLOCK
  5
4B
330
4A
100
AcDbEntity
  8
0
100
AcDbBlockBegin
  2
42-1
 70
     0
 10
338.160645891137
 20
180.6893143061234
 30
0.0
  3
42-1
  1

  0
LINE
  5
68
330
4A
100
AcDbEntity
  8
1
  6
Continuous
 62
     7
100
AcDbLine
 10
227.8552070538688
 20
232.5416490053057
 30
0.0
 11
233.6052070538688
 21
232.5416490053057
 31
0.0
  0
LINE
  5
69
330
4A
100
AcDbEntity
  8
1
  6
Continuous
 62
     7
100
AcDbLine
 10
233.3552070538688
 20
232.2118832851019
 30
0.0
 11
233.8552070538688
 21
232.2118832851019
 31
0.0
  0
LINE
  5
6A
330
4A
100
AcDbEntity
  8
1
  6
Continuous
 62
     2
100
AcDbLine
 10
233.8552070538688
 20
229.2118832851019
 30
0.0
 11
233.8552070538688
 21
232.2118832851019
 31
0.0
  0
LINE
  5
6B
330
4A
100
AcDbEntity
  8
1
  6
Continuous
 62
     7
100
AcDbLine
 10
234.3552070538688
 20
232.2118832851019
 30
0.0
 11
234.8552070538688
 21
232.2118832851019
 31
0.0
  0
LINE
  5
6C
330
4A
100
AcDbEntity
  8
1
  6
Continuous
 62
     7
100
AcDbLine
 10
233.8552070538689
 20
232.481205484125
 30
0.0
 11
234.8552070538688
 21
232.2118832851019
 31
0.0
  0
LINE
  5
6D
330
4A
100
AcDbEntity
  8
1
  6
Continuous
 62
     7
100
AcDbLine
 10
234.8552070538688
 20
232.2118832851019
 30
0.0
 11
234.8552070538688
 21
229.2118832851019
 31
0.0
  0
LINE
  5
6E
330
4A
100
AcDbEntity
  8
1
  6
Continuous
 62
     2
100
AcDbLine
 10
234.3552070538688
 20
229.2118832851019
 30
0.0
 11
234.3552070538688
 21
232.2118832851019
 31
0.0
  0
LINE
  5
6F
330
4A
100
AcDbEntity
  8
1
  6
Continuous
 62
     7
100
AcDbLine
 10
233.8552070538688
 20
232.2118832851019
 30
0.0
 11
234.3552070538688
 21
232.2118832851019
 31
0.0
  0
LINE
  5
70
330
4A
100
AcDbEntity
  8
1
  6
Continuous
 62
     2
100
AcDbLine
 10
233.3552070538688
 20
229.2118832851019
 30
0.0
 11
233.3552070538688
 21
232.2118832851019
 31
0.0
  0
LINE
  5
71
330
4A
100
AcDbEntity
  8
1
  6
Continuous
 62
     7
100
AcDbLine
 10
232.8552070538688
 20
232.2118832851019
 30
0.0
 11
233.3552070538688
 21
232.2118832851019
 31
0.0
  0
LINE
  5
72
330
4A
100
AcDbEntity
  8
1
  6
Continuous
 62
     7
100
AcDbLine
 10
222.1052070538688
 20
232.5416490053057
 30
0.0
 11
227.8552070538688
 21
232.5416490053057
 31
0.0
  0
LINE
  5
73
330
4A
100
AcDbEntity
  8
1
  6
Continuous
 62
     2
100
AcDbLine
 10
226.8552070538688
 20
231.4542213872732
 30
0.0
 11
226.8552070538688
 21
230.1889822966626
 31
0.0
  0
LINE
  5
74
330
4A
100
AcDbEntity
  8
1
  6
Continuous
 62
     2
100
AcDbLine
 10
225.8552070538688
 20
231.6975365970059
 30
0.0
 11
225.8552070538688
 21
229.9294460729477
 31
0.0
  0
LINE
  5
75
330
4A
100
AcDbEntity
  8
1
  6
Continuous
 62
     7
100
AcDbLine
 10
221.8552070538688
 20
232.2118832851019
 30
0.0
 11
222.3552070538688
 21
232.2118832851019
 31
0.0
  0
LINE
  5
76
330
4A
100
AcDbEntity
  8
1
  6
Continuous
 62
     7
100
AcDbLine
 10
220.8552070538688
 20
232.2118832851019
 30
0.0
 11
221.3552070538688
 21
232.2118832851019
 31
0.0
  0
LINE
  5
77
330
4A
100
AcDbEntity
  8
1
  6
Continuous
 62
     7
100
AcDbLine
 10
220.8552070538688
 20
232.2118832851019
 30
0.0
 11
221.8552070538687
 21
232.481205484125
 31
0.0
  0
LINE
  5
78
330
4A
100
AcDbEntity
  8
1
  6
Continuous
 62
     7
100
AcDbLine
 10
221.3552070538688
 20
232.2118832851019
 30
0.0
 11
221.8552070538688
 21
232.2118832851019
 31
0.0
  0
LINE
  5
79
330
4A
100
AcDbEntity
  8
1
  6
Continuous
 62
     7
100
AcDbLine
 10
222.3552070538688
 20
232.2118832851019
 30
0.0
 11
222.8552070538688
 21
232.2118832851019
 31
0.0
  0
LINE
  5
7A
330
4A
100
AcDbEntity
  8
1
  6
Continuous
 62
     2
100
AcDbLine
 10
225.3552070538688
 20
231.7434264123879
 30
0.0
 11
225.3552070538688
 21
229.8254324757792
 31
0.0
  0
LINE
  5
7B
330
4A
100
AcDbEntity
  8
1
  6
Continuous
 62
     2
100
AcDbLine
 10
226.3552070538688
 20
231.4982034433238
 30
0.0
 11
226.3552070538688
 21
230.1494771134711
 31
0.0
  0
LINE
  5
7C
330
4A
100
AcDbEntity
  8
1
  6
Continuous
 62
     7
100
AcDbLine
 10
222.8552070538688
 20
232.2118832851019
 30
0.0
 11
232.8552070538688
 21
232.2118832851019
 31
0.0
  0
LINE
  5
7D
330
4A
100
AcDbEntity
  8
1
  6
Continuous
 62
     2
100
AcDbLine
 10
228.8552070538688
 20
230.1889822966626
 30
0.0
 11
228.8552070538688
 21
231.4542213872732
 31
0.0
  0
LINE
  5
7E
330
4A
100
AcDbEntity
  8
1
  6
Continuous
 62
     2
100
AcDbLine
 10
229.8552070538688
 20
229.9294460729477
 30
0.0
 11
229.8552070538688
 21
231.6975365970059
 31
0.0
  0
LINE
  5
7F
330
4A
100
AcDbEntity
  8
1
  6
Continuous
 62
     2
100
AcDbLine
 10
230.3552070538688
 20
229.8254324757792
 30
0.0
 11
230.3552070538688
 21
231.7434264123879
 31
0.0
  0
LINE
  5
80
330
4A
100
AcDbEntity
  8
1
  6
Continuous
 62
     2
100
AcDbLine
 10
229.3552070538688
 20
230.1494771134711
 30
0.0
 11
229.3552070538688
 21
231.4982034433238
 31
0.0
  0
LINE
  5
81
330
4A
100
AcDbEntity
  8
1
  6
Continuous
 62
     2
100
AcDbLine
 10
230.8552070538688
 20
229.5725837653396
 30
0.0
 11
230.8552070538688
 21
231.9084097787743
 31
0.0
  0
LINE
  5
82
330
4A
100
AcDbEntity
  8
1
  6
Continuous
 62
     2
100
AcDbLine
 10
231.3552070538688
 20
229.4663559853639
 30
0.0
 11
231.3552070538688
 21
231.9361016023668
 31
0.0
  0
LINE
  5
83
330
4A
100
AcDbEntity
  8
1
  6
Continuous
 62
     2
100
AcDbLine
 10
231.8552070538688
 20
229.3779315975534
 30
0.0
 11
231.8552070538688
 21
232.0219568766495
 31
0.0
  0
LINE
  5
84
330
4A
100
AcDbEntity
  8
1
  6
Continuous
 62
     2
100
AcDbLine
 10
232.3552070538688
 20
229.3174706112893
 30
0.0
 11
232.3552070538688
 21
232.0674710500796
 31
0.0
  0
LINE
  5
85
330
4A
100
AcDbEntity
  8
1
  6
Continuous
 62
     2
100
AcDbLine
 10
232.8552070538688
 20
229.2118832851019
 30
0.0
 11
232.8552070538688
 21
232.2118832851019
 31
0.0
  0
LINE
  5
86
330
4A
100
AcDbEntity
  8
1
  6
Continuous
 62
     7
100
AcDbLine
 10
234.8552070538688
 20
229.2118832851019
 30
0.0
 11
220.8552070538688
 21
229.2118832851019
 31
0.0
  0
LINE
  5
87
330
4A
100
AcDbEntity
  8
1
  6
Continuous
 62
     2
100
AcDbLine
 10
224.8552070538688
 20
231.9084097787743
 30
0.0
 11
224.8552070538688
 21
229.5725837653396
 31
0.0
  0
LINE
  5
88
330
4A
100
AcDbEntity
  8
1
  6
Continuous
 62
     2
100
AcDbLine
 10
224.3552070538688
 20
231.9361016023668
 30
0.0
 11
224.3552070538688
 21
229.4663559853639
 31
0.0
  0
LINE
  5
89
330
4A
100
AcDbEntity
  8
1
  6
Continuous
 62
     2
100
AcDbLine
 10
223.8552070538688
 20
232.0219568766495
 30
0.0
 11
223.8552070538688
 21
229.3779315975534
 31
0.0
  0
LINE
  5
8A
330
4A
100
AcDbEntity
  8
1
  6
Continuous
 62
     2
100
AcDbLine
 10
223.3552070538688
 20
232.0674710500796
 30
0.0
 11
223.3552070538688
 21
229.3174706112893
 31
0.0
  0
LINE
  5
8B
330
4A
100
AcDbEntity
  8
1
  6
Continuous
 62
     2
100
AcDbLine
 10
222.8552070538688
 20
232.2118832851019
 30
0.0
 11
222.8552070538688
 21
229.2118832851019
 31
0.0
  0
LINE
  5
8C
330
4A
100
AcDbEntity
  8
1
  6
Continuous
 62
     2
100
AcDbLine
 10
222.3552070538688
 20
232.2118832851019
 30
0.0
 11
222.3552070538688
 21
229.2118832851019
 31
0.0
  0
LINE
  5
8D
330
4A
100
AcDbEntity
  8
1
  6
Continuous
 62
     2
100
AcDbLine
 10
221.8552070538688
 20
232.2118832851019
 30
0.0
 11
221.8552070538688
 21
229.2118832851019
 31
0.0
  0
LINE
  5
8E
330
4A
100
AcDbEntity
  8
1
  6
Continuous
 62
     2
100
AcDbLine
 10
221.3552070538688
 20
232.2118832851019
 30
0.0
 11
221.3552070538688
 21
229.2118832851019
 31
0.0
  0
LINE
  5
8F
330
4A
100
AcDbEntity
  8
1
  6
Continuous
 62
     7
100
AcDbLine
 10
220.8552070538688
 20
229.2118832851019
 30
0.0
 11
220.8552070538688
 21
232.2118832851019
 31
0.0
  0
LINE
  5
90
330
4A
100
AcDbEntity
  8
1
  6
Continuous
 62
     7
100
AcDbLine
 10
100.3552070538688
 20
232.5416490053053
 30
0.0
 11
106.1052070538687
 21
232.5416490053053
 31
0.0
  0
LINE
  5
91
330
4A
100
AcDbEntity
  8
1
  6
Continuous
 62
     7
100
AcDbLine
 10
105.8552070538687
 20
232.2118832851015
 30
0.0
 11
106.3552070538687
 21
232.2118832851015
 31
0.0
  0
LINE
  5
92
330
4A
100
AcDbEntity
  8
1
  6
Continuous
 62
     2
100
AcDbLine
 10
106.3552070538687
 20
229.2118832851015
 30
0.0
 11
106.3552070538687
 21
232.2118832851015
 31
0.0
  0
LINE
  5
93
330
4A
100
AcDbEntity
  8
1
  6
Continuous
 62
     7
100
AcDbLine
 10
106.8552070538687
 20
232.2118832851015
 30
0.0
 11
107.3552070538687
 21
232.2118832851015
 31
0.0
  0
LINE
  5
94
330
4A
100
AcDbEntity
  8
1
  6
Continuous
 62
     7
100
AcDbLine
 10
106.3552070538689
 20
232.4812054841247
 30
0.0
 11
107.3552070538687
 21
232.2118832851015
 31
0.0
  0
LINE
  5
95
330
4A
100
AcDbEntity
  8
1
  6
Continuous
 62
     7
100
AcDbLine
 10
107.3552070538687
 20
232.2118832851015
 30
0.0
 11
107.3552070538687
 21
229.2118832851015
 31
0.0
  0
LINE
  5
96
330
4A
100
AcDbEntity
  8
1
  6
Continuous
 62
     2
100
AcDbLine
 10
106.8552070538687
 20
229.2118832851015
 30
0.0
 11
106.8552070538687
 21
232.2118832851015
 31
0.0
  0
LINE
  5
97
330
4A
100
AcDbEntity
  8
1
  6
Continuous
 62
     7
100
AcDbLine
 10
106.3552070538687
 20
232.2118832851015
 30
0.0
 11
106.8552070538687
 21
232.2118832851015
 31
0.0
  0
LINE
  5
98
330
4A
100
AcDbEntity
  8
1
  6
Continuous
 62
     2
100
AcDbLine
 10
105.8552070538687
 20
229.2118832851015
 30
0.0
 11
105.8552070538687
 21
232.2118832851015
 31
0.0
  0
LINE
  5
99
330
4A
100
AcDbEntity
  8
1
  6
Continuous
 62
     7
100
AcDbLine
 10
105.3552070538687
 20
232.2118832851015
 30
0.0
 11
105.8552070538687
 21
232.2118832851015
 31
0.0
  0
LINE
  5
9A
330
4A
100
AcDbEntity
  8
1
  6
Continuous
 62
     7
100
AcDbLine
 10
94.60520705386884
 20
232.5416490053053
 30
0.0
 11
100.3552070538688
 21
232.5416490053053
 31
0.0
  0
LINE
  5
9B
330
4A
100
AcDbEntity
  8
1
  6
Continuous
 62
     2
100
AcDbLine
 10
99.35520705386884
 20
231.4542213872728
 30
0.0
 11
99.35520705386884
 21
230.1889822966623
 31
0.0
  0
LINE
  5
9C
330
4A
100
AcDbEntity
  8
1
  6
Continuous
 62
     2
100
AcDbLine
 10
98.35520705386884
 20
231.6975365970055
 30
0.0
 11
98.35520705386884
 21
229.9294460729474
 31
0.0
  0
LINE
  5
9D
330
4A
100
AcDbEntity
  8
1
  6
Continuous
 62
     7
100
AcDbLine
 10
94.35520705386884
 20
232.2118832851015
 30
0.0
 11
94.85520705386884
 21
232.2118832851015
 31
0.0
  0
LINE
  5
9E
330
4A
100
AcDbEntity
  8
1
  6
Continuous
 62
     7
100
AcDbLine
 10
93.35520705386884
 20
232.2118832851015
 30
0.0
 11
93.85520705386884
 21
232.2118832851015
 31
0.0
  0
LINE
  5
9F
330
4A
100
AcDbEntity
  8
1
  6
Continuous
 62
     7
100
AcDbLine
 10
93.35520705386884
 20
232.2118832851015
 30
0.0
 11
94.35520705386872
 21
232.4812054841247
 31
0.0
  0
LINE
  5
A0
330
4A
100
AcDbEntity
  8
1
  6
Continuous
 62
     7
100
AcDbLine
 10
93.85520705386884
 20
232.2118832851015
 30
0.0
 11
94.35520705386884
 21
232.2118832851015
 31
0.0
  0
LINE
  5
A1
330
4A
100
AcDbEntity
  8
1
  6
Continuous
 62
     7
100
AcDbLine
 10
94.85520705386884
 20
232.2118832851015
 30
0.0
 11
95.35520705386884
 21
232.2118832851015
 31
0.0
  0
LINE
  5
A2
330
4A
100
AcDbEntity
  8
1
  6
Continuous
 62
     2
100
AcDbLine
 10
97.85520705386884
 20
231.7434264123875
 30
0.0
 11
97.85520705386884
 21
229.8254324757789
 31
0.0
  0
LINE
  5
A3
330
4A
100
AcDbEntity
  8
1
  6
Continuous
 62
     2
100
AcDbLine
 10
98.85520705386884
 20
231.4982034433234
 30
0.0
 11
98.85520705386884
 21
230.1494771134708
 31
0.0
  0
LINE
  5
A4
330
4A
100
AcDbEntity
  8
1
  6
Continuous
 62
     7
100
AcDbLine
 10
95.35520705386884
 20
232.2118832851015
 30
0.0
 11
105.3552070538687
 21
232.2118832851015
 31
0.0
  0
LINE
  5
A5
330
4A
100
AcDbEntity
  8
1
  6
Continuous
 62
     2
100
AcDbLine
 10
101.3552070538687
 20
230.1889822966623
 30
0.0
 11
101.3552070538687
 21
231.4542213872728
 31
0.0
  0
LINE
  5
A6
330
4A
100
AcDbEntity
  8
1
  6
Continuous
 62
     2
100
AcDbLine
 10
102.3552070538687
 20
229.9294460729474
 30
0.0
 11
102.3552070538687
 21
231.6975365970055
 31
0.0
  0
LINE
  5
A7
330
4A
100
AcDbEntity
  8
1
  6
Continuous
 62
     2
100
AcDbLine
 10
102.8552070538688
 20
229.8254324757789
 30
0.0
 11
102.8552070538687
 21
231.7434264123875
 31
0.0
  0
LINE
  5
A8
330
4A
100
AcDbEntity
  8
1
  6
Continuous
 62
     2
100
AcDbLine
 10
101.8552070538687
 20
230.1494771134708
 30
0.0
 11
101.8552070538687
 21
231.4982034433234
 31
0.0
  0
LINE
  5
A9
330
4A
100
AcDbEntity
  8
1
  6
Continuous
 62
     2
100
AcDbLine
 10
103.3552070538687
 20
229.5725837653393
 30
0.0
 11
103.3552070538687
 21
231.908409778774
 31
0.0
  0
LINE
  5
AA
330
4A
100
AcDbEntity
  8
1
  6
Continuous
 62
     2
100
AcDbLine
 10
103.8552070538687
 20
229.4663559853636
 30
0.0
 11
103.8552070538687
 21
231.9361016023664
 31
0.0
  0
LINE
  5
AB
330
4A
100
AcDbEntity
  8
1
  6
Continuous
 62
     2
100
AcDbLine
 10
104.3552070538687
 20
229.3779315975531
 30
0.0
 11
104.3552070538687
 21
232.0219568766492
 31
0.0
  0
LINE
  5
AC
330
4A
100
AcDbEntity
  8
1
  6
Continuous
 62
     2
100
AcDbLine
 10
104.8552070538687
 20
229.317470611289
 30
0.0
 11
104.8552070538687
 21
232.0674710500793
 31
0.0
  0
LINE
  5
AD
330
4A
100
AcDbEntity
  8
1
  6
Continuous
 62
     2
100
AcDbLine
 10
105.3552070538687
 20
229.2118832851015
 30
0.0
 11
105.3552070538687
 21
232.2118832851015
 31
0.0
  0
LINE
  5
AE
330
4A
100
AcDbEntity
  8
1
  6
Continuous
 62
     7
100
AcDbLine
 10
107.3552070538687
 20
229.2118832851015
 30
0.0
 11
102.6552070538687
 21
229.2118832851015
 31
0.0
  0
LINE
  5
AF
330
4A
100
AcDbEntity
  8
1
  6
Continuous
 62
     7
100
AcDbLine
 10
98.05520705386883
 20
229.2118832851015
 30
0.0
 11
102.6552070538687
 21
229.2118832851015
 31
0.0
  0
LINE
  5
B0
330
4A
100
AcDbEntity
  8
1
  6
Continuous
 62
     7
100
AcDbLine
 10
98.05520705386883
 20
229.2118832851015
 30
0.0
 11
93.35520705386884
 21
229.2118832851015
 31
0.0
  0
LINE
  5
B1
330
4A
100
AcDbEntity
  8
1
  6
Continuous
 62
     2
100
AcDbLine
 10
97.35520705386884
 20
231.908409778774
 30
0.0
 11
97.35520705386884
 21
229.5725837653393
 31
0.0
  0
LINE
  5
B2
330
4A
100
AcDbEntity
  8
1
  6
Continuous
 62
     2
100
AcDbLine
 10
96.85520705386884
 20
231.9361016023664
 30
0.0
 11
96.85520705386884
 21
229.4663559853636
 31
0.0
  0
LINE
  5
B3
330
4A
100
AcDbEntity
  8
1
  6
Continuous
 62
     2
100
AcDbLine
 10
96.35520705386884
 20
232.0219568766492
 30
0.0
 11
96.35520705386884
 21
229.3779315975531
 31
0.0
  0
LINE
  5
B4
330
4A
100
AcDbEntity
  8
1
  6
Continuous
 62
     2
100
AcDbLine
 10
95.85520705386884
 20
232.0674710500793
 30
0.0
 11
95.85520705386884
 21
229.317470611289
 31
0.0
  0
LINE
  5
B5
330
4A
100
AcDbEntity
  8
1
  6
Continuous
 62
     2
100
AcDbLine
 10
95.35520705386884
 20
232.2118832851015
 30
0.0
 11
95.35520705386884
 21
229.2118832851015
 31
0.0
  0
LINE
  5
B6
330
4A
100
AcDbEntity
  8
1
  6
Continuous
 62
     2
100
AcDbLine
 10
94.85520705386884
 20
232.2118832851015
 30
0.0
 11
94.85520705386884
 21
229.2118832851015
 31
0.0
  0
LINE
  5
B7
330
4A
100
AcDbEntity
  8
1
  6
Continuous
 62
     2
100
AcDbLine
 10
94.35520705386884
 20
232.2118832851015
 30
0.0
 11
94.35520705386884
 21
229.2118832851015
 31
0.0
  0
LINE
  5
B8
330
4A
100
AcDbEntity
  8
1
  6
Continuous
 62
     2
100
AcDbLine
 10
93.85520705386884
 20
232.2118832851015
 30
0.0
 11
93.85520705386884
 21
229.2118832851015
 31
0.0
  0
LINE
  5
B9
330
4A
100
AcDbEntity
  8
1
  6
Continuous
 62
     7
100
AcDbLine
 10
93.35520705386884
 20
229.2118832851015
 30
0.0
 11
93.35520705386884
 21
232.2118832851015
 31
0.0
  0
ARC
  5
BA
330
4A
100
AcDbEntity
  8
1
  6
Continuous
 62
     7
100
AcDbCircle
 10
227.8552070538688
 20
208.2118832851018
 30
0.0
 40
25.00000000000016
100
AcDbArc
 50
76.70292825279104
 51
90.0
  0
ARC
  5
BB
330
4A
100
AcDbEntity
  8
1
  6
Continuous
 62
     7
100
AcDbCircle
 10
227.8552070538688
 20
208.2118832851018
 30
0.0
 40
25.00000000000009
100
AcDbArc
 50
90.0
 51
103.297071747209
  0
ARC
  5
BC
330
4A
100
AcDbEntity
  8
1
  6
Continuous
 62
     7
100
AcDbCircle
 10
227.8552070538688
 20
208.2118832851018
 30
0.0
 40
25.00000000000004
100
AcDbArc
 50
76.11345963737082
 51
76.70292825279104
  0
ARC
  5
BD
330
4A
100
AcDbEntity
  8
1
  6
Continuous
 62
     7
100
AcDbCircle
 10
227.8552070538688
 20
208.2118832851018
 30
0.0
 40
25.00000000000016
100
AcDbArc
 50
103.297071747209
 51
103.8865403626292
  0
ARC
  5
BE
330
4A
100
AcDbEntity
  8
1
  6
Continuous
 62
     7
100
AcDbCircle
 10
100.3552070538688
 20
208.2118832851015
 30
0.0
 40
25.00000000000005
100
AcDbArc
 50
76.70292825279121
 51
90.0
  0
ARC
  5
BF
330
4A
100
AcDbEntity
  8
1
  6
Continuous
 62
     7
100
AcDbCircle
 10
100.3552070538688
 20
208.2118832851015
 30
0.0
 40
25.0
100
AcDbArc
 50
90.0
 51
103.2970717472089
  0
ARC
  5
C0
330
4A
100
AcDbEntity
  8
1
  6
Continuous
 62
     7
100
AcDbCircle
 10
100.3552070538688
 20
208.2118832851015
 30
0.0
 40
25.00000000000004
100
AcDbArc
 50
76.11345963737081
 51
76.70292825279121
  0
ARC
  5
C1
330
4A
100
AcDbEntity
  8
1
  6
Continuous
 62
     7
100
AcDbCircle
 10
100.3552070538688
 20
208.2118832851015
 30
0.0
 40
25.00000000000007
100
AcDbArc
 50
103.2970717472089
 51
103.8865403626291
  0
CIRCLE
  5
C2
330
4A
100
AcDbEntity
  8
1
  6
Continuous
 62
     7
100
AcDbCircle
 10
100.3552070538685
 20
295.7118832851015
 30
0.0
 40
5.749999999999901
  0
CIRCLE
  5
C3
330
4A
100
AcDbEntity
  8
1
  6
Continuous
 62
     7
100
AcDbCircle
 10
100.3552070538685
 20
295.7118832851015
 30
0.0
 40
6.999999999999901
  0
ENDBLK
  5
4C
330
4A
100
AcDbEntity
  8
0
100
AcDbBlockEnd
  0
BLOCK
  5
4E
330
4D
100
AcDbEntity
  8
0
100
AcDbBlockBegin
  2
37-1-13
 70
     0
 10
421.2237197993121
 20
173.7979241782513
 30
0.0
  3
37-1-13
  1

  0
LINE
  5
C4
330
4D
100
AcDbEntity
  8
1
  6
Continuous
 62
     7
100
AcDbLine
 10
87.35520705386884
 20
201.1415745732865
 30
0.0
 11
87.35520705386884
 21
208.212288787558
 31
0.0
  0
LINE
  5
C5
330
4D
100
AcDbEntity
  8
1
  6
Continuous
 62
     7
100
AcDbLine
 10
113.3552070538688
 20
208.212288787558
 30
0.0
 11
113.3552070538688
 21
201.1415745732865
 31
0.0
  0
LINE
  5
C6
330
4D
100
AcDbEntity
  8
1
  6
Continuous
 62
     7
100
AcDbLine
 10
113.3552070538688
 20
201.1415745732865
 30
0.0
 11
87.35520705386884
 21
201.1415745732865
 31
0.0
  0
LINE
  5
C7
330
4D
100
AcDbEntity
  8
1
  6
Continuous
 62
     7
100
AcDbLine
 10
94.35520705386884
 20
215.1415745732865
 30
0.0
 11
106.3552070538688
 21
215.1415745732865
 31
0.0
  0
LINE
  5
C8
330
4D
100
AcDbEntity
  8
1
  6
Continuous
 62
     7
100
AcDbLine
 10
214.7844928395974
 20
201.1415745732865
 30
0.0
 11
240.9259212681403
 21
201.1415745732865
 31
0.0
  0
LINE
  5
C9
330
4D
100
AcDbEntity
  8
1
  6
Continuous
 62
     7
100
AcDbLine
 10
233.8552070538688
 20
215.1415745732865
 30
0.0
 11
221.8552070538689
 21
215.1415745732865
 31
0.0
  0
ARC
  5
CA
330
4D
100
AcDbEntity
  8
1
  6
Continuous
 62
     7
100
AcDbCircle
 10
90.85520705386884
 20
204.6415745732865
 30
0.0
 40
5.0
100
AcDbArc
 50
126.8698976458424
 51
134.4270040008051
  0
ARC
  5
CB
330
4D
100
AcDbEntity
  8
1
  6
Continuous
 62
     7
100
AcDbCircle
 10
74.44875184875394
 20
228.5480297784014
 30
0.0
 40
23.99999999999995
100
AcDbArc
 50
303.9591925000979
 51
326.0408074999025
  0
ARC
  5
CC
330
4D
100
AcDbEntity
  8
1
  6
Continuous
 62
     7
100
AcDbCircle
 10
109.8552070538688
 20
204.6415745732865
 30
0.0
 40
5.000000000000057
100
AcDbArc
 50
45.57299599919494
 51
53.13010235415749
  0
ARC
  5
CD
330
4D
100
AcDbEntity
  8
1
  6
Continuous
 62
     7
100
AcDbCircle
 10
126.2616622589836
 20
228.5480297784014
 30
0.0
 40
23.99999999999989
100
AcDbArc
 50
213.9591925000976
 51
236.0408074999024
  0
ARC
  5
CE
330
4D
100
AcDbEntity
  8
1
  6
Continuous
 62
     7
100
AcDbCircle
 10
201.948751848754
 20
228.5480297784014
 30
0.0
 40
24.00000000000002
100
AcDbArc
 50
303.9591925000977
 51
326.0408074999025
  0
ARC
  5
CF
330
4D
100
AcDbEntity
  8
1
  6
Continuous
 62
     7
100
AcDbCircle
 10
218.3552070538689
 20
204.6415745732865
 30
0.0
 40
4.999999999999932
100
AcDbArc
 50
126.869897645843
 51
224.4270040008051
  0
ARC
  5
D0
330
4D
100
AcDbEntity
  8
1
  6
Continuous
 62
     7
100
AcDbCircle
 10
237.3552070538688
 20
204.6415745732865
 30
0.0
 40
5.000000000000057
100
AcDbArc
 50
315.572995999195
 51
53.13010235415702
  0
ARC
  5
D1
330
4D
100
AcDbEntity
  8
1
  6
Continuous
 62
     7
100
AcDbCircle
 10
253.7616622589837
 20
228.5480297784013
 30
0.0
 40
23.9999999999999
100
AcDbArc
 50
213.9591925000972
 51
236.0408074999021
  0
SPLINE
  5
D2
330
4D
100
AcDbEntity
  8
1
  6
Continuous
 62
     7
100
AcDbSpline
210
0.0
220
0.0
230
1.0
 70
    11
 71
     3
 72
    79
 73
    75
 74
    73
 42
0.000000001
 43
0.0000000001
 44
0.00000001
 40
0.0
 40
0.0
 40
0.0
 40
0.0
 40
0.2813091295367095
 40
0.562601952858322
 40
0.8464226451893326
 40
1.130214053669853
 40
1.41783570436795
 40
1.70542053563638
 40
1.997635971559904
 40
2.289812847778942
 40
2.586839028646923
 40
2.883829785627947
 40
3.185307038912499
 40
3.486755454942024
 40
3.791812973649356
 40
4.096850359215506
 40
4.404220792930932
 40
4.71158092526944
 40
5.019747225769644
 40
5.327913526259658
 40
5.635273658567439
 40
5.942644092231305
 40
6.247681477724893
 40
6.552738996337344
 40
6.854187412249871
 40
7.155664665392689
 40
7.452655422208045
 40
7.749681602882147
 40
8.04185847887975
 40
8.334073914546849
 40
8.621658745520817
 40
8.909280395868599
 40
9.193071803910687
 40
9.476892495599847
 40
9.758185317503685
 40
10.03949445584105
 40
10.31992039306077
 40
10.60034633027943
 40
10.88165546861355
 40
11.16294829051202
 40
11.44676898219377
 40
11.73056039022655
 40
12.01818204056308
 40
12.30576687152429
 40
12.59798230717692
 40
12.89015918315875
 40
13.18718536381578
 40
13.48417612061306
 40
13.78565337373669
 40
14.08710178962939
 40
14.39215930822115
 40
14.69719669369349
 40
15.0045671273354
 40
15.31192725962079
 40
15.62009356008787
 40
15.92825986056484
 40
16.23561999287973
 40
16.54299042657113
 40
16.8480278121129
 40
17.1530853307954
 40
17.45453374679959
 40
17.75601100005792
 40
18.05300175701173
 40
18.35002793785071
 40
18.64220481403791
 40
18.93442024992417
 40
19.22200508114564
 40
19.50962673177625
 40
19.79341814013943
 40
20.077238832204
 40
20.35853165457083
 40
20.63984079357041
 40
20.92026673223048
 40
21.20069266066649
 40
21.20069266066649
 40
21.20069266066649
 40
21.20069266066649
 10
216.8767518821074
 20
208.1987668025299
 30
0.0
 10
216.9698788301489
 20
208.1871953994132
 30
0.0
 10
217.1561273287856
 20
208.1640532693053
 30
0.0
 10
217.4304289120105
 20
208.0952911305759
 30
0.0
 10
217.6981728413799
 20
208.0027230041981
 30
0.0
 10
217.9577854778378
 20
207.8838706685978
 30
0.0
 10
218.2065025750759
 20
207.7412087531521
 30
0.0
 10
218.4433464907241
 20
207.5746658523681
 30
0.0
 10
218.6655619102791
 20
207.3867081331708
 30
0.0
 10
218.8724249625041
 20
207.1775459214747
 30
0.0
 10
219.0614836975826
 20
206.9500933450899
 30
0.0
 10
219.2321236424425
 20
206.7047477608256
 30
0.0
 10
219.3823873714985
 20
206.4447192025663
 30
0.0
 10
219.5116947238104
 20
206.1706964565839
 30
0.0
 10
219.6186855259383
 20
205.8859487712691
 30
0.0
 10
219.7028178652914
 20
205.5915859217834
 30
0.0
 10
219.7633368496705
 20
205.2906954418736
 30
0.0
 10
219.7998179878381
 20
204.9849091199707
 30
0.0
 10
219.8120367695429
 20
204.6769316900346
 30
0.0
 10
219.7998179881817
 20
204.3689542600893
 30
0.0
 10
219.7633368503576
 20
204.0631679381937
 30
0.0
 10
219.7028178663317
 20
203.7622774582033
 30
0.0
 10
219.6186855273077
 20
203.4679146089276
 30
0.0
 10
219.5116947256199
 20
203.1831669227108
 30
0.0
 10
219.382387373362
 20
202.9091441798957
 30
0.0
 10
219.2321236458239
 20
202.6491156097008
 30
0.0
 10
219.0614836971259
 20
202.403770069099
 30
0.0
 10
218.8724249780591
 20
202.1763173308382
 30
0.0
 10
218.6655618688628
 20
201.967155713504
 30
0.0
 10
218.4433466620514
 20
201.7791957947288
 30
0.0
 10
218.2065019664599
 20
201.6126609784837
 30
0.0
 10
217.9577877599836
 20
201.4699691212724
 30
0.0
 10
217.6981644742045
 20
201.351227114116
 30
0.0
 10
217.4304600667723
 20
201.2582495689844
 30
0.0
 10
217.1560122336286
 20
201.1910024911751
 30
0.0
 10
216.8774734111713
 20
201.1506871450746
 30
0.0
 10
216.5966521463517
 20
201.1370254660918
 30
0.0
 10
216.3158308815321
 20
201.1506871450507
 30
0.0
 10
216.0372920590744
 20
201.1910024911273
 30
0.0
 10
215.7628442259306
 20
201.2582495689129
 30
0.0
 10
215.4951398184979
 20
201.3512271140207
 30
0.0
 10
215.2355165327181
 20
201.4699691211534
 30
0.0
 10
214.9868023262412
 20
201.6126609783412
 30
0.0
 10
214.7499576306491
 20
201.7791957945634
 30
0.0
 10
214.5277424238369
 20
201.9671557133155
 30
0.0
 10
214.3208793146399
 20
202.1763173306267
 30
0.0
 10
214.1318205955722
 20
202.4037700688647
 30
0.0
 10
213.9611806468731
 20
202.649115609444
 30
0.0
 10
213.8109169193341
 20
202.9091441796161
 30
0.0
 10
213.6816095670753
 20
203.183166922409
 30
0.0
 10
213.5746187653865
 20
203.4679146086034
 30
0.0
 10
213.4904864263614
 20
203.7622774578567
 30
0.0
 10
213.4299674423342
 20
204.0631679378245
 30
0.0
 10
213.3934863045083
 20
204.3689542596975
 30
0.0
 10
213.3812675231457
 20
204.6769316896188
 30
0.0
 10
213.3934863048479
 20
204.9849091195359
 30
0.0
 10
213.4299674430145
 20
205.2906954413995
 30
0.0
 10
213.4904864273839
 20
205.5915859213444
 30
0.0
 10
213.5746187667567
 20
205.8859487705883
 30
0.0
 10
213.6816095687891
 20
206.170696456686
 30
0.0
 10
213.8109169214255
 20
206.4447191996654
 30
0.0
 10
213.9611806492428
 20
206.7047477689327
 30
0.0
 10
214.1318205986132
 20
206.9500933125822
 30
0.0
 10
214.320879316936
 20
207.1775460391462
 30
0.0
 10
214.5277424306321
 20
207.3867076989798
 30
0.0
 10
214.7499576226194
 20
207.5746674599627
 30
0.0
 10
214.9868023745636
 20
207.7412028555928
 30
0.0
 10
215.2355163742835
 20
207.8838925663324
 30
0.0
 10
215.4951404239397
 20
208.0026424819692
 30
0.0
 10
215.7628419988883
 20
208.0955906785311
 30
0.0
 10
216.037300316155
 20
208.1629463601789
 30
0.0
 10
216.3158001263199
 20
208.2028575473643
 30
0.0
 10
216.5967665598492
 20
208.2180231243624
 30
0.0
 10
216.7834234423745
 20
208.2051855745762
 30
0.0
 10
216.8767518821075
 20
208.1987668025299
 30
0.0
 11
216.8767518821074
 21
208.1987668025299
 31
0.0
 11
217.155151389461
 21
208.15841155839
 31
0.0
 11
217.4283954143337
 21
208.0916032158311
 31
0.0
 11
217.6965015404984
 21
207.998472714642
 31
0.0
 11
217.954647558596
 21
207.8805821012654
 31
0.0
 11
218.2041402369441
 21
207.7374750878085
 31
0.0
 11
218.4394856440439
 21
207.572194797215
 31
0.0
 11
218.6626278370589
 21
207.3835220047121
 31
0.0
 11
218.8681927621441
 21
207.1758915914097
 31
0.0
 11
219.0581073394129
 21
206.9475125086798
 31
0.0
 11
219.2277936421037
 21
206.7037707018678
 31
0.0
 11
219.3786893316642
 21
206.4427744852188
 31
0.0
 11
219.5074293186621
 21
206.1701994253405
 31
0.0
 11
219.6147719819521
 21
205.8846514567637
 31
0.0
 11
219.6986683251912
 21
205.5913781879652
 31
0.0
 11
219.7593002818307
 21
205.2900472247853
 31
0.0
 11
219.7957495158172
 21
204.9848559662048
 31
0.0
 11
219.8079602904305
 21
204.6769316804221
 31
0.0
 11
219.7957495158172
 21
204.3690073946394
 31
0.0
 11
219.7593002818307
 21
204.063816136059
 31
0.0
 11
219.6986683251912
 21
203.762485172879
 31
0.0
 11
219.6147719819521
 21
203.4692119040805
 31
0.0
 11
219.5074293186621
 21
203.1836639355038
 31
0.0
 11
219.3786893316642
 21
202.9110888756256
 31
0.0
 11
219.2277936421036
 21
202.6500926589766
 31
0.0
 11
219.058107339413
 21
202.4063508521646
 31
0.0
 11
218.8681927621441
 21
202.1779717694348
 31
0.0
 11
218.6626278370588
 21
201.9703413561323
 31
0.0
 11
218.4394856440439
 21
201.7816685636294
 31
0.0
 11
218.2041402369442
 21
201.6163882730357
 31
0.0
 11
217.954647558596
 21
201.4732812595789
 31
0.0
 11
217.6965015404984
 21
201.3553906462023
 31
0.0
 11
217.4283954143337
 21
201.2622601450132
 31
0.0
 11
217.155151389461
 21
201.1954518024542
 31
0.0
 11
216.8767518821075
 21
201.1550965583143
 31
0.0
 11
216.5966521457642
 21
201.1415745732865
 31
0.0
 11
216.3165524094209
 21
201.1550965583144
 31
0.0
 11
216.0381529020674
 21
201.1954518024542
 31
0.0
 11
215.7649088771947
 21
201.2622601450132
 31
0.0
 11
215.49680275103
 21
201.3553906462024
 31
0.0
 11
215.2386567329323
 21
201.4732812595789
 31
0.0
 11
214.9891640545841
 21
201.6163882730356
 31
0.0
 11
214.7538186474844
 21
201.7816685636294
 31
0.0
 11
214.5306764544695
 21
201.9703413561324
 31
0.0
 11
214.3251115293843
 21
202.1779717694349
 31
0.0
 11
214.1351969521154
 21
202.4063508521646
 31
0.0
 11
213.9655106494247
 21
202.6500926589766
 31
0.0
 11
213.8146149598641
 21
202.9110888756255
 31
0.0
 11
213.6858749728662
 21
203.1836639355038
 31
0.0
 11
213.5785323095763
 21
203.4692119040806
 31
0.0
 11
213.4946359663372
 21
203.7624851728791
 31
0.0
 11
213.4340040096977
 21
204.0638161360591
 31
0.0
 11
213.3975547757111
 21
204.3690073946395
 31
0.0
 11
213.3853440010978
 21
204.6769316804221
 31
0.0
 11
213.3975547757111
 21
204.9848559662048
 31
0.0
 11
213.4340040096976
 21
205.2900472247852
 31
0.0
 11
213.4946359663372
 21
205.5913781879652
 31
0.0
 11
213.5785323095762
 21
205.8846514567637
 31
0.0
 11
213.6858749728661
 21
206.1701994253405
 31
0.0
 11
213.814614959864
 21
206.4427744852188
 31
0.0
 11
213.9655106494247
 21
206.7037707018677
 31
0.0
 11
214.1351969521155
 21
206.9475125086797
 31
0.0
 11
214.3251115293844
 21
207.1758915914096
 31
0.0
 11
214.5306764544696
 21
207.3835220047121
 31
0.0
 11
214.7538186474844
 21
207.572194797215
 31
0.0
 11
214.9891640545841
 21
207.7374750878086
 31
0.0
 11
215.2386567329323
 21
207.8805821012654
 31
0.0
 11
215.49680275103
 21
207.998472714642
 31
0.0
 11
215.7649088771948
 21
208.091603215831
 31
0.0
 11
216.0381529020675
 21
208.1584115583898
 31
0.0
 11
216.316552409421
 21
208.1987668025298
 31
0.0
 11
216.5966521457642
 21
208.2122887875578
 31
0.0
 11
216.8767518821075
 21
208.1987668025299
 31
0.0
  0
SPLINE
  5
D3
330
4D
100
AcDbEntity
  8
1
  6
Continuous
 62
     7
100
AcDbSpline
210
0.0
220
0.0
230
1.0
 70
    11
 71
     3
 72
    79
 73
    75
 74
    73
 42
0.000000001
 43
0.0000000001
 44
0.00000001
 40
0.0
 40
0.0
 40
0.0
 40
0.0
 40
0.2813091295367095
 40
0.562601952858322
 40
0.8464226451893326
 40
1.130214053669878
 40
1.417835704368001
 40
1.705420535636383
 40
1.997635971559908
 40
2.289812847778946
 40
2.586839028646926
 40
2.883829785627934
 40
3.185307038912486
 40
3.486755454942011
 40
3.791812973649333
 40
4.096850359215507
 40
4.404220792930938
 40
4.711580925269446
 40
5.019747225769648
 40
5.32791352625966
 40
5.635273658567438
 40
5.942644092231304
 40
6.247681477724923
 40
6.552738996337384
 40
6.854187412249887
 40
7.155664665392705
 40
7.452655422208061
 40
7.74968160288218
 40
8.041858478879762
 40
8.33407391454684
 40
8.621658745520785
 40
8.90928039586859
 40
9.19307180391073
 40
9.47689249559989
 40
9.758185317503699
 40
10.03949445584106
 40
10.31992039306076
 40
10.60034633027942
 40
10.88165546861354
 40
11.16294829051201
 40
11.44676898219375
 40
11.73056039022653
 40
12.01818204056314
 40
12.3057668715243
 40
12.59798230717693
 40
12.89015918315874
 40
13.18718536381578
 40
13.48417612061305
 40
13.78565337373671
 40
14.08710178962941
 40
14.39215930822117
 40
14.69719669369349
 40
15.00456712733542
 40
15.3119272596208
 40
15.62009356008788
 40
15.92825986056486
 40
16.23561999287976
 40
16.54299042657115
 40
16.84802781211292
 40
17.15308533079541
 40
17.45453374679964
 40
17.75601100005791
 40
18.0530017570117
 40
18.35002793785069
 40
18.64220481403786
 40
18.93442024992414
 40
19.22200508114561
 40
19.50962673177627
 40
19.79341814013942
 40
20.07723883220402
 40
20.35853165457088
 40
20.63984079357049
 40
20.92026673223053
 40
21.20069266066648
 40
21.20069266066648
 40
21.20069266066648
 40
21.20069266066648
 10
238.8334375667232
 20
208.1987668025299
 30
0.0
 10
238.7403106186817
 20
208.1871953994132
 30
0.0
 10
238.5540621200451
 20
208.1640532693053
 30
0.0
 10
238.2797605368201
 20
208.0952911305759
 30
0.0
 10
238.0120166074507
 20
208.0027230041981
 30
0.0
 10
237.7524039709928
 20
207.8838706685979
 30
0.0
 10
237.5036868737547
 20
207.7412087531521
 30
0.0
 10
237.2668429581066
 20
207.574665852368
 30
0.0
 10
237.0446275385516
 20
207.3867081331707
 30
0.0
 10
236.8377644863264
 20
207.1775459214747
 30
0.0
 10
236.6487057512481
 20
206.9500933450899
 30
0.0
 10
236.4780658063882
 20
206.7047477608256
 30
0.0
 10
236.3278020773323
 20
206.4447192025663
 30
0.0
 10
236.1984947250202
 20
206.1706964565839
 30
0.0
 10
236.0915039228926
 20
205.8859487712691
 30
0.0
 10
236.0073715835392
 20
205.5915859217835
 30
0.0
 10
235.94685259916
 20
205.2906954418735
 30
0.0
 10
235.9103714609925
 20
204.9849091199707
 30
0.0
 10
235.8981526792878
 20
204.6769316900346
 30
0.0
 10
235.9103714606488
 20
204.3689542600893
 30
0.0
 10
235.946852598473
 20
204.0631679381937
 30
0.0
 10
236.0073715824989
 20
203.7622774582034
 30
0.0
 10
236.091503921523
 20
203.4679146089276
 30
0.0
 10
236.1984947232108
 20
203.1831669227109
 30
0.0
 10
236.3278020754686
 20
202.9091441798955
 30
0.0
 10
236.4780658030066
 20
202.6491156097009
 30
0.0
 10
236.6487057517048
 20
202.4037700690989
 30
0.0
 10
236.8377644707717
 20
202.1763173308382
 30
0.0
 10
237.0446275799678
 20
201.967155713504
 30
0.0
 10
237.2668427867792
 20
201.7791957947288
 30
0.0
 10
237.5036874823709
 20
201.6126609784837
 30
0.0
 10
237.752401688847
 20
201.4699691212724
 30
0.0
 10
238.0120249746263
 20
201.3512271141159
 30
0.0
 10
238.2797293820584
 20
201.2582495689845
 30
0.0
 10
238.5541772152021
 20
201.1910024911751
 30
0.0
 10
238.8327160376594
 20
201.1506871450745
 30
0.0
 10
239.113537302479
 20
201.1370254660918
 30
0.0
 10
239.3943585672985
 20
201.1506871450507
 30
0.0
 10
239.6728973897561
 20
201.1910024911272
 30
0.0
 10
239.9473452229002
 20
201.2582495689129
 30
0.0
 10
240.2150496303327
 20
201.3512271140207
 30
0.0
 10
240.4746729161126
 20
201.4699691211534
 30
0.0
 10
240.7233871225894
 20
201.6126609783412
 30
0.0
 10
240.9602318181817
 20
201.7791957945633
 30
0.0
 10
241.1824470249937
 20
201.9671557133155
 30
0.0
 10
241.3893101341908
 20
202.1763173306267
 30
0.0
 10
241.5783688532584
 20
202.4037700688647
 30
0.0
 10
241.7490088019575
 20
202.649115609444
 30
0.0
 10
241.8992725294965
 20
202.9091441796161
 30
0.0
 10
242.0285798817554
 20
203.183166922409
 30
0.0
 10
242.1355706834442
 20
203.4679146086034
 30
0.0
 10
242.2197030224692
 20
203.7622774578567
 30
0.0
 10
242.2802220064966
 20
204.0631679378244
 30
0.0
 10
242.3167031443223
 20
204.3689542596976
 30
0.0
 10
242.3289219256851
 20
204.6769316896187
 30
0.0
 10
242.3167031439827
 20
204.984909119536
 30
0.0
 10
242.280222005816
 20
205.2906954413996
 30
0.0
 10
242.2197030214468
 20
205.5915859213443
 30
0.0
 10
242.1355706820738
 20
205.8859487705884
 30
0.0
 10
242.0285798800416
 20
206.170696456686
 30
0.0
 10
241.899272527405
 20
206.4447191996654
 30
0.0
 10
241.7490087995879
 20
206.7047477689326
 30
0.0
 10
241.5783688502176
 20
206.9500933125823
 30
0.0
 10
241.3893101318947
 20
207.1775460391463
 30
0.0
 10
241.1824470181986
 20
207.3867076989798
 30
0.0
 10
240.9602318262113
 20
207.5746674599626
 30
0.0
 10
240.7233870742672
 20
207.7412028555929
 30
0.0
 10
240.4746730745471
 20
207.8838925663324
 30
0.0
 10
240.2150490248911
 20
208.0026424819694
 30
0.0
 10
239.9473474499424
 20
208.0955906785311
 30
0.0
 10
239.6728891326757
 20
208.1629463601789
 30
0.0
 10
239.3943893225107
 20
208.2028575473643
 30
0.0
 10
239.1134228889814
 20
208.2180231243625
 30
0.0
 10
238.926766006456
 20
208.2051855745762
 30
0.0
 10
238.8334375667232
 20
208.1987668025299
 30
0.0
 11
238.8334375667232
 21
208.1987668025299
 31
0.0
 11
238.5550380593697
 21
208.15841155839
 31
0.0
 11
238.281794034497
 21
208.0916032158311
 31
0.0
 11
238.0136879083323
 21
207.998472714642
 31
0.0
 11
237.7555418902347
 21
207.8805821012654
 31
0.0
 11
237.5060492118865
 21
207.7374750878085
 31
0.0
 11
237.2707038047867
 21
207.572194797215
 31
0.0
 11
237.0475616117718
 21
207.3835220047121
 31
0.0
 11
236.8419966866866
 21
207.1758915914097
 31
0.0
 11
236.6520821094177
 21
206.9475125086798
 31
0.0
 11
236.482395806727
 21
206.7037707018678
 31
0.0
 11
236.3315001171664
 21
206.4427744852188
 31
0.0
 11
236.2027601301685
 21
206.1701994253405
 31
0.0
 11
236.0954174668786
 21
205.8846514567637
 31
0.0
 11
236.0115211236394
 21
205.5913781879652
 31
0.0
 11
235.9508891669998
 21
205.2900472247853
 31
0.0
 11
235.9144399330134
 21
204.9848559662048
 31
0.0
 11
235.9022291584002
 21
204.6769316804221
 31
0.0
 11
235.9144399330135
 21
204.3690073946394
 31
0.0
 11
235.9508891669999
 21
204.063816136059
 31
0.0
 11
236.0115211236394
 21
203.762485172879
 31
0.0
 11
236.0954174668786
 21
203.4692119040805
 31
0.0
 11
236.2027601301686
 21
203.1836639355038
 31
0.0
 11
236.3315001171665
 21
202.9110888756256
 31
0.0
 11
236.482395806727
 21
202.6500926589766
 31
0.0
 11
236.6520821094177
 21
202.4063508521646
 31
0.0
 11
236.8419966866866
 21
202.1779717694348
 31
0.0
 11
237.0475616117718
 21
201.9703413561323
 31
0.0
 11
237.2707038047867
 21
201.7816685636294
 31
0.0
 11
237.5060492118864
 21
201.6163882730357
 31
0.0
 11
237.7555418902347
 21
201.4732812595789
 31
0.0
 11
238.0136879083323
 21
201.3553906462023
 31
0.0
 11
238.281794034497
 21
201.2622601450132
 31
0.0
 11
238.5550380593697
 21
201.1954518024542
 31
0.0
 11
238.8334375667232
 21
201.1550965583143
 31
0.0
 11
239.1135373030664
 21
201.1415745732865
 31
0.0
 11
239.3936370394097
 21
201.1550965583144
 31
0.0
 11
239.6720365467633
 21
201.1954518024542
 31
0.0
 11
239.945280571636
 21
201.2622601450132
 31
0.0
 11
240.2133866978007
 21
201.3553906462024
 31
0.0
 11
240.4715327158983
 21
201.4732812595789
 31
0.0
 11
240.7210253942466
 21
201.6163882730356
 31
0.0
 11
240.9563708013463
 21
201.7816685636294
 31
0.0
 11
241.1795129943611
 21
201.9703413561324
 31
0.0
 11
241.3850779194463
 21
202.1779717694349
 31
0.0
 11
241.5749924967152
 21
202.4063508521646
 31
0.0
 11
241.744678799406
 21
202.6500926589766
 31
0.0
 11
241.8955744889666
 21
202.9110888756255
 31
0.0
 11
242.0243144759645
 21
203.1836639355038
 31
0.0
 11
242.1316571392544
 21
203.4692119040806
 31
0.0
 11
242.2155534824935
 21
203.7624851728791
 31
0.0
 11
242.276185439133
 21
204.0638161360591
 31
0.0
 11
242.3126346731195
 21
204.3690073946395
 31
0.0
 11
242.3248454477329
 21
204.6769316804221
 31
0.0
 11
242.3126346731195
 21
204.9848559662048
 31
0.0
 11
242.2761854391329
 21
205.2900472247852
 31
0.0
 11
242.2155534824935
 21
205.5913781879652
 31
0.0
 11
242.1316571392544
 21
205.8846514567637
 31
0.0
 11
242.0243144759645
 21
206.1701994253405
 31
0.0
 11
241.8955744889665
 21
206.4427744852188
 31
0.0
 11
241.744678799406
 21
206.7037707018677
 31
0.0
 11
241.5749924967152
 21
206.9475125086797
 31
0.0
 11
241.3850779194463
 21
207.1758915914096
 31
0.0
 11
241.1795129943612
 21
207.3835220047121
 31
0.0
 11
240.9563708013463
 21
207.572194797215
 31
0.0
 11
240.7210253942466
 21
207.7374750878086
 31
0.0
 11
240.4715327158983
 21
207.8805821012654
 31
0.0
 11
240.2133866978006
 21
207.998472714642
 31
0.0
 11
239.9452805716359
 21
208.091603215831
 31
0.0
 11
239.6720365467631
 21
208.1584115583898
 31
0.0
 11
239.3936370394096
 21
208.1987668025298
 31
0.0
 11
239.1135373030664
 21
208.2122887875578
 31
0.0
 11
238.8334375667232
 21
208.1987668025299
 31
0.0
  0
SPLINE
  5
D4
330
4D
100
AcDbEntity
  8
1
  6
Continuous
 62
     7
100
AcDbSpline
210
0.0
220
0.0
230
1.0
 70
    11
 71
     3
 72
    81
 73
    77
 74
    75
 42
0.000000001
 43
0.0000000001
 44
0.00000001
 40
0.0
 40
0.0
 40
0.0
 40
0.0
 40
0.1554868103143299
 40
0.3119100160061334
 40
0.6337309535503187
 40
0.9551597034641728
 40
1.304665791089488
 40
1.653587855464487
 40
2.041539594513709
 40
2.429053010513277
 40
2.85969921496652
 40
3.290057565161161
 40
3.762056872613514
 40
4.233877041282904
 40
4.741753475046561
 40
5.249521395534718
 40
5.784902098499161
 40
6.320221096410182
 40
6.87286431059907
 40
7.425479620675406
 40
7.983932686718591
 40
8.542385563992235
 40
9.094919880223642
 40
9.647482283952195
 40
10.18280128341612
 40
10.71818198769494
 40
11.22594990668281
 40
11.73382633286578
 40
12.20564650909666
 40
12.67764586933291
 40
13.10800416974374
 40
13.53865002801861
 40
13.92616375682963
 40
14.31411764466993
 40
14.66303777817995
 40
15.01253098657329
 40
15.33399367144122
 40
15.65591278460443
 40
15.96749095482955
 40
16.2790691250546
 40
16.60098823821781
 40
16.92245092308575
 40
17.27194413147924
 40
17.62086426498962
 40
18.00881815282937
 40
18.39633188163805
 40
18.82697773991539
 40
19.25733604033826
 40
19.72933540056233
 40
20.20115557673638
 40
20.70903200297222
 40
21.21679992219478
 40
21.75218062628422
 40
22.28749962503477
 40
22.84010243395851
 40
23.39267724710326
 40
23.95113021876393
 40
24.50958319041915
 40
25.06215800357062
 40
25.61476081258268
 40
26.15007981120406
 40
26.68546051434054
 40
27.193228434609
 40
27.70110486840654
 40
28.17292503706246
 40
28.64492434412249
 40
29.07528269461366
 40
29.50592890079113
 40
29.89344231556667
 40
30.28139404824525
 40
30.63031611666107
 40
30.97982222076791
 40
31.30127288622603
 40
31.62311631837436
 40
31.77956195504954
 40
31.93507079363751
 40
31.93507079363751
 40
31.93507079363751
 40
31.93507079363751
 10
234.2778233441233
 20
204.6768871344531
 30
0.0
 10
234.2766072212394
 20
204.7287348670972
 30
0.0
 10
234.2741676620996
 20
204.8327425777588
 30
0.0
 10
234.2472704670675
 20
205.0425472574615
 30
0.0
 10
234.1853265601572
 20
205.3029222348085
 30
0.0
 10
234.0583641131102
 20
205.6097841289942
 30
0.0
 10
233.8871085580903
 20
205.9045887817437
 30
0.0
 10
233.6665441510003
 20
206.1928278675445
 30
0.0
 10
233.4065252458501
 20
206.4637742692429
 30
0.0
 10
233.1003155714456
 20
206.7251514587296
 30
0.0
 10
232.7602633446833
 20
206.9660037620922
 30
0.0
 10
232.3780773520255
 20
207.1934312560147
 30
0.0
 10
231.9678474413915
 20
207.3981149655722
 30
0.0
 10
231.5212793484556
 20
207.585289138866
 30
0.0
 10
231.0526169589092
 20
207.7480885806442
 30
0.0
 10
230.5551210545576
 20
207.889722245738
 30
0.0
 10
230.0416604370521
 20
208.005781287056
 30
0.0
 10
229.5082088563969
 20
208.0978616246732
 30
0.0
 10
228.965081854493
 20
208.1635624956079
 30
0.0
 10
228.4117395226813
 20
208.2035221356074
 30
0.0
 10
227.8551751811513
 20
208.2166932175748
 30
0.0
 10
227.2986376523214
 20
208.2035304326832
 30
0.0
 10
226.7453485770549
 20
208.1635842027813
 30
0.0
 10
226.2022736230207
 20
208.0979029371586
 30
0.0
 10
225.6688460444762
 20
208.0058419374421
 30
0.0
 10
225.1553822085064
 20
207.8897971422536
 30
0.0
 10
224.6578823777705
 20
207.7481772805555
 30
0.0
 10
224.1892154600731
 20
207.5853908717126
 30
0.0
 10
223.7426421636289
 20
207.3982290813589
 30
0.0
 10
223.3324066037746
 20
207.1935566227552
 30
0.0
 10
222.9502145328959
 20
206.966139750434
 30
0.0
 10
222.6101548571594
 20
206.7252975928537
 30
0.0
 10
222.3039386390327
 20
206.4639280669402
 30
0.0
 10
222.0439095290836
 20
206.1929878625329
 30
0.0
 10
221.8233557647004
 20
205.9047542884264
 30
0.0
 10
221.6520222127288
 20
205.6099704822895
 30
0.0
 10
221.5252349291597
 20
205.303018278038
 30
0.0
 10
221.4505833608208
 20
204.992268089291
 30
0.0
 10
221.4237434826989
 20
204.6770208950859
 30
0.0
 10
221.450574614847
 20
204.3617729563782
 30
0.0
 10
221.5252175619553
 20
204.0510206966781
 30
0.0
 10
221.6519963296416
 20
203.7440649750607
 30
0.0
 10
221.8233217033036
 20
203.4492764156975
 30
0.0
 10
222.0438674710822
 20
203.1610367228362
 30
0.0
 10
222.3038890641845
 20
202.8900893044962
 30
0.0
 10
222.6100980309715
 20
202.6287112832716
 30
0.0
 10
222.9501510248506
 20
202.3878596914415
 30
0.0
 10
223.3323367862939
 20
202.1604322159528
 30
0.0
 10
223.7425666677072
 20
201.9557483761707
 30
0.0
 10
224.1891347716054
 20
201.7685741968021
 30
0.0
 10
224.6577971729916
 20
201.6057747855206
 30
0.0
 10
225.1552930740382
 20
201.464141120867
 30
0.0
 10
225.6687536904448
 20
201.3480820771576
 30
0.0
 10
226.2021919930908
 20
201.2560040090464
 30
0.0
 10
226.7452920599125
 20
201.1903054079441
 30
0.0
 10
227.2986072091977
 20
201.1503447978283
 30
0.0
 10
227.855157961688
 20
201.1371701441169
 30
0.0
 10
228.411709079477
 20
201.1503293570678
 30
0.0
 10
228.9650253372348
 20
201.1902746163766
 30
0.0
 10
229.5081272264001
 20
201.2559581511755
 30
0.0
 10
230.0415680830166
 20
201.3480214200289
 30
0.0
 10
230.5550319200808
 20
201.4640662128386
 30
0.0
 10
231.0525317541458
 20
201.6056860749903
 30
0.0
 10
231.5211986600429
 20
201.7684725142503
 30
0.0
 10
231.9677719454149
 20
201.95563429846
 30
0.0
 10
232.3780075342509
 20
202.1603066272536
 30
0.0
 10
232.7601998365677
 20
202.3877235185113
 30
0.0
 10
233.1002587474624
 20
202.6285663849563
 30
0.0
 10
233.4064756713381
 20
202.8899350784025
 30
0.0
 10
233.6665020852251
 20
203.1608742737002
 30
0.0
 10
233.8870744707578
 20
203.4491072587547
 30
0.0
 10
234.058342022675
 20
203.7439134010653
 30
0.0
 10
234.185317206323
 20
204.0507863277379
 30
0.0
 10
234.2472691153868
 20
204.3111825342954
 30
0.0
 10
234.2741694001689
 20
204.5210094387996
 30
0.0
 10
234.2766078001373
 20
204.6250320291761
 30
0.0
 10
234.2778233441233
 20
204.6768871344531
 30
0.0
 11
234.2778233441233
 21
204.6768871344531
 31
0.0
 11
234.2714914843924
 21
204.8322449721365
 31
0.0
 11
234.252498708314
 21
204.9875108508894
 31
0.0
 11
234.1771769358997
 21
205.3003931704697
 31
0.0
 11
234.0557903645088
 21
205.5980200194919
 31
0.0
 11
233.8808705031924
 21
205.9006047963377
 31
0.0
 11
233.6698045538274
 21
206.1784496664878
 31
0.0
 11
233.4020321280685
 21
206.4591710224645
 31
0.0
 11
233.1078737934298
 21
206.7114358072713
 31
0.0
 11
232.7570949533637
 21
206.9612564603428
 31
0.0
 11
232.3875907653228
 21
207.1818804947531
 31
0.0
 11
231.9656481494549
 21
207.3934171939814
 31
0.0
 11
231.5306765873028
 21
207.5762121930036
 31
0.0
 11
231.0511406652536
 21
207.7434956991549
 31
0.0
 11
230.5628564017012
 21
207.8828037715813
 31
0.0
 11
230.0407509195655
 21
208.0012873680516
 31
0.0
 11
229.5132576910781
 21
208.0924867289417
 31
0.0
 11
228.96464797644
 21
208.1591343335144
 31
0.0
 11
228.4134687891781
 21
208.1989487085532
 31
0.0
 11
227.8551750768096
 21
208.2122887872815
 31
0.0
 11
227.2968813698658
 21
208.1989563862239
 31
0.0
 11
226.7457822814094
 21
208.1591573245428
 31
0.0
 11
226.197251174654
 21
208.092532742513
 31
0.0
 11
225.6697554172378
 21
208.0013480009654
 31
0.0
 11
225.1476466483863
 21
207.8828788826219
 31
0.0
 11
224.6593585199924
 21
207.7435843628968
 31
0.0
 11
224.1798179570312
 21
207.5763141839786
 31
0.0
 11
223.7448413238311
 21
207.3935312326896
 31
0.0
 11
223.3228928398892
 21
207.1820061207417
 31
0.0
 11
222.9533825307921
 21
206.96139243524
 31
0.0
 11
222.6025967577022
 21
206.7115821138249
 31
0.0
 11
222.3084314264278
 21
206.4593250070167
 31
0.0
 11
222.0406512242743
 21
206.1786080989403
 31
0.0
 11
221.8295775572175
 21
205.9007715162157
 31
0.0
 11
221.6546492432406
 21
205.598206502126
 31
0.0
 11
221.5332477227549
 21
205.3005491006482
 31
0.0
 11
221.4579171464946
 21
204.9875679194619
 31
0.0
 11
221.4325907637327
 21
204.6770207723599
 31
0.0
 11
221.4579085309158
 21
204.3664729227429
 31
0.0
 11
221.5332304240503
 21
204.0534896517664
 31
0.0
 11
221.6546236865227
 21
203.7558288823374
 31
0.0
 11
221.8295436063131
 21
203.4532590152942
 31
0.0
 11
222.0406095652149
 21
203.1754165768187
 31
0.0
 11
222.3083819792824
 21
202.8946922397737
 31
0.0
 11
222.6025403120266
 21
202.6424269719813
 31
0.0
 11
222.9533191544454
 21
202.3926069187406
 31
0.0
 11
223.3228233428707
 21
202.1719829819018
 31
0.0
 11
223.7447659582706
 21
201.9604461638691
 31
0.0
 11
224.1797375203336
 21
201.7776511451872
 31
0.0
 11
224.6592734424871
 21
201.6103676621457
 31
0.0
 11
225.1475577061365
 21
201.4710595946599
 31
0.0
 11
225.6696631881655
 21
201.3525759926503
 31
0.0
 11
226.1971564161366
 21
201.26137662388
 31
0.0
 11
226.7457259025399
 21
201.1947329219097
 31
0.0
 11
227.2968644882034
 21
201.1549185588019
 31
0.0
 11
227.8551580128237
 21
201.141574574409
 31
0.0
 11
228.4134519074338
 21
201.1549030697926
 31
0.0
 11
228.9645915974626
 21
201.1947021426963
 31
0.0
 11
229.5131629325642
 21
201.2613306263528
 31
0.0
 11
230.0406586904934
 21
201.3525153600209
 31
0.0
 11
230.5627674594324
 21
201.4709844728308
 31
0.0
 11
231.0510555877464
 21
201.6102789974917
 31
0.0
 11
231.5305961507062
 21
201.7775491994897
 31
0.0
 11
231.965572783908
 21
201.9603321311443
 31
0.0
 11
232.3875212677846
 21
202.1718571244425
 31
0.0
 11
232.7570315769353
 21
202.3924709073887
 31
0.0
 11
233.1078173503653
 21
202.6422818278532
 31
0.0
 11
233.4019826813658
 21
202.8945384523049
 31
0.0
 11
233.6697628818266
 21
203.175252383196
 31
0.0
 11
233.8808365502641
 21
203.4530913944279
 31
0.0
 11
234.0557648727078
 21
203.7556712988987
 31
0.0
 11
234.1771663858138
 21
204.0533157220629
 31
0.0
 11
234.252496917818
 21
204.3662190701254
 31
0.0
 11
234.2714924384247
 21
204.5215072113361
 31
0.0
 11
234.2778233441233
 21
204.6768871344531
 31
0.0
  0
SPLINE
  5
D5
330
4D
100
AcDbEntity
  8
1
  6
Continuous
 62
     7
100
AcDbSpline
210
0.0
220
0.0
230
1.0
 70
    11
 71
     3
 72
    81
 73
    77
 74
    75
 42
0.000000001
 43
0.0000000001
 44
0.00000001
 40
0.0
 40
0.0
 40
0.0
 40
0.0
 40
0.3160149039995651
 40
0.6318632055734383
 40
0.9639105408701457
 40
1.295674862724965
 40
1.650818596853745
 40
2.005699038222711
 40
2.387328398085801
 40
2.768752109011916
 40
3.176740547089575
 40
3.584583766713206
 40
4.015916126699787
 40
4.447152548481797
 40
4.896638149281586
 40
5.346066057855097
 40
5.807018796738377
 40
6.267944528737697
 40
6.732806436966669
 40
7.197668345195261
 40
7.658594077184894
 40
8.119546816024325
 40
8.568974724625065
 40
9.018460325734793
 40
9.449696747104342
 40
9.881029104356534
 40
10.28887232667668
 40
10.69686078374061
 40
11.07828447582123
 40
11.45991370918324
 40
11.81479427080884
 40
12.16993880008154
 40
12.50170236609061
 40
12.83374486327295
 40
13.14959785094037
 40
13.4656414972849
 40
13.77586393182279
 40
14.08608636635956
 40
14.40213001270078
 40
14.71798300036274
 40
15.05002549753758
 40
15.38178906353749
 40
15.73693359280089
 40
16.09181415441916
 40
16.47344338776674
 40
16.85486707982076
 40
17.26285553688824
 40
17.67069875926934
 40
18.10203111644514
 40
18.53326753751271
 40
18.98275313884142
 40
19.43218104828183
 40
19.89308292916477
 40
20.3539576358596
 40
20.81881937271872
 40
21.28368145230265
 40
21.74465820961458
 40
22.20566180639525
 40
22.65508971411592
 40
23.10457531469178
 40
23.53581173675136
 40
23.96714409674583
 40
24.37498731633557
 40
24.78297575463739
 40
25.16439946536989
 40
25.54602882414102
 40
25.90090926628583
 40
26.25605300443342
 40
26.58781732338679
 40
26.91986464718871
 40
27.23567959837204
 40
27.55166056234949
 40
27.70720238514425
 40
27.8620848843653
 40
28.01700085896197
 40
28.17257657770101
 40
28.17257657770101
 40
28.17257657770101
 40
28.17257657770101
 10
99.39658517928828
 20
204.3672414998825
 30
0.0
 10
99.37879003026652
 20
204.2632577902846
 30
0.0
 10
99.34320912190805
 20
204.0553451895778
 30
0.0
 10
99.23706182005894
 20
203.7507122092087
 30
0.0
 10
99.09600447473734
 20
203.4555555115145
 30
0.0
 10
98.91374636378573
 20
203.1680471796708
 30
0.0
 10
98.69752356716168
 20
202.8955300558549
 30
0.0
 10
98.44357826893236
 20
202.6341486017369
 30
0.0
 10
98.15998345772985
 20
202.3916221427443
 30
0.0
 10
97.8423801863509
 20
202.1639574762265
 30
0.0
 10
97.50007028055953
 20
201.9579853518037
 30
0.0
 10
97.12860986215976
 20
201.7705526377716
 30
0.0
 10
96.73766215885979
 20
201.6069072386564
 30
0.0
 10
96.32363456703739
 20
201.4650651198516
 30
0.0
 10
95.89553447437648
 20
201.3485158321545
 30
0.0
 10
95.45144783788342
 20
201.2563056709402
 30
0.0
 10
94.99885292336488
 20
201.1903731576513
 30
0.0
 10
94.53808204224767
 20
201.1503775082043
 30
0.0
 10
94.07446422983337
 20
201.1371485203867
 30
0.0
 10
93.61084708598926
 20
201.1504009182941
 30
0.0
 10
93.1500782250737
 20
201.1904198339874
 30
0.0
 10
92.69748664016679
 20
201.256375200296
 30
0.0
 10
92.25340466072632
 20
201.3486077852559
 30
0.0
 10
91.82531045217073
 20
201.4651786908165
 30
0.0
 10
91.41129003121061
 20
201.6070417162488
 30
0.0
 10
91.02035056278848
 20
201.7707068436719
 30
0.0
 10
90.64889969251034
 20
201.9581583282998
 30
0.0
 10
90.30659988352878
 20
202.1641477334683
 30
0.0
 10
89.98900928932255
 20
202.3918285661355
 30
0.0
 10
89.7054224944832
 20
202.6343686212127
 30
0.0
 10
89.45150447755461
 20
202.89576501851
 30
0.0
 10
89.23524475864417
 20
203.1682868060508
 30
0.0
 10
89.0531818184129
 20
203.455826991302
 30
0.0
 10
88.9114851908717
 20
203.7509014511346
 30
0.0
 10
88.80766910239261
 20
204.0558610080536
 30
0.0
 10
88.74613199256805
 20
204.3647236918642
 30
0.0
 10
88.72462383680582
 20
204.6770667507941
 30
0.0
 10
88.74614776410863
 20
204.9894087232837
 30
0.0
 10
88.80770046968341
 20
205.2982682994192
 30
0.0
 10
88.91153195677289
 20
205.603222613815
 30
0.0
 10
89.05324348373439
 20
205.8982899183806
 30
0.0
 10
89.2353209428966
 20
206.1858209100998
 30
0.0
 10
89.45159442234997
 20
206.4583317773819
 30
0.0
 10
89.70552563799947
 20
206.7197153529031
 30
0.0
 10
89.98912467938149
 20
206.9622410881131
 30
0.0
 10
90.3067267698076
 20
207.1899058839047
 30
0.0
 10
90.6490369796774
 20
207.3958780045594
 30
0.0
 10
91.0204973146177
 20
207.5833107330506
 30
0.0
 10
91.41144504658078
 20
207.7469561197631
 30
0.0
 10
91.82547263103255
 20
207.8887982385883
 30
0.0
 10
92.25357272475323
 20
208.0053475235277
 30
0.0
 10
92.6976427527066
 20
208.097554261476
 30
0.0
 10
93.15020376605521
 20
208.1634833338263
 30
0.0
 10
93.61094029392066
 20
208.2034804576087
 30
0.0
 10
94.07454093409214
 20
208.2167148414159
 30
0.0
 10
94.53817525039278
 20
208.2034678390464
 30
0.0
 10
94.99897846460541
 20
208.1634503965844
 30
0.0
 10
95.45160395067579
 20
208.097491587845
 30
0.0
 10
95.89570253792638
 20
208.0052555787024
 30
0.0
 10
96.32379674733646
 20
207.8886846706131
 30
0.0
 10
96.73781716870047
 20
207.7468216443375
 30
0.0
 10
97.12875663358312
 20
207.5831565075453
 30
0.0
 10
97.5002074982722
 20
207.3957050263397
 30
0.0
 10
97.84250732478462
 20
207.1897156572244
 30
0.0
 10
98.16009797422687
 20
206.9620348155493
 30
0.0
 10
98.44368458276848
 20
206.7194945331903
 30
0.0
 10
98.69760258758764
 20
206.4580985210988
 30
0.0
 10
98.91386231684129
 20
206.1855767232631
 30
0.0
 10
99.09592852356704
 20
205.8980373654934
 30
0.0
 10
99.23760838064769
 20
205.6029625944293
 30
0.0
 10
99.34144808067724
 20
205.2980649255371
 30
0.0
 10
99.39279413309757
 20
205.0398567919784
 30
0.0
 10
99.41392815100775
 20
204.8319990154804
 30
0.0
 10
99.41896603275038
 20
204.6768671920215
 30
0.0
 10
99.41432967704725
 20
204.5216391875783
 30
0.0
 10
99.40250838179948
 20
204.4187802488996
 30
0.0
 10
99.39658517928828
 20
204.3672414998825
 30
0.0
 11
99.39658517928828
 21
204.3672414998825
 31
0.0
 11
99.33469504121581
 21
204.0573462994167
 31
0.0
 11
99.23363136511799
 21
203.7581034518508
 31
0.0
 11
99.09017007864131
 21
203.458646790917
 31
0.0
 11
98.91333227700127
 21
203.1779406154221
 31
0.0
 11
98.69301467473308
 21
202.8993957790405
 31
0.0
 11
98.44620069070177
 21
202.6443997303358
 31
0.0
 11
98.1565841272334
 21
202.3958776701517
 31
0.0
 11
97.84687618721297
 21
202.1732455990252
 31
0.0
 11
97.49759428153166
 21
201.9623979859716
 31
0.0
 11
97.13364583305503
 21
201.7783392490965
 31
0.0
 11
96.73594512494154
 21
201.6113609525403
 31
0.0
 11
96.32806575695318
 21
201.4713635503109
 31
0.0
 11
95.89445438601311
 21
201.3529638699391
 31
0.0
 11
95.45443931813612
 21
201.2614642248935
 31
0.0
 11
94.99833175150657
 21
201.1948060284971
 31
0.0
 11
94.53913444719308
 21
201.154926633674
 31
0.0
 11
94.07446433165191
 21
201.1415745758597
 31
0.0
 11
93.60979489090744
 21
201.1549500969501
 31
0.0
 11
93.15059960086619
 21
201.1948526785773
 31
0.0
 11
92.69449540068513
 21
201.2615339055459
 31
0.0
 11
92.2544849535901
 21
201.3530557689941
 31
0.0
 11
91.8208795617242
 21
201.4714773454366
 31
0.0
 11
91.41300726334444
 21
201.6114953419645
 31
0.0
 11
91.01531498721783
 21
201.7784937130662
 31
0.0
 11
90.65137583313663
 21
201.9625708331883
 31
0.0
 11
90.30210457448453
 21
202.1734361196142
 31
0.0
 11
89.99240787657338
 21
202.3960837969656
 31
0.0
 11
89.70280386267905
 21
202.6446202871443
 31
0.0
 11
89.456002754642
 21
202.8996289657256
 31
0.0
 11
89.23569921642024
 21
203.1781859397747
 31
0.0
 11
89.05887559015137
 21
203.4589001520932
 31
0.0
 11
88.91542943106245
 21
203.7583586959048
 31
0.0
 11
88.81438085935982
 21
204.0576115923981
 31
0.0
 11
88.75250633483273
 21
204.3675392124975
 31
0.0
 11
88.73175125942694
 21
204.6770665712674
 31
0.0
 11
88.7525219642099
 21
204.9865928816274
 31
0.0
 11
88.81441213827269
 21
205.2965173770137
 31
0.0
 11
88.91547582044711
 21
205.5957651707368
 31
0.0
 11
89.0589371003379
 21
205.8952164709361
 31
0.0
 11
89.23577490088195
 21
206.1759217542902
 31
0.0
 11
89.45609250439483
 21
206.4544676038863
 31
0.0
 11
89.70290648863147
 21
206.7094638200691
 31
0.0
 11
89.99252305186238
 21
206.9579856865396
 31
0.0
 11
90.30223099184633
 21
207.1806177256223
 31
0.0
 11
90.65151289756966
 21
207.3914653755654
 31
0.0
 11
91.01546134603532
 21
207.5755241187535
 31
0.0
 11
91.41316205416086
 21
207.7425024081851
 31
0.0
 11
91.82104142226449
 21
207.8824998080227
 31
0.0
 11
92.2546527930807
 21
208.0008994909925
 31
0.0
 11
92.69466786023827
 21
208.0923991438854
 31
0.0
 11
93.15072488953444
 21
208.1590514495378
 31
0.0
 11
93.60987097774056
 21
208.1989308298034
 31
0.0
 11
94.07454075229987
 21
208.2122887869217
 31
0.0
 11
94.5392105342496
 21
208.1989191651128
 31
0.0
 11
94.9984570404716
 21
208.1590165673033
 31
0.0
 11
95.45461177768695
 21
208.0923294473639
 31
0.0
 11
95.8946222255036
 21
208.0008075917627
 31
0.0
 11
96.32822761750492
 21
207.8823860179207
 31
0.0
 11
96.73609991575884
 21
207.7423680189988
 31
0.0
 11
97.13379219181044
 21
207.5753696407587
 31
0.0
 11
97.49773134595839
 21
207.3912925269621
 31
0.0
 11
97.84700260490442
 21
207.1804272775007
 31
0.0
 11
98.15669930256023
 21
206.9577795680403
 31
0.0
 11
98.44630331492635
 21
206.709242883754
 31
0.0
 11
98.69310442428468
 21
206.4542343729914
 31
0.0
 11
98.91340797049745
 21
206.1756784142175
 31
0.0
 11
99.09023158973017
 21
205.8949633079436
 31
0.0
 11
99.2336777065405
 21
205.5954993924943
 31
0.0
 11
99.33471768126806
 21
205.2962837399936
 31
0.0
 11
99.39659210606271
 21
204.9864200201381
 31
0.0
 11
99.41216468943604
 21
204.8316597113474
 31
0.0
 11
99.41735592041738
 21
204.6768642349995
 31
0.0
 11
99.41216351258767
 21
204.5220353052435
 31
0.0
 11
99.39658517928828
 21
204.3672414998825
 31
0.0
  0
SPLINE
  5
D6
330
4D
100
AcDbEntity
  8
1
  6
Continuous
 62
     7
100
AcDbSpline
210
0.0
220
0.0
230
1.0
 70
    11
 71
     3
 72
    81
 73
    77
 74
    75
 42
0.000000001
 43
0.0000000001
 44
0.00000001
 40
0.0
 40
0.0
 40
0.0
 40
0.0
 40
0.3160149039995623
 40
0.6318632055734401
 40
0.9639105408701475
 40
1.295674862724952
 40
1.650818596853723
 40
2.005699038222708
 40
2.38732839808582
 40
2.768752109011924
 40
3.176740547089607
 40
3.584583766713187
 40
4.015916126699794
 40
4.447152548481777
 40
4.896638149281581
 40
5.346066057855119
 40
5.807018796738427
 40
6.267944528737762
 40
6.732806436966734
 40
7.197668345195269
 40
7.658594077184916
 40
8.119546816024346
 40
8.5689747246251
 40
9.018460325734814
 40
9.449696747104325
 40
9.881029104356543
 40
10.28887232667668
 40
10.69686078374059
 40
11.07828447582123
 40
11.45991370918326
 40
11.81479427080888
 40
12.16993880008159
 40
12.50170236609065
 40
12.833744863273
 40
13.14959785094041
 40
13.46564149728493
 40
13.77586393182282
 40
14.08608636635959
 40
14.40213001270081
 40
14.71798300036278
 40
15.0500254975376
 40
15.38178906353753
 40
15.73693359280092
 40
16.09181415441917
 40
16.47344338776676
 40
16.85486707982077
 40
17.26285553688824
 40
17.67069875926932
 40
18.10203111644513
 40
18.53326753751267
 40
18.98275313884141
 40
19.43218104828183
 40
19.89308292916479
 40
20.35395763585965
 40
20.81881937271874
 40
21.28368145230268
 40
21.74465820961454
 40
22.20566180639521
 40
22.65508971411588
 40
23.10457531469176
 40
23.53581173675135
 40
23.96714409674584
 40
24.37498731633555
 40
24.7829757546374
 40
25.1643994653699
 40
25.54602882414104
 40
25.90090926628585
 40
26.25605300443344
 40
26.58781732338682
 40
26.91986464718873
 40
27.23567959837204
 40
27.5516605623495
 40
27.70720238514425
 40
27.8620848843653
 40
28.01700085896197
 40
28.17257657770101
 40
28.17257657770101
 40
28.17257657770101
 40
28.17257657770101
 10
101.3138289284493
 20
204.3672414998825
 30
0.0
 10
101.3316240774711
 20
204.2632577902846
 30
0.0
 10
101.3672049858295
 20
204.0553451895778
 30
0.0
 10
101.4733522876787
 20
203.7507122092087
 30
0.0
 10
101.6144096330002
 20
203.4555555115145
 30
0.0
 10
101.7966677439518
 20
203.1680471796708
 30
0.0
 10
102.0128905405758
 20
202.8955300558549
 30
0.0
 10
102.2668358388052
 20
202.6341486017369
 30
0.0
 10
102.5504306500078
 20
202.3916221427444
 30
0.0
 10
102.8680339213867
 20
202.1639574762264
 30
0.0
 10
103.210343827178
 20
201.9579853518038
 30
0.0
 10
103.5818042455779
 20
201.7705526377717
 30
0.0
 10
103.9727519488778
 20
201.6069072386564
 30
0.0
 10
104.3867795407002
 20
201.4650651198515
 30
0.0
 10
104.8148796333611
 20
201.3485158321545
 30
0.0
 10
105.2589662698542
 20
201.2563056709402
 30
0.0
 10
105.7115611843728
 20
201.1903731576513
 30
0.0
 10
106.1723320654899
 20
201.1503775082043
 30
0.0
 10
106.6359498779043
 20
201.1371485203867
 30
0.0
 10
107.0995670217483
 20
201.1504009182941
 30
0.0
 10
107.5603358826639
 20
201.1904198339874
 30
0.0
 10
108.0129274675708
 20
201.256375200296
 30
0.0
 10
108.4570094470113
 20
201.348607785256
 30
0.0
 10
108.8851036555669
 20
201.4651786908164
 30
0.0
 10
109.299124076527
 20
201.6070417162488
 30
0.0
 10
109.6900635449491
 20
201.770706843672
 30
0.0
 10
110.0615144152273
 20
201.9581583282998
 30
0.0
 10
110.4038142242088
 20
202.1641477334682
 30
0.0
 10
110.721404818415
 20
202.3918285661355
 30
0.0
 10
111.0049916132544
 20
202.6343686212127
 30
0.0
 10
111.258909630183
 20
202.89576501851
 30
0.0
 10
111.4751693490935
 20
203.1682868060508
 30
0.0
 10
111.6572322893247
 20
203.4558269913019
 30
0.0
 10
111.798928916866
 20
203.7509014511346
 30
0.0
 10
111.902745005345
 20
204.0558610080536
 30
0.0
 10
111.9642821151695
 20
204.3647236918642
 30
0.0
 10
111.9857902709318
 20
204.6770667507941
 30
0.0
 10
111.9642663436289
 20
204.9894087232837
 30
0.0
 10
111.9027136380542
 20
205.2982682994192
 30
0.0
 10
111.7988821509646
 20
205.603222613815
 30
0.0
 10
111.6571706240032
 20
205.8982899183806
 30
0.0
 10
111.4750931648409
 20
206.1858209100999
 30
0.0
 10
111.2588196853876
 20
206.4583317773818
 30
0.0
 10
111.0048884697381
 20
206.719715352903
 30
0.0
 10
110.7212894283561
 20
206.9622410881132
 30
0.0
 10
110.40368733793
 20
207.1899058839047
 30
0.0
 10
110.0613771280602
 20
207.3958780045593
 30
0.0
 10
109.6899167931199
 20
207.5833107330506
 30
0.0
 10
109.2989690611568
 20
207.7469561197631
 30
0.0
 10
108.884941476705
 20
207.8887982385883
 30
0.0
 10
108.4568413829844
 20
208.0053475235277
 30
0.0
 10
108.012771355031
 20
208.0975542614759
 30
0.0
 10
107.5602103416824
 20
208.1634833338263
 30
0.0
 10
107.0994738138169
 20
208.2034804576087
 30
0.0
 10
106.6358731736454
 20
208.2167148414159
 30
0.0
 10
106.1722388573448
 20
208.2034678390464
 30
0.0
 10
105.7114356431322
 20
208.1634503965844
 30
0.0
 10
105.2588101570619
 20
208.097491587845
 30
0.0
 10
104.8147115698112
 20
208.0052555787024
 30
0.0
 10
104.3866173604012
 20
207.888684670613
 30
0.0
 10
103.9725969390371
 20
207.7468216443376
 30
0.0
 10
103.5816574741545
 20
207.5831565075452
 30
0.0
 10
103.2102066094654
 20
207.3957050263397
 30
0.0
 10
102.867906782953
 20
207.1897156572245
 30
0.0
 10
102.5503161335107
 20
206.9620348155493
 30
0.0
 10
102.2667295249691
 20
206.7194945331903
 30
0.0
 10
102.0128115201499
 20
206.4580985210989
 30
0.0
 10
101.7965517908963
 20
206.185576723263
 30
0.0
 10
101.6144855841706
 20
205.8980373654935
 30
0.0
 10
101.4728057270899
 20
205.6029625944292
 30
0.0
 10
101.3689660270603
 20
205.2980649255373
 30
0.0
 10
101.31761997464
 20
205.0398567919783
 30
0.0
 10
101.2964859567299
 20
204.8319990154805
 30
0.0
 10
101.2914480749873
 20
204.6768671920214
 30
0.0
 10
101.2960844306904
 20
204.5216391875783
 30
0.0
 10
101.3079057259381
 20
204.4187802488996
 30
0.0
 10
101.3138289284493
 20
204.3672414998825
 30
0.0
 11
101.3138289284493
 21
204.3672414998825
 31
0.0
 11
101.3757190665218
 21
204.0573462994167
 31
0.0
 11
101.4767827426196
 21
203.7581034518508
 31
0.0
 11
101.6202440290963
 21
203.458646790917
 31
0.0
 11
101.7970818307363
 21
203.1779406154221
 31
0.0
 11
102.0173994330045
 21
202.8993957790405
 31
0.0
 11
102.2642134170358
 21
202.6443997303358
 31
0.0
 11
102.5538299805042
 21
202.3958776701517
 31
0.0
 11
102.8635379205246
 21
202.1732455990252
 31
0.0
 11
103.212819826206
 21
201.9623979859716
 31
0.0
 11
103.5767682746825
 21
201.7783392490965
 31
0.0
 11
103.9744689827961
 21
201.6113609525403
 31
0.0
 11
104.3823483507844
 21
201.4713635503109
 31
0.0
 11
104.8159597217245
 21
201.3529638699391
 31
0.0
 11
105.2559747896015
 21
201.2614642248935
 31
0.0
 11
105.7120823562311
 21
201.1948060284971
 31
0.0
 11
106.1712796605446
 21
201.154926633674
 31
0.0
 11
106.6359497760857
 21
201.1415745758597
 31
0.0
 11
107.1006192168302
 21
201.1549500969501
 31
0.0
 11
107.5598145068714
 21
201.1948526785773
 31
0.0
 11
108.0159187070525
 21
201.2615339055459
 31
0.0
 11
108.4559291541475
 21
201.3530557689941
 31
0.0
 11
108.8895345460134
 21
201.4714773454366
 31
0.0
 11
109.2974068443931
 21
201.6114953419645
 31
0.0
 11
109.6950991205198
 21
201.7784937130662
 31
0.0
 11
110.059038274601
 21
201.9625708331883
 31
0.0
 11
110.408309533253
 21
202.1734361196142
 31
0.0
 11
110.7180062311642
 21
202.3960837969656
 31
0.0
 11
111.0076102450586
 21
202.6446202871443
 31
0.0
 11
111.2544113530956
 21
202.8996289657256
 31
0.0
 11
111.4747148913174
 21
203.1781859397747
 31
0.0
 11
111.6515385175863
 21
203.4589001520932
 31
0.0
 11
111.7949846766752
 21
203.7583586959048
 31
0.0
 11
111.8960332483778
 21
204.0576115923981
 31
0.0
 11
111.9579077729048
 21
204.3675392124975
 31
0.0
 11
111.9786628483106
 21
204.6770665712674
 31
0.0
 11
111.9578921435277
 21
204.9865928816274
 31
0.0
 11
111.8960019694649
 21
205.2965173770137
 31
0.0
 11
111.7949382872904
 21
205.5957651707368
 31
0.0
 11
111.6514770073997
 21
205.8952164709361
 31
0.0
 11
111.4746392068556
 21
206.1759217542902
 31
0.0
 11
111.2543216033427
 21
206.4544676038863
 31
0.0
 11
111.0075076191061
 21
206.7094638200691
 31
0.0
 11
110.7178910558752
 21
206.9579856865396
 31
0.0
 11
110.4081831158912
 21
207.1806177256223
 31
0.0
 11
110.0589012101679
 21
207.3914653755654
 31
0.0
 11
109.6949527617023
 21
207.5755241187535
 31
0.0
 11
109.2972520535767
 21
207.7425024081851
 31
0.0
 11
108.8893726854731
 21
207.8824998080227
 31
0.0
 11
108.4557613146569
 21
208.0008994909925
 31
0.0
 11
108.0157462474993
 21
208.0923991438854
 31
0.0
 11
107.5596892182031
 21
208.1590514495378
 31
0.0
 11
107.100543129997
 21
208.1989308298034
 31
0.0
 11
106.6358733554377
 21
208.2122887869217
 31
0.0
 11
106.171203573488
 21
208.1989191651128
 31
0.0
 11
105.711957067266
 21
208.1590165673033
 31
0.0
 11
105.2558023300507
 21
208.0923294473639
 31
0.0
 11
104.815791882234
 21
208.0008075917627
 31
0.0
 11
104.3821864902327
 21
207.8823860179207
 31
0.0
 11
103.9743141919788
 21
207.7423680189988
 31
0.0
 11
103.5766219159271
 21
207.5753696407587
 31
0.0
 11
103.2126827617792
 21
207.3912925269621
 31
0.0
 11
102.8634115028332
 21
207.1804272775007
 31
0.0
 11
102.5537148051773
 21
206.9577795680403
 31
0.0
 11
102.2641107928112
 21
206.709242883754
 31
0.0
 11
102.0173096834529
 21
206.4542343729914
 31
0.0
 11
101.7970061372401
 21
206.1756784142175
 31
0.0
 11
101.6201825180074
 21
205.8949633079436
 31
0.0
 11
101.4767364011971
 21
205.5954993924943
 31
0.0
 11
101.3756964264695
 21
205.2962837399936
 31
0.0
 11
101.3138220016749
 21
204.9864200201381
 31
0.0
 11
101.2982494183016
 21
204.8316597113474
 31
0.0
 11
101.2930581873203
 21
204.6768642349995
 31
0.0
 11
101.29825059515
 21
204.5220353052435
 31
0.0
 11
101.3138289284493
 21
204.3672414998825
 31
0.0
  0
ENDBLK
  5
4F
330
4D
100
AcDbEntity
  8
0
100
AcDbBlockEnd
  0
BLOCK
  5
51
330
50
100
AcDbEntity
  8
0
100
AcDbBlockBegin
  2
36-54-M11
 70
     0
 10
164.9767897876808
 20
125.2922429973317
 30
0.0
  3
36-54-M11
  1

  0
LINE
  5
D7
330
50
100
AcDbEntity
  8
1
  6
Continuous
 62
     7
100
AcDbLine
 10
96.20189512240975
 20
180.7118832851016
 30
0.0
 11
104.5085189853279
 21
180.7118832851016
 31
0.0
  0
LINE
  5
D8
330
50
100
AcDbEntity
  8
1
  6
Continuous
 62
     7
100
AcDbLine
 10
95.60520705386872
 20
215.1415745732865
 30
0.0
 11
95.60520705386872
 21
218.1477239930662
 31
0.0
  0
LINE
  5
D9
330
50
100
AcDbEntity
  8
1
  6
Continuous
 62
     7
100
AcDbLine
 10
223.1052070538688
 20
215.1415745732865
 30
0.0
 11
223.1052070538688
 21
218.2118832851018
 31
0.0
  0
LINE
  5
DA
330
50
100
AcDbEntity
  8
1
  6
Continuous
 62
     7
100
AcDbLine
 10
105.1052070538688
 20
218.2118832851018
 30
0.0
 11
105.1052070538688
 21
215.1415745732865
 31
0.0
  0
LINE
  5
DB
330
50
100
AcDbEntity
  8
1
  6
Continuous
 62
     7
100
AcDbLine
 10
232.6052070538688
 20
218.2118832851018
 30
0.0
 11
232.6052070538688
 21
215.1415745732865
 31
0.0
  0
ENDBLK
  5
52
330
50
100
AcDbEntity
  8
0
100
AcDbBlockEnd
  0
BLOCK
  5
54
330
53
100
AcDbEntity
  8
0
100
AcDbBlockBegin
  2
21-1D-M1
 70
     0
 10
960.7045622872013
 20
104.2064304804839
 30
0.0
  3
21-1D-M1
  1

  0
LINE
  5
DC
330
53
100
AcDbEntity
  8
1
  6
Continuous
 62
     7
100
AcDbLine
 10
223.8552070538702
 20
229.2118832851019
 30
0.0
 11
231.855207053869
 21
229.2118832851019
 31
0.0
  0
LINE
  5
DD
330
53
100
AcDbEntity
  8
1
  6
Continuous
 62
     7
100
AcDbLine
 10
197.3871653221011
 20
221.9969630404524
 30
0.0
 11
196.9352572231085
 21
218.7814698355818
 31
0.0
  0
LINE
  5
DE
330
53
100
AcDbEntity
  8
1
  6
Continuous
 62
     7
100
AcDbLine
 10
245.6578929082203
 20
223.1709598908454
 30
0.0
 11
246.2751104022276
 21
218.7815052178144
 31
0.0
  0
LINE
  5
DF
330
53
100
AcDbEntity
  8
1
  6
Continuous
 62
     7
100
AcDbLine
 10
245.7799813417945
 20
218.2118832851018
 30
0.0
 11
197.4303912574793
 21
218.2118832851018
 31
0.0
  0
LINE
  5
E0
330
53
100
AcDbEntity
  8
0
  6
Continuous
 62
     7
100
AcDbLine
 10
72.70457195925786
 20
218.2118832851018
 30
0.0
 11
94.55965209613447
 21
218.2118832851018
 31
0.0
  0
LINE
  5
E1
330
53
100
AcDbEntity
  8
0
  6
Continuous
 62
     7
100
AcDbLine
 10
106.1507620116033
 20
218.2118832851018
 30
0.0
 11
128.0058421484798
 21
218.2118832851018
 31
0.0
  0
LINE
  5
E2
330
53
100
AcDbEntity
  8
0
  6
Continuous
 62
     7
100
AcDbLine
 10
94.55965209613447
 20
218.2118832851018
 30
0.0
 11
106.1507620116033
 21
218.2118832851018
 31
0.0
  0
LINE
  5
E3
330
53
100
AcDbEntity
  8
1
  6
Continuous
 62
     7
100
AcDbLine
 10
94.55965209613407
 20
269.1589690144863
 30
0.0
 11
90.9082428846636
 21
282.7862137109191
 31
0.0
  0
LINE
  5
E4
330
53
100
AcDbEntity
  8
1
  6
Continuous
 62
     7
100
AcDbLine
 10
74.4619312721382
 20
303.9692425979822
 30
0.0
 11
84.43776675710058
 21
293.9934071130198
 31
0.0
  0
LINE
  5
E5
330
53
100
AcDbEntity
  8
1
  6
Continuous
 62
     7
100
AcDbLine
 10
80.25748622987271
 20
314.0074382428358
 30
0.0
 11
93.88473092630551
 21
310.3560290313653
 31
0.0
  0
LINE
  5
E6
330
53
100
AcDbEntity
  8
1
  6
Continuous
 62
     7
100
AcDbLine
 10
121.2134327804848
 20
314.2112149173329
 30
0.0
 11
106.8256831814315
 21
310.3560290313653
 31
0.0
  0
LINE
  5
E7
330
53
100
AcDbEntity
  8
1
  6
Continuous
 62
     7
100
AcDbLine
 10
126.2484828355987
 20
303.9692425979822
 30
0.0
 11
116.2726473506364
 21
293.9934071130198
 31
0.0
  0
LINE
  5
E8
330
53
100
AcDbEntity
  8
1
  6
Continuous
 62
     7
100
AcDbLine
 10
106.1507620116028
 20
269.1589690144863
 30
0.0
 11
109.8021712230734
 21
282.7862137109191
 31
0.0
  0
ARC
  5
E9
330
53
100
AcDbEntity
  8
1
  6
Continuous
 62
     7
100
AcDbCircle
 10
227.855207053869
 20
79.21188328510186
 30
0.0
 40
150.0533238552216
100
AcDbArc
 50
91.52752544221293
 51
99.80290179376773
  0
ARC
  5
EA
330
53
100
AcDbEntity
  8
1
  6
Continuous
 62
     7
100
AcDbCircle
 10
228.2194027191155
 20
154.3000622764026
 30
0.0
 40
75.00000000000004
100
AcDbArc
 50
80.40850751733474
 51
87.22136103403723
  0
ARC
  5
EB
330
53
100
AcDbEntity
  8
1
  6
Continuous
 62
     7
100
AcDbCircle
 10
100.3552070538685
 20
270.7118832851015
 30
0.0
 40
6.000000000000046
100
AcDbArc
 50
195.0000000000011
 51
269.999999999999
  0
ARC
  5
EC
330
53
100
AcDbEntity
  8
1
  6
Continuous
 62
     7
100
AcDbCircle
 10
78.70457195925752
 20
308.2118832851015
 30
0.0
 40
5.999999999999894
100
AcDbArc
 50
74.99999999999909
 51
225.0
  0
ARC
  5
ED
330
53
100
AcDbEntity
  8
1
  6
Continuous
 62
     7
100
AcDbCircle
 10
122.0058421484794
 20
308.2118832851015
 30
0.0
 40
6.000000000000028
100
AcDbArc
 50
314.9999999999998
 51
97.5242410789406
  0
ARC
  5
EE
330
53
100
AcDbEntity
  8
1
  6
Continuous
 62
     7
100
AcDbCircle
 10
100.3552070538685
 20
270.7118832851015
 30
0.0
 40
6.0
100
AcDbArc
 50
269.999999999999
 51
344.9999999999986
  0
SPLINE
  5
EF
330
53
100
AcDbEntity
  8
0
  6
Continuous
 62
     7
100
AcDbSpline
210
0.0
220
0.0
230
1.0
 70
     8
 71
     3
 72
    27
 73
    23
 74
    21
 42
0.000000001
 43
0.0000000001
 44
0.00000001
 40
0.0
 40
0.0
 40
0.0
 40
0.0
 40
4.618703476093671
 40
9.23116890402696
 40
14.16779432066427
 40
19.11374070271292
 40
19.52821633187679
 40
19.94144217534836
 40
20.35867862566402
 40
20.77691959977452
 40
21.19949484179297
 40
21.62164873037809
 40
22.04927937800883
 40
22.47707342564172
 40
23.01006104395798
 40
23.5433103779787
 40
23.88091938438416
 40
24.21795786693041
 40
24.65811334484682
 40
25.0993176530699
 40
27.47512395611199
 40
29.84763482454802
 40
29.84763482454802
 40
29.84763482454802
 40
29.84763482454802
 10
96.35520705386887
 20
229.2118832851018
 30
0.0
 10
94.81647608446931
 20
229.1613361187891
 30
0.0
 10
91.74109236497443
 20
229.0603100508309
 30
0.0
 10
87.02680296384762
 20
228.7411414043495
 30
0.0
 10
82.23777620190158
 20
228.0673797697926
 30
0.0
 10
78.8767780494614
 20
227.3583735263853
 30
0.0
 10
77.00794646063238
 20
226.8986134182329
 30
0.0
 10
76.6110792308518
 20
226.7752158387148
 30
0.0
 10
76.22980907587045
 20
226.6059255082535
 30
0.0
 10
75.8648375549583
 20
226.3983347683065
 30
0.0
 10
75.51734532243069
 20
226.1597808714946
 30
0.0
 10
75.18942500729983
 20
225.8899371072827
 30
0.0
 10
74.88568294005356
 20
225.5906320391913
 30
0.0
 10
74.58543934643751
 20
225.2376899338668
 30
0.0
 10
74.30056863872038
 20
224.8280503131086
 30
0.0
 10
74.0734512878498
 20
224.4180081232347
 30
0.0
 10
73.90664017448952
 20
224.051295232277
 30
0.0
 10
73.77684907500742
 20
223.7026639049082
 30
0.0
 10
73.67093466612693
 20
223.3100468119958
 30
0.0
 10
73.44636758569239
 20
222.24778998816
 30
0.0
 10
73.11870125889888
 20
220.5490823547341
 30
0.0
 10
72.84255117026963
 20
218.9905890997414
 30
0.0
 10
72.70457195925786
 20
218.2118832851018
 30
0.0
 11
96.35520705386887
 21
229.2118832851018
 31
0.0
 11
91.73995067921811
 21
229.0334727747754
 31
0.0
 11
87.13991544630647
 21
228.6950747960682
 31
0.0
 11
82.25068695780419
 21
228.0126413990455
 31
0.0
 11
77.41010525717695
 21
226.9971836331495
 31
0.0
 11
77.00855855393166
 21
226.8944690161426
 31
0.0
 11
76.61512365683438
 21
226.7681179982475
 31
0.0
 11
76.23328808940943
 21
226.5999280603653
 31
0.0
 11
75.86920922393278
 21
226.3940832342737
 31
0.0
 11
75.52091033635527
 21
226.1547973793297
 31
0.0
 11
75.19502619106515
 21
225.8864441982609
 31
0.0
 11
74.89031764603702
 21
225.5864097441155
 31
0.0
 11
74.61305926853186
 21
225.2606252454405
 31
0.0
 11
74.30831573297426
 21
224.8233528140807
 31
0.0
 11
74.04953278367543
 21
224.3571058433042
 31
0.0
 11
73.91022336331508
 21
224.0495790530317
 31
0.0
 11
73.79316561439452
 21
223.7335214281614
 31
0.0
 11
73.67497892985122
 21
223.3095299749007
 31
0.0
 11
73.58015093658514
 21
222.878636840439
 31
0.0
 11
73.12441604120272
 21
220.5469504774353
 31
0.0
 11
72.70457195925786
 21
218.2118832851018
 31
0.0
  0
SPLINE
  5
F0
330
53
100
AcDbEntity
  8
0
  6
Continuous
 62
     7
100
AcDbSpline
210
0.0
220
0.0
230
1.0
 70
     8
 71
     3
 72
    27
 73
    23
 74
    21
 42
0.000000001
 43
0.0000000001
 44
0.00000001
 40
0.0
 40
0.0
 40
0.0
 40
0.0
 40
4.618703476093642
 40
9.231168904026877
 40
14.16779432066424
 40
19.1137407027129
 40
19.52821633187678
 40
19.94144217534837
 40
20.35867862566404
 40
20.77691959977454
 40
21.19949484179298
 40
21.62164873037808
 40
22.04927937800881
 40
22.47707342564171
 40
23.01006104395798
 40
23.54331037797868
 40
23.88091938438414
 40
24.21795786693039
 40
24.6581133448468
 40
25.09931765306988
 40
27.47512395611198
 40
29.84763482454799
 40
29.84763482454799
 40
29.84763482454799
 40
29.84763482454799
 10
104.3552070538689
 20
229.2118832851018
 30
0.0
 10
105.8939380232685
 20
229.1613361187891
 30
0.0
 10
108.9693217427634
 20
229.0603100508309
 30
0.0
 10
113.68361114389
 20
228.7411414043495
 30
0.0
 10
118.4726379058362
 20
228.0673797697926
 30
0.0
 10
121.8336360582764
 20
227.3583735263851
 30
0.0
 10
123.7024676471054
 20
226.8986134182329
 30
0.0
 10
124.099334876886
 20
226.7752158387147
 30
0.0
 10
124.4806050318673
 20
226.6059255082534
 30
0.0
 10
124.8455765527795
 20
226.3983347683066
 30
0.0
 10
125.1930687853071
 20
226.1597808714945
 30
0.0
 10
125.5209891004379
 20
225.8899371072828
 30
0.0
 10
125.8247311676842
 20
225.5906320391914
 30
0.0
 10
126.1249747613002
 20
225.2376899338667
 30
0.0
 10
126.4098454690174
 20
224.8280503131086
 30
0.0
 10
126.6369628198879
 20
224.4180081232347
 30
0.0
 10
126.8037739332482
 20
224.051295232277
 30
0.0
 10
126.9335650327303
 20
223.7026639049082
 30
0.0
 10
127.0394794416108
 20
223.3100468119957
 30
0.0
 10
127.2640465220453
 20
222.2477899881601
 30
0.0
 10
127.5917128488389
 20
220.549082354734
 30
0.0
 10
127.8678629374681
 20
218.9905890997416
 30
0.0
 10
128.0058421484798
 20
218.2118832851018
 30
0.0
 11
104.3552070538689
 21
229.2118832851018
 31
0.0
 11
108.9704634285196
 21
229.0334727747754
 31
0.0
 11
113.5704986614312
 21
228.6950747960682
 31
0.0
 11
118.4597271499335
 21
228.0126413990454
 31
0.0
 11
123.3003088505608
 21
226.9971836331495
 31
0.0
 11
123.7018555538061
 21
226.8944690161426
 31
0.0
 11
124.0952904509034
 21
226.7681179982475
 31
0.0
 11
124.4771260183284
 21
226.5999280603653
 31
0.0
 11
124.841204883805
 21
226.3940832342737
 31
0.0
 11
125.1895037713825
 21
226.1547973793297
 31
0.0
 11
125.5153879166726
 21
225.8864441982609
 31
0.0
 11
125.8200964617007
 21
225.5864097441155
 31
0.0
 11
126.0973548392059
 21
225.2606252454405
 31
0.0
 11
126.4020983747635
 21
224.8233528140807
 31
0.0
 11
126.6608813240623
 21
224.3571058433042
 31
0.0
 11
126.8001907444226
 21
224.0495790530317
 31
0.0
 11
126.9172484933432
 21
223.7335214281614
 31
0.0
 11
127.0354351778865
 21
223.3095299749007
 31
0.0
 11
127.1302631711526
 21
222.878636840439
 31
0.0
 11
127.585998066535
 21
220.5469504774353
 31
0.0
 11
128.0058421484798
 21
218.2118832851018
 31
0.0
  0
ARC
  5
F1
330
53
100
AcDbEntity
  8
1
  6
Continuous
 62
     7
100
AcDbCircle
 10
203.3287737345505
 20
221.1619244346919
 30
0.0
 40
6.000000000000186
100
AcDbArc
 50
99.80290179376587
 51
171.9999999999989
  0
ARC
  5
F2
330
53
100
AcDbEntity
  8
1
  6
Continuous
 62
     7
100
AcDbCircle
 10
239.7163441830231
 20
222.335496698294
 30
0.0
 40
6.000000000000063
100
AcDbArc
 50
8.00409437170091
 51
80.40850751733541
  0
ARC
  5
F3
330
53
100
AcDbEntity
  8
1
  6
Continuous
 62
     7
100
AcDbCircle
 10
197.4303912574793
 20
218.7118832851018
 30
0.0
 40
0.5000000000000144
100
AcDbArc
 50
172.0000000000061
 51
270.0
  0
ARC
  5
F4
330
53
100
AcDbEntity
  8
1
  6
Continuous
 62
     7
100
AcDbCircle
 10
245.7799813417945
 20
218.7118832851018
 30
0.0
 40
0.5
100
AcDbArc
 50
270.0
 51
8.00409437169984
  0
ARC
  5
F5
330
53
100
AcDbEntity
  8
1
  6
Continuous
 62
     7
100
AcDbCircle
 10
66.76009722743692
 20
276.3157375833561
 30
0.0
 40
24.99999999999997
100
AcDbArc
 50
15.00000000000001
 51
45.0000000000001
  0
ARC
  5
F6
330
53
100
AcDbEntity
  8
1
  6
Continuous
 62
     7
100
AcDbCircle
 10
100.3552070538684
 20
334.5041746885921
 30
0.0
 40
25.00000000000005
100
AcDbArc
 50
255.0000000000003
 51
285.0000000000002
  0
ARC
  5
F7
330
53
100
AcDbEntity
  8
1
  6
Continuous
 62
     7
100
AcDbCircle
 10
133.9503168803001
 20
276.3157375833561
 30
0.0
 40
25.00000000000003
100
AcDbArc
 50
135.0
 51
165.0
  0
ENDBLK
  5
55
330
53
100
AcDbEntity
  8
0
100
AcDbBlockEnd
  0
BLOCK
  5
5C
330
56
100
AcDbEntity
  8
0
100
AcDbBlockBegin
  2
R10AK-13-B
 70
     0
 10
72.70457195925748
 20
158.1673333757993
 30
0.0
  3
R10AK-13-B
  1

  0
INSERT
  5
57
330
56
100
AcDbEntity
  8
0
100
AcDbBlockReference
  2
91-1
 10
500.6019908200762
 20
-63.82366676874992
 30
0.0
  0
INSERT
  5
58
330
56
100
AcDbEntity
  8
1
100
AcDbBlockReference
  2
42-1
 10
338.160645891137
 20
180.6893143061234
 30
0.0
  0
INSERT
  5
59
330
56
100
AcDbEntity
  8
1
100
AcDbBlockReference
  2
37-1-13
 10
421.2237197993121
 20
173.7979241782513
 30
0.0
  0
INSERT
  5
5A
330
56
100
AcDbEntity
  8
1
100
AcDbBlockReference
  2
36-54-M11
 10
164.9767897876808
 20
125.2922429973317
 30
0.0
  0
INSERT
  5
5B
330
56
100
AcDbEntity
  8
0
100
AcDbBlockReference
  2
21-1D-M1
 10
960.7045622872013
 20
104.2064304804839
 30
0.0
  0
LINE
  5
F8
330
56
100
AcDbEntity
  8
1
  6
PHANTOM
 62
     4
100
AcDbLine
 10
227.8552070538688
 20
158.1673333757993
 30
0.0
 11
227.8552070538688
 21
237.711883285102
 31
0.0
  0
ENDBLK
  5
5D
330
56
100
AcDbEntity
  8
0
100
AcDbBlockEnd
  0
BLOCK
  5
5F
330
5E
100
AcDbEntity
  8
0
100
AcDbBlockBegin
  2
V20-0A-13-M11
 70
     0
 10
172.5552070538688
 20
130.3972476917058
 30
0.0
  3
V20-0A-13-M11
  1

  0
LINE
  5
F9
330
5E
100
AcDbEntity
  8
1
  6
Continuous
 62
     2
100
AcDbLine
 10
195.8552070538688
 20
185.0498832851015
 30
0.0
 11
197.0172070538688
 21
185.0498832851015
 31
0.0
  0
LINE
  5
FA
330
5E
100
AcDbEntity
  8
1
  6
Continuous
 62
     2
100
AcDbLine
 10
197.0172070538688
 20
185.0498832851015
 30
0.0
 11
204.8552070538688
 21
185.0498832851015
 31
0.0
  0
LINE
  5
FB
330
5E
100
AcDbEntity
  8
1
  6
Continuous
 62
     2
100
AcDbLine
 10
204.8552070538688
 20
185.0498832851015
 30
0.0
 11
206.8678500922638
 21
186.2118832851016
 31
0.0
  0
LINE
  5
FC
330
5E
100
AcDbEntity
  8
1
  6
Continuous
 62
     7
100
AcDbLine
 10
209.8552070538688
 20
186.2118832851016
 30
0.0
 11
206.8678500922638
 21
186.2118832851016
 31
0.0
  0
LINE
  5
FD
330
5E
100
AcDbEntity
  8
1
  6
Continuous
 62
     7
100
AcDbLine
 10
215.8552070538688
 20
198.3037259785481
 30
0.0
 11
215.8552070538688
 21
192.2118832851016
 31
0.0
  0
LINE
  5
FE
330
5E
100
AcDbEntity
  8
1
  6
Continuous
 62
     2
100
AcDbLine
 10
216.6682070538688
 20
199.7118832851016
 30
0.0
 11
215.8552070538688
 21
198.3037259785481
 31
0.0
  0
LINE
  5
FF
330
5E
100
AcDbEntity
  8
1
  6
Continuous
 62
     2
100
AcDbLine
 10
216.6682070538688
 20
199.7118832851016
 30
0.0
 11
216.6682070538688
 21
201.142450020063
 31
0.0
  0
LINE
  5
100
330
5E
100
AcDbEntity
  8
1
  6
Continuous
 62
     2
100
AcDbLine
 10
239.8552070538688
 20
198.3037259785481
 30
0.0
 11
239.0422070538688
 21
199.7118832851016
 31
0.0
  0
LINE
  5
101
330
5E
100
AcDbEntity
  8
1
  6
Continuous
 62
     7
100
AcDbLine
 10
239.8552070538688
 20
192.2118832851016
 30
0.0
 11
239.8552070538688
 21
198.3037259785481
 31
0.0
  0
LINE
  5
102
330
5E
100
AcDbEntity
  8
1
  6
Continuous
 62
     7
100
AcDbLine
 10
248.8425640154737
 20
186.2118832851016
 30
0.0
 11
245.8552070538688
 21
186.2118832851016
 31
0.0
  0
LINE
  5
103
330
5E
100
AcDbEntity
  8
1
  6
Continuous
 62
     2
100
AcDbLine
 10
248.8425640154737
 20
186.2118832851016
 30
0.0
 11
250.8552070538688
 21
185.0498832851015
 31
0.0
  0
LINE
  5
104
330
5E
100
AcDbEntity
  8
1
  6
Continuous
 62
     2
100
AcDbLine
 10
250.8552070538688
 20
185.0498832851015
 30
0.0
 11
258.6932070538688
 21
185.0498832851015
 31
0.0
  0
LINE
  5
105
330
5E
100
AcDbEntity
  8
1
  6
Continuous
 62
     2
100
AcDbLine
 10
258.6932070538688
 20
185.0498832851015
 30
0.0
 11
259.8552070538688
 21
185.0498832851015
 31
0.0
  0
LINE
  5
106
330
5E
100
AcDbEntity
  8
1
  6
Continuous
 62
     2
100
AcDbLine
 10
250.8552070538688
 20
166.3738832851016
 30
0.0
 11
259.8552070538688
 21
166.3738832851016
 31
0.0
  0
LINE
  5
107
330
5E
100
AcDbEntity
  8
1
  6
Continuous
 62
     2
100
AcDbLine
 10
250.8552070538688
 20
166.3738832851016
 30
0.0
 11
248.8425640154737
 21
165.2118832851016
 31
0.0
  0
LINE
  5
108
330
5E
100
AcDbEntity
  8
1
  6
Continuous
 62
     7
100
AcDbLine
 10
248.8425640154737
 20
165.2118832851016
 30
0.0
 11
247.4864564229646
 21
165.2118832851016
 31
0.0
  0
LINE
  5
109
330
5E
100
AcDbEntity
  8
1
  6
Continuous
 62
     7
100
AcDbLine
 10
206.8678500922638
 20
165.2118832851016
 30
0.0
 11
208.223957684773
 21
165.2118832851016
 31
0.0
  0
LINE
  5
10A
330
5E
100
AcDbEntity
  8
1
  6
Continuous
 62
     2
100
AcDbLine
 10
206.8678500922638
 20
165.2118832851016
 30
0.0
 11
204.8552070538688
 21
166.3738832851016
 31
0.0
  0
LINE
  5
10B
330
5E
100
AcDbEntity
  8
1
  6
Continuous
 62
     7
100
AcDbLine
 10
195.8552070538688
 20
166.3738832851016
 30
0.0
 11
195.8552070538688
 21
169.2118832851016
 31
0.0
  0
LINE
  5
10C
330
5E
100
AcDbEntity
  8
1
  6
Continuous
 62
     7
100
AcDbLine
 10
259.8552070538688
 20
169.2118832851016
 30
0.0
 11
259.8552070538688
 21
166.3738832851016
 31
0.0
  0
LINE
  5
10D
330
5E
100
AcDbEntity
  8
1
  6
Continuous
 62
     7
100
AcDbLine
 10
259.8552070538688
 20
185.0498832851015
 30
0.0
 11
259.8552070538688
 21
169.2118832851016
 31
0.0
  0
LINE
  5
10E
330
5E
100
AcDbEntity
  8
1
  6
Continuous
 62
     7
100
AcDbLine
 10
248.8425640154737
 20
165.2118832851016
 30
0.0
 11
250.8552070538688
 21
165.2118832851016
 31
0.0
  0
LINE
  5
10F
330
5E
100
AcDbEntity
  8
1
  6
Continuous
 62
     7
100
AcDbLine
 10
258.6932070538688
 20
166.3738832851016
 30
0.0
 11
258.6932070538688
 21
165.2118832851016
 31
0.0
  0
LINE
  5
110
330
5E
100
AcDbEntity
  8
1
  6
Continuous
 62
     7
100
AcDbLine
 10
258.6932070538688
 20
166.3738832851016
 30
0.0
 11
258.6932070538688
 21
186.2118832851016
 31
0.0
  0
LINE
  5
111
330
5E
100
AcDbEntity
  8
1
  6
Continuous
 62
     7
100
AcDbLine
 10
250.8552070538688
 20
186.2118832851016
 30
0.0
 11
258.6932070538688
 21
186.2118832851016
 31
0.0
  0
LINE
  5
112
330
5E
100
AcDbEntity
  8
1
  6
Continuous
 62
     7
100
AcDbLine
 10
258.6932070538688
 20
186.2118832851016
 30
0.0
 11
259.8552070538688
 21
185.0498832851015
 31
0.0
  0
LINE
  5
113
330
5E
100
AcDbEntity
  8
1
  6
Continuous
 62
     7
100
AcDbLine
 10
250.8552070538688
 20
165.2118832851016
 30
0.0
 11
258.6932070538688
 21
165.2118832851016
 31
0.0
  0
LINE
  5
114
330
5E
100
AcDbEntity
  8
1
  6
Continuous
 62
     7
100
AcDbLine
 10
258.6932070538688
 20
165.2118832851016
 30
0.0
 11
259.8552070538688
 21
166.3738832851016
 31
0.0
  0
LINE
  5
115
330
5E
100
AcDbEntity
  8
1
  6
Continuous
 62
     7
100
AcDbLine
 10
239.8552070538688
 20
199.7118832851016
 30
0.0
 11
239.8552070538688
 21
201.1415745732865
 31
0.0
  0
LINE
  5
116
330
5E
100
AcDbEntity
  8
1
  6
Continuous
 62
     7
100
AcDbLine
 10
239.0422070538688
 20
199.7118832851016
 30
0.0
 11
239.8552070538688
 21
199.7118832851016
 31
0.0
  0
LINE
  5
117
330
5E
100
AcDbEntity
  8
1
  6
Continuous
 62
     7
100
AcDbLine
 10
239.8552070538688
 20
198.3037259785481
 30
0.0
 11
239.8552070538688
 21
199.7118832851016
 31
0.0
  0
LINE
  5
118
330
5E
100
AcDbEntity
  8
1
  6
Continuous
 62
     7
100
AcDbLine
 10
250.8552070538688
 20
186.2118832851016
 30
0.0
 11
250.8552070538688
 21
166.3738832851016
 31
0.0
  0
LINE
  5
119
330
5E
100
AcDbEntity
  8
1
  6
Continuous
 62
     7
100
AcDbLine
 10
248.8425640154737
 20
186.2118832851016
 30
0.0
 11
250.8552070538688
 21
186.2118832851016
 31
0.0
  0
LINE
  5
11A
330
5E
100
AcDbEntity
  8
1
  6
Continuous
 62
     7
100
AcDbLine
 10
250.8552070538688
 20
166.3738832851016
 30
0.0
 11
250.8552070538688
 21
165.2118832851016
 31
0.0
  0
LINE
  5
11B
330
5E
100
AcDbEntity
  8
1
  6
Continuous
 62
     2
100
AcDbLine
 10
204.8552070538688
 20
166.3738832851016
 30
0.0
 11
195.8552070538688
 21
166.3738832851016
 31
0.0
  0
LINE
  5
11C
330
5E
100
AcDbEntity
  8
1
  6
Continuous
 62
     7
100
AcDbLine
 10
204.8552070538688
 20
165.2118832851016
 30
0.0
 11
204.8552070538688
 21
166.3738832851016
 31
0.0
  0
LINE
  5
11D
330
5E
100
AcDbEntity
  8
1
  6
Continuous
 62
     7
100
AcDbLine
 10
204.8552070538688
 20
186.2118832851016
 30
0.0
 11
206.8678500922638
 21
186.2118832851016
 31
0.0
  0
LINE
  5
11E
330
5E
100
AcDbEntity
  8
1
  6
Continuous
 62
     7
100
AcDbLine
 10
204.8552070538688
 20
166.3738832851016
 30
0.0
 11
204.8552070538688
 21
186.2118832851016
 31
0.0
  0
LINE
  5
11F
330
5E
100
AcDbEntity
  8
1
  6
Continuous
 62
     7
100
AcDbLine
 10
215.8552070538688
 20
199.7118832851016
 30
0.0
 11
215.8552070538688
 21
198.3037259785481
 31
0.0
  0
LINE
  5
120
330
5E
100
AcDbEntity
  8
1
  6
Continuous
 62
     7
100
AcDbLine
 10
215.8552070538688
 20
199.7118832851016
 30
0.0
 11
239.0422070538688
 21
199.7118832851016
 31
0.0
  0
LINE
  5
121
330
5E
100
AcDbEntity
  8
1
  6
Continuous
 62
     7
100
AcDbLine
 10
195.8552070538688
 20
166.3738832851016
 30
0.0
 11
197.0172070538688
 21
165.2118832851016
 31
0.0
  0
LINE
  5
122
330
5E
100
AcDbEntity
  8
1
  6
Continuous
 62
     7
100
AcDbLine
 10
197.0172070538688
 20
165.2118832851016
 30
0.0
 11
204.8552070538688
 21
165.2118832851016
 31
0.0
  0
LINE
  5
123
330
5E
100
AcDbEntity
  8
1
  6
Continuous
 62
     7
100
AcDbLine
 10
195.8552070538688
 20
185.0498832851015
 30
0.0
 11
197.0172070538688
 21
186.2118832851016
 31
0.0
  0
LINE
  5
124
330
5E
100
AcDbEntity
  8
1
  6
Continuous
 62
     7
100
AcDbLine
 10
197.0172070538688
 20
186.2118832851016
 30
0.0
 11
204.8552070538688
 21
186.2118832851016
 31
0.0
  0
LINE
  5
125
330
5E
100
AcDbEntity
  8
1
  6
Continuous
 62
     7
100
AcDbLine
 10
197.0172070538688
 20
186.2118832851016
 30
0.0
 11
197.0172070538688
 21
185.0498832851015
 31
0.0
  0
LINE
  5
126
330
5E
100
AcDbEntity
  8
1
  6
Continuous
 62
     7
100
AcDbLine
 10
197.0172070538688
 20
165.2118832851016
 30
0.0
 11
197.0172070538688
 21
185.0498832851015
 31
0.0
  0
LINE
  5
127
330
5E
100
AcDbEntity
  8
1
  6
Continuous
 62
     7
100
AcDbLine
 10
204.8552070538688
 20
165.2118832851016
 30
0.0
 11
206.8678500922638
 21
165.2118832851016
 31
0.0
  0
LINE
  5
128
330
5E
100
AcDbEntity
  8
1
  6
Continuous
 62
     7
100
AcDbLine
 10
195.8552070538688
 20
169.2118832851016
 30
0.0
 11
195.8552070538688
 21
185.0498832851015
 31
0.0
  0
LINE
  5
129
330
5E
100
AcDbEntity
  8
1
  6
Continuous
 62
     7
100
AcDbLine
 10
112.3552070538688
 20
199.7118832851016
 30
0.0
 11
88.35520705386884
 21
199.7118832851016
 31
0.0
  0
LINE
  5
12A
330
5E
100
AcDbEntity
  8
1
  6
Continuous
 62
     2
100
AcDbLine
 10
112.3552070538688
 20
198.3037259785481
 30
0.0
 11
111.5422070538688
 21
199.7118832851016
 31
0.0
  0
LINE
  5
12B
330
5E
100
AcDbEntity
  8
1
  6
Continuous
 62
     2
100
AcDbLine
 10
89.16820705386883
 20
199.7118832851016
 30
0.0
 11
88.35520705386884
 21
198.3037259785481
 31
0.0
  0
LINE
  5
12C
330
5E
100
AcDbEntity
  8
1
  6
Continuous
 62
     2
100
AcDbLine
 10
89.16820705386883
 20
199.7118832851016
 30
0.0
 11
89.16820705386883
 21
201.1415745732865
 31
0.0
  0
LINE
  5
12D
330
5E
100
AcDbEntity
  8
1
  6
Continuous
 62
     2
100
AcDbLine
 10
111.5422070538688
 20
199.7118832851016
 30
0.0
 11
111.5422070538688
 21
201.1415745732865
 31
0.0
  0
LINE
  5
12E
330
5E
100
AcDbEntity
  8
1
  6
Continuous
 62
     7
100
AcDbLine
 10
112.3552070538688
 20
198.3037259785481
 30
0.0
 11
113.3421564930742
 21
176.2942442243158
 31
0.0
  0
LINE
  5
12F
330
5E
100
AcDbEntity
  8
1
  6
Continuous
 62
     7
100
AcDbLine
 10
88.35520705386884
 20
198.3037259785481
 30
0.0
 11
87.36825761466343
 21
176.2942442243158
 31
0.0
  0
LINE
  5
130
330
5E
100
AcDbEntity
  8
1
  6
Continuous
 62
     7
100
AcDbLine
 10
112.3552070538688
 20
201.1415745732865
 30
0.0
 11
112.3552070538688
 21
198.3037259785481
 31
0.0
  0
LINE
  5
131
330
5E
100
AcDbEntity
  8
1
  6
Continuous
 62
     7
100
AcDbLine
 10
88.35520705386884
 20
201.1415745732865
 30
0.0
 11
88.35520705386884
 21
198.3037259785481
 31
0.0
  0
LINE
  5
132
330
5E
100
AcDbEntity
  8
1
  6
Continuous
 62
     7
100
AcDbLine
 10
94.58892575653343
 20
178.7118832851016
 30
0.0
 11
106.1214883512042
 21
178.7118832851016
 31
0.0
  0
LINE
  5
133
330
5E
100
AcDbEntity
  8
1
  6
Continuous
 62
     2
100
AcDbLine
 10
239.0422070538688
 20
201.1424500200719
 30
0.0
 11
239.0422070538688
 21
199.7118832851016
 31
0.0
  0
LINE
  5
134
330
5E
100
AcDbEntity
  8
1
  6
Continuous
 62
     7
100
AcDbLine
 10
215.8552070538688
 20
201.1415745732865
 30
0.0
 11
215.8552070538688
 21
199.7118832851016
 31
0.0
  0
LINE
  5
135
330
5E
100
AcDbEntity
  8
1
  6
Continuous
 62
     2
100
AcDbLine
 10
91.0172070538685
 20
263.711883285101
 30
0.0
 11
91.0172070538685
 21
264.8738832851009
 31
0.0
  0
LINE
  5
136
330
5E
100
AcDbEntity
  8
1
  6
Continuous
 62
     2
100
AcDbLine
 10
91.0172070538685
 20
264.8738832851009
 30
0.0
 11
91.0172070538685
 21
272.711883285101
 31
0.0
  0
LINE
  5
137
330
5E
100
AcDbEntity
  8
1
  6
Continuous
 62
     2
100
AcDbLine
 10
91.0172070538685
 20
272.711883285101
 30
0.0
 11
89.85520705386861
 21
274.724526323496
 31
0.0
  0
LINE
  5
138
330
5E
100
AcDbEntity
  8
1
  6
Continuous
 62
     7
100
AcDbLine
 10
89.85520705386861
 20
316.6992402467059
 30
0.0
 11
89.85520705386861
 21
315.3431326541968
 31
0.0
  0
LINE
  5
139
330
5E
100
AcDbEntity
  8
1
  6
Continuous
 62
     2
100
AcDbLine
 10
89.85520705386861
 20
316.6992402467059
 30
0.0
 11
91.0172070538685
 21
318.711883285101
 31
0.0
  0
LINE
  5
13A
330
5E
100
AcDbEntity
  8
1
  6
Continuous
 62
     2
100
AcDbLine
 10
91.0172070538685
 20
318.711883285101
 30
0.0
 11
91.0172070538685
 21
326.5498832851009
 31
0.0
  0
LINE
  5
13B
330
5E
100
AcDbEntity
  8
1
  6
Continuous
 62
     2
100
AcDbLine
 10
91.0172070538685
 20
326.5498832851009
 30
0.0
 11
91.0172070538685
 21
327.711883285101
 31
0.0
  0
LINE
  5
13C
330
5E
100
AcDbEntity
  8
1
  6
Continuous
 62
     2
100
AcDbLine
 10
109.6932070538685
 20
318.711883285101
 30
0.0
 11
109.6932070538685
 21
327.711883285101
 31
0.0
  0
LINE
  5
13D
330
5E
100
AcDbEntity
  8
1
  6
Continuous
 62
     2
100
AcDbLine
 10
109.6932070538685
 20
318.711883285101
 30
0.0
 11
110.8552070538686
 21
316.6992402467059
 31
0.0
  0
LINE
  5
13E
330
5E
100
AcDbEntity
  8
1
  6
Continuous
 62
     7
100
AcDbLine
 10
110.8552070538686
 20
316.6992402467059
 30
0.0
 11
110.8552070538686
 21
315.3431326541968
 31
0.0
  0
LINE
  5
13F
330
5E
100
AcDbEntity
  8
1
  6
Continuous
 62
     7
100
AcDbLine
 10
110.8552070538686
 20
274.724526323496
 30
0.0
 11
110.8552070538686
 21
276.0806339160051
 31
0.0
  0
LINE
  5
140
330
5E
100
AcDbEntity
  8
1
  6
Continuous
 62
     2
100
AcDbLine
 10
110.8552070538686
 20
274.724526323496
 30
0.0
 11
109.6932070538685
 21
272.711883285101
 31
0.0
  0
LINE
  5
141
330
5E
100
AcDbEntity
  8
1
  6
Continuous
 62
     7
100
AcDbLine
 10
109.6932070538685
 20
263.711883285101
 30
0.0
 11
106.8552070538686
 21
263.711883285101
 31
0.0
  0
LINE
  5
142
330
5E
100
AcDbEntity
  8
1
  6
Continuous
 62
     7
100
AcDbLine
 10
106.8552070538686
 20
327.711883285101
 30
0.0
 11
109.6932070538685
 21
327.711883285101
 31
0.0
  0
LINE
  5
143
330
5E
100
AcDbEntity
  8
1
  6
Continuous
 62
     7
100
AcDbLine
 10
91.0172070538685
 20
327.711883285101
 30
0.0
 11
106.8552070538686
 21
327.711883285101
 31
0.0
  0
LINE
  5
144
330
5E
100
AcDbEntity
  8
1
  6
Continuous
 62
     7
100
AcDbLine
 10
110.8552070538686
 20
316.6992402467059
 30
0.0
 11
110.8552070538686
 21
318.711883285101
 31
0.0
  0
LINE
  5
145
330
5E
100
AcDbEntity
  8
1
  6
Continuous
 62
     7
100
AcDbLine
 10
109.6932070538685
 20
326.5498832851009
 30
0.0
 11
110.8552070538686
 21
326.5498832851009
 31
0.0
  0
LINE
  5
146
330
5E
100
AcDbEntity
  8
1
  6
Continuous
 62
     7
100
AcDbLine
 10
109.6932070538685
 20
326.5498832851009
 30
0.0
 11
89.85520705386861
 21
326.5498832851009
 31
0.0
  0
LINE
  5
147
330
5E
100
AcDbEntity
  8
1
  6
Continuous
 62
     7
100
AcDbLine
 10
89.85520705386861
 20
318.711883285101
 30
0.0
 11
89.85520705386861
 21
326.5498832851009
 31
0.0
  0
LINE
  5
148
330
5E
100
AcDbEntity
  8
1
  6
Continuous
 62
     7
100
AcDbLine
 10
89.85520705386861
 20
326.5498832851009
 30
0.0
 11
91.0172070538685
 21
327.711883285101
 31
0.0
  0
LINE
  5
149
330
5E
100
AcDbEntity
  8
1
  6
Continuous
 62
     7
100
AcDbLine
 10
110.8552070538686
 20
318.711883285101
 30
0.0
 11
110.8552070538686
 21
326.5498832851009
 31
0.0
  0
LINE
  5
14A
330
5E
100
AcDbEntity
  8
1
  6
Continuous
 62
     7
100
AcDbLine
 10
110.8552070538686
 20
326.5498832851009
 30
0.0
 11
109.6932070538685
 21
327.711883285101
 31
0.0
  0
LINE
  5
14B
330
5E
100
AcDbEntity
  8
1
  6
Continuous
 62
     7
100
AcDbLine
 10
89.85520705386861
 20
318.711883285101
 30
0.0
 11
109.6932070538685
 21
318.711883285101
 31
0.0
  0
LINE
  5
14C
330
5E
100
AcDbEntity
  8
1
  6
Continuous
 62
     7
100
AcDbLine
 10
89.85520705386861
 20
316.6992402467059
 30
0.0
 11
89.85520705386861
 21
318.711883285101
 31
0.0
  0
LINE
  5
14D
330
5E
100
AcDbEntity
  8
1
  6
Continuous
 62
     7
100
AcDbLine
 10
109.6932070538685
 20
318.711883285101
 30
0.0
 11
110.8552070538686
 21
318.711883285101
 31
0.0
  0
LINE
  5
14E
330
5E
100
AcDbEntity
  8
1
  6
Continuous
 62
     2
100
AcDbLine
 10
109.6932070538685
 20
272.711883285101
 30
0.0
 11
109.6932070538685
 21
263.711883285101
 31
0.0
  0
LINE
  5
14F
330
5E
100
AcDbEntity
  8
1
  6
Continuous
 62
     7
100
AcDbLine
 10
110.8552070538686
 20
272.711883285101
 30
0.0
 11
109.6932070538685
 21
272.711883285101
 31
0.0
  0
LINE
  5
150
330
5E
100
AcDbEntity
  8
1
  6
Continuous
 62
     7
100
AcDbLine
 10
89.85520705386861
 20
272.711883285101
 30
0.0
 11
89.85520705386861
 21
274.724526323496
 31
0.0
  0
LINE
  5
151
330
5E
100
AcDbEntity
  8
1
  6
Continuous
 62
     7
100
AcDbLine
 10
109.6932070538685
 20
272.711883285101
 30
0.0
 11
107.1027625211913
 21
272.711883285101
 31
0.0
  0
LINE
  5
152
330
5E
100
AcDbEntity
  8
1
  6
Continuous
 62
     7
100
AcDbLine
 10
109.6932070538685
 20
263.711883285101
 30
0.0
 11
110.8552070538686
 21
264.8738832851009
 31
0.0
  0
LINE
  5
153
330
5E
100
AcDbEntity
  8
1
  6
Continuous
 62
     7
100
AcDbLine
 10
110.8552070538686
 20
264.8738832851009
 30
0.0
 11
110.8552070538686
 21
272.711883285101
 31
0.0
  0
LINE
  5
154
330
5E
100
AcDbEntity
  8
1
  6
Continuous
 62
     7
100
AcDbLine
 10
91.0172070538685
 20
263.711883285101
 30
0.0
 11
89.85520705386861
 21
264.8738832851009
 31
0.0
  0
LINE
  5
155
330
5E
100
AcDbEntity
  8
1
  6
Continuous
 62
     7
100
AcDbLine
 10
89.85520705386861
 20
264.8738832851009
 30
0.0
 11
89.85520705386861
 21
272.711883285101
 31
0.0
  0
LINE
  5
156
330
5E
100
AcDbEntity
  8
1
  6
Continuous
 62
     7
100
AcDbLine
 10
89.85520705386861
 20
264.8738832851009
 30
0.0
 11
91.0172070538685
 21
264.8738832851009
 31
0.0
  0
LINE
  5
157
330
5E
100
AcDbEntity
  8
1
  6
Continuous
 62
     7
100
AcDbLine
 10
110.8552070538686
 20
264.8738832851009
 30
0.0
 11
101.7400377294382
 21
264.8738832851009
 31
0.0
  0
LINE
  5
158
330
5E
100
AcDbEntity
  8
1
  6
Continuous
 62
     7
100
AcDbLine
 10
110.8552070538686
 20
272.711883285101
 30
0.0
 11
110.8552070538686
 21
274.724526323496
 31
0.0
  0
LINE
  5
159
330
5E
100
AcDbEntity
  8
1
  6
Continuous
 62
     7
100
AcDbLine
 10
106.8552070538686
 20
263.711883285101
 30
0.0
 11
91.0172070538685
 21
263.711883285101
 31
0.0
  0
LINE
  5
15A
330
5E
100
AcDbEntity
  8
1
  6
Continuous
 62
     7
100
AcDbLine
 10
93.60765158654581
 20
272.711883285101
 30
0.0
 11
89.85520705386861
 21
272.711883285101
 31
0.0
  0
LINE
  5
15B
330
5E
100
AcDbEntity
  8
1
  6
Continuous
 62
     7
100
AcDbLine
 10
98.97037637829871
 20
264.8738832851009
 30
0.0
 11
91.0172070538685
 21
264.8738832851009
 31
0.0
  0
LINE
  5
15C
330
5E
100
AcDbEntity
  8
1
  6
Continuous
 62
     7
100
AcDbLine
 10
89.85520705386861
 20
274.724526323496
 30
0.0
 11
89.85520705386861
 21
276.0806339160051
 31
0.0
  0
LINE
  5
15D
330
5E
100
AcDbEntity
  8
1
  6
Continuous
 62
     7
100
AcDbLine
 10
89.85520705386861
 20
276.0806339160051
 30
0.0
 11
89.8537535867446
 21
276.4216254955975
 31
0.0
  0
ARC
  5
15E
330
5E
100
AcDbEntity
  8
1
  6
Continuous
 62
     7
100
AcDbCircle
 10
227.8552070538688
 20
199.6673333757993
 30
0.0
 40
37.00000000000003
100
AcDbArc
 50
255.22930109514
 51
284.77069890486
  0
ARC
  5
15F
330
5E
100
AcDbEntity
  8
1
  6
Continuous
 62
     7
100
AcDbCircle
 10
100.3552070538688
 20
175.7118832851016
 30
0.0
 40
12.99999999999996
100
AcDbArc
 50
177.4324620009084
 51
2.5675379990916
  0
ARC
  5
160
330
5E
100
AcDbEntity
  8
1
  6
Continuous
 62
     7
100
AcDbCircle
 10
100.3552070538688
 20
175.7118832851016
 30
0.0
 40
6.500000000000012
100
AcDbArc
 50
27.48642625038123
 51
152.5135737496186
  0
ARC
  5
161
330
5E
100
AcDbEntity
  8
1
  6
Continuous
 62
     7
100
AcDbCircle
 10
100.3552070538688
 20
175.7118832851016
 30
0.0
 40
6.499999999999973
100
AcDbArc
 50
152.5135737496186
 51
27.48642625038123
  0
ARC
  5
162
330
5E
100
AcDbEntity
  8
1
  6
Continuous
 62
     7
100
AcDbCircle
 10
187.6787072106744
 20
138.9622028810313
 30
0.0
 40
55.00000000000011
100
AcDbArc
 50
49.65361037817626
 51
60.95608255935579
  0
ARC
  5
163
330
5E
100
AcDbEntity
  8
1
  6
Continuous
 62
     7
100
AcDbCircle
 10
268.0317068970632
 20
138.9622028810313
 30
0.0
 40
55.00000000000001
100
AcDbArc
 50
119.0439174406442
 51
130.3463896218238
  0
ARC
  5
164
330
5E
100
AcDbEntity
  8
1
  6
Continuous
 62
     7
100
AcDbCircle
 10
124.3106571445663
 20
295.711883285101
 30
0.0
 40
37.00000000000007
100
AcDbArc
 50
189.1100755839665
 51
194.7706989048602
  0
ARC
  5
165
330
5E
100
AcDbEntity
  8
1
  6
Continuous
 62
     7
100
AcDbCircle
 10
76.3997569631708
 20
295.711883285101
 30
0.0
 40
37.00000000000016
100
AcDbArc
 50
345.2293010951399
 51
350.889924416033
  0
CIRCLE
  5
166
330
5E
100
AcDbEntity
  8
1
  6
Continuous
 62
     2
100
AcDbCircle
 10
100.3552070538688
 20
175.7118832851016
 30
0.0
 40
9.5
  0
CIRCLE
  5
167
330
5E
100
AcDbEntity
  8
1
  6
Continuous
 62
     7
100
AcDbCircle
 10
100.3552070538688
 20
175.7118832851016
 30
0.0
 40
10.5
  0
ARC
  5
168
330
5E
100
AcDbEntity
  8
1
  6
Continuous
 62
     7
100
AcDbCircle
 10
209.8552070538688
 20
192.2118832851016
 30
0.0
 40
6.0
100
AcDbArc
 50
270.0
 51
0.0
  0
ARC
  5
169
330
5E
100
AcDbEntity
  8
1
  6
Continuous
 62
     7
100
AcDbCircle
 10
245.8552070538688
 20
192.2118832851016
 30
0.0
 40
6.0
100
AcDbArc
 50
180.0
 51
270.0
  0
ARC
  5
16A
330
5E
100
AcDbEntity
  8
1
  6
Continuous
 62
     7
100
AcDbCircle
 10
247.4864564229646
 20
125.2118832851016
 30
0.0
 40
40.0
100
AcDbArc
 50
90.0
 51
104.77069890486
  0
ARC
  5
16B
330
5E
100
AcDbEntity
  8
1
  6
Continuous
 62
     7
100
AcDbCircle
 10
208.223957684773
 20
125.2118832851016
 30
0.0
 40
39.99999999999996
100
AcDbArc
 50
75.22930109514003
 51
90.0
  0
ARC
  5
16C
330
5E
100
AcDbEntity
  8
1
  6
Continuous
 62
     7
100
AcDbCircle
 10
150.8552070538686
 20
276.0806339160051
 30
0.0
 40
39.99999999999997
100
AcDbArc
 50
165.2293010951401
 51
180.0
  0
ARC
  5
16D
330
5E
100
AcDbEntity
  8
1
  6
Continuous
 62
     7
100
AcDbCircle
 10
49.8552070538686
 20
315.3431326541968
 30
0.0
 40
39.9999999999999
100
AcDbArc
 50
354.46602179735
 51
0.0
  0
ARC
  5
16E
330
5E
100
AcDbEntity
  8
1
  6
Continuous
 62
     7
100
AcDbCircle
 10
49.8552070538686
 20
276.0806339160051
 30
0.0
 40
40.00000000000001
100
AcDbArc
 50
0.0
 51
14.77069890485993
  0
ARC
  5
16F
330
5E
100
AcDbEntity
  8
1
  6
Continuous
 62
     7
100
AcDbCircle
 10
150.8552070538686
 20
315.3431326541968
 30
0.0
 40
40.00000000000001
100
AcDbArc
 50
180.0
 51
185.5339782026503
  0
ENDBLK
  5
60
330
5E
100
AcDbEntity
  8
0
100
AcDbBlockEnd
  0
BLOCK
  5
62
330
61
100
AcDbEntity
  8
0
100
AcDbBlockBegin
  2
開示A4
 70
     0
 10
0.0
 20
0.0
 30
0.0
  3
開示A4
  1

  0
POINT
  5
170
330
61
100
AcDbEntity
  8
1
 62
     4
100
AcDbPoint
 10
93.75
 20
17.0
 30
0.0
  0
POINT
  5
171
330
61
100
AcDbEntity
  8
1
 62
     4
100
AcDbPoint
 10
85.25
 20
17.0
 30
0.0
  0
POINT
  5
172
330
61
100
AcDbEntity
  8
1
 62
     4
100
AcDbPoint
 10
106.5
 20
19.00000000000001
 30
0.0
  0
POINT
  5
173
330
61
100
AcDbEntity
  8
1
 62
     4
100
AcDbPoint
 10
106.5
 20
12.5
 30
0.0
  0
POINT
  5
174
330
61
100
AcDbEntity
  8
1
 62
     4
100
AcDbPoint
 10
112.25
 20
12.5
 30
0.0
  0
POINT
  5
175
330
61
100
AcDbEntity
  8
1
 62
     4
100
AcDbPoint
 10
100.75
 20
12.5
 30
0.0
  0
POINT
  5
176
330
61
100
AcDbEntity
  8
1
 62
     4
100
AcDbPoint
 10
123.5
 20
19.00000000000001
 30
0.0
  0
POINT
  5
177
330
61
100
AcDbEntity
  8
1
 62
     4
100
AcDbPoint
 10
123.5
 20
12.5
 30
0.0
  0
POINT
  5
178
330
61
100
AcDbEntity
  8
1
 62
     4
100
AcDbPoint
 10
129.25
 20
12.5
 30
0.0
  0
POINT
  5
179
330
61
100
AcDbEntity
  8
1
 62
     4
100
AcDbPoint
 10
117.75
 20
12.5
 30
0.0
  0
POINT
  5
17A
330
61
100
AcDbEntity
  8
1
 62
     4
100
AcDbPoint
 10
140.5
 20
19.00000000000001
 30
0.0
  0
POINT
  5
17B
330
61
100
AcDbEntity
  8
1
 62
     4
100
AcDbPoint
 10
140.5
 20
12.5
 30
0.0
  0
POINT
  5
17C
330
61
100
AcDbEntity
  8
1
 62
     4
100
AcDbPoint
 10
146.25
 20
12.5
 30
0.0
  0
POINT
  5
17D
330
61
100
AcDbEntity
  8
1
 62
     4
100
AcDbPoint
 10
134.75
 20
12.5
 30
0.0
  0
POINT
  5
17E
330
61
100
AcDbEntity
  8
1
 62
     4
100
AcDbPoint
 10
151.75
 20
12.5
 30
0.0
  0
POINT
  5
17F
330
61
100
AcDbEntity
  8
1
 62
     4
100
AcDbPoint
 10
163.25
 20
12.5
 30
0.0
  0
POINT
  5
180
330
61
100
AcDbEntity
  8
1
 62
     4
100
AcDbPoint
 10
157.5
 20
12.5
 30
0.0
  0
POINT
  5
181
330
61
100
AcDbEntity
  8
1
 62
     4
100
AcDbPoint
 10
57.0
 20
14.25
 30
0.0
  0
POINT
  5
182
330
61
100
AcDbEntity
  8
1
 62
     4
100
AcDbPoint
 10
57.0
 20
22.75000000000001
 30
0.0
  0
POINT
  5
183
330
61
100
AcDbEntity
  8
1
 62
     4
100
AcDbPoint
 10
47.5
 20
282.0000000000003
 30
0.0
  0
POINT
  5
184
330
61
100
AcDbEntity
  8
1
 62
     4
100
AcDbPoint
 10
157.5
 20
19.00000000000001
 30
0.0
  0
POINT
  5
185
330
61
100
AcDbEntity
  8
1
 62
     4
100
AcDbPoint
 10
57.0
 20
16.25
 30
0.0
  0
POINT
  5
186
330
61
100
AcDbEntity
  8
1
 62
     4
100
AcDbPoint
 10
57.0
 20
24.75000000000001
 30
0.0
  0
POINT
  5
187
330
61
100
AcDbEntity
  8
1
 62
     4
100
AcDbPoint
 10
57.0
 20
20.75000000000001
 30
0.0
  0
POINT
  5
188
330
61
100
AcDbEntity
  8
1
 62
     4
100
AcDbPoint
 10
57.0
 20
12.25
 30
0.0
  0
POINT
  5
189
330
61
100
AcDbEntity
  8
1
 62
     4
100
AcDbPoint
 10
34.0
 20
34.00000000000001
 30
0.0
  0
LINE
  5
18A
330
61
100
AcDbEntity
  8
1
  6
Continuous
 62
     7
100
AcDbLine
 10
105.0
 20
10.0
 30
0.0
 11
200.0
 21
10.0
 31
0.0
  0
LINE
  5
18B
330
61
100
AcDbEntity
  8
1
  6
Continuous
 62
     2
100
AcDbLine
 10
105.0
 20
10.0
 30
0.0
 11
105.0
 21
5.0
 31
0.0
  0
LINE
  5
18C
330
61
100
AcDbEntity
  8
1
  6
Continuous
 62
     7
100
AcDbLine
 10
200.0
 20
148.5
 30
0.0
 11
200.0
 21
287.0000000000003
 31
0.0
  0
LINE
  5
18D
330
61
100
AcDbEntity
  8
1
  6
Continuous
 62
     2
100
AcDbLine
 10
200.0
 20
148.5
 30
0.0
 11
205.0
 21
148.5
 31
0.0
  0
LINE
  5
18E
330
61
100
AcDbEntity
  8
1
  6
Continuous
 62
     7
100
AcDbLine
 10
25.0
 20
148.5
 30
0.0
 11
25.0
 21
287.0000000000003
 31
0.0
  0
LINE
  5
18F
330
61
100
AcDbEntity
  8
1
  6
Continuous
 62
     2
100
AcDbLine
 10
25.0
 20
148.5
 30
0.0
 11
20.0
 21
148.5
 31
0.0
  0
LINE
  5
190
330
61
100
AcDbEntity
  8
1
  6
Continuous
 62
     7
100
AcDbLine
 10
105.0
 20
287.0000000000003
 30
0.0
 11
25.0
 21
287.0000000000003
 31
0.0
  0
LINE
  5
191
330
61
100
AcDbEntity
  8
1
  6
Continuous
 62
     2
100
AcDbLine
 10
105.0
 20
287.0000000000003
 30
0.0
 11
105.0
 21
292.0000000000003
 31
0.0
  0
LINE
  5
192
330
61
100
AcDbEntity
  8
1
  6
Continuous
 62
     2
100
AcDbLine
 10
166.0
 20
20.00000000000001
 30
0.0
 11
200.0
 21
20.00000000000001
 31
0.0
  0
LINE
  5
193
330
61
100
AcDbEntity
  8
1
  6
Continuous
 62
     2
100
AcDbLine
 10
98.0
 20
27.00000000000001
 30
0.0
 11
98.0
 21
9.99999999999999
 31
0.0
  0
LINE
  5
194
330
61
100
AcDbEntity
  8
1
  6
Continuous
 62
     2
100
AcDbLine
 10
115.0
 20
27.00000000000001
 30
0.0
 11
115.0
 21
9.99999999999999
 31
0.0
  0
LINE
  5
195
330
61
100
AcDbEntity
  8
1
  6
Continuous
 62
     2
100
AcDbLine
 10
149.0
 20
27.00000000000001
 30
0.0
 11
149.0
 21
10.0
 31
0.0
  0
LINE
  5
196
330
61
100
AcDbEntity
  8
1
  6
Continuous
 62
     2
100
AcDbLine
 10
132.0
 20
27.00000000000001
 30
0.0
 11
132.0
 21
9.99999999999999
 31
0.0
  0
LINE
  5
197
330
61
100
AcDbEntity
  8
1
  6
Continuous
 62
     2
100
AcDbLine
 10
166.0
 20
27.00000000000001
 30
0.0
 11
166.0
 21
10.0
 31
0.0
  0
LINE
  5
198
330
61
100
AcDbEntity
  8
1
  6
Continuous
 62
     2
100
AcDbLine
 10
55.0
 20
277.0000000000003
 30
0.0
 11
25.0
 21
277.0000000000003
 31
0.0
  0
LINE
  5
199
330
61
100
AcDbEntity
  8
1
  6
Continuous
 62
     7
100
AcDbLine
 10
25.0
 20
10.0
 30
0.0
 11
25.0
 21
148.5
 31
0.0
  0
LINE
  5
19A
330
61
100
AcDbEntity
  8
1
  6
Continuous
 62
     2
100
AcDbLine
 10
40.0
 20
287.0000000000003
 30
0.0
 11
40.0
 21
277.0000000000003
 31
0.0
  0
LINE
  5
19B
330
61
100
AcDbEntity
  8
1
  6
Continuous
 62
     2
100
AcDbLine
 10
55.0
 20
287.0000000000003
 30
0.0
 11
55.0
 21
277.0000000000003
 31
0.0
  0
LINE
  5
19C
330
61
100
AcDbEntity
  8
1
  6
Continuous
 62
     2
100
AcDbLine
 10
33.0
 20
41.00000000000001
 30
0.0
 11
33.0
 21
27.0
 31
0.0
  0
LINE
  5
19D
330
61
100
AcDbEntity
  8
1
  6
Continuous
 62
     7
100
AcDbLine
 10
200.0
 20
27.00000000000001
 30
0.0
 11
25.0
 21
27.00000000000001
 31
0.0
  0
LINE
  5
19E
330
61
100
AcDbEntity
  8
1
  6
Continuous
 62
     7
100
AcDbLine
 10
25.0
 20
41.0
 30
0.0
 11
200.0
 21
41.0
 31
0.0
  0
LINE
  5
19F
330
61
100
AcDbEntity
  8
1
  6
PHANTOM
 62
     4
100
AcDbLine
 10
0.0
 20
0.0
 30
0.0
 11
210.0
 21
0.0
 31
0.0
  0
LINE
  5
1A0
330
61
100
AcDbEntity
  8
1
  6
PHANTOM
 62
     4
100
AcDbLine
 10
210.0
 20
0.0
 30
0.0
 11
210.0
 21
297.0
 31
0.0
  0
LINE
  5
1A1
330
61
100
AcDbEntity
  8
1
  6
PHANTOM
 62
     4
100
AcDbLine
 10
210.0
 20
297.0
 30
0.0
 11
0.0
 21
297.0
 31
0.0
  0
LINE
  5
1A2
330
61
100
AcDbEntity
  8
1
  6
PHANTOM
 62
     4
100
AcDbLine
 10
0.0
 20
297.0
 30
0.0
 11
0.0
 21
0.0
 31
0.0
  0
LINE
  5
1A3
330
61
100
AcDbEntity
  8
1
  6
Continuous
 62
     7
100
AcDbLine
 10
25.0
 20
10.0
 30
0.0
 11
105.0
 21
10.0
 31
0.0
  0
LINE
  5
1A4
330
61
100
AcDbEntity
  8
1
  6
Continuous
 62
     7
100
AcDbLine
 10
200.0
 20
10.0
 30
0.0
 11
200.0
 21
148.5
 31
0.0
  0
LINE
  5
1A5
330
61
100
AcDbEntity
  8
1
  6
Continuous
 62
     7
100
AcDbLine
 10
200.0
 20
287.0000000000003
 30
0.0
 11
105.0
 21
287.0000000000003
 31
0.0
  0
LINE
  5
1A6
330
61
100
AcDbEntity
  8
1
  6
Continuous
 62
     2
100
AcDbLine
 10
25.0
 20
18.50000000000001
 30
0.0
 11
81.0
 21
18.50000000000001
 31
0.0
  0
LINE
  5
1A7
330
61
100
AcDbEntity
  8
1
  6
Continuous
 62
     2
100
AcDbLine
 10
33.0
 20
27.0
 30
0.0
 11
33.0
 21
10.0
 31
0.0
  0
LINE
  5
1A8
330
61
100
AcDbEntity
  8
1
  6
Continuous
 62
     7
100
AcDbLine
 10
191.0
 20
24.70000000000001
 30
0.0
 11
191.0
 21
22.30000000000001
 31
0.0
  0
LINE
  5
1A9
330
61
100
AcDbEntity
  8
1
  6
Continuous
 62
     7
100
AcDbLine
 10
191.0
 20
24.70000000000001
 30
0.0
 11
196.0
 21
25.50000000000001
 31
0.0
  0
LINE
  5
1AA
330
61
100
AcDbEntity
  8
1
  6
Continuous
 62
     7
100
AcDbLine
 10
196.0
 20
25.50000000000001
 30
0.0
 11
196.0
 21
21.50000000000001
 31
0.0
  0
LINE
  5
1AB
330
61
100
AcDbEntity
  8
1
  6
Continuous
 62
     7
100
AcDbLine
 10
196.0
 20
21.50000000000001
 30
0.0
 11
191.0
 21
22.30000000000001
 31
0.0
  0
LINE
  5
1AC
330
61
100
AcDbEntity
  8
1
  6
DOT_CENTER
 62
     2
100
AcDbLine
 10
184.0
 20
23.50000000000001
 30
0.0
 11
197.0
 21
23.50000000000001
 31
0.0
  0
LINE
  5
1AD
330
61
100
AcDbEntity
  8
1
  6
DOT_CENTER
 62
     2
100
AcDbLine
 10
187.0
 20
26.50000000000001
 30
0.0
 11
187.0
 21
20.50000000000001
 31
0.0
  0
LINE
  5
1AE
330
61
100
AcDbEntity
  8
1
  6
Continuous
 62
     2
100
AcDbLine
 10
81.0
 20
27.00000000000001
 30
0.0
 11
81.0
 21
10.0
 31
0.0
  0
CIRCLE
  5
1AF
330
61
100
AcDbEntity
  8
1
  6
Continuous
 62
     7
100
AcDbCircle
 10
103.5
 20
12.5
 30
0.0
 40
0.2999999999999972
  0
CIRCLE
  5
1B0
330
61
100
AcDbEntity
  8
1
  6
Continuous
 62
     7
100
AcDbCircle
 10
109.5
 20
12.5
 30
0.0
 40
0.2999999999999972
  0
CIRCLE
  5
1B1
330
61
100
AcDbEntity
  8
1
  6
Continuous
 62
     7
100
AcDbCircle
 10
120.5
 20
12.5
 30
0.0
 40
0.2999999999999972
  0
CIRCLE
  5
1B2
330
61
100
AcDbEntity
  8
1
  6
Continuous
 62
     7
100
AcDbCircle
 10
126.5
 20
12.5
 30
0.0
 40
0.2999999999999972
  0
CIRCLE
  5
1B3
330
61
100
AcDbEntity
  8
1
  6
Continuous
 62
     7
100
AcDbCircle
 10
137.5
 20
12.5
 30
0.0
 40
0.3000000000000114
  0
CIRCLE
  5
1B4
330
61
100
AcDbEntity
  8
1
  6
Continuous
 62
     7
100
AcDbCircle
 10
143.5
 20
12.5
 30
0.0
 40
0.3000000000000114
  0
CIRCLE
  5
1B5
330
61
100
AcDbEntity
  8
1
  6
Continuous
 62
     7
100
AcDbCircle
 10
160.5
 20
12.5
 30
0.0
 40
0.3000000000000114
  0
CIRCLE
  5
1B6
330
61
100
AcDbEntity
  8
1
  6
Continuous
 62
     7
100
AcDbCircle
 10
154.5
 20
12.5
 30
0.0
 40
0.3000000000000114
  0
CIRCLE
  5
1B7
330
61
100
AcDbEntity
  8
1
  6
Continuous
 62
     7
100
AcDbCircle
 10
187.0
 20
23.50000000000001
 30
0.0
 40
1.200000000000102
  0
CIRCLE
  5
1B8
330
61
100
AcDbEntity
  8
1
  6
Continuous
 62
     7
100
AcDbCircle
 10
187.0
 20
23.50000000000001
 30
0.0
 40
2.0
  0
CIRCLE
  5
1B9
330
61
100
AcDbEntity
  8
1
  6
DOT_CENTER
 62
     7
100
AcDbCircle
 10
89.5
 20
16.0
 30
0.0
 40
0.1000000000000227
  0
CIRCLE
  5
1BA
330
61
100
AcDbEntity
  8
1
  6
DOT_CENTER
 62
     7
100
AcDbCircle
 10
89.5
 20
18.0
 30
0.0
 40
0.1000000000000227
  0
MTEXT
  5
1BC
330
61
100
AcDbEntity
  8
1
 62
     7
100
AcDbMText
 10
188.5
 20
15.0
 30
0.0
 40
3.0
 41
0.0
 71
     5
 72
     1
  1
三栄水栓製作所
  7
CONVERTER_11
 73
     1
 44
1.0
  0
MTEXT
  5
1BD
330
61
100
AcDbEntity
  8
1
 62
     7
100
AcDbMText
 10
171.5
 20
15.0
 30
0.0
 40
2.5
 41
0.0
 71
     5
 72
     1
  1
株式会社
  7
CONVERTER_11
 73
     1
 44
1.0
  0
MTEXT
  5
1BE
330
61
100
AcDbEntity
  8
1
 62
     2
100
AcDbMText
 10
32.5
 20
282.0000000000003
 30
0.0
 40
5.0
 41
0.0
 71
     5
 72
     1
  1
図番
  7
CONVERTER_11
 73
     1
 44
0.45454545454545
  0
MTEXT
  5
1BF
330
61
100
AcDbEntity
  8
1
 62
     2
100
AcDbMText
 10
29.0
 20
34.00000000000001
 30
0.0
 40
3.5
 41
0.0
 71
     5
 72
     1
  1
備考
  7
CONVERTER_11
 73
     1
 44
0.45454545454545
  0
MTEXT
  5
1C0
330
61
100
AcDbEntity
  8
1
 62
     2
100
AcDbMText
 10
29.0
 20
22.75
 30
0.0
 40
3.5
 41
0.0
 71
     5
 72
     1
  1
品名
  7
CONVERTER_11
 73
     1
 44
0.72727272727273
  0
MTEXT
  5
1C1
330
61
100
AcDbEntity
  8
1
 62
     2
100
AcDbMText
 10
29.0
 20
14.25
 30
0.0
 40
3.5
 41
0.0
 71
     5
 72
     1
  1
品番
  7
CONVERTER_11
 73
     1
 44
0.72727272727273
  0
MTEXT
  5
1C2
330
61
100
AcDbEntity
  8
1
 62
     2
100
AcDbMText
 10
101.5
 20
25.00000000000001
 30
0.0
 40
3.0
 41
0.0
 71
     5
 72
     1
  1
承認
  7
CONVERTER_11
 73
     1
 44
0.59090909090909
  0
MTEXT
  5
1C3
330
61
100
AcDbEntity
  8
1
 62
     2
100
AcDbMText
 10
175.0
 20
23.50000000000001
 30
0.0
 40
3.5
 41
0.0
 71
     5
 72
     1
  1
第三角法
  7
CONVERTER_11
 73
     1
 44
0.54545454545455
  0
MTEXT
  5
1C4
330
61
100
AcDbEntity
  8
1
 62
     2
100
AcDbMText
 10
118.5
 20
25.00000000000001
 30
0.0
 40
3.0
 41
0.0
 71
     5
 72
     1
  1
検図
  7
CONVERTER_11
 73
     1
 44
0.59090909090909
  0
MTEXT
  5
1C5
330
61
100
AcDbEntity
  8
1
 62
     2
100
AcDbMText
 10
152.5
 20
25.00000000000001
 30
0.0
 40
3.0
 41
0.0
 71
     5
 72
     1
  1
設計
  7
CONVERTER_11
 73
     1
 44
0.59090909090909
  0
MTEXT
  5
1C6
330
61
100
AcDbEntity
  8
1
 62
     2
100
AcDbMText
 10
135.5
 20
25.00000000000001
 30
0.0
 40
3.0
 41
0.0
 71
     5
 72
     1
  1
製図
  7
CONVERTER_11
 73
     1
 44
0.59090909090909
  0
MTEXT
  5
1C7
330
61
100
AcDbEntity
  8
1
 62
     2
100
AcDbMText
 10
89.5
 20
24.00000000000001
 30
0.0
 40
3.5
 41
0.0
 71
     5
 72
     1
  1
尺度
  7
CONVERTER_11
 73
     1
 44
0.54545454545455
  0
MTEXT
  5
1C8
330
61
100
AcDbEntity
  8
1
 62
   250
100
AcDbMText
 10
25.0
 20
5.0
 30
0.0
 40
3.5
 41
0.0
 71
     4
 72
     1
  1
備考欄の文字列 原点位置=4
  7
CONVERTER_11
 73
     1
 44
0.54545454545455
  0
ENDBLK
  5
63
330
61
100
AcDbEntity
  8
0
100
AcDbBlockEnd
  0
BLOCK
  5
208
330
201
100
AcDbEntity
  8
0
100
AcDbBlockBegin
  2
*D9
 70
     1
 10
0.0
 20
0.0
 30
0.0
  3
*D9
  1

  0
LINE
  5
202
330
201
100
AcDbEntity
  8
0
  6
Continuous
 62
     2
100
AcDbLine
 10
195.8552070538688
 20
147.6673333757993
 30
0.0
 11
227.8552070538688
 21
147.6673333757993
 31
0.0
  0
LINE
  5
203
330
201
100
AcDbEntity
  8
0
  6
Continuous
 62
     2
100
AcDbLine
 10
195.8552070538688
 20
166.3738832851016
 30
0.0
 11
195.8552070538688
 21
146.1673333757993
 31
0.0
  0
LINE
  5
204
330
201
100
AcDbEntity
  8
0
  6
Continuous
 62
     2
100
AcDbLine
 10
227.8552070538688
 20
159.7018832851016
 30
0.0
 11
227.8552070538688
 21
146.1673333757993
 31
0.0
  0
SOLID
  5
205
330
201
100
AcDbEntity
  8
0
 62
     2
100
AcDbTrace
 10
201.1052070538688
 20
148.3585089881331
 30
0.0
 11
201.1052070538688
 21
146.9761577634655
 31
0.0
 12
195.8552070538688
 22
147.6673333757993
 32
0.0
 13
195.8552070538688
 23
147.6673333757993
 33
0.0
  0
SOLID
  5
206
330
201
100
AcDbEntity
  8
0
 62
     2
100
AcDbTrace
 10
222.6052070538688
 20
146.9761577634655
 30
0.0
 11
222.6052070538688
 21
148.3585089881331
 31
0.0
 12
227.8552070538688
 22
147.6673333757993
 32
0.0
 13
227.8552070538688
 23
147.6673333757993
 33
0.0
  0
MTEXT
  5
207
330
201
100
AcDbEntity
  8
0
 62
     7
100
AcDbMText
 10
207.9177070538688
 20
149.1673333757993
 30
0.0
 40
5.25
 41
0.0
 71
     7
 72
     1
  1
32
  7
CONVERTER_12
 11
0.9999999999970619
 21
2.424068405545306E-6
 31
0.0
 73
     1
 44
0.60024009603842
  0
ENDBLK
  5
209
330
201
100
AcDbEntity
  8
0
100
AcDbBlockEnd
  0
BLOCK
  5
213
330
20C
100
AcDbEntity
  8
0
100
AcDbBlockBegin
  2
*D10
 70
     1
 10
0.0
 20
0.0
 30
0.0
  3
*D10
  1

  0
LINE
  5
20D
330
20C
100
AcDbEntity
  8
0
  6
Continuous
 62
     2
100
AcDbLine
 10
180.8552070538688
 20
175.7118832851017
 30
0.0
 11
180.8552070538688
 21
233.2118832851019
 31
0.0
  0
LINE
  5
20E
330
20C
100
AcDbEntity
  8
0
  6
Continuous
 62
     2
100
AcDbLine
 10
192.8552070538688
 20
175.7118832851017
 30
0.0
 11
179.3552070538688
 21
175.7118832851017
 31
0.0
  0
LINE
  5
20F
330
20C
100
AcDbEntity
  8
0
  6
Continuous
 62
     2
100
AcDbLine
 10
227.8552070538688
 20
233.2118832851019
 30
0.0
 11
179.3552070538688
 21
233.2118832851019
 31
0.0
  0
SOLID
  5
210
330
20C
100
AcDbEntity
  8
0
 62
     2
100
AcDbTrace
 10
180.164031441535
 20
180.9618832851017
 30
0.0
 11
181.5463826662026
 21
180.9618832851017
 31
0.0
 12
180.8552070538688
 22
175.7118832851017
 32
0.0
 13
180.8552070538688
 23
175.7118832851017
 33
0.0
  0
SOLID
  5
211
330
20C
100
AcDbEntity
  8
0
 62
     2
100
AcDbTrace
 10
181.5463826662026
 20
227.9618832851019
 30
0.0
 11
180.164031441535
 21
227.9618832851019
 31
0.0
 12
180.8552070538688
 22
233.2118832851019
 32
0.0
 13
180.8552070538688
 23
233.2118832851019
 33
0.0
  0
MTEXT
  5
212
330
20C
100
AcDbEntity
  8
0
 62
     7
100
AcDbMText
 10
179.3552070538688
 20
190.2868832851018
 30
0.0
 40
5.25
 41
0.0
 71
     7
 72
     1
  1
58リフト5
  7
CONVERTER_11
 11
0.0
 21
1.0
 31
0.0
 73
     1
 44
0.45454545454545
  0
ENDBLK
  5
214
330
20C
100
AcDbEntity
  8
0
100
AcDbBlockEnd
  0
BLOCK
  5
21E
330
217
100
AcDbEntity
  8
0
100
AcDbBlockBegin
  2
*D11
 70
     1
 10
0.0
 20
0.0
 30
0.0
  3
*D11
  1

  0
LINE
  5
218
330
217
100
AcDbEntity
  8
1
  6
Continuous
 62
     2
100
AcDbLine
 10
195.8552070538688
 20
135.6673333757993
 30
0.0
 11
259.8552070538688
 21
135.6673333757993
 31
0.0
  0
LINE
  5
219
330
217
100
AcDbEntity
  8
1
  6
Continuous
 62
     2
100
AcDbLine
 10
195.8552070538688
 20
166.3738832851016
 30
0.0
 11
195.8552070538688
 21
134.1673333757993
 31
0.0
  0
LINE
  5
21A
330
217
100
AcDbEntity
  8
1
  6
Continuous
 62
     2
100
AcDbLine
 10
259.8552070538688
 20
166.3738832851016
 30
0.0
 11
259.8552070538688
 21
134.1673333757993
 31
0.0
  0
SOLID
  5
21B
330
217
100
AcDbEntity
  8
1
 62
     2
100
AcDbTrace
 10
201.1052070538688
 20
136.3585089881331
 30
0.0
 11
201.1052070538688
 21
134.9761577634655
 31
0.0
 12
195.8552070538688
 22
135.6673333757993
 32
0.0
 13
195.8552070538688
 23
135.6673333757993
 33
0.0
  0
SOLID
  5
21C
330
217
100
AcDbEntity
  8
1
 62
     2
100
AcDbTrace
 10
254.6052070538688
 20
134.9761577634655
 30
0.0
 11
254.6052070538688
 21
136.3585089881331
 31
0.0
 12
259.8552070538688
 22
135.6673333757993
 32
0.0
 13
259.8552070538688
 23
135.6673333757993
 33
0.0
  0
MTEXT
  5
21D
330
217
100
AcDbEntity
  8
1
 62
     7
100
AcDbMText
 10
223.9177070538688
 20
137.1673333757993
 30
0.0
 40
5.25
 41
0.0
 71
     7
 72
     1
  1
64
  7
CONVERTER_12
 11
0.9999999999970619
 21
2.424068405545306E-6
 31
0.0
 73
     1
 44
0.60024009603842
  0
ENDBLK
  5
21F
330
217
100
AcDbEntity
  8
0
100
AcDbBlockEnd
  0
ENDSEC
  0
SECTION
  2
ENTITIES
  0
INSERT
  5
64
330
1F
100
AcDbEntity
  8
1
100
AcDbBlockReference
  2
R10AK-13-B
 10
72.70457195925748
 20
158.1673333757993
 30
0.0
  0
INSERT
  5
65
330
1F
100
AcDbEntity
  8
0
100
AcDbBlockReference
  2
V20-0A-13-M11
 10
172.5552070538688
 20
130.3972476917058
 30
0.0
  0
INSERT
  5
66
330
1F
100
AcDbEntity
  8
1
100
AcDbBlockReference
  2
開示A4
 10
0.0
 20
0.0
 30
0.0
 41
1.5
 42
1.5
 43
1.5
  0
LINE
  5
1C9
330
1F
100
AcDbEntity
  8
1
  6
DASH_CENTER
 62
     2
100
AcDbLine
 10
262.8552070538688
 20
175.7118832851016
 30
0.0
 11
192.8552070538688
 21
175.7118832851016
 31
0.0
  0
LINE
  5
1CA
330
1F
100
AcDbEntity
  8
1
  6
DASH_CENTER
 62
     2
100
AcDbLine
 10
100.3552070538688
 20
236.2118493035633
 30
0.0
 11
100.3552070538688
 21
159.6673333757993
 31
0.0
  0
LINE
  5
1CB
330
1F
100
AcDbEntity
  8
1
  6
DASH_CENTER
 62
     2
100
AcDbLine
 10
116.3997569631711
 20
175.7118832851016
 30
0.0
 11
84.85520705386884
 21
175.7118832851016
 31
0.0
  0
LINE
  5
1CC
330
1F
100
AcDbEntity
  8
1
  6
DASH_CENTER
 62
     2
100
AcDbLine
 10
227.8552070538688
 20
159.7018832851016
 30
0.0
 11
227.8552070538688
 21
236.2118493035633
 31
0.0
  0
LINE
  5
1CD
330
1F
100
AcDbEntity
  8
1
  6
DASH_CENTER
 62
     2
100
AcDbLine
 10
129.8000707825395
 20
312.7118832851013
 30
0.0
 11
91.69495301602427
 21
290.7118832851013
 31
0.0
  0
LINE
  5
1CE
330
1F
100
AcDbEntity
  8
1
  6
DASH_CENTER
 62
     2
100
AcDbLine
 10
79.7192905850192
 20
295.7118832851013
 30
0.0
 11
120.9911235227184
 21
295.7118832851013
 31
0.0
  0
LINE
  5
1CF
330
1F
100
AcDbEntity
  8
1
  6
DASH_CENTER
 62
     2
100
AcDbLine
 10
109.0154610917131
 20
290.7118832851013
 30
0.0
 11
70.91034332519777
 21
312.7118832851013
 31
0.0
  0
LINE
  5
1D0
330
1F
100
AcDbEntity
  8
1
  6
DASH_CENTER
 62
     2
100
AcDbLine
 10
100.3552070538688
 20
333.7118832851013
 30
0.0
 11
100.3552070538688
 21
257.7118832851014
 31
0.0
  0
LINE
  5
1D1
330
1F
100
AcDbEntity
  8
1
  6
Continuous
 62
     7
100
AcDbLine
 10
246.8406003111909
 20
151.0495180539108
 30
0.0
 11
244.4406003111909
 21
152.4351586999657
 31
0.0
  0
LINE
  5
1D2
330
1F
100
AcDbEntity
  8
1
  6
Continuous
 62
     7
100
AcDbLine
 10
255.7863275769611
 20
151.9851586999658
 30
0.0
 11
254.3438297433406
 21
151.9851586999658
 31
0.0
  0
LINE
  5
1D3
330
1F
100
AcDbEntity
  8
1
  6
Continuous
 62
     7
100
AcDbLine
 10
255.7863275769611
 20
151.9851586999658
 30
0.0
 11
257.221327576961
 21
150.5501586999658
 31
0.0
  0
LINE
  5
1D4
330
1F
100
AcDbEntity
  8
1
  6
Continuous
 62
     7
100
AcDbLine
 10
255.6938297433405
 20
150.6351586999659
 30
0.0
 11
254.3438297433406
 21
151.9851586999658
 31
0.0
  0
LINE
  5
1D5
330
1F
100
AcDbEntity
  8
1
  6
Continuous
 62
     7
100
AcDbLine
 10
255.6938297433405
 20
150.6351586999659
 30
0.0
 11
257.221327576961
 21
150.5501586999658
 31
0.0
  0
LINE
  5
1D6
330
1F
100
AcDbEntity
  8
1
  6
Continuous
 62
     7
100
AcDbLine
 10
257.221327576961
 20
154.3201586999657
 30
0.0
 11
255.6938297433405
 21
154.2351586999658
 31
0.0
  0
LINE
  5
1D7
330
1F
100
AcDbEntity
  8
1
  6
Continuous
 62
     7
100
AcDbLine
 10
255.7863275769611
 20
152.8851586999659
 30
0.0
 11
254.3438297433406
 21
152.8851586999659
 31
0.0
  0
LINE
  5
1D8
330
1F
100
AcDbEntity
  8
1
  6
Continuous
 62
     7
100
AcDbLine
 10
255.7863275769611
 20
152.8851586999659
 30
0.0
 11
257.221327576961
 21
154.3201586999657
 31
0.0
  0
LINE
  5
1D9
330
1F
100
AcDbEntity
  8
1
  6
Continuous
 62
     7
100
AcDbLine
 10
254.3438297433406
 20
152.8851586999659
 30
0.0
 11
255.6938297433405
 21
154.2351586999658
 31
0.0
  0
LINE
  5
1DA
330
1F
100
AcDbEntity
  8
1
  6
Continuous
 62
     7
100
AcDbLine
 10
253.8347128608863
 20
151.9851586999658
 30
0.0
 11
252.3922150272656
 21
151.9851586999658
 31
0.0
  0
LINE
  5
1DB
330
1F
100
AcDbEntity
  8
1
  6
Continuous
 62
     7
100
AcDbLine
 10
253.8347128608863
 20
151.9851586999658
 30
0.0
 11
255.2697128608862
 21
150.5501586999658
 31
0.0
  0
LINE
  5
1DC
330
1F
100
AcDbEntity
  8
1
  6
Continuous
 62
     7
100
AcDbLine
 10
253.7422150272657
 20
150.6351586999658
 30
0.0
 11
252.3922150272656
 21
151.9851586999658
 31
0.0
  0
LINE
  5
1DD
330
1F
100
AcDbEntity
  8
1
  6
Continuous
 62
     7
100
AcDbLine
 10
253.7422150272657
 20
150.6351586999658
 30
0.0
 11
255.2697128608862
 21
150.5501586999658
 31
0.0
  0
LINE
  5
1DE
330
1F
100
AcDbEntity
  8
1
  6
Continuous
 62
     7
100
AcDbLine
 10
255.2697128608862
 20
154.3201586999657
 30
0.0
 11
253.7422150272657
 21
154.2351586999658
 31
0.0
  0
LINE
  5
1DF
330
1F
100
AcDbEntity
  8
1
  6
Continuous
 62
     7
100
AcDbLine
 10
253.8347128608863
 20
152.8851586999658
 30
0.0
 11
252.3922150272656
 21
152.8851586999658
 31
0.0
  0
LINE
  5
1E0
330
1F
100
AcDbEntity
  8
1
  6
Continuous
 62
     7
100
AcDbLine
 10
253.8347128608863
 20
152.8851586999658
 30
0.0
 11
255.2697128608862
 21
154.3201586999657
 31
0.0
  0
LINE
  5
1E1
330
1F
100
AcDbEntity
  8
1
  6
Continuous
 62
     7
100
AcDbLine
 10
252.3922150272656
 20
152.8851586999658
 30
0.0
 11
253.7422150272657
 21
154.2351586999658
 31
0.0
  0
LINE
  5
1E2
330
1F
100
AcDbEntity
  8
1
  6
Continuous
 62
     7
100
AcDbLine
 10
251.8830981448114
 20
152.8851586999658
 30
0.0
 11
256.4406003111909
 21
152.8851586999659
 31
0.0
  0
LINE
  5
1E3
330
1F
100
AcDbEntity
  8
1
  6
Continuous
 62
     7
100
AcDbLine
 10
256.4406003111909
 20
151.9851586999658
 30
0.0
 11
251.8830981448114
 21
151.9851586999658
 31
0.0
  0
LINE
  5
1E4
330
1F
100
AcDbEntity
  8
1
  6
Continuous
 62
     7
100
AcDbLine
 10
251.8830981448114
 20
151.9851586999658
 30
0.0
 11
250.4406003111909
 21
151.9851586999658
 31
0.0
  0
LINE
  5
1E5
330
1F
100
AcDbEntity
  8
1
  6
Continuous
 62
     7
100
AcDbLine
 10
251.8830981448114
 20
151.9851586999658
 30
0.0
 11
253.3180981448114
 21
150.5501586999658
 31
0.0
  0
LINE
  5
1E6
330
1F
100
AcDbEntity
  8
1
  6
Continuous
 62
     7
100
AcDbLine
 10
253.3180981448114
 20
154.3201586999657
 30
0.0
 11
251.7906003111909
 21
154.2351586999658
 31
0.0
  0
LINE
  5
1E7
330
1F
100
AcDbEntity
  8
1
  6
Continuous
 62
     7
100
AcDbLine
 10
251.8830981448114
 20
152.8851586999658
 30
0.0
 11
250.4406003111909
 21
152.8851586999658
 31
0.0
  0
LINE
  5
1E8
330
1F
100
AcDbEntity
  8
1
  6
Continuous
 62
     7
100
AcDbLine
 10
251.8830981448114
 20
152.8851586999658
 30
0.0
 11
253.3180981448114
 21
154.3201586999657
 31
0.0
  0
LINE
  5
1E9
330
1F
100
AcDbEntity
  8
1
  6
Continuous
 62
     7
100
AcDbLine
 10
250.4406003111909
 20
151.9851586999658
 30
0.0
 11
246.8406003111909
 21
151.9851586999658
 31
0.0
  0
LINE
  5
1EA
330
1F
100
AcDbEntity
  8
1
  6
Continuous
 62
     7
100
AcDbLine
 10
251.7906003111909
 20
150.6351586999659
 30
0.0
 11
250.4406003111909
 21
151.9851586999658
 31
0.0
  0
LINE
  5
1EB
330
1F
100
AcDbEntity
  8
1
  6
Continuous
 62
     7
100
AcDbLine
 10
251.7906003111909
 20
150.6351586999659
 30
0.0
 11
253.3180981448114
 21
150.5501586999658
 31
0.0
  0
LINE
  5
1EC
330
1F
100
AcDbEntity
  8
1
  6
Continuous
 62
     7
100
AcDbLine
 10
250.4406003111909
 20
152.8851586999658
 30
0.0
 11
246.8406003111909
 21
152.8851586999658
 31
0.0
  0
LINE
  5
1ED
330
1F
100
AcDbEntity
  8
1
  6
Continuous
 62
     7
100
AcDbLine
 10
250.4406003111909
 20
152.8851586999658
 30
0.0
 11
251.7906003111909
 21
154.2351586999658
 31
0.0
  0
LINE
  5
1EE
330
1F
100
AcDbEntity
  8
1
  6
Continuous
 62
     7
100
AcDbLine
 10
246.8406003111909
 20
151.9851586999658
 30
0.0
 11
246.8406003111909
 21
151.0495180539108
 31
0.0
  0
LINE
  5
1EF
330
1F
100
AcDbEntity
  8
1
  6
Continuous
 62
     7
100
AcDbLine
 10
256.4406003111909
 20
152.8851586999659
 30
0.0
 11
256.4406003111909
 21
151.9851586999658
 31
0.0
  0
LINE
  5
1F0
330
1F
100
AcDbEntity
  8
1
  6
Continuous
 62
     7
100
AcDbLine
 10
246.8406003111909
 20
153.8207993460208
 30
0.0
 11
246.8406003111909
 21
152.8851586999658
 31
0.0
  0
LINE
  5
1F1
330
1F
100
AcDbEntity
  8
1
  6
Continuous
 62
     7
100
AcDbLine
 10
244.4406003111909
 20
152.4351586999657
 30
0.0
 11
246.8406003111909
 21
153.8207993460208
 31
0.0
  0
SOLID
  5
1F2
330
1F
100
AcDbEntity
  8
1
 62
     2
100
AcDbTrace
 10
258.4841231899647
 20
161.0108377214002
 30
0.0
 11
257.28697191245
 21
160.3196621090664
 31
0.0
 12
255.2605475512074
 22
165.2118832851016
 32
0.0
 13
255.2605475512074
 23
165.2118832851016
 33
0.0
  0
LEADER
  5
1F3
330
1F
100
AcDbEntity
  8
1
  6
Continuous
 62
     2
100
AcDbLeader
  3
Standard
 71
     0
 76
     3
 10
255.2605475512074
 20
165.2118832851016
 30
0.0
 10
265.3898981641539
 20
147.6673333757993
 30
0.0
 10
287.9155263984499
 20
147.6673333757993
 30
0.0
  0
SOLID
  5
1F4
330
1F
100
AcDbEntity
  8
1
 62
     2
100
AcDbTrace
 10
198.8900993054002
 20
160.3196621090664
 30
0.0
 11
197.6929480278854
 21
161.0108377214002
 31
0.0
 12
200.9165236666428
 22
165.2118832851016
 32
0.0
 13
200.9165236666428
 23
165.2118832851016
 33
0.0
  0
LEADER
  5
1F5
330
1F
100
AcDbEntity
  8
1
  6
Continuous
 62
     2
100
AcDbLeader
  3
Standard
 71
     0
 76
     3
 10
200.9165236666428
 20
165.2118832851016
 30
0.0
 10
190.7871730536963
 20
147.6673333757993
 30
0.0
 10
166.2331057176976
 20
147.6673333757993
 30
0.0
  0
SOLID
  5
1F6
330
1F
100
AcDbEntity
  8
1
 62
     2
100
AcDbTrace
 10
231.0787826926262
 20
171.5108377214004
 30
0.0
 11
229.8816314151115
 21
170.8196621090666
 31
0.0
 12
227.8552070538689
 22
175.7118832851018
 32
0.0
 13
227.8552070538689
 23
175.7118832851018
 33
0.0
  0
LEADER
  5
1F7
330
1F
100
AcDbEntity
  8
1
  6
Continuous
 62
     2
100
AcDbLeader
  3
Standard
 71
     0
 76
     3
 10
227.8552070538689
 20
175.7118832851018
 30
0.0
 10
244.0467354933066
 20
147.6673333757993
 30
0.0
 10
257.9908997928181
 20
147.6673333757993
 30
0.0
  0
MTEXT
  5
1F8
330
1F
100
AcDbEntity
  8
1
 62
     7
100
AcDbMText
 10
51.0
 20
45.75000000000001
 30
0.0
 40
5.25
 41
0.0
 71
     4
 72
     1
  1
共用形
  7
CONVERTER_11
 73
     1
 44
0.54545454545455
  0
MTEXT
  5
1F9
330
1F
100
AcDbEntity
  8
1
 62
     7
100
AcDbMText
 10
85.5
 20
34.12500000000001
 30
0.0
 40
5.25
 41
0.0
 71
     5
 72
     1
  1
オネジ化粧バルブ
  7
CONVERTER_11
 73
     1
 44
0.54545454545455
  0
MTEXT
  5
1FB
330
1F
100
AcDbEntity
  8
1
 62
     7
100
AcDbMText
 10
277.3433005120593
 20
152.1673333757993
 30
0.0
 40
5.25
 41
0.0
 71
     5
 72
     1
  1
PJ1/2
  7
CONVERTER_12
 73
     1
 44
1.32052821128451
  0
MTEXT
  5
1FC
330
1F
100
AcDbEntity
  8
1
 62
     7
100
AcDbMText
 10
178.2608535330037
 20
152.1673333757993
 30
0.0
 40
5.25
 41
0.0
 71
     5
 72
     1
  1
PJ1/2
  7
CONVERTER_12
 73
     1
 44
1.32052821128451
  0
MTEXT
  5
1FD
330
1F
100
AcDbEntity
  8
0
 62
     7
100
AcDbMText
 10
127.8750000001278
 20
25.5000000000255
 30
0.0
 40
5.25
 41
0.0
 71
     5
 72
     1
  1
1
  7
CONVERTER_12
 73
     1
 44
0.7202881152461
  0
MTEXT
  5
1FE
330
1F
100
AcDbEntity
  8
0
 62
     7
100
AcDbMText
 10
140.6250000001406
 20
25.5000000000255
 30
0.0
 40
5.25
 41
0.0
 71
     5
 72
     1
  1
1,5
  7
CONVERTER_12
 73
     1
 44
0.7202881152461
  0
MTEXT
  5
1FF
330
1F
100
AcDbEntity
  8
1
 62
     7
100
AcDbMText
 10
85.49999999999999
 20
21.375
 30
0.0
 40
5.25
 41
0.0
 71
     5
 72
     1
  1
V20A-13
  7
CONVERTER_12
 73
     1
 44
1.32052821128451
  0
MTEXT
  5
200
330
1F
100
AcDbEntity
  8
1
 62
     7
100
AcDbMText
 10
51.00000000000001
 20
56.25000000000001
 30
0.0
 40
5.25
 41
0.0
 71
     4
 72
     1
  1
JIS
  7
CONVERTER_12
 73
     1
 44
1.32052821128451
  0
DIMENSION
  5
20B
330
1F
100
AcDbEntity
  8
0
100
AcDbDimension
  2
*D9
 10
195.8552070538688
 20
147.6673333757993
 30
0.0
 11
211.8552070538688
 21
151.7923333757993
 31
0.0
 70
    32
  1
<>
 71
     5
 42
-1.0
 53
0.00013888888889
  3
ME10_DIM_10
100
AcDbAlignedDimension
 13
227.8552070538688
 23
159.7018832851016
 33
0.0
 14
195.8552070538688
 24
166.3738832851016
 34
0.0
100
AcDbRotatedDimension
  0
DIMENSION
  5
216
330
1F
100
AcDbEntity
  8
0
100
AcDbDimension
  2
*D10
 10
180.8552070538688
 20
175.7118832851017
 30
0.0
 11
176.7302070538688
 21
204.4618832851018
 31
0.0
 70
    32
  1
58リフト5
 71
     5
 42
-1.0
 53
90.0
  3
ME10_DIM_11
100
AcDbAlignedDimension
 13
227.8552070538688
 23
233.2118832851019
 33
0.0
 14
192.8552070538688
 24
175.7118832851016
 34
0.0
 50
90.0
100
AcDbRotatedDimension
  0
DIMENSION
  5
221
330
1F
100
AcDbEntity
  8
1
100
AcDbDimension
  2
*D11
 10
195.8552070538688
 20
135.6673333757993
 30
0.0
 11
227.8552070538688
 21
139.7923333757993
 31
0.0
 70
    32
  1
<>
 71
     5
 42
-1.0
 53
0.00013888888889
  3
ME10_DIM_12
100
AcDbAlignedDimension
 13
259.8552070538688
 23
166.3738832851016
 33
0.0
 14
195.8552070538688
 24
166.3738832851016
 34
0.0
100
AcDbRotatedDimension
  0
ENDSEC
  0
SECTION
  2
OBJECTS
  0
DICTIONARY
  5
C
330
0
100
AcDbDictionary
281
     1
  3
ACAD_GROUP
350
D
  3
ACAD_LAYOUT
350
1A
  3
ACAD_MATERIAL
350
3B
  3
ACAD_MLEADERSTYLE
350
224
  3
ACAD_MLINESTYLE
350
17
  3
ACAD_PLOTSETTINGS
350
19
  3
ACAD_PLOTSTYLENAME
350
E
  3
ACAD_VISUALSTYLE
350
2A
  3
AcDbVariableDictionary
350
222
  0
DICTIONARY
  5
D
102
{ACAD_REACTORS
330
C
102
}
330
C
100
AcDbDictionary
281
     1
  0
DICTIONARY
  5
1A
102
{ACAD_REACTORS
330
C
102
}
330
C
100
AcDbDictionary
281
     1
  3
Layout1
350
1E
  3
Layout2
350
26
  3
Model
350
22
  0
DICTIONARY
  5
3B
102
{ACAD_REACTORS
330
C
102
}
330
C
100
AcDbDictionary
281
     1
  3
ByBlock
350
3D
  3
ByLayer
350
3C
  3
Global
350
3E
  0
DICTIONARY
  5
224
102
{ACAD_REACTORS
330
C
102
}
330
C
100
AcDbDictionary
281
     1
  0
DICTIONARY
  5
17
102
{ACAD_REACTORS
330
C
102
}
330
C
100
AcDbDictionary
281
     1
  3
Standard
350
18
  0
DICTIONARY
  5
19
102
{ACAD_REACTORS
330
C
102
}
330
C
100
AcDbDictionary
281
     1
  0
ACDBDICTIONARYWDFLT
  5
E
102
{ACAD_REACTORS
330
C
102
}
330
C
100
AcDbDictionary
281
     1
  3
Normal
350
F
100
AcDbDictionaryWithDefault
340
F
  0
DICTIONARY
  5
2A
102
{ACAD_REACTORS
330
C
102
}
330
C
100
AcDbDictionary
281
     1
  3
2dWireframe
350
2F
  3
3D Hidden
350
31
  3
3dWireframe
350
30
  3
Basic
350
32
  3
Brighten
350
36
  3
ColorChange
350
3A
  3
Conceptual
350
34
  3
Dim
350
35
  3
Facepattern
350
39
  3
Flat
350
2B
  3
FlatWithEdges
350
2C
  3
Gouraud
350
2D
  3
GouraudWithEdges
350
2E
  3
Linepattern
350
38
  3
Realistic
350
33
  3
Thicken
350
37
  0
DICTIONARY
  5
222
102
{ACAD_REACTORS
330
C
102
}
330
C
100
AcDbDictionary
281
     1
  3
DIMASSOC
350
225
  3
HIDETEXT
350
226
  0
LAYOUT
  5
1E
102
{ACAD_REACTORS
330
1A
102
}
330
1A
100
AcDbPlotSettings
  1

  2
none_device
  4

  6

 40
0.0
 41
0.0
 42
0.0
 43
0.0
 44
0.0
 45
0.0
 46
0.0
 47
0.0
 48
0.0
 49
0.0
140
0.0
141
0.0
142
1.0
143
1.0
 70
   688
 72
     0
 73
     0
 74
     5
  7

 75
    16
147
1.0
148
0.0
149
0.0
100
AcDbLayout
  1
Layout1
 70
     1
 71
     1
 10
0.0
 20
0.0
 11
12.0
 21
9.0
 12
0.0
 22
0.0
 32
0.0
 14
1.00000000000000E+20
 24
1.00000000000000E+20
 34
1.00000000000000E+20
 15
-1.00000000000000E+20
 25
-1.00000000000000E+20
 35
-1.00000000000000E+20
146
0.0
 13
0.0
 23
0.0
 33
0.0
 16
1.0
 26
0.0
 36
0.0
 17
0.0
 27
1.0
 37
0.0
 76
     0
330
1B
  0
LAYOUT
  5
26
102
{ACAD_REACTORS
330
1A
102
}
330
1A
100
AcDbPlotSettings
  1

  2
none_device
  4

  6

 40
0.0
 41
0.0
 42
0.0
 43
0.0
 44
0.0
 45
0.0
 46
0.0
 47
0.0
 48
0.0
 49
0.0
140
0.0
141
0.0
142
1.0
143
1.0
 70
   688
 72
     0
 73
     0
 74
     5
  7

 75
    16
147
1.0
148
0.0
149
0.0
100
AcDbLayout
  1
Layout2
 70
     1
 71
     2
 10
0.0
 20
0.0
 11
0.0
 21
0.0
 12
0.0
 22
0.0
 32
0.0
 14
0.0
 24
0.0
 34
0.0
 15
0.0
 25
0.0
 35
0.0
146
0.0
 13
0.0
 23
0.0
 33
0.0
 16
1.0
 26
0.0
 36
0.0
 17
0.0
 27
1.0
 37
0.0
 76
     0
330
23
  0
LAYOUT
  5
22
102
{ACAD_REACTORS
330
1A
102
}
330
1A
100
AcDbPlotSettings
  1

  2
none_device
  4

  6

 40
0.0
 41
0.0
 42
0.0
 43
0.0
 44
0.0
 45
0.0
 46
0.0
 47
0.0
 48
0.0
 49
0.0
140
0.0
141
0.0
142
1.0
143
1.0
 70
  1712
 72
     0
 73
     0
 74
     0
  7

 75
     0
147
1.0
148
0.0
149
0.0
100
AcDbLayout
  1
Model
 70
     1
 71
     0
 10
0.0
 20
0.0
 11
12.0
 21
9.0
 12
0.0
 22
0.0
 32
0.0
 14
0.0
 24
0.0
 34
0.0
 15
315.0
 25
445.5
 35
0.0
146
0.0
 13
0.0
 23
0.0
 33
0.0
 16
1.0
 26
0.0
 36
0.0
 17
0.0
 27
1.0
 37
0.0
 76
     0
330
1F
331
29
  0
MATERIAL
  5
3D
102
{ACAD_REACTORS
330
3B
102
}
102
{ACAD_XDICTIONARY
360
249
102
}
330
3B
100
AcDbMaterial
  1
ByBlock
  0
MATERIAL
  5
3C
102
{ACAD_REACTORS
330
3B
102
}
102
{ACAD_XDICTIONARY
360
247
102
}
330
3B
100
AcDbMaterial
  1
ByLayer
  0
MATERIAL
  5
3E
102
{ACAD_REACTORS
330
3B
102
}
102
{ACAD_XDICTIONARY
360
24B
102
}
330
3B
100
AcDbMaterial
  1
Global
  0
MLINESTYLE
  5
18
102
{ACAD_REACTORS
330
17
102
}
330
17
100
AcDbMlineStyle
  2
Standard
 70
     0
  3

 62
   256
 51
90.0
 52
90.0
 71
     2
 49
0.5
 62
   256
  6
BYLAYER
 49
-0.5
 62
   256
  6
BYLAYER
  0
ACDBPLACEHOLDER
  5
F
102
{ACAD_REACTORS
330
E
102
}
330
E
  0
VISUALSTYLE
  5
2F
102
{ACAD_REACTORS
330
2A
102
}
102
{ACAD_XDICTIONARY
360
22F
102
}
330
2A
100
AcDbVisualStyle
  2
2dWireframe
 70
     4
 71
     0
 72
     2
 73
     0
 90
        0
 40
-0.6
 41
-30.0
 62
     5
 63
     7
 74
     1
 91
        4
 64
     7
 65
   257
 75
     1
175
     1
 42
1.0
 92
        0
 66
   257
 43
1.0
 76
     1
 77
     6
 78
     2
 67
     7
 79
     5
170
     0
171
     0
290
     0
174
     0
 93
        1
 44
0.0
173
     0
291
     0
 45
0.0
1001
ACAD
1000
AcDbSavedByObjectVersion
1070
     0
  0
VISUALSTYLE
  5
31
102
{ACAD_REACTORS
330
2A
102
}
102
{ACAD_XDICTIONARY
360
233
102
}
330
2A
100
AcDbVisualStyle
  2
3D Hidden
 70
     6
 71
     1
 72
     2
 73
     2
 90
        0
 40
-0.6
 41
-30.0
 62
     5
 63
     7
 74
     2
 91
        2
 64
     7
 65
   257
 75
     2
175
     1
 42
40.0
 92
        0
 66
   257
 43
1.0
 76
     1
 77
     6
 78
     2
 67
     7
 79
     3
170
     0
171
     0
290
     0
174
     0
 93
        1
 44
0.0
173
     0
291
     0
 45
0.0
1001
ACAD
1000
AcDbSavedByObjectVersion
1070
     0
  0
VISUALSTYLE
  5
30
102
{ACAD_REACTORS
330
2A
102
}
102
{ACAD_XDICTIONARY
360
231
102
}
330
2A
100
AcDbVisualStyle
  2
3dWireframe
 70
     5
 71
     0
 72
     2
 73
     0
 90
        0
 40
-0.6
 41
-30.0
 62
     5
 63
     7
 74
     1
 91
        4
 64
     7
 65
   257
 75
     1
175
     1
 42
1.0
 92
        0
 66
   257
 43
1.0
 76
     1
 77
     6
 78
     2
 67
     7
 79
     5
170
     0
171
     0
290
     0
174
     0
 93
        1
 44
0.0
173
     0
291
     0
 45
0.0
1001
ACAD
1000
AcDbSavedByObjectVersion
1070
     0
  0
VISUALSTYLE
  5
32
102
{ACAD_REACTORS
330
2A
102
}
102
{ACAD_XDICTIONARY
360
235
102
}
330
2A
100
AcDbVisualStyle
  2
Basic
 70
     7
 71
     1
 72
     0
 73
     1
 90
        0
 40
-0.6
 41
-30.0
 62
     5
 63
     7
 74
     0
 91
        4
 64
     7
 65
   257
 75
     1
175
     1
 42
1.0
 92
        8
 66
     7
 43
1.0
 76
     1
 77
     6
 78
     2
 67
     7
 79
     5
170
     0
171
     0
290
     0
174
     0
 93
        1
 44
0.0
173
     0
291
     1
 45
0.0
1001
ACAD
1000
AcDbSavedByObjectVersion
1070
     0
  0
VISUALSTYLE
  5
36
102
{ACAD_REACTORS
330
2A
102
}
102
{ACAD_XDICTIONARY
360
23D
102
}
330
2A
100
AcDbVisualStyle
  2
Brighten
 70
    12
 71
     2
 72
     2
 73
     0
 90
        0
 40
-0.6
 41
-30.0
 62
     5
 63
     7
 74
     1
 91
        4
 64
     7
 65
   257
 75
     1
175
     1
 42
1.0
 92
        8
 66
     7
 43
1.0
 76
     1
 77
     6
 78
     2
 67
     7
 79
     5
170
     0
171
     0
290
     0
174
     0
 93
        1
 44
50.0
173
     0
291
     1
 45
0.0
1001
ACAD
1000
AcDbSavedByObjectVersion
1070
     0
  0
VISUALSTYLE
  5
3A
102
{ACAD_REACTORS
330
2A
102
}
102
{ACAD_XDICTIONARY
360
245
102
}
330
2A
100
AcDbVisualStyle
  2
ColorChange
 70
    16
 71
     2
 72
     2
 73
     3
 90
        0
 40
-0.6
 41
-30.0
 62
     5
 63
     8
 74
     1
 91
        4
 64
     7
 65
   257
 75
     1
175
     1
 42
1.0
 92
        8
 66
     8
 43
1.0
 76
     1
 77
     6
 78
     2
 67
     7
 79
     5
170
     0
171
     0
290
     0
174
     0
 93
        1
 44
0.0
173
     0
291
     1
 45
0.0
1001
ACAD
1000
AcDbSavedByObjectVersion
1070
     0
  0
VISUALSTYLE
  5
34
102
{ACAD_REACTORS
330
2A
102
}
102
{ACAD_XDICTIONARY
360
239
102
}
330
2A
100
AcDbVisualStyle
  2
Conceptual
 70
     9
 71
     3
 72
     2
 73
     0
 90
        0
 40
-0.6
 41
-30.0
 62
     5
 63
     7
 74
     2
 91
        2
 64
     7
 65
   257
 75
     1
175
     1
 42
40.0
 92
        8
 66
     7
 43
1.0
 76
     1
 77
     6
 78
     2
 67
     7
 79
     3
170
     0
171
     0
290
     0
174
     0
 93
        1
 44
0.0
173
     0
291
     0
 45
0.0
1001
ACAD
1000
AcDbSavedByObjectVersion
1070
     0
  0
VISUALSTYLE
  5
35
102
{ACAD_REACTORS
330
2A
102
}
102
{ACAD_XDICTIONARY
360
23B
102
}
330
2A
100
AcDbVisualStyle
  2
Dim
 70
    11
 71
     2
 72
     2
 73
     0
 90
        0
 40
-0.6
 41
-30.0
 62
     5
 63
     7
 74
     1
 91
        4
 64
     7
 65
   257
 75
     1
175
     1
 42
1.0
 92
        8
 66
     7
 43
1.0
 76
     1
 77
     6
 78
     2
 67
     7
 79
     5
170
     0
171
     0
290
     0
174
     0
 93
        1
 44
-50.0
173
     0
291
     1
 45
0.0
1001
ACAD
1000
AcDbSavedByObjectVersion
1070
     0
  0
VISUALSTYLE
  5
39
102
{ACAD_REACTORS
330
2A
102
}
102
{ACAD_XDICTIONARY
360
243
102
}
330
2A
100
AcDbVisualStyle
  2
Facepattern
 70
    15
 71
     2
 72
     2
 73
     0
 90
        0
 40
-0.6
 41
-30.0
 62
     5
 63
     7
 74
     1
 91
        4
 64
     7
 65
   257
 75
     1
175
     1
 42
1.0
 92
        8
 66
     7
 43
1.0
 76
     1
 77
     6
 78
     2
 67
     7
 79
     5
170
     0
171
     0
290
     0
174
     0
 93
        1
 44
0.0
173
     0
291
     1
 45
0.0
1001
ACAD
1000
AcDbSavedByObjectVersion
1070
     0
  0
VISUALSTYLE
  5
2B
102
{ACAD_REACTORS
330
2A
102
}
102
{ACAD_XDICTIONARY
360
227
102
}
330
2A
100
AcDbVisualStyle
  2
Flat
 70
     0
 71
     2
 72
     1
 73
     1
 90
        2
 40
-0.6
 41
30.0
 62
     5
 63
     7
 74
     0
 91
        4
 64
     7
 65
   257
 75
     1
175
     1
 42
1.0
 92
        8
 66
     7
 43
1.0
 76
     1
 77
     6
 78
     2
 67
     7
 79
     5
170
     0
171
     0
290
     0
174
     0
 93
       13
 44
0.0
173
     0
291
     1
 45
0.0
1001
ACAD
1000
AcDbSavedByObjectVersion
1070
     0
  0
VISUALSTYLE
  5
2C
102
{ACAD_REACTORS
330
2A
102
}
102
{ACAD_XDICTIONARY
360
229
102
}
330
2A
100
AcDbVisualStyle
  2
FlatWithEdges
 70
     1
 71
     2
 72
     1
 73
     1
 90
        2
 40
-0.6
 41
30.0
 62
     5
 63
     7
 74
     1
 91
        4
 64
     7
 65
   257
 75
     1
175
     1
 42
1.0
 92
        0
 66
   257
 43
1.0
 76
     1
 77
     6
 78
     2
 67
     7
 79
     5
170
     0
171
     0
290
     0
174
     0
 93
       13
 44
0.0
173
     0
291
     1
 45
0.0
1001
ACAD
1000
AcDbSavedByObjectVersion
1070
     0
  0
VISUALSTYLE
  5
2D
102
{ACAD_REACTORS
330
2A
102
}
102
{ACAD_XDICTIONARY
360
22B
102
}
330
2A
100
AcDbVisualStyle
  2
Gouraud
 70
     2
 71
     2
 72
     2
 73
     1
 90
        2
 40
-0.6
 41
30.0
 62
     5
 63
     7
 74
     0
 91
        4
 64
     7
 65
   257
 75
     1
175
     1
 42
1.0
 92
        0
 66
     7
 43
1.0
 76
     1
 77
     6
 78
     2
 67
     7
 79
     5
170
     0
171
     0
290
     0
174
     0
 93
       13
 44
0.0
173
     0
291
     1
 45
0.0
1001
ACAD
1000
AcDbSavedByObjectVersion
1070
     0
  0
VISUALSTYLE
  5
2E
102
{ACAD_REACTORS
330
2A
102
}
102
{ACAD_XDICTIONARY
360
22D
102
}
330
2A
100
AcDbVisualStyle
  2
GouraudWithEdges
 70
     3
 71
     2
 72
     2
 73
     1
 90
        2
 40
-0.6
 41
30.0
 62
     5
 63
     7
 74
     1
 91
        4
 64
     7
 65
   257
 75
     1
175
     1
 42
1.0
 92
        0
 66
   257
 43
1.0
 76
     1
 77
     6
 78
     2
 67
     7
 79
     5
170
     0
171
     0
290
     0
174
     0
 93
       13
 44
0.0
173
     0
291
     1
 45
0.0
1001
ACAD
1000
AcDbSavedByObjectVersion
1070
     0
  0
VISUALSTYLE
  5
38
102
{ACAD_REACTORS
330
2A
102
}
102
{ACAD_XDICTIONARY
360
241
102
}
330
2A
100
AcDbVisualStyle
  2
Linepattern
 70
    14
 71
     2
 72
     2
 73
     0
 90
        0
 40
-0.6
 41
-30.0
 62
     5
 63
     7
 74
     1
 91
        4
 64
     7
 65
   257
 75
     7
175
     7
 42
1.0
 92
        8
 66
     7
 43
1.0
 76
     1
 77
     6
 78
     2
 67
     7
 79
     5
170
     0
171
     0
290
     0
174
     0
 93
        1
 44
0.0
173
     0
291
     1
 45
0.0
1001
ACAD
1000
AcDbSavedByObjectVersion
1070
     0
  0
VISUALSTYLE
  5
33
102
{ACAD_REACTORS
330
2A
102
}
102
{ACAD_XDICTIONARY
360
237
102
}
330
2A
100
AcDbVisualStyle
  2
Realistic
 70
     8
 71
     2
 72
     2
 73
     0
 90
        0
 40
-0.6
 41
-30.0
 62
     5
 63
     7
 74
     1
 91
        0
 64
     7
 65
   257
 75
     1
175
     1
 42
1.0
 92
        8
 66
     8
 43
1.0
 76
     1
 77
     6
 78
     2
 67
     7
 79
     5
170
     0
171
     0
290
     0
174
     0
 93
       13
 44
0.0
173
     0
291
     0
 45
0.0
1001
ACAD
1000
AcDbSavedByObjectVersion
1070
     0
  0
VISUALSTYLE
  5
37
102
{ACAD_REACTORS
330
2A
102
}
102
{ACAD_XDICTIONARY
360
23F
102
}
330
2A
100
AcDbVisualStyle
  2
Thicken
 70
    13
 71
     2
 72
     2
 73
     0
 90
        0
 40
-0.6
 41
-30.0
 62
     5
 63
     7
 74
     1
 91
        4
 64
     7
 65
   257
 75
     1
175
     1
 42
1.0
 92
       12
 66
     7
 43
1.0
 76
     1
 77
     6
 78
     2
 67
     7
 79
     5
170
     0
171
     0
290
     0
174
     0
 93
        1
 44
0.0
173
     0
291
     1
 45
0.0
1001
ACAD
1000
AcDbSavedByObjectVersion
1070
     0
  0
DICTIONARYVAR
  5
225
102
{ACAD_REACTORS
330
222
102
}
330
222
100
DictionaryVariables
280
     0
  1
2
  0
DICTIONARYVAR
  5
226
102
{ACAD_REACTORS
330
222
102
}
330
222
100
DictionaryVariables
280
     0
  1
1
  0
DICTIONARY
  5
249
330
3D
100
AcDbDictionary
280
     1
281
     1
  3
ACAD_XREC_ROUNDTRIP
360
24A
  0
DICTIONARY
  5
247
330
3C
100
AcDbDictionary
280
     1
281
     1
  3
ACAD_XREC_ROUNDTRIP
360
248
  0
DICTIONARY
  5
24B
330
3E
100
AcDbDictionary
280
     1
281
     1
  3
ACAD_XREC_ROUNDTRIP
360
24C
  0
DICTIONARY
  5
22F
330
2F
100
AcDbDictionary
280
     1
281
     1
  3
ACAD_XREC_ROUNDTRIP
360
230
  0
DICTIONARY
  5
233
330
31
100
AcDbDictionary
280
     1
281
     1
  3
ACAD_XREC_ROUNDTRIP
360
234
  0
DICTIONARY
  5
231
330
30
100
AcDbDictionary
280
     1
281
     1
  3
ACAD_XREC_ROUNDTRIP
360
232
  0
DICTIONARY
  5
235
330
32
100
AcDbDictionary
280
     1
281
     1
  3
ACAD_XREC_ROUNDTRIP
360
236
  0
DICTIONARY
  5
23D
330
36
100
AcDbDictionary
280
     1
281
     1
  3
ACAD_XREC_ROUNDTRIP
360
23E
  0
DICTIONARY
  5
245
330
3A
100
AcDbDictionary
280
     1
281
     1
  3
ACAD_XREC_ROUNDTRIP
360
246
  0
DICTIONARY
  5
239
330
34
100
AcDbDictionary
280
     1
281
     1
  3
ACAD_XREC_ROUNDTRIP
360
23A
  0
DICTIONARY
  5
23B
330
35
100
AcDbDictionary
280
     1
281
     1
  3
ACAD_XREC_ROUNDTRIP
360
23C
  0
DICTIONARY
  5
243
330
39
100
AcDbDictionary
280
     1
281
     1
  3
ACAD_XREC_ROUNDTRIP
360
244
  0
DICTIONARY
  5
227
330
2B
100
AcDbDictionary
280
     1
281
     1
  3
ACAD_XREC_ROUNDTRIP
360
228
  0
DICTIONARY
  5
229
330
2C
100
AcDbDictionary
280
     1
281
     1
  3
ACAD_XREC_ROUNDTRIP
360
22A
  0
DICTIONARY
  5
22B
330
2D
100
AcDbDictionary
280
     1
281
     1
  3
ACAD_XREC_ROUNDTRIP
360
22C
  0
DICTIONARY
  5
22D
330
2E
100
AcDbDictionary
280
     1
281
     1
  3
ACAD_XREC_ROUNDTRIP
360
22E
  0
DICTIONARY
  5
241
330
38
100
AcDbDictionary
280
     1
281
     1
  3
ACAD_XREC_ROUNDTRIP
360
242
  0
DICTIONARY
  5
237
330
33
100
AcDbDictionary
280
     1
281
     1
  3
ACAD_XREC_ROUNDTRIP
360
238
  0
DICTIONARY
  5
23F
330
37
100
AcDbDictionary
280
     1
281
     1
  3
ACAD_XREC_ROUNDTRIP
360
240
  0
XRECORD
  5
24A
102
{ACAD_REACTORS
330
249
102
}
330
249
100
AcDbXrecord
280
     1
102
MATERIAL
148
0.0
149
0.0
149
0.0
 93
        0
 94
      127
282
     0
 72
     1
 77
     1
171
     1
175
     1
179
     1
273
     0
  0
XRECORD
  5
248
102
{ACAD_REACTORS
330
247
102
}
330
247
100
AcDbXrecord
280
     1
102
MATERIAL
148
0.0
149
0.0
149
0.0
 93
        0
 94
      127
282
     0
 72
     1
 77
     1
171
     1
175
     1
179
     1
273
     0
  0
XRECORD
  5
24C
102
{ACAD_REACTORS
330
24B
102
}
330
24B
100
AcDbXrecord
280
     1
102
MATERIAL
148
0.0
149
0.0
149
0.0
 93
        0
 94
      127
282
     0
 72
     1
 77
     1
171
     1
175
     1
179
     1
273
     0
  0
XRECORD
  5
230
102
{ACAD_REACTORS
330
22F
102
}
330
22F
100
AcDbXrecord
280
     1
102
RTVSPropertyOp0
 70
     1
102
RTVSPropertyOp1
 70
     1
102
RTVSPropertyOp2
 70
     1
102
RTVSPropertyOp3
 70
     1
102
RTVSPropertyOp4
 70
     1
102
RTVSPropertyOp5
 70
     1
102
RTVSPropertyOp6
 70
     1
102
RTVSPropertyOp7
 70
     1
102
RTVSPropertyOp8
 70
     1
102
RTVSPropertyOp9
 70
     1
102
RTVSPropertyOp10
 70
     1
102
RTVSPropertyOp11
 70
     1
102
RTVSPropertyOp12
 70
     1
102
RTVSPropertyOp13
 70
     1
102
RTVSPropertyOp14
 70
     1
102
RTVSPropertyOp15
 70
     1
102
RTVSPropertyOp16
 70
     1
102
RTVSPropertyOp17
 70
     1
102
RTVSPropertyOp18
 70
     1
102
RTVSPropertyOp19
 70
     1
102
RTVSPropertyOp20
 70
     1
102
RTVSPropertyOp21
 70
     1
102
RTVSPropertyOp22
 70
     1
102
RTVSPropertyOp23
 70
     1
102
RTVSPropertyOp24
 70
     1
102
RTVSPropertyOp25
 70
     1
102
RTVSPropertyOp26
 70
     1
102
RTVSPropertyOp27
 70
     1
102
RTVSPropertyOp28
 70
     1
102
RTVSPropertyOp29
 70
     1
102
RTVSPropertyOp30
 70
     1
102
RTVSPropertyOp31
 70
     1
102
RTVSPropertyOp32
 70
     1
  0
XRECORD
  5
234
102
{ACAD_REACTORS
330
233
102
}
330
233
100
AcDbXrecord
280
     1
102
RTVSPropertyOp0
 70
     1
102
RTVSPropertyOp1
 70
     1
102
RTVSPropertyOp2
 70
     1
102
RTVSPropertyOp3
 70
     1
102
RTVSPropertyOp4
 70
     1
102
RTVSPropertyOp5
 70
     1
102
RTVSPropertyOp6
 70
     1
102
RTVSPropertyOp7
 70
     1
102
RTVSPropertyOp8
 70
     1
102
RTVSPropertyOp9
 70
     1
102
RTVSPropertyOp10
 70
     1
102
RTVSPropertyOp11
 70
     1
102
RTVSPropertyOp12
 70
     1
102
RTVSPropertyOp13
 70
     1
102
RTVSPropertyOp14
 70
     1
102
RTVSPropertyOp15
 70
     1
102
RTVSPropertyOp16
 70
     1
102
RTVSPropertyOp17
 70
     1
102
RTVSPropertyOp18
 70
     1
102
RTVSPropertyOp19
 70
     1
102
RTVSPropertyOp20
 70
     1
102
RTVSPropertyOp21
 70
     1
102
RTVSPropertyOp22
 70
     1
102
RTVSPropertyOp23
 70
     1
102
RTVSPropertyOp24
 70
     1
102
RTVSPropertyOp25
 70
     1
102
RTVSPropertyOp26
 70
     1
102
RTVSPropertyOp27
 70
     1
102
RTVSPropertyOp28
 70
     1
102
RTVSPropertyOp29
 70
     1
102
RTVSPropertyOp30
 70
     1
102
RTVSPropertyOp31
 70
     1
102
RTVSPropertyOp32
 70
     1
  0
XRECORD
  5
232
102
{ACAD_REACTORS
330
231
102
}
330
231
100
AcDbXrecord
280
     1
102
RTVSPropertyOp0
 70
     1
102
RTVSPropertyOp1
 70
     1
102
RTVSPropertyOp2
 70
     1
102
RTVSPropertyOp3
 70
     1
102
RTVSPropertyOp4
 70
     1
102
RTVSPropertyOp5
 70
     1
102
RTVSPropertyOp6
 70
     1
102
RTVSPropertyOp7
 70
     1
102
RTVSPropertyOp8
 70
     1
102
RTVSPropertyOp9
 70
     1
102
RTVSPropertyOp10
 70
     1
102
RTVSPropertyOp11
 70
     1
102
RTVSPropertyOp12
 70
     1
102
RTVSPropertyOp13
 70
     1
102
RTVSPropertyOp14
 70
     1
102
RTVSPropertyOp15
 70
     1
102
RTVSPropertyOp16
 70
     1
102
RTVSPropertyOp17
 70
     1
102
RTVSPropertyOp18
 70
     1
102
RTVSPropertyOp19
 70
     1
102
RTVSPropertyOp20
 70
     1
102
RTVSPropertyOp21
 70
     1
102
RTVSPropertyOp22
 70
     1
102
RTVSPropertyOp23
 70
     1
102
RTVSPropertyOp24
 70
     1
102
RTVSPropertyOp25
 70
     1
102
RTVSPropertyOp26
 70
     1
102
RTVSPropertyOp27
 70
     1
102
RTVSPropertyOp28
 70
     1
102
RTVSPropertyOp29
 70
     1
102
RTVSPropertyOp30
 70
     1
102
RTVSPropertyOp31
 70
     1
102
RTVSPropertyOp32
 70
     1
  0
XRECORD
  5
236
102
{ACAD_REACTORS
330
235
102
}
330
235
100
AcDbXrecord
280
     1
102
RTVSPropertyOp0
 70
     1
102
RTVSPropertyOp1
 70
     1
102
RTVSPropertyOp2
 70
     1
102
RTVSPropertyOp3
 70
     1
102
RTVSPropertyOp4
 70
     1
102
RTVSPropertyOp5
 70
     1
102
RTVSPropertyOp6
 70
     1
102
RTVSPropertyOp7
 70
     1
102
RTVSPropertyOp8
 70
     1
102
RTVSPropertyOp9
 70
     1
102
RTVSPropertyOp10
 70
     1
102
RTVSPropertyOp11
 70
     1
102
RTVSPropertyOp12
 70
     1
102
RTVSPropertyOp13
 70
     1
102
RTVSPropertyOp14
 70
     1
102
RTVSPropertyOp15
 70
     1
102
RTVSPropertyOp16
 70
     1
102
RTVSPropertyOp17
 70
     1
102
RTVSPropertyOp18
 70
     1
102
RTVSPropertyOp19
 70
     1
102
RTVSPropertyOp20
 70
     1
102
RTVSPropertyOp21
 70
     1
102
RTVSPropertyOp22
 70
     1
102
RTVSPropertyOp23
 70
     1
102
RTVSPropertyOp24
 70
     1
102
RTVSPropertyOp25
 70
     1
102
RTVSPropertyOp26
 70
     1
102
RTVSPropertyOp27
 70
     1
102
RTVSPropertyOp28
 70
     1
102
RTVSPropertyOp29
 70
     1
102
RTVSPropertyOp30
 70
     1
102
RTVSPropertyOp31
 70
     1
102
RTVSPropertyOp32
 70
     1
  0
XRECORD
  5
23E
102
{ACAD_REACTORS
330
23D
102
}
330
23D
100
AcDbXrecord
280
     1
102
RTVSPropertyOp0
 70
     1
102
RTVSPropertyOp1
 70
     1
102
RTVSPropertyOp2
 70
     1
102
RTVSPropertyOp3
 70
     1
102
RTVSPropertyOp4
 70
     1
102
RTVSPropertyOp5
 70
     1
102
RTVSPropertyOp6
 70
     1
102
RTVSPropertyOp7
 70
     1
102
RTVSPropertyOp8
 70
     1
102
RTVSPropertyOp9
 70
     1
102
RTVSPropertyOp10
 70
     1
102
RTVSPropertyOp11
 70
     1
102
RTVSPropertyOp12
 70
     1
102
RTVSPropertyOp13
 70
     1
102
RTVSPropertyOp14
 70
     1
102
RTVSPropertyOp15
 70
     1
102
RTVSPropertyOp16
 70
     1
102
RTVSPropertyOp17
 70
     1
102
RTVSPropertyOp18
 70
     1
102
RTVSPropertyOp19
 70
     1
102
RTVSPropertyOp20
 70
     1
102
RTVSPropertyOp21
 70
     1
102
RTVSPropertyOp22
 70
     1
102
RTVSPropertyOp23
 70
     1
102
RTVSPropertyOp24
 70
     1
102
RTVSPropertyOp25
 70
     1
102
RTVSPropertyOp26
 70
     1
102
RTVSPropertyOp27
 70
     1
102
RTVSPropertyOp28
 70
     1
102
RTVSPropertyOp29
 70
     1
102
RTVSPropertyOp30
 70
     1
102
RTVSPropertyOp31
 70
     1
102
RTVSPropertyOp32
 70
     1
  0
XRECORD
  5
246
102
{ACAD_REACTORS
330
245
102
}
330
245
100
AcDbXrecord
280
     1
102
RTVSPropertyOp0
 70
     1
102
RTVSPropertyOp1
 70
     1
102
RTVSPropertyOp2
 70
     1
102
RTVSPropertyOp3
 70
     1
102
RTVSPropertyOp4
 70
     1
102
RTVSPropertyOp5
 70
     1
102
RTVSPropertyOp6
 70
     1
102
RTVSPropertyOp7
 70
     1
102
RTVSPropertyOp8
 70
     1
102
RTVSPropertyOp9
 70
     1
102
RTVSPropertyOp10
 70
     1
102
RTVSPropertyOp11
 70
     1
102
RTVSPropertyOp12
 70
     1
102
RTVSPropertyOp13
 70
     1
102
RTVSPropertyOp14
 70
     1
102
RTVSPropertyOp15
 70
     1
102
RTVSPropertyOp16
 70
     1
102
RTVSPropertyOp17
 70
     1
102
RTVSPropertyOp18
 70
     1
102
RTVSPropertyOp19
 70
     1
102
RTVSPropertyOp20
 70
     1
102
RTVSPropertyOp21
 70
     1
102
RTVSPropertyOp22
 70
     1
102
RTVSPropertyOp23
 70
     1
102
RTVSPropertyOp24
 70
     1
102
RTVSPropertyOp25
 70
     1
102
RTVSPropertyOp26
 70
     1
102
RTVSPropertyOp27
 70
     1
102
RTVSPropertyOp28
 70
     1
102
RTVSPropertyOp29
 70
     1
102
RTVSPropertyOp30
 70
     1
102
RTVSPropertyOp31
 70
     1
102
RTVSPropertyOp32
 70
     1
  0
XRECORD
  5
23A
102
{ACAD_REACTORS
330
239
102
}
330
239
100
AcDbXrecord
280
     1
102
RTVSPropertyOp0
 70
     1
102
RTVSPropertyOp1
 70
     1
102
RTVSPropertyOp2
 70
     1
102
RTVSPropertyOp3
 70
     1
102
RTVSPropertyOp4
 70
     1
102
RTVSPropertyOp5
 70
     1
102
RTVSPropertyOp6
 70
     1
102
RTVSPropertyOp7
 70
     1
102
RTVSPropertyOp8
 70
     1
102
RTVSPropertyOp9
 70
     1
102
RTVSPropertyOp10
 70
     1
102
RTVSPropertyOp11
 70
     1
102
RTVSPropertyOp12
 70
     1
102
RTVSPropertyOp13
 70
     1
102
RTVSPropertyOp14
 70
     1
102
RTVSPropertyOp15
 70
     1
102
RTVSPropertyOp16
 70
     1
102
RTVSPropertyOp17
 70
     1
102
RTVSPropertyOp18
 70
     1
102
RTVSPropertyOp19
 70
     1
102
RTVSPropertyOp20
 70
     1
102
RTVSPropertyOp21
 70
     1
102
RTVSPropertyOp22
 70
     1
102
RTVSPropertyOp23
 70
     1
102
RTVSPropertyOp24
 70
     1
102
RTVSPropertyOp25
 70
     1
102
RTVSPropertyOp26
 70
     1
102
RTVSPropertyOp27
 70
     1
102
RTVSPropertyOp28
 70
     1
102
RTVSPropertyOp29
 70
     1
102
RTVSPropertyOp30
 70
     1
102
RTVSPropertyOp31
 70
     1
102
RTVSPropertyOp32
 70
     1
  0
XRECORD
  5
23C
102
{ACAD_REACTORS
330
23B
102
}
330
23B
100
AcDbXrecord
280
     1
102
RTVSPropertyOp0
 70
     1
102
RTVSPropertyOp1
 70
     1
102
RTVSPropertyOp2
 70
     1
102
RTVSPropertyOp3
 70
     1
102
RTVSPropertyOp4
 70
     1
102
RTVSPropertyOp5
 70
     1
102
RTVSPropertyOp6
 70
     1
102
RTVSPropertyOp7
 70
     1
102
RTVSPropertyOp8
 70
     1
102
RTVSPropertyOp9
 70
     1
102
RTVSPropertyOp10
 70
     1
102
RTVSPropertyOp11
 70
     1
102
RTVSPropertyOp12
 70
     1
102
RTVSPropertyOp13
 70
     1
102
RTVSPropertyOp14
 70
     1
102
RTVSPropertyOp15
 70
     1
102
RTVSPropertyOp16
 70
     1
102
RTVSPropertyOp17
 70
     1
102
RTVSPropertyOp18
 70
     1
102
RTVSPropertyOp19
 70
     1
102
RTVSPropertyOp20
 70
     1
102
RTVSPropertyOp21
 70
     1
102
RTVSPropertyOp22
 70
     1
102
RTVSPropertyOp23
 70
     1
102
RTVSPropertyOp24
 70
     1
102
RTVSPropertyOp25
 70
     1
102
RTVSPropertyOp26
 70
     1
102
RTVSPropertyOp27
 70
     1
102
RTVSPropertyOp28
 70
     1
102
RTVSPropertyOp29
 70
     1
102
RTVSPropertyOp30
 70
     1
102
RTVSPropertyOp31
 70
     1
102
RTVSPropertyOp32
 70
     1
  0
XRECORD
  5
244
102
{ACAD_REACTORS
330
243
102
}
330
243
100
AcDbXrecord
280
     1
102
RTVSPropertyOp0
 70
     1
102
RTVSPropertyOp1
 70
     1
102
RTVSPropertyOp2
 70
     1
102
RTVSPropertyOp3
 70
     1
102
RTVSPropertyOp4
 70
     1
102
RTVSPropertyOp5
 70
     1
102
RTVSPropertyOp6
 70
     1
102
RTVSPropertyOp7
 70
     1
102
RTVSPropertyOp8
 70
     1
102
RTVSPropertyOp9
 70
     1
102
RTVSPropertyOp10
 70
     1
102
RTVSPropertyOp11
 70
     1
102
RTVSPropertyOp12
 70
     1
102
RTVSPropertyOp13
 70
     1
102
RTVSPropertyOp14
 70
     1
102
RTVSPropertyOp15
 70
     1
102
RTVSPropertyOp16
 70
     1
102
RTVSPropertyOp17
 70
     1
102
RTVSPropertyOp18
 70
     1
102
RTVSPropertyOp19
 70
     1
102
RTVSPropertyOp20
 70
     1
102
RTVSPropertyOp21
 70
     1
102
RTVSPropertyOp22
 70
     1
102
RTVSPropertyOp23
 70
     1
102
RTVSPropertyOp24
 70
     1
102
RTVSPropertyOp25
 70
     1
102
RTVSPropertyOp26
 70
     1
102
RTVSPropertyOp27
 70
     1
102
RTVSPropertyOp28
 70
     1
102
RTVSPropertyOp29
 70
     1
102
RTVSPropertyOp30
 70
     1
102
RTVSPropertyOp31
 70
     1
102
RTVSPropertyOp32
 70
     1
  0
XRECORD
  5
228
102
{ACAD_REACTORS
330
227
102
}
330
227
100
AcDbXrecord
280
     1
102
RTVSPropertyOp0
 70
     1
102
RTVSPropertyOp1
 70
     1
102
RTVSPropertyOp2
 70
     1
102
RTVSPropertyOp3
 70
     1
102
RTVSPropertyOp4
 70
     1
102
RTVSPropertyOp5
 70
     1
102
RTVSPropertyOp6
 70
     1
102
RTVSPropertyOp7
 70
     1
102
RTVSPropertyOp8
 70
     1
102
RTVSPropertyOp9
 70
     1
102
RTVSPropertyOp10
 70
     1
102
RTVSPropertyOp11
 70
     1
102
RTVSPropertyOp12
 70
     1
102
RTVSPropertyOp13
 70
     1
102
RTVSPropertyOp14
 70
     1
102
RTVSPropertyOp15
 70
     1
102
RTVSPropertyOp16
 70
     1
102
RTVSPropertyOp17
 70
     1
102
RTVSPropertyOp18
 70
     1
102
RTVSPropertyOp19
 70
     1
102
RTVSPropertyOp20
 70
     1
102
RTVSPropertyOp21
 70
     1
102
RTVSPropertyOp22
 70
     1
102
RTVSPropertyOp23
 70
     1
102
RTVSPropertyOp24
 70
     1
102
RTVSPropertyOp25
 70
     1
102
RTVSPropertyOp26
 70
     1
102
RTVSPropertyOp27
 70
     1
102
RTVSPropertyOp28
 70
     1
102
RTVSPropertyOp29
 70
     1
102
RTVSPropertyOp30
 70
     1
102
RTVSPropertyOp31
 70
     1
102
RTVSPropertyOp32
 70
     1
  0
XRECORD
  5
22A
102
{ACAD_REACTORS
330
229
102
}
330
229
100
AcDbXrecord
280
     1
102
RTVSPropertyOp0
 70
     1
102
RTVSPropertyOp1
 70
     1
102
RTVSPropertyOp2
 70
     1
102
RTVSPropertyOp3
 70
     1
102
RTVSPropertyOp4
 70
     1
102
RTVSPropertyOp5
 70
     1
102
RTVSPropertyOp6
 70
     1
102
RTVSPropertyOp7
 70
     1
102
RTVSPropertyOp8
 70
     1
102
RTVSPropertyOp9
 70
     1
102
RTVSPropertyOp10
 70
     1
102
RTVSPropertyOp11
 70
     1
102
RTVSPropertyOp12
 70
     1
102
RTVSPropertyOp13
 70
     1
102
RTVSPropertyOp14
 70
     1
102
RTVSPropertyOp15
 70
     1
102
RTVSPropertyOp16
 70
     1
102
RTVSPropertyOp17
 70
     1
102
RTVSPropertyOp18
 70
     1
102
RTVSPropertyOp19
 70
     1
102
RTVSPropertyOp20
 70
     1
102
RTVSPropertyOp21
 70
     1
102
RTVSPropertyOp22
 70
     1
102
RTVSPropertyOp23
 70
     1
102
RTVSPropertyOp24
 70
     1
102
RTVSPropertyOp25
 70
     1
102
RTVSPropertyOp26
 70
     1
102
RTVSPropertyOp27
 70
     1
102
RTVSPropertyOp28
 70
     1
102
RTVSPropertyOp29
 70
     1
102
RTVSPropertyOp30
 70
     1
102
RTVSPropertyOp31
 70
     1
102
RTVSPropertyOp32
 70
     1
  0
XRECORD
  5
22C
102
{ACAD_REACTORS
330
22B
102
}
330
22B
100
AcDbXrecord
280
     1
102
RTVSPropertyOp0
 70
     1
102
RTVSPropertyOp1
 70
     1
102
RTVSPropertyOp2
 70
     1
102
RTVSPropertyOp3
 70
     1
102
RTVSPropertyOp4
 70
     1
102
RTVSPropertyOp5
 70
     1
102
RTVSPropertyOp6
 70
     1
102
RTVSPropertyOp7
 70
     1
102
RTVSPropertyOp8
 70
     1
102
RTVSPropertyOp9
 70
     1
102
RTVSPropertyOp10
 70
     1
102
RTVSPropertyOp11
 70
     1
102
RTVSPropertyOp12
 70
     1
102
RTVSPropertyOp13
 70
     1
102
RTVSPropertyOp14
 70
     1
102
RTVSPropertyOp15
 70
     1
102
RTVSPropertyOp16
 70
     1
102
RTVSPropertyOp17
 70
     1
102
RTVSPropertyOp18
 70
     1
102
RTVSPropertyOp19
 70
     1
102
RTVSPropertyOp20
 70
     1
102
RTVSPropertyOp21
 70
     1
102
RTVSPropertyOp22
 70
     1
102
RTVSPropertyOp23
 70
     1
102
RTVSPropertyOp24
 70
     1
102
RTVSPropertyOp25
 70
     1
102
RTVSPropertyOp26
 70
     1
102
RTVSPropertyOp27
 70
     1
102
RTVSPropertyOp28
 70
     1
102
RTVSPropertyOp29
 70
     1
102
RTVSPropertyOp30
 70
     1
102
RTVSPropertyOp31
 70
     1
102
RTVSPropertyOp32
 70
     1
  0
XRECORD
  5
22E
102
{ACAD_REACTORS
330
22D
102
}
330
22D
100
AcDbXrecord
280
     1
102
RTVSPropertyOp0
 70
     1
102
RTVSPropertyOp1
 70
     1
102
RTVSPropertyOp2
 70
     1
102
RTVSPropertyOp3
 70
     1
102
RTVSPropertyOp4
 70
     1
102
RTVSPropertyOp5
 70
     1
102
RTVSPropertyOp6
 70
     1
102
RTVSPropertyOp7
 70
     1
102
RTVSPropertyOp8
 70
     1
102
RTVSPropertyOp9
 70
     1
102
RTVSPropertyOp10
 70
     1
102
RTVSPropertyOp11
 70
     1
102
RTVSPropertyOp12
 70
     1
102
RTVSPropertyOp13
 70
     1
102
RTVSPropertyOp14
 70
     1
102
RTVSPropertyOp15
 70
     1
102
RTVSPropertyOp16
 70
     1
102
RTVSPropertyOp17
 70
     1
102
RTVSPropertyOp18
 70
     1
102
RTVSPropertyOp19
 70
     1
102
RTVSPropertyOp20
 70
     1
102
RTVSPropertyOp21
 70
     1
102
RTVSPropertyOp22
 70
     1
102
RTVSPropertyOp23
 70
     1
102
RTVSPropertyOp24
 70
     1
102
RTVSPropertyOp25
 70
     1
102
RTVSPropertyOp26
 70
     1
102
RTVSPropertyOp27
 70
     1
102
RTVSPropertyOp28
 70
     1
102
RTVSPropertyOp29
 70
     1
102
RTVSPropertyOp30
 70
     1
102
RTVSPropertyOp31
 70
     1
102
RTVSPropertyOp32
 70
     1
  0
XRECORD
  5
242
102
{ACAD_REACTORS
330
241
102
}
330
241
100
AcDbXrecord
280
     1
102
RTVSPropertyOp0
 70
     1
102
RTVSPropertyOp1
 70
     1
102
RTVSPropertyOp2
 70
     1
102
RTVSPropertyOp3
 70
     1
102
RTVSPropertyOp4
 70
     1
102
RTVSPropertyOp5
 70
     1
102
RTVSPropertyOp6
 70
     1
102
RTVSPropertyOp7
 70
     1
102
RTVSPropertyOp8
 70
     1
102
RTVSPropertyOp9
 70
     1
102
RTVSPropertyOp10
 70
     1
102
RTVSPropertyOp11
 70
     1
102
RTVSPropertyOp12
 70
     1
102
RTVSPropertyOp13
 70
     1
102
RTVSPropertyOp14
 70
     1
102
RTVSPropertyOp15
 70
     1
102
RTVSPropertyOp16
 70
     1
102
RTVSPropertyOp17
 70
     1
102
RTVSPropertyOp18
 70
     1
102
RTVSPropertyOp19
 70
     1
102
RTVSPropertyOp20
 70
     1
102
RTVSPropertyOp21
 70
     1
102
RTVSPropertyOp22
 70
     1
102
RTVSPropertyOp23
 70
     1
102
RTVSPropertyOp24
 70
     1
102
RTVSPropertyOp25
 70
     1
102
RTVSPropertyOp26
 70
     1
102
RTVSPropertyOp27
 70
     1
102
RTVSPropertyOp28
 70
     1
102
RTVSPropertyOp29
 70
     1
102
RTVSPropertyOp30
 70
     1
102
RTVSPropertyOp31
 70
     1
102
RTVSPropertyOp32
 70
     1
  0
XRECORD
  5
238
102
{ACAD_REACTORS
330
237
102
}
330
237
100
AcDbXrecord
280
     1
102
RTVSPropertyOp0
 70
     1
102
RTVSPropertyOp1
 70
     1
102
RTVSPropertyOp2
 70
     1
102
RTVSPropertyOp3
 70
     1
102
RTVSPropertyOp4
 70
     1
102
RTVSPropertyOp5
 70
     1
102
RTVSPropertyOp6
 70
     1
102
RTVSPropertyOp7
 70
     1
102
RTVSPropertyOp8
 70
     1
102
RTVSPropertyOp9
 70
     1
102
RTVSPropertyOp10
 70
     1
102
RTVSPropertyOp11
 70
     1
102
RTVSPropertyOp12
 70
     1
102
RTVSPropertyOp13
 70
     1
102
RTVSPropertyOp14
 70
     1
102
RTVSPropertyOp15
 70
     1
102
RTVSPropertyOp16
 70
     1
102
RTVSPropertyOp17
 70
     1
102
RTVSPropertyOp18
 70
     1
102
RTVSPropertyOp19
 70
     1
102
RTVSPropertyOp20
 70
     1
102
RTVSPropertyOp21
 70
     1
102
RTVSPropertyOp22
 70
     1
102
RTVSPropertyOp23
 70
     1
102
RTVSPropertyOp24
 70
     1
102
RTVSPropertyOp25
 70
     1
102
RTVSPropertyOp26
 70
     1
102
RTVSPropertyOp27
 70
     1
102
RTVSPropertyOp28
 70
     1
102
RTVSPropertyOp29
 70
     1
102
RTVSPropertyOp30
 70
     1
102
RTVSPropertyOp31
 70
     1
102
RTVSPropertyOp32
 70
     1
  0
XRECORD
  5
240
102
{ACAD_REACTORS
330
23F
102
}
330
23F
100
AcDbXrecord
280
     1
102
RTVSPropertyOp0
 70
     1
102
RTVSPropertyOp1
 70
     1
102
RTVSPropertyOp2
 70
     1
102
RTVSPropertyOp3
 70
     1
102
RTVSPropertyOp4
 70
     1
102
RTVSPropertyOp5
 70
     1
102
RTVSPropertyOp6
 70
     1
102
RTVSPropertyOp7
 70
     1
102
RTVSPropertyOp8
 70
     1
102
RTVSPropertyOp9
 70
     1
102
RTVSPropertyOp10
 70
     1
102
RTVSPropertyOp11
 70
     1
102
RTVSPropertyOp12
 70
     1
102
RTVSPropertyOp13
 70
     1
102
RTVSPropertyOp14
 70
     1
102
RTVSPropertyOp15
 70
     1
102
RTVSPropertyOp16
 70
     1
102
RTVSPropertyOp17
 70
     1
102
RTVSPropertyOp18
 70
     1
102
RTVSPropertyOp19
 70
     1
102
RTVSPropertyOp20
 70
     1
102
RTVSPropertyOp21
 70
     1
102
RTVSPropertyOp22
 70
     1
102
RTVSPropertyOp23
 70
     1
102
RTVSPropertyOp24
 70
     1
102
RTVSPropertyOp25
 70
     1
102
RTVSPropertyOp26
 70
     1
102
RTVSPropertyOp27
 70
     1
102
RTVSPropertyOp28
 70
     1
102
RTVSPropertyOp29
 70
     1
102
RTVSPropertyOp30
 70
     1
102
RTVSPropertyOp31
 70
     1
102
RTVSPropertyOp32
 70
     1
  0
ENDSEC
  0
EOF
