  0
SECTION
  2
HEADER
  9
$ACADVER
  1
AC1015
  9
$ACADMAINTVER
 70
     6
  9
$DWGCODEPAGE
  3
ANSI_932
  9
$INSBASE
 10
0.0
 20
0.0
 30
0.0
  9
$EXTMIN
 10
0.0
 20
0.0
 30
0.0
  9
$EXTMAX
 10
210.0
 20
297.0
 30
0.0
  9
$LIMMIN
 10
0.0
 20
0.0
  9
$LIMMAX
 10
12.0
 20
9.0
  9
$ORTHOMODE
 70
     0
  9
$REGENMODE
 70
     1
  9
$FILLMODE
 70
     1
  9
$QTEXTMODE
 70
     0
  9
$MIRRTEXT
 70
     1
  9
$LTSCALE
 40
1.0
  9
$ATTMODE
 70
     1
  9
$TEXTSIZE
 40
0.2
  9
$TRACEWID
 40
0.05
  9
$TEXTSTYLE
  7
Standard
  9
$CLAYER
  8
0
  9
$CELTYPE
  6
ByLayer
  9
$CECOLOR
 62
   256
  9
$CELTSCALE
 40
1.0
  9
$DISPSILH
 70
     0
  9
$DIMSCALE
 40
1.0
  9
$DIMASZ
 40
0.18
  9
$DIMEXO
 40
0.0625
  9
$DIMDLI
 40
0.38
  9
$DIMRND
 40
0.0
  9
$DIMDLE
 40
0.0
  9
$DIMEXE
 40
0.18
  9
$DIMTP
 40
0.0
  9
$DIMTM
 40
0.0
  9
$DIMTXT
 40
0.18
  9
$DIMCEN
 40
0.09
  9
$DIMTSZ
 40
0.0
  9
$DIMTOL
 70
     0
  9
$DIMLIM
 70
     0
  9
$DIMTIH
 70
     1
  9
$DIMTOH
 70
     1
  9
$DIMSE1
 70
     0
  9
$DIMSE2
 70
     0
  9
$DIMTAD
 70
     0
  9
$DIMZIN
 70
     0
  9
$DIMBLK
  1

  9
$DIMASO
 70
     1
  9
$DIMSHO
 70
     1
  9
$DIMPOST
  1

  9
$DIMAPOST
  1

  9
$DIMALT
 70
     0
  9
$DIMALTD
 70
     2
  9
$DIMALTF
 40
25.4
  9
$DIMLFAC
 40
1.0
  9
$DIMTOFL
 70
     0
  9
$DIMTVP
 40
0.0
  9
$DIMTIX
 70
     0
  9
$DIMSOXD
 70
     0
  9
$DIMSAH
 70
     0
  9
$DIMBLK1
  1

  9
$DIMBLK2
  1

  9
$DIMSTYLE
  2
Standard
  9
$DIMCLRD
 70
     0
  9
$DIMCLRE
 70
     0
  9
$DIMCLRT
 70
     0
  9
$DIMTFAC
 40
1.0
  9
$DIMGAP
 40
0.09
  9
$DIMJUST
 70
     0
  9
$DIMSD1
 70
     0
  9
$DIMSD2
 70
     0
  9
$DIMTOLJ
 70
     1
  9
$DIMTZIN
 70
     0
  9
$DIMALTZ
 70
     0
  9
$DIMALTTZ
 70
     0
  9
$DIMUPT
 70
     0
  9
$DIMDEC
 70
     4
  9
$DIMTDEC
 70
     4
  9
$DIMALTU
 70
     2
  9
$DIMALTTD
 70
     2
  9
$DIMTXSTY
  7
Standard
  9
$DIMAUNIT
 70
     0
  9
$DIMADEC
 70
     0
  9
$DIMALTRND
 40
0.0
  9
$DIMAZIN
 70
     0
  9
$DIMDSEP
 70
    46
  9
$DIMATFIT
 70
     3
  9
$DIMFRAC
 70
     0
  9
$DIMLDRBLK
  1

  9
$DIMLUNIT
 70
     2
  9
$DIMLWD
 70
    -2
  9
$DIMLWE
 70
    -2
  9
$DIMTMOVE
 70
     0
  9
$LUNITS
 70
     2
  9
$LUPREC
 70
     4
  9
$SKETCHINC
 40
0.1
  9
$FILLETRAD
 40
0.5
  9
$AUNITS
 70
     0
  9
$AUPREC
 70
     0
  9
$MENU
  1
.
  9
$ELEVATION
 40
0.0
  9
$PELEVATION
 40
0.0
  9
$THICKNESS
 40
0.0
  9
$LIMCHECK
 70
     0
  9
$CHAMFERA
 40
0.5
  9
$CHAMFERB
 40
0.5
  9
$CHAMFERC
 40
1.0
  9
$CHAMFERD
 40
0.0
  9
$SKPOLY
 70
     0
  9
$TDCREATE
 40
2456563.49645897
  9
$TDUCREATE
 40
2456563.12145897
  9
$TDUPDATE
 40
2456563.496460231
  9
$TDUUPDATE
 40
2456563.121460231
  9
$TDINDWG
 40
0.0000000116
  9
$TDUSRTIMER
 40
0.0000000116
  9
$USRTIMER
 70
     1
  9
$ANGBASE
 50
0.0
  9
$ANGDIR
 70
     0
  9
$PDMODE
 70
     0
  9
$PDSIZE
 40
0.0
  9
$PLINEWID
 40
0.0
  9
$SPLFRAME
 70
     0
  9
$SPLINETYPE
 70
     6
  9
$SPLINESEGS
 70
     8
  9
$HANDSEED
  5
28B
  9
$SURFTAB1
 70
     6
  9
$SURFTAB2
 70
     6
  9
$SURFTYPE
 70
     6
  9
$SURFU
 70
     6
  9
$SURFV
 70
     6
  9
$UCSBASE
  2

  9
$UCSNAME
  2

  9
$UCSORG
 10
0.0
 20
0.0
 30
0.0
  9
$UCSXDIR
 10
1.0
 20
0.0
 30
0.0
  9
$UCSYDIR
 10
0.0
 20
1.0
 30
0.0
  9
$UCSORTHOREF
  2

  9
$UCSORTHOVIEW
 70
     0
  9
$UCSORGTOP
 10
0.0
 20
0.0
 30
0.0
  9
$UCSORGBOTTOM
 10
0.0
 20
0.0
 30
0.0
  9
$UCSORGLEFT
 10
0.0
 20
0.0
 30
0.0
  9
$UCSORGRIGHT
 10
0.0
 20
0.0
 30
0.0
  9
$UCSORGFRONT
 10
0.0
 20
0.0
 30
0.0
  9
$UCSORGBACK
 10
0.0
 20
0.0
 30
0.0
  9
$PUCSBASE
  2

  9
$PUCSNAME
  2

  9
$PUCSORG
 10
0.0
 20
0.0
 30
0.0
  9
$PUCSXDIR
 10
1.0
 20
0.0
 30
0.0
  9
$PUCSYDIR
 10
0.0
 20
1.0
 30
0.0
  9
$PUCSORTHOREF
  2

  9
$PUCSORTHOVIEW
 70
     0
  9
$PUCSORGTOP
 10
0.0
 20
0.0
 30
0.0
  9
$PUCSORGBOTTOM
 10
0.0
 20
0.0
 30
0.0
  9
$PUCSORGLEFT
 10
0.0
 20
0.0
 30
0.0
  9
$PUCSORGRIGHT
 10
0.0
 20
0.0
 30
0.0
  9
$PUCSORGFRONT
 10
0.0
 20
0.0
 30
0.0
  9
$PUCSORGBACK
 10
0.0
 20
0.0
 30
0.0
  9
$USERI1
 70
     0
  9
$USERI2
 70
     0
  9
$USERI3
 70
     0
  9
$USERI4
 70
     0
  9
$USERI5
 70
     0
  9
$USERR1
 40
18.1
  9
$USERR2
 40
0.0
  9
$USERR3
 40
0.0
  9
$USERR4
 40
0.0
  9
$USERR5
 40
0.0
  9
$WORLDVIEW
 70
     1
  9
$SHADEDGE
 70
     3
  9
$SHADEDIF
 70
    70
  9
$TILEMODE
 70
     1
  9
$MAXACTVP
 70
    64
  9
$PINSBASE
 10
0.0
 20
0.0
 30
0.0
  9
$PLIMCHECK
 70
     0
  9
$PEXTMIN
 10
1.00000000000000E+20
 20
1.00000000000000E+20
 30
1.00000000000000E+20
  9
$PEXTMAX
 10
-1.00000000000000E+20
 20
-1.00000000000000E+20
 30
-1.00000000000000E+20
  9
$PLIMMIN
 10
0.0
 20
0.0
  9
$PLIMMAX
 10
12.0
 20
9.0
  9
$UNITMODE
 70
     0
  9
$VISRETAIN
 70
     1
  9
$PLINEGEN
 70
     0
  9
$PSLTSCALE
 70
     1
  9
$TREEDEPTH
 70
  3020
  9
$CMLSTYLE
  2
Standard
  9
$CMLJUST
 70
     0
  9
$CMLSCALE
 40
1.0
  9
$PROXYGRAPHICS
 70
     1
  9
$MEASUREMENT
 70
     1
  9
$CELWEIGHT
370
    -1
  9
$ENDCAPS
280
     0
  9
$JOINSTYLE
280
     0
  9
$LWDISPLAY
290
     0
  9
$INSUNITS
 70
     4
  9
$HYPERLINKBASE
  1

  9
$STYLESHEET
  1

  9
$XEDIT
290
     1
  9
$CEPSNTYPE
380
     0
  9
$PSTYLEMODE
290
     1
  9
$FINGERPRINTGUID
  2
{9D563A78-B9A9-48AF-9D5A-6D21B193117A}
  9
$VERSIONGUID
  2
{FAEB1C32-E019-11D5-929B-00C0DF256EC4}
  9
$EXTNAMES
290
     1
  9
$PSVPSCALE
 40
0.0
  9
$OLESTARTUP
290
     0
  0
ENDSEC
  0
SECTION
  2
CLASSES
  0
CLASS
  1
ACDBDICTIONARYWDFLT
  2
AcDbDictionaryWithDefault
  3
ObjectDBX Classes
 90
        0
280
     0
281
     0
  0
CLASS
  1
VISUALSTYLE
  2
AcDbVisualStyle
  3
ObjectDBX Classes
 90
     4095
280
     0
281
     0
  0
CLASS
  1
MATERIAL
  2
AcDbMaterial
  3
ObjectDBX Classes
 90
     1153
280
     0
281
     0
  0
CLASS
  1
DICTIONARYVAR
  2
AcDbDictionaryVar
  3
ObjectDBX Classes
 90
        0
280
     0
281
     0
  0
CLASS
  1
ACDBPLACEHOLDER
  2
AcDbPlaceHolder
  3
ObjectDBX Classes
 90
        0
280
     0
281
     0
  0
CLASS
  1
LAYOUT
  2
AcDbLayout
  3
ObjectDBX Classes
 90
        0
280
     0
281
     0
  0
ENDSEC
  0
SECTION
  2
TABLES
  0
TABLE
  2
VPORT
  5
8
330
0
100
AcDbSymbolTable
 70
     1
  0
VPORT
  5
29
330
8
100
AcDbSymbolTableRecord
100
AcDbViewportTableRecord
  2
*Active
 70
     0
 10
0.0
 20
0.0
 11
1.0
 21
1.0
 12
105.0
 22
148.5
 13
0.0
 23
0.0
 14
0.5
 24
0.5
 15
0.5
 25
0.5
 16
0.0
 26
0.0
 36
1.0
 17
0.0
 27
0.0
 37
0.0
 40
326.7
 41
1.60267857142857
 42
50.0
 43
0.0
 44
0.0
 50
0.0
 51
0.0
 71
     0
 72
   100
 73
     1
 74
     3
 75
     0
 76
     0
 77
     0
 78
     0
281
     0
 65
     1
110
0.0
120
0.0
130
0.0
111
1.0
121
0.0
131
0.0
112
0.0
122
1.0
132
0.0
 79
     0
146
0.0
  0
ENDTAB
  0
TABLE
  2
LTYPE
  5
5
330
0
100
AcDbSymbolTable
 70
     8
  0
LTYPE
  5
14
330
5
100
AcDbSymbolTableRecord
100
AcDbLinetypeTableRecord
  2
ByBlock
 70
     0
  3

 72
    65
 73
     0
 40
0.0
  0
LTYPE
  5
15
330
5
100
AcDbSymbolTableRecord
100
AcDbLinetypeTableRecord
  2
ByLayer
 70
     0
  3

 72
    65
 73
     0
 40
0.0
  0
LTYPE
  5
16
330
5
100
AcDbSymbolTableRecord
100
AcDbLinetypeTableRecord
  2
Continuous
 70
     0
  3
Solid line
 72
    65
 73
     0
 40
0.0
  0
LTYPE
  5
3F
330
5
100
AcDbSymbolTableRecord
100
AcDbLinetypeTableRecord
  2
DASHED
 70
     0
  3
Dashed
 72
    65
 73
     2
 40
15.0
 49
7.0
 74
     0
 49
-8.0
 74
     0
  0
LTYPE
  5
40
330
5
100
AcDbSymbolTableRecord
100
AcDbLinetypeTableRecord
  2
DOTTED
 70
     0
  3
Dotted
 72
    65
 73
     2
 40
1.0
 49
0.0
 74
     0
 49
-1.0
 74
     0
  0
LTYPE
  5
41
330
5
100
AcDbSymbolTableRecord
100
AcDbLinetypeTableRecord
  2
DOT_CENTER
 70
     0
  3
Dot_Center
 72
    65
 73
     4
 40
14.0
 49
12.0
 74
     0
 49
-1.0
 74
     0
 49
0.0
 74
     0
 49
-1.0
 74
     0
  0
LTYPE
  5
42
330
5
100
AcDbSymbolTableRecord
100
AcDbLinetypeTableRecord
  2
LONG_DASHED
 70
     0
  3
Long_Dashed
 72
    65
 73
     2
 40
15.0
 49
10.0
 74
     0
 49
-5.0
 74
     0
  0
LTYPE
  5
43
330
5
100
AcDbSymbolTableRecord
100
AcDbLinetypeTableRecord
  2
DASH_CENTER
 70
     0
  3
Dash_Center
 72
    65
 73
     4
 40
14.0
 49
11.0
 74
     0
 49
-1.0
 74
     0
 49
1.0
 74
     0
 49
-1.0
 74
     0
  0
LTYPE
  5
44
330
5
100
AcDbSymbolTableRecord
100
AcDbLinetypeTableRecord
  2
PHANTOM
 70
     0
  3
Phantom
 72
    65
 73
     6
 40
13.0
 49
10.0
 74
     0
 49
-1.0
 74
     0
 49
0.0
 74
     0
 49
-1.0
 74
     0
 49
0.0
 74
     0
 49
-1.0
 74
     0
  0
LTYPE
  5
45
330
5
100
AcDbSymbolTableRecord
100
AcDbLinetypeTableRecord
  2
CENTER_DASH_DASH
 70
     0
  3
Center_Dash_Dash
 72
    65
 73
     6
 40
14.0
 49
9.0
 74
     0
 49
-1.0
 74
     0
 49
1.0
 74
     0
 49
-1.0
 74
     0
 49
1.0
 74
     0
 49
-1.0
 74
     0
  0
ENDTAB
  0
TABLE
  2
LAYER
  5
2
330
0
100
AcDbSymbolTable
 70
     2
  0
LAYER
  5
10
330
2
100
AcDbSymbolTableRecord
100
AcDbLayerTableRecord
  2
0
 70
     0
 62
     7
  6
Continuous
370
    -3
390
F
  0
LAYER
  5
46
330
2
100
AcDbSymbolTableRecord
100
AcDbLayerTableRecord
  2
1
 70
     0
 62
     7
  6
Continuous
370
    -3
390
F
  0
ENDTAB
  0
TABLE
  2
STYLE
  5
3
330
0
100
AcDbSymbolTable
 70
     3
  0
STYLE
  5
11
330
3
100
AcDbSymbolTableRecord
100
AcDbTextStyleTableRecord
  2
Standard
 70
     0
 40
0.0
 41
1.0
 50
0.0
 71
     0
 42
0.2
  3
txt
  4

  0
STYLE
  5
17A
330
3
100
AcDbSymbolTableRecord
100
AcDbTextStyleTableRecord
  2
CONVERTER_11
 70
     0
 40
0.0
 41
0.89
 50
0.0
 71
     0
 42
0.2
  3
MS Mincho.ttf
  4

1001
ACAD
1000
MS Mincho
1071
    32785
  0
STYLE
  5
220
330
3
100
AcDbSymbolTableRecord
100
AcDbTextStyleTableRecord
  2
CONVERTER_12
 70
     0
 40
0.0
 41
0.9
 50
0.0
 71
     0
 42
0.2
  3
txt.shx
  4

  0
ENDTAB
  0
TABLE
  2
VIEW
  5
6
330
0
100
AcDbSymbolTable
 70
     0
  0
ENDTAB
  0
TABLE
  2
UCS
  5
7
330
0
100
AcDbSymbolTable
 70
     0
  0
ENDTAB
  0
TABLE
  2
APPID
  5
9
330
0
100
AcDbSymbolTable
 70
     1
  0
APPID
  5
12
330
9
100
AcDbSymbolTableRecord
100
AcDbRegAppTableRecord
  2
ACAD
 70
     0
  0
ENDTAB
  0
TABLE
  2
DIMSTYLE
  5
A
330
0
100
AcDbSymbolTable
 70
     6
100
AcDbDimStyleTable
  0
DIMSTYLE
105
27
330
A
100
AcDbSymbolTableRecord
100
AcDbDimStyleTableRecord
  2
Standard
 70
     0
178
     0
340
11
  0
DIMSTYLE
105
232
102
{ACAD_REACTORS
330
233
102
}
330
A
100
AcDbSymbolTableRecord
100
AcDbDimStyleTableRecord
  2
ME10_DIM_10
 70
     0
 41
3.5
 42
0.0
 44
1.0
 73
     0
 74
     0
 77
     1
 78
     8
140
3.5
147
1.0
172
     1
173
     1
174
     1
175
     1
176
     2
177
     2
271
     2
178
     7
271
     2
340
220
  0
DIMSTYLE
105
23D
102
{ACAD_REACTORS
330
23E
102
}
330
A
100
AcDbSymbolTableRecord
100
AcDbDimStyleTableRecord
  2
ME10_DIM_11
 70
     0
 41
3.5
 42
0.0
 44
1.0
 73
     0
 74
     0
 77
     1
 78
     8
140
3.5
147
1.0
172
     1
173
     1
174
     1
175
     1
176
     2
177
     2
271
     2
178
     7
271
     2
340
17A
  0
DIMSTYLE
105
248
102
{ACAD_REACTORS
330
249
102
}
330
A
100
AcDbSymbolTableRecord
100
AcDbDimStyleTableRecord
  2
ME10_DIM_12
 70
     0
 41
3.5
 42
0.0
 44
1.0
 73
     0
 74
     0
 77
     1
 78
     8
140
3.5
147
1.0
172
     1
173
     1
174
     1
175
     1
176
     2
177
     2
271
     2
178
     7
271
     2
340
220
  0
DIMSTYLE
105
253
102
{ACAD_REACTORS
330
254
102
}
330
A
100
AcDbSymbolTableRecord
100
AcDbDimStyleTableRecord
  2
ME10_DIM_13
 70
     0
 41
3.5
 42
0.0
 44
1.0
 73
     0
 74
     0
 77
     1
 78
     8
140
3.5
147
1.0
172
     1
173
     1
174
     1
175
     1
176
     2
177
     2
271
     2
178
     7
271
     2
340
220
  0
DIMSTYLE
105
25E
102
{ACAD_REACTORS
330
25F
102
}
330
A
100
AcDbSymbolTableRecord
100
AcDbDimStyleTableRecord
  2
ME10_DIM_14
 70
     0
 41
3.5
 42
0.0
 44
1.0
 73
     0
 74
     0
 77
     1
 78
     8
140
3.5
147
1.0
172
     1
173
     1
174
     1
175
     1
176
     2
177
     2
271
     2
178
     7
271
     2
340
220
  0
ENDTAB
  0
TABLE
  2
BLOCK_RECORD
  5
1
330
0
100
AcDbSymbolTable
 70
    16
  0
BLOCK_RECORD
  5
1F
330
1
100
AcDbSymbolTableRecord
100
AcDbBlockTableRecord
  2
*Model_Space
340
22
  0
BLOCK_RECORD
  5
1B
330
1
100
AcDbSymbolTableRecord
100
AcDbBlockTableRecord
  2
*Paper_Space
340
1E
  0
BLOCK_RECORD
  5
23
330
1
100
AcDbSymbolTableRecord
100
AcDbBlockTableRecord
  2
*Paper_Space0
340
26
  0
BLOCK_RECORD
  5
47
330
1
100
AcDbSymbolTableRecord
100
AcDbBlockTableRecord
  2
51-1
340
0
102
{BLKREFS
331
4E
102
}
  0
BLOCK_RECORD
  5
4A
330
1
100
AcDbSymbolTableRecord
100
AcDbBlockTableRecord
  2
42-15
340
0
102
{BLKREFS
331
4F
102
}
  0
BLOCK_RECORD
  5
4D
330
1
100
AcDbSymbolTableRecord
100
AcDbBlockTableRecord
  2
R20F
340
0
102
{BLKREFS
331
59
102
}
  0
BLOCK_RECORD
  5
52
330
1
100
AcDbSymbolTableRecord
100
AcDbBlockTableRecord
  2
37-1-13
340
0
102
{BLKREFS
331
5A
102
}
  0
BLOCK_RECORD
  5
55
330
1
100
AcDbSymbolTableRecord
100
AcDbBlockTableRecord
  2
36-1A-13-M4
340
0
102
{BLKREFS
331
5B
102
}
  0
BLOCK_RECORD
  5
58
330
1
100
AcDbSymbolTableRecord
100
AcDbBlockTableRecord
  2
R10A-13
340
0
102
{BLKREFS
331
6A
102
}
  0
BLOCK_RECORD
  5
5E
330
1
100
AcDbSymbolTableRecord
100
AcDbBlockTableRecord
  2
32-12-M2
340
0
102
{BLKREFS
331
6B
102
}
  0
BLOCK_RECORD
  5
61
330
1
100
AcDbSymbolTableRecord
100
AcDbBlockTableRecord
  2
開示A4
340
0
102
{BLKREFS
331
6C
102
}
  0
BLOCK_RECORD
  5
64
330
1
100
AcDbSymbolTableRecord
100
AcDbBlockTableRecord
  2
V21-2-0A-13-_表面処理_
340
0
102
{BLKREFS
331
6D
102
}
  0
BLOCK_RECORD
  5
67
330
1
100
AcDbSymbolTableRecord
100
AcDbBlockTableRecord
  2
V21-2-0A
340
0
102
{BLKREFS
331
6E
102
}
  0
BLOCK_RECORD
  5
229
330
1
100
AcDbSymbolTableRecord
100
AcDbBlockTableRecord
  2
*D11
340
0
  0
BLOCK_RECORD
  5
234
330
1
100
AcDbSymbolTableRecord
100
AcDbBlockTableRecord
  2
*D12
340
0
  0
BLOCK_RECORD
  5
23F
330
1
100
AcDbSymbolTableRecord
100
AcDbBlockTableRecord
  2
*D13
340
0
  0
BLOCK_RECORD
  5
24A
330
1
100
AcDbSymbolTableRecord
100
AcDbBlockTableRecord
  2
*D14
340
0
  0
BLOCK_RECORD
  5
255
330
1
100
AcDbSymbolTableRecord
100
AcDbBlockTableRecord
  2
*D15
340
0
  0
ENDTAB
  0
ENDSEC
  0
SECTION
  2
BLOCKS
  0
BLOCK
  5
20
330
1F
100
AcDbEntity
  8
0
100
AcDbBlockBegin
  2
*Model_Space
 70
     0
 10
0.0
 20
0.0
 30
0.0
  3
*Model_Space
  1

  0
ENDBLK
  5
21
330
1F
100
AcDbEntity
  8
0
100
AcDbBlockEnd
  0
BLOCK
  5
1C
330
1B
100
AcDbEntity
 67
     1
  8
0
100
AcDbBlockBegin
  2
*Paper_Space
 70
     0
 10
0.0
 20
0.0
 30
0.0
  3
*Paper_Space
  1

  0
ENDBLK
  5
1D
330
1B
100
AcDbEntity
 67
     1
  8
0
100
AcDbBlockEnd
  0
BLOCK
  5
24
330
23
100
AcDbEntity
  8
0
100
AcDbBlockBegin
  2
*Paper_Space0
 70
     0
 10
0.0
 20
0.0
 30
0.0
  3
*Paper_Space0
  1

  0
ENDBLK
  5
25
330
23
100
AcDbEntity
  8
0
100
AcDbBlockEnd
  0
BLOCK
  5
48
330
47
100
AcDbEntity
  8
0
100
AcDbBlockBegin
  2
51-1
 70
     0
 10
297.8481278075532
 20
28.16338896952465
 30
0.0
  3
51-1
  1

  0
LINE
  5
6F
330
47
100
AcDbEntity
  8
1
  6
Continuous
 62
     7
100
AcDbLine
 10
31.1942913077499
 20
131.6052136865736
 30
0.0
 11
30.7423832087574
 21
128.389720481703
 31
0.0
  0
LINE
  5
70
330
47
100
AcDbEntity
  8
1
  6
Continuous
 62
     7
100
AcDbLine
 10
31.2375172431282
 20
127.8201339312229
 30
0.0
 11
85.53878743235033
 21
127.8201339312229
 31
0.0
  0
LINE
  5
71
330
47
100
AcDbEntity
  8
1
  6
Continuous
 62
     7
100
AcDbLine
 10
86.03392146672094
 20
128.389720481703
 30
0.0
 11
85.58201336772862
 21
131.6052136865736
 31
0.0
  0
LINE
  5
72
330
47
100
AcDbEntity
  8
1
  6
Continuous
 62
     7
100
AcDbLine
 10
86.03392146672094
 20
128.389720481703
 30
0.0
 11
85.58201336772862
 21
131.6052136865736
 31
0.0
  0
LINE
  5
73
330
47
100
AcDbEntity
  8
1
  6
Continuous
 62
     7
100
AcDbLine
 10
160.6114249184914
 20
132.7792105369666
 30
0.0
 11
161.2286424124989
 21
128.3897558639355
 31
0.0
  0
LINE
  5
74
330
47
100
AcDbEntity
  8
1
  6
Continuous
 62
     7
100
AcDbLine
 10
160.7335133520658
 20
127.820133931223
 30
0.0
 11
112.3839232677506
 21
127.820133931223
 31
0.0
  0
LINE
  5
75
330
47
100
AcDbEntity
  8
1
  6
Continuous
 62
     7
100
AcDbLine
 10
112.3406973323721
 20
131.6052136865736
 30
0.0
 11
111.8887892333798
 21
128.3897204817029
 31
0.0
  0
LINE
  5
76
330
47
100
AcDbEntity
  8
1
  6
Continuous
 62
     7
100
AcDbLine
 10
79.24637806435551
 20
229.8194655634544
 30
0.0
 11
64.85862846530222
 21
225.9642796774868
 31
0.0
  0
LINE
  5
77
330
47
100
AcDbEntity
  8
1
  6
Continuous
 62
     7
100
AcDbLine
 10
38.29043151374322
 20
229.6156888889574
 30
0.0
 11
51.9176762101761
 21
225.9642796774868
 31
0.0
  0
LINE
  5
78
330
47
100
AcDbEntity
  8
1
  6
Continuous
 62
     7
100
AcDbLine
 10
32.49487655600883
 20
219.5774932441036
 30
0.0
 11
42.47071204097132
 21
209.6016577591414
 31
0.0
  0
LINE
  5
79
330
47
100
AcDbEntity
  8
1
  6
Continuous
 62
     7
100
AcDbLine
 10
52.59259738000481
 20
184.7672196606079
 30
0.0
 11
48.94118816853422
 21
198.3944643570407
 31
0.0
  0
LINE
  5
7A
330
47
100
AcDbEntity
  8
1
  6
Continuous
 62
     7
100
AcDbLine
 10
64.18370729547352
 20
184.7672196606079
 30
0.0
 11
67.83511650694403
 21
198.3944643570407
 31
0.0
  0
LINE
  5
7B
330
47
100
AcDbEntity
  8
1
  6
Continuous
 62
     7
100
AcDbLine
 10
84.28142811946941
 20
219.5774932441036
 30
0.0
 11
74.30559263450705
 21
209.6016577591414
 31
0.0
  0
ARC
  5
7C
330
47
100
AcDbEntity
  8
1
  6
Continuous
 62
     7
100
AcDbCircle
 10
60.0252426886284
 20
11.44998139089856
 30
0.0
 40
127.4948334081408
100
AcDbArc
 50
92.53411689479739
 51
100.8094932463522
  0
ARC
  5
7D
330
47
100
AcDbEntity
  8
1
  6
Continuous
 62
     7
100
AcDbCircle
 10
56.7510619868501
 20
11.44998139089856
 30
0.0
 40
127.4948334081409
100
AcDbArc
 50
79.19050675364788
 51
87.46588310520274
  0
ARC
  5
7E
330
47
100
AcDbEntity
  8
1
  6
Continuous
 62
     7
100
AcDbCircle
 10
143.1729347293868
 20
63.90831292252378
 30
0.0
 40
75.0
100
AcDbArc
 50
80.4085075173349
 51
87.22136103403739
  0
ARC
  5
7F
330
47
100
AcDbEntity
  8
1
  6
Continuous
 62
     7
100
AcDbCircle
 10
142.8087390641401
 20
-11.17986606877712
 30
0.0
 40
150.0533238552216
100
AcDbArc
 50
91.52752544221293
 51
99.80290179376777
  0
ARC
  5
80
330
47
100
AcDbEntity
  8
1
  6
Continuous
 62
     7
100
AcDbCircle
 10
58.38815233773921
 20
186.3201339312229
 30
0.0
 40
5.999999999999886
100
AcDbArc
 50
270.0
 51
345.000000000001
  0
ARC
  5
81
330
47
100
AcDbEntity
  8
1
  6
Continuous
 62
     7
100
AcDbCircle
 10
58.38815233773921
 20
186.3201339312229
 30
0.0
 40
5.999999999999952
100
AcDbArc
 50
194.9999999999988
 51
270.0
  0
ARC
  5
82
330
47
100
AcDbEntity
  8
1
  6
Continuous
 62
     7
100
AcDbCircle
 10
36.73751724312812
 20
223.8201339312229
 30
0.0
 40
6.000000000000091
100
AcDbArc
 50
75.00000000000043
 51
225.0
  0
ARC
  5
83
330
47
100
AcDbEntity
  8
1
  6
Continuous
 62
     7
100
AcDbCircle
 10
80.03878743234999
 20
223.8201339312229
 30
0.0
 40
6.000000000000099
100
AcDbArc
 50
315.0000000000009
 51
97.52424107893997
  0
ARC
  5
84
330
47
100
AcDbEntity
  8
1
  6
Continuous
 62
     7
100
AcDbCircle
 10
31.2375172431282
 20
128.3201339312229
 30
0.0
 40
0.5000000000000233
100
AcDbArc
 50
171.999999999993
 51
270.0
  0
ARC
  5
85
330
47
100
AcDbEntity
  8
1
  6
Continuous
 62
     7
100
AcDbCircle
 10
37.1358997201993
 20
130.7701750808133
 30
0.0
 40
5.999999999999954
100
AcDbArc
 50
99.80290179376901
 51
172.0000000000008
  0
ARC
  5
86
330
47
100
AcDbEntity
  8
1
  6
Continuous
 62
     7
100
AcDbCircle
 10
85.53878743234992
 20
128.3201339312229
 30
0.0
 40
0.5
100
AcDbArc
 50
270.0000000000472
 51
8.00000000000347
  0
ARC
  5
87
330
47
100
AcDbEntity
  8
1
  6
Continuous
 62
     7
100
AcDbCircle
 10
79.64040495527922
 20
130.7701750808133
 30
0.0
 40
5.999999999999964
100
AcDbArc
 50
7.99999999999919
 51
80.19709820623288
  0
ARC
  5
88
330
47
100
AcDbEntity
  8
1
  6
Continuous
 62
     7
100
AcDbCircle
 10
160.7335133520658
 20
128.320133931223
 30
0.0
 40
0.5000000000000142
100
AcDbArc
 50
270.0
 51
8.00409437168694
  0
ARC
  5
89
330
47
100
AcDbEntity
  8
1
  6
Continuous
 62
     7
100
AcDbCircle
 10
154.6698761932942
 20
131.9437473444152
 30
0.0
 40
6.000000000000063
100
AcDbArc
 50
8.00409437170091
 51
80.40850751733541
  0
ARC
  5
8A
330
47
100
AcDbEntity
  8
1
  6
Continuous
 62
     7
100
AcDbCircle
 10
112.3839232677506
 20
128.320133931223
 30
0.0
 40
0.5000000000000026
100
AcDbArc
 50
172.0000000000157
 51
270.0
  0
ARC
  5
8B
330
47
100
AcDbEntity
  8
1
  6
Continuous
 62
     7
100
AcDbCircle
 10
118.2823057448216
 20
130.7701750808133
 30
0.0
 40
6.000000000000019
100
AcDbArc
 50
99.8029017937678
 51
172.0000000000009
  0
ARC
  5
8C
330
47
100
AcDbEntity
  8
1
  6
Continuous
 62
     7
100
AcDbCircle
 10
58.38815233773921
 20
250.1124253347136
 30
0.0
 40
25.00000000000013
100
AcDbArc
 50
254.9999999999999
 51
284.9999999999999
  0
ARC
  5
8D
330
47
100
AcDbEntity
  8
1
  6
Continuous
 62
     7
100
AcDbCircle
 10
24.79304251130743
 20
191.9239882294776
 30
0.0
 40
25.0000000000001
100
AcDbArc
 50
15.00000000000014
 51
44.99999999999986
  0
ARC
  5
8E
330
47
100
AcDbEntity
  8
1
  6
Continuous
 62
     7
100
AcDbCircle
 10
91.98326216417071
 20
191.9239882294776
 30
0.0
 40
25.00000000000006
100
AcDbArc
 50
134.9999999999998
 51
164.9999999999998
  0
ENDBLK
  5
49
330
47
100
AcDbEntity
  8
0
100
AcDbBlockEnd
  0
BLOCK
  5
4B
330
4A
100
AcDbEntity
  8
0
100
AcDbBlockBegin
  2
42-15
 70
     0
 10
248.1141779014083
 20
90.79756495224484
 30
0.0
  3
42-15
  1

  0
LINE
  5
8F
330
4A
100
AcDbEntity
  8
1
  6
Continuous
 62
     7
100
AcDbLine
 10
63.88815233773901
 20
141.6201339312229
 30
0.0
 11
64.388152337739
 21
141.6201339312229
 31
0.0
  0
LINE
  5
90
330
4A
100
AcDbEntity
  8
1
  6
Continuous
 62
     2
100
AcDbLine
 10
64.388152337739
 20
138.820133931223
 30
0.0
 11
64.388152337739
 21
141.6201339312229
 31
0.0
  0
LINE
  5
91
330
4A
100
AcDbEntity
  8
1
  6
Continuous
 62
     7
100
AcDbLine
 10
64.888152337739
 20
141.6201339312229
 30
0.0
 11
65.388152337739
 21
141.6201339312229
 31
0.0
  0
LINE
  5
92
330
4A
100
AcDbEntity
  8
1
  6
Continuous
 62
     7
100
AcDbLine
 10
64.3881523377392
 20
141.8894561302461
 30
0.0
 11
65.388152337739
 21
141.6201339312229
 31
0.0
  0
LINE
  5
93
330
4A
100
AcDbEntity
  8
1
  6
Continuous
 62
     7
100
AcDbLine
 10
65.388152337739
 20
141.6201339312229
 30
0.0
 11
65.38815233773904
 21
138.820133931223
 31
0.0
  0
LINE
  5
94
330
4A
100
AcDbEntity
  8
1
  6
Continuous
 62
     2
100
AcDbLine
 10
64.888152337739
 20
138.820133931223
 30
0.0
 11
64.888152337739
 21
141.6201339312229
 31
0.0
  0
LINE
  5
95
330
4A
100
AcDbEntity
  8
1
  6
Continuous
 62
     7
100
AcDbLine
 10
64.388152337739
 20
141.6201339312229
 30
0.0
 11
64.888152337739
 21
141.6201339312229
 31
0.0
  0
LINE
  5
96
330
4A
100
AcDbEntity
  8
1
  6
Continuous
 62
     2
100
AcDbLine
 10
63.88815233773901
 20
138.820133931223
 30
0.0
 11
63.88815233773901
 21
141.6201339312229
 31
0.0
  0
LINE
  5
97
330
4A
100
AcDbEntity
  8
1
  6
Continuous
 62
     7
100
AcDbLine
 10
63.38815233773901
 20
141.6201339312229
 30
0.0
 11
63.88815233773901
 21
141.6201339312229
 31
0.0
  0
LINE
  5
98
330
4A
100
AcDbEntity
  8
1
  6
Continuous
 62
     2
100
AcDbLine
 10
57.38815233773912
 20
140.8624720333941
 30
0.0
 11
57.38815233773912
 21
139.7972329427838
 31
0.0
  0
LINE
  5
99
330
4A
100
AcDbEntity
  8
1
  6
Continuous
 62
     2
100
AcDbLine
 10
56.38815233773912
 20
141.1057872431269
 30
0.0
 11
56.38815233773912
 21
139.5376967190688
 31
0.0
  0
LINE
  5
9A
330
4A
100
AcDbEntity
  8
1
  6
Continuous
 62
     7
100
AcDbLine
 10
52.38815233773909
 20
141.6201339312229
 30
0.0
 11
52.88815233773909
 21
141.6201339312229
 31
0.0
  0
LINE
  5
9B
330
4A
100
AcDbEntity
  8
1
  6
Continuous
 62
     7
100
AcDbLine
 10
51.38815233773909
 20
141.6201339312229
 30
0.0
 11
51.88815233773909
 21
141.6201339312229
 31
0.0
  0
LINE
  5
9C
330
4A
100
AcDbEntity
  8
1
  6
Continuous
 62
     7
100
AcDbLine
 10
51.38815233773909
 20
141.6201339312229
 30
0.0
 11
52.38815233773901
 21
141.8894561302461
 31
0.0
  0
LINE
  5
9D
330
4A
100
AcDbEntity
  8
1
  6
Continuous
 62
     7
100
AcDbLine
 10
51.88815233773909
 20
141.6201339312229
 30
0.0
 11
52.38815233773909
 21
141.6201339312229
 31
0.0
  0
LINE
  5
9E
330
4A
100
AcDbEntity
  8
1
  6
Continuous
 62
     7
100
AcDbLine
 10
52.88815233773909
 20
141.6201339312229
 30
0.0
 11
53.38815233773909
 21
141.6201339312229
 31
0.0
  0
LINE
  5
9F
330
4A
100
AcDbEntity
  8
1
  6
Continuous
 62
     2
100
AcDbLine
 10
55.88815233773901
 20
141.1516770585088
 30
0.0
 11
55.88815233773912
 21
139.4336831219004
 31
0.0
  0
LINE
  5
A0
330
4A
100
AcDbEntity
  8
1
  6
Continuous
 62
     2
100
AcDbLine
 10
56.88815233773912
 20
140.9064540894447
 30
0.0
 11
56.88815233773912
 21
139.7577277595922
 31
0.0
  0
LINE
  5
A1
330
4A
100
AcDbEntity
  8
1
  6
Continuous
 62
     7
100
AcDbLine
 10
53.38815233773909
 20
141.6201339312229
 30
0.0
 11
63.38815233773901
 21
141.6201339312229
 31
0.0
  0
LINE
  5
A2
330
4A
100
AcDbEntity
  8
1
  6
Continuous
 62
     2
100
AcDbLine
 10
59.38815233773901
 20
139.7972329427838
 30
0.0
 11
59.38815233773901
 21
140.8624720333941
 31
0.0
  0
LINE
  5
A3
330
4A
100
AcDbEntity
  8
1
  6
Continuous
 62
     2
100
AcDbLine
 10
60.38815233773901
 20
139.5376967190688
 30
0.0
 11
60.38815233773901
 21
141.1057872431269
 31
0.0
  0
LINE
  5
A4
330
4A
100
AcDbEntity
  8
1
  6
Continuous
 62
     2
100
AcDbLine
 10
60.88815233773901
 20
139.4336831219004
 30
0.0
 11
60.88815233773901
 21
141.1516770585088
 31
0.0
  0
LINE
  5
A5
330
4A
100
AcDbEntity
  8
1
  6
Continuous
 62
     2
100
AcDbLine
 10
59.88815233773901
 20
139.7577277595922
 30
0.0
 11
59.88815233773901
 21
140.9064540894447
 31
0.0
  0
LINE
  5
A6
330
4A
100
AcDbEntity
  8
1
  6
Continuous
 62
     2
100
AcDbLine
 10
61.38815233773901
 20
139.1808344114608
 30
0.0
 11
61.38815233773901
 21
141.3166604248953
 31
0.0
  0
LINE
  5
A7
330
4A
100
AcDbEntity
  8
1
  6
Continuous
 62
     2
100
AcDbLine
 10
61.88815233773901
 20
139.0746066314851
 30
0.0
 11
61.88815233773901
 21
141.3443522484878
 31
0.0
  0
LINE
  5
A8
330
4A
100
AcDbEntity
  8
1
  6
Continuous
 62
     2
100
AcDbLine
 10
62.38815233773901
 20
138.9861822436745
 30
0.0
 11
62.38815233773901
 21
141.4302075227706
 31
0.0
  0
LINE
  5
A9
330
4A
100
AcDbEntity
  8
1
  6
Continuous
 62
     2
100
AcDbLine
 10
62.88815233773901
 20
138.9257212574104
 30
0.0
 11
62.88815233773901
 21
141.4757216962007
 31
0.0
  0
LINE
  5
AA
330
4A
100
AcDbEntity
  8
1
  6
Continuous
 62
     2
100
AcDbLine
 10
63.38815233773901
 20
138.820133931223
 30
0.0
 11
63.38815233773901
 21
141.6201339312229
 31
0.0
  0
LINE
  5
AB
330
4A
100
AcDbEntity
  8
1
  6
Continuous
 62
     7
100
AcDbLine
 10
65.38815233773904
 20
138.820133931223
 30
0.0
 11
51.38815233773909
 21
138.820133931223
 31
0.0
  0
LINE
  5
AC
330
4A
100
AcDbEntity
  8
1
  6
Continuous
 62
     2
100
AcDbLine
 10
55.38815233773912
 20
141.3166604248953
 30
0.0
 11
55.38815233773912
 21
139.1808344114608
 31
0.0
  0
LINE
  5
AD
330
4A
100
AcDbEntity
  8
1
  6
Continuous
 62
     2
100
AcDbLine
 10
54.88815233773909
 20
141.3443522484878
 30
0.0
 11
54.88815233773909
 21
139.0746066314851
 31
0.0
  0
LINE
  5
AE
330
4A
100
AcDbEntity
  8
1
  6
Continuous
 62
     2
100
AcDbLine
 10
54.38815233773909
 20
141.4302075227706
 30
0.0
 11
54.38815233773909
 21
138.9861822436745
 31
0.0
  0
LINE
  5
AF
330
4A
100
AcDbEntity
  8
1
  6
Continuous
 62
     2
100
AcDbLine
 10
53.88815233773909
 20
141.4757216962007
 30
0.0
 11
53.88815233773909
 21
138.9257212574104
 31
0.0
  0
LINE
  5
B0
330
4A
100
AcDbEntity
  8
1
  6
Continuous
 62
     2
100
AcDbLine
 10
53.38815233773909
 20
141.6201339312229
 30
0.0
 11
53.38815233773909
 21
138.820133931223
 31
0.0
  0
LINE
  5
B1
330
4A
100
AcDbEntity
  8
1
  6
Continuous
 62
     2
100
AcDbLine
 10
52.88815233773909
 20
141.6201339312229
 30
0.0
 11
52.88815233773909
 21
138.820133931223
 31
0.0
  0
LINE
  5
B2
330
4A
100
AcDbEntity
  8
1
  6
Continuous
 62
     2
100
AcDbLine
 10
52.38815233773909
 20
141.6201339312229
 30
0.0
 11
52.38815233773909
 21
138.820133931223
 31
0.0
  0
LINE
  5
B3
330
4A
100
AcDbEntity
  8
1
  6
Continuous
 62
     2
100
AcDbLine
 10
51.88815233773909
 20
141.6201339312229
 30
0.0
 11
51.88815233773909
 21
138.820133931223
 31
0.0
  0
LINE
  5
B4
330
4A
100
AcDbEntity
  8
1
  6
Continuous
 62
     7
100
AcDbLine
 10
51.38815233773909
 20
138.820133931223
 30
0.0
 11
51.38815233773909
 21
141.6201339312229
 31
0.0
  0
LINE
  5
B5
330
4A
100
AcDbEntity
  8
1
  6
Continuous
 62
     7
100
AcDbLine
 10
148.30873906414
 20
141.6201339312229
 30
0.0
 11
148.80873906414
 21
141.6201339312229
 31
0.0
  0
LINE
  5
B6
330
4A
100
AcDbEntity
  8
1
  6
Continuous
 62
     2
100
AcDbLine
 10
148.80873906414
 20
138.820133931223
 30
0.0
 11
148.80873906414
 21
141.6201339312229
 31
0.0
  0
LINE
  5
B7
330
4A
100
AcDbEntity
  8
1
  6
Continuous
 62
     7
100
AcDbLine
 10
149.30873906414
 20
141.6201339312229
 30
0.0
 11
149.80873906414
 21
141.6201339312229
 31
0.0
  0
LINE
  5
B8
330
4A
100
AcDbEntity
  8
1
  6
Continuous
 62
     7
100
AcDbLine
 10
148.8087390641401
 20
141.8894561302461
 30
0.0
 11
149.80873906414
 21
141.6201339312229
 31
0.0
  0
LINE
  5
B9
330
4A
100
AcDbEntity
  8
1
  6
Continuous
 62
     7
100
AcDbLine
 10
149.80873906414
 20
141.6201339312229
 30
0.0
 11
149.80873906414
 21
138.820133931223
 31
0.0
  0
LINE
  5
BA
330
4A
100
AcDbEntity
  8
1
  6
Continuous
 62
     2
100
AcDbLine
 10
149.30873906414
 20
138.820133931223
 30
0.0
 11
149.30873906414
 21
141.6201339312229
 31
0.0
  0
LINE
  5
BB
330
4A
100
AcDbEntity
  8
1
  6
Continuous
 62
     7
100
AcDbLine
 10
148.80873906414
 20
141.6201339312229
 30
0.0
 11
149.30873906414
 21
141.6201339312229
 31
0.0
  0
LINE
  5
BC
330
4A
100
AcDbEntity
  8
1
  6
Continuous
 62
     2
100
AcDbLine
 10
148.30873906414
 20
138.820133931223
 30
0.0
 11
148.30873906414
 21
141.6201339312229
 31
0.0
  0
LINE
  5
BD
330
4A
100
AcDbEntity
  8
1
  6
Continuous
 62
     7
100
AcDbLine
 10
147.80873906414
 20
141.6201339312229
 30
0.0
 11
148.30873906414
 21
141.6201339312229
 31
0.0
  0
LINE
  5
BE
330
4A
100
AcDbEntity
  8
1
  6
Continuous
 62
     2
100
AcDbLine
 10
141.8087390641401
 20
140.8624720333941
 30
0.0
 11
141.8087390641401
 21
139.7972329427838
 31
0.0
  0
LINE
  5
BF
330
4A
100
AcDbEntity
  8
1
  6
Continuous
 62
     2
100
AcDbLine
 10
140.80873906414
 20
141.1057872431269
 30
0.0
 11
140.80873906414
 21
139.5376967190688
 31
0.0
  0
LINE
  5
C0
330
4A
100
AcDbEntity
  8
1
  6
Continuous
 62
     7
100
AcDbLine
 10
136.8087390641401
 20
141.6201339312229
 30
0.0
 11
137.3087390641401
 21
141.6201339312229
 31
0.0
  0
LINE
  5
C1
330
4A
100
AcDbEntity
  8
1
  6
Continuous
 62
     7
100
AcDbLine
 10
135.8087390641401
 20
141.6201339312229
 30
0.0
 11
136.3087390641401
 21
141.6201339312229
 31
0.0
  0
LINE
  5
C2
330
4A
100
AcDbEntity
  8
1
  6
Continuous
 62
     7
100
AcDbLine
 10
135.8087390641401
 20
141.6201339312229
 30
0.0
 11
136.80873906414
 21
141.8894561302461
 31
0.0
  0
LINE
  5
C3
330
4A
100
AcDbEntity
  8
1
  6
Continuous
 62
     7
100
AcDbLine
 10
136.3087390641401
 20
141.6201339312229
 30
0.0
 11
136.8087390641401
 21
141.6201339312229
 31
0.0
  0
LINE
  5
C4
330
4A
100
AcDbEntity
  8
1
  6
Continuous
 62
     7
100
AcDbLine
 10
137.3087390641401
 20
141.6201339312229
 30
0.0
 11
137.8087390641401
 21
141.6201339312229
 31
0.0
  0
LINE
  5
C5
330
4A
100
AcDbEntity
  8
1
  6
Continuous
 62
     2
100
AcDbLine
 10
140.3087390641401
 20
141.1516770585088
 30
0.0
 11
140.3087390641401
 21
139.4336831219004
 31
0.0
  0
LINE
  5
C6
330
4A
100
AcDbEntity
  8
1
  6
Continuous
 62
     2
100
AcDbLine
 10
141.3087390641401
 20
140.9064540894447
 30
0.0
 11
141.3087390641401
 21
139.7577277595922
 31
0.0
  0
LINE
  5
C7
330
4A
100
AcDbEntity
  8
1
  6
Continuous
 62
     7
100
AcDbLine
 10
137.8087390641401
 20
141.6201339312229
 30
0.0
 11
147.80873906414
 21
141.6201339312229
 31
0.0
  0
LINE
  5
C8
330
4A
100
AcDbEntity
  8
1
  6
Continuous
 62
     2
100
AcDbLine
 10
143.80873906414
 20
139.7972329427838
 30
0.0
 11
143.80873906414
 21
140.8624720333941
 31
0.0
  0
LINE
  5
C9
330
4A
100
AcDbEntity
  8
1
  6
Continuous
 62
     2
100
AcDbLine
 10
144.80873906414
 20
139.5376967190688
 30
0.0
 11
144.80873906414
 21
141.1057872431269
 31
0.0
  0
LINE
  5
CA
330
4A
100
AcDbEntity
  8
1
  6
Continuous
 62
     2
100
AcDbLine
 10
145.30873906414
 20
139.4336831219004
 30
0.0
 11
145.30873906414
 21
141.1516770585088
 31
0.0
  0
LINE
  5
CB
330
4A
100
AcDbEntity
  8
1
  6
Continuous
 62
     2
100
AcDbLine
 10
144.30873906414
 20
139.7577277595922
 30
0.0
 11
144.30873906414
 21
140.9064540894447
 31
0.0
  0
LINE
  5
CC
330
4A
100
AcDbEntity
  8
1
  6
Continuous
 62
     2
100
AcDbLine
 10
145.80873906414
 20
139.1808344114608
 30
0.0
 11
145.80873906414
 21
141.3166604248953
 31
0.0
  0
LINE
  5
CD
330
4A
100
AcDbEntity
  8
1
  6
Continuous
 62
     2
100
AcDbLine
 10
146.30873906414
 20
139.0746066314851
 30
0.0
 11
146.30873906414
 21
141.3443522484878
 31
0.0
  0
LINE
  5
CE
330
4A
100
AcDbEntity
  8
1
  6
Continuous
 62
     2
100
AcDbLine
 10
146.80873906414
 20
138.9861822436745
 30
0.0
 11
146.80873906414
 21
141.4302075227706
 31
0.0
  0
LINE
  5
CF
330
4A
100
AcDbEntity
  8
1
  6
Continuous
 62
     2
100
AcDbLine
 10
147.30873906414
 20
138.9257212574104
 30
0.0
 11
147.30873906414
 21
141.4757216962007
 31
0.0
  0
LINE
  5
D0
330
4A
100
AcDbEntity
  8
1
  6
Continuous
 62
     2
100
AcDbLine
 10
147.80873906414
 20
138.820133931223
 30
0.0
 11
147.80873906414
 21
141.6201339312229
 31
0.0
  0
LINE
  5
D1
330
4A
100
AcDbEntity
  8
1
  6
Continuous
 62
     7
100
AcDbLine
 10
149.80873906414
 20
138.820133931223
 30
0.0
 11
135.8087390641401
 21
138.820133931223
 31
0.0
  0
LINE
  5
D2
330
4A
100
AcDbEntity
  8
1
  6
Continuous
 62
     2
100
AcDbLine
 10
139.8087390641401
 20
141.3166604248953
 30
0.0
 11
139.8087390641401
 21
139.1808344114608
 31
0.0
  0
LINE
  5
D3
330
4A
100
AcDbEntity
  8
1
  6
Continuous
 62
     2
100
AcDbLine
 10
139.3087390641401
 20
141.3443522484878
 30
0.0
 11
139.3087390641401
 21
139.0746066314851
 31
0.0
  0
LINE
  5
D4
330
4A
100
AcDbEntity
  8
1
  6
Continuous
 62
     2
100
AcDbLine
 10
138.8087390641401
 20
141.4302075227706
 30
0.0
 11
138.8087390641401
 21
138.9861822436745
 31
0.0
  0
LINE
  5
D5
330
4A
100
AcDbEntity
  8
1
  6
Continuous
 62
     2
100
AcDbLine
 10
138.3087390641401
 20
141.4757216962007
 30
0.0
 11
138.3087390641401
 21
138.9257212574104
 31
0.0
  0
LINE
  5
D6
330
4A
100
AcDbEntity
  8
1
  6
Continuous
 62
     2
100
AcDbLine
 10
137.8087390641401
 20
141.6201339312229
 30
0.0
 11
137.8087390641401
 21
138.820133931223
 31
0.0
  0
LINE
  5
D7
330
4A
100
AcDbEntity
  8
1
  6
Continuous
 62
     2
100
AcDbLine
 10
137.3087390641401
 20
141.6201339312229
 30
0.0
 11
137.3087390641401
 21
138.820133931223
 31
0.0
  0
LINE
  5
D8
330
4A
100
AcDbEntity
  8
1
  6
Continuous
 62
     2
100
AcDbLine
 10
136.8087390641401
 20
141.6201339312229
 30
0.0
 11
136.8087390641401
 21
138.820133931223
 31
0.0
  0
LINE
  5
D9
330
4A
100
AcDbEntity
  8
1
  6
Continuous
 62
     2
100
AcDbLine
 10
136.3087390641401
 20
141.6201339312229
 30
0.0
 11
136.3087390641401
 21
138.820133931223
 31
0.0
  0
LINE
  5
DA
330
4A
100
AcDbEntity
  8
1
  6
Continuous
 62
     7
100
AcDbLine
 10
135.8087390641401
 20
138.820133931223
 30
0.0
 11
135.8087390641401
 21
141.6201339312229
 31
0.0
  0
ARC
  5
DB
330
4A
100
AcDbEntity
  8
1
  6
Continuous
 62
     7
100
AcDbCircle
 10
58.38815233773912
 20
117.6201339312229
 30
0.0
 40
25.00000000000002
100
AcDbArc
 50
76.11345963737085
 51
90.00000000000026
  0
ARC
  5
DC
330
4A
100
AcDbEntity
  8
1
  6
Continuous
 62
     7
100
AcDbCircle
 10
58.38815233773912
 20
117.6201339312229
 30
0.0
 40
25.00000000000001
100
AcDbArc
 50
90.00000000000026
 51
103.8865403626292
  0
ARC
  5
DD
330
4A
100
AcDbEntity
  8
1
  6
Continuous
 62
     7
100
AcDbCircle
 10
142.8087390641401
 20
117.6201339312229
 30
0.0
 40
25.0
100
AcDbArc
 50
76.11345963737101
 51
90.0
  0
ARC
  5
DE
330
4A
100
AcDbEntity
  8
1
  6
Continuous
 62
     7
100
AcDbCircle
 10
142.8087390641401
 20
117.6201339312229
 30
0.0
 40
25.00000000000001
100
AcDbArc
 50
90.0
 51
103.8865403626292
  0
CIRCLE
  5
DF
330
4A
100
AcDbEntity
  8
0
  6
Continuous
 62
     7
100
AcDbCircle
 10
58.38815233773918
 20
211.320133931223
 30
0.0
 40
6.999999999999964
  0
ENDBLK
  5
4C
330
4A
100
AcDbEntity
  8
0
100
AcDbBlockEnd
  0
BLOCK
  5
50
330
4D
100
AcDbEntity
  8
0
100
AcDbBlockBegin
  2
R20F
 70
     0
 10
130.8087390641401
 20
127.320133931223
 30
0.0
  3
R20F
  1

  0
INSERT
  5
4E
330
4D
100
AcDbEntity
  8
1
100
AcDbBlockReference
  2
51-1
 10
297.8481278075532
 20
28.16338896952465
 30
0.0
  0
INSERT
  5
4F
330
4D
100
AcDbEntity
  8
1
100
AcDbBlockReference
  2
42-15
 10
248.1141779014083
 20
90.79756495224484
 30
0.0
  0
ENDBLK
  5
51
330
4D
100
AcDbEntity
  8
0
100
AcDbBlockEnd
  0
BLOCK
  5
53
330
52
100
AcDbEntity
  8
0
100
AcDbBlockBegin
  2
37-1-13
 70
     0
 10
331.1772518095833
 20
83.90617482437275
 30
0.0
  3
37-1-13
  1

  0
LINE
  5
E0
330
52
100
AcDbEntity
  8
1
  6
Continuous
 62
     7
100
AcDbLine
 10
148.8087390641401
 20
124.820133931223
 30
0.0
 11
136.8087390641401
 21
124.820133931223
 31
0.0
  0
LINE
  5
E1
330
52
100
AcDbEntity
  8
1
  6
Continuous
 62
     7
100
AcDbLine
 10
129.7380248498687
 20
110.820133931223
 30
0.0
 11
155.8794532784115
 21
110.820133931223
 31
0.0
  0
LINE
  5
E2
330
52
100
AcDbEntity
  8
1
  6
Continuous
 62
     7
100
AcDbLine
 10
71.3882899302438
 20
117.5828846924664
 30
0.0
 11
71.38828993024407
 21
110.820133931223
 31
0.0
  0
LINE
  5
E3
330
52
100
AcDbEntity
  8
1
  6
Continuous
 62
     7
100
AcDbLine
 10
71.38828993024407
 20
110.820133931223
 30
0.0
 11
45.38828993024391
 21
110.8201339312229
 31
0.0
  0
LINE
  5
E4
330
52
100
AcDbEntity
  8
1
  6
Continuous
 62
     7
100
AcDbLine
 10
45.38828993024391
 20
117.5829953297317
 30
0.0
 11
45.38828993024391
 21
110.8201339312229
 31
0.0
  0
LINE
  5
E5
330
52
100
AcDbEntity
  8
1
  6
Continuous
 62
     7
100
AcDbLine
 10
52.38828993024411
 20
124.820133931223
 30
0.0
 11
64.3882899302441
 21
124.820133931223
 31
0.0
  0
LINE
  5
E6
330
52
100
AcDbEntity
  8
1
  6
Continuous
 62
     7
100
AcDbLine
 10
45.38828993024391
 20
117.8908481454942
 30
0.0
 11
45.38828993024391
 21
117.5829953297317
 31
0.0
  0
LINE
  5
E7
330
52
100
AcDbEntity
  8
1
  6
Continuous
 62
     7
100
AcDbLine
 10
71.3882899302438
 20
117.8908481454946
 30
0.0
 11
71.3882899302438
 21
117.5828846924664
 31
0.0
  0
ARC
  5
E8
330
52
100
AcDbEntity
  8
1
  6
Continuous
 62
     7
100
AcDbCircle
 10
152.30873906414
 20
114.320133931223
 30
0.0
 40
5.000000000000036
100
AcDbArc
 50
315.5729959991947
 51
53.13010235415702
  0
ARC
  5
E9
330
52
100
AcDbEntity
  8
1
  6
Continuous
 62
     7
100
AcDbCircle
 10
168.7151942692549
 20
138.2265891363379
 30
0.0
 40
23.9999999999999
100
AcDbArc
 50
213.9591925000976
 51
236.0408074999023
  0
ARC
  5
EA
330
52
100
AcDbEntity
  8
1
  6
Continuous
 62
     7
100
AcDbCircle
 10
133.3087390641401
 20
114.320133931223
 30
0.0
 40
4.999999999999932
100
AcDbArc
 50
126.869897645843
 51
224.427004000806
  0
ARC
  5
EB
330
52
100
AcDbEntity
  8
1
  6
Continuous
 62
     7
100
AcDbCircle
 10
116.9022838590252
 20
138.2265891363379
 30
0.0
 40
24.00000000000004
100
AcDbArc
 50
303.9591925000977
 51
326.0408074999025
  0
ARC
  5
EC
330
52
100
AcDbEntity
  8
1
  6
Continuous
 62
     7
100
AcDbCircle
 10
84.29474513535882
 20
138.226589136338
 30
0.0
 40
23.99999999999988
100
AcDbArc
 50
213.9591925000979
 51
236.0408074999025
  0
ARC
  5
ED
330
52
100
AcDbEntity
  8
1
  6
Continuous
 62
     7
100
AcDbCircle
 10
32.4818347251291
 20
138.226589136338
 30
0.0
 40
24.00000000000006
100
AcDbArc
 50
303.9591925000979
 51
326.0408074999025
  0
ARC
  5
EE
330
52
100
AcDbEntity
  8
1
  6
Continuous
 62
     7
100
AcDbCircle
 10
48.88828993024411
 20
114.3201339312229
 30
0.0
 40
5.000000000000121
100
AcDbArc
 50
126.8698976458421
 51
134.4270040008084
  0
ARC
  5
EF
330
52
100
AcDbEntity
  8
1
  6
Continuous
 62
     7
100
AcDbCircle
 10
67.88828993024413
 20
114.3201339312229
 30
0.0
 40
4.99999999999997
100
AcDbArc
 50
45.57299599919921
 51
53.13010235415931
  0
SPLINE
  5
F0
330
52
100
AcDbEntity
  8
1
  6
Continuous
 62
     7
100
AcDbSpline
210
0.0
220
0.0
230
1.0
 70
    11
 71
     3
 72
    79
 73
    75
 74
    73
 42
0.000000001
 43
0.0000000001
 44
0.00000001
 40
0.0
 40
0.0
 40
0.0
 40
0.0
 40
0.3142650584354286
 40
0.628286552761026
 40
0.9611940700550967
 40
1.293759066763305
 40
1.653345626572423
 40
2.01262492637772
 40
2.402527480380189
 40
2.792202152566639
 40
3.212046600379028
 40
3.631735865868383
 40
4.077938483287241
 40
4.524041244959863
 40
4.990653910205762
 40
5.457207549915664
 40
5.936678582613645
 40
6.416122251734055
 40
6.899971956020627
 40
7.383821660306583
 40
7.863265329424745
 40
8.342736362117915
 40
8.809290001818859
 40
9.275902667049012
 40
9.722005428696725
 40
10.16820804607602
 40
10.58789731150854
 40
11.00774175923647
 40
11.39741643130947
 40
11.78731898514995
 40
12.14659828474437
 40
12.50618484425337
 40
12.83874984054657
 40
13.171657357136
 40
13.48567884942532
 40
13.79994391525808
 40
14.10737582044671
 40
14.41480772563414
 40
14.72907279146354
 40
15.04309428374751
 40
15.37600180032971
 40
15.7085667966146
 40
16.06815335611403
 40
16.42743265569858
 40
16.81733520952846
 40
17.20700988159111
 40
17.62685432930839
 40
18.04654359473087
 40
18.49274621210013
 40
18.93884897373848
 40
19.40546163895962
 40
19.87201527865232
 40
20.3514863113378
 40
20.83092998044912
 40
21.314779684729
 40
21.7986293890104
 40
22.27807305812662
 40
22.75754409082135
 40
23.22409773052905
 40
23.69071039577356
 40
24.1368131574456
 40
24.58301577486424
 40
25.00270504035333
 40
25.42254948816418
 40
25.81222416034667
 40
26.20212671433934
 40
26.56140601412457
 40
26.9209925738892
 40
27.25355757049583
 40
27.58646508749651
 40
27.90048658031823
 40
28.21475164694573
 40
28.52218355426175
 40
28.82961545227907
 40
28.82961545227907
 40
28.82961545227907
 40
28.82961545227907
 10
57.4287476793927
 20
114.6266484669547
 30
0.0
 10
57.41015514415992
 20
114.7299158430332
 30
0.0
 10
57.37298449194395
 20
114.936370561799
 30
0.0
 10
57.26203783508533
 20
115.2384427663711
 30
0.0
 10
57.11497280095518
 20
115.5306250136422
 30
0.0
 10
56.92481789121153
 20
115.8154672528758
 30
0.0
 10
56.69968313562417
 20
116.0848962086426
 30
0.0
 10
56.43504684558492
 20
116.3436823965141
 30
0.0
 10
56.13998677760359
 20
116.5833493280122
 30
0.0
 10
55.80922063057623
 20
116.8086777820457
 30
0.0
 10
55.45315356138395
 20
117.0122322030567
 30
0.0
 10
55.06642047232485
 20
117.1977163931447
 30
0.0
 10
54.6597472855152
 20
117.3594793088596
 30
0.0
 10
54.22877113010527
 20
117.4998407504995
 30
0.0
 10
53.78339769412815
 20
117.6150787051509
 30
0.0
 10
53.32118482975662
 20
117.7063280637382
 30
0.0
 10
52.85026644720413
 20
117.7715327254539
 30
0.0
 10
52.37073500975354
 20
117.811121468969
 30
0.0
 10
51.8882899401941
 20
117.8242064881416
 30
0.0
 10
51.40584487061989
 20
117.811121468985
 30
0.0
 10
50.9263134332155
 20
117.7715327254828
 30
0.0
 10
50.4553950505012
 20
117.7063280638183
 30
0.0
 10
49.99318218672561
 20
117.6150787051882
 30
0.0
 10
49.54780874857975
 20
117.4998407509039
 30
0.0
 10
49.11683260093322
 20
117.359479308246
 30
0.0
 10
48.71015938599631
 20
117.197716396628
 30
0.0
 10
48.32342639597158
 20
117.0122321926457
 30
0.0
 10
47.96735897061197
 20
116.8086778223019
 30
0.0
 10
47.63659406212088
 20
116.5833491929385
 30
0.0
 10
47.34152956231428
 20
116.3436828899196
 30
0.0
 10
47.07690858241022
 20
116.0848945322328
 30
0.0
 10
46.85171905431216
 20
115.8154733407527
 30
0.0
 10
46.66175405714904
 20
115.5306041825701
 30
0.0
 10
46.51400464246206
 20
115.2385189454909
 30
0.0
 10
46.40547565706023
 20
114.9361040416472
 30
0.0
 10
46.34126400423822
 20
114.6298821664284
 30
0.0
 10
46.31866271939878
 20
114.3199827341843
 30
0.0
 10
46.34126400422687
 20
114.0100833019406
 30
0.0
 10
46.40547565703772
 20
113.7038614267227
 30
0.0
 10
46.51400464242869
 20
113.4014465228808
 30
0.0
 10
46.66175405710528
 20
113.109361285804
 30
0.0
 10
46.85171905425837
 20
112.8244921276247
 30
0.0
 10
47.07690858234693
 20
112.5550709361487
 30
0.0
 10
47.34152956224201
 20
112.296282578467
 30
0.0
 10
47.63659406204026
 20
112.056616275454
 30
0.0
 10
47.96735897052333
 20
111.8312876460974
 30
0.0
 10
48.32342639587566
 20
111.6277332757616
 30
0.0
 10
48.71015938589349
 20
111.4422490717887
 30
0.0
 10
49.11683260082415
 20
111.2804861601813
 30
0.0
 10
49.54780874846472
 20
111.1401247175356
 30
0.0
 10
49.99318218660505
 20
111.0248867632652
 30
0.0
 10
50.45539505037536
 20
110.9336374046508
 30
0.0
 10
50.92631343308435
 20
110.8684327430044
 30
0.0
 10
51.40584487048437
 20
110.8288439995225
 30
0.0
 10
51.88828994005022
 20
110.8157589803895
 30
0.0
 10
52.37073500961499
 20
110.8288439995861
 30
0.0
 10
52.85026644701796
 20
110.8684327431366
 30
0.0
 10
53.3211848297146
 20
110.9336374048591
 30
0.0
 10
53.78339769352552
 20
111.0248867635711
 30
0.0
 10
54.22877113150849
 20
111.1401247179297
 30
0.0
 10
54.65974727969445
 20
111.2804861607873
 30
0.0
 10
55.06642049261842
 20
111.4422490722726
 30
0.0
 10
55.45315348965302
 20
111.627733277437
 30
0.0
 10
55.80922088969422
 20
111.8312876444182
 30
0.0
 10
56.13998588608436
 20
112.0566162865137
 30
0.0
 10
56.43505007116462
 20
112.2962825452391
 30
0.0
 10
56.69967213805778
 20
112.5550710573803
 30
0.0
 10
56.92485777705562
 20
112.8244916980213
 30
0.0
 10
57.114836258419
 20
113.1093627680609
 30
0.0
 10
57.26253707996389
 20
113.4014411177812
 30
0.0
 10
57.37123772678424
 20
113.7038803549145
 30
0.0
 10
57.43482081053196
 20
114.0100131335016
 30
0.0
 10
57.45972030145396
 20
114.3202383290478
 30
0.0
 10
57.43907188363106
 20
114.5245117550991
 30
0.0
 10
57.42874767939269
 20
114.6266484669547
 30
0.0
 11
57.4287476793927
 21
114.6266484669547
 31
0.0
 11
57.36412575433769
 21
114.9341977125913
 31
0.0
 11
57.25892579514644
 21
115.2300734741619
 31
0.0
 11
57.10903212817395
 21
115.5273264022926
 31
0.0
 11
56.92525798162184
 21
115.8045024111502
 31
0.0
 11
56.69520087045007
 21
116.0808648895102
 31
0.0
 11
56.43883953178877
 21
116.3325799649648
 31
0.0
 11
56.13667365038097
 21
116.5789938072215
 31
0.0
 11
55.81493318237113
 21
116.7988333426565
 31
0.0
 11
55.45077480007455
 21
117.0077783902813
 31
0.0
 11
55.07252828958804
 21
117.1896262851024
 31
0.0
 11
54.65811406395039
 21
117.3550276918896
 31
0.0
 11
54.2340201072329
 21
117.4934184063207
 31
0.0
 11
53.78237694714462
 21
117.6106610406729
 31
0.0
 11
53.32468383818924
 21
117.7011558843935
 31
0.0
 11
52.84977565443744
 21
117.7671459457794
 31
0.0
 11
52.371958969191
 21
117.8066104508426
 31
0.0
 11
51.88828993024368
 21
117.8198315363681
 31
0.0
 11
51.40462089129635
 21
117.8066104508426
 31
0.0
 11
50.92680420604992
 21
117.7671459457794
 31
0.0
 11
50.45189602229811
 21
117.7011558843935
 31
0.0
 11
49.99420291334275
 21
117.6106610406729
 31
0.0
 11
49.54255975325449
 21
117.4934184063207
 31
0.0
 11
49.11846579653698
 21
117.3550276918896
 31
0.0
 11
48.70405157089929
 21
117.1896262851024
 31
0.0
 11
48.3258050604128
 21
117.0077783902813
 31
0.0
 11
47.96164667811628
 21
116.7988333426565
 31
0.0
 11
47.63990621010652
 21
116.5789938072215
 31
0.0
 11
47.33774032869876
 21
116.3325799649649
 31
0.0
 11
47.08137899003739
 21
116.0808648895103
 31
0.0
 11
46.85132187886556
 21
115.8045024111504
 31
0.0
 11
46.66754773231338
 21
115.5273264022927
 31
0.0
 11
46.51765406534086
 21
115.2300734741619
 31
0.0
 11
46.41245410614961
 21
114.9341977125913
 31
0.0
 11
46.34783218109465
 21
114.6266484669547
 31
0.0
 11
46.32614106492198
 21
114.3199827337956
 31
0.0
 11
46.34783218109462
 21
114.0133170006365
 31
0.0
 11
46.41245410614958
 21
113.7057677549998
 31
0.0
 11
46.51765406534085
 21
113.4098919934292
 31
0.0
 11
46.66754773231338
 21
113.1126390652985
 31
0.0
 11
46.85132187886555
 21
112.8354630564408
 31
0.0
 11
47.08137899003737
 21
112.5591005780809
 31
0.0
 11
47.33774032869875
 21
112.3073855026263
 31
0.0
 11
47.63990621010655
 21
112.0609716603697
 31
0.0
 11
47.96164667811627
 21
111.8411321249347
 31
0.0
 11
48.32580506041278
 21
111.6321870773099
 31
0.0
 11
48.7040515708993
 21
111.4503391824888
 31
0.0
 11
49.11846579653701
 21
111.2849377757016
 31
0.0
 11
49.54255975325451
 21
111.1465470612705
 31
0.0
 11
49.99420291334276
 21
111.0293044269183
 31
0.0
 11
50.45189602229811
 21
110.9388095831976
 31
0.0
 11
50.9268042060499
 21
110.8728195218117
 31
0.0
 11
51.40462089129636
 21
110.8333550167485
 31
0.0
 11
51.88828993024368
 21
110.820133931223
 31
0.0
 11
52.371958969191
 21
110.8333550167485
 31
0.0
 11
52.84977565443744
 21
110.8728195218117
 31
0.0
 11
53.32468383818924
 21
110.9388095831976
 31
0.0
 11
53.78237694714461
 21
111.0293044269183
 31
0.0
 11
54.23402010723288
 21
111.1465470612705
 31
0.0
 11
54.65811406395036
 21
111.2849377757015
 31
0.0
 11
55.07252828958805
 21
111.4503391824887
 31
0.0
 11
55.45077480007458
 21
111.6321870773099
 31
0.0
 11
55.81493318237113
 21
111.8411321249347
 31
0.0
 11
56.13667365038095
 21
112.0609716603697
 31
0.0
 11
56.43883953178878
 21
112.3073855026263
 31
0.0
 11
56.69520087045011
 21
112.5591005780808
 31
0.0
 11
56.92525798162185
 21
112.8354630564408
 31
0.0
 11
57.10903212817392
 21
113.1126390652986
 31
0.0
 11
57.25892579514644
 21
113.4098919934293
 31
0.0
 11
57.36412575433773
 21
113.7057677549999
 31
0.0
 11
57.42874767939273
 21
114.0133170006365
 31
0.0
 11
57.4504387955654
 21
114.3199827337956
 31
0.0
 11
57.42874767939269
 21
114.6266484669547
 31
0.0
  0
SPLINE
  5
F1
330
52
100
AcDbEntity
  8
1
  6
Continuous
 62
     7
100
AcDbSpline
210
0.0
220
0.0
230
1.0
 70
    11
 71
     3
 72
    79
 73
    75
 74
    73
 42
0.000000001
 43
0.0000000001
 44
0.00000001
 40
0.0
 40
0.0
 40
0.0
 40
0.0
 40
0.3142650584354271
 40
0.6282865527610293
 40
0.9611940700550969
 40
1.293759066763302
 40
1.653345626572419
 40
2.012624926377716
 40
2.402527480380179
 40
2.792202152566635
 40
3.212046600379024
 40
3.631735865868373
 40
4.077938483287231
 40
4.52404124495986
 40
4.990653910205767
 40
5.457207549915661
 40
5.936678582613642
 40
6.416122251734053
 40
6.899971956020631
 40
7.383821660306573
 40
7.863265329424736
 40
8.342736362117899
 40
8.80929000181885
 40
9.27590266704901
 40
9.722005428696717
 40
10.16820804607602
 40
10.58789731150855
 40
11.00774175923648
 40
11.39741643130946
 40
11.78731898514995
 40
12.14659828474437
 40
12.50618484425337
 40
12.83874984054655
 40
13.17165735713601
 40
13.48567884942531
 40
13.79994391525808
 40
14.1073758204467
 40
14.41480772563413
 40
14.72907279146354
 40
15.0430942837475
 40
15.37600180032971
 40
15.70856679661459
 40
16.06815335611403
 40
16.42743265569859
 40
16.81733520952843
 40
17.20700988159111
 40
17.62685432930838
 40
18.04654359473086
 40
18.49274621210011
 40
18.93884897373847
 40
19.4054616389596
 40
19.87201527865232
 40
20.35148631133783
 40
20.83092998044911
 40
21.314779684729
 40
21.7986293890104
 40
22.27807305812662
 40
22.75754409082134
 40
23.22409773052903
 40
23.69071039577355
 40
24.13681315744559
 40
24.58301577486423
 40
25.00270504035332
 40
25.42254948816417
 40
25.81222416034665
 40
26.20212671433932
 40
26.56140601412456
 40
26.92099257388919
 40
27.25355757049583
 40
27.5864650874965
 40
27.90048658031822
 40
28.21475164694572
 40
28.52218355426174
 40
28.82961545227906
 40
28.82961545227906
 40
28.82961545227906
 40
28.82961545227906
 10
59.34783218109553
 20
114.6266484669547
 30
0.0
 10
59.36642471632833
 20
114.7299158430332
 30
0.0
 10
59.40359536854425
 20
114.936370561799
 30
0.0
 10
59.51454202540295
 20
115.238442766371
 30
0.0
 10
59.66160705953304
 20
115.5306250136422
 30
0.0
 10
59.85176196927669
 20
115.8154672528758
 30
0.0
 10
60.07689672486406
 20
116.0848962086426
 30
0.0
 10
60.34153301490332
 20
116.343682396514
 30
0.0
 10
60.63659308288462
 20
116.5833493280122
 30
0.0
 10
60.96735922991199
 20
116.8086777820457
 30
0.0
 10
61.3234262991043
 20
117.0122322030566
 30
0.0
 10
61.71015938816338
 20
117.1977163931447
 30
0.0
 10
62.11683257497302
 20
117.3594793088597
 30
0.0
 10
62.54780873038294
 20
117.4998407504995
 30
0.0
 10
62.9931821663601
 20
117.6150787051509
 30
0.0
 10
63.45539503073159
 20
117.7063280637382
 30
0.0
 10
63.92631341328412
 20
117.7715327254539
 30
0.0
 10
64.40584485073468
 20
117.811121468969
 30
0.0
 10
64.88828992029411
 20
117.8242064881416
 30
0.0
 10
65.37073498986832
 20
117.811121468985
 30
0.0
 10
65.85026642727271
 20
117.7715327254828
 30
0.0
 10
66.32118480998703
 20
117.7063280638183
 30
0.0
 10
66.7833976737626
 20
117.6150787051882
 30
0.0
 10
67.22877111190849
 20
117.4998407509039
 30
0.0
 10
67.659747259555
 20
117.359479308246
 30
0.0
 10
68.06642047449193
 20
117.197716396628
 30
0.0
 10
68.45315346451663
 20
117.0122321926458
 30
0.0
 10
68.80922088987629
 20
116.8086778223019
 30
0.0
 10
69.13998579836733
 20
116.5833491929385
 30
0.0
 10
69.43505029817398
 20
116.3436828899196
 30
0.0
 10
69.69967127807799
 20
116.0848945322328
 30
0.0
 10
69.92486080617607
 20
115.8154733407527
 30
0.0
 10
70.11482580333914
 20
115.5306041825701
 30
0.0
 10
70.2625752180262
 20
115.2385189454909
 30
0.0
 10
70.37110420342798
 20
114.9361040416472
 30
0.0
 10
70.43531585625001
 20
114.6298821664284
 30
0.0
 10
70.45791714108944
 20
114.3199827341844
 30
0.0
 10
70.43531585626137
 20
114.0100833019406
 30
0.0
 10
70.37110420345047
 20
113.7038614267227
 30
0.0
 10
70.26257521805957
 20
113.4014465228807
 30
0.0
 10
70.11482580338296
 20
113.1093612858041
 30
0.0
 10
69.92486080622984
 20
112.8244921276247
 30
0.0
 10
69.69967127814124
 20
112.5550709361486
 30
0.0
 10
69.43505029824621
 20
112.296282578467
 30
0.0
 10
69.139985798448
 20
112.0566162754539
 30
0.0
 10
68.80922088996488
 20
111.8312876460974
 30
0.0
 10
68.45315346461257
 20
111.6277332757616
 30
0.0
 10
68.06642047459472
 20
111.4422490717886
 30
0.0
 10
67.65974725966407
 20
111.2804861601813
 30
0.0
 10
67.22877111202352
 20
111.1401247175356
 30
0.0
 10
66.78339767388317
 20
111.0248867632652
 30
0.0
 10
66.32118481011287
 20
110.9336374046508
 30
0.0
 10
65.85026642740384
 20
110.8684327430044
 30
0.0
 10
65.37073499000385
 20
110.8288439995225
 30
0.0
 10
64.88828992043798
 20
110.8157589803896
 30
0.0
 10
64.40584485087324
 20
110.8288439995861
 30
0.0
 10
63.92631341347026
 20
110.8684327431366
 30
0.0
 10
63.45539503077359
 20
110.9336374048591
 30
0.0
 10
62.99318216696275
 20
111.0248867635711
 30
0.0
 10
62.54780872897972
 20
111.1401247179297
 30
0.0
 10
62.11683258079377
 20
111.2804861607873
 30
0.0
 10
61.71015936786985
 20
111.4422490722726
 30
0.0
 10
61.32342637083518
 20
111.627733277437
 30
0.0
 10
60.96735897079404
 20
111.8312876444182
 30
0.0
 10
60.63659397440384
 20
112.0566162865137
 30
0.0
 10
60.34152978932365
 20
112.2962825452391
 30
0.0
 10
60.07690772243042
 20
112.5550710573803
 30
0.0
 10
59.85172208343259
 20
112.8244916980213
 30
0.0
 10
59.66174360206919
 20
113.1093627680609
 30
0.0
 10
59.51404278052432
 20
113.4014411177812
 30
0.0
 10
59.405342133704
 20
113.7038803549144
 30
0.0
 10
59.34175904995627
 20
114.0100131335016
 30
0.0
 10
59.31685955903426
 20
114.3202383290479
 30
0.0
 10
59.33750797685717
 20
114.5245117550991
 30
0.0
 10
59.34783218109553
 20
114.6266484669547
 30
0.0
 11
59.34783218109553
 21
114.6266484669547
 31
0.0
 11
59.41245410615054
 21
114.9341977125913
 31
0.0
 11
59.5176540653418
 21
115.2300734741619
 31
0.0
 11
59.66754773231428
 21
115.5273264022926
 31
0.0
 11
59.85132187886639
 21
115.8045024111502
 31
0.0
 11
60.08137899003816
 21
116.0808648895102
 31
0.0
 11
60.33774032869945
 21
116.3325799649648
 31
0.0
 11
60.63990621010725
 21
116.5789938072215
 31
0.0
 11
60.96164667811709
 21
116.7988333426565
 31
0.0
 11
61.32580506041368
 21
117.0077783902813
 31
0.0
 11
61.70405157090018
 21
117.1896262851024
 31
0.0
 11
62.11846579653783
 21
117.3550276918896
 31
0.0
 11
62.54255975325533
 21
117.4934184063207
 31
0.0
 11
62.99420291334361
 21
117.6106610406729
 31
0.0
 11
63.45189602229898
 21
117.7011558843935
 31
0.0
 11
63.92680420605079
 21
117.7671459457794
 31
0.0
 11
64.40462089129723
 21
117.8066104508426
 31
0.0
 11
64.88828993024455
 21
117.8198315363681
 31
0.0
 11
65.37195896919187
 21
117.8066104508426
 31
0.0
 11
65.8497756544383
 21
117.7671459457794
 31
0.0
 11
66.32468383819011
 21
117.7011558843935
 31
0.0
 11
66.78237694714547
 21
117.6106610406729
 31
0.0
 11
67.23402010723373
 21
117.4934184063207
 31
0.0
 11
67.65811406395125
 21
117.3550276918896
 31
0.0
 11
68.07252828958894
 21
117.1896262851024
 31
0.0
 11
68.45077480007542
 21
117.0077783902813
 31
0.0
 11
68.81493318237196
 21
116.7988333426565
 31
0.0
 11
69.1366736503817
 21
116.5789938072215
 31
0.0
 11
69.43883953178947
 21
116.3325799649649
 31
0.0
 11
69.69520087045083
 21
116.0808648895103
 31
0.0
 11
69.92525798162266
 21
115.8045024111504
 31
0.0
 11
70.10903212817483
 21
115.5273264022927
 31
0.0
 11
70.25892579514738
 21
115.2300734741619
 31
0.0
 11
70.36412575433862
 21
114.9341977125913
 31
0.0
 11
70.42874767939358
 21
114.6266484669547
 31
0.0
 11
70.45043879556624
 21
114.3199827337956
 31
0.0
 11
70.42874767939361
 21
114.0133170006365
 31
0.0
 11
70.36412575433864
 21
113.7057677549998
 31
0.0
 11
70.25892579514738
 21
113.4098919934292
 31
0.0
 11
70.10903212817483
 21
113.1126390652985
 31
0.0
 11
69.92525798162268
 21
112.8354630564408
 31
0.0
 11
69.69520087045083
 21
112.5591005780809
 31
0.0
 11
69.43883953178947
 21
112.3073855026263
 31
0.0
 11
69.1366736503817
 21
112.0609716603697
 31
0.0
 11
68.81493318237196
 21
111.8411321249347
 31
0.0
 11
68.45077480007544
 21
111.6321870773099
 31
0.0
 11
68.07252828958893
 21
111.4503391824888
 31
0.0
 11
67.65811406395123
 21
111.2849377757016
 31
0.0
 11
67.23402010723372
 21
111.1465470612705
 31
0.0
 11
66.78237694714548
 21
111.0293044269183
 31
0.0
 11
66.32468383819011
 21
110.9388095831976
 31
0.0
 11
65.84977565443829
 21
110.8728195218117
 31
0.0
 11
65.37195896919187
 21
110.8333550167485
 31
0.0
 11
64.88828993024454
 21
110.820133931223
 31
0.0
 11
64.40462089129721
 21
110.8333550167485
 31
0.0
 11
63.92680420605078
 21
110.8728195218117
 31
0.0
 11
63.45189602229898
 21
110.9388095831976
 31
0.0
 11
62.99420291334362
 21
111.0293044269183
 31
0.0
 11
62.54255975325535
 21
111.1465470612705
 31
0.0
 11
62.11846579653786
 21
111.2849377757015
 31
0.0
 11
61.70405157090018
 21
111.4503391824887
 31
0.0
 11
61.32580506041365
 21
111.6321870773099
 31
0.0
 11
60.96164667811708
 21
111.8411321249347
 31
0.0
 11
60.63990621010728
 21
112.0609716603697
 31
0.0
 11
60.33774032869945
 21
112.3073855026263
 31
0.0
 11
60.08137899003811
 21
112.5591005780808
 31
0.0
 11
59.85132187886637
 21
112.8354630564408
 31
0.0
 11
59.66754773231428
 21
113.1126390652986
 31
0.0
 11
59.51765406534177
 21
113.4098919934293
 31
0.0
 11
59.41245410615049
 21
113.7057677549999
 31
0.0
 11
59.34783218109548
 21
114.0133170006365
 31
0.0
 11
59.32614106492282
 21
114.3199827337956
 31
0.0
 11
59.34783218109553
 21
114.6266484669547
 31
0.0
  0
SPLINE
  5
F2
330
52
100
AcDbEntity
  8
1
  6
Continuous
 62
     7
100
AcDbSpline
210
0.0
220
0.0
230
1.0
 70
    11
 71
     3
 72
    79
 73
    75
 74
    73
 42
0.000000001
 43
0.0000000001
 44
0.00000001
 40
0.0
 40
0.0
 40
0.0
 40
0.0
 40
0.321919106576118
 40
0.6433817936226007
 40
0.9928750027372255
 40
1.341795136668516
 40
1.729749024779453
 40
2.117262753762429
 40
2.547908612129179
 40
2.978266912591534
 40
3.450266272796286
 40
3.92208644892581
 40
4.429962875077944
 40
4.937730794206702
 40
5.47311149817895
 40
6.008430496810233
 40
6.561033305606031
 40
7.11360811862672
 40
7.672061090161329
 40
8.230514061698294
 40
8.783088874725689
 40
9.335691683531413
 40
9.871010682173896
 40
10.40639138615602
 40
10.91415930528942
 40
11.42203573143624
 40
11.89385590754527
 40
12.36585526770449
 40
12.79621356809204
 40
13.22685942633408
 40
13.61437315514065
 40
14.00232704297784
 40
14.35124717651863
 40
14.70074038494126
 40
15.02220306986421
 40
15.34412218308075
 40
15.65570035336874
 40
15.96727852365568
 40
16.28919763686916
 40
16.61066032178745
 40
16.96015353020373
 40
17.30907366373758
 40
17.69702755156679
 40
18.08454128036556
 40
18.51518713859939
 40
18.94554543897927
 40
19.41754479913086
 40
19.88936497523294
 40
20.39724140137305
 40
20.9050093205006
 40
21.44039002447749
 40
21.97570902311562
 40
22.52831183191796
 40
23.08088664494314
 40
23.63933961647924
 40
24.19779258801453
 40
24.7503674010377
 40
25.30297020983791
 40
25.83828920847565
 40
26.37366991245669
 40
26.881437831596
 40
27.3893142577606
 40
27.86113443390331
 40
28.33313379412157
 40
28.76349209459537
 40
29.19413795296911
 40
29.58165168194919
 40
29.96960557003394
 40
30.31852570388543
 40
30.66801891273287
 40
30.98948159820564
 40
31.31140071222986
 40
31.62297888471749
 40
31.93455704876364
 40
31.93455704876364
 40
31.93455704876364
 40
31.93455704876364
 10
149.2060332785043
 20
114.6660385368141
 30
0.0
 10
149.1843092620111
 20
114.7713574602619
 30
0.0
 10
149.1408920391867
 20
114.9818459873478
 30
0.0
 10
149.0112985843355
 20
115.2883391331342
 30
0.0
 10
148.8407834770213
 20
115.5832588442065
 30
0.0
 10
148.6200045957111
 20
115.8714579111379
 30
0.0
 10
148.360047057837
 20
116.1424128421633
 30
0.0
 10
148.0538152447564
 20
116.4037834645688
 30
0.0
 10
147.7137645983835
 20
116.6446312722802
 30
0.0
 10
147.3315740743743
 20
116.8720531827838
 30
0.0
 10
146.9213418239547
 20
117.0767314092422
 30
0.0
 10
146.4747709919554
 20
117.2638993724601
 30
0.0
 10
146.0061063703063
 20
117.4266922888965
 30
0.0
 10
145.5086084942157
 20
117.568319050767
 30
0.0
 10
144.9951462710065
 20
117.6843709724196
 30
0.0
 10
144.461706690444
 20
117.7764416407025
 30
0.0
 10
143.9186057126722
 20
117.8421327081111
 30
0.0
 10
143.3652900091854
 20
117.8820856428089
 30
0.0
 10
142.8087390741308
 20
117.8952525761984
 30
0.0
 10
142.2521881390555
 20
117.882085642713
 30
0.0
 10
141.6988724356314
 20
117.8421327079122
 30
0.0
 10
141.1557714576355
 20
117.776441640458
 30
0.0
 10
140.6223318778876
 20
117.684370971974
 30
0.0
 10
140.1088696517174
 20
117.5683190507613
 30
0.0
 10
139.6113717861432
 20
117.4266922871465
 30
0.0
 10
139.1427071266145
 20
117.2638993769348
 30
0.0
 10
138.6961364264521
 20
117.0767313921521
 30
0.0
 10
138.2859037058731
 20
116.8720532428829
 30
0.0
 10
137.9037147897678
 20
116.6446310688905
 30
0.0
 10
137.5636584549964
 20
116.4037841941032
 30
0.0
 10
137.2574458625754
 20
116.1424104204528
 30
0.0
 10
136.9974205110794
 20
115.8714666089893
 30
0.0
 10
136.7768707450269
 20
115.583229975416
 30
0.0
 10
136.6055412822305
 20
115.2884437925723
 30
0.0
 10
136.4787582566198
 20
114.9814898295473
 30
0.0
 10
136.4041109989033
 20
114.6707386052325
 30
0.0
 10
136.3772754937702
 20
114.3554910386868
 30
0.0
 10
136.4041109988949
 20
114.0402434721415
 30
0.0
 10
136.478758256603
 20
113.7294922478276
 30
0.0
 10
136.6055412822057
 20
113.4225382848044
 30
0.0
 10
136.7768707449946
 20
113.1277521019631
 30
0.0
 10
136.9974205110404
 20
112.8395154683934
 30
0.0
 10
137.25744586253
 20
112.5685716569343
 30
0.0
 10
137.5636584549449
 20
112.3071978832892
 30
0.0
 10
137.9037147897113
 20
112.066351008508
 30
0.0
 10
138.285903705812
 20
111.8389288345234
 30
0.0
 10
138.6961364263871
 20
111.6342506852629
 30
0.0
 10
139.1427071265461
 20
111.4470827004904
 30
0.0
 10
139.6113717860721
 20
111.2842897902905
 30
0.0
 10
140.1088696516443
 20
111.1426630266899
 30
0.0
 10
140.622331877813
 20
111.0266111054939
 30
0.0
 10
141.1557714575599
 20
110.9345404370293
 30
0.0
 10
141.6988724355549
 20
110.8688493695974
 30
0.0
 10
142.2521881389799
 20
110.8288964348226
 30
0.0
 10
142.8087390740511
 20
110.8157295013681
 30
0.0
 10
143.3652900091211
 20
110.828896434789
 30
0.0
 10
143.9186057125509
 20
110.8688493695363
 30
0.0
 10
144.4617066905308
 20
110.9345404369492
 30
0.0
 10
144.995146270336
 20
111.0266111054233
 30
0.0
 10
145.508608496296
 20
111.142663026608
 30
0.0
 10
146.0061063626107
 20
111.2842897903815
 30
0.0
 10
146.4747710194597
 20
111.4470827002278
 30
0.0
 10
146.9213417289246
 20
111.6342506866524
 30
0.0
 10
147.3315744162886
 20
111.8389288306388
 30
0.0
 10
147.7137634459224
 20
112.0663510234654
 30
0.0
 10
148.0538193789544
 20
112.3071978326584
 30
0.0
 10
148.3600333286709
 20
112.5685718292094
 30
0.0
 10
148.6200538911749
 20
112.8395148558564
 30
0.0
 10
148.8406198369971
 20
113.1277541428838
 30
0.0
 10
149.0118917907426
 20
113.4225308967685
 30
0.0
 10
149.138873285722
 20
113.7295174029085
 30
0.0
 10
149.2127999580783
 20
114.0401504766643
 30
0.0
 10
149.2422441890592
 20
114.3558257862018
 30
0.0
 10
149.2181035784367
 20
114.5626342872236
 30
0.0
 10
149.2060332785043
 20
114.6660385368141
 30
0.0
 11
149.2060332785043
 21
114.6660385368141
 31
0.0
 11
149.1307070438189
 21
114.9790207629863
 31
0.0
 11
149.0093096523546
 21
115.2766798485388
 31
0.0
 11
148.8343855354993
 21
115.5792472891936
 31
0.0
 11
148.6233157225424
 21
115.8570867998897
 31
0.0
 11
148.3555394144722
 21
116.1378074225343
 31
0.0
 11
148.0613775824933
 21
116.3900686099196
 31
0.0
 11
147.7105952747888
 21
116.6398837973265
 31
0.0
 11
147.3410880260683
 21
116.8605026085848
 31
0.0
 11
146.9191424764534
 21
117.0720335736251
 31
0.0
 11
146.4841683788644
 21
117.2548225585828
 31
0.0
 11
146.0046301363772
 21
117.4220993897163
 31
0.0
 11
145.5163439404535
 21
117.5614006839395
 31
0.0
 11
144.9942368150353
 21
117.679877043527
 31
0.0
 11
144.466742322148
 21
117.7710690951325
 31
0.0
 11
143.9181719114649
 21
117.837705187581
 31
0.0
 11
143.3670327736861
 21
117.8775119055453
 31
0.0
 11
142.8087390641401
 21
117.8908481454944
 31
0.0
 11
142.2504453545941
 21
117.8775119055453
 31
0.0
 11
141.6993062168152
 21
117.837705187581
 31
0.0
 11
141.1507358061322
 21
117.7710690951325
 31
0.0
 11
140.6232413132448
 21
117.679877043527
 31
0.0
 11
140.1011341878267
 21
117.5614006839396
 31
0.0
 11
139.612847991903
 21
117.4220993897164
 31
0.0
 11
139.1333097494157
 21
117.2548225585829
 31
0.0
 11
138.6983356518268
 21
117.0720335736251
 31
0.0
 11
138.2763901022119
 21
116.8605026085847
 31
0.0
 11
137.9068828534915
 21
116.6398837973264
 31
0.0
 11
137.556100545787
 21
116.3900686099195
 31
0.0
 11
137.261938713808
 21
116.1378074225343
 31
0.0
 11
136.9941624057378
 21
115.8570867998897
 31
0.0
 11
136.7830925927809
 21
115.5792472891936
 31
0.0
 11
136.6081684759255
 21
115.2766798485388
 31
0.0
 11
136.4867710844612
 21
114.9790207629863
 31
0.0
 11
136.4114448497758
 21
114.6660385368141
 31
0.0
 11
136.3861227748075
 21
114.3554910383588
 31
0.0
 11
136.4114448497758
 21
114.0449435399035
 31
0.0
 11
136.4867710844612
 21
113.7319613137312
 31
0.0
 11
136.6081684759255
 21
113.4343022281786
 31
0.0
 11
136.7830925927809
 21
113.1317347875239
 31
0.0
 11
136.9941624057379
 21
112.8538952768278
 31
0.0
 11
137.261938713808
 21
112.5731746541832
 31
0.0
 11
137.556100545787
 21
112.320913466798
 31
0.0
 11
137.9068828534914
 21
112.0710982793911
 31
0.0
 11
138.276390102212
 21
111.8504794681329
 31
0.0
 11
138.6983356518269
 21
111.6389485030926
 31
0.0
 11
139.1333097494158
 21
111.4561595181347
 31
0.0
 11
139.6128479919029
 21
111.288882687001
 31
0.0
 11
140.1011341878267
 21
111.1495813927779
 31
0.0
 11
140.6232413132449
 21
111.0311050331906
 31
0.0
 11
141.1507358061322
 21
110.939912981585
 31
0.0
 11
141.6993062168152
 21
110.8732768891364
 31
0.0
 11
142.2504453545941
 21
110.833470171172
 31
0.0
 11
142.8087390641401
 21
110.820133931223
 31
0.0
 11
143.3670327736861
 21
110.833470171172
 31
0.0
 11
143.9181719114649
 21
110.8732768891364
 31
0.0
 11
144.466742322148
 21
110.939912981585
 31
0.0
 11
144.9942368150352
 21
111.0311050331906
 31
0.0
 11
145.5163439404535
 21
111.1495813927779
 31
0.0
 11
146.0046301363773
 21
111.2888826870011
 31
0.0
 11
146.4841683788644
 21
111.4561595181347
 31
0.0
 11
146.9191424764533
 21
111.6389485030926
 31
0.0
 11
147.3410880260682
 21
111.8504794681329
 31
0.0
 11
147.7105952747887
 21
112.0710982793911
 31
0.0
 11
148.0613775824932
 21
112.320913466798
 31
0.0
 11
148.3555394144722
 21
112.5731746541832
 31
0.0
 11
148.6233157225424
 21
112.8538952768278
 31
0.0
 11
148.8343855354994
 21
113.1317347875238
 31
0.0
 11
149.0093096523546
 21
113.4343022281786
 31
0.0
 11
149.1307070438189
 21
113.7319613137312
 31
0.0
 11
149.2060332785043
 21
114.0449435399035
 31
0.0
 11
149.2313553534726
 21
114.3554910383588
 31
0.0
 11
149.2060332785043
 21
114.6660385368141
 31
0.0
  0
SPLINE
  5
F3
330
52
100
AcDbEntity
  8
1
  6
Continuous
 62
     7
100
AcDbSpline
210
0.0
220
0.0
230
1.0
 70
    11
 71
     3
 72
    79
 73
    75
 74
    73
 42
0.000000001
 43
0.0000000001
 44
0.00000001
 40
0.0
 40
0.0
 40
0.0
 40
0.0
 40
0.2813091295367356
 40
0.5626019528582928
 40
0.8464226451893175
 40
1.130214053669883
 40
1.417835704368009
 40
1.705420535636395
 40
1.997635971559903
 40
2.289812847778991
 40
2.586839028647037
 40
2.883829785627978
 40
3.185307038912411
 40
3.486755454941898
 40
3.791812973649247
 40
4.096850359215376
 40
4.404220792930802
 40
4.711580925269233
 40
5.019747225769451
 40
5.327913526259437
 40
5.635273658567295
 40
5.942644092231164
 40
6.247681477724732
 40
6.552738996337133
 40
6.854187412249676
 40
7.15566466539248
 40
7.45265542220785
 40
7.749681602881981
 40
8.041858478879522
 40
8.334073914546591
 40
8.621658745520575
 40
8.909280395868358
 40
9.193071803910467
 40
9.47689249559965
 40
9.75818531750354
 40
10.03949445584091
 40
10.31992039306063
 40
10.60034633027935
 40
10.88165546861348
 40
11.16294829051189
 40
11.44676898219359
 40
11.73056039022631
 40
12.01818204056286
 40
12.30576687152409
 40
12.59798230717674
 40
12.89015918315859
 40
13.18718536381567
 40
13.484176120613
 40
13.78565337373666
 40
14.08710178962933
 40
14.39215930822104
 40
14.6971966936933
 40
15.00456712733518
 40
15.31192725962061
 40
15.62009356008773
 40
15.92825986056472
 40
16.2356199928796
 40
16.54299042657099
 40
16.8480278121128
 40
17.15308533079524
 40
17.45453374679944
 40
17.75601100005771
 40
18.05300175701151
 40
18.35002793785047
 40
18.64220481403765
 40
18.934420249924
 40
19.22200508114549
 40
19.50962673177607
 40
19.79341814013918
 40
20.07723883220374
 40
20.35853165457058
 40
20.6398407935702
 40
20.92026673223033
 40
21.2006926606664
 40
21.2006926606664
 40
21.2006926606664
 40
21.2006926606664
 10
153.7869695769944
 20
117.8773261604665
 30
0.0
 10
153.6938426289529
 20
117.8657547573498
 30
0.0
 10
153.5075941303162
 20
117.8426126272419
 30
0.0
 10
153.2332925470913
 20
117.7738504885125
 30
0.0
 10
152.9655486177219
 20
117.6812823621346
 30
0.0
 10
152.7059359812639
 20
117.5624300265344
 30
0.0
 10
152.4572188840258
 20
117.4197681110888
 30
0.0
 10
152.2203749683779
 20
117.2532252103045
 30
0.0
 10
151.9981595488228
 20
117.0652674911072
 30
0.0
 10
151.7912964965977
 20
116.8561052794112
 30
0.0
 10
151.6022377615193
 20
116.6286527030263
 30
0.0
 10
151.4315978166594
 20
116.3833071187621
 30
0.0
 10
151.2813340876035
 20
116.1232785605028
 30
0.0
 10
151.1520267352915
 20
115.8492558145206
 30
0.0
 10
151.0450359331638
 20
115.5645081292056
 30
0.0
 10
150.9609035938107
 20
115.2701452797201
 30
0.0
 10
150.9003846094315
 20
114.9692547998101
 30
0.0
 10
150.8639034712639
 20
114.6634684779073
 30
0.0
 10
150.8516846895592
 20
114.3554910479712
 30
0.0
 10
150.8639034709202
 20
114.0475136180259
 30
0.0
 10
150.9003846087445
 20
113.7417272961304
 30
0.0
 10
150.9609035927702
 20
113.4408368161399
 30
0.0
 10
151.0450359317944
 20
113.1464739668643
 30
0.0
 10
151.152026733482
 20
112.8617262806475
 30
0.0
 10
151.28133408574
 20
112.5877035378323
 30
0.0
 10
151.4315978132779
 20
112.3276749676375
 30
0.0
 10
151.6022377619759
 20
112.0823294270355
 30
0.0
 10
151.7912964810428
 20
111.8548766887747
 30
0.0
 10
151.998159590239
 20
111.6457150714406
 30
0.0
 10
152.2203747970504
 20
111.4577551526654
 30
0.0
 10
152.4572194926419
 20
111.2912203364202
 30
0.0
 10
152.7059336991181
 20
111.148528479209
 30
0.0
 10
152.9655569848974
 20
111.0297864720526
 30
0.0
 10
153.2332613923295
 20
110.936808926921
 30
0.0
 10
153.5077092254732
 20
110.8695618491117
 30
0.0
 10
153.7862480479307
 20
110.8292465030111
 30
0.0
 10
154.0670693127502
 20
110.8155848240283
 30
0.0
 10
154.3478905775698
 20
110.8292465029871
 30
0.0
 10
154.6264294000274
 20
110.8695618490638
 30
0.0
 10
154.9008772331714
 20
110.9368089268494
 30
0.0
 10
155.1685816406039
 20
111.0297864719572
 30
0.0
 10
155.4282049263836
 20
111.1485284790901
 30
0.0
 10
155.6769191328605
 20
111.2912203362778
 30
0.0
 10
155.9137638284528
 20
111.4577551524999
 30
0.0
 10
156.135979035265
 20
111.645715071252
 30
0.0
 10
156.342842144462
 20
111.8548766885633
 30
0.0
 10
156.5319008635297
 20
112.0823294268013
 30
0.0
 10
156.7025408122288
 20
112.3276749673806
 30
0.0
 10
156.8528045397677
 20
112.5877035375528
 30
0.0
 10
156.9821118920266
 20
112.8617262803457
 30
0.0
 10
157.0891026937153
 20
113.14647396654
 30
0.0
 10
157.1732350327405
 20
113.4408368157932
 30
0.0
 10
157.2337540167676
 20
113.741727295761
 30
0.0
 10
157.2702351545935
 20
114.0475136176341
 30
0.0
 10
157.2824539359561
 20
114.3554910475554
 30
0.0
 10
157.270235154254
 20
114.6634684774726
 30
0.0
 10
157.2337540160873
 20
114.9692547993362
 30
0.0
 10
157.173235031718
 20
115.270145279281
 30
0.0
 10
157.089102692345
 20
115.5645081285249
 30
0.0
 10
156.9821118903128
 20
115.8492558146226
 30
0.0
 10
156.8528045376763
 20
116.123278557602
 30
0.0
 10
156.7025408098592
 20
116.3833071268693
 30
0.0
 10
156.5319008604889
 20
116.6286526705188
 30
0.0
 10
156.3428421421659
 20
116.8561053970828
 30
0.0
 10
156.1359790284698
 20
117.0652670569163
 30
0.0
 10
155.9137638364825
 20
117.2532268178992
 30
0.0
 10
155.6769190845383
 20
117.4197622135295
 30
0.0
 10
155.4282050848183
 20
117.5624519242689
 30
0.0
 10
155.1685810351623
 20
117.6812018399058
 30
0.0
 10
154.9008794602138
 20
117.7741500364678
 30
0.0
 10
154.6264211429471
 20
117.8415057181156
 30
0.0
 10
154.3479213327821
 20
117.881416905301
 30
0.0
 10
154.0669548992526
 20
117.8965824822991
 30
0.0
 10
153.8802980167273
 20
117.8837449325128
 30
0.0
 10
153.7869695769944
 20
117.8773261604665
 30
0.0
 11
153.7869695769944
 21
117.8773261604665
 31
0.0
 11
153.5085700696408
 21
117.8369709163266
 31
0.0
 11
153.2353260447682
 21
117.7701625737677
 31
0.0
 11
152.9672199186035
 21
117.6770320725786
 31
0.0
 11
152.7090739005058
 21
117.559141459202
 31
0.0
 11
152.4595812221576
 21
117.4160344457452
 31
0.0
 11
152.2242358150579
 21
117.2507541551515
 31
0.0
 11
152.001093622043
 21
117.0620813626486
 31
0.0
 11
151.7955286969578
 21
116.8544509493461
 31
0.0
 11
151.6056141196888
 21
116.6260718666163
 31
0.0
 11
151.4359278169982
 21
116.3823300598043
 31
0.0
 11
151.2850321274377
 21
116.1213338431554
 31
0.0
 11
151.1562921404399
 21
115.8487587832771
 31
0.0
 11
151.04894947715
 21
115.5632108147003
 31
0.0
 11
150.9650531339108
 21
115.2699375459018
 31
0.0
 11
150.9044211772713
 21
114.9686065827219
 31
0.0
 11
150.8679719432848
 21
114.6634153241415
 31
0.0
 11
150.8557611686715
 21
114.3554910383588
 31
0.0
 11
150.8679719432848
 21
114.0475667525761
 31
0.0
 11
150.9044211772714
 21
113.7423754939956
 31
0.0
 11
150.9650531339108
 21
113.4410445308156
 31
0.0
 11
151.0489494771499
 21
113.1477712620171
 31
0.0
 11
151.1562921404399
 21
112.8622232934404
 31
0.0
 11
151.2850321274377
 21
112.5896482335622
 31
0.0
 11
151.4359278169982
 21
112.3286520169132
 31
0.0
 11
151.6056141196889
 21
112.0849102101012
 31
0.0
 11
151.7955286969578
 21
111.8565311273714
 31
0.0
 11
152.001093622043
 21
111.6489007140689
 31
0.0
 11
152.2242358150579
 21
111.460227921566
 31
0.0
 11
152.4595812221576
 21
111.2949476309723
 31
0.0
 11
152.7090739005058
 21
111.1518406175155
 31
0.0
 11
152.9672199186034
 21
111.0339500041389
 31
0.0
 11
153.2353260447682
 21
110.9408195029498
 31
0.0
 11
153.5085700696409
 21
110.8740111603908
 31
0.0
 11
153.7869695769944
 21
110.8336559162509
 31
0.0
 11
154.0670693133377
 21
110.820133931223
 31
0.0
 11
154.347169049681
 21
110.8336559162509
 31
0.0
 11
154.6255685570346
 21
110.8740111603908
 31
0.0
 11
154.8988125819072
 21
110.9408195029498
 31
0.0
 11
155.1669187080719
 21
111.0339500041389
 31
0.0
 11
155.4250647261695
 21
111.1518406175155
 31
0.0
 11
155.6745574045177
 21
111.2949476309722
 31
0.0
 11
155.9099028116175
 21
111.4602279215659
 31
0.0
 11
156.1330450046324
 21
111.6489007140689
 31
0.0
 11
156.3386099297176
 21
111.8565311273714
 31
0.0
 11
156.5285245069865
 21
112.0849102101012
 31
0.0
 11
156.6982108096772
 21
112.3286520169132
 31
0.0
 11
156.8491064992378
 21
112.5896482335622
 31
0.0
 11
156.9778464862356
 21
112.8622232934405
 31
0.0
 11
157.0851891495256
 21
113.1477712620172
 31
0.0
 11
157.1690854927647
 21
113.4410445308157
 31
0.0
 11
157.2297174494041
 21
113.7423754939956
 31
0.0
 11
157.2661666833907
 21
114.047566752576
 31
0.0
 11
157.278377458004
 21
114.3554910383587
 31
0.0
 11
157.2661666833907
 21
114.6634153241414
 31
0.0
 11
157.2297174494042
 21
114.9686065827219
 31
0.0
 11
157.1690854927647
 21
115.2699375459018
 31
0.0
 11
157.0851891495255
 21
115.5632108147003
 31
0.0
 11
156.9778464862357
 21
115.8487587832771
 31
0.0
 11
156.8491064992378
 21
116.1213338431554
 31
0.0
 11
156.6982108096773
 21
116.3823300598043
 31
0.0
 11
156.5285245069865
 21
116.6260718666163
 31
0.0
 11
156.3386099297176
 21
116.8544509493462
 31
0.0
 11
156.1330450046324
 21
117.0620813626486
 31
0.0
 11
155.9099028116175
 21
117.2507541551515
 31
0.0
 11
155.6745574045177
 21
117.4160344457452
 31
0.0
 11
155.4250647261696
 21
117.559141459202
 31
0.0
 11
155.1669187080719
 21
117.6770320725786
 31
0.0
 11
154.8988125819072
 21
117.7701625737677
 31
0.0
 11
154.6255685570345
 21
117.8369709163266
 31
0.0
 11
154.347169049681
 21
117.8773261604665
 31
0.0
 11
154.0670693133377
 21
117.8908481454944
 31
0.0
 11
153.7869695769944
 21
117.8773261604665
 31
0.0
  0
SPLINE
  5
F4
330
52
100
AcDbEntity
  8
1
  6
Continuous
 62
     7
100
AcDbSpline
210
0.0
220
0.0
230
1.0
 70
    11
 71
     3
 72
    79
 73
    75
 74
    73
 42
0.000000001
 43
0.0000000001
 44
0.00000001
 40
0.0
 40
0.0
 40
0.0
 40
0.0
 40
0.2813091295367356
 40
0.5626019528583481
 40
0.846422645189346
 40
1.130214053669912
 40
1.417835704368037
 40
1.705420535636446
 40
1.997635971559955
 40
2.289812847779043
 40
2.586839028647052
 40
2.883829785628009
 40
3.185307038912486
 40
3.486755454941973
 40
3.791812973649321
 40
4.09685035921545
 40
4.40422079293087
 40
4.711580925269297
 40
5.019747225769516
 40
5.327913526259502
 40
5.635273658567357
 40
5.942644092231226
 40
6.247681477724786
 40
6.552738996337188
 40
6.854187412249754
 40
7.155664665392529
 40
7.4526554222079
 40
7.749681602882048
 40
8.04185847887965
 40
8.334073914546762
 40
8.6216587455207
 40
8.909280395868482
 40
9.193071803910565
 40
9.476892495599719
 40
9.758185317503553
 40
10.0394944558409
 40
10.31992039306068
 40
10.60034633027934
 40
10.88165546861349
 40
11.16294829051191
 40
11.44676898219363
 40
11.73056039022638
 40
12.01818204056297
 40
12.30576687152416
 40
12.59798230717679
 40
12.89015918315861
 40
13.1871853638157
 40
13.48417612061303
 40
13.78565337373671
 40
14.08710178962939
 40
14.39215930822108
 40
14.69719669369335
 40
15.00456712733524
 40
15.31192725962067
 40
15.62009356008779
 40
15.92825986056478
 40
16.23561999287966
 40
16.54299042657104
 40
16.84802781211284
 40
17.15308533079529
 40
17.45453374679952
 40
17.75601100005778
 40
18.05300175701159
 40
18.35002793785055
 40
18.64220481403774
 40
18.93442024992405
 40
19.22200508114557
 40
19.50962673177614
 40
19.79341814013923
 40
20.07723883220382
 40
20.35853165457063
 40
20.63984079357023
 40
20.92026673223033
 40
21.20069266066637
 40
21.20069266066637
 40
21.20069266066637
 40
21.20069266066637
 10
131.8305085512858
 20
117.8773261604665
 30
0.0
 10
131.9236354993273
 20
117.8657547573498
 30
0.0
 10
132.109883997964
 20
117.8426126272419
 30
0.0
 10
132.3841855811889
 20
117.7738504885125
 30
0.0
 10
132.6519295105583
 20
117.6812823621346
 30
0.0
 10
132.9115421470163
 20
117.5624300265343
 30
0.0
 10
133.1602592442544
 20
117.4197681110888
 30
0.0
 10
133.3971031599024
 20
117.2532252103045
 30
0.0
 10
133.6193185794575
 20
117.0652674911072
 30
0.0
 10
133.8261816316826
 20
116.8561052794112
 30
0.0
 10
134.015240366761
 20
116.6286527030263
 30
0.0
 10
134.1858803116208
 20
116.3833071187622
 30
0.0
 10
134.3361440406768
 20
116.1232785605028
 30
0.0
 10
134.4654513929888
 20
115.8492558145206
 30
0.0
 10
134.5724421951165
 20
115.5645081292056
 30
0.0
 10
134.6565745344696
 20
115.2701452797201
 30
0.0
 10
134.7170935188488
 20
114.9692547998101
 30
0.0
 10
134.7535746570163
 20
114.6634684779073
 30
0.0
 10
134.7657934387212
 20
114.3554910479712
 30
0.0
 10
134.75357465736
 20
114.0475136180259
 30
0.0
 10
134.7170935195359
 20
113.7417272961304
 30
0.0
 10
134.65657453551
 20
113.44083681614
 30
0.0
 10
134.572442196486
 20
113.1464739668642
 30
0.0
 10
134.4654513947983
 20
112.8617262806475
 30
0.0
 10
134.3361440425402
 20
112.5877035378323
 30
0.0
 10
134.1858803150025
 20
112.3276749676375
 30
0.0
 10
134.0152403663043
 20
112.0823294270354
 30
0.0
 10
133.8261816472375
 20
111.8548766887747
 30
0.0
 10
133.6193185380412
 20
111.6457150714406
 30
0.0
 10
133.3971033312298
 20
111.4577551526655
 30
0.0
 10
133.1602586356382
 20
111.2912203364202
 30
0.0
 10
132.9115444291621
 20
111.148528479209
 30
0.0
 10
132.6519211433828
 20
111.0297864720526
 30
0.0
 10
132.3842167359507
 20
110.9368089269211
 30
0.0
 10
132.109768902807
 20
110.8695618491117
 30
0.0
 10
131.8312300803497
 20
110.8292465030111
 30
0.0
 10
131.5504088155301
 20
110.8155848240283
 30
0.0
 10
131.2695875507105
 20
110.8292465029871
 30
0.0
 10
130.9910487282528
 20
110.8695618490638
 30
0.0
 10
130.7166008951089
 20
110.9368089268494
 30
0.0
 10
130.4488964876764
 20
111.0297864719573
 30
0.0
 10
130.1892732018966
 20
111.1485284790901
 30
0.0
 10
129.9405589954197
 20
111.2912203362778
 30
0.0
 10
129.7037142998274
 20
111.4577551524999
 30
0.0
 10
129.4814990930153
 20
111.645715071252
 30
0.0
 10
129.2746359838183
 20
111.8548766885633
 30
0.0
 10
129.0855772647506
 20
112.0823294268013
 30
0.0
 10
128.9149373160515
 20
112.3276749673806
 30
0.0
 10
128.7646735885126
 20
112.5877035375529
 30
0.0
 10
128.6353662362537
 20
112.8617262803457
 30
0.0
 10
128.528375434565
 20
113.14647396654
 30
0.0
 10
128.4442430955398
 20
113.4408368157933
 30
0.0
 10
128.3837241115125
 20
113.741727295761
 30
0.0
 10
128.3472429736868
 20
114.0475136176341
 30
0.0
 10
128.3350241923241
 20
114.3554910475553
 30
0.0
 10
128.3472429740264
 20
114.6634684774726
 30
0.0
 10
128.383724112193
 20
114.9692547993361
 30
0.0
 10
128.4442430965622
 20
115.2701452792811
 30
0.0
 10
128.5283754359352
 20
115.5645081285249
 30
0.0
 10
128.6353662379674
 20
115.8492558146226
 30
0.0
 10
128.7646735906041
 20
116.123278557602
 30
0.0
 10
128.9149373184211
 20
116.3833071268693
 30
0.0
 10
129.0855772677914
 20
116.6286526705188
 30
0.0
 10
129.2746359861144
 20
116.8561053970828
 30
0.0
 10
129.4814990998105
 20
117.0652670569162
 30
0.0
 10
129.7037142917978
 20
117.2532268178992
 30
0.0
 10
129.940559043742
 20
117.4197622135294
 30
0.0
 10
130.189273043462
 20
117.5624519242689
 30
0.0
 10
130.448897093118
 20
117.6812018399059
 30
0.0
 10
130.7165986680665
 20
117.7741500364678
 30
0.0
 10
130.9910569853332
 20
117.8415057181157
 30
0.0
 10
131.2695567954981
 20
117.881416905301
 30
0.0
 10
131.5505232290276
 20
117.8965824822991
 30
0.0
 10
131.7371801115529
 20
117.8837449325128
 30
0.0
 10
131.8305085512858
 20
117.8773261604665
 30
0.0
 11
131.8305085512858
 21
117.8773261604665
 31
0.0
 11
132.1089080586394
 21
117.8369709163266
 31
0.0
 11
132.3821520835121
 21
117.7701625737677
 31
0.0
 11
132.6502582096767
 21
117.6770320725786
 31
0.0
 11
132.9084042277744
 21
117.559141459202
 31
0.0
 11
133.1578969061226
 21
117.4160344457452
 31
0.0
 11
133.3932423132223
 21
117.2507541551515
 31
0.0
 11
133.6163845062372
 21
117.0620813626486
 31
0.0
 11
133.8219494313225
 21
116.8544509493461
 31
0.0
 11
134.0118640085914
 21
116.6260718666163
 31
0.0
 11
134.1815503112821
 21
116.3823300598043
 31
0.0
 11
134.3324460008426
 21
116.1213338431554
 31
0.0
 11
134.4611859878405
 21
115.8487587832771
 31
0.0
 11
134.5685286511304
 21
115.5632108147003
 31
0.0
 11
134.6524249943695
 21
115.2699375459018
 31
0.0
 11
134.713056951009
 21
114.9686065827219
 31
0.0
 11
134.7495061849955
 21
114.6634153241415
 31
0.0
 11
134.7617169596087
 21
114.3554910383588
 31
0.0
 11
134.7495061849954
 21
114.0475667525761
 31
0.0
 11
134.7130569510089
 21
113.7423754939956
 31
0.0
 11
134.6524249943695
 21
113.4410445308156
 31
0.0
 11
134.5685286511304
 21
113.1477712620171
 31
0.0
 11
134.4611859878405
 21
112.8622232934404
 31
0.0
 11
134.3324460008425
 21
112.5896482335622
 31
0.0
 11
134.1815503112821
 21
112.3286520169132
 31
0.0
 11
134.0118640085915
 21
112.0849102101012
 31
0.0
 11
133.8219494313225
 21
111.8565311273714
 31
0.0
 11
133.6163845062372
 21
111.6489007140689
 31
0.0
 11
133.3932423132223
 21
111.460227921566
 31
0.0
 11
133.1578969061226
 21
111.2949476309723
 31
0.0
 11
132.9084042277744
 21
111.1518406175155
 31
0.0
 11
132.6502582096768
 21
111.0339500041389
 31
0.0
 11
132.3821520835121
 21
110.9408195029498
 31
0.0
 11
132.1089080586394
 21
110.8740111603908
 31
0.0
 11
131.8305085512859
 21
110.8336559162509
 31
0.0
 11
131.5504088149426
 21
110.820133931223
 31
0.0
 11
131.2703090785993
 21
110.8336559162509
 31
0.0
 11
130.9919095712457
 21
110.8740111603908
 31
0.0
 11
130.7186655463731
 21
110.9408195029498
 31
0.0
 11
130.4505594202084
 21
111.0339500041389
 31
0.0
 11
130.1924134021108
 21
111.1518406175155
 31
0.0
 11
129.9429207237625
 21
111.2949476309722
 31
0.0
 11
129.7075753166628
 21
111.4602279215659
 31
0.0
 11
129.4844331236479
 21
111.6489007140689
 31
0.0
 11
129.2788681985627
 21
111.8565311273714
 31
0.0
 11
129.0889536212938
 21
112.0849102101012
 31
0.0
 11
128.9192673186031
 21
112.3286520169132
 31
0.0
 11
128.7683716290425
 21
112.5896482335622
 31
0.0
 11
128.6396316420446
 21
112.8622232934405
 31
0.0
 11
128.5322889787547
 21
113.1477712620172
 31
0.0
 11
128.4483926355156
 21
113.4410445308157
 31
0.0
 11
128.3877606788761
 21
113.7423754939956
 31
0.0
 11
128.3513114448896
 21
114.047566752576
 31
0.0
 11
128.3391006702763
 21
114.3554910383587
 31
0.0
 11
128.3513114448896
 21
114.6634153241414
 31
0.0
 11
128.3877606788761
 21
114.9686065827219
 31
0.0
 11
128.4483926355156
 21
115.2699375459018
 31
0.0
 11
128.5322889787547
 21
115.5632108147003
 31
0.0
 11
128.6396316420445
 21
115.8487587832771
 31
0.0
 11
128.7683716290425
 21
116.1213338431554
 31
0.0
 11
128.919267318603
 21
116.3823300598043
 31
0.0
 11
129.0889536212938
 21
116.6260718666163
 31
0.0
 11
129.2788681985627
 21
116.8544509493462
 31
0.0
 11
129.484433123648
 21
117.0620813626486
 31
0.0
 11
129.7075753166628
 21
117.2507541551515
 31
0.0
 11
129.9429207237626
 21
117.4160344457452
 31
0.0
 11
130.1924134021108
 21
117.559141459202
 31
0.0
 11
130.4505594202084
 21
117.6770320725786
 31
0.0
 11
130.7186655463731
 21
117.7701625737677
 31
0.0
 11
130.9919095712458
 21
117.8369709163266
 31
0.0
 11
131.2703090785993
 21
117.8773261604665
 31
0.0
 11
131.5504088149425
 21
117.8908481454944
 31
0.0
 11
131.8305085512858
 21
117.8773261604665
 31
0.0
  0
ENDBLK
  5
54
330
52
100
AcDbEntity
  8
0
100
AcDbBlockEnd
  0
BLOCK
  5
56
330
55
100
AcDbEntity
  8
0
100
AcDbBlockBegin
  2
36-1A-13-M4
 70
     0
 10
74.93032179795206
 20
35.40049364345318
 30
0.0
  3
36-1A-13-M4
  1

  0
LINE
  5
F5
330
55
100
AcDbEntity
  8
1
  6
Continuous
 62
     7
100
AcDbLine
 10
63.13815233773912
 20
127.820133931223
 30
0.0
 11
63.13815233773912
 21
124.8201339312231
 31
0.0
  0
LINE
  5
F6
330
55
100
AcDbEntity
  8
1
  6
Continuous
 62
     7
100
AcDbLine
 10
53.63815233773901
 20
124.8201339312231
 30
0.0
 11
53.63815233773901
 21
127.820133931223
 31
0.0
  0
LINE
  5
F7
330
55
100
AcDbEntity
  8
1
  6
Continuous
 62
     7
100
AcDbLine
 10
147.5587390641401
 20
127.8201339312231
 30
0.0
 11
147.5587390641401
 21
124.820133931223
 31
0.0
  0
LINE
  5
F8
330
55
100
AcDbEntity
  8
1
  6
Continuous
 62
     7
100
AcDbLine
 10
138.05873906414
 20
124.820133931223
 30
0.0
 11
138.05873906414
 21
127.8201339312231
 31
0.0
  0
LINE
  5
F9
330
55
100
AcDbEntity
  8
1
  6
Continuous
 62
     7
100
AcDbLine
 10
53.0418838842358
 20
88.82013393122298
 30
0.0
 11
63.7344207912426
 21
88.82013393122298
 31
0.0
  0
ENDBLK
  5
57
330
55
100
AcDbEntity
  8
0
100
AcDbBlockEnd
  0
BLOCK
  5
5C
330
58
100
AcDbEntity
  8
0
100
AcDbBlockBegin
  2
R10A-13
 70
     0
 10
123.3087390641401
 20
93.82013393122298
 30
0.0
  3
R10A-13
  1

  0
INSERT
  5
59
330
58
100
AcDbEntity
  8
1
100
AcDbBlockReference
  2
R20F
 10
130.8087390641401
 20
127.320133931223
 30
0.0
  0
INSERT
  5
5A
330
58
100
AcDbEntity
  8
1
100
AcDbBlockReference
  2
37-1-13
 10
331.1772518095833
 20
83.90617482437275
 30
0.0
  0
INSERT
  5
5B
330
58
100
AcDbEntity
  8
1
100
AcDbBlockReference
  2
36-1A-13-M4
 10
74.93032179795206
 20
35.40049364345318
 30
0.0
  0
ENDBLK
  5
5D
330
58
100
AcDbEntity
  8
0
100
AcDbBlockEnd
  0
BLOCK
  5
5F
330
5E
100
AcDbEntity
  8
0
100
AcDbBlockBegin
  2
32-12-M2
 70
     0
 10
64.39160119897362
 20
48.01301510926793
 30
0.0
  3
32-12-M2
  1

  0
LINE
  5
FA
330
5E
100
AcDbEntity
  8
1
  6
Continuous
 62
     7
100
AcDbLine
 10
68.88815233773909
 20
174.820133931223
 30
0.0
 11
47.88815233773909
 21
174.820133931223
 31
0.0
  0
LINE
  5
FB
330
5E
100
AcDbEntity
  8
1
  6
Continuous
 62
     7
100
AcDbLine
 10
46.88815233773909
 20
175.820133931223
 30
0.0
 11
47.88815233773909
 21
174.820133931223
 31
0.0
  0
LINE
  5
FC
330
5E
100
AcDbEntity
  8
1
  6
Continuous
 62
     7
100
AcDbLine
 10
46.88815233773909
 20
175.820133931223
 30
0.0
 11
46.88815233773909
 21
185.820133931223
 31
0.0
  0
LINE
  5
FD
330
5E
100
AcDbEntity
  8
1
  6
Continuous
 62
     7
100
AcDbLine
 10
47.28045718315315
 20
186.2124387766372
 30
0.0
 11
47.88815233773909
 21
186.820133931223
 31
0.0
  0
LINE
  5
FE
330
5E
100
AcDbEntity
  8
1
  6
Continuous
 62
     7
100
AcDbLine
 10
51.68815233773814
 20
186.820133931223
 30
0.0
 11
47.88815233773909
 21
186.820133931223
 31
0.0
  0
LINE
  5
FF
330
5E
100
AcDbEntity
  8
1
  6
Continuous
 62
     7
100
AcDbLine
 10
46.88815233773909
 20
185.820133931223
 30
0.0
 11
47.28045718315315
 21
186.2124387766372
 31
0.0
  0
LINE
  5
100
330
5E
100
AcDbEntity
  8
1
  6
Continuous
 62
     7
100
AcDbLine
 10
68.88815233773909
 20
186.820133931223
 30
0.0
 11
64.73378401641514
 21
186.820133931223
 31
0.0
  0
LINE
  5
101
330
5E
100
AcDbEntity
  8
1
  6
Continuous
 62
     7
100
AcDbLine
 10
68.88815233773909
 20
186.820133931223
 30
0.0
 11
69.49584749232679
 21
186.2124387766354
 31
0.0
  0
LINE
  5
102
330
5E
100
AcDbEntity
  8
1
  6
Continuous
 62
     7
100
AcDbLine
 10
69.49584749232679
 20
186.2124387766354
 30
0.0
 11
69.88815233773909
 21
185.820133931223
 31
0.0
  0
LINE
  5
103
330
5E
100
AcDbEntity
  8
1
  6
Continuous
 62
     7
100
AcDbLine
 10
69.88815233773909
 20
175.820133931223
 30
0.0
 11
69.88815233773909
 21
185.820133931223
 31
0.0
  0
LINE
  5
104
330
5E
100
AcDbEntity
  8
1
  6
Continuous
 62
     7
100
AcDbLine
 10
69.88815233773909
 20
175.820133931223
 30
0.0
 11
68.88815233773909
 21
174.820133931223
 31
0.0
  0
LINE
  5
105
330
5E
100
AcDbEntity
  8
1
  6
Continuous
 62
     7
100
AcDbLine
 10
106.3087390641401
 20
96.71243877663626
 30
0.0
 11
106.3087390641401
 21
79.12013393122294
 31
0.0
  0
LINE
  5
106
330
5E
100
AcDbEntity
  8
1
  6
Continuous
 62
     7
100
AcDbLine
 10
118.3087390641401
 20
96.71243877663625
 30
0.0
 11
118.3087390641401
 21
74.92782908580972
 31
0.0
  0
LINE
  5
107
330
5E
100
AcDbEntity
  8
1
  6
Continuous
 62
     7
100
AcDbLine
 10
106.3087390641401
 20
79.12013393122294
 30
0.0
 11
106.3087390641401
 21
74.92782908580972
 31
0.0
  0
LINE
  5
108
330
5E
100
AcDbEntity
  8
1
  6
Continuous
 62
     7
100
AcDbLine
 10
46.88815233773921
 20
80.92115444565665
 30
0.0
 11
46.88815233773921
 21
90.71911341678937
 31
0.0
  0
LINE
  5
109
330
5E
100
AcDbEntity
  8
1
  6
Continuous
 62
     7
100
AcDbLine
 10
48.39551165061992
 20
93.32993633196087
 30
0.0
 11
56.88079302485847
 21
98.22891581752715
 31
0.0
  0
LINE
  5
10A
330
5E
100
AcDbEntity
  8
1
  6
Continuous
 62
     7
100
AcDbLine
 10
56.88079302485847
 20
73.41135204491876
 30
0.0
 11
48.39551165061992
 21
78.31033153048509
 31
0.0
  0
LINE
  5
10B
330
5E
100
AcDbEntity
  8
1
  6
Continuous
 62
     7
100
AcDbLine
 10
68.38079302485846
 20
78.31033153048509
 30
0.0
 11
59.89551165061992
 21
73.41135204491876
 31
0.0
  0
LINE
  5
10C
330
5E
100
AcDbEntity
  8
1
  6
Continuous
 62
     7
100
AcDbLine
 10
69.8881523377392
 20
90.71911341678937
 30
0.0
 11
69.8881523377392
 21
80.92115444565665
 31
0.0
  0
LINE
  5
10D
330
5E
100
AcDbEntity
  8
1
  6
Continuous
 62
     7
100
AcDbLine
 10
59.89551165061992
 20
98.22891581752715
 30
0.0
 11
68.38079302485846
 21
93.32993633196087
 31
0.0
  0
ARC
  5
10E
330
5E
100
AcDbEntity
  8
1
  6
Continuous
 62
     7
100
AcDbCircle
 10
112.3087390641401
 20
86.32013393122298
 30
0.0
 40
12.0
100
AcDbArc
 50
90.0
 51
120.0
  0
ARC
  5
10F
330
5E
100
AcDbEntity
  8
1
  6
Continuous
 62
     7
100
AcDbCircle
 10
112.3087390641401
 20
85.32013393122298
 30
0.0
 40
11.99999999999998
100
AcDbArc
 50
272.3880154632687
 51
300.0
  0
ARC
  5
110
330
5E
100
AcDbEntity
  8
1
  6
Continuous
 62
     7
100
AcDbCircle
 10
112.3085232473672
 20
85.65157415974915
 30
0.0
 40
4.7304197190156
100
AcDbArc
 50
270.0026140154519
 51
319.9257108949209
  0
ARC
  5
111
330
5E
100
AcDbEntity
  8
1
  6
Continuous
 62
     7
100
AcDbCircle
 10
112.0906156415238
 20
85.83490234357583
 30
0.0
 40
5.015187954023592
100
AcDbArc
 50
319.9257108949201
 51
354.9475618968751
  0
ARC
  5
112
330
5E
100
AcDbEntity
  8
1
  6
Continuous
 62
     7
100
AcDbCircle
 10
112.2367453619807
 20
85.94232026716105
 30
0.0
 40
4.80401881965665
100
AcDbArc
 50
181.4574290073823
 51
207.1517673458641
  0
ARC
  5
113
330
5E
100
AcDbEntity
  8
1
  6
Continuous
 62
     7
100
AcDbCircle
 10
113.2354018992433
 20
86.45449773827437
 30
0.0
 40
5.926355953201331
100
AcDbArc
 50
207.1517673458637
 51
231.6420693197343
  0
ARC
  5
114
330
5E
100
AcDbEntity
  8
1
  6
Continuous
 62
     7
100
AcDbCircle
 10
112.1181499500158
 20
85.04274842538081
 30
0.0
 40
4.125998199723433
100
AcDbArc
 50
231.6420693197357
 51
272.6475627047196
  0
ARC
  5
115
330
5E
100
AcDbEntity
  8
1
  6
Continuous
 62
     7
100
AcDbCircle
 10
112.1682423202697
 20
85.82803929434709
 30
0.0
 40
4.937258481435614
100
AcDbArc
 50
354.9475618968755
 51
359.9082599912946
  0
ARC
  5
116
330
5E
100
AcDbEntity
  8
1
  6
Continuous
 62
     7
100
AcDbCircle
 10
112.3085232473672
 20
85.98869370269682
 30
0.0
 40
4.730419719015545
100
AcDbArc
 50
40.07428910507914
 51
89.99738598454816
  0
ARC
  5
117
330
5E
100
AcDbEntity
  8
1
  6
Continuous
 62
     7
100
AcDbCircle
 10
112.0906156415238
 20
85.80536551887012
 30
0.0
 40
5.01518795402356
100
AcDbArc
 50
5.05243810312483
 51
40.07428910508002
  0
ARC
  5
118
330
5E
100
AcDbEntity
  8
1
  6
Continuous
 62
     7
100
AcDbCircle
 10
112.2367453619807
 20
85.69794759528492
 30
0.0
 40
4.804018819656616
100
AcDbArc
 50
152.8482326541359
 51
178.5425709926176
  0
ARC
  5
119
330
5E
100
AcDbEntity
  8
1
  6
Continuous
 62
     7
100
AcDbCircle
 10
113.2354018992433
 20
85.1857701241716
 30
0.0
 40
5.926355953201357
100
AcDbArc
 50
128.3579306802657
 51
152.8482326541363
  0
ARC
  5
11A
330
5E
100
AcDbEntity
  8
1
  6
Continuous
 62
     7
100
AcDbCircle
 10
112.1181499500158
 20
86.59751943706516
 30
0.0
 40
4.125998199723425
100
AcDbArc
 50
87.3524372952804
 51
128.3579306802643
  0
ARC
  5
11B
330
5E
100
AcDbEntity
  8
1
  6
Continuous
 62
     7
100
AcDbCircle
 10
112.1682423202697
 20
85.81222856809887
 30
0.0
 40
4.937258481435654
100
AcDbArc
 50
0.09174000870537
 51
5.05243810312434
  0
ARC
  5
11C
330
5E
100
AcDbEntity
  8
1
  6
Continuous
 62
     7
100
AcDbCircle
 10
112.3087390641401
 20
85.32013393122298
 30
0.0
 40
12.0
100
AcDbArc
 50
240.0
 51
262.8192442185417
  0
ARC
  5
11D
330
5E
100
AcDbEntity
  8
1
  6
Continuous
 62
     7
100
AcDbCircle
 10
112.3087390641401
 20
86.32013393122298
 30
0.0
 40
12.0
100
AcDbArc
 50
60.00000000000001
 51
90.0
  0
ARC
  5
11E
330
5E
100
AcDbEntity
  8
1
  6
Continuous
 62
     7
100
AcDbCircle
 10
112.3087390641401
 20
85.32013393122298
 30
0.0
 40
11.99999999999999
100
AcDbArc
 50
262.8192442185417
 51
270.0
  0
ARC
  5
11F
330
5E
100
AcDbEntity
  8
1
  6
Continuous
 62
     7
100
AcDbCircle
 10
112.3087390641401
 20
85.32013393122298
 30
0.0
 40
12.0
100
AcDbArc
 50
270.0
 51
272.3880154632687
  0
ARC
  5
120
330
5E
100
AcDbEntity
  8
1
  6
Continuous
 62
     7
100
AcDbCircle
 10
58.38815233773921
 20
85.82013393122298
 30
0.0
 40
12.49999999999999
100
AcDbArc
 50
203.0739180656309
 51
216.9260819343691
  0
ARC
  5
121
330
5E
100
AcDbEntity
  8
1
  6
Continuous
 62
     7
100
AcDbCircle
 10
58.38815233773921
 20
85.82013393122298
 30
0.0
 40
12.50000000000001
100
AcDbArc
 50
143.0739180656309
 51
156.9260819343689
  0
ARC
  5
122
330
5E
100
AcDbEntity
  8
1
  6
Continuous
 62
     7
100
AcDbCircle
 10
58.38815233773921
 20
85.82013393122298
 30
0.0
 40
12.50000000000001
100
AcDbArc
 50
263.0739180656308
 51
270.0
  0
ARC
  5
123
330
5E
100
AcDbEntity
  8
1
  6
Continuous
 62
     7
100
AcDbCircle
 10
58.38815233773921
 20
85.82013393122298
 30
0.0
 40
12.50000000000001
100
AcDbArc
 50
270.0
 51
276.926081934369
  0
ARC
  5
124
330
5E
100
AcDbEntity
  8
1
  6
Continuous
 62
     7
100
AcDbCircle
 10
58.38815233773921
 20
85.82013393122298
 30
0.0
 40
12.49999999999996
100
AcDbArc
 50
90.0
 51
96.92608193436917
  0
ARC
  5
125
330
5E
100
AcDbEntity
  8
1
  6
Continuous
 62
     7
100
AcDbCircle
 10
58.38815233773921
 20
85.82013393122298
 30
0.0
 40
12.49999999999995
100
AcDbArc
 50
83.07391806563093
 51
90.0
  0
ARC
  5
126
330
5E
100
AcDbEntity
  8
1
  6
Continuous
 62
     7
100
AcDbCircle
 10
58.38815233773921
 20
85.82013393122298
 30
0.0
 40
12.49999999999999
100
AcDbArc
 50
323.0739180656308
 51
336.9260819343691
  0
ARC
  5
127
330
5E
100
AcDbEntity
  8
1
  6
Continuous
 62
     7
100
AcDbCircle
 10
58.38815233773921
 20
85.82013393122298
 30
0.0
 40
12.50000000000001
100
AcDbArc
 50
23.07391806563111
 51
36.92608193436917
  0
CIRCLE
  5
128
330
5E
100
AcDbEntity
  8
1
  6
Continuous
 62
     2
100
AcDbCircle
 10
58.38815233773921
 20
85.82013393122298
 30
0.0
 40
6.13046379786438
  0
CIRCLE
  5
129
330
5E
100
AcDbEntity
  8
1
  6
Continuous
 62
     7
100
AcDbCircle
 10
58.38815233773921
 20
85.82013393122298
 30
0.0
 40
6.699999999999974
  0
CIRCLE
  5
12A
330
5E
100
AcDbEntity
  8
1
  6
Continuous
 62
     7
100
AcDbCircle
 10
58.38815233773921
 20
85.82013393122298
 30
0.0
 40
10.89230484541328
  0
SPLINE
  5
12B
330
5E
100
AcDbEntity
  8
1
  6
Continuous
 62
     7
100
AcDbSpline
210
0.0
220
0.0
230
1.0
 70
     8
 71
     3
 72
    61
 73
    57
 74
    55
 42
0.000000001
 43
0.0000000001
 44
0.00000001
 40
0.0
 40
0.0
 40
0.0
 40
0.0
 40
0.3722799624031339
 40
0.7445275078514504
 40
1.121469965391265
 40
1.498355289906551
 40
1.88232333006269
 40
2.266221439787359
 40
2.658634937417689
 40
3.050977421440542
 40
3.452185333070834
 40
3.853329956457198
 40
4.262632166327801
 40
4.671884199024127
 40
5.087669146978572
 40
5.503419762363711
 40
5.9233801696767
 40
6.343323229309767
 40
6.764718591863382
 40
7.186113954410237
 40
7.606057014023127
 40
8.026017421302013
 40
8.44176803663943
 40
8.857552984531887
 40
9.266805017152693
 40
9.676107226932281
 40
10.07725185021391
 40
10.4784597617228
 40
10.87080224561023
 40
11.26321574308744
 40
11.64711385264568
 40
12.03108189261899
 40
12.40796721694558
 40
12.78490967433046
 40
13.15715722025827
 40
13.52943719203763
 40
13.90007284747035
 40
14.27070850291126
 40
14.64298847471388
 40
15.01523602068027
 40
15.39217847811743
 40
15.76906380250873
 40
16.15303184255825
 40
16.53692995220193
 40
16.92934344977322
 40
17.32168593376019
 40
17.72289384537423
 40
18.12403846876353
 40
18.53334067865428
 40
18.94259271138663
 40
19.358377659392
 40
19.77412827484108
 40
20.19408868222888
 40
20.61403174176641
 40
20.65286599415295
 40
20.69168132404946
 40
20.69168132404946
 40
20.69168132404946
 40
20.69168132404946
 10
52.26797964933338
 20
185.676072896979
 30
0.0
 10
52.14479755784127
 20
185.6602230215472
 30
0.0
 10
51.89844410207486
 20
185.6285246455278
 30
0.0
 10
51.53574818136551
 20
185.5342899681395
 30
0.0
 10
51.1819392759963
 20
185.4075776125533
 30
0.0
 10
50.83871242673611
 20
185.2447591244292
 30
0.0
 10
50.5102065923799
 20
185.0495494959978
 30
0.0
 10
50.19716870385042
 20
184.8214948031697
 30
0.0
 10
49.90379426704997
 20
184.5644121361053
 30
0.0
 10
49.63046737741882
 20
184.2781156338325
 30
0.0
 10
49.38094839720592
 20
183.9671163682098
 30
0.0
 10
49.15554805003192
 20
183.6314179431436
 30
0.0
 10
48.95727022498928
 20
183.2759512121288
 30
0.0
 10
48.78650732699803
 20
182.9011322487148
 30
0.0
 10
48.64534374484278
 20
182.5119087312364
 30
0.0
 10
48.53425700213036
 20
182.1093696997755
 30
0.0
 10
48.45441420979623
 20
181.6980775687522
 30
0.0
 10
48.40624336753289
 20
181.2799993962859
 30
0.0
 10
48.39013654107606
 20
180.8589854410088
 30
0.0
 10
48.40624336734771
 20
180.4379714857232
 30
0.0
 10
48.45441420942618
 20
180.0198933132806
 30
0.0
 10
48.53425700155938
 20
179.6086011821641
 30
0.0
 10
48.64534374410596
 20
179.2060621510333
 30
0.0
 10
48.78650732592877
 20
178.8168386323036
 30
0.0
 10
48.95727022415588
 20
178.4420196734375
 30
0.0
 10
49.15554804727777
 20
178.08655292553
 30
0.0
 10
49.38094840037724
 20
177.7508545621722
 30
0.0
 10
49.63046735753211
 20
177.4398550686689
 30
0.0
 10
49.90379433012995
 20
177.1535593986412
 30
0.0
 10
50.19716845952613
 20
176.896473661553
 30
0.0
 10
50.51020747010434
 20
176.6684301889478
 30
0.0
 10
50.83870915942994
 20
176.4731791271099
 30
0.0
 10
51.1819512051336
 20
176.3105125586005
 30
0.0
 10
51.53570384242983
 20
176.1832377053024
 30
0.0
 10
51.89860728024772
 20
176.0910775050254
 30
0.0
 10
52.26682739799475
 20
176.0358881948454
 30
0.0
 10
52.63815234252569
 20
176.0171375435214
 30
0.0
 10
53.00947728705209
 20
176.0358881950868
 30
0.0
 10
53.37769740478679
 20
176.0910775055068
 30
0.0
 10
53.74060084258326
 20
176.1832377060211
 30
0.0
 10
54.09435347985212
 20
176.3105125595494
 30
0.0
 10
54.43759552551448
 20
176.4731791282931
 30
0.0
 10
54.76609721481706
 20
176.6684301903188
 30
0.0
 10
55.07913622527112
 20
176.8964736632545
 30
0.0
 10
55.37251035489939
 20
177.1535594000922
 30
0.0
 10
55.64583732635454
 20
177.4398550720271
 30
0.0
 10
55.895356287575
 20
177.7508545591838
 30
0.0
 10
56.1207566250183
 20
178.0865529473685
 30
0.0
 10
56.31903450737079
 20
178.442019601656
 30
0.0
 10
56.48979718211365
 20
178.8168389139849
 30
0.0
 10
56.63096161030323
 20
179.2060610942378
 30
0.0
 10
56.74204517292158
 20
179.6086051542357
 30
0.0
 10
56.82189994639752
 20
180.0198783372635
 30
0.0
 10
56.85542896846596
 20
180.3111997836091
 30
0.0
 10
56.86755914910418
 20
180.4766193040703
 30
0.0
 10
56.86922593732839
 20
180.5024489572754
 30
0.0
 10
56.87005912558326
 20
180.515360636838
 30
0.0
 11
52.26797964933338
 21
185.676072896979
 31
0.0
 11
51.89982472167343
 21
185.6208069327782
 31
0.0
 11
51.53897088471517
 21
185.5294135852384
 31
0.0
 11
51.18428436644842
 21
185.4018083732945
 31
0.0
 11
50.84359190462936
 21
185.2406525656879
 31
0.0
 11
50.51348351529956
 21
185.0445405895383
 31
0.0
 11
50.20302739014535
 21
184.8187204109797
 31
0.0
 11
49.90781238172596
 21
184.5601929424719
 31
0.0
 11
49.6367029217546
 21
184.2765870794608
 31
0.0
 11
49.38551510380559
 21
183.9637413210984
 31
0.0
 11
49.16172441885238
 21
183.6308228051529
 31
0.0
 11
48.96221888188962
 21
183.2734352846795
 31
0.0
 11
48.79239981700563
 21
182.9010796595923
 31
0.0
 11
48.65053864065322
 21
182.5102439784426
 31
0.0
 11
48.53983788827526
 21
182.1095022689975
 31
0.0
 11
48.45974568914679
 21
181.6972499391961
 31
0.0
 11
48.41163042915077
 21
181.2800724048408
 31
0.0
 11
48.39551165061883
 21
180.8589854344335
 31
0.0
 11
48.41163042915085
 21
180.4378984640261
 31
0.0
 11
48.45974568914692
 21
180.0207209296707
 31
0.0
 11
48.53983788827535
 21
179.6084685998694
 31
0.0
 11
48.65053864065321
 21
179.2077268904245
 31
0.0
 11
48.79239981700553
 21
178.8168912092748
 31
0.0
 11
48.96221888188949
 21
178.4445355841874
 31
0.0
 11
49.16172441885228
 21
178.0871480637139
 31
0.0
 11
49.38551510380555
 21
177.7542295477683
 31
0.0
 11
49.63670292175459
 21
177.4413837894057
 31
0.0
 11
49.9078123817259
 21
177.1577779263945
 31
0.0
 11
50.20302739014527
 21
176.899250457887
 31
0.0
 11
50.51348351529947
 21
176.6734302793286
 31
0.0
 11
50.84359190462931
 21
176.4773183031787
 31
0.0
 11
51.18428436644842
 21
176.3161624955719
 31
0.0
 11
51.53897088471519
 21
176.188557283628
 31
0.0
 11
51.89982472167347
 21
176.0971639360883
 31
0.0
 11
52.26797964933341
 21
176.0418979718877
 31
0.0
 11
52.63815233773814
 21
176.0233785225557
 31
0.0
 11
53.00832502614291
 21
176.0418979718877
 31
0.0
 11
53.37647995380291
 21
176.0971639360884
 31
0.0
 11
53.73733379076121
 21
176.1885572836281
 31
0.0
 11
54.09202030902797
 21
176.3161624955721
 31
0.0
 11
54.43271277084699
 21
176.4773183031788
 31
0.0
 11
54.76282116017678
 21
176.6734302793284
 31
0.0
 11
55.07327728533105
 21
176.899250457887
 31
0.0
 11
55.36849229375049
 21
177.1577779263945
 31
0.0
 11
55.63960175372185
 21
177.4413837894056
 31
0.0
 11
55.89078957167085
 21
177.754229547768
 31
0.0
 11
56.11458025662402
 21
178.0871480637135
 31
0.0
 11
56.31408579358675
 21
178.444535584187
 31
0.0
 11
56.48390485847064
 21
178.8168912092743
 31
0.0
 11
56.62576603482299
 21
179.2077268904242
 31
0.0
 11
56.73646678720097
 21
179.6084685998694
 31
0.0
 11
56.81655898632949
 21
180.0207209296708
 31
0.0
 11
56.86467424632551
 21
180.4378984640261
 31
0.0
 11
56.86750305251273
 21
180.4766295504321
 31
0.0
 11
56.87005912558326
 21
180.515360636838
 31
0.0
  0
SPLINE
  5
12C
330
5E
100
AcDbEntity
  8
1
  6
Continuous
 62
     7
100
AcDbSpline
210
0.0
220
0.0
230
1.0
 70
     8
 71
     3
 72
    63
 73
    59
 74
    57
 42
0.000000001
 43
0.0000000001
 44
0.00000001
 40
0.0
 40
0.0
 40
0.0
 40
0.0
 40
0.0388153298627913
 40
0.0776495822678225
 40
0.4975926418196188
 40
0.917553049208907
 40
1.33330366465895
 40
1.749088612665354
 40
2.158340645398991
 40
2.567642855291201
 40
2.968787478682213
 40
3.369995390298107
 40
3.762337874286902
 40
4.154751371860324
 40
4.538649481506377
 40
4.922617521558637
 40
5.299502845952937
 40
5.676445303393301
 40
6.048692849363103
 40
6.4209728211694
 40
6.791608476614384
 40
7.162244132051748
 40
7.534524103836183
 40
7.906771649769434
 40
8.283714107160142
 40
8.660599431492848
 40
9.044567471472847
 40
9.428465581038392
 40
9.820879078523479
 40
10.21322156241924
 40
10.61442947393686
 40
11.01557409722781
 40
11.42487630701747
 40
11.83412833964881
 40
12.24991328755267
 40
12.6656639029022
 40
13.08562431019381
 40
13.50556736981997
 40
13.92696273238096
 40
14.34835809494975
 40
14.76830115459907
 40
15.18826156192935
 40
15.60401217733311
 40
16.01979712530814
 40
16.42904915802678
 40
16.83835136792172
 40
17.23949599133453
 40
17.64070390299445
 40
18.03304638704984
 40
18.42545988471678
 40
18.80935799448246
 40
19.19332603468628
 40
19.57021135926429
 40
19.94715381693032
 40
20.31940136319737
 40
20.6916813356126
 40
20.73145607174682
 40
20.77119307845419
 40
20.77119307845419
 40
20.77119307845419
 40
20.77119307845419
 10
59.90624554989336
 20
180.515360636833
 30
0.0
 10
59.9070787381475
 20
180.5024489572816
 30
0.0
 10
59.90874552624351
 20
180.4766193040731
 30
0.0
 10
59.92087570713478
 20
180.3111997836294
 30
0.0
 10
59.954404728957
 20
180.0198783372573
 30
0.0
 10
60.0342595025342
 20
179.6086051542307
 30
0.0
 10
60.14534306512985
 20
179.2060610942309
 30
0.0
 10
60.28650749332904
 20
178.8168389139782
 30
0.0
 10
60.45727016807295
 20
178.4420196016492
 30
0.0
 10
60.65554805042891
 20
178.0865529473616
 30
0.0
 10
60.88094838787518
 20
177.750854559177
 30
0.0
 10
61.13046734909865
 20
177.4398550720205
 30
0.0
 10
61.403794320557
 20
177.1535594000858
 30
0.0
 10
61.69716845018871
 20
176.896473663249
 30
0.0
 10
62.01020746064642
 20
176.6684301903141
 30
0.0
 10
62.33870914995269
 20
176.4731791282892
 30
0.0
 10
62.68195119561889
 20
176.3105125595467
 30
0.0
 10
63.03570383289181
 20
176.1832377060202
 30
0.0
 10
63.39860727069235
 20
176.0910775055079
 30
0.0
 10
63.76682738843111
 20
176.0358881950903
 30
0.0
 10
64.13815233296182
 20
176.0171375435273
 30
0.0
 10
64.50947727749718
 20
176.0358881948543
 30
0.0
 10
64.87769739524889
 20
176.0910775050376
 30
0.0
 10
65.24060083307138
 20
176.1832377053184
 30
0.0
 10
65.59435347037227
 20
176.3105125586208
 30
0.0
 10
65.93759551608079
 20
176.4731791271343
 30
0.0
 10
66.26609720541137
 20
176.6684301889771
 30
0.0
 10
66.57913621599467
 20
176.8964736615876
 30
0.0
 10
66.8725103453962
 20
177.1535593986816
 30
0.0
 10
67.14583731799945
 20
177.4398550687156
 30
0.0
 10
67.39535627516003
 20
177.7508545622255
 30
0.0
 10
67.6207566282655
 20
178.0865529255906
 30
0.0
 10
67.81903445139363
 20
178.4420196735061
 30
0.0
 10
67.98979734962717
 20
178.816838632381
 30
0.0
 10
68.1309609314568
 20
179.2060621511202
 30
0.0
 10
68.24204767401075
 20
179.6086011822615
 30
0.0
 10
68.32189046615198
 20
180.0198933133894
 30
0.0
 10
68.37006130823912
 20
180.4379714858447
 30
0.0
 10
68.38616813451983
 20
180.8589854411425
 30
0.0
 10
68.37006130807383
 20
181.2799993964416
 30
0.0
 10
68.32189046581973
 20
181.6980775689016
 30
0.0
 10
68.24204767350598
 20
182.1093697000339
 30
0.0
 10
68.13096093077964
 20
182.5119087311896
 30
0.0
 10
67.98979734874565
 20
182.9011322499133
 30
0.0
 10
67.81903445038806
 20
183.275951208884
 30
0.0
 10
67.62075662679223
 20
183.6314179564807
 30
0.0
 10
67.39535627442972
 20
183.9671163210367
 30
0.0
 10
67.14583731349049
 20
184.2781158101557
 30
0.0
 10
66.87251035360258
 20
184.5644114962065
 30
0.0
 10
66.5791361761311
 20
184.8214971741575
 30
0.0
 10
66.26609734001507
 20
185.0495408628161
 30
0.0
 10
65.93759500511402
 20
185.2447911266682
 30
0.0
 10
65.5943553250887
 20
185.4074606208385
 30
0.0
 10
65.24059392712084
 20
185.5347246411929
 30
0.0
 10
64.87772279674606
 20
185.6269247925682
 30
0.0
 10
64.61866648636578
 20
185.6656353861193
 30
0.0
 10
64.4687479182282
 20
185.6799100184604
 30
0.0
 10
64.44233174502084
 20
185.6820699398021
 30
0.0
 10
64.42912992564095
 20
185.6831493857349
 30
0.0
 11
59.90624554989336
 21
180.515360636833
 31
0.0
 11
59.90880162296377
 21
180.4766295504296
 31
0.0
 11
59.9116304291508
 21
180.4378984640261
 31
0.0
 11
59.95974568914681
 21
180.0207209296707
 31
0.0
 11
60.0398378882753
 21
179.6084685998694
 31
0.0
 11
60.15053864065325
 21
179.2077268904245
 31
0.0
 11
60.29239981700556
 21
178.8168912092748
 31
0.0
 11
60.46221888188951
 21
178.4445355841874
 31
0.0
 11
60.66172441885233
 21
178.0871480637139
 31
0.0
 11
60.88551510380559
 21
177.7542295477683
 31
0.0
 11
61.13670292175452
 21
177.4413837894057
 31
0.0
 11
61.40781238172575
 21
177.1577779263945
 31
0.0
 11
61.70302739014521
 21
176.899250457887
 31
0.0
 11
62.01348351529953
 21
176.6734302793286
 31
0.0
 11
62.34359190462936
 21
176.4773183031787
 31
0.0
 11
62.68428436644844
 21
176.3161624955719
 31
0.0
 11
63.03897088471524
 21
176.188557283628
 31
0.0
 11
63.39982472167353
 21
176.0971639360883
 31
0.0
 11
63.76797964933338
 21
176.0418979718877
 31
0.0
 11
64.13815233773805
 21
176.0233785225557
 31
0.0
 11
64.50832502614287
 21
176.0418979718877
 31
0.0
 11
64.87647995380293
 21
176.0971639360884
 31
0.0
 11
65.23733379076123
 21
176.1885572836281
 31
0.0
 11
65.59202030902793
 21
176.3161624955721
 31
0.0
 11
65.93271277084696
 21
176.4773183031788
 31
0.0
 11
66.26282116017676
 21
176.6734302793284
 31
0.0
 11
66.573277285331
 21
176.899250457887
 31
0.0
 11
66.86849229375042
 21
177.1577779263945
 31
0.0
 11
67.13960175372176
 21
177.4413837894056
 31
0.0
 11
67.39078957167078
 21
177.754229547768
 31
0.0
 11
67.61458025662412
 21
178.0871480637135
 31
0.0
 11
67.81408579358698
 21
178.444535584187
 31
0.0
 11
67.98390485847085
 21
178.8168912092743
 31
0.0
 11
68.1257660348231
 21
179.2077268904242
 31
0.0
 11
68.23646678720101
 21
179.6084685998694
 31
0.0
 11
68.31655898632951
 21
180.0207209296708
 31
0.0
 11
68.36467424632559
 21
180.4378984640261
 31
0.0
 11
68.38079302485757
 21
180.8589854344333
 31
0.0
 11
68.36467424632559
 21
181.2800724048407
 31
0.0
 11
68.31655898632953
 21
181.697249939196
 31
0.0
 11
68.23646678720107
 21
182.1095022689973
 31
0.0
 11
68.12576603482314
 21
182.5102439784422
 31
0.0
 11
67.98390485847071
 21
182.9010796595921
 31
0.0
 11
67.81408579358671
 21
183.2734352846796
 31
0.0
 11
67.614580256624
 21
183.630822805153
 31
0.0
 11
67.39078957167082
 21
183.9637413210984
 31
0.0
 11
67.13960175372179
 21
184.2765870794609
 31
0.0
 11
66.86849229375044
 21
184.5601929424721
 31
0.0
 11
66.57327728533096
 21
184.8187204109798
 31
0.0
 11
66.26282116017673
 21
185.0445405895385
 31
0.0
 11
65.93271277084696
 21
185.2406525656879
 31
0.0
 11
65.59202030902797
 21
185.4018083732944
 31
0.0
 11
65.23733379076124
 21
185.5294135852385
 31
0.0
 11
64.87647995380297
 21
185.6208069327785
 31
0.0
 11
64.50832502614294
 21
185.6760728969792
 31
0.0
 11
64.46872747589195
 21
185.679823053557
 31
0.0
 11
64.42912992564095
 21
185.6831493857349
 31
0.0
  0
SPLINE
  5
12D
330
5E
100
AcDbEntity
  8
1
  6
Continuous
 62
     7
100
AcDbSpline
210
0.0
220
0.0
230
1.0
 70
    11
 71
     3
 72
    79
 73
    75
 74
    73
 42
0.000000001
 43
0.0000000001
 44
0.00000001
 40
0.0
 40
0.0
 40
0.0
 40
0.0
 40
0.2251439981011911
 40
0.4498541121076393
 40
0.6980863406098543
 40
0.9458096946050994
 40
1.225753243279773
 40
1.505341879204792
 40
1.820037943985131
 40
2.134517090665543
 40
2.482533799688412
 40
2.83042109145819
 40
3.207135643675809
 40
3.58377404602576
 40
3.982383401529409
 40
4.380950213903598
 40
4.793229953184201
 40
5.205490578546838
 40
5.622408658130023
 40
6.039326737717229
 40
6.451587363091389
 40
6.863867102389928
 40
7.262433914786135
 40
7.661043270313614
 40
8.037681672684341
 40
8.414396224915446
 40
8.762283516684416
 40
9.110300225683305
 40
9.424779372310121
 40
9.73947543698695
 40
10.01906407275547
 40
10.29900762117272
 40
10.54673097479421
 40
10.79496320261775
 40
11.01967331449834
 40
11.24481731877824
 40
11.46116996438363
 40
11.67752260998802
 40
11.90266661426505
 40
12.1273767261413
 40
12.3756089539591
 40
12.62333230757448
 40
12.90327585598483
 40
13.18286449174676
 40
13.49756055641666
 40
13.8120397030372
 40
14.16005641202987
 40
14.50794370379335
 40
14.88465825601937
 40
15.26129665838582
 40
15.65990601390974
 40
16.05847282630337
 40
16.47075256560046
 40
16.88301319097456
 40
17.29993127056345
 40
17.71684935015035
 40
18.12910997551901
 40
18.54138971480828
 40
18.93995652719391
 40
19.33856588271227
 40
19.71520428507952
 40
20.0919188373175
 40
20.43980612910876
 40
20.78782283815456
 40
21.10230198485601
 40
21.41699804965391
 40
21.69658668558682
 40
21.97653023424726
 40
22.22425358817735
 40
22.47248581643308
 40
22.69719592887119
 40
22.92233993395948
 40
23.1386925817421
 40
23.35504522168838
 40
23.35504522168838
 40
23.35504522168838
 40
23.35504522168838
 10
117.0855247958252
 20
76.07635449064978
 30
0.0
 10
117.0691751262058
 20
76.14978954355684
 30
0.0
 10
117.0365073053347
 20
76.29651813226779
 30
0.0
 10
116.9390769345561
 20
76.50940647350282
 30
0.0
 10
116.8114584316685
 20
76.71353935929747
 30
0.0
 10
116.6461554987876
 20
76.91333839163052
 30
0.0
 10
116.4521184606496
 20
77.10049057040358
 30
0.0
 10
116.2232610539985
 20
77.28152525420359
 30
0.0
 10
115.969667111554
 20
77.44788449967598
 30
0.0
 10
115.6842311836305
 20
77.60536940364067
 30
0.0
 10
115.3782900857536
 20
77.74683287757881
 30
0.0
 10
115.0448515902692
 20
77.87644054287742
 30
0.0
 10
114.695245360985
 20
77.98902140225525
 30
0.0
 10
114.3238221074137
 20
78.087095031059
 30
0.0
 10
113.9407055078894
 20
78.16738525435937
 30
0.0
 10
113.5424797409398
 20
78.23114342222709
 30
0.0
 10
113.1371720302156
 20
78.27660187291262
 30
0.0
 10
112.7241417615314
 20
78.30427168424029
 30
0.0
 10
112.308739074139
 20
78.31337847226604
 30
0.0
 10
111.893336386729
 20
78.30427168408458
 30
0.0
 10
111.4803061180951
 20
78.2766018725957
 30
0.0
 10
111.0749984071847
 20
78.23114342180206
 30
0.0
 10
110.6767726409009
 20
78.16738525369003
 30
0.0
 10
110.2936560389496
 20
78.08709503072009
 30
0.0
 10
109.9222327939564
 20
77.98902140031225
 30
0.0
 10
109.5726265338489
 20
77.87644054638969
 30
0.0
 10
109.2391881450348
 20
77.74683286208005
 30
0.0
 10
108.9332466683266
 20
77.60536945571783
 30
0.0
 10
108.6478120251364
 20
77.44788432287253
 30
0.0
 10
108.3942135646961
 20
77.28152588287116
 30
0.0
 10
108.1653712440772
 20
77.10048851039346
 30
0.0
 10
107.9712813956912
 20
76.91334574493054
 30
0.0
 10
107.8061542362434
 20
76.7135153831794
 30
0.0
 10
107.6779161851753
 20
76.50949292728275
 30
0.0
 10
107.582592797419
 20
76.29622903505773
 30
0.0
 10
107.5266056263262
 20
76.08028893462817
 30
0.0
 10
107.506194895416
 20
75.86084178799784
 30
0.0
 10
107.526605626319
 20
75.64139464136781
 30
0.0
 10
107.5825927974048
 20
75.4254545409392
 30
0.0
 10
107.6779161851546
 20
75.21219064871592
 30
0.0
 10
107.8061542362166
 20
75.00816819282178
 30
0.0
 10
107.9712813956588
 20
74.80833783107403
 30
0.0
 10
108.16537124404
 20
74.62119506561534
 30
0.0
 10
108.3942135646543
 20
74.44015769314285
 30
0.0
 10
108.6478120250909
 20
74.2737992531477
 30
0.0
 10
108.9332466682779
 20
74.11631412030997
 30
0.0
 10
109.2391881449836
 20
73.9748507139567
 30
0.0
 10
109.5726265337959
 20
73.84524302965764
 30
0.0
 10
109.9222327939022
 20
73.73266217574763
 30
0.0
 10
110.293656038895
 20
73.63458854535469
 30
0.0
 10
110.6767726408465
 20
73.55429832240253
 30
0.0
 10
111.0749984071313
 20
73.4905401543117
 30
0.0
 10
111.4803061180429
 20
73.44508170354331
 30
0.0
 10
111.8933363866799
 20
73.4174118920837
 30
0.0
 10
112.308739074089
 20
73.40830510393728
 30
0.0
 10
112.7241417614971
 20
73.41741189199993
 30
0.0
 10
113.1371720301379
 20
73.44508170338234
 30
0.0
 10
113.5424797410369
 20
73.49054015408336
 30
0.0
 10
113.9407055073693
 20
73.5542983221351
 30
0.0
 10
114.3238221091509
 20
73.6345885450347
 30
0.0
 10
114.6952453547481
 20
73.73266217554311
 30
0.0
 10
115.044851612686
 20
73.8452430291118
 30
0.0
 10
115.3782900090032
 20
73.97485071483703
 30
0.0
 10
115.6842314590506
 20
74.1163141165772
 30
0.0
 10
115.9696661926252
 20
74.27379926572266
 30
0.0
 10
116.2232643351559
 20
74.440157649314
 30
0.0
 10
116.4521077172094
 20
74.62119521131518
 30
0.0
 10
116.6461938497678
 20
74.808337314876
 30
0.0
 10
116.8113333767079
 20
75.00816988153136
 30
0.0
 10
116.9395278356811
 20
75.21218456815114
 30
0.0
 10
117.034999472558
 20
75.42547488519222
 30
0.0
 10
117.090451330879
 20
75.64131957241864
 30
0.0
 10
117.1127872393125
 20
75.86110986344961
 30
0.0
 10
117.0946122731594
 20
76.00460628208505
 30
0.0
 10
117.0855247958252
 20
76.07635449064978
 30
0.0
 11
117.0855247958252
 21
76.07635449064978
 31
0.0
 11
117.0289319257263
 21
76.2942697718198
 31
0.0
 11
116.9383543410158
 21
76.4999159134629
 31
0.0
 11
116.8069001722039
 21
76.71048428828585
 31
0.0
 11
116.6498427004257
 21
76.90205623435816
 31
0.0
 11
116.449033618639
 21
77.09710521027144
 31
0.0
 11
116.2301797189422
 21
77.27109594525919
 31
0.0
 11
115.9675533523967
 21
77.44447704208966
 31
0.0
 11
115.6924302921419
 21
77.59680706339763
 31
0.0
 11
115.3768469211652
 21
77.74351345628342
 31
0.0
 11
115.0527102648176
 21
77.86985029093171
 31
0.0
 11
114.6942867043036
 21
77.9858089263578
 31
0.0
 11
114.3301816177118
 21
78.08216229710376
 31
0.0
 11
113.9401187210263
 21
78.1642619617606
 31
0.0
 11
113.5465804562345
 21
78.22737406900777
 31
0.0
 11
113.1368931315287
 21
78.27353551834062
 31
0.0
 11
112.7255548701331
 21
78.30109741124511
 31
0.0
 11
112.3087390641401
 21
78.31033153048527
 31
0.0
 11
111.891923258147
 21
78.30109741124511
 31
0.0
 11
111.4805849967514
 21
78.27353551834061
 31
0.0
 11
111.0708976720457
 21
78.22737406900772
 31
0.0
 11
110.677359407254
 21
78.16426196176057
 31
0.0
 11
110.2872965105685
 21
78.08216229710376
 31
0.0
 11
109.9231914239766
 21
77.98580892635782
 31
0.0
 11
109.5647678634625
 21
77.86985029093171
 31
0.0
 11
109.2406312071149
 21
77.74351345628342
 31
0.0
 11
108.9250478361382
 21
77.59680706339762
 31
0.0
 11
108.6499247758835
 21
77.44447704208964
 31
0.0
 11
108.387298409338
 21
77.27109594525919
 31
0.0
 11
108.1684445096411
 21
77.09710521027145
 31
0.0
 11
107.9676354278545
 21
76.90205623435817
 31
0.0
 11
107.8105779560763
 21
76.71048428828588
 31
0.0
 11
107.6791237872644
 21
76.4999159134629
 31
0.0
 11
107.588546202554
 21
76.29426977181978
 31
0.0
 11
107.5319533324551
 21
76.07635449064976
 31
0.0
 11
107.5129075408274
 21
75.86084178770199
 31
0.0
 11
107.5319533324551
 21
75.6453290847542
 31
0.0
 11
107.588546202554
 21
75.42741380358417
 31
0.0
 11
107.6791237872644
 21
75.22176766194107
 31
0.0
 11
107.8105779560763
 21
75.0111992871181
 31
0.0
 11
107.9676354278545
 21
74.8196273410458
 31
0.0
 11
108.1684445096411
 21
74.62457836513252
 31
0.0
 11
108.3872984093381
 21
74.45058763014478
 31
0.0
 11
108.6499247758835
 21
74.27720653331436
 31
0.0
 11
108.9250478361383
 21
74.12487651200647
 31
0.0
 11
109.240631207115
 21
73.97817011912076
 31
0.0
 11
109.5647678634626
 21
73.85183328447252
 31
0.0
 11
109.9231914239766
 21
73.73587464904637
 31
0.0
 11
110.2872965105685
 21
73.63952127830032
 31
0.0
 11
110.6773594072539
 21
73.5574216136434
 31
0.0
 11
111.0708976720457
 21
73.49430950639622
 31
0.0
 11
111.4805849967514
 21
73.44814805706336
 31
0.0
 11
111.891923258147
 21
73.42058616415886
 31
0.0
 11
112.3087390641401
 21
73.41135204491871
 31
0.0
 11
112.7255548701332
 21
73.42058616415888
 31
0.0
 11
113.1368931315288
 21
73.44814805706336
 31
0.0
 11
113.5465804562345
 21
73.4943095063962
 31
0.0
 11
113.9401187210263
 21
73.55742161364337
 31
0.0
 11
114.3301816177118
 21
73.63952127830032
 31
0.0
 11
114.6942867043036
 21
73.7358746490464
 31
0.0
 11
115.0527102648176
 21
73.85183328447252
 31
0.0
 11
115.3768469211652
 21
73.97817011912078
 31
0.0
 11
115.6924302921419
 21
74.12487651200647
 31
0.0
 11
115.9675533523966
 21
74.27720653331434
 31
0.0
 11
116.2301797189421
 21
74.45058763014478
 31
0.0
 11
116.449033618639
 21
74.62457836513254
 31
0.0
 11
116.6498427004256
 21
74.81962734104582
 31
0.0
 11
116.8069001722039
 21
75.0111992871181
 31
0.0
 11
116.9383543410158
 21
75.22176766194106
 31
0.0
 11
117.0289319257263
 21
75.42741380358416
 31
0.0
 11
117.0855247958252
 21
75.6453290847542
 31
0.0
 11
117.1045705874529
 21
75.86084178770199
 31
0.0
 11
117.0855247958252
 21
76.07635449064978
 31
0.0
  0
SPLINE
  5
12E
330
5E
100
AcDbEntity
  8
1
  6
Continuous
 62
     7
100
AcDbSpline
210
0.0
220
0.0
230
1.0
 70
    11
 71
     3
 72
    79
 73
    75
 74
    73
 42
0.000000001
 43
0.0000000001
 44
0.00000001
 40
0.0
 40
0.0
 40
0.0
 40
0.0
 40
0.2251439981012048
 40
0.44985411210764
 40
0.6980863406098671
 40
0.9458096946051012
 40
1.225753243279774
 40
1.505341879204794
 40
1.820037943985133
 40
2.134517090665545
 40
2.482533799688413
 40
2.830421091458192
 40
3.207135643675806
 40
3.583774046025761
 40
3.982383401529413
 40
4.380950213903597
 40
4.7932299531842
 40
5.205490578546839
 40
5.622408658130024
 40
6.03932673771723
 40
6.451587363091389
 40
6.863867102389928
 40
7.262433914786135
 40
7.661043270313611
 40
8.037681672684345
 40
8.41439622491545
 40
8.762283516684425
 40
9.110300225683309
 40
9.424779372310125
 40
9.739475436986963
 40
10.01906407275546
 40
10.29900762117274
 40
10.54673097479422
 40
10.79496320261775
 40
11.01967331449835
 40
11.24481731877824
 40
11.46116996438363
 40
11.67752260998803
 40
11.90266661426507
 40
12.1273767261413
 40
12.37560895395912
 40
12.62333230757448
 40
12.90327585598486
 40
13.18286449174677
 40
13.49756055641666
 40
13.81203970303721
 40
14.16005641202987
 40
14.50794370379335
 40
14.88465825601937
 40
15.26129665838582
 40
15.65990601390974
 40
16.05847282630337
 40
16.47075256560046
 40
16.88301319097456
 40
17.29993127056345
 40
17.71684935015035
 40
18.12910997551901
 40
18.54138971480828
 40
18.93995652719391
 40
19.33856588271227
 40
19.71520428507952
 40
20.0919188373175
 40
20.43980612910876
 40
20.78782283815456
 40
21.10230198485601
 40
21.41699804965392
 40
21.69658668558683
 40
21.97653023424726
 40
22.22425358817735
 40
22.47248581643309
 40
22.69719592887118
 40
22.92233993395948
 40
23.13869258174209
 40
23.35504522168837
 40
23.35504522168837
 40
23.35504522168837
 40
23.35504522168837
 10
117.0855247958252
 20
95.56391337179622
 30
0.0
 10
117.0691751262058
 20
95.49047831888917
 30
0.0
 10
117.0365073053347
 20
95.34374973017817
 30
0.0
 10
116.9390769345561
 20
95.13086138894319
 30
0.0
 10
116.8114584316685
 20
94.9267285031485
 30
0.0
 10
116.6461554987876
 20
94.72692947081546
 30
0.0
 10
116.4521184606496
 20
94.53977729204243
 30
0.0
 10
116.2232610539985
 20
94.35874260824244
 30
0.0
 10
115.969667111554
 20
94.19238336276996
 30
0.0
 10
115.6842311836305
 20
94.03489845880536
 30
0.0
 10
115.3782900857535
 20
93.89343498486717
 30
0.0
 10
115.0448515902692
 20
93.76382731956859
 30
0.0
 10
114.695245360985
 20
93.65124646019075
 30
0.0
 10
114.3238221074137
 20
93.553172831387
 30
0.0
 10
113.9407055078894
 20
93.47288260808658
 30
0.0
 10
113.5424797409398
 20
93.40912444021895
 30
0.0
 10
113.1371720302156
 20
93.3636659895334
 30
0.0
 10
112.7241417615314
 20
93.33599617820568
 30
0.0
 10
112.308739074139
 20
93.32688939017999
 30
0.0
 10
111.893336386729
 20
93.3359961783614
 30
0.0
 10
111.4803061180951
 20
93.36366598985028
 30
0.0
 10
111.0749984071847
 20
93.40912444064391
 30
0.0
 10
110.676772640901
 20
93.47288260875598
 30
0.0
 10
110.2936560389496
 20
93.55317283172587
 30
0.0
 10
109.9222327939563
 20
93.65124646213374
 30
0.0
 10
109.5726265338489
 20
93.76382731605631
 30
0.0
 10
109.2391881450348
 20
93.89343500036597
 30
0.0
 10
108.9332466683266
 20
94.03489840672816
 30
0.0
 10
108.6478120251364
 20
94.19238353957346
 30
0.0
 10
108.3942135646961
 20
94.35874197957489
 30
0.0
 10
108.1653712440772
 20
94.5397793520525
 30
0.0
 10
107.9712813956912
 20
94.72692211751544
 30
0.0
 10
107.8061542362434
 20
94.92675247926663
 30
0.0
 10
107.6779161851754
 20
95.13077493516326
 30
0.0
 10
107.582592797419
 20
95.34403882738825
 30
0.0
 10
107.5266056263262
 20
95.55997892781785
 30
0.0
 10
107.5061948954159
 20
95.77942607444815
 30
0.0
 10
107.526605626319
 20
95.99887322107818
 30
0.0
 10
107.5825927974049
 20
96.2148133215068
 30
0.0
 10
107.6779161851546
 20
96.42807721373008
 30
0.0
 10
107.8061542362166
 20
96.63209966962421
 30
0.0
 10
107.9712813956589
 20
96.83193003137195
 30
0.0
 10
108.1653712440399
 20
97.01907279683068
 30
0.0
 10
108.3942135646543
 20
97.20011016930312
 30
0.0
 10
108.6478120250909
 20
97.36646860929828
 30
0.0
 10
108.9332466682778
 20
97.52395374213602
 30
0.0
 10
109.2391881449836
 20
97.6654171484893
 30
0.0
 10
109.5726265337959
 20
97.79502483278833
 30
0.0
 10
109.9222327939022
 20
97.90760568669833
 30
0.0
 10
110.293656038895
 20
98.00567931709134
 30
0.0
 10
110.6767726408465
 20
98.08596954004344
 30
0.0
 10
111.0749984071313
 20
98.14972770813424
 30
0.0
 10
111.4803061180429
 20
98.19518615890271
 30
0.0
 10
111.8933363866799
 20
98.22285597036228
 30
0.0
 10
112.308739074089
 20
98.23196275850873
 30
0.0
 10
112.7241417614971
 20
98.22285597044608
 30
0.0
 10
113.1371720301379
 20
98.19518615906364
 30
0.0
 10
113.5424797410369
 20
98.14972770836269
 30
0.0
 10
113.9407055073692
 20
98.08596954031088
 30
0.0
 10
114.3238221091509
 20
98.00567931741128
 30
0.0
 10
114.6952453547481
 20
97.90760568690291
 30
0.0
 10
115.044851612686
 20
97.7950248333342
 30
0.0
 10
115.3782900090032
 20
97.66541714760895
 30
0.0
 10
115.6842314590506
 20
97.52395374586884
 30
0.0
 10
115.9696661926252
 20
97.36646859672331
 30
0.0
 10
116.2232643351558
 20
97.20011021313195
 30
0.0
 10
116.4521077172093
 20
97.01907265113081
 30
0.0
 10
116.6461938497678
 20
96.83193054757
 30
0.0
 10
116.8113333767079
 20
96.63209798091462
 30
0.0
 10
116.939527835681
 20
96.42808329429485
 30
0.0
 10
117.0349994725581
 20
96.21479297725378
 30
0.0
 10
117.090451330879
 20
95.99894829002736
 30
0.0
 10
117.1127872393125
 20
95.77915799899637
 30
0.0
 10
117.0946122731594
 20
95.63566158036095
 30
0.0
 10
117.0855247958252
 20
95.56391337179622
 30
0.0
 11
117.0855247958252
 21
95.56391337179622
 31
0.0
 11
117.0289319257263
 21
95.34599809062618
 31
0.0
 11
116.9383543410158
 21
95.1403519489831
 31
0.0
 11
116.8069001722039
 21
94.92978357416013
 31
0.0
 11
116.6498427004257
 21
94.73821162808784
 31
0.0
 11
116.449033618639
 21
94.54316265217456
 31
0.0
 11
116.2301797189422
 21
94.3691719171868
 31
0.0
 11
115.9675533523967
 21
94.19579082035634
 31
0.0
 11
115.6924302921419
 21
94.04346079904836
 31
0.0
 11
115.3768469211652
 21
93.89675440616257
 31
0.0
 11
115.0527102648176
 21
93.77041757151429
 31
0.0
 11
114.6942867043036
 21
93.6544589360882
 31
0.0
 11
114.3301816177118
 21
93.55810556534223
 31
0.0
 11
113.9401187210263
 21
93.47600590068538
 31
0.0
 11
113.5465804562345
 21
93.41289379343824
 31
0.0
 11
113.1368931315287
 21
93.36673234410539
 31
0.0
 11
112.7255548701331
 21
93.33917045120087
 31
0.0
 11
112.3087390641401
 21
93.32993633196074
 31
0.0
 11
111.891923258147
 21
93.33917045120089
 31
0.0
 11
111.4805849967514
 21
93.36673234410537
 31
0.0
 11
111.0708976720457
 21
93.41289379343826
 31
0.0
 11
110.677359407254
 21
93.47600590068541
 31
0.0
 11
110.2872965105685
 21
93.5581055653422
 31
0.0
 11
109.9231914239766
 21
93.65445893608818
 31
0.0
 11
109.5647678634625
 21
93.77041757151429
 31
0.0
 11
109.2406312071149
 21
93.89675440616259
 31
0.0
 11
108.9250478361382
 21
94.04346079904838
 31
0.0
 11
108.6499247758835
 21
94.19579082035635
 31
0.0
 11
108.387298409338
 21
94.36917191718682
 31
0.0
 11
108.1684445096411
 21
94.54316265217453
 31
0.0
 11
107.9676354278545
 21
94.73821162808784
 31
0.0
 11
107.8105779560763
 21
94.92978357416011
 31
0.0
 11
107.6791237872644
 21
95.1403519489831
 31
0.0
 11
107.588546202554
 21
95.34599809062621
 31
0.0
 11
107.5319533324551
 21
95.56391337179623
 31
0.0
 11
107.5129075408274
 21
95.77942607474401
 31
0.0
 11
107.5319533324551
 21
95.9949387776918
 31
0.0
 11
107.588546202554
 21
96.21285405886184
 31
0.0
 11
107.6791237872644
 21
96.41850020050492
 31
0.0
 11
107.8105779560763
 21
96.6290685753279
 31
0.0
 11
107.9676354278545
 21
96.82064052140018
 31
0.0
 11
108.1684445096411
 21
97.0156894973135
 31
0.0
 11
108.3872984093381
 21
97.18968023230121
 31
0.0
 11
108.6499247758835
 21
97.36306132913163
 31
0.0
 11
108.9250478361383
 21
97.51539135043953
 31
0.0
 11
109.240631207115
 21
97.6620977433252
 31
0.0
 11
109.5647678634626
 21
97.78843457797348
 31
0.0
 11
109.9231914239766
 21
97.90439321339962
 31
0.0
 11
110.2872965105685
 21
98.00074658414567
 31
0.0
 11
110.6773594072539
 21
98.08284624880258
 31
0.0
 11
111.0708976720457
 21
98.14595835604976
 31
0.0
 11
111.4805849967514
 21
98.19211980538263
 31
0.0
 11
111.891923258147
 21
98.21968169828713
 31
0.0
 11
112.3087390641401
 21
98.22891581752728
 31
0.0
 11
112.7255548701332
 21
98.21968169828713
 31
0.0
 11
113.1368931315288
 21
98.19211980538263
 31
0.0
 11
113.5465804562345
 21
98.14595835604979
 31
0.0
 11
113.9401187210263
 21
98.08284624880264
 31
0.0
 11
114.3301816177118
 21
98.00074658414567
 31
0.0
 11
114.6942867043036
 21
97.90439321339962
 31
0.0
 11
115.0527102648176
 21
97.78843457797346
 31
0.0
 11
115.3768469211652
 21
97.6620977433252
 31
0.0
 11
115.6924302921419
 21
97.51539135043953
 31
0.0
 11
115.9675533523966
 21
97.36306132913165
 31
0.0
 11
116.2301797189421
 21
97.1896802323012
 31
0.0
 11
116.449033618639
 21
97.01568949731345
 31
0.0
 11
116.6498427004256
 21
96.82064052140018
 31
0.0
 11
116.8069001722039
 21
96.62906857532789
 31
0.0
 11
116.9383543410158
 21
96.41850020050492
 31
0.0
 11
117.0289319257263
 21
96.21285405886184
 31
0.0
 11
117.0855247958252
 21
95.9949387776918
 31
0.0
 11
117.1045705874529
 21
95.77942607474401
 31
0.0
 11
117.0855247958252
 21
95.56391337179622
 31
0.0
  0
ENDBLK
  5
60
330
5E
100
AcDbEntity
  8
0
100
AcDbBlockEnd
  0
BLOCK
  5
62
330
61
100
AcDbEntity
  8
0
100
AcDbBlockBegin
  2
開示A4
 70
     0
 10
0.0
 20
0.0
 30
0.0
  3
開示A4
  1

  0
POINT
  5
12F
330
61
100
AcDbEntity
  8
1
 62
     4
100
AcDbPoint
 10
34.0
 20
34.00000000000001
 30
0.0
  0
POINT
  5
130
330
61
100
AcDbEntity
  8
1
 62
     4
100
AcDbPoint
 10
57.0
 20
12.25
 30
0.0
  0
POINT
  5
131
330
61
100
AcDbEntity
  8
1
 62
     4
100
AcDbPoint
 10
57.0
 20
20.75000000000001
 30
0.0
  0
POINT
  5
132
330
61
100
AcDbEntity
  8
1
 62
     4
100
AcDbPoint
 10
57.0
 20
24.75000000000001
 30
0.0
  0
POINT
  5
133
330
61
100
AcDbEntity
  8
1
 62
     4
100
AcDbPoint
 10
57.0
 20
16.25
 30
0.0
  0
POINT
  5
134
330
61
100
AcDbEntity
  8
1
 62
     4
100
AcDbPoint
 10
157.5
 20
19.00000000000001
 30
0.0
  0
POINT
  5
135
330
61
100
AcDbEntity
  8
1
 62
     4
100
AcDbPoint
 10
47.5
 20
282.0000000000003
 30
0.0
  0
POINT
  5
136
330
61
100
AcDbEntity
  8
1
 62
     4
100
AcDbPoint
 10
57.0
 20
22.75000000000001
 30
0.0
  0
POINT
  5
137
330
61
100
AcDbEntity
  8
1
 62
     4
100
AcDbPoint
 10
57.0
 20
14.25
 30
0.0
  0
POINT
  5
138
330
61
100
AcDbEntity
  8
1
 62
     4
100
AcDbPoint
 10
157.5
 20
12.5
 30
0.0
  0
POINT
  5
139
330
61
100
AcDbEntity
  8
1
 62
     4
100
AcDbPoint
 10
163.25
 20
12.5
 30
0.0
  0
POINT
  5
13A
330
61
100
AcDbEntity
  8
1
 62
     4
100
AcDbPoint
 10
151.75
 20
12.5
 30
0.0
  0
POINT
  5
13B
330
61
100
AcDbEntity
  8
1
 62
     4
100
AcDbPoint
 10
134.75
 20
12.5
 30
0.0
  0
POINT
  5
13C
330
61
100
AcDbEntity
  8
1
 62
     4
100
AcDbPoint
 10
146.25
 20
12.5
 30
0.0
  0
POINT
  5
13D
330
61
100
AcDbEntity
  8
1
 62
     4
100
AcDbPoint
 10
140.5
 20
12.5
 30
0.0
  0
POINT
  5
13E
330
61
100
AcDbEntity
  8
1
 62
     4
100
AcDbPoint
 10
140.5
 20
19.00000000000001
 30
0.0
  0
POINT
  5
13F
330
61
100
AcDbEntity
  8
1
 62
     4
100
AcDbPoint
 10
117.75
 20
12.5
 30
0.0
  0
POINT
  5
140
330
61
100
AcDbEntity
  8
1
 62
     4
100
AcDbPoint
 10
129.25
 20
12.5
 30
0.0
  0
POINT
  5
141
330
61
100
AcDbEntity
  8
1
 62
     4
100
AcDbPoint
 10
123.5
 20
12.5
 30
0.0
  0
POINT
  5
142
330
61
100
AcDbEntity
  8
1
 62
     4
100
AcDbPoint
 10
123.5
 20
19.00000000000001
 30
0.0
  0
POINT
  5
143
330
61
100
AcDbEntity
  8
1
 62
     4
100
AcDbPoint
 10
100.75
 20
12.5
 30
0.0
  0
POINT
  5
144
330
61
100
AcDbEntity
  8
1
 62
     4
100
AcDbPoint
 10
112.25
 20
12.5
 30
0.0
  0
POINT
  5
145
330
61
100
AcDbEntity
  8
1
 62
     4
100
AcDbPoint
 10
106.5
 20
12.5
 30
0.0
  0
POINT
  5
146
330
61
100
AcDbEntity
  8
1
 62
     4
100
AcDbPoint
 10
106.5
 20
19.00000000000001
 30
0.0
  0
POINT
  5
147
330
61
100
AcDbEntity
  8
1
 62
     4
100
AcDbPoint
 10
85.25
 20
17.0
 30
0.0
  0
POINT
  5
148
330
61
100
AcDbEntity
  8
1
 62
     4
100
AcDbPoint
 10
93.75
 20
17.0
 30
0.0
  0
LINE
  5
149
330
61
100
AcDbEntity
  8
1
  6
Continuous
 62
     2
100
AcDbLine
 10
81.0
 20
27.00000000000001
 30
0.0
 11
81.0
 21
10.0
 31
0.0
  0
LINE
  5
14A
330
61
100
AcDbEntity
  8
1
  6
DOT_CENTER
 62
     2
100
AcDbLine
 10
187.0
 20
26.50000000000001
 30
0.0
 11
187.0
 21
20.50000000000001
 31
0.0
  0
LINE
  5
14B
330
61
100
AcDbEntity
  8
1
  6
DOT_CENTER
 62
     2
100
AcDbLine
 10
184.0
 20
23.50000000000001
 30
0.0
 11
197.0
 21
23.50000000000001
 31
0.0
  0
LINE
  5
14C
330
61
100
AcDbEntity
  8
1
  6
Continuous
 62
     7
100
AcDbLine
 10
196.0
 20
21.50000000000001
 30
0.0
 11
191.0
 21
22.30000000000001
 31
0.0
  0
LINE
  5
14D
330
61
100
AcDbEntity
  8
1
  6
Continuous
 62
     7
100
AcDbLine
 10
196.0
 20
25.50000000000001
 30
0.0
 11
196.0
 21
21.50000000000001
 31
0.0
  0
LINE
  5
14E
330
61
100
AcDbEntity
  8
1
  6
Continuous
 62
     7
100
AcDbLine
 10
191.0
 20
24.70000000000001
 30
0.0
 11
196.0
 21
25.50000000000001
 31
0.0
  0
LINE
  5
14F
330
61
100
AcDbEntity
  8
1
  6
Continuous
 62
     7
100
AcDbLine
 10
191.0
 20
24.70000000000001
 30
0.0
 11
191.0
 21
22.30000000000001
 31
0.0
  0
LINE
  5
150
330
61
100
AcDbEntity
  8
1
  6
Continuous
 62
     2
100
AcDbLine
 10
33.0
 20
27.0
 30
0.0
 11
33.0
 21
10.0
 31
0.0
  0
LINE
  5
151
330
61
100
AcDbEntity
  8
1
  6
Continuous
 62
     2
100
AcDbLine
 10
25.0
 20
18.50000000000001
 30
0.0
 11
81.0
 21
18.50000000000001
 31
0.0
  0
LINE
  5
152
330
61
100
AcDbEntity
  8
1
  6
Continuous
 62
     7
100
AcDbLine
 10
200.0
 20
287.0000000000003
 30
0.0
 11
105.0
 21
287.0000000000003
 31
0.0
  0
LINE
  5
153
330
61
100
AcDbEntity
  8
1
  6
Continuous
 62
     7
100
AcDbLine
 10
200.0
 20
10.0
 30
0.0
 11
200.0
 21
148.5
 31
0.0
  0
LINE
  5
154
330
61
100
AcDbEntity
  8
1
  6
Continuous
 62
     7
100
AcDbLine
 10
25.0
 20
10.0
 30
0.0
 11
105.0
 21
10.0
 31
0.0
  0
LINE
  5
155
330
61
100
AcDbEntity
  8
1
  6
PHANTOM
 62
     4
100
AcDbLine
 10
0.0
 20
297.0
 30
0.0
 11
0.0
 21
0.0
 31
0.0
  0
LINE
  5
156
330
61
100
AcDbEntity
  8
1
  6
PHANTOM
 62
     4
100
AcDbLine
 10
210.0
 20
297.0
 30
0.0
 11
0.0
 21
297.0
 31
0.0
  0
LINE
  5
157
330
61
100
AcDbEntity
  8
1
  6
PHANTOM
 62
     4
100
AcDbLine
 10
210.0
 20
0.0
 30
0.0
 11
210.0
 21
297.0
 31
0.0
  0
LINE
  5
158
330
61
100
AcDbEntity
  8
1
  6
PHANTOM
 62
     4
100
AcDbLine
 10
0.0
 20
0.0
 30
0.0
 11
210.0
 21
0.0
 31
0.0
  0
LINE
  5
159
330
61
100
AcDbEntity
  8
1
  6
Continuous
 62
     7
100
AcDbLine
 10
25.0
 20
41.0
 30
0.0
 11
200.0
 21
41.0
 31
0.0
  0
LINE
  5
15A
330
61
100
AcDbEntity
  8
1
  6
Continuous
 62
     7
100
AcDbLine
 10
200.0
 20
27.00000000000001
 30
0.0
 11
25.0
 21
27.00000000000001
 31
0.0
  0
LINE
  5
15B
330
61
100
AcDbEntity
  8
1
  6
Continuous
 62
     2
100
AcDbLine
 10
33.0
 20
41.00000000000001
 30
0.0
 11
33.0
 21
27.0
 31
0.0
  0
LINE
  5
15C
330
61
100
AcDbEntity
  8
1
  6
Continuous
 62
     2
100
AcDbLine
 10
55.0
 20
287.0000000000003
 30
0.0
 11
55.0
 21
277.0000000000003
 31
0.0
  0
LINE
  5
15D
330
61
100
AcDbEntity
  8
1
  6
Continuous
 62
     2
100
AcDbLine
 10
40.0
 20
287.0000000000003
 30
0.0
 11
40.0
 21
277.0000000000003
 31
0.0
  0
LINE
  5
15E
330
61
100
AcDbEntity
  8
1
  6
Continuous
 62
     7
100
AcDbLine
 10
25.0
 20
10.0
 30
0.0
 11
25.0
 21
148.5
 31
0.0
  0
LINE
  5
15F
330
61
100
AcDbEntity
  8
1
  6
Continuous
 62
     2
100
AcDbLine
 10
55.0
 20
277.0000000000003
 30
0.0
 11
25.0
 21
277.0000000000003
 31
0.0
  0
LINE
  5
160
330
61
100
AcDbEntity
  8
1
  6
Continuous
 62
     2
100
AcDbLine
 10
166.0
 20
27.00000000000001
 30
0.0
 11
166.0
 21
10.0
 31
0.0
  0
LINE
  5
161
330
61
100
AcDbEntity
  8
1
  6
Continuous
 62
     2
100
AcDbLine
 10
132.0
 20
27.00000000000001
 30
0.0
 11
132.0
 21
9.99999999999999
 31
0.0
  0
LINE
  5
162
330
61
100
AcDbEntity
  8
1
  6
Continuous
 62
     2
100
AcDbLine
 10
149.0
 20
27.00000000000001
 30
0.0
 11
149.0
 21
10.0
 31
0.0
  0
LINE
  5
163
330
61
100
AcDbEntity
  8
1
  6
Continuous
 62
     2
100
AcDbLine
 10
115.0
 20
27.00000000000001
 30
0.0
 11
115.0
 21
9.99999999999999
 31
0.0
  0
LINE
  5
164
330
61
100
AcDbEntity
  8
1
  6
Continuous
 62
     2
100
AcDbLine
 10
98.0
 20
27.00000000000001
 30
0.0
 11
98.0
 21
9.99999999999999
 31
0.0
  0
LINE
  5
165
330
61
100
AcDbEntity
  8
1
  6
Continuous
 62
     2
100
AcDbLine
 10
166.0
 20
20.00000000000001
 30
0.0
 11
200.0
 21
20.00000000000001
 31
0.0
  0
LINE
  5
166
330
61
100
AcDbEntity
  8
1
  6
Continuous
 62
     2
100
AcDbLine
 10
105.0
 20
287.0000000000003
 30
0.0
 11
105.0
 21
292.0000000000003
 31
0.0
  0
LINE
  5
167
330
61
100
AcDbEntity
  8
1
  6
Continuous
 62
     7
100
AcDbLine
 10
105.0
 20
287.0000000000003
 30
0.0
 11
25.0
 21
287.0000000000003
 31
0.0
  0
LINE
  5
168
330
61
100
AcDbEntity
  8
1
  6
Continuous
 62
     2
100
AcDbLine
 10
25.0
 20
148.5
 30
0.0
 11
20.0
 21
148.5
 31
0.0
  0
LINE
  5
169
330
61
100
AcDbEntity
  8
1
  6
Continuous
 62
     7
100
AcDbLine
 10
25.0
 20
148.5
 30
0.0
 11
25.0
 21
287.0000000000003
 31
0.0
  0
LINE
  5
16A
330
61
100
AcDbEntity
  8
1
  6
Continuous
 62
     2
100
AcDbLine
 10
200.0
 20
148.5
 30
0.0
 11
205.0
 21
148.5
 31
0.0
  0
LINE
  5
16B
330
61
100
AcDbEntity
  8
1
  6
Continuous
 62
     7
100
AcDbLine
 10
200.0
 20
148.5
 30
0.0
 11
200.0
 21
287.0000000000003
 31
0.0
  0
LINE
  5
16C
330
61
100
AcDbEntity
  8
1
  6
Continuous
 62
     2
100
AcDbLine
 10
105.0
 20
10.0
 30
0.0
 11
105.0
 21
5.0
 31
0.0
  0
LINE
  5
16D
330
61
100
AcDbEntity
  8
1
  6
Continuous
 62
     7
100
AcDbLine
 10
105.0
 20
10.0
 30
0.0
 11
200.0
 21
10.0
 31
0.0
  0
CIRCLE
  5
16E
330
61
100
AcDbEntity
  8
1
  6
DOT_CENTER
 62
     7
100
AcDbCircle
 10
89.5
 20
18.0
 30
0.0
 40
0.1000000000000227
  0
CIRCLE
  5
16F
330
61
100
AcDbEntity
  8
1
  6
DOT_CENTER
 62
     7
100
AcDbCircle
 10
89.5
 20
16.0
 30
0.0
 40
0.1000000000000227
  0
CIRCLE
  5
170
330
61
100
AcDbEntity
  8
1
  6
Continuous
 62
     7
100
AcDbCircle
 10
187.0
 20
23.50000000000001
 30
0.0
 40
2.0
  0
CIRCLE
  5
171
330
61
100
AcDbEntity
  8
1
  6
Continuous
 62
     7
100
AcDbCircle
 10
187.0
 20
23.50000000000001
 30
0.0
 40
1.200000000000102
  0
CIRCLE
  5
172
330
61
100
AcDbEntity
  8
1
  6
Continuous
 62
     7
100
AcDbCircle
 10
154.5
 20
12.5
 30
0.0
 40
0.3000000000000114
  0
CIRCLE
  5
173
330
61
100
AcDbEntity
  8
1
  6
Continuous
 62
     7
100
AcDbCircle
 10
160.5
 20
12.5
 30
0.0
 40
0.3000000000000114
  0
CIRCLE
  5
174
330
61
100
AcDbEntity
  8
1
  6
Continuous
 62
     7
100
AcDbCircle
 10
143.5
 20
12.5
 30
0.0
 40
0.3000000000000114
  0
CIRCLE
  5
175
330
61
100
AcDbEntity
  8
1
  6
Continuous
 62
     7
100
AcDbCircle
 10
137.5
 20
12.5
 30
0.0
 40
0.3000000000000114
  0
CIRCLE
  5
176
330
61
100
AcDbEntity
  8
1
  6
Continuous
 62
     7
100
AcDbCircle
 10
126.5
 20
12.5
 30
0.0
 40
0.2999999999999972
  0
CIRCLE
  5
177
330
61
100
AcDbEntity
  8
1
  6
Continuous
 62
     7
100
AcDbCircle
 10
120.5
 20
12.5
 30
0.0
 40
0.2999999999999972
  0
CIRCLE
  5
178
330
61
100
AcDbEntity
  8
1
  6
Continuous
 62
     7
100
AcDbCircle
 10
109.5
 20
12.5
 30
0.0
 40
0.2999999999999972
  0
CIRCLE
  5
179
330
61
100
AcDbEntity
  8
1
  6
Continuous
 62
     7
100
AcDbCircle
 10
103.5
 20
12.5
 30
0.0
 40
0.2999999999999972
  0
MTEXT
  5
17B
330
61
100
AcDbEntity
  8
1
 62
   250
100
AcDbMText
 10
25.0
 20
5.0
 30
0.0
 40
3.5
 41
0.0
 71
     4
 72
     1
  1
備考欄の文字列 原点位置=4
  7
CONVERTER_11
 73
     1
 44
0.54545454545455
  0
MTEXT
  5
17C
330
61
100
AcDbEntity
  8
1
 62
     2
100
AcDbMText
 10
89.5
 20
24.00000000000001
 30
0.0
 40
3.5
 41
0.0
 71
     5
 72
     1
  1
尺度
  7
CONVERTER_11
 73
     1
 44
0.54545454545455
  0
MTEXT
  5
17D
330
61
100
AcDbEntity
  8
1
 62
     2
100
AcDbMText
 10
135.5
 20
25.00000000000001
 30
0.0
 40
3.0
 41
0.0
 71
     5
 72
     1
  1
製図
  7
CONVERTER_11
 73
     1
 44
0.59090909090909
  0
MTEXT
  5
17E
330
61
100
AcDbEntity
  8
1
 62
     2
100
AcDbMText
 10
152.5
 20
25.00000000000001
 30
0.0
 40
3.0
 41
0.0
 71
     5
 72
     1
  1
設計
  7
CONVERTER_11
 73
     1
 44
0.59090909090909
  0
MTEXT
  5
17F
330
61
100
AcDbEntity
  8
1
 62
     2
100
AcDbMText
 10
118.5
 20
25.00000000000001
 30
0.0
 40
3.0
 41
0.0
 71
     5
 72
     1
  1
検図
  7
CONVERTER_11
 73
     1
 44
0.59090909090909
  0
MTEXT
  5
180
330
61
100
AcDbEntity
  8
1
 62
     2
100
AcDbMText
 10
175.0
 20
23.50000000000001
 30
0.0
 40
3.5
 41
0.0
 71
     5
 72
     1
  1
第三角法
  7
CONVERTER_11
 73
     1
 44
0.54545454545455
  0
MTEXT
  5
181
330
61
100
AcDbEntity
  8
1
 62
     2
100
AcDbMText
 10
101.5
 20
25.00000000000001
 30
0.0
 40
3.0
 41
0.0
 71
     5
 72
     1
  1
承認
  7
CONVERTER_11
 73
     1
 44
0.59090909090909
  0
MTEXT
  5
182
330
61
100
AcDbEntity
  8
1
 62
     2
100
AcDbMText
 10
29.0
 20
14.25
 30
0.0
 40
3.5
 41
0.0
 71
     5
 72
     1
  1
品番
  7
CONVERTER_11
 73
     1
 44
0.72727272727273
  0
MTEXT
  5
183
330
61
100
AcDbEntity
  8
1
 62
     2
100
AcDbMText
 10
29.0
 20
22.75
 30
0.0
 40
3.5
 41
0.0
 71
     5
 72
     1
  1
品名
  7
CONVERTER_11
 73
     1
 44
0.72727272727273
  0
MTEXT
  5
184
330
61
100
AcDbEntity
  8
1
 62
     2
100
AcDbMText
 10
29.0
 20
34.00000000000001
 30
0.0
 40
3.5
 41
0.0
 71
     5
 72
     1
  1
備考
  7
CONVERTER_11
 73
     1
 44
0.45454545454545
  0
MTEXT
  5
185
330
61
100
AcDbEntity
  8
1
 62
     2
100
AcDbMText
 10
32.5
 20
282.0000000000003
 30
0.0
 40
5.0
 41
0.0
 71
     5
 72
     1
  1
図番
  7
CONVERTER_11
 73
     1
 44
0.45454545454545
  0
MTEXT
  5
186
330
61
100
AcDbEntity
  8
1
 62
     7
100
AcDbMText
 10
171.5
 20
15.0
 30
0.0
 40
2.5
 41
0.0
 71
     5
 72
     1
  1
株式会社
  7
CONVERTER_11
 73
     1
 44
1.0
  0
MTEXT
  5
187
330
61
100
AcDbEntity
  8
1
 62
     7
100
AcDbMText
 10
188.5
 20
15.0
 30
0.0
 40
3.0
 41
0.0
 71
     5
 72
     1
  1
三栄水栓製作所
  7
CONVERTER_11
 73
     1
 44
1.0
  0
ENDBLK
  5
63
330
61
100
AcDbEntity
  8
0
100
AcDbBlockEnd
  0
BLOCK
  5
65
330
64
100
AcDbEntity
  8
0
100
AcDbBlockBegin
  2
V21-2-0A-13-_表面処理_
 70
     0
 10
210.0
 20
297.0
 30
0.0
  3
V21-2-0A-13-_表面処理_
  1

  0
LINE
  5
188
330
64
100
AcDbEntity
  8
1
  6
Continuous
 62
     7
100
AcDbLine
 10
70.88815233773911
 20
93.61436256528287
 30
0.0
 11
71.38815233773911
 21
93.3256874306881
 31
0.0
  0
LINE
  5
189
330
64
100
AcDbEntity
  8
1
  6
Continuous
 62
     7
100
AcDbLine
 10
70.88815233773911
 20
107.4119766246695
 30
0.0
 11
70.8881523377392
 21
85.82013393122298
 31
0.0
  0
LINE
  5
18A
330
64
100
AcDbEntity
  8
1
  6
Continuous
 62
     7
100
AcDbLine
 10
70.38815233773911
 20
107.9119766246695
 30
0.0
 11
70.88815233773911
 21
107.4119766246695
 31
0.0
  0
LINE
  5
18B
330
64
100
AcDbEntity
  8
1
  6
Continuous
 62
     7
100
AcDbLine
 10
45.88815233773912
 20
107.4119766246695
 30
0.0
 11
45.88815233773912
 21
85.82013393122298
 31
0.0
  0
LINE
  5
18C
330
64
100
AcDbEntity
  8
1
  6
Continuous
 62
     7
100
AcDbLine
 10
46.38815233773912
 20
107.9119766246695
 30
0.0
 11
45.88815233773912
 21
107.4119766246695
 31
0.0
  0
LINE
  5
18D
330
64
100
AcDbEntity
  8
1
  6
Continuous
 62
     7
100
AcDbLine
 10
45.38815233773912
 20
85.82013393122298
 30
0.0
 11
45.38815233773912
 21
93.3256874306881
 31
0.0
  0
LINE
  5
18E
330
64
100
AcDbEntity
  8
1
  6
Continuous
 62
     7
100
AcDbLine
 10
45.38815233773912
 20
93.3256874306881
 30
0.0
 11
45.88815233773912
 21
93.61436256528287
 31
0.0
  0
LINE
  5
18F
330
64
100
AcDbEntity
  8
1
  6
Continuous
 62
     7
100
AcDbLine
 10
71.38815233773911
 20
93.3256874306881
 30
0.0
 11
71.38815233773911
 21
85.82013393122298
 31
0.0
  0
LINE
  5
190
330
64
100
AcDbEntity
  8
1
  6
Continuous
 62
     7
100
AcDbLine
 10
45.38815233773912
 20
78.31458043175786
 30
0.0
 11
45.38815233773912
 21
85.82013393122298
 31
0.0
  0
LINE
  5
191
330
64
100
AcDbEntity
  8
1
  6
Continuous
 62
     7
100
AcDbLine
 10
58.38815233773912
 20
70.80902693229268
 30
0.0
 11
45.38815233773912
 21
78.31458043175786
 31
0.0
  0
LINE
  5
192
330
64
100
AcDbEntity
  8
1
  6
Continuous
 62
     7
100
AcDbLine
 10
71.38815233773911
 20
78.31458043175786
 30
0.0
 11
58.38815233773912
 21
70.80902693229268
 31
0.0
  0
LINE
  5
193
330
64
100
AcDbEntity
  8
1
  6
Continuous
 62
     7
100
AcDbLine
 10
71.38815233773911
 20
85.82013393122298
 30
0.0
 11
71.38815233773911
 21
78.31458043175786
 31
0.0
  0
LINE
  5
194
330
64
100
AcDbEntity
  8
1
  6
Continuous
 62
     2
100
AcDbLine
 10
47.2011523377391
 20
109.320133931223
 30
0.0
 11
47.2011523377391
 21
110.8201339312229
 31
0.0
  0
LINE
  5
195
330
64
100
AcDbEntity
  8
1
  6
Continuous
 62
     7
100
AcDbLine
 10
46.38815233773912
 20
109.320133931223
 30
0.0
 11
47.2011523377391
 21
109.320133931223
 31
0.0
  0
LINE
  5
196
330
64
100
AcDbEntity
  8
1
  6
Continuous
 62
     7
100
AcDbLine
 10
46.38815233773912
 20
109.320133931223
 30
0.0
 11
46.38815233773912
 21
107.9119766246695
 31
0.0
  0
LINE
  5
197
330
64
100
AcDbEntity
  8
1
  6
Continuous
 62
     2
100
AcDbLine
 10
47.2011523377391
 20
109.320133931223
 30
0.0
 11
46.38815233773912
 21
107.9119766246695
 31
0.0
  0
LINE
  5
198
330
64
100
AcDbEntity
  8
1
  6
Continuous
 62
     2
100
AcDbLine
 10
70.38815233773911
 20
107.9119766246695
 30
0.0
 11
69.57515233773913
 21
109.320133931223
 31
0.0
  0
LINE
  5
199
330
64
100
AcDbEntity
  8
1
  6
Continuous
 62
     7
100
AcDbLine
 10
70.38815233773911
 20
107.9119766246695
 30
0.0
 11
70.38815233773911
 21
109.320133931223
 31
0.0
  0
LINE
  5
19A
330
64
100
AcDbEntity
  8
1
  6
Continuous
 62
     7
100
AcDbLine
 10
69.57515233773913
 20
109.320133931223
 30
0.0
 11
70.38815233773911
 21
109.320133931223
 31
0.0
  0
LINE
  5
19B
330
64
100
AcDbEntity
  8
1
  6
Continuous
 62
     7
100
AcDbLine
 10
70.38815233773911
 20
109.320133931223
 30
0.0
 11
70.38815233773911
 21
110.820133931223
 31
0.0
  0
LINE
  5
19C
330
64
100
AcDbEntity
  8
1
  6
Continuous
 62
     7
100
AcDbLine
 10
69.57515233773913
 20
109.320133931223
 30
0.0
 11
47.2011523377391
 21
109.320133931223
 31
0.0
  0
LINE
  5
19D
330
64
100
AcDbEntity
  8
1
  6
Continuous
 62
     7
100
AcDbLine
 10
45.88815233773912
 20
107.4119766246695
 30
0.0
 11
70.88815233773911
 21
107.4119766246695
 31
0.0
  0
LINE
  5
19E
330
64
100
AcDbEntity
  8
1
  6
Continuous
 62
     7
100
AcDbLine
 10
46.38815233773912
 20
107.9119766246695
 30
0.0
 11
70.38815233773911
 21
107.9119766246695
 31
0.0
  0
LINE
  5
19F
330
64
100
AcDbEntity
  8
1
  6
PHANTOM
 62
     4
100
AcDbLine
 10
58.38815233773912
 20
118.320133931223
 30
0.0
 11
58.38815233773912
 21
67.80902693229268
 31
0.0
  0
LINE
  5
1A0
330
64
100
AcDbEntity
  8
1
  6
PHANTOM
 62
     4
100
AcDbLine
 10
42.38815233773912
 20
85.82013393122298
 30
0.0
 11
74.38815233773911
 21
85.82013393122298
 31
0.0
  0
LINE
  5
1A1
330
64
100
AcDbEntity
  8
1
  6
Continuous
 62
     7
100
AcDbLine
 10
52.44403033554863
 20
87.32013393122298
 30
0.0
 11
64.33227433992977
 21
87.32013393122298
 31
0.0
  0
LINE
  5
1A2
330
64
100
AcDbEntity
  8
1
  6
Continuous
 62
     2
100
AcDbLine
 10
69.57515233773913
 20
110.820133931223
 30
0.0
 11
69.57515233773913
 21
109.320133931223
 31
0.0
  0
LINE
  5
1A3
330
64
100
AcDbEntity
  8
1
  6
Continuous
 62
     7
100
AcDbLine
 10
46.38815233773912
 20
110.8201339312229
 30
0.0
 11
46.38815233773912
 21
109.320133931223
 31
0.0
  0
ARC
  5
1A4
330
64
100
AcDbEntity
  8
1
  6
Continuous
 62
     7
100
AcDbCircle
 10
58.38815233773912
 20
85.82013393122298
 30
0.0
 40
12.5
100
AcDbArc
 50
180.0
 51
0.0
  0
ARC
  5
1A5
330
64
100
AcDbEntity
  8
1
  6
Continuous
 62
     7
100
AcDbCircle
 10
58.38815233773912
 20
85.82013393122298
 30
0.0
 40
12.74999999999999
100
AcDbArc
 50
0.0
 51
11.36487696703189
  0
ARC
  5
1A6
330
64
100
AcDbEntity
  8
1
  6
Continuous
 62
     7
100
AcDbCircle
 10
58.38815233773912
 20
85.82013393122298
 30
0.0
 40
12.75
100
AcDbArc
 50
168.6351230329663
 51
0.0
  0
ENDBLK
  5
66
330
64
100
AcDbEntity
  8
0
100
AcDbBlockEnd
  0
BLOCK
  5
68
330
67
100
AcDbEntity
  8
0
100
AcDbBlockBegin
  2
V21-2-0A
 70
     0
 10
200.0
 20
148.5
 30
0.0
  3
V21-2-0A
  1

  0
LINE
  5
1A7
330
67
100
AcDbEntity
  8
1
  6
Continuous
 62
     7
100
AcDbLine
 10
123.8213821025351
 20
75.32013393122298
 30
0.0
 11
125.3087390641401
 21
75.32013393122298
 31
0.0
  0
LINE
  5
1A8
330
67
100
AcDbEntity
  8
1
  6
Continuous
 62
     7
100
AcDbLine
 10
177.8087390641401
 20
96.29763393122295
 30
0.0
 11
177.8087390641401
 21
75.34263393122308
 31
0.0
  0
LINE
  5
1A9
330
67
100
AcDbEntity
  8
1
  6
Continuous
 62
     7
100
AcDbLine
 10
160.3087390641401
 20
98.32013393122298
 30
0.0
 11
166.2265642533444
 21
98.32013393122298
 31
0.0
  0
LINE
  5
1AA
330
67
100
AcDbEntity
  8
1
  6
Continuous
 62
     7
100
AcDbLine
 10
142.8087390641401
 20
73.32013393122298
 30
0.0
 11
166.2265642533444
 21
73.32013393122298
 31
0.0
  0
LINE
  5
1AB
330
67
100
AcDbEntity
  8
1
  6
Continuous
 62
     7
100
AcDbLine
 10
123.8213821025351
 20
96.32013393122298
 30
0.0
 11
125.3087390641401
 21
96.32013393122298
 31
0.0
  0
LINE
  5
1AC
330
67
100
AcDbEntity
  8
1
  6
Continuous
 62
     7
100
AcDbLine
 10
170.8087390641401
 20
100.8312409301532
 30
0.0
 11
175.5476320652099
 21
100.8312409301532
 31
0.0
  0
LINE
  5
1AD
330
67
100
AcDbEntity
  8
1
  6
Continuous
 62
     7
100
AcDbLine
 10
154.8087390641401
 20
109.320133931223
 30
0.0
 11
154.8087390641401
 21
110.820133931223
 31
0.0
  0
LINE
  5
1AE
330
67
100
AcDbEntity
  8
1
  6
Continuous
 62
     7
100
AcDbLine
 10
153.9957390641401
 20
109.320133931223
 30
0.0
 11
154.8087390641401
 21
109.320133931223
 31
0.0
  0
LINE
  5
1AF
330
67
100
AcDbEntity
  8
1
  6
Continuous
 62
     7
100
AcDbLine
 10
154.8087390641401
 20
107.9119766246695
 30
0.0
 11
154.8087390641401
 21
109.320133931223
 31
0.0
  0
LINE
  5
1B0
330
67
100
AcDbEntity
  8
1
  6
Continuous
 62
     2
100
AcDbLine
 10
154.8087390641401
 20
107.9119766246695
 30
0.0
 11
153.9957390641401
 21
109.320133931223
 31
0.0
  0
LINE
  5
1B1
330
67
100
AcDbEntity
  8
1
  6
Continuous
 62
     7
100
AcDbLine
 10
121.8087390641401
 20
75.32013393122298
 30
0.0
 11
121.8087390641401
 21
76.48213393122296
 31
0.0
  0
LINE
  5
1B2
330
67
100
AcDbEntity
  8
1
  6
Continuous
 62
     2
100
AcDbLine
 10
123.8213821025351
 20
75.32013393122298
 30
0.0
 11
121.8087390641401
 21
76.48213393122296
 31
0.0
  0
LINE
  5
1B3
330
67
100
AcDbEntity
  8
1
  6
Continuous
 62
     2
100
AcDbLine
 10
121.8087390641401
 20
76.48213393122296
 30
0.0
 11
118.3087390641401
 21
76.48213393122296
 31
0.0
  0
LINE
  5
1B4
330
67
100
AcDbEntity
  8
1
  6
Continuous
 62
     2
100
AcDbLine
 10
121.8087390641401
 20
95.15813393122295
 30
0.0
 11
123.8213821025351
 21
96.32013393122298
 31
0.0
  0
LINE
  5
1B5
330
67
100
AcDbEntity
  8
1
  6
Continuous
 62
     7
100
AcDbLine
 10
121.8087390641401
 20
96.32013393122298
 30
0.0
 11
123.8213821025351
 21
96.32013393122298
 31
0.0
  0
LINE
  5
1B6
330
67
100
AcDbEntity
  8
1
  6
Continuous
 62
     7
100
AcDbLine
 10
121.8087390641401
 20
95.15813393122295
 30
0.0
 11
121.8087390641401
 21
96.32013393122298
 31
0.0
  0
LINE
  5
1B7
330
67
100
AcDbEntity
  8
1
  6
Continuous
 62
     2
100
AcDbLine
 10
131.6217390641401
 20
109.320133931223
 30
0.0
 11
130.8087390641401
 21
107.9119766246695
 31
0.0
  0
LINE
  5
1B8
330
67
100
AcDbEntity
  8
1
  6
Continuous
 62
     7
100
AcDbLine
 10
130.8087390641401
 20
109.320133931223
 30
0.0
 11
130.8087390641401
 21
107.9119766246695
 31
0.0
  0
LINE
  5
1B9
330
67
100
AcDbEntity
  8
1
  6
Continuous
 62
     7
100
AcDbLine
 10
130.8087390641401
 20
109.320133931223
 30
0.0
 11
131.6217390641401
 21
109.320133931223
 31
0.0
  0
LINE
  5
1BA
330
67
100
AcDbEntity
  8
1
  6
Continuous
 62
     2
100
AcDbLine
 10
131.6217390641401
 20
109.320133931223
 30
0.0
 11
131.6217390641401
 21
110.820133931223
 31
0.0
  0
LINE
  5
1BB
330
67
100
AcDbEntity
  8
1
  6
Continuous
 62
     7
100
AcDbLine
 10
121.8087390641401
 20
75.32013393122298
 30
0.0
 11
123.8213821025351
 21
75.32013393122298
 31
0.0
  0
LINE
  5
1BC
330
67
100
AcDbEntity
  8
1
  6
Continuous
 62
     7
100
AcDbLine
 10
177.8087390641401
 20
96.29763393122295
 30
0.0
 11
177.8087390641401
 21
98.57013393122298
 31
0.0
  0
LINE
  5
1BD
330
67
100
AcDbEntity
  8
1
  6
Continuous
 62
     7
100
AcDbLine
 10
175.5476320652099
 20
100.8312409301532
 30
0.0
 11
177.8087390641401
 21
98.57013393122298
 31
0.0
  0
LINE
  5
1BE
330
67
100
AcDbEntity
  8
1
  6
Continuous
 62
     7
100
AcDbLine
 10
177.8087390641401
 20
98.57013393122298
 30
0.0
 11
177.8087390641401
 21
96.29763393122295
 31
0.0
  0
LINE
  5
1BF
330
67
100
AcDbEntity
  8
1
  6
Continuous
 62
     7
100
AcDbLine
 10
177.8087390641401
 20
73.07013393122298
 30
0.0
 11
175.5476320652099
 21
70.80902693229274
 31
0.0
  0
LINE
  5
1C0
330
67
100
AcDbEntity
  8
1
  6
Continuous
 62
     7
100
AcDbLine
 10
177.8087390641401
 20
73.07013393122298
 30
0.0
 11
177.8087390641401
 21
75.34263393122308
 31
0.0
  0
LINE
  5
1C1
330
67
100
AcDbEntity
  8
1
  6
Continuous
 62
     7
100
AcDbLine
 10
170.8087390641401
 20
100.8312409301532
 30
0.0
 11
169.7620981592771
 21
99.78460002529027
 31
0.0
  0
LINE
  5
1C2
330
67
100
AcDbEntity
  8
1
  6
Continuous
 62
     7
100
AcDbLine
 10
130.8087390641401
 20
107.9119766246695
 30
0.0
 11
130.3087390641401
 21
107.4119766246695
 31
0.0
  0
LINE
  5
1C3
330
67
100
AcDbEntity
  8
1
  6
Continuous
 62
     7
100
AcDbLine
 10
130.3087390641401
 20
107.4119766246695
 30
0.0
 11
130.3087390641401
 21
101.320133931223
 31
0.0
  0
LINE
  5
1C4
330
67
100
AcDbEntity
  8
1
  6
Continuous
 62
     7
100
AcDbLine
 10
154.8087390641401
 20
107.9119766246695
 30
0.0
 11
155.3087390641401
 21
107.4119766246695
 31
0.0
  0
LINE
  5
1C5
330
67
100
AcDbEntity
  8
1
  6
Continuous
 62
     7
100
AcDbLine
 10
155.3087390641401
 20
107.4119766246695
 30
0.0
 11
155.3087390641401
 21
103.320133931223
 31
0.0
  0
LINE
  5
1C6
330
67
100
AcDbEntity
  8
1
  6
Continuous
 62
     7
100
AcDbLine
 10
175.5476320652099
 20
70.80902693229274
 30
0.0
 11
170.8087390641401
 21
70.80902693229268
 31
0.0
  0
LINE
  5
1C7
330
67
100
AcDbEntity
  8
1
  6
Continuous
 62
     7
100
AcDbLine
 10
169.7620981592772
 20
71.85566783715564
 30
0.0
 11
170.8087390641401
 21
70.80902693229268
 31
0.0
  0
LINE
  5
1C8
330
67
100
AcDbEntity
  8
1
  6
Continuous
 62
     7
100
AcDbLine
 10
175.5476320652099
 20
70.80902693229274
 30
0.0
 11
170.8087390641401
 21
70.80902693229268
 31
0.0
  0
LINE
  5
1C9
330
67
100
AcDbEntity
  8
1
  6
PHANTOM
 62
     4
100
AcDbLine
 10
142.8087390641401
 20
118.320133931223
 30
0.0
 11
142.8087390641401
 21
70.32013393122298
 31
0.0
  0
LINE
  5
1CA
330
67
100
AcDbEntity
  8
1
  6
PHANTOM
 62
     4
100
AcDbLine
 10
109.8087390641401
 20
85.82013393122298
 30
0.0
 11
180.8087390641401
 21
85.82013393122298
 31
0.0
  0
LINE
  5
1CB
330
67
100
AcDbEntity
  8
1
  6
Continuous
 62
     7
100
AcDbLine
 10
121.8087390641401
 20
95.15813393122295
 30
0.0
 11
121.8087390641401
 21
76.48213393122296
 31
0.0
  0
LINE
  5
1CC
330
67
100
AcDbEntity
  8
1
  6
Continuous
 62
     7
100
AcDbLine
 10
131.6217390641401
 20
109.320133931223
 30
0.0
 11
153.9957390641401
 21
109.320133931223
 31
0.0
  0
LINE
  5
1CD
330
67
100
AcDbEntity
  8
1
  6
Continuous
 62
     7
100
AcDbLine
 10
130.3087390641401
 20
107.4119766246695
 30
0.0
 11
155.3087390641401
 21
107.4119766246695
 31
0.0
  0
LINE
  5
1CE
330
67
100
AcDbEntity
  8
1
  6
Continuous
 62
     7
100
AcDbLine
 10
175.5476320652099
 20
93.3256874306881
 30
0.0
 11
170.8087390641401
 21
93.3256874306881
 31
0.0
  0
LINE
  5
1CF
330
67
100
AcDbEntity
  8
1
  6
Continuous
 62
     7
100
AcDbLine
 10
175.5476320652099
 20
78.31458043175786
 30
0.0
 11
170.8087390641401
 21
78.31458043175786
 31
0.0
  0
LINE
  5
1D0
330
67
100
AcDbEntity
  8
1
  6
Continuous
 62
     7
100
AcDbLine
 10
49.05015233773909
 20
190.320133931223
 30
0.0
 11
51.10469848555419
 21
190.320133931223
 31
0.0
  0
LINE
  5
1D1
330
67
100
AcDbEntity
  8
1
  6
PHANTOM
 62
     4
100
AcDbLine
 10
58.38815233773906
 20
178.320133931223
 30
0.0
 11
58.38815233773906
 21
239.320133931223
 31
0.0
  0
LINE
  5
1D2
330
67
100
AcDbEntity
  8
1
  6
Continuous
 62
     7
100
AcDbLine
 10
71.13815233773906
 20
246.320133931223
 30
0.0
 11
68.86565233773896
 21
246.320133931223
 31
0.0
  0
LINE
  5
1D3
330
67
100
AcDbEntity
  8
1
  6
Continuous
 62
     7
100
AcDbLine
 10
71.13815233773906
 20
246.320133931223
 30
0.0
 11
71.38815233773906
 21
246.070133931223
 31
0.0
  0
LINE
  5
1D4
330
67
100
AcDbEntity
  8
1
  6
Continuous
 62
     7
100
AcDbLine
 10
45.63815233773906
 20
246.320133931223
 30
0.0
 11
47.91065233773909
 21
246.320133931223
 31
0.0
  0
LINE
  5
1D5
330
67
100
AcDbEntity
  8
1
  6
Continuous
 62
     7
100
AcDbLine
 10
47.91065233773909
 20
246.320133931223
 30
0.0
 11
45.63815233773906
 21
246.320133931223
 31
0.0
  0
LINE
  5
1D6
330
67
100
AcDbEntity
  8
1
  6
Continuous
 62
     7
100
AcDbLine
 10
68.88815233773906
 20
190.320133931223
 30
0.0
 11
68.88815233773906
 21
192.332776969618
 31
0.0
  0
LINE
  5
1D7
330
67
100
AcDbEntity
  8
1
  6
Continuous
 62
     7
100
AcDbLine
 10
49.05015233773909
 20
190.320133931223
 30
0.0
 11
47.88815233773906
 21
190.320133931223
 31
0.0
  0
LINE
  5
1D8
330
67
100
AcDbEntity
  8
1
  6
Continuous
 62
     7
100
AcDbLine
 10
47.88815233773906
 20
190.320133931223
 30
0.0
 11
47.88815233773906
 21
192.332776969618
 31
0.0
  0
LINE
  5
1D9
330
67
100
AcDbEntity
  8
1
  6
Continuous
 62
     2
100
AcDbLine
 10
49.05015233773909
 20
190.320133931223
 30
0.0
 11
47.88815233773906
 21
192.332776969618
 31
0.0
  0
LINE
  5
1DA
330
67
100
AcDbEntity
  8
1
  6
Continuous
 62
     2
100
AcDbLine
 10
68.88815233773906
 20
192.332776969618
 30
0.0
 11
67.72615233773908
 21
190.320133931223
 31
0.0
  0
LINE
  5
1DB
330
67
100
AcDbEntity
  8
1
  6
Continuous
 62
     7
100
AcDbLine
 10
68.88815233773906
 20
190.320133931223
 30
0.0
 11
67.72615233773908
 21
190.320133931223
 31
0.0
  0
LINE
  5
1DC
330
67
100
AcDbEntity
  8
1
  6
Continuous
 62
     7
100
AcDbLine
 10
47.88815233773906
 20
192.332776969618
 30
0.0
 11
47.88815233773906
 21
193.820133931223
 31
0.0
  0
LINE
  5
1DD
330
67
100
AcDbEntity
  8
1
  6
Continuous
 62
     7
100
AcDbLine
 10
47.91065233773909
 20
246.320133931223
 30
0.0
 11
68.86565233773896
 21
246.320133931223
 31
0.0
  0
LINE
  5
1DE
330
67
100
AcDbEntity
  8
1
  6
Continuous
 62
     7
100
AcDbLine
 10
68.88815233773906
 20
192.332776969618
 30
0.0
 11
68.88815233773906
 21
193.820133931223
 31
0.0
  0
LINE
  5
1DF
330
67
100
AcDbEntity
  8
1
  6
Continuous
 62
     7
100
AcDbLine
 10
45.88815233773906
 20
234.7379591204273
 30
0.0
 11
45.88815233773906
 21
227.5798857298505
 31
0.0
  0
LINE
  5
1E0
330
67
100
AcDbEntity
  8
1
  6
Continuous
 62
     7
100
AcDbLine
 10
45.38815233773906
 20
236.9174085921975
 30
0.0
 11
45.38815233773906
 21
246.070133931223
 31
0.0
  0
LINE
  5
1E1
330
67
100
AcDbEntity
  8
1
  6
Continuous
 62
     7
100
AcDbLine
 10
45.38815233773906
 20
246.070133931223
 30
0.0
 11
45.63815233773906
 21
246.320133931223
 31
0.0
  0
LINE
  5
1E2
330
67
100
AcDbEntity
  8
1
  6
Continuous
 62
     7
100
AcDbLine
 10
71.38815233773906
 20
236.9174085921976
 30
0.0
 11
71.38815233773906
 21
244.0590269322928
 31
0.0
  0
LINE
  5
1E3
330
67
100
AcDbEntity
  8
1
  6
Continuous
 62
     7
100
AcDbLine
 10
71.38815233773906
 20
244.0590269322928
 30
0.0
 11
71.38815233773906
 21
246.070133931223
 31
0.0
  0
LINE
  5
1E4
330
67
100
AcDbEntity
  8
1
  6
PHANTOM
 62
     4
100
AcDbLine
 10
42.88815233773906
 20
211.320133931223
 30
0.0
 11
73.88815233773906
 21
211.320133931223
 31
0.0
  0
LINE
  5
1E5
330
67
100
AcDbEntity
  8
1
  6
Continuous
 62
     7
100
AcDbLine
 10
70.88815233773907
 20
227.5798857298505
 30
0.0
 11
70.88815233773906
 21
234.7379591204273
 31
0.0
  0
LINE
  5
1E6
330
67
100
AcDbEntity
  8
1
  6
Continuous
 62
     7
100
AcDbLine
 10
65.67160618992412
 20
190.320133931223
 30
0.0
 11
67.72615233773908
 21
190.320133931223
 31
0.0
  0
LINE
  5
1E7
330
67
100
AcDbEntity
  8
1
  6
Continuous
 62
     2
100
AcDbLine
 10
49.05015233773909
 20
186.820133931223
 30
0.0
 11
49.05015233773909
 21
190.320133931223
 31
0.0
  0
LINE
  5
1E8
330
67
100
AcDbEntity
  8
1
  6
Continuous
 62
     7
100
AcDbLine
 10
47.88815233773906
 20
186.820133931223
 30
0.0
 11
47.88815233773906
 21
190.320133931223
 31
0.0
  0
LINE
  5
1E9
330
67
100
AcDbEntity
  8
1
  6
Continuous
 62
     7
100
AcDbLine
 10
68.88815233773909
 20
186.820133931223
 30
0.0
 11
68.88815233773906
 21
190.320133931223
 31
0.0
  0
LINE
  5
1EA
330
67
100
AcDbEntity
  8
1
  6
Continuous
 62
     2
100
AcDbLine
 10
67.72615233773908
 20
190.320133931223
 30
0.0
 11
67.72615233773908
 21
186.820133931223
 31
0.0
  0
LINE
  5
1EB
330
67
100
AcDbEntity
  8
1
  6
Continuous
 62
     7
100
AcDbLine
 10
58.38815233773906
 20
239.320133931223
 30
0.0
 11
58.38815233773906
 21
244.0590269322928
 31
0.0
  0
LINE
  5
1EC
330
67
100
AcDbEntity
  8
1
  6
PHANTOM
 62
     4
100
AcDbLine
 10
58.38815233773906
 20
239.320133931223
 30
0.0
 11
58.38815233773906
 21
244.0590269322928
 31
0.0
  0
LINE
  5
1ED
330
67
100
AcDbEntity
  8
1
  6
PHANTOM
 62
     4
100
AcDbLine
 10
58.38815233773906
 20
244.0590269322928
 30
0.0
 11
58.38815233773906
 21
249.320133931223
 31
0.0
  0
LINE
  5
1EE
330
67
100
AcDbEntity
  8
1
  6
Continuous
 62
     7
100
AcDbLine
 10
118.3087390641401
 20
96.32013393122298
 30
0.0
 11
121.8087390641401
 21
96.32013393122298
 31
0.0
  0
LINE
  5
1EF
330
67
100
AcDbEntity
  8
1
  6
Continuous
 62
     2
100
AcDbLine
 10
118.3087390641401
 20
95.15813393122295
 30
0.0
 11
121.8087390641401
 21
95.15813393122295
 31
0.0
  0
LINE
  5
1F0
330
67
100
AcDbEntity
  8
1
  6
Continuous
 62
     7
100
AcDbLine
 10
118.3087390641401
 20
75.32013393122298
 30
0.0
 11
121.8087390641401
 21
75.32013393122298
 31
0.0
  0
LINE
  5
1F1
330
67
100
AcDbEntity
  8
1
  6
Continuous
 62
     7
100
AcDbLine
 10
130.8087390641401
 20
110.820133931223
 30
0.0
 11
130.8087390641401
 21
109.320133931223
 31
0.0
  0
LINE
  5
1F2
330
67
100
AcDbEntity
  8
1
  6
Continuous
 62
     2
100
AcDbLine
 10
153.9957390641401
 20
110.820133931223
 30
0.0
 11
153.9957390641401
 21
109.320133931223
 31
0.0
  0
ARC
  5
1F3
330
67
100
AcDbEntity
  8
1
  6
Continuous
 62
     7
100
AcDbCircle
 10
142.8087390641401
 20
118.320133931223
 30
0.0
 40
45.00000000000007
100
AcDbArc
 50
256.9603964966861
 51
270.0
  0
ARC
  5
1F4
330
67
100
AcDbEntity
  8
1
  6
Continuous
 62
     7
100
AcDbCircle
 10
125.3087390641401
 20
42.75763393122259
 30
0.0
 40
32.56250000000033
100
AcDbArc
 50
76.96039649668609
 51
90.0
  0
ARC
  5
1F5
330
67
100
AcDbEntity
  8
1
  6
Continuous
 62
     7
100
AcDbCircle
 10
101.4506523377395
 20
193.820133931223
 30
0.0
 40
32.56250000000038
100
AcDbArc
 50
166.9603964966861
 51
180.0
  0
ARC
  5
1F6
330
67
100
AcDbEntity
  8
1
  6
Continuous
 62
     7
100
AcDbCircle
 10
90.88815233773906
 20
211.320133931223
 30
0.0
 40
45.00000000000011
100
AcDbArc
 50
188.7424414972306
 51
193.0396035033139
  0
ARC
  5
1F7
330
67
100
AcDbEntity
  8
1
  6
Continuous
 62
     7
100
AcDbCircle
 10
15.32565233773866
 20
193.820133931223
 30
0.0
 40
32.5625000000004
100
AcDbArc
 50
0.0
 51
13.03960350331393
  0
ARC
  5
1F8
330
67
100
AcDbEntity
  8
1
  6
Continuous
 62
     7
100
AcDbCircle
 10
25.88815233773906
 20
211.320133931223
 30
0.0
 40
45.00000000000006
100
AcDbArc
 50
346.9603964966861
 51
351.2575585027681
  0
SPLINE
  5
1F9
330
67
100
AcDbEntity
  8
1
  6
Continuous
 62
     7
100
AcDbSpline
210
0.0
220
0.0
230
1.0
 70
     8
 71
     3
 72
    33
 73
    29
 74
    27
 42
0.000000001
 43
0.0000000001
 44
0.00000001
 40
0.0
 40
0.0
 40
0.0
 40
0.0
 40
0.413356897987451
 40
0.8267148958293935
 40
1.047477426098018
 40
1.268240269860627
 40
1.504227365470597
 40
1.740225678003547
 40
2.001195134575637
 40
2.26213922674918
 40
2.573023660009566
 40
2.884147970269411
 40
3.395079508021681
 40
3.905704149328048
 40
4.367715773750052
 40
4.829727398172083
 40
5.340352039478456
 40
5.851283577230779
 40
6.162407887490599
 40
6.473292320750974
 40
6.734236412924517
 40
6.995205869496603
 40
7.231204182029548
 40
7.467191277639541
 40
7.687954121402052
 40
7.908716651670692
 40
8.322074649512562
 40
8.735431547500145
 40
8.735431547500145
 40
8.735431547500145
 40
8.735431547500145
 10
175.5476320652099
 20
100.8312409301532
 30
0.0
 10
175.6442485182998
 20
100.7329907290886
 30
0.0
 10
175.8374816713074
 20
100.5364900556006
 30
0.0
 10
176.0717586297235
 20
100.2774361916384
 30
0.0
 10
176.2568517067979
 20
100.0607533849717
 30
0.0
 10
176.399473586665
 20
99.88561838800332
 30
0.0
 10
176.540617988704
 20
99.7028216996139
 30
0.0
 10
176.6841263841343
 20
99.50504541656781
 30
0.0
 10
176.8254092734923
 20
99.29552937147362
 30
0.0
 10
176.9712400768951
 20
99.05923096139492
 30
0.0
 10
177.1134621870494
 20
98.80136040986639
 30
0.0
 10
177.2752884825748
 20
98.4598946263995
 30
0.0
 10
177.4284525509116
 20
98.04168782079944
 30
0.0
 10
177.5357472102204
 20
97.55710365296538
 30
0.0
 10
177.5690629944839
 20
97.07846418042067
 30
0.0
 10
177.5357472102203
 20
96.59982470787591
 30
0.0
 10
177.4284525509116
 20
96.1152405400419
 30
0.0
 10
177.2752884825748
 20
95.69703373444177
 30
0.0
 10
177.1134621870495
 20
95.35556795097486
 30
0.0
 10
176.971240076895
 20
95.09769739944637
 30
0.0
 10
176.8254092734923
 20
94.86139898936766
 30
0.0
 10
176.6841263841343
 20
94.6518829442735
 30
0.0
 10
176.5406179887041
 20
94.45410666122731
 30
0.0
 10
176.399473586665
 20
94.27130997283804
 30
0.0
 10
176.2568517067979
 20
94.09617497586956
 30
0.0
 10
176.0717586297236
 20
93.87949216920298
 30
0.0
 10
175.8374816713073
 20
93.62043830524075
 30
0.0
 10
175.6442485182998
 20
93.4239376317528
 30
0.0
 10
175.5476320652099
 20
93.3256874306881
 30
0.0
 11
175.5476320652099
 21
100.8312409301532
 31
0.0
 11
175.8353985401245
 21
100.534501341869
 31
0.0
 11
176.1129088149424
 21
100.2281471640174
 31
0.0
 11
176.2561888599073
 21
100.0601979943364
 31
0.0
 11
176.3955471898087
 21
99.8889803282629
 31
0.0
 11
176.5396775356709
 21
99.70212114917629
 31
0.0
 11
176.678185564675
 21
99.51104333902546
 31
0.0
 11
176.8239392985932
 21
99.29456953818179
 31
0.0
 11
176.9608239395413
 21
99.07241100367064
 31
0.0
 11
177.110589680952
 21
98.79997871161282
 31
0.0
 11
177.2434623144076
 21
98.51865469923828
 31
0.0
 11
177.4175998611515
 21
98.03831403705908
 31
0.0
 11
177.5261006892738
 21
97.53935001499302
 31
0.0
 11
177.5583340446379
 21
97.07846418042067
 31
0.0
 11
177.5261006892738
 21
96.61757834584829
 31
0.0
 11
177.4175998611515
 21
96.11861432378223
 31
0.0
 11
177.2434623144076
 21
95.63827366160297
 31
0.0
 11
177.110589680952
 21
95.35694964922844
 31
0.0
 11
176.9608239395413
 21
95.08451735717065
 31
0.0
 11
176.8239392985932
 21
94.8623588226595
 31
0.0
 11
176.678185564675
 21
94.64588502181581
 31
0.0
 11
176.5396775356709
 21
94.45480721166497
 31
0.0
 11
176.3955471898087
 21
94.26794803257837
 31
0.0
 11
176.2561888599074
 21
94.09673036650497
 31
0.0
 11
176.1129088149425
 21
93.92878119682392
 31
0.0
 11
175.8353985401246
 21
93.62242701897239
 31
0.0
 11
175.5476320652099
 21
93.3256874306881
 31
0.0
  0
SPLINE
  5
1FA
330
67
100
AcDbEntity
  8
1
  6
Continuous
 62
     7
100
AcDbSpline
210
0.0
220
0.0
230
1.0
 70
     8
 71
     3
 72
    33
 73
    29
 74
    27
 42
0.000000001
 43
0.0000000001
 44
0.00000001
 40
0.0
 40
0.0
 40
0.0
 40
0.0
 40
0.6660942065947836
 40
1.332190221276433
 40
1.699632942691395
 40
2.067077051446464
 40
2.470589211701813
 40
2.874107005745518
 40
3.334983197926061
 40
3.795855498283424
 40
4.367402400501931
 40
4.93905128805738
 40
5.929102488372025
 40
6.919199819071131
 40
7.841546050681685
 40
8.763892282292252
 40
9.75398961299139
 40
10.74404081330605
 40
11.31568970086149
 40
11.88723660308001
 40
12.34810890343735
 40
12.80898509561789
 40
13.21250288966159
 40
13.61601504991695
 40
13.98345915867203
 40
14.35090188008692
 40
15.01699789476859
 40
15.68309210136336
 40
15.68309210136336
 40
15.68309210136336
 40
15.68309210136336
 10
175.5476320652099
 20
93.3256874306881
 30
0.0
 10
175.6455699787043
 20
93.12641115255886
 30
0.0
 10
175.8414460583268
 20
92.72785804896735
 30
0.0
 10
176.0746415292973
 20
92.21141111869196
 30
0.0
 10
176.2580203781548
 20
91.78191573643375
 30
0.0
 10
176.4010733272859
 20
91.43042443270357
 30
0.0
 10
176.541994815104
 20
91.06514855906399
 30
0.0
 10
176.6860630562805
 20
90.66779462959798
 30
0.0
 10
176.8270804790926
 20
90.24910040600157
 30
0.0
 10
176.9737048260869
 20
89.77336371674247
 30
0.0
 10
177.115503518186
 20
89.25769735618529
 30
0.0
 10
177.2791367143279
 20
88.56555565234063
 30
0.0
 10
177.4312123298364
 20
87.7279399491231
 30
0.0
 10
177.5361540758659
 20
86.76526483096188
 30
0.0
 10
177.5695018420568
 20
85.82013393122295
 30
0.0
 10
177.536154075866
 20
84.87500303148407
 30
0.0
 10
177.4312123298363
 20
83.91232791332286
 30
0.0
 10
177.2791367143279
 20
83.07471221010522
 30
0.0
 10
177.1155035181859
 20
82.38257050626066
 30
0.0
 10
176.9737048260869
 20
81.86690414570344
 30
0.0
 10
176.8270804790925
 20
81.39116745644436
 30
0.0
 10
176.6860630562804
 20
80.97247323284799
 30
0.0
 10
176.5419948151041
 20
80.57511930338191
 30
0.0
 10
176.4010733272859
 20
80.20984342974236
 30
0.0
 10
176.2580203781547
 20
79.8583521260122
 30
0.0
 10
176.0746415292973
 20
79.42885674375397
 30
0.0
 10
175.8414460583268
 20
78.91240981347862
 30
0.0
 10
175.6455699787043
 20
78.5138567098871
 30
0.0
 10
175.5476320652099
 20
78.31458043175786
 30
0.0
 11
175.5476320652099
 21
93.3256874306881
 31
0.0
 11
175.8381720580889
 21
92.72629773612505
 31
0.0
 11
176.1129088149424
 21
92.1194998984164
 31
0.0
 11
176.2570590734447
 21
91.78151342436605
 31
0.0
 11
176.3955471898088
 21
91.44116622690737
 31
0.0
 11
176.5407109909482
 21
91.06466983321398
 31
0.0
 11
176.6781855646751
 21
90.68529224843256
 31
0.0
 11
176.8251870584553
 21
90.24848860200504
 31
0.0
 11
176.9608239395413
 21
89.80802757772283
 31
0.0
 11
177.112153188371
 21
89.25687848703029
 31
0.0
 11
177.2434623144076
 21
88.70051496885819
 31
0.0
 11
177.4196065679835
 21
87.72625905685531
 31
0.0
 11
177.5261006892738
 21
86.74190560036735
 31
0.0
 11
177.5586515990523
 21
85.82013393122298
 31
0.0
 11
177.5261006892738
 21
84.8983622620786
 31
0.0
 11
177.4196065679835
 21
83.91400880559061
 31
0.0
 11
177.2434623144075
 21
82.93975289358772
 31
0.0
 11
177.1121531883709
 21
82.38338937541563
 31
0.0
 11
176.9608239395413
 21
81.83224028472308
 31
0.0
 11
176.8251870584553
 21
81.3917792604409
 31
0.0
 11
176.678185564675
 21
80.95497561401339
 31
0.0
 11
176.5407109909482
 21
80.57559802923194
 31
0.0
 11
176.3955471898087
 21
80.19910163553855
 31
0.0
 11
176.2570590734447
 21
79.85875443807987
 31
0.0
 11
176.1129088149425
 21
79.52076796402957
 31
0.0
 11
175.8381720580889
 21
78.9139701263209
 31
0.0
 11
175.5476320652099
 21
78.31458043175786
 31
0.0
  0
SPLINE
  5
1FB
330
67
100
AcDbEntity
  8
1
  6
Continuous
 62
     7
100
AcDbSpline
210
0.0
220
0.0
230
1.0
 70
     8
 71
     3
 72
    33
 73
    29
 74
    27
 42
0.000000001
 43
0.0000000001
 44
0.00000001
 40
0.0
 40
0.0
 40
0.0
 40
0.0
 40
0.4133568979874816
 40
0.826714895829403
 40
1.047477426098017
 40
1.268240269860615
 40
1.504227365470574
 40
1.740225678003535
 40
2.001195134575649
 40
2.262139226749192
 40
2.573023660009566
 40
2.884147970269436
 40
3.395079508021693
 40
3.905704149328018
 40
4.367715773750051
 40
4.829727398172096
 40
5.34035203947851
 40
5.851283577230807
 40
6.162407887490613
 40
6.473292320751001
 40
6.734236412924544
 40
6.99520586949663
 40
7.231204182029563
 40
7.467191277639545
 40
7.68795412140209
 40
7.908716651670751
 40
8.322074649512665
 40
8.735431547500175
 40
8.735431547500175
 40
8.735431547500175
 40
8.735431547500175
 10
175.5476320652099
 20
70.80902693229274
 30
0.0
 10
175.6442485182998
 20
70.90727713335743
 30
0.0
 10
175.8374816713073
 20
71.1037778068453
 30
0.0
 10
176.0717586297236
 20
71.36283167080752
 30
0.0
 10
176.2568517067979
 20
71.57951447747423
 30
0.0
 10
176.399473586665
 20
71.75464947444263
 30
0.0
 10
176.540617988704
 20
71.93744616283199
 30
0.0
 10
176.6841263841343
 20
72.13522244587813
 30
0.0
 10
176.8254092734923
 20
72.34473849097233
 30
0.0
 10
176.971240076895
 20
72.58103690105104
 30
0.0
 10
177.1134621870495
 20
72.83890745257958
 30
0.0
 10
177.2752884825748
 20
73.18037323604645
 30
0.0
 10
177.4284525509116
 20
73.59858004164653
 30
0.0
 10
177.5357472102203
 20
74.08316420948056
 30
0.0
 10
177.5690629944839
 20
74.56180368202527
 30
0.0
 10
177.5357472102204
 20
75.04044315457003
 30
0.0
 10
177.4284525509116
 20
75.5250273224041
 30
0.0
 10
177.2752884825747
 20
75.94323412800418
 30
0.0
 10
177.1134621870495
 20
76.28469991147108
 30
0.0
 10
176.9712400768951
 20
76.54257046299959
 30
0.0
 10
176.8254092734923
 20
76.77886887307828
 30
0.0
 10
176.6841263841343
 20
76.98838491817247
 30
0.0
 10
176.540617988704
 20
77.18616120121865
 30
0.0
 10
176.399473586665
 20
77.36895788960791
 30
0.0
 10
176.256851706798
 20
77.5440928865764
 30
0.0
 10
176.0717586297236
 20
77.76077569324306
 30
0.0
 10
175.8374816713073
 20
78.0198295572053
 30
0.0
 10
175.6442485182999
 20
78.21633023069319
 30
0.0
 10
175.5476320652099
 20
78.31458043175786
 30
0.0
 11
175.5476320652099
 21
70.80902693229274
 31
0.0
 11
175.8353985401245
 21
71.10576652057694
 31
0.0
 11
176.1129088149424
 21
71.41212069842851
 31
0.0
 11
176.2561888599073
 21
71.58006986810958
 31
0.0
 11
176.3955471898087
 21
71.75128753418302
 31
0.0
 11
176.5396775356709
 21
71.93814671326962
 31
0.0
 11
176.678185564675
 21
72.12922452342046
 31
0.0
 11
176.8239392985932
 21
72.34569832426416
 31
0.0
 11
176.9608239395413
 21
72.56785685877531
 31
0.0
 11
177.110589680952
 21
72.84028915083312
 31
0.0
 11
177.2434623144076
 21
73.12161316320768
 31
0.0
 11
177.4175998611515
 21
73.60195382538687
 31
0.0
 11
177.5261006892738
 21
74.10091784745289
 31
0.0
 11
177.5583340446379
 21
74.56180368202527
 31
0.0
 11
177.5261006892738
 21
75.02268951659767
 31
0.0
 11
177.4175998611515
 21
75.52165353866377
 31
0.0
 11
177.2434623144076
 21
76.001994200843
 31
0.0
 11
177.110589680952
 21
76.28331821321751
 31
0.0
 11
176.9608239395413
 21
76.55575050527531
 31
0.0
 11
176.8239392985932
 21
76.77790903978646
 31
0.0
 11
176.678185564675
 21
76.99438284063015
 31
0.0
 11
176.5396775356709
 21
77.18546065078098
 31
0.0
 11
176.3955471898087
 21
77.37231982986756
 31
0.0
 11
176.2561888599074
 21
77.54353749594101
 31
0.0
 11
176.1129088149425
 21
77.71148666562209
 31
0.0
 11
175.8353985401246
 21
78.01784084347368
 31
0.0
 11
175.5476320652099
 21
78.31458043175786
 31
0.0
  0
SPLINE
  5
1FC
330
67
100
AcDbEntity
  8
1
  6
Continuous
 62
     7
100
AcDbSpline
210
0.0
220
0.0
230
1.0
 70
     8
 71
     3
 72
    33
 73
    29
 74
    27
 42
0.000000001
 43
0.0000000001
 44
0.00000001
 40
0.0
 40
0.0
 40
0.0
 40
0.0
 40
0.413356897987451
 40
0.8267148958293935
 40
1.047477426098073
 40
1.268240269860665
 40
1.504227365470634
 40
1.740225678003567
 40
2.001195134575658
 40
2.262139226749201
 40
2.573023660009587
 40
2.884147970269408
 40
3.395079508021668
 40
3.905704149328065
 40
4.367715773750065
 40
4.829727398172096
 40
5.340352039478494
 40
5.851283577230808
 40
6.162407887490604
 40
6.473292320750978
 40
6.734236412924522
 40
6.995205869496608
 40
7.231204182029553
 40
7.467191277639529
 40
7.687954121402094
 40
7.908716651670733
 40
8.322074649512604
 40
8.735431547500147
 40
8.735431547500147
 40
8.735431547500147
 40
8.735431547500147
 10
170.8087390641401
 20
100.8312409301532
 30
0.0
 10
170.7121226110502
 20
100.7329907290886
 30
0.0
 10
170.5188894580427
 20
100.5364900556006
 30
0.0
 10
170.2846124996264
 20
100.2774361916384
 30
0.0
 10
170.099519422552
 20
100.0607533849717
 30
0.0
 10
169.9568975426849
 20
99.88561838800327
 30
0.0
 10
169.8157531406461
 20
99.70282169961398
 30
0.0
 10
169.6722447452156
 20
99.50504541656777
 30
0.0
 10
169.5309618558577
 20
99.29552937147363
 30
0.0
 10
169.3851310524549
 20
99.05923096139489
 30
0.0
 10
169.2429089423006
 20
98.8013604098664
 30
0.0
 10
169.0810826467752
 20
98.45989462639947
 30
0.0
 10
168.9279185784386
 20
98.04168782079941
 30
0.0
 10
168.8206239191295
 20
97.55710365296538
 30
0.0
 10
168.7873081348662
 20
97.07846418042065
 30
0.0
 10
168.8206239191296
 20
96.59982470787592
 30
0.0
 10
168.9279185784386
 20
96.11524054004187
 30
0.0
 10
169.0810826467753
 20
95.69703373444185
 30
0.0
 10
169.2429089423005
 20
95.3555679509748
 30
0.0
 10
169.385131052455
 20
95.0976973994464
 30
0.0
 10
169.5309618558577
 20
94.86139898936766
 30
0.0
 10
169.6722447452157
 20
94.6518829442735
 30
0.0
 10
169.8157531406459
 20
94.45410666122731
 30
0.0
 10
169.9568975426851
 20
94.27130997283803
 30
0.0
 10
170.0995194225521
 20
94.0961749758696
 30
0.0
 10
170.2846124996264
 20
93.87949216920295
 30
0.0
 10
170.5188894580428
 20
93.62043830524075
 30
0.0
 10
170.7121226110501
 20
93.42393763175279
 30
0.0
 10
170.8087390641401
 20
93.3256874306881
 30
0.0
 11
170.8087390641401
 21
100.8312409301532
 31
0.0
 11
170.5209725892255
 21
100.534501341869
 31
0.0
 11
170.2434623144076
 21
100.2281471640174
 31
0.0
 11
170.1001822694426
 21
100.0601979943364
 31
0.0
 11
169.9608239395412
 21
99.8889803282629
 31
0.0
 11
169.8166935936791
 21
99.70212114917629
 31
0.0
 11
169.678185564675
 21
99.51104333902546
 31
0.0
 11
169.5324318307568
 21
99.29456953818179
 31
0.0
 11
169.3955471898087
 21
99.07241100367064
 31
0.0
 11
169.245781448398
 21
98.79997871161282
 31
0.0
 11
169.1129088149425
 21
98.51865469923828
 31
0.0
 11
168.9387712681986
 21
98.03831403705908
 31
0.0
 11
168.8302704400762
 21
97.53935001499302
 31
0.0
 11
168.798037084712
 21
97.07846418042067
 31
0.0
 11
168.8302704400762
 21
96.61757834584829
 31
0.0
 11
168.9387712681986
 21
96.11861432378223
 31
0.0
 11
169.1129088149425
 21
95.63827366160297
 31
0.0
 11
169.245781448398
 21
95.35694964922844
 31
0.0
 11
169.3955471898087
 21
95.08451735717065
 31
0.0
 11
169.5324318307568
 21
94.8623588226595
 31
0.0
 11
169.678185564675
 21
94.64588502181581
 31
0.0
 11
169.8166935936791
 21
94.45480721166497
 31
0.0
 11
169.9608239395413
 21
94.26794803257837
 31
0.0
 11
170.1001822694427
 21
94.09673036650497
 31
0.0
 11
170.2434623144076
 21
93.92878119682392
 31
0.0
 11
170.5209725892255
 21
93.62242701897239
 31
0.0
 11
170.8087390641401
 21
93.3256874306881
 31
0.0
  0
SPLINE
  5
1FD
330
67
100
AcDbEntity
  8
1
  6
Continuous
 62
     7
100
AcDbSpline
210
0.0
220
0.0
230
1.0
 70
     8
 71
     3
 72
    33
 73
    29
 74
    27
 42
0.000000001
 43
0.0000000001
 44
0.00000001
 40
0.0
 40
0.0
 40
0.0
 40
0.0
 40
0.6660942065947836
 40
1.332190221276433
 40
1.699632942691384
 40
2.067077051446453
 40
2.470589211701812
 40
2.874107005745478
 40
3.334983197926039
 40
3.795855498283427
 40
4.367402400501926
 40
4.939051288057362
 40
5.929102488372018
 40
6.919199819071121
 40
7.841546050681676
 40
8.763892282292245
 40
9.753989612991374
 40
10.74404081330605
 40
11.31568970086147
 40
11.88723660307998
 40
12.34810890343734
 40
12.80898509561789
 40
13.21250288966158
 40
13.61601504991693
 40
13.98345915867202
 40
14.35090188008694
 40
15.0169978947686
 40
15.68309210136336
 40
15.68309210136336
 40
15.68309210136336
 40
15.68309210136336
 10
170.8087390641401
 20
93.3256874306881
 30
0.0
 10
170.7108011506456
 20
93.12641115255886
 30
0.0
 10
170.5149250710232
 20
92.72785804896733
 30
0.0
 10
170.2817296000528
 20
92.211411118692
 30
0.0
 10
170.0983507511953
 20
91.78191573643375
 30
0.0
 10
169.9552978020642
 20
91.43042443270357
 30
0.0
 10
169.8143763142459
 20
91.06514855906403
 30
0.0
 10
169.6703080730696
 20
90.66779462959794
 30
0.0
 10
169.5292906502575
 20
90.24910040600159
 30
0.0
 10
169.3826663032631
 20
89.77336371674247
 30
0.0
 10
169.240867611164
 20
89.25769735618532
 30
0.0
 10
169.0772344150221
 20
88.56555565234063
 30
0.0
 10
168.9251587995136
 20
87.72793994912304
 30
0.0
 10
168.8202170534842
 20
86.76526483096187
 30
0.0
 10
168.7868692872931
 20
85.82013393122297
 30
0.0
 10
168.8202170534842
 20
84.87500303148408
 30
0.0
 10
168.9251587995136
 20
83.91232791332286
 30
0.0
 10
169.0772344150221
 20
83.07471221010529
 30
0.0
 10
169.240867611164
 20
82.3825705062606
 30
0.0
 10
169.3826663032631
 20
81.86690414570347
 30
0.0
 10
169.5292906502575
 20
81.39116745644435
 30
0.0
 10
169.6703080730696
 20
80.972473232848
 30
0.0
 10
169.8143763142459
 20
80.57511930338191
 30
0.0
 10
169.9552978020641
 20
80.20984342974236
 30
0.0
 10
170.0983507511953
 20
79.85835212601219
 30
0.0
 10
170.2817296000527
 20
79.428856743754
 30
0.0
 10
170.5149250710233
 20
78.9124098134786
 30
0.0
 10
170.7108011506457
 20
78.51385670988708
 30
0.0
 10
170.8087390641401
 20
78.31458043175786
 30
0.0
 11
170.8087390641401
 21
93.3256874306881
 31
0.0
 11
170.5181990712611
 21
92.72629773612505
 31
0.0
 11
170.2434623144076
 21
92.1194998984164
 31
0.0
 11
170.0993120559053
 21
91.78151342436605
 31
0.0
 11
169.9608239395413
 21
91.44116622690737
 31
0.0
 11
169.8156601384019
 21
91.06466983321398
 31
0.0
 11
169.678185564675
 21
90.68529224843256
 31
0.0
 11
169.5311840708947
 21
90.24848860200504
 31
0.0
 11
169.3955471898087
 21
89.80802757772283
 31
0.0
 11
169.244217940979
 21
89.25687848703029
 31
0.0
 11
169.1129088149425
 21
88.70051496885819
 31
0.0
 11
168.9367645613665
 21
87.72625905685531
 31
0.0
 11
168.8302704400762
 21
86.74190560036735
 31
0.0
 11
168.7977195302977
 21
85.82013393122298
 31
0.0
 11
168.8302704400762
 21
84.8983622620786
 31
0.0
 11
168.9367645613665
 21
83.91400880559061
 31
0.0
 11
169.1129088149425
 21
82.93975289358772
 31
0.0
 11
169.244217940979
 21
82.38338937541563
 31
0.0
 11
169.3955471898087
 21
81.83224028472308
 31
0.0
 11
169.5311840708947
 21
81.3917792604409
 31
0.0
 11
169.678185564675
 21
80.95497561401339
 31
0.0
 11
169.8156601384019
 21
80.57559802923194
 31
0.0
 11
169.9608239395413
 21
80.19910163553855
 31
0.0
 11
170.0993120559054
 21
79.85875443807987
 31
0.0
 11
170.2434623144076
 21
79.52076796402957
 31
0.0
 11
170.5181990712611
 21
78.9139701263209
 31
0.0
 11
170.8087390641401
 21
78.31458043175786
 31
0.0
  0
SPLINE
  5
1FE
330
67
100
AcDbEntity
  8
1
  6
Continuous
 62
     7
100
AcDbSpline
210
0.0
220
0.0
230
1.0
 70
     8
 71
     3
 72
    33
 73
    29
 74
    27
 42
0.000000001
 43
0.0000000001
 44
0.00000001
 40
0.0
 40
0.0
 40
0.0
 40
0.0
 40
0.4133568979875122
 40
0.8267148958294441
 40
1.047477426098113
 40
1.268240269860693
 40
1.504227365470652
 40
1.740225678003597
 40
2.001195134575711
 40
2.262139226749254
 40
2.573023660009627
 40
2.884147970269474
 40
3.395079508021721
 40
3.905704149328076
 40
4.367715773750104
 40
4.82972739817215
 40
5.340352039478589
 40
5.851283577230875
 40
6.162407887490658
 40
6.473292320751045
 40
6.734236412924588
 40
6.995205869496674
 40
7.231204182029607
 40
7.467191277639571
 40
7.68795412140217
 40
7.908716651670831
 40
8.322074649512745
 40
8.735431547500216
 40
8.735431547500216
 40
8.735431547500216
 40
8.735431547500216
 10
170.8087390641401
 20
70.80902693229268
 30
0.0
 10
170.7121226110501
 20
70.90727713335735
 30
0.0
 10
170.5188894580427
 20
71.10377780684532
 30
0.0
 10
170.2846124996265
 20
71.36283167080755
 30
0.0
 10
170.099519422552
 20
71.57951447747418
 30
0.0
 10
169.956897542685
 20
71.75464947444264
 30
0.0
 10
169.8157531406459
 20
71.93744616283196
 30
0.0
 10
169.6722447452157
 20
72.13522244587816
 30
0.0
 10
169.5309618558577
 20
72.34473849097233
 30
0.0
 10
169.385131052455
 20
72.58103690105106
 30
0.0
 10
169.2429089423005
 20
72.83890745257955
 30
0.0
 10
169.0810826467753
 20
73.18037323604646
 30
0.0
 10
168.9279185784386
 20
73.59858004164656
 30
0.0
 10
168.8206239191295
 20
74.08316420948054
 30
0.0
 10
168.7873081348661
 20
74.56180368202526
 30
0.0
 10
168.8206239191296
 20
75.04044315457006
 30
0.0
 10
168.9279185784385
 20
75.52502732240406
 30
0.0
 10
169.0810826467753
 20
75.94323412800418
 30
0.0
 10
169.2429089423005
 20
76.2846999114711
 30
0.0
 10
169.385131052455
 20
76.5425704629996
 30
0.0
 10
169.5309618558578
 20
76.77886887307828
 30
0.0
 10
169.6722447452156
 20
76.98838491817247
 30
0.0
 10
169.815753140646
 20
77.18616120121864
 30
0.0
 10
169.956897542685
 20
77.36895788960797
 30
0.0
 10
170.0995194225521
 20
77.54409288657637
 30
0.0
 10
170.2846124996264
 20
77.76077569324306
 30
0.0
 10
170.5188894580427
 20
78.01982955720533
 30
0.0
 10
170.7121226110502
 20
78.21633023069317
 30
0.0
 10
170.8087390641401
 20
78.31458043175786
 30
0.0
 11
170.8087390641401
 21
70.80902693229268
 31
0.0
 11
170.5209725892255
 21
71.10576652057692
 31
0.0
 11
170.2434623144076
 21
71.41212069842851
 31
0.0
 11
170.1001822694426
 21
71.58006986810958
 31
0.0
 11
169.9608239395412
 21
71.75128753418302
 31
0.0
 11
169.8166935936791
 21
71.93814671326962
 31
0.0
 11
169.678185564675
 21
72.12922452342046
 31
0.0
 11
169.5324318307568
 21
72.34569832426416
 31
0.0
 11
169.3955471898087
 21
72.56785685877531
 31
0.0
 11
169.245781448398
 21
72.84028915083312
 31
0.0
 11
169.1129088149425
 21
73.12161316320768
 31
0.0
 11
168.9387712681986
 21
73.60195382538687
 31
0.0
 11
168.8302704400762
 21
74.10091784745289
 31
0.0
 11
168.798037084712
 21
74.56180368202527
 31
0.0
 11
168.8302704400762
 21
75.02268951659767
 31
0.0
 11
168.9387712681986
 21
75.52165353866377
 31
0.0
 11
169.1129088149425
 21
76.001994200843
 31
0.0
 11
169.245781448398
 21
76.28331821321751
 31
0.0
 11
169.3955471898087
 21
76.55575050527531
 31
0.0
 11
169.5324318307568
 21
76.77790903978646
 31
0.0
 11
169.678185564675
 21
76.99438284063015
 31
0.0
 11
169.8166935936791
 21
77.18546065078098
 31
0.0
 11
169.9608239395413
 21
77.37231982986756
 31
0.0
 11
170.1001822694427
 21
77.54353749594101
 31
0.0
 11
170.2434623144076
 21
77.71148666562209
 31
0.0
 11
170.5209725892255
 21
78.01784084347368
 31
0.0
 11
170.8087390641401
 21
78.31458043175786
 31
0.0
  0
SPLINE
  5
1FF
330
67
100
AcDbEntity
  8
1
  6
Continuous
 62
     7
100
AcDbSpline
210
0.0
220
0.0
230
1.0
 70
     8
 71
     3
 72
    33
 73
    29
 74
    27
 42
0.000000001
 43
0.0000000001
 44
0.00000001
 40
0.0
 40
0.0
 40
0.0
 40
0.0
 40
0.5939249129344459
 40
1.18785159758934
 40
1.513819739508881
 40
1.839789279790025
 40
2.196317435514507
 40
2.552851932504484
 40
2.958199558378084
 40
3.363541509507801
 40
3.863542574906135
 40
4.363662703218021
 40
5.224160048598879
 40
6.084683374568865
 40
6.883623433991288
 40
7.682563493413742
 40
8.543086819383817
 40
9.403584164764661
 40
9.903704293076395
 40
10.40370535847473
 40
10.80904730960449
 40
11.21439493547818
 40
11.57092943246808
 40
11.92745758819249
 40
12.25342712847375
 40
12.57939527039338
 40
13.17332195504829
 40
13.76724686798268
 40
13.76724686798268
 40
13.76724686798268
 40
13.76724686798268
 10
58.38815233773906
 20
244.0590269322928
 30
0.0
 10
58.56034053259267
 20
244.1567505633059
 30
0.0
 10
58.90471744310574
 20
244.3521981040628
 30
0.0
 10
59.35223998313078
 20
244.5855855009963
 30
0.0
 10
59.72472719874881
 20
244.7692363364899
 30
0.0
 10
60.02897754496001
 20
244.9122291017663
 30
0.0
 10
60.34536912778652
 20
245.0531885883402
 30
0.0
 10
60.68927659389603
 20
245.197182571489
 30
0.0
 10
61.0519363896054
 20
245.3382441505916
 30
0.0
 10
61.46359295687189
 20
245.4847711353726
 30
0.0
 10
61.91022219103959
 20
245.6266362222199
 30
0.0
 10
62.50867300712824
 20
245.7900587332093
 30
0.0
 10
63.23405590503329
 20
245.9422679552319
 30
0.0
 10
64.06845097253712
 20
246.0475034477824
 30
0.0
 10
64.88815233773903
 20
246.0808632491449
 30
0.0
 10
65.70785370294094
 20
246.0475034477824
 30
0.0
 10
66.54224877044479
 20
245.9422679552318
 30
0.0
 10
67.26763166834982
 20
245.7900587332093
 30
0.0
 10
67.86608248443844
 20
245.6266362222199
 30
0.0
 10
68.31271171860604
 20
245.4847711353725
 30
0.0
 10
68.72436828587269
 20
245.3382441505917
 30
0.0
 10
69.08702808158202
 20
245.1971825714891
 30
0.0
 10
69.43093554769152
 20
245.0531885883402
 30
0.0
 10
69.74732713051802
 20
244.9122291017664
 30
0.0
 10
70.05157747672922
 20
244.7692363364898
 30
0.0
 10
70.42406469234737
 20
244.5855855009965
 30
0.0
 10
70.87158723237235
 20
244.3521981040627
 30
0.0
 10
71.2159641428855
 20
244.1567505633059
 30
0.0
 10
71.38815233773906
 20
244.0590269322928
 30
0.0
 11
58.38815233773906
 21
244.0590269322928
 31
0.0
 11
58.9064122676747
 21
244.3491190706239
 31
0.0
 11
59.43274138241443
 21
244.6243036820254
 31
0.0
 11
59.72516965141948
 21
244.7683208239707
 31
0.0
 11
60.02019557418348
 21
244.9069420568916
 31
0.0
 11
60.34590031534082
 21
245.0519549789251
 31
0.0
 11
60.67480164160241
 21
245.1895804317579
 31
0.0
 11
61.05262182766521
 21
245.3364089200821
 31
0.0
 11
61.43453513227944
 21
245.4722188066242
 31
0.0
 11
61.91114923232413
 21
245.6233481066028
 31
0.0
 11
62.39366918656793
 21
245.7548571814905
 31
0.0
 11
63.23599774231749
 21
245.930750008039
 31
0.0
 11
64.089874655771
 21
246.0374955563568
 31
0.0
 11
64.888152337739
 21
246.0700218808759
 31
0.0
 11
65.68643001970703
 21
246.0374955563567
 31
0.0
 11
66.54030693316064
 21
245.930750008039
 31
0.0
 11
67.38263548891017
 21
245.7548571814904
 31
0.0
 11
67.86515544315384
 21
245.6233481066029
 31
0.0
 11
68.34176954319851
 21
245.4722188066242
 31
0.0
 11
68.72368284781282
 21
245.3364089200822
 31
0.0
 11
69.1015030338757
 21
245.1895804317579
 31
0.0
 11
69.43040436013722
 21
245.0519549789251
 31
0.0
 11
69.7561091012945
 21
244.9069420568917
 31
0.0
 11
70.05113502405858
 21
244.7683208239707
 31
0.0
 11
70.34356329306372
 21
244.6243036820254
 31
0.0
 11
70.86989240780345
 21
244.3491190706238
 31
0.0
 11
71.38815233773906
 21
244.0590269322928
 31
0.0
  0
SPLINE
  5
200
330
67
100
AcDbEntity
  8
1
  6
Continuous
 62
     7
100
AcDbSpline
210
0.0
220
0.0
230
1.0
 70
     8
 71
     3
 72
    33
 73
    29
 74
    27
 42
0.000000001
 43
0.0000000001
 44
0.00000001
 40
0.0
 40
0.0
 40
0.0
 40
0.0
 40
0.5939249129344182
 40
1.187851597589312
 40
1.513819739508841
 40
1.839789279790033
 40
2.196317435514503
 40
2.55285193250447
 40
2.958199558378091
 40
3.363541509507798
 40
3.863542574906141
 40
4.363662703217996
 40
5.224160048598844
 40
6.084683374568836
 40
6.883623433991261
 40
7.682563493413712
 40
8.543086819383783
 40
9.403584164764627
 40
9.903704293076375
 40
10.40370535847471
 40
10.8090473096045
 40
11.21439493547819
 40
11.57092943246809
 40
11.92745758819251
 40
12.25342712847374
 40
12.57939527039336
 40
13.17332195504825
 40
13.76724686798264
 40
13.76724686798264
 40
13.76724686798264
 40
13.76724686798264
 10
58.38815233773906
 20
239.320133931223
 30
0.0
 10
58.56034053259265
 20
239.2224103002099
 30
0.0
 10
58.90471744310575
 20
239.0269627594531
 30
0.0
 10
59.35223998313077
 20
238.7935753625194
 30
0.0
 10
59.72472719874885
 20
238.6099245270261
 30
0.0
 10
60.02897754495996
 20
238.4669317617494
 30
0.0
 10
60.34536912778653
 20
238.3259722751757
 30
0.0
 10
60.68927659389605
 20
238.1819782920269
 30
0.0
 10
61.05193638960536
 20
238.0409167129241
 30
0.0
 10
61.4635929568719
 20
237.8943897281431
 30
0.0
 10
61.91022219103958
 20
237.7525246412959
 30
0.0
 10
62.50867300712827
 20
237.5891021303067
 30
0.0
 10
63.23405590503331
 20
237.4368929082841
 30
0.0
 10
64.06845097253712
 20
237.3316574157335
 30
0.0
 10
64.88815233773902
 20
237.298297614371
 30
0.0
 10
65.70785370294092
 20
237.3316574157335
 30
0.0
 10
66.54224877044479
 20
237.4368929082839
 30
0.0
 10
67.26763166834982
 20
237.5891021303065
 30
0.0
 10
67.86608248443844
 20
237.752524641296
 30
0.0
 10
68.31271171860607
 20
237.8943897281432
 30
0.0
 10
68.72436828587263
 20
238.0409167129241
 30
0.0
 10
69.08702808158203
 20
238.1819782920269
 30
0.0
 10
69.43093554769152
 20
238.3259722751758
 30
0.0
 10
69.74732713051797
 20
238.4669317617494
 30
0.0
 10
70.05157747672928
 20
238.6099245270261
 30
0.0
 10
70.42406469234733
 20
238.7935753625193
 30
0.0
 10
70.87158723237238
 20
239.0269627594531
 30
0.0
 10
71.21596414288548
 20
239.2224103002099
 30
0.0
 10
71.38815233773906
 20
239.320133931223
 30
0.0
 11
58.38815233773906
 21
239.320133931223
 31
0.0
 11
58.9064122676747
 21
239.030041792892
 31
0.0
 11
59.43274138241443
 21
238.7548571814905
 31
0.0
 11
59.72516965141948
 21
238.6108400395452
 31
0.0
 11
60.02019557418348
 21
238.4722188066242
 31
0.0
 11
60.34590031534082
 21
238.3272058845907
 31
0.0
 11
60.67480164160241
 21
238.1895804317579
 31
0.0
 11
61.05262182766521
 21
238.0427519434337
 31
0.0
 11
61.43453513227944
 21
237.9069420568916
 31
0.0
 11
61.91114923232413
 21
237.7558127569129
 31
0.0
 11
62.39366918656793
 21
237.6243036820254
 31
0.0
 11
63.23599774231749
 21
237.4484108554769
 31
0.0
 11
64.089874655771
 21
237.3416653071591
 31
0.0
 11
64.888152337739
 21
237.3091389826399
 31
0.0
 11
65.68643001970703
 21
237.3416653071591
 31
0.0
 11
66.54030693316064
 21
237.4484108554768
 31
0.0
 11
67.38263548891017
 21
237.6243036820254
 31
0.0
 11
67.86515544315384
 21
237.755812756913
 31
0.0
 11
68.34176954319851
 21
237.9069420568916
 31
0.0
 11
68.72368284781282
 21
238.0427519434337
 31
0.0
 11
69.1015030338757
 21
238.189580431758
 31
0.0
 11
69.43040436013722
 21
238.3272058845908
 31
0.0
 11
69.7561091012945
 21
238.4722188066243
 31
0.0
 11
70.05113502405858
 21
238.6108400395451
 31
0.0
 11
70.34356329306372
 21
238.7548571814905
 31
0.0
 11
70.86989240780345
 21
239.030041792892
 31
0.0
 11
71.38815233773906
 21
239.320133931223
 31
0.0
  0
SPLINE
  5
201
330
67
100
AcDbEntity
  8
1
  6
Continuous
 62
     7
100
AcDbSpline
210
0.0
220
0.0
230
1.0
 70
     8
 71
     3
 72
    33
 73
    29
 74
    27
 42
0.000000001
 43
0.0000000001
 44
0.00000001
 40
0.0
 40
0.0
 40
0.0
 40
0.0
 40
0.5939249129344121
 40
1.187851597589299
 40
1.513819739508879
 40
1.839789279790103
 40
2.196317435514535
 40
2.552851932504455
 40
2.958199558378063
 40
3.363541509507777
 40
3.863542574906161
 40
4.363662703217989
 40
5.224160048598843
 40
6.084683374568829
 40
6.883623433991254
 40
7.682563493413719
 40
8.543086819383811
 40
9.403584164764649
 40
9.90370429307637
 40
10.40370535847469
 40
10.80904730960449
 40
11.21439493547822
 40
11.57092943246815
 40
11.92745758819255
 40
12.25342712847376
 40
12.57939527039338
 40
13.17332195504825
 40
13.76724686798264
 40
13.76724686798264
 40
13.76724686798264
 40
13.76724686798264
 10
58.38815233773906
 20
239.320133931223
 30
0.0
 10
58.21596414288545
 20
239.2224103002099
 30
0.0
 10
57.87158723237237
 20
239.0269627594532
 30
0.0
 10
57.42406469234734
 20
238.7935753625193
 30
0.0
 10
57.05157747672922
 20
238.6099245270261
 30
0.0
 10
56.74732713051809
 20
238.4669317617494
 30
0.0
 10
56.43093554769158
 20
238.3259722751757
 30
0.0
 10
56.08702808158205
 20
238.1819782920268
 30
0.0
 10
55.72436828587277
 20
238.0409167129241
 30
0.0
 10
55.31271171860622
 20
237.8943897281432
 30
0.0
 10
54.86608248443854
 20
237.7525246412958
 30
0.0
 10
54.26763166834986
 20
237.5891021303066
 30
0.0
 10
53.54224877044482
 20
237.4368929082841
 30
0.0
 10
52.70785370294099
 20
237.3316574157336
 30
0.0
 10
51.88815233773911
 20
237.2982976143709
 30
0.0
 10
51.06845097253719
 20
237.3316574157336
 30
0.0
 10
50.23405590503329
 20
237.4368929082839
 30
0.0
 10
49.50867300712828
 20
237.5891021303065
 30
0.0
 10
48.91022219103968
 20
237.7525246412958
 30
0.0
 10
48.46359295687208
 20
237.8943897281434
 30
0.0
 10
48.05193638960544
 20
238.0409167129241
 30
0.0
 10
47.68927659389607
 20
238.1819782920269
 30
0.0
 10
47.34536912778654
 20
238.3259722751757
 30
0.0
 10
47.02897754496009
 20
238.4669317617496
 30
0.0
 10
46.72472719874884
 20
238.609924527026
 30
0.0
 10
46.35223998313075
 20
238.7935753625193
 30
0.0
 10
45.90471744310574
 20
239.0269627594532
 30
0.0
 10
45.56034053259264
 20
239.2224103002099
 30
0.0
 10
45.38815233773906
 20
239.320133931223
 30
0.0
 11
58.38815233773906
 21
239.320133931223
 31
0.0
 11
57.86989240780343
 21
239.030041792892
 31
0.0
 11
57.3435632930637
 21
238.7548571814905
 31
0.0
 11
57.05113502405859
 21
238.6108400395452
 31
0.0
 11
56.75610910129456
 21
238.4722188066242
 31
0.0
 11
56.43040436013726
 21
238.3272058845907
 31
0.0
 11
56.10150303387572
 21
238.1895804317579
 31
0.0
 11
55.72368284781293
 21
238.0427519434337
 31
0.0
 11
55.3417695431987
 21
237.9069420568916
 31
0.0
 11
54.86515544315397
 21
237.7558127569129
 31
0.0
 11
54.38263548891019
 21
237.6243036820254
 31
0.0
 11
53.54030693316063
 21
237.4484108554769
 31
0.0
 11
52.68643001970713
 21
237.3416653071591
 31
0.0
 11
51.88815233773912
 21
237.3091389826399
 31
0.0
 11
51.08987465577107
 21
237.3416653071591
 31
0.0
 11
50.23599774231746
 21
237.4484108554768
 31
0.0
 11
49.39366918656793
 21
237.6243036820254
 31
0.0
 11
48.91114923232428
 21
237.755812756913
 31
0.0
 11
48.43453513227963
 21
237.9069420568916
 31
0.0
 11
48.0526218276653
 21
238.0427519434337
 31
0.0
 11
47.67480164160238
 21
238.189580431758
 31
0.0
 11
47.34590031534084
 21
238.3272058845908
 31
0.0
 11
47.02019557418357
 21
238.4722188066243
 31
0.0
 11
46.72516965141951
 21
238.6108400395451
 31
0.0
 11
46.43274138241438
 21
238.7548571814905
 31
0.0
 11
45.90641226767466
 21
239.030041792892
 31
0.0
 11
45.38815233773906
 21
239.320133931223
 31
0.0
  0
SPLINE
  5
202
330
67
100
AcDbEntity
  8
1
  6
Continuous
 62
     7
100
AcDbSpline
210
0.0
220
0.0
230
1.0
 70
     8
 71
     3
 72
    33
 73
    29
 74
    27
 42
0.000000001
 43
0.0000000001
 44
0.00000001
 40
0.0
 40
0.0
 40
0.0
 40
0.0
 40
0.5939249129344398
 40
1.187851597589327
 40
1.51381973950892
 40
1.839789279790095
 40
2.196317435514539
 40
2.55285193250447
 40
2.958199558378057
 40
3.363541509507781
 40
3.863542574906155
 40
4.363662703218013
 40
5.224160048598878
 40
6.084683374568858
 40
6.883623433991281
 40
7.682563493413749
 40
8.543086819383845
 40
9.403584164764682
 40
9.903704293076387
 40
10.4037053584747
 40
10.80904730960448
 40
11.21439493547821
 40
11.57092943246814
 40
11.92745758819253
 40
12.25342712847377
 40
12.57939527039339
 40
13.17332195504829
 40
13.76724686798268
 40
13.76724686798268
 40
13.76724686798268
 40
13.76724686798268
 10
58.38815233773906
 20
244.0590269322928
 30
0.0
 10
58.21596414288547
 20
244.1567505633059
 30
0.0
 10
57.87158723237238
 20
244.3521981040628
 30
0.0
 10
57.42406469234733
 20
244.5855855009965
 30
0.0
 10
57.05157747672927
 20
244.7692363364898
 30
0.0
 10
56.74732713051803
 20
244.9122291017663
 30
0.0
 10
56.43093554769159
 20
245.0531885883402
 30
0.0
 10
56.08702808158208
 20
245.197182571489
 30
0.0
 10
55.72436828587276
 20
245.3382441505916
 30
0.0
 10
55.31271171860622
 20
245.4847711353727
 30
0.0
 10
54.86608248443851
 20
245.6266362222198
 30
0.0
 10
54.2676316683499
 20
245.7900587332094
 30
0.0
 10
53.54224877044481
 20
245.9422679552318
 30
0.0
 10
52.70785370294099
 20
246.0475034477824
 30
0.0
 10
51.88815233773911
 20
246.0808632491448
 30
0.0
 10
51.06845097253719
 20
246.0475034477823
 30
0.0
 10
50.23405590503332
 20
245.9422679552319
 30
0.0
 10
49.50867300712829
 20
245.7900587332093
 30
0.0
 10
48.91022219103968
 20
245.6266362222199
 30
0.0
 10
48.46359295687211
 20
245.4847711353725
 30
0.0
 10
48.05193638960542
 20
245.3382441505918
 30
0.0
 10
47.68927659389606
 20
245.197182571489
 30
0.0
 10
47.34536912778656
 20
245.0531885883402
 30
0.0
 10
47.02897754496004
 20
244.9122291017664
 30
0.0
 10
46.72472719874887
 20
244.7692363364899
 30
0.0
 10
46.35223998313073
 20
244.5855855009964
 30
0.0
 10
45.90471744310575
 20
244.3521981040628
 30
0.0
 10
45.56034053259264
 20
244.1567505633058
 30
0.0
 10
45.38815233773906
 20
244.0590269322928
 30
0.0
 11
58.38815233773906
 21
244.0590269322928
 31
0.0
 11
57.86989240780343
 21
244.3491190706239
 31
0.0
 11
57.3435632930637
 21
244.6243036820254
 31
0.0
 11
57.05113502405859
 21
244.7683208239707
 31
0.0
 11
56.75610910129456
 21
244.9069420568916
 31
0.0
 11
56.43040436013726
 21
245.0519549789251
 31
0.0
 11
56.10150303387572
 21
245.1895804317579
 31
0.0
 11
55.72368284781293
 21
245.3364089200821
 31
0.0
 11
55.3417695431987
 21
245.4722188066242
 31
0.0
 11
54.86515544315397
 21
245.6233481066028
 31
0.0
 11
54.38263548891019
 21
245.7548571814905
 31
0.0
 11
53.54030693316063
 21
245.930750008039
 31
0.0
 11
52.68643001970713
 21
246.0374955563568
 31
0.0
 11
51.88815233773912
 21
246.0700218808759
 31
0.0
 11
51.08987465577107
 21
246.0374955563567
 31
0.0
 11
50.23599774231746
 21
245.930750008039
 31
0.0
 11
49.39366918656793
 21
245.7548571814904
 31
0.0
 11
48.91114923232428
 21
245.6233481066029
 31
0.0
 11
48.43453513227963
 21
245.4722188066242
 31
0.0
 11
48.0526218276653
 21
245.3364089200822
 31
0.0
 11
47.67480164160238
 21
245.1895804317579
 31
0.0
 11
47.34590031534084
 21
245.0519549789251
 31
0.0
 11
47.02019557418357
 21
244.9069420568917
 31
0.0
 11
46.72516965141951
 21
244.7683208239707
 31
0.0
 11
46.43274138241438
 21
244.6243036820254
 31
0.0
 11
45.90641226767466
 21
244.3491190706238
 31
0.0
 11
45.38815233773906
 21
244.0590269322928
 31
0.0
  0
ARC
  5
203
330
67
100
AcDbEntity
  8
1
  6
Continuous
 62
     7
100
AcDbCircle
 10
160.3087390641401
 20
103.320133931223
 30
0.0
 40
5.0
100
AcDbArc
 50
180.0
 51
270.0
  0
ARC
  5
204
330
67
100
AcDbEntity
  8
1
  6
Continuous
 62
     7
100
AcDbCircle
 10
166.2265642533444
 20
103.320133931223
 30
0.0
 40
5.000000000000014
100
AcDbArc
 50
270.0
 51
314.9999999999997
  0
ARC
  5
205
330
67
100
AcDbEntity
  8
1
  6
Continuous
 62
     7
100
AcDbCircle
 10
166.2265642533444
 20
68.32013393122298
 30
0.0
 40
4.99999999999998
100
AcDbArc
 50
44.99999999999885
 51
90.0
  0
ARC
  5
206
330
67
100
AcDbEntity
  8
1
  6
Continuous
 62
     7
100
AcDbCircle
 10
125.3087390641401
 20
101.320133931223
 30
0.0
 40
5.000000000000014
100
AcDbArc
 50
270.0
 51
0.0
  0
ARC
  5
207
330
67
100
AcDbEntity
  8
1
  6
Continuous
 62
     7
100
AcDbCircle
 10
75.88815233773906
 20
234.7379591204273
 30
0.0
 40
4.999999999999989
100
AcDbArc
 50
154.1580672368331
 51
180.0
  0
ARC
  5
208
330
67
100
AcDbEntity
  8
1
  6
Continuous
 62
     7
100
AcDbCircle
 10
40.88815233773906
 20
234.7379591204273
 30
0.0
 40
5.0
100
AcDbArc
 50
0.0
 51
25.8419327631657
  0
ENDBLK
  5
69
330
67
100
AcDbEntity
  8
0
100
AcDbBlockEnd
  0
BLOCK
  5
230
330
229
100
AcDbEntity
  8
0
100
AcDbBlockBegin
  2
*D11
 70
     1
 10
0.0
 20
0.0
 30
0.0
  3
*D11
  1

  0
LINE
  5
22A
330
229
100
AcDbEntity
  8
1
  6
Continuous
 62
     2
100
AcDbLine
 10
112.80873906414
 20
60.80902693229263
 30
0.0
 11
142.80873906414
 21
60.80902693229263
 31
0.0
  0
LINE
  5
22B
330
229
100
AcDbEntity
  8
1
  6
Continuous
 62
     2
100
AcDbLine
 10
142.8087390641401
 20
69.77558402192058
 30
0.0
 11
142.8087390641401
 21
59.80902693229263
 31
0.0
  0
LINE
  5
22C
330
229
100
AcDbEntity
  8
1
  6
Continuous
 62
     2
100
AcDbLine
 10
112.8087390641401
 20
73.3305551229412
 30
0.0
 11
112.8087390641401
 21
59.80902693229263
 31
0.0
  0
SOLID
  5
22D
330
229
100
AcDbEntity
  8
1
 62
     2
100
AcDbTrace
 10
116.30873906414
 20
61.26981067384852
 30
0.0
 11
116.30873906414
 21
60.34824319073675
 31
0.0
 12
112.80873906414
 22
60.80902693229263
 32
0.0
 13
112.80873906414
 23
60.80902693229263
 33
0.0
  0
SOLID
  5
22E
330
229
100
AcDbEntity
  8
1
 62
     2
100
AcDbTrace
 10
139.30873906414
 20
60.34824319073675
 30
0.0
 11
139.30873906414
 21
61.26981067384852
 31
0.0
 12
142.80873906414
 22
60.80902693229263
 32
0.0
 13
142.80873906414
 23
60.80902693229263
 33
0.0
  0
MTEXT
  5
22F
330
229
100
AcDbEntity
  8
1
 62
     7
100
AcDbMText
 10
125.1837390641401
 20
61.80902693229263
 30
0.0
 40
3.5
 41
0.0
 71
     7
 72
     1
  1
30
  7
CONVERTER_12
 11
0.9999999999970619
 21
2.424068405545306E-6
 31
0.0
 73
     1
 44
0.60024009603842
  0
ENDBLK
  5
231
330
229
100
AcDbEntity
  8
0
100
AcDbBlockEnd
  0
BLOCK
  5
23B
330
234
100
AcDbEntity
  8
0
100
AcDbBlockBegin
  2
*D12
 70
     1
 10
0.0
 20
0.0
 30
0.0
  3
*D12
  1

  0
LINE
  5
235
330
234
100
AcDbEntity
  8
0
  6
Continuous
 62
     2
100
AcDbLine
 10
96.3087390641401
 20
85.82013393122301
 30
0.0
 11
96.3087390641401
 21
142.620133931223
 31
0.0
  0
LINE
  5
236
330
234
100
AcDbEntity
  8
0
  6
Continuous
 62
     2
100
AcDbLine
 10
142.8087390641401
 20
142.620133931223
 30
0.0
 11
95.3087390641401
 21
142.620133931223
 31
0.0
  0
LINE
  5
237
330
234
100
AcDbEntity
  8
0
  6
Continuous
 62
     2
100
AcDbLine
 10
104.8087390641401
 20
85.82013393122301
 30
0.0
 11
95.3087390641401
 21
85.82013393122301
 31
0.0
  0
SOLID
  5
238
330
234
100
AcDbEntity
  8
0
 62
     2
100
AcDbTrace
 10
95.84795532258421
 20
89.32013393122301
 30
0.0
 11
96.76952280569598
 21
89.32013393122301
 31
0.0
 12
96.3087390641401
 22
85.82013393122301
 32
0.0
 13
96.3087390641401
 23
85.82013393122301
 33
0.0
  0
SOLID
  5
239
330
234
100
AcDbEntity
  8
0
 62
     2
100
AcDbTrace
 10
96.76952280569598
 20
139.120133931223
 30
0.0
 11
95.84795532258421
 21
139.120133931223
 31
0.0
 12
96.3087390641401
 22
142.620133931223
 32
0.0
 13
96.3087390641401
 23
142.620133931223
 33
0.0
  0
MTEXT
  5
23A
330
234
100
AcDbEntity
  8
0
 62
     7
100
AcDbMText
 10
95.3087390641401
 20
104.770133931223
 30
0.0
 40
3.5
 41
0.0
 71
     7
 72
     1
  1
57リフト5
  7
CONVERTER_11
 11
0.0
 21
1.0
 31
0.0
 73
     1
 44
0.45454545454545
  0
ENDBLK
  5
23C
330
234
100
AcDbEntity
  8
0
100
AcDbBlockEnd
  0
BLOCK
  5
246
330
23F
100
AcDbEntity
  8
0
100
AcDbBlockBegin
  2
*D13
 70
     1
 10
0.0
 20
0.0
 30
0.0
  3
*D13
  1

  0
LINE
  5
240
330
23F
100
AcDbEntity
  8
1
  6
Continuous
 62
     2
100
AcDbLine
 10
142.8087390641401
 20
60.80902693229274
 30
0.0
 11
177.8087390641401
 21
60.80902693229274
 31
0.0
  0
LINE
  5
241
330
23F
100
AcDbEntity
  8
1
  6
Continuous
 62
     2
100
AcDbLine
 10
177.8087390641401
 20
73.07013393122298
 30
0.0
 11
177.8087390641401
 21
59.80902693229274
 31
0.0
  0
LINE
  5
242
330
23F
100
AcDbEntity
  8
1
  6
Continuous
 62
     2
100
AcDbLine
 10
142.8087390641401
 20
70.32013393122298
 30
0.0
 11
142.8087390641401
 21
59.80902693229274
 31
0.0
  0
SOLID
  5
243
330
23F
100
AcDbEntity
  8
1
 62
     2
100
AcDbTrace
 10
146.3087390641401
 20
61.26981067384862
 30
0.0
 11
146.3087390641401
 21
60.34824319073685
 31
0.0
 12
142.8087390641401
 22
60.80902693229274
 32
0.0
 13
142.8087390641401
 23
60.80902693229274
 33
0.0
  0
SOLID
  5
244
330
23F
100
AcDbEntity
  8
1
 62
     2
100
AcDbTrace
 10
174.3087390641401
 20
60.34824319073685
 30
0.0
 11
174.3087390641401
 21
61.26981067384862
 31
0.0
 12
177.8087390641401
 22
60.80902693229274
 32
0.0
 13
177.8087390641401
 23
60.80902693229274
 33
0.0
  0
MTEXT
  5
245
330
23F
100
AcDbEntity
  8
1
 62
     7
100
AcDbMText
 10
157.258120291181
 20
61.80902693229274
 30
0.0
 40
3.5
 41
0.0
 71
     7
 72
     1
  1
35
  7
CONVERTER_12
 11
0.9999999999970619
 21
2.424068405545306E-6
 31
0.0
 73
     1
 44
0.60024009603842
  0
ENDBLK
  5
247
330
23F
100
AcDbEntity
  8
0
100
AcDbBlockEnd
  0
BLOCK
  5
251
330
24A
100
AcDbEntity
  8
0
100
AcDbBlockBegin
  2
*D14
 70
     1
 10
0.0
 20
0.0
 30
0.0
  3
*D14
  1

  0
LINE
  5
24B
330
24A
100
AcDbEntity
  8
1
  6
Continuous
 62
     2
100
AcDbLine
 10
106.3087390641401
 20
52.80902693229274
 30
0.0
 11
177.8087390641401
 21
52.80902693229274
 31
0.0
  0
LINE
  5
24C
330
24A
100
AcDbEntity
  8
1
  6
Continuous
 62
     2
100
AcDbLine
 10
177.8087390641401
 20
73.07013393122298
 30
0.0
 11
177.8087390641401
 21
51.80902693229274
 31
0.0
  0
LINE
  5
24D
330
24A
100
AcDbEntity
  8
1
  6
Continuous
 62
     2
100
AcDbLine
 10
106.3087390641401
 20
74.92782908580972
 30
0.0
 11
106.3087390641401
 21
51.80902693229274
 31
0.0
  0
SOLID
  5
24E
330
24A
100
AcDbEntity
  8
1
 62
     2
100
AcDbTrace
 10
109.8087390641401
 20
53.26981067384862
 30
0.0
 11
109.8087390641401
 21
52.34824319073685
 31
0.0
 12
106.3087390641401
 22
52.80902693229274
 32
0.0
 13
106.3087390641401
 23
52.80902693229274
 33
0.0
  0
SOLID
  5
24F
330
24A
100
AcDbEntity
  8
1
 62
     2
100
AcDbTrace
 10
174.3087390641401
 20
52.34824319073685
 30
0.0
 11
174.3087390641401
 21
53.26981067384862
 31
0.0
 12
177.8087390641401
 22
52.80902693229274
 32
0.0
 13
177.8087390641401
 23
52.80902693229274
 33
0.0
  0
MTEXT
  5
250
330
24A
100
AcDbEntity
  8
1
 62
     7
100
AcDbMText
 10
140.398394849143
 20
53.80902693229274
 30
0.0
 40
3.5
 41
0.0
 71
     7
 72
     1
  1
72
  7
CONVERTER_12
 11
0.9999999999970619
 21
2.424068405545306E-6
 31
0.0
 73
     1
 44
0.60024009603842
  0
ENDBLK
  5
252
330
24A
100
AcDbEntity
  8
0
100
AcDbBlockEnd
  0
BLOCK
  5
25C
330
255
100
AcDbEntity
  8
0
100
AcDbBlockBegin
  2
*D15
 70
     1
 10
0.0
 20
0.0
 30
0.0
  3
*D15
  1

  0
LINE
  5
256
330
255
100
AcDbEntity
  8
1
  6
Continuous
 62
     2
100
AcDbLine
 10
45.38815233773905
 20
256.320133931223
 30
0.0
 11
71.38815233773906
 21
256.320133931223
 31
0.0
  0
LINE
  5
257
330
255
100
AcDbEntity
  8
1
  6
Continuous
 62
     2
100
AcDbLine
 10
71.38815233773906
 20
246.070133931223
 30
0.0
 11
71.38815233773906
 21
257.320133931223
 31
0.0
  0
LINE
  5
258
330
255
100
AcDbEntity
  8
1
  6
Continuous
 62
     2
100
AcDbLine
 10
45.38815233773905
 20
246.070133931223
 30
0.0
 11
45.38815233773905
 21
257.320133931223
 31
0.0
  0
SOLID
  5
259
330
255
100
AcDbEntity
  8
1
 62
     2
100
AcDbTrace
 10
48.88815233773905
 20
256.7809176727789
 30
0.0
 11
48.88815233773905
 21
255.8593501896671
 31
0.0
 12
45.38815233773905
 22
256.320133931223
 32
0.0
 13
45.38815233773905
 23
256.320133931223
 33
0.0
  0
SOLID
  5
25A
330
255
100
AcDbEntity
  8
1
 62
     2
100
AcDbTrace
 10
67.88815233773906
 20
255.8593501896671
 30
0.0
 11
67.88815233773906
 21
256.7809176727789
 31
0.0
 12
71.38815233773906
 22
256.320133931223
 32
0.0
 13
71.38815233773906
 23
256.320133931223
 33
0.0
  0
MTEXT
  5
25B
330
255
100
AcDbEntity
  8
1
 62
     7
100
AcDbMText
 10
56.0128115123694
 20
257.320133931223
 30
0.0
 40
3.5
 41
0.0
 71
     7
 72
     1
  1
26
  7
CONVERTER_12
 11
0.9999999999970619
 21
2.424068405545306E-6
 31
0.0
 73
     1
 44
0.60024009603842
  0
ENDBLK
  5
25D
330
255
100
AcDbEntity
  8
0
100
AcDbBlockEnd
  0
ENDSEC
  0
SECTION
  2
ENTITIES
  0
INSERT
  5
6A
330
1F
100
AcDbEntity
  8
1
100
AcDbBlockReference
  2
R10A-13
 10
123.3087390641401
 20
93.82013393122298
 30
0.0
  0
INSERT
  5
6B
330
1F
100
AcDbEntity
  8
0
100
AcDbBlockReference
  2
32-12-M2
 10
64.39160119897362
 20
48.01301510926793
 30
0.0
  0
INSERT
  5
6C
330
1F
100
AcDbEntity
  8
1
100
AcDbBlockReference
  2
開示A4
 10
0.0
 20
0.0
 30
0.0
  0
INSERT
  5
6D
330
1F
100
AcDbEntity
  8
1
100
AcDbBlockReference
  2
V21-2-0A-13-_表面処理_
 10
210.0
 20
297.0
 30
0.0
  0
INSERT
  5
6E
330
1F
100
AcDbEntity
  8
1
100
AcDbBlockReference
  2
V21-2-0A
 10
200.0
 20
148.5
 30
0.0
  0
LINE
  5
209
330
1F
100
AcDbEntity
  8
1
  6
Continuous
 62
     7
100
AcDbLine
 10
102.3893282503976
 20
155.8700421237121
 30
0.0
 11
102.3893282503976
 21
153.950042123712
 31
0.0
  0
LINE
  5
20A
330
1F
100
AcDbEntity
  8
1
  6
Continuous
 62
     7
100
AcDbLine
 10
102.3893282503976
 20
153.950042123712
 30
0.0
 11
99.29127340894861
 21
153.950042123712
 31
0.0
  0
LINE
  5
20B
330
1F
100
AcDbEntity
  8
1
  6
Continuous
 62
     7
100
AcDbLine
 10
99.29127340894861
 20
153.950042123712
 30
0.0
 11
99.29127340894861
 21
153.3203594352116
 31
0.0
  0
LINE
  5
20C
330
1F
100
AcDbEntity
  8
1
  6
Continuous
 62
     7
100
AcDbLine
 10
99.29127340894861
 20
153.3203594352116
 30
0.0
 11
94.9236561181957
 21
154.910042123712
 31
0.0
  0
LINE
  5
20D
330
1F
100
AcDbEntity
  8
1
  6
Continuous
 62
     7
100
AcDbLine
 10
94.9236561181957
 20
154.910042123712
 30
0.0
 11
99.29127340894861
 21
156.4997248122124
 31
0.0
  0
LINE
  5
20E
330
1F
100
AcDbEntity
  8
1
  6
Continuous
 62
     7
100
AcDbLine
 10
99.29127340894861
 20
156.4997248122124
 30
0.0
 11
99.29127340894861
 21
155.870042123712
 31
0.0
  0
LINE
  5
20F
330
1F
100
AcDbEntity
  8
1
  6
Continuous
 62
     7
100
AcDbLine
 10
99.29127340894861
 20
155.870042123712
 30
0.0
 11
102.3893282503976
 21
155.8700421237121
 31
0.0
  0
LINE
  5
210
330
1F
100
AcDbEntity
  8
1
  6
DASH_CENTER
 62
     2
100
AcDbLine
 10
104.8087390641401
 20
85.82013393122298
 30
0.0
 11
180.8087390641401
 21
85.82013393122298
 31
0.0
  0
LINE
  5
211
330
1F
100
AcDbEntity
  8
1
  6
DASH_CENTER
 62
     2
100
AcDbLine
 10
87.83301606640993
 20
228.320133931223
 30
0.0
 11
49.72789829989473
 21
206.320133931223
 31
0.0
  0
LINE
  5
212
330
1F
100
AcDbEntity
  8
1
  6
DASH_CENTER
 62
     2
100
AcDbLine
 10
67.04840637558351
 20
206.320133931223
 30
0.0
 11
28.94328860906811
 21
228.320133931223
 31
0.0
  0
LINE
  5
213
330
1F
100
AcDbEntity
  8
1
  6
DASH_CENTER
 62
     2
100
AcDbLine
 10
142.8087390641401
 20
146.320133931223
 30
0.0
 11
142.8087390641401
 21
83.82013393122298
 31
0.0
  0
LINE
  5
214
330
1F
100
AcDbEntity
  8
1
  6
Continuous
 62
     7
100
AcDbLine
 10
142.8087390641401
 20
72.77558402192057
 30
0.0
 11
142.8087390641401
 21
72.62641315896467
 31
0.0
  0
LINE
  5
215
330
1F
100
AcDbEntity
  8
1
  6
DASH_CENTER
 62
     2
100
AcDbLine
 10
37.75223586888961
 20
211.320133931223
 30
0.0
 11
79.02406880658873
 21
211.320133931223
 31
0.0
  0
LINE
  5
216
330
1F
100
AcDbEntity
  8
1
  6
DASH_CENTER
 62
     2
100
AcDbLine
 10
58.38815233773912
 20
146.320133931223
 30
0.0
 11
58.38815233773912
 21
67.80902693229251
 31
0.0
  0
LINE
  5
217
330
1F
100
AcDbEntity
  8
1
  6
DASH_CENTER
 62
     2
100
AcDbLine
 10
42.38815233773909
 20
85.82013393122298
 30
0.0
 11
74.50855080174432
 21
85.82013393122298
 31
0.0
  0
LINE
  5
218
330
1F
100
AcDbEntity
  8
1
  6
DASH_CENTER
 62
     2
100
AcDbLine
 10
142.8087390641401
 20
83.82013393122298
 30
0.0
 11
142.8087390641401
 21
69.77558402192057
 31
0.0
  0
LINE
  5
219
330
1F
100
AcDbEntity
  8
1
  6
DASH_CENTER
 62
     2
100
AcDbLine
 10
58.38815233773912
 20
249.320133931223
 30
0.0
 11
58.38815233773912
 21
171.820133931223
 31
0.0
  0
SOLID
  5
21A
330
1F
100
AcDbEntity
  8
1
 62
     2
100
AcDbTrace
 10
71.90008738836593
 20
104.1122329896709
 30
0.0
 11
72.7409472839974
 21
103.7350841306674
 31
0.0
 12
70.88815233773911
 22
100.730176054935
 32
0.0
 13
70.88815233773911
 23
100.730176054935
 33
0.0
  0
LEADER
  5
21B
330
1F
100
AcDbEntity
  8
1
  6
Continuous
 62
     2
100
AcDbLeader
  3
Standard
 71
     0
 76
     3
 10
70.88815233773911
 20
100.730176054935
 30
0.0
 10
93.8437341083424
 20
151.910042123712
 30
0.0
 10
104.0975129942409
 20
151.910042123712
 30
0.0
  0
SOLID
  5
21C
330
1F
100
AcDbEntity
  8
1
 62
     2
100
AcDbTrace
 10
117.9096886383019
 20
99.12083097369056
 30
0.0
 11
118.7077894899783
 21
99.58161471524645
 31
0.0
 12
120.0587390641401
 22
96.32013393122297
 32
0.0
 13
120.0587390641401
 23
96.32013393122297
 33
0.0
  0
LEADER
  5
21D
330
1F
100
AcDbEntity
  8
1
  6
Continuous
 62
     2
100
AcDbLeader
  3
Standard
 71
     0
 76
     3
 10
120.0587390641401
 20
96.32013393122297
 30
0.0
 10
114.4547791440163
 20
106.0264772364571
 30
0.0
 10
100.027004446711
 20
106.0264772364571
 30
0.0
  0
SOLID
  5
21E
330
1F
100
AcDbEntity
  8
1
 62
     2
100
AcDbTrace
 10
179.1596886383018
 20
99.55911471524634
 30
0.0
 11
179.9577894899783
 21
99.09833097369045
 31
0.0
 12
177.80873906414
 22
96.29763393122286
 32
0.0
 13
177.80873906414
 23
96.29763393122286
 33
0.0
  0
LEADER
  5
21F
330
1F
100
AcDbEntity
  8
1
  6
Continuous
 62
     2
100
AcDbLeader
  3
Standard
 71
     0
 76
     3
 10
177.80873906414
 20
96.29763393122286
 30
0.0
 10
184.8817840018309
 20
108.5485071275214
 30
0.0
 10
168.882540220618
 20
108.5485071275214
 30
0.0
  0
MTEXT
  5
221
330
1F
100
AcDbEntity
  8
0
 62
     7
100
AcDbMText
 10
93.75
 20
17.00000000000001
 30
0.0
 40
3.5
 41
0.0
 71
     5
 72
     1
  1
1
  7
CONVERTER_12
 73
     1
 44
0.7202881152461
  0
MTEXT
  5
222
330
1F
100
AcDbEntity
  8
0
 62
     7
100
AcDbMText
 10
85.25
 20
17.00000000000001
 30
0.0
 40
3.5
 41
0.0
 71
     5
 72
     1
  1
1
  7
CONVERTER_12
 73
     1
 44
0.7202881152461
  0
MTEXT
  5
223
330
1F
100
AcDbEntity
  8
0
 62
     7
100
AcDbMText
 10
176.8821621112245
 20
111.5485071275214
 30
0.0
 40
3.5
 41
0.0
 71
     5
 72
     1
  1
Rc1/2
  7
CONVERTER_12
 73
     1
 44
1.32052821128451
  0
MTEXT
  5
224
330
1F
100
AcDbEntity
  8
1
 62
     7
100
AcDbMText
 10
107.2408917953636
 20
109.0264772364571
 30
0.0
 40
3.5
 41
0.0
 71
     5
 72
     1
  1
PJ1/2
  7
CONVERTER_12
 73
     1
 44
1.32052821128451
  0
MTEXT
  5
225
330
1F
100
AcDbEntity
  8
1
 62
     7
100
AcDbMText
 10
57.0
 20
14.25
 30
0.0
 40
3.5
 41
0.0
 71
     5
 72
     1
  1
V210A-2-13
  7
CONVERTER_12
 73
     1
 44
0.7202881152461
  0
MTEXT
  5
226
330
1F
100
AcDbEntity
  8
1
 62
     7
100
AcDbMText
 10
34.0
 20
37.5
 30
0.0
 40
3.5
 41
0.0
 71
     4
 72
     1
  1
JIS
  7
CONVERTER_12
 73
     1
 44
0.7202881152461
  0
MTEXT
  5
227
330
1F
100
AcDbEntity
  8
1
 62
     7
100
AcDbMText
 10
57.0
 20
22.75000000000001
 30
0.0
 40
3.5
 41
0.0
 71
     5
 72
     1
  1
化粧バルブ2型(ナット付)
  7
CONVERTER_11
 73
     1
 44
0.54545454545455
  0
MTEXT
  5
228
330
1F
100
AcDbEntity
  8
1
 62
     7
100
AcDbMText
 10
34.0
 20
30.50000000000001
 30
0.0
 40
3.0
 41
0.0
 71
     4
 72
     1
  1
共用形
  7
CONVERTER_11
 73
     1
 44
0.54545454545455
  0
DIMENSION
  5
233
330
1F
100
AcDbEntity
  8
1
100
AcDbDimension
  2
*D11
 10
112.80873906414
 20
60.80902693229263
 30
0.0
 11
127.8087390641401
 21
63.55902693229263
 31
0.0
 70
    32
  1
<>
 71
     5
 42
-1.0
 53
0.00013888888889
  3
ME10_DIM_10
100
AcDbAlignedDimension
 13
142.8087390641401
 23
69.77558402192057
 33
0.0
 14
112.8087390641401
 24
73.3305551229412
 34
0.0
100
AcDbRotatedDimension
  0
DIMENSION
  5
23E
330
1F
100
AcDbEntity
  8
0
100
AcDbDimension
  2
*D12
 10
96.3087390641401
 20
85.82013393122301
 30
0.0
 11
93.5587390641401
 21
114.220133931223
 31
0.0
 70
    32
  1
57リフト5
 71
     5
 42
-1.0
 53
90.0
  3
ME10_DIM_11
100
AcDbAlignedDimension
 13
142.8087390641401
 23
142.6201339312229
 33
0.0
 14
104.8087390641401
 24
85.82013393122298
 34
0.0
 50
90.0
100
AcDbRotatedDimension
  0
DIMENSION
  5
249
330
1F
100
AcDbEntity
  8
1
100
AcDbDimension
  2
*D13
 10
142.8087390641401
 20
60.80902693229274
 30
0.0
 11
159.883120291181
 21
63.55902693229274
 31
0.0
 70
    32
  1
<>
 71
     5
 42
-1.0
 53
0.00013888888889
  3
ME10_DIM_12
100
AcDbAlignedDimension
 13
177.8087390641401
 23
73.07013393122298
 33
0.0
 14
142.8087390641401
 24
70.32013393122298
 34
0.0
100
AcDbRotatedDimension
  0
DIMENSION
  5
254
330
1F
100
AcDbEntity
  8
1
100
AcDbDimension
  2
*D14
 10
106.3087390641401
 20
52.80902693229274
 30
0.0
 11
143.023394849143
 21
55.55902693229274
 31
0.0
 70
    32
  1
72
 71
     5
 42
-1.0
 53
0.00013888888889
  3
ME10_DIM_13
100
AcDbAlignedDimension
 13
177.8087390641401
 23
73.07013393122298
 33
0.0
 14
106.3087390641401
 24
74.92782908580972
 34
0.0
100
AcDbRotatedDimension
  0
DIMENSION
  5
25F
330
1F
100
AcDbEntity
  8
1
100
AcDbDimension
  2
*D15
 10
45.38815233773905
 20
256.320133931223
 30
0.0
 11
58.6378115123694
 21
259.070133931223
 31
0.0
 70
    32
  1
26
 71
     5
 42
-1.0
 53
0.00013888888889
  3
ME10_DIM_14
100
AcDbAlignedDimension
 13
71.38815233773906
 23
246.070133931223
 33
0.0
 14
45.38815233773906
 24
246.070133931223
 34
0.0
100
AcDbRotatedDimension
  0
ENDSEC
  0
SECTION
  2
OBJECTS
  0
DICTIONARY
  5
C
330
0
100
AcDbDictionary
281
     1
  3
ACAD_GROUP
350
D
  3
ACAD_LAYOUT
350
1A
  3
ACAD_MATERIAL
350
3B
  3
ACAD_MLEADERSTYLE
350
262
  3
ACAD_MLINESTYLE
350
17
  3
ACAD_PLOTSETTINGS
350
19
  3
ACAD_PLOTSTYLENAME
350
E
  3
ACAD_VISUALSTYLE
350
2A
  3
AcDbVariableDictionary
350
260
  0
DICTIONARY
  5
D
102
{ACAD_REACTORS
330
C
102
}
330
C
100
AcDbDictionary
281
     1
  0
DICTIONARY
  5
1A
102
{ACAD_REACTORS
330
C
102
}
330
C
100
AcDbDictionary
281
     1
  3
Layout1
350
1E
  3
Layout2
350
26
  3
Model
350
22
  0
DICTIONARY
  5
3B
102
{ACAD_REACTORS
330
C
102
}
330
C
100
AcDbDictionary
281
     1
  3
ByBlock
350
3D
  3
ByLayer
350
3C
  3
Global
350
3E
  0
DICTIONARY
  5
262
102
{ACAD_REACTORS
330
C
102
}
330
C
100
AcDbDictionary
281
     1
  0
DICTIONARY
  5
17
102
{ACAD_REACTORS
330
C
102
}
330
C
100
AcDbDictionary
281
     1
  3
Standard
350
18
  0
DICTIONARY
  5
19
102
{ACAD_REACTORS
330
C
102
}
330
C
100
AcDbDictionary
281
     1
  0
ACDBDICTIONARYWDFLT
  5
E
102
{ACAD_REACTORS
330
C
102
}
330
C
100
AcDbDictionary
281
     1
  3
Normal
350
F
100
AcDbDictionaryWithDefault
340
F
  0
DICTIONARY
  5
2A
102
{ACAD_REACTORS
330
C
102
}
330
C
100
AcDbDictionary
281
     1
  3
2dWireframe
350
2F
  3
3D Hidden
350
31
  3
3dWireframe
350
30
  3
Basic
350
32
  3
Brighten
350
36
  3
ColorChange
350
3A
  3
Conceptual
350
34
  3
Dim
350
35
  3
Facepattern
350
39
  3
Flat
350
2B
  3
FlatWithEdges
350
2C
  3
Gouraud
350
2D
  3
GouraudWithEdges
350
2E
  3
Linepattern
350
38
  3
Realistic
350
33
  3
Thicken
350
37
  0
DICTIONARY
  5
260
102
{ACAD_REACTORS
330
C
102
}
330
C
100
AcDbDictionary
281
     1
  3
DIMASSOC
350
263
  3
HIDETEXT
350
264
  0
LAYOUT
  5
1E
102
{ACAD_REACTORS
330
1A
102
}
330
1A
100
AcDbPlotSettings
  1

  2
none_device
  4

  6

 40
0.0
 41
0.0
 42
0.0
 43
0.0
 44
0.0
 45
0.0
 46
0.0
 47
0.0
 48
0.0
 49
0.0
140
0.0
141
0.0
142
1.0
143
1.0
 70
   688
 72
     0
 73
     0
 74
     5
  7

 75
    16
147
1.0
148
0.0
149
0.0
100
AcDbLayout
  1
Layout1
 70
     1
 71
     1
 10
0.0
 20
0.0
 11
12.0
 21
9.0
 12
0.0
 22
0.0
 32
0.0
 14
1.00000000000000E+20
 24
1.00000000000000E+20
 34
1.00000000000000E+20
 15
-1.00000000000000E+20
 25
-1.00000000000000E+20
 35
-1.00000000000000E+20
146
0.0
 13
0.0
 23
0.0
 33
0.0
 16
1.0
 26
0.0
 36
0.0
 17
0.0
 27
1.0
 37
0.0
 76
     0
330
1B
  0
LAYOUT
  5
26
102
{ACAD_REACTORS
330
1A
102
}
330
1A
100
AcDbPlotSettings
  1

  2
none_device
  4

  6

 40
0.0
 41
0.0
 42
0.0
 43
0.0
 44
0.0
 45
0.0
 46
0.0
 47
0.0
 48
0.0
 49
0.0
140
0.0
141
0.0
142
1.0
143
1.0
 70
   688
 72
     0
 73
     0
 74
     5
  7

 75
    16
147
1.0
148
0.0
149
0.0
100
AcDbLayout
  1
Layout2
 70
     1
 71
     2
 10
0.0
 20
0.0
 11
0.0
 21
0.0
 12
0.0
 22
0.0
 32
0.0
 14
0.0
 24
0.0
 34
0.0
 15
0.0
 25
0.0
 35
0.0
146
0.0
 13
0.0
 23
0.0
 33
0.0
 16
1.0
 26
0.0
 36
0.0
 17
0.0
 27
1.0
 37
0.0
 76
     0
330
23
  0
LAYOUT
  5
22
102
{ACAD_REACTORS
330
1A
102
}
330
1A
100
AcDbPlotSettings
  1

  2
none_device
  4

  6

 40
0.0
 41
0.0
 42
0.0
 43
0.0
 44
0.0
 45
0.0
 46
0.0
 47
0.0
 48
0.0
 49
0.0
140
0.0
141
0.0
142
1.0
143
1.0
 70
  1712
 72
     0
 73
     0
 74
     0
  7

 75
     0
147
1.0
148
0.0
149
0.0
100
AcDbLayout
  1
Model
 70
     1
 71
     0
 10
0.0
 20
0.0
 11
12.0
 21
9.0
 12
0.0
 22
0.0
 32
0.0
 14
0.0
 24
0.0
 34
0.0
 15
210.0
 25
297.0
 35
0.0
146
0.0
 13
0.0
 23
0.0
 33
0.0
 16
1.0
 26
0.0
 36
0.0
 17
0.0
 27
1.0
 37
0.0
 76
     0
330
1F
331
29
  0
MATERIAL
  5
3D
102
{ACAD_REACTORS
330
3B
102
}
102
{ACAD_XDICTIONARY
360
287
102
}
330
3B
100
AcDbMaterial
  1
ByBlock
  0
MATERIAL
  5
3C
102
{ACAD_REACTORS
330
3B
102
}
102
{ACAD_XDICTIONARY
360
285
102
}
330
3B
100
AcDbMaterial
  1
ByLayer
  0
MATERIAL
  5
3E
102
{ACAD_REACTORS
330
3B
102
}
102
{ACAD_XDICTIONARY
360
289
102
}
330
3B
100
AcDbMaterial
  1
Global
  0
MLINESTYLE
  5
18
102
{ACAD_REACTORS
330
17
102
}
330
17
100
AcDbMlineStyle
  2
Standard
 70
     0
  3

 62
   256
 51
90.0
 52
90.0
 71
     2
 49
0.5
 62
   256
  6
BYLAYER
 49
-0.5
 62
   256
  6
BYLAYER
  0
ACDBPLACEHOLDER
  5
F
102
{ACAD_REACTORS
330
E
102
}
330
E
  0
VISUALSTYLE
  5
2F
102
{ACAD_REACTORS
330
2A
102
}
102
{ACAD_XDICTIONARY
360
26D
102
}
330
2A
100
AcDbVisualStyle
  2
2dWireframe
 70
     4
 71
     0
 72
     2
 73
     0
 90
        0
 40
-0.6
 41
-30.0
 62
     5
 63
     7
 74
     1
 91
        4
 64
     7
 65
   257
 75
     1
175
     1
 42
1.0
 92
        0
 66
   257
 43
1.0
 76
     1
 77
     6
 78
     2
 67
     7
 79
     5
170
     0
171
     0
290
     0
174
     0
 93
        1
 44
0.0
173
     0
291
     0
 45
0.0
1001
ACAD
1000
AcDbSavedByObjectVersion
1070
     0
  0
VISUALSTYLE
  5
31
102
{ACAD_REACTORS
330
2A
102
}
102
{ACAD_XDICTIONARY
360
271
102
}
330
2A
100
AcDbVisualStyle
  2
3D Hidden
 70
     6
 71
     1
 72
     2
 73
     2
 90
        0
 40
-0.6
 41
-30.0
 62
     5
 63
     7
 74
     2
 91
        2
 64
     7
 65
   257
 75
     2
175
     1
 42
40.0
 92
        0
 66
   257
 43
1.0
 76
     1
 77
     6
 78
     2
 67
     7
 79
     3
170
     0
171
     0
290
     0
174
     0
 93
        1
 44
0.0
173
     0
291
     0
 45
0.0
1001
ACAD
1000
AcDbSavedByObjectVersion
1070
     0
  0
VISUALSTYLE
  5
30
102
{ACAD_REACTORS
330
2A
102
}
102
{ACAD_XDICTIONARY
360
26F
102
}
330
2A
100
AcDbVisualStyle
  2
3dWireframe
 70
     5
 71
     0
 72
     2
 73
     0
 90
        0
 40
-0.6
 41
-30.0
 62
     5
 63
     7
 74
     1
 91
        4
 64
     7
 65
   257
 75
     1
175
     1
 42
1.0
 92
        0
 66
   257
 43
1.0
 76
     1
 77
     6
 78
     2
 67
     7
 79
     5
170
     0
171
     0
290
     0
174
     0
 93
        1
 44
0.0
173
     0
291
     0
 45
0.0
1001
ACAD
1000
AcDbSavedByObjectVersion
1070
     0
  0
VISUALSTYLE
  5
32
102
{ACAD_REACTORS
330
2A
102
}
102
{ACAD_XDICTIONARY
360
273
102
}
330
2A
100
AcDbVisualStyle
  2
Basic
 70
     7
 71
     1
 72
     0
 73
     1
 90
        0
 40
-0.6
 41
-30.0
 62
     5
 63
     7
 74
     0
 91
        4
 64
     7
 65
   257
 75
     1
175
     1
 42
1.0
 92
        8
 66
     7
 43
1.0
 76
     1
 77
     6
 78
     2
 67
     7
 79
     5
170
     0
171
     0
290
     0
174
     0
 93
        1
 44
0.0
173
     0
291
     1
 45
0.0
1001
ACAD
1000
AcDbSavedByObjectVersion
1070
     0
  0
VISUALSTYLE
  5
36
102
{ACAD_REACTORS
330
2A
102
}
102
{ACAD_XDICTIONARY
360
27B
102
}
330
2A
100
AcDbVisualStyle
  2
Brighten
 70
    12
 71
     2
 72
     2
 73
     0
 90
        0
 40
-0.6
 41
-30.0
 62
     5
 63
     7
 74
     1
 91
        4
 64
     7
 65
   257
 75
     1
175
     1
 42
1.0
 92
        8
 66
     7
 43
1.0
 76
     1
 77
     6
 78
     2
 67
     7
 79
     5
170
     0
171
     0
290
     0
174
     0
 93
        1
 44
50.0
173
     0
291
     1
 45
0.0
1001
ACAD
1000
AcDbSavedByObjectVersion
1070
     0
  0
VISUALSTYLE
  5
3A
102
{ACAD_REACTORS
330
2A
102
}
102
{ACAD_XDICTIONARY
360
283
102
}
330
2A
100
AcDbVisualStyle
  2
ColorChange
 70
    16
 71
     2
 72
     2
 73
     3
 90
        0
 40
-0.6
 41
-30.0
 62
     5
 63
     8
 74
     1
 91
        4
 64
     7
 65
   257
 75
     1
175
     1
 42
1.0
 92
        8
 66
     8
 43
1.0
 76
     1
 77
     6
 78
     2
 67
     7
 79
     5
170
     0
171
     0
290
     0
174
     0
 93
        1
 44
0.0
173
     0
291
     1
 45
0.0
1001
ACAD
1000
AcDbSavedByObjectVersion
1070
     0
  0
VISUALSTYLE
  5
34
102
{ACAD_REACTORS
330
2A
102
}
102
{ACAD_XDICTIONARY
360
277
102
}
330
2A
100
AcDbVisualStyle
  2
Conceptual
 70
     9
 71
     3
 72
     2
 73
     0
 90
        0
 40
-0.6
 41
-30.0
 62
     5
 63
     7
 74
     2
 91
        2
 64
     7
 65
   257
 75
     1
175
     1
 42
40.0
 92
        8
 66
     7
 43
1.0
 76
     1
 77
     6
 78
     2
 67
     7
 79
     3
170
     0
171
     0
290
     0
174
     0
 93
        1
 44
0.0
173
     0
291
     0
 45
0.0
1001
ACAD
1000
AcDbSavedByObjectVersion
1070
     0
  0
VISUALSTYLE
  5
35
102
{ACAD_REACTORS
330
2A
102
}
102
{ACAD_XDICTIONARY
360
279
102
}
330
2A
100
AcDbVisualStyle
  2
Dim
 70
    11
 71
     2
 72
     2
 73
     0
 90
        0
 40
-0.6
 41
-30.0
 62
     5
 63
     7
 74
     1
 91
        4
 64
     7
 65
   257
 75
     1
175
     1
 42
1.0
 92
        8
 66
     7
 43
1.0
 76
     1
 77
     6
 78
     2
 67
     7
 79
     5
170
     0
171
     0
290
     0
174
     0
 93
        1
 44
-50.0
173
     0
291
     1
 45
0.0
1001
ACAD
1000
AcDbSavedByObjectVersion
1070
     0
  0
VISUALSTYLE
  5
39
102
{ACAD_REACTORS
330
2A
102
}
102
{ACAD_XDICTIONARY
360
281
102
}
330
2A
100
AcDbVisualStyle
  2
Facepattern
 70
    15
 71
     2
 72
     2
 73
     0
 90
        0
 40
-0.6
 41
-30.0
 62
     5
 63
     7
 74
     1
 91
        4
 64
     7
 65
   257
 75
     1
175
     1
 42
1.0
 92
        8
 66
     7
 43
1.0
 76
     1
 77
     6
 78
     2
 67
     7
 79
     5
170
     0
171
     0
290
     0
174
     0
 93
        1
 44
0.0
173
     0
291
     1
 45
0.0
1001
ACAD
1000
AcDbSavedByObjectVersion
1070
     0
  0
VISUALSTYLE
  5
2B
102
{ACAD_REACTORS
330
2A
102
}
102
{ACAD_XDICTIONARY
360
265
102
}
330
2A
100
AcDbVisualStyle
  2
Flat
 70
     0
 71
     2
 72
     1
 73
     1
 90
        2
 40
-0.6
 41
30.0
 62
     5
 63
     7
 74
     0
 91
        4
 64
     7
 65
   257
 75
     1
175
     1
 42
1.0
 92
        8
 66
     7
 43
1.0
 76
     1
 77
     6
 78
     2
 67
     7
 79
     5
170
     0
171
     0
290
     0
174
     0
 93
       13
 44
0.0
173
     0
291
     1
 45
0.0
1001
ACAD
1000
AcDbSavedByObjectVersion
1070
     0
  0
VISUALSTYLE
  5
2C
102
{ACAD_REACTORS
330
2A
102
}
102
{ACAD_XDICTIONARY
360
267
102
}
330
2A
100
AcDbVisualStyle
  2
FlatWithEdges
 70
     1
 71
     2
 72
     1
 73
     1
 90
        2
 40
-0.6
 41
30.0
 62
     5
 63
     7
 74
     1
 91
        4
 64
     7
 65
   257
 75
     1
175
     1
 42
1.0
 92
        0
 66
   257
 43
1.0
 76
     1
 77
     6
 78
     2
 67
     7
 79
     5
170
     0
171
     0
290
     0
174
     0
 93
       13
 44
0.0
173
     0
291
     1
 45
0.0
1001
ACAD
1000
AcDbSavedByObjectVersion
1070
     0
  0
VISUALSTYLE
  5
2D
102
{ACAD_REACTORS
330
2A
102
}
102
{ACAD_XDICTIONARY
360
269
102
}
330
2A
100
AcDbVisualStyle
  2
Gouraud
 70
     2
 71
     2
 72
     2
 73
     1
 90
        2
 40
-0.6
 41
30.0
 62
     5
 63
     7
 74
     0
 91
        4
 64
     7
 65
   257
 75
     1
175
     1
 42
1.0
 92
        0
 66
     7
 43
1.0
 76
     1
 77
     6
 78
     2
 67
     7
 79
     5
170
     0
171
     0
290
     0
174
     0
 93
       13
 44
0.0
173
     0
291
     1
 45
0.0
1001
ACAD
1000
AcDbSavedByObjectVersion
1070
     0
  0
VISUALSTYLE
  5
2E
102
{ACAD_REACTORS
330
2A
102
}
102
{ACAD_XDICTIONARY
360
26B
102
}
330
2A
100
AcDbVisualStyle
  2
GouraudWithEdges
 70
     3
 71
     2
 72
     2
 73
     1
 90
        2
 40
-0.6
 41
30.0
 62
     5
 63
     7
 74
     1
 91
        4
 64
     7
 65
   257
 75
     1
175
     1
 42
1.0
 92
        0
 66
   257
 43
1.0
 76
     1
 77
     6
 78
     2
 67
     7
 79
     5
170
     0
171
     0
290
     0
174
     0
 93
       13
 44
0.0
173
     0
291
     1
 45
0.0
1001
ACAD
1000
AcDbSavedByObjectVersion
1070
     0
  0
VISUALSTYLE
  5
38
102
{ACAD_REACTORS
330
2A
102
}
102
{ACAD_XDICTIONARY
360
27F
102
}
330
2A
100
AcDbVisualStyle
  2
Linepattern
 70
    14
 71
     2
 72
     2
 73
     0
 90
        0
 40
-0.6
 41
-30.0
 62
     5
 63
     7
 74
     1
 91
        4
 64
     7
 65
   257
 75
     7
175
     7
 42
1.0
 92
        8
 66
     7
 43
1.0
 76
     1
 77
     6
 78
     2
 67
     7
 79
     5
170
     0
171
     0
290
     0
174
     0
 93
        1
 44
0.0
173
     0
291
     1
 45
0.0
1001
ACAD
1000
AcDbSavedByObjectVersion
1070
     0
  0
VISUALSTYLE
  5
33
102
{ACAD_REACTORS
330
2A
102
}
102
{ACAD_XDICTIONARY
360
275
102
}
330
2A
100
AcDbVisualStyle
  2
Realistic
 70
     8
 71
     2
 72
     2
 73
     0
 90
        0
 40
-0.6
 41
-30.0
 62
     5
 63
     7
 74
     1
 91
        0
 64
     7
 65
   257
 75
     1
175
     1
 42
1.0
 92
        8
 66
     8
 43
1.0
 76
     1
 77
     6
 78
     2
 67
     7
 79
     5
170
     0
171
     0
290
     0
174
     0
 93
       13
 44
0.0
173
     0
291
     0
 45
0.0
1001
ACAD
1000
AcDbSavedByObjectVersion
1070
     0
  0
VISUALSTYLE
  5
37
102
{ACAD_REACTORS
330
2A
102
}
102
{ACAD_XDICTIONARY
360
27D
102
}
330
2A
100
AcDbVisualStyle
  2
Thicken
 70
    13
 71
     2
 72
     2
 73
     0
 90
        0
 40
-0.6
 41
-30.0
 62
     5
 63
     7
 74
     1
 91
        4
 64
     7
 65
   257
 75
     1
175
     1
 42
1.0
 92
       12
 66
     7
 43
1.0
 76
     1
 77
     6
 78
     2
 67
     7
 79
     5
170
     0
171
     0
290
     0
174
     0
 93
        1
 44
0.0
173
     0
291
     1
 45
0.0
1001
ACAD
1000
AcDbSavedByObjectVersion
1070
     0
  0
DICTIONARYVAR
  5
263
102
{ACAD_REACTORS
330
260
102
}
330
260
100
DictionaryVariables
280
     0
  1
2
  0
DICTIONARYVAR
  5
264
102
{ACAD_REACTORS
330
260
102
}
330
260
100
DictionaryVariables
280
     0
  1
1
  0
DICTIONARY
  5
287
330
3D
100
AcDbDictionary
280
     1
281
     1
  3
ACAD_XREC_ROUNDTRIP
360
288
  0
DICTIONARY
  5
285
330
3C
100
AcDbDictionary
280
     1
281
     1
  3
ACAD_XREC_ROUNDTRIP
360
286
  0
DICTIONARY
  5
289
330
3E
100
AcDbDictionary
280
     1
281
     1
  3
ACAD_XREC_ROUNDTRIP
360
28A
  0
DICTIONARY
  5
26D
330
2F
100
AcDbDictionary
280
     1
281
     1
  3
ACAD_XREC_ROUNDTRIP
360
26E
  0
DICTIONARY
  5
271
330
31
100
AcDbDictionary
280
     1
281
     1
  3
ACAD_XREC_ROUNDTRIP
360
272
  0
DICTIONARY
  5
26F
330
30
100
AcDbDictionary
280
     1
281
     1
  3
ACAD_XREC_ROUNDTRIP
360
270
  0
DICTIONARY
  5
273
330
32
100
AcDbDictionary
280
     1
281
     1
  3
ACAD_XREC_ROUNDTRIP
360
274
  0
DICTIONARY
  5
27B
330
36
100
AcDbDictionary
280
     1
281
     1
  3
ACAD_XREC_ROUNDTRIP
360
27C
  0
DICTIONARY
  5
283
330
3A
100
AcDbDictionary
280
     1
281
     1
  3
ACAD_XREC_ROUNDTRIP
360
284
  0
DICTIONARY
  5
277
330
34
100
AcDbDictionary
280
     1
281
     1
  3
ACAD_XREC_ROUNDTRIP
360
278
  0
DICTIONARY
  5
279
330
35
100
AcDbDictionary
280
     1
281
     1
  3
ACAD_XREC_ROUNDTRIP
360
27A
  0
DICTIONARY
  5
281
330
39
100
AcDbDictionary
280
     1
281
     1
  3
ACAD_XREC_ROUNDTRIP
360
282
  0
DICTIONARY
  5
265
330
2B
100
AcDbDictionary
280
     1
281
     1
  3
ACAD_XREC_ROUNDTRIP
360
266
  0
DICTIONARY
  5
267
330
2C
100
AcDbDictionary
280
     1
281
     1
  3
ACAD_XREC_ROUNDTRIP
360
268
  0
DICTIONARY
  5
269
330
2D
100
AcDbDictionary
280
     1
281
     1
  3
ACAD_XREC_ROUNDTRIP
360
26A
  0
DICTIONARY
  5
26B
330
2E
100
AcDbDictionary
280
     1
281
     1
  3
ACAD_XREC_ROUNDTRIP
360
26C
  0
DICTIONARY
  5
27F
330
38
100
AcDbDictionary
280
     1
281
     1
  3
ACAD_XREC_ROUNDTRIP
360
280
  0
DICTIONARY
  5
275
330
33
100
AcDbDictionary
280
     1
281
     1
  3
ACAD_XREC_ROUNDTRIP
360
276
  0
DICTIONARY
  5
27D
330
37
100
AcDbDictionary
280
     1
281
     1
  3
ACAD_XREC_ROUNDTRIP
360
27E
  0
XRECORD
  5
288
102
{ACAD_REACTORS
330
287
102
}
330
287
100
AcDbXrecord
280
     1
102
MATERIAL
148
0.0
149
0.0
149
0.0
 93
        0
 94
      127
282
     0
 72
     1
 77
     1
171
     1
175
     1
179
     1
273
     0
  0
XRECORD
  5
286
102
{ACAD_REACTORS
330
285
102
}
330
285
100
AcDbXrecord
280
     1
102
MATERIAL
148
0.0
149
0.0
149
0.0
 93
        0
 94
      127
282
     0
 72
     1
 77
     1
171
     1
175
     1
179
     1
273
     0
  0
XRECORD
  5
28A
102
{ACAD_REACTORS
330
289
102
}
330
289
100
AcDbXrecord
280
     1
102
MATERIAL
148
0.0
149
0.0
149
0.0
 93
        0
 94
      127
282
     0
 72
     1
 77
     1
171
     1
175
     1
179
     1
273
     0
  0
XRECORD
  5
26E
102
{ACAD_REACTORS
330
26D
102
}
330
26D
100
AcDbXrecord
280
     1
102
RTVSPropertyOp0
 70
     1
102
RTVSPropertyOp1
 70
     1
102
RTVSPropertyOp2
 70
     1
102
RTVSPropertyOp3
 70
     1
102
RTVSPropertyOp4
 70
     1
102
RTVSPropertyOp5
 70
     1
102
RTVSPropertyOp6
 70
     1
102
RTVSPropertyOp7
 70
     1
102
RTVSPropertyOp8
 70
     1
102
RTVSPropertyOp9
 70
     1
102
RTVSPropertyOp10
 70
     1
102
RTVSPropertyOp11
 70
     1
102
RTVSPropertyOp12
 70
     1
102
RTVSPropertyOp13
 70
     1
102
RTVSPropertyOp14
 70
     1
102
RTVSPropertyOp15
 70
     1
102
RTVSPropertyOp16
 70
     1
102
RTVSPropertyOp17
 70
     1
102
RTVSPropertyOp18
 70
     1
102
RTVSPropertyOp19
 70
     1
102
RTVSPropertyOp20
 70
     1
102
RTVSPropertyOp21
 70
     1
102
RTVSPropertyOp22
 70
     1
102
RTVSPropertyOp23
 70
     1
102
RTVSPropertyOp24
 70
     1
102
RTVSPropertyOp25
 70
     1
102
RTVSPropertyOp26
 70
     1
102
RTVSPropertyOp27
 70
     1
102
RTVSPropertyOp28
 70
     1
102
RTVSPropertyOp29
 70
     1
102
RTVSPropertyOp30
 70
     1
102
RTVSPropertyOp31
 70
     1
102
RTVSPropertyOp32
 70
     1
  0
XRECORD
  5
272
102
{ACAD_REACTORS
330
271
102
}
330
271
100
AcDbXrecord
280
     1
102
RTVSPropertyOp0
 70
     1
102
RTVSPropertyOp1
 70
     1
102
RTVSPropertyOp2
 70
     1
102
RTVSPropertyOp3
 70
     1
102
RTVSPropertyOp4
 70
     1
102
RTVSPropertyOp5
 70
     1
102
RTVSPropertyOp6
 70
     1
102
RTVSPropertyOp7
 70
     1
102
RTVSPropertyOp8
 70
     1
102
RTVSPropertyOp9
 70
     1
102
RTVSPropertyOp10
 70
     1
102
RTVSPropertyOp11
 70
     1
102
RTVSPropertyOp12
 70
     1
102
RTVSPropertyOp13
 70
     1
102
RTVSPropertyOp14
 70
     1
102
RTVSPropertyOp15
 70
     1
102
RTVSPropertyOp16
 70
     1
102
RTVSPropertyOp17
 70
     1
102
RTVSPropertyOp18
 70
     1
102
RTVSPropertyOp19
 70
     1
102
RTVSPropertyOp20
 70
     1
102
RTVSPropertyOp21
 70
     1
102
RTVSPropertyOp22
 70
     1
102
RTVSPropertyOp23
 70
     1
102
RTVSPropertyOp24
 70
     1
102
RTVSPropertyOp25
 70
     1
102
RTVSPropertyOp26
 70
     1
102
RTVSPropertyOp27
 70
     1
102
RTVSPropertyOp28
 70
     1
102
RTVSPropertyOp29
 70
     1
102
RTVSPropertyOp30
 70
     1
102
RTVSPropertyOp31
 70
     1
102
RTVSPropertyOp32
 70
     1
  0
XRECORD
  5
270
102
{ACAD_REACTORS
330
26F
102
}
330
26F
100
AcDbXrecord
280
     1
102
RTVSPropertyOp0
 70
     1
102
RTVSPropertyOp1
 70
     1
102
RTVSPropertyOp2
 70
     1
102
RTVSPropertyOp3
 70
     1
102
RTVSPropertyOp4
 70
     1
102
RTVSPropertyOp5
 70
     1
102
RTVSPropertyOp6
 70
     1
102
RTVSPropertyOp7
 70
     1
102
RTVSPropertyOp8
 70
     1
102
RTVSPropertyOp9
 70
     1
102
RTVSPropertyOp10
 70
     1
102
RTVSPropertyOp11
 70
     1
102
RTVSPropertyOp12
 70
     1
102
RTVSPropertyOp13
 70
     1
102
RTVSPropertyOp14
 70
     1
102
RTVSPropertyOp15
 70
     1
102
RTVSPropertyOp16
 70
     1
102
RTVSPropertyOp17
 70
     1
102
RTVSPropertyOp18
 70
     1
102
RTVSPropertyOp19
 70
     1
102
RTVSPropertyOp20
 70
     1
102
RTVSPropertyOp21
 70
     1
102
RTVSPropertyOp22
 70
     1
102
RTVSPropertyOp23
 70
     1
102
RTVSPropertyOp24
 70
     1
102
RTVSPropertyOp25
 70
     1
102
RTVSPropertyOp26
 70
     1
102
RTVSPropertyOp27
 70
     1
102
RTVSPropertyOp28
 70
     1
102
RTVSPropertyOp29
 70
     1
102
RTVSPropertyOp30
 70
     1
102
RTVSPropertyOp31
 70
     1
102
RTVSPropertyOp32
 70
     1
  0
XRECORD
  5
274
102
{ACAD_REACTORS
330
273
102
}
330
273
100
AcDbXrecord
280
     1
102
RTVSPropertyOp0
 70
     1
102
RTVSPropertyOp1
 70
     1
102
RTVSPropertyOp2
 70
     1
102
RTVSPropertyOp3
 70
     1
102
RTVSPropertyOp4
 70
     1
102
RTVSPropertyOp5
 70
     1
102
RTVSPropertyOp6
 70
     1
102
RTVSPropertyOp7
 70
     1
102
RTVSPropertyOp8
 70
     1
102
RTVSPropertyOp9
 70
     1
102
RTVSPropertyOp10
 70
     1
102
RTVSPropertyOp11
 70
     1
102
RTVSPropertyOp12
 70
     1
102
RTVSPropertyOp13
 70
     1
102
RTVSPropertyOp14
 70
     1
102
RTVSPropertyOp15
 70
     1
102
RTVSPropertyOp16
 70
     1
102
RTVSPropertyOp17
 70
     1
102
RTVSPropertyOp18
 70
     1
102
RTVSPropertyOp19
 70
     1
102
RTVSPropertyOp20
 70
     1
102
RTVSPropertyOp21
 70
     1
102
RTVSPropertyOp22
 70
     1
102
RTVSPropertyOp23
 70
     1
102
RTVSPropertyOp24
 70
     1
102
RTVSPropertyOp25
 70
     1
102
RTVSPropertyOp26
 70
     1
102
RTVSPropertyOp27
 70
     1
102
RTVSPropertyOp28
 70
     1
102
RTVSPropertyOp29
 70
     1
102
RTVSPropertyOp30
 70
     1
102
RTVSPropertyOp31
 70
     1
102
RTVSPropertyOp32
 70
     1
  0
XRECORD
  5
27C
102
{ACAD_REACTORS
330
27B
102
}
330
27B
100
AcDbXrecord
280
     1
102
RTVSPropertyOp0
 70
     1
102
RTVSPropertyOp1
 70
     1
102
RTVSPropertyOp2
 70
     1
102
RTVSPropertyOp3
 70
     1
102
RTVSPropertyOp4
 70
     1
102
RTVSPropertyOp5
 70
     1
102
RTVSPropertyOp6
 70
     1
102
RTVSPropertyOp7
 70
     1
102
RTVSPropertyOp8
 70
     1
102
RTVSPropertyOp9
 70
     1
102
RTVSPropertyOp10
 70
     1
102
RTVSPropertyOp11
 70
     1
102
RTVSPropertyOp12
 70
     1
102
RTVSPropertyOp13
 70
     1
102
RTVSPropertyOp14
 70
     1
102
RTVSPropertyOp15
 70
     1
102
RTVSPropertyOp16
 70
     1
102
RTVSPropertyOp17
 70
     1
102
RTVSPropertyOp18
 70
     1
102
RTVSPropertyOp19
 70
     1
102
RTVSPropertyOp20
 70
     1
102
RTVSPropertyOp21
 70
     1
102
RTVSPropertyOp22
 70
     1
102
RTVSPropertyOp23
 70
     1
102
RTVSPropertyOp24
 70
     1
102
RTVSPropertyOp25
 70
     1
102
RTVSPropertyOp26
 70
     1
102
RTVSPropertyOp27
 70
     1
102
RTVSPropertyOp28
 70
     1
102
RTVSPropertyOp29
 70
     1
102
RTVSPropertyOp30
 70
     1
102
RTVSPropertyOp31
 70
     1
102
RTVSPropertyOp32
 70
     1
  0
XRECORD
  5
284
102
{ACAD_REACTORS
330
283
102
}
330
283
100
AcDbXrecord
280
     1
102
RTVSPropertyOp0
 70
     1
102
RTVSPropertyOp1
 70
     1
102
RTVSPropertyOp2
 70
     1
102
RTVSPropertyOp3
 70
     1
102
RTVSPropertyOp4
 70
     1
102
RTVSPropertyOp5
 70
     1
102
RTVSPropertyOp6
 70
     1
102
RTVSPropertyOp7
 70
     1
102
RTVSPropertyOp8
 70
     1
102
RTVSPropertyOp9
 70
     1
102
RTVSPropertyOp10
 70
     1
102
RTVSPropertyOp11
 70
     1
102
RTVSPropertyOp12
 70
     1
102
RTVSPropertyOp13
 70
     1
102
RTVSPropertyOp14
 70
     1
102
RTVSPropertyOp15
 70
     1
102
RTVSPropertyOp16
 70
     1
102
RTVSPropertyOp17
 70
     1
102
RTVSPropertyOp18
 70
     1
102
RTVSPropertyOp19
 70
     1
102
RTVSPropertyOp20
 70
     1
102
RTVSPropertyOp21
 70
     1
102
RTVSPropertyOp22
 70
     1
102
RTVSPropertyOp23
 70
     1
102
RTVSPropertyOp24
 70
     1
102
RTVSPropertyOp25
 70
     1
102
RTVSPropertyOp26
 70
     1
102
RTVSPropertyOp27
 70
     1
102
RTVSPropertyOp28
 70
     1
102
RTVSPropertyOp29
 70
     1
102
RTVSPropertyOp30
 70
     1
102
RTVSPropertyOp31
 70
     1
102
RTVSPropertyOp32
 70
     1
  0
XRECORD
  5
278
102
{ACAD_REACTORS
330
277
102
}
330
277
100
AcDbXrecord
280
     1
102
RTVSPropertyOp0
 70
     1
102
RTVSPropertyOp1
 70
     1
102
RTVSPropertyOp2
 70
     1
102
RTVSPropertyOp3
 70
     1
102
RTVSPropertyOp4
 70
     1
102
RTVSPropertyOp5
 70
     1
102
RTVSPropertyOp6
 70
     1
102
RTVSPropertyOp7
 70
     1
102
RTVSPropertyOp8
 70
     1
102
RTVSPropertyOp9
 70
     1
102
RTVSPropertyOp10
 70
     1
102
RTVSPropertyOp11
 70
     1
102
RTVSPropertyOp12
 70
     1
102
RTVSPropertyOp13
 70
     1
102
RTVSPropertyOp14
 70
     1
102
RTVSPropertyOp15
 70
     1
102
RTVSPropertyOp16
 70
     1
102
RTVSPropertyOp17
 70
     1
102
RTVSPropertyOp18
 70
     1
102
RTVSPropertyOp19
 70
     1
102
RTVSPropertyOp20
 70
     1
102
RTVSPropertyOp21
 70
     1
102
RTVSPropertyOp22
 70
     1
102
RTVSPropertyOp23
 70
     1
102
RTVSPropertyOp24
 70
     1
102
RTVSPropertyOp25
 70
     1
102
RTVSPropertyOp26
 70
     1
102
RTVSPropertyOp27
 70
     1
102
RTVSPropertyOp28
 70
     1
102
RTVSPropertyOp29
 70
     1
102
RTVSPropertyOp30
 70
     1
102
RTVSPropertyOp31
 70
     1
102
RTVSPropertyOp32
 70
     1
  0
XRECORD
  5
27A
102
{ACAD_REACTORS
330
279
102
}
330
279
100
AcDbXrecord
280
     1
102
RTVSPropertyOp0
 70
     1
102
RTVSPropertyOp1
 70
     1
102
RTVSPropertyOp2
 70
     1
102
RTVSPropertyOp3
 70
     1
102
RTVSPropertyOp4
 70
     1
102
RTVSPropertyOp5
 70
     1
102
RTVSPropertyOp6
 70
     1
102
RTVSPropertyOp7
 70
     1
102
RTVSPropertyOp8
 70
     1
102
RTVSPropertyOp9
 70
     1
102
RTVSPropertyOp10
 70
     1
102
RTVSPropertyOp11
 70
     1
102
RTVSPropertyOp12
 70
     1
102
RTVSPropertyOp13
 70
     1
102
RTVSPropertyOp14
 70
     1
102
RTVSPropertyOp15
 70
     1
102
RTVSPropertyOp16
 70
     1
102
RTVSPropertyOp17
 70
     1
102
RTVSPropertyOp18
 70
     1
102
RTVSPropertyOp19
 70
     1
102
RTVSPropertyOp20
 70
     1
102
RTVSPropertyOp21
 70
     1
102
RTVSPropertyOp22
 70
     1
102
RTVSPropertyOp23
 70
     1
102
RTVSPropertyOp24
 70
     1
102
RTVSPropertyOp25
 70
     1
102
RTVSPropertyOp26
 70
     1
102
RTVSPropertyOp27
 70
     1
102
RTVSPropertyOp28
 70
     1
102
RTVSPropertyOp29
 70
     1
102
RTVSPropertyOp30
 70
     1
102
RTVSPropertyOp31
 70
     1
102
RTVSPropertyOp32
 70
     1
  0
XRECORD
  5
282
102
{ACAD_REACTORS
330
281
102
}
330
281
100
AcDbXrecord
280
     1
102
RTVSPropertyOp0
 70
     1
102
RTVSPropertyOp1
 70
     1
102
RTVSPropertyOp2
 70
     1
102
RTVSPropertyOp3
 70
     1
102
RTVSPropertyOp4
 70
     1
102
RTVSPropertyOp5
 70
     1
102
RTVSPropertyOp6
 70
     1
102
RTVSPropertyOp7
 70
     1
102
RTVSPropertyOp8
 70
     1
102
RTVSPropertyOp9
 70
     1
102
RTVSPropertyOp10
 70
     1
102
RTVSPropertyOp11
 70
     1
102
RTVSPropertyOp12
 70
     1
102
RTVSPropertyOp13
 70
     1
102
RTVSPropertyOp14
 70
     1
102
RTVSPropertyOp15
 70
     1
102
RTVSPropertyOp16
 70
     1
102
RTVSPropertyOp17
 70
     1
102
RTVSPropertyOp18
 70
     1
102
RTVSPropertyOp19
 70
     1
102
RTVSPropertyOp20
 70
     1
102
RTVSPropertyOp21
 70
     1
102
RTVSPropertyOp22
 70
     1
102
RTVSPropertyOp23
 70
     1
102
RTVSPropertyOp24
 70
     1
102
RTVSPropertyOp25
 70
     1
102
RTVSPropertyOp26
 70
     1
102
RTVSPropertyOp27
 70
     1
102
RTVSPropertyOp28
 70
     1
102
RTVSPropertyOp29
 70
     1
102
RTVSPropertyOp30
 70
     1
102
RTVSPropertyOp31
 70
     1
102
RTVSPropertyOp32
 70
     1
  0
XRECORD
  5
266
102
{ACAD_REACTORS
330
265
102
}
330
265
100
AcDbXrecord
280
     1
102
RTVSPropertyOp0
 70
     1
102
RTVSPropertyOp1
 70
     1
102
RTVSPropertyOp2
 70
     1
102
RTVSPropertyOp3
 70
     1
102
RTVSPropertyOp4
 70
     1
102
RTVSPropertyOp5
 70
     1
102
RTVSPropertyOp6
 70
     1
102
RTVSPropertyOp7
 70
     1
102
RTVSPropertyOp8
 70
     1
102
RTVSPropertyOp9
 70
     1
102
RTVSPropertyOp10
 70
     1
102
RTVSPropertyOp11
 70
     1
102
RTVSPropertyOp12
 70
     1
102
RTVSPropertyOp13
 70
     1
102
RTVSPropertyOp14
 70
     1
102
RTVSPropertyOp15
 70
     1
102
RTVSPropertyOp16
 70
     1
102
RTVSPropertyOp17
 70
     1
102
RTVSPropertyOp18
 70
     1
102
RTVSPropertyOp19
 70
     1
102
RTVSPropertyOp20
 70
     1
102
RTVSPropertyOp21
 70
     1
102
RTVSPropertyOp22
 70
     1
102
RTVSPropertyOp23
 70
     1
102
RTVSPropertyOp24
 70
     1
102
RTVSPropertyOp25
 70
     1
102
RTVSPropertyOp26
 70
     1
102
RTVSPropertyOp27
 70
     1
102
RTVSPropertyOp28
 70
     1
102
RTVSPropertyOp29
 70
     1
102
RTVSPropertyOp30
 70
     1
102
RTVSPropertyOp31
 70
     1
102
RTVSPropertyOp32
 70
     1
  0
XRECORD
  5
268
102
{ACAD_REACTORS
330
267
102
}
330
267
100
AcDbXrecord
280
     1
102
RTVSPropertyOp0
 70
     1
102
RTVSPropertyOp1
 70
     1
102
RTVSPropertyOp2
 70
     1
102
RTVSPropertyOp3
 70
     1
102
RTVSPropertyOp4
 70
     1
102
RTVSPropertyOp5
 70
     1
102
RTVSPropertyOp6
 70
     1
102
RTVSPropertyOp7
 70
     1
102
RTVSPropertyOp8
 70
     1
102
RTVSPropertyOp9
 70
     1
102
RTVSPropertyOp10
 70
     1
102
RTVSPropertyOp11
 70
     1
102
RTVSPropertyOp12
 70
     1
102
RTVSPropertyOp13
 70
     1
102
RTVSPropertyOp14
 70
     1
102
RTVSPropertyOp15
 70
     1
102
RTVSPropertyOp16
 70
     1
102
RTVSPropertyOp17
 70
     1
102
RTVSPropertyOp18
 70
     1
102
RTVSPropertyOp19
 70
     1
102
RTVSPropertyOp20
 70
     1
102
RTVSPropertyOp21
 70
     1
102
RTVSPropertyOp22
 70
     1
102
RTVSPropertyOp23
 70
     1
102
RTVSPropertyOp24
 70
     1
102
RTVSPropertyOp25
 70
     1
102
RTVSPropertyOp26
 70
     1
102
RTVSPropertyOp27
 70
     1
102
RTVSPropertyOp28
 70
     1
102
RTVSPropertyOp29
 70
     1
102
RTVSPropertyOp30
 70
     1
102
RTVSPropertyOp31
 70
     1
102
RTVSPropertyOp32
 70
     1
  0
XRECORD
  5
26A
102
{ACAD_REACTORS
330
269
102
}
330
269
100
AcDbXrecord
280
     1
102
RTVSPropertyOp0
 70
     1
102
RTVSPropertyOp1
 70
     1
102
RTVSPropertyOp2
 70
     1
102
RTVSPropertyOp3
 70
     1
102
RTVSPropertyOp4
 70
     1
102
RTVSPropertyOp5
 70
     1
102
RTVSPropertyOp6
 70
     1
102
RTVSPropertyOp7
 70
     1
102
RTVSPropertyOp8
 70
     1
102
RTVSPropertyOp9
 70
     1
102
RTVSPropertyOp10
 70
     1
102
RTVSPropertyOp11
 70
     1
102
RTVSPropertyOp12
 70
     1
102
RTVSPropertyOp13
 70
     1
102
RTVSPropertyOp14
 70
     1
102
RTVSPropertyOp15
 70
     1
102
RTVSPropertyOp16
 70
     1
102
RTVSPropertyOp17
 70
     1
102
RTVSPropertyOp18
 70
     1
102
RTVSPropertyOp19
 70
     1
102
RTVSPropertyOp20
 70
     1
102
RTVSPropertyOp21
 70
     1
102
RTVSPropertyOp22
 70
     1
102
RTVSPropertyOp23
 70
     1
102
RTVSPropertyOp24
 70
     1
102
RTVSPropertyOp25
 70
     1
102
RTVSPropertyOp26
 70
     1
102
RTVSPropertyOp27
 70
     1
102
RTVSPropertyOp28
 70
     1
102
RTVSPropertyOp29
 70
     1
102
RTVSPropertyOp30
 70
     1
102
RTVSPropertyOp31
 70
     1
102
RTVSPropertyOp32
 70
     1
  0
XRECORD
  5
26C
102
{ACAD_REACTORS
330
26B
102
}
330
26B
100
AcDbXrecord
280
     1
102
RTVSPropertyOp0
 70
     1
102
RTVSPropertyOp1
 70
     1
102
RTVSPropertyOp2
 70
     1
102
RTVSPropertyOp3
 70
     1
102
RTVSPropertyOp4
 70
     1
102
RTVSPropertyOp5
 70
     1
102
RTVSPropertyOp6
 70
     1
102
RTVSPropertyOp7
 70
     1
102
RTVSPropertyOp8
 70
     1
102
RTVSPropertyOp9
 70
     1
102
RTVSPropertyOp10
 70
     1
102
RTVSPropertyOp11
 70
     1
102
RTVSPropertyOp12
 70
     1
102
RTVSPropertyOp13
 70
     1
102
RTVSPropertyOp14
 70
     1
102
RTVSPropertyOp15
 70
     1
102
RTVSPropertyOp16
 70
     1
102
RTVSPropertyOp17
 70
     1
102
RTVSPropertyOp18
 70
     1
102
RTVSPropertyOp19
 70
     1
102
RTVSPropertyOp20
 70
     1
102
RTVSPropertyOp21
 70
     1
102
RTVSPropertyOp22
 70
     1
102
RTVSPropertyOp23
 70
     1
102
RTVSPropertyOp24
 70
     1
102
RTVSPropertyOp25
 70
     1
102
RTVSPropertyOp26
 70
     1
102
RTVSPropertyOp27
 70
     1
102
RTVSPropertyOp28
 70
     1
102
RTVSPropertyOp29
 70
     1
102
RTVSPropertyOp30
 70
     1
102
RTVSPropertyOp31
 70
     1
102
RTVSPropertyOp32
 70
     1
  0
XRECORD
  5
280
102
{ACAD_REACTORS
330
27F
102
}
330
27F
100
AcDbXrecord
280
     1
102
RTVSPropertyOp0
 70
     1
102
RTVSPropertyOp1
 70
     1
102
RTVSPropertyOp2
 70
     1
102
RTVSPropertyOp3
 70
     1
102
RTVSPropertyOp4
 70
     1
102
RTVSPropertyOp5
 70
     1
102
RTVSPropertyOp6
 70
     1
102
RTVSPropertyOp7
 70
     1
102
RTVSPropertyOp8
 70
     1
102
RTVSPropertyOp9
 70
     1
102
RTVSPropertyOp10
 70
     1
102
RTVSPropertyOp11
 70
     1
102
RTVSPropertyOp12
 70
     1
102
RTVSPropertyOp13
 70
     1
102
RTVSPropertyOp14
 70
     1
102
RTVSPropertyOp15
 70
     1
102
RTVSPropertyOp16
 70
     1
102
RTVSPropertyOp17
 70
     1
102
RTVSPropertyOp18
 70
     1
102
RTVSPropertyOp19
 70
     1
102
RTVSPropertyOp20
 70
     1
102
RTVSPropertyOp21
 70
     1
102
RTVSPropertyOp22
 70
     1
102
RTVSPropertyOp23
 70
     1
102
RTVSPropertyOp24
 70
     1
102
RTVSPropertyOp25
 70
     1
102
RTVSPropertyOp26
 70
     1
102
RTVSPropertyOp27
 70
     1
102
RTVSPropertyOp28
 70
     1
102
RTVSPropertyOp29
 70
     1
102
RTVSPropertyOp30
 70
     1
102
RTVSPropertyOp31
 70
     1
102
RTVSPropertyOp32
 70
     1
  0
XRECORD
  5
276
102
{ACAD_REACTORS
330
275
102
}
330
275
100
AcDbXrecord
280
     1
102
RTVSPropertyOp0
 70
     1
102
RTVSPropertyOp1
 70
     1
102
RTVSPropertyOp2
 70
     1
102
RTVSPropertyOp3
 70
     1
102
RTVSPropertyOp4
 70
     1
102
RTVSPropertyOp5
 70
     1
102
RTVSPropertyOp6
 70
     1
102
RTVSPropertyOp7
 70
     1
102
RTVSPropertyOp8
 70
     1
102
RTVSPropertyOp9
 70
     1
102
RTVSPropertyOp10
 70
     1
102
RTVSPropertyOp11
 70
     1
102
RTVSPropertyOp12
 70
     1
102
RTVSPropertyOp13
 70
     1
102
RTVSPropertyOp14
 70
     1
102
RTVSPropertyOp15
 70
     1
102
RTVSPropertyOp16
 70
     1
102
RTVSPropertyOp17
 70
     1
102
RTVSPropertyOp18
 70
     1
102
RTVSPropertyOp19
 70
     1
102
RTVSPropertyOp20
 70
     1
102
RTVSPropertyOp21
 70
     1
102
RTVSPropertyOp22
 70
     1
102
RTVSPropertyOp23
 70
     1
102
RTVSPropertyOp24
 70
     1
102
RTVSPropertyOp25
 70
     1
102
RTVSPropertyOp26
 70
     1
102
RTVSPropertyOp27
 70
     1
102
RTVSPropertyOp28
 70
     1
102
RTVSPropertyOp29
 70
     1
102
RTVSPropertyOp30
 70
     1
102
RTVSPropertyOp31
 70
     1
102
RTVSPropertyOp32
 70
     1
  0
XRECORD
  5
27E
102
{ACAD_REACTORS
330
27D
102
}
330
27D
100
AcDbXrecord
280
     1
102
RTVSPropertyOp0
 70
     1
102
RTVSPropertyOp1
 70
     1
102
RTVSPropertyOp2
 70
     1
102
RTVSPropertyOp3
 70
     1
102
RTVSPropertyOp4
 70
     1
102
RTVSPropertyOp5
 70
     1
102
RTVSPropertyOp6
 70
     1
102
RTVSPropertyOp7
 70
     1
102
RTVSPropertyOp8
 70
     1
102
RTVSPropertyOp9
 70
     1
102
RTVSPropertyOp10
 70
     1
102
RTVSPropertyOp11
 70
     1
102
RTVSPropertyOp12
 70
     1
102
RTVSPropertyOp13
 70
     1
102
RTVSPropertyOp14
 70
     1
102
RTVSPropertyOp15
 70
     1
102
RTVSPropertyOp16
 70
     1
102
RTVSPropertyOp17
 70
     1
102
RTVSPropertyOp18
 70
     1
102
RTVSPropertyOp19
 70
     1
102
RTVSPropertyOp20
 70
     1
102
RTVSPropertyOp21
 70
     1
102
RTVSPropertyOp22
 70
     1
102
RTVSPropertyOp23
 70
     1
102
RTVSPropertyOp24
 70
     1
102
RTVSPropertyOp25
 70
     1
102
RTVSPropertyOp26
 70
     1
102
RTVSPropertyOp27
 70
     1
102
RTVSPropertyOp28
 70
     1
102
RTVSPropertyOp29
 70
     1
102
RTVSPropertyOp30
 70
     1
102
RTVSPropertyOp31
 70
     1
102
RTVSPropertyOp32
 70
     1
  0
ENDSEC
  0
EOF
