  0
SECTION
  2
HEADER
  9
$ACADVER
  1
AC1015
  9
$ACADMAINTVER
 70
     6
  9
$DWGCODEPAGE
  3
DOS932
  9
$INSBASE
 10
0.0
 20
0.0
 30
0.0
  9
$EXTMIN
 10
0.0
 20
0.0
 30
0.0
  9
$EXTMAX
 10
210.0
 20
297.0
 30
0.0
  9
$LIMMIN
 10
0.0
 20
0.0
  9
$LIMMAX
 10
12.0
 20
9.0
  9
$ORTHOMODE
 70
     0
  9
$REGENMODE
 70
     1
  9
$FILLMODE
 70
     1
  9
$QTEXTMODE
 70
     0
  9
$MIRRTEXT
 70
     1
  9
$LTSCALE
 40
1.0
  9
$ATTMODE
 70
     1
  9
$TEXTSIZE
 40
0.2
  9
$TRACEWID
 40
0.05
  9
$TEXTSTYLE
  7
Standard
  9
$CLAYER
  8
0
  9
$CELTYPE
  6
ByLayer
  9
$CECOLOR
 62
   256
  9
$CELTSCALE
 40
1.0
  9
$DISPSILH
 70
     0
  9
$DIMSCALE
 40
1.0
  9
$DIMASZ
 40
0.18
  9
$DIMEXO
 40
0.0625
  9
$DIMDLI
 40
0.38
  9
$DIMRND
 40
0.0
  9
$DIMDLE
 40
0.0
  9
$DIMEXE
 40
0.18
  9
$DIMTP
 40
0.0
  9
$DIMTM
 40
0.0
  9
$DIMTXT
 40
0.18
  9
$DIMCEN
 40
0.09
  9
$DIMTSZ
 40
0.0
  9
$DIMTOL
 70
     0
  9
$DIMLIM
 70
     0
  9
$DIMTIH
 70
     1
  9
$DIMTOH
 70
     1
  9
$DIMSE1
 70
     0
  9
$DIMSE2
 70
     0
  9
$DIMTAD
 70
     0
  9
$DIMZIN
 70
     0
  9
$DIMBLK
  1

  9
$DIMASO
 70
     1
  9
$DIMSHO
 70
     1
  9
$DIMPOST
  1

  9
$DIMAPOST
  1

  9
$DIMALT
 70
     0
  9
$DIMALTD
 70
     2
  9
$DIMALTF
 40
25.4
  9
$DIMLFAC
 40
1.0
  9
$DIMTOFL
 70
     0
  9
$DIMTVP
 40
0.0
  9
$DIMTIX
 70
     0
  9
$DIMSOXD
 70
     0
  9
$DIMSAH
 70
     0
  9
$DIMBLK1
  1

  9
$DIMBLK2
  1

  9
$DIMSTYLE
  2
Standard
  9
$DIMCLRD
 70
     0
  9
$DIMCLRE
 70
     0
  9
$DIMCLRT
 70
     0
  9
$DIMTFAC
 40
1.0
  9
$DIMGAP
 40
0.09
  9
$DIMJUST
 70
     0
  9
$DIMSD1
 70
     0
  9
$DIMSD2
 70
     0
  9
$DIMTOLJ
 70
     1
  9
$DIMTZIN
 70
     0
  9
$DIMALTZ
 70
     0
  9
$DIMALTTZ
 70
     0
  9
$DIMUPT
 70
     0
  9
$DIMDEC
 70
     4
  9
$DIMTDEC
 70
     4
  9
$DIMALTU
 70
     2
  9
$DIMALTTD
 70
     2
  9
$DIMTXSTY
  7
Standard
  9
$DIMAUNIT
 70
     0
  9
$DIMADEC
 70
     0
  9
$DIMALTRND
 40
0.0
  9
$DIMAZIN
 70
     0
  9
$DIMDSEP
 70
    46
  9
$DIMATFIT
 70
     3
  9
$DIMFRAC
 70
     0
  9
$DIMLDRBLK
  1

  9
$DIMLUNIT
 70
     2
  9
$DIMLWD
 70
    -2
  9
$DIMLWE
 70
    -2
  9
$DIMTMOVE
 70
     0
  9
$LUNITS
 70
     2
  9
$LUPREC
 70
     4
  9
$SKETCHINC
 40
0.1
  9
$FILLETRAD
 40
0.5
  9
$AUNITS
 70
     0
  9
$AUPREC
 70
     0
  9
$MENU
  1
.
  9
$ELEVATION
 40
0.0
  9
$PELEVATION
 40
0.0
  9
$THICKNESS
 40
0.0
  9
$LIMCHECK
 70
     0
  9
$CHAMFERA
 40
0.5
  9
$CHAMFERB
 40
0.5
  9
$CHAMFERC
 40
1.0
  9
$CHAMFERD
 40
0.0
  9
$SKPOLY
 70
     0
  9
$TDCREATE
 40
2456142.678021366
  9
$TDUCREATE
 40
2456142.303021366
  9
$TDUPDATE
 40
2456142.678021377
  9
$TDUUPDATE
 40
2456142.303021377
  9
$TDINDWG
 40
0.0000000116
  9
$TDUSRTIMER
 40
0.0000000116
  9
$USRTIMER
 70
     1
  9
$ANGBASE
 50
0.0
  9
$ANGDIR
 70
     0
  9
$PDMODE
 70
     0
  9
$PDSIZE
 40
0.0
  9
$PLINEWID
 40
0.0
  9
$SPLFRAME
 70
     0
  9
$SPLINETYPE
 70
     6
  9
$SPLINESEGS
 70
     8
  9
$HANDSEED
  5
206
  9
$SURFTAB1
 70
     6
  9
$SURFTAB2
 70
     6
  9
$SURFTYPE
 70
     6
  9
$SURFU
 70
     6
  9
$SURFV
 70
     6
  9
$UCSBASE
  2

  9
$UCSNAME
  2

  9
$UCSORG
 10
0.0
 20
0.0
 30
0.0
  9
$UCSXDIR
 10
1.0
 20
0.0
 30
0.0
  9
$UCSYDIR
 10
0.0
 20
1.0
 30
0.0
  9
$UCSORTHOREF
  2

  9
$UCSORTHOVIEW
 70
     0
  9
$UCSORGTOP
 10
0.0
 20
0.0
 30
0.0
  9
$UCSORGBOTTOM
 10
0.0
 20
0.0
 30
0.0
  9
$UCSORGLEFT
 10
0.0
 20
0.0
 30
0.0
  9
$UCSORGRIGHT
 10
0.0
 20
0.0
 30
0.0
  9
$UCSORGFRONT
 10
0.0
 20
0.0
 30
0.0
  9
$UCSORGBACK
 10
0.0
 20
0.0
 30
0.0
  9
$PUCSBASE
  2

  9
$PUCSNAME
  2

  9
$PUCSORG
 10
0.0
 20
0.0
 30
0.0
  9
$PUCSXDIR
 10
1.0
 20
0.0
 30
0.0
  9
$PUCSYDIR
 10
0.0
 20
1.0
 30
0.0
  9
$PUCSORTHOREF
  2

  9
$PUCSORTHOVIEW
 70
     0
  9
$PUCSORGTOP
 10
0.0
 20
0.0
 30
0.0
  9
$PUCSORGBOTTOM
 10
0.0
 20
0.0
 30
0.0
  9
$PUCSORGLEFT
 10
0.0
 20
0.0
 30
0.0
  9
$PUCSORGRIGHT
 10
0.0
 20
0.0
 30
0.0
  9
$PUCSORGFRONT
 10
0.0
 20
0.0
 30
0.0
  9
$PUCSORGBACK
 10
0.0
 20
0.0
 30
0.0
  9
$USERI1
 70
     0
  9
$USERI2
 70
     0
  9
$USERI3
 70
     0
  9
$USERI4
 70
     0
  9
$USERI5
 70
     0
  9
$USERR1
 40
13.2
  9
$USERR2
 40
0.0
  9
$USERR3
 40
0.0
  9
$USERR4
 40
0.0
  9
$USERR5
 40
0.0
  9
$WORLDVIEW
 70
     1
  9
$SHADEDGE
 70
     3
  9
$SHADEDIF
 70
    70
  9
$TILEMODE
 70
     1
  9
$MAXACTVP
 70
    64
  9
$PINSBASE
 10
0.0
 20
0.0
 30
0.0
  9
$PLIMCHECK
 70
     0
  9
$PEXTMIN
 10
1.00000000000000E+20
 20
1.00000000000000E+20
 30
1.00000000000000E+20
  9
$PEXTMAX
 10
-1.00000000000000E+20
 20
-1.00000000000000E+20
 30
-1.00000000000000E+20
  9
$PLIMMIN
 10
0.0
 20
0.0
  9
$PLIMMAX
 10
12.0
 20
9.0
  9
$UNITMODE
 70
     0
  9
$VISRETAIN
 70
     1
  9
$PLINEGEN
 70
     0
  9
$PSLTSCALE
 70
     1
  9
$TREEDEPTH
 70
  3020
  9
$CMLSTYLE
  2
Standard
  9
$CMLJUST
 70
     0
  9
$CMLSCALE
 40
1.0
  9
$PROXYGRAPHICS
 70
     1
  9
$MEASUREMENT
 70
     1
  9
$CELWEIGHT
370
    -1
  9
$ENDCAPS
280
     0
  9
$JOINSTYLE
280
     0
  9
$LWDISPLAY
290
     0
  9
$INSUNITS
 70
     1
  9
$HYPERLINKBASE
  1

  9
$STYLESHEET
  1

  9
$XEDIT
290
     1
  9
$CEPSNTYPE
380
     0
  9
$PSTYLEMODE
290
     0
  9
$FINGERPRINTGUID
  2
{FAEB1C30-E019-11D5-929B-00C0DF256EC4}
  9
$VERSIONGUID
  2
{FAEB1C32-E019-11D5-929B-00C0DF256EC4}
  9
$EXTNAMES
290
     1
  9
$PSVPSCALE
 40
0.0
  9
$OLESTARTUP
290
     0
  0
ENDSEC
  0
SECTION
  2
CLASSES
  0
CLASS
  1
ACDBDICTIONARYWDFLT
  2
AcDbDictionaryWithDefault
  3
ObjectDBX Classes
 90
        0
280
     0
281
     0
  0
CLASS
  1
TABLESTYLE
  2
AcDbTableStyle
  3
ObjectDBX Classes
 90
     2047
280
     0
281
     0
  0
CLASS
  1
DICTIONARYVAR
  2
AcDbDictionaryVar
  3
ObjectDBX Classes
 90
        0
280
     0
281
     0
  0
CLASS
  1

  2
exOdDbCircle
  3

 90
        0
280
     0
281
     1
  0
CLASS
  1

  2
exOdDbSpline
  3

 90
        0
280
     0
281
     1
  0
CLASS
  1
ACDBPLACEHOLDER
  2
AcDbPlaceHolder
  3
ObjectDBX Classes
 90
        0
280
     0
281
     0
  0
CLASS
  1
LAYOUT
  2
AcDbLayout
  3
ObjectDBX Classes
 90
        0
280
     0
281
     0
  0
ENDSEC
  0
SECTION
  2
TABLES
  0
TABLE
  2
VPORT
  5
8
330
0
100
AcDbSymbolTable
 70
     2
  0
VPORT
  5
29
330
8
100
AcDbSymbolTableRecord
100
AcDbViewportTableRecord
  2
*Active
 70
     0
 10
0.0
 20
0.0
 11
1.0
 21
1.0
 12
105.0
 22
148.5
 13
0.0
 23
0.0
 14
0.5
 24
0.5
 15
0.5
 25
0.5
 16
0.0
 26
0.0
 36
1.0
 17
0.0
 27
0.0
 37
0.0
 40
326.7000000000001
 41
1.60267857142857
 42
50.0
 43
0.0
 44
0.0
 50
0.0
 51
0.0
 71
     0
 72
   100
 73
     1
 74
     3
 75
     0
 76
     0
 77
     0
 78
     0
281
     0
 65
     1
110
0.0
120
0.0
130
0.0
111
1.0
121
0.0
131
0.0
112
0.0
122
1.0
132
0.0
 79
     0
146
0.0
  0
ENDTAB
  0
TABLE
  2
LTYPE
  5
5
330
0
100
AcDbSymbolTable
 70
     8
  0
LTYPE
  5
14
330
5
100
AcDbSymbolTableRecord
100
AcDbLinetypeTableRecord
  2
ByBlock
 70
     0
  3

 72
    65
 73
     0
 40
0.0
  0
LTYPE
  5
15
330
5
100
AcDbSymbolTableRecord
100
AcDbLinetypeTableRecord
  2
ByLayer
 70
     0
  3

 72
    65
 73
     0
 40
0.0
  0
LTYPE
  5
16
330
5
100
AcDbSymbolTableRecord
100
AcDbLinetypeTableRecord
  2
Continuous
 70
     0
  3
Solid line
 72
    65
 73
     0
 40
0.0
  0
LTYPE
  5
2E
330
5
100
AcDbSymbolTableRecord
100
AcDbLinetypeTableRecord
  2
DASHED
 70
     0
  3
Dashed
 72
    65
 73
     2
 40
15.0
 49
7.0
 74
     0
 49
-8.0
 74
     0
  0
LTYPE
  5
2F
330
5
100
AcDbSymbolTableRecord
100
AcDbLinetypeTableRecord
  2
DOTTED
 70
     0
  3
Dotted
 72
    65
 73
     2
 40
1.0
 49
0.0
 74
     0
 49
-1.0
 74
     0
  0
LTYPE
  5
30
330
5
100
AcDbSymbolTableRecord
100
AcDbLinetypeTableRecord
  2
DOT_CENTER
 70
     0
  3
Dot_Center
 72
    65
 73
     4
 40
14.0
 49
12.0
 74
     0
 49
-1.0
 74
     0
 49
0.0
 74
     0
 49
-1.0
 74
     0
  0
LTYPE
  5
31
330
5
100
AcDbSymbolTableRecord
100
AcDbLinetypeTableRecord
  2
LONG_DASHED
 70
     0
  3
Long_Dashed
 72
    65
 73
     2
 40
15.0
 49
10.0
 74
     0
 49
-5.0
 74
     0
  0
LTYPE
  5
32
330
5
100
AcDbSymbolTableRecord
100
AcDbLinetypeTableRecord
  2
DASH_CENTER
 70
     0
  3
Dash_Center
 72
    65
 73
     4
 40
14.0
 49
11.0
 74
     0
 49
-1.0
 74
     0
 49
1.0
 74
     0
 49
-1.0
 74
     0
  0
LTYPE
  5
33
330
5
100
AcDbSymbolTableRecord
100
AcDbLinetypeTableRecord
  2
PHANTOM
 70
     0
  3
Phantom
 72
    65
 73
     6
 40
13.0
 49
10.0
 74
     0
 49
-1.0
 74
     0
 49
0.0
 74
     0
 49
-1.0
 74
     0
 49
0.0
 74
     0
 49
-1.0
 74
     0
  0
LTYPE
  5
34
330
5
100
AcDbSymbolTableRecord
100
AcDbLinetypeTableRecord
  2
CENTER_DASH_DASH
 70
     0
  3
Center_Dash_Dash
 72
    65
 73
     6
 40
14.0
 49
9.0
 74
     0
 49
-1.0
 74
     0
 49
1.0
 74
     0
 49
-1.0
 74
     0
 49
1.0
 74
     0
 49
-1.0
 74
     0
  0
ENDTAB
  0
TABLE
  2
LAYER
  5
2
330
0
100
AcDbSymbolTable
 70
     2
  0
LAYER
  5
10
330
2
100
AcDbSymbolTableRecord
100
AcDbLayerTableRecord
  2
0
 70
     0
 62
     7
  6
Continuous
370
    -3
390
F
  0
LAYER
  5
35
330
2
100
AcDbSymbolTableRecord
100
AcDbLayerTableRecord
  2
1
 70
     0
 62
     7
  6
Continuous
370
    -3
390
F
  0
ENDTAB
  0
TABLE
  2
STYLE
  5
3
330
0
100
AcDbSymbolTable
 70
     3
  0
STYLE
  5
11
330
3
100
AcDbSymbolTableRecord
100
AcDbTextStyleTableRecord
  2
Standard
 70
     0
 40
0.0
 41
1.0
 50
0.0
 71
     0
 42
0.2
  3
txt
  4

  0
STYLE
  5
99
330
3
100
AcDbSymbolTableRecord
100
AcDbTextStyleTableRecord
  2
CONVERTER_1
 70
     0
 40
0.0
 41
0.89
 50
0.0
 71
     0
 42
0.2
  3
msmincho.ttc
  4

1001
ACAD
1000
MS Mincho
1071
    32785
  0
STYLE
  5
1C5
330
3
100
AcDbSymbolTableRecord
100
AcDbTextStyleTableRecord
  2
CONVERTER_2
 70
     0
 40
0.0
 41
0.9
 50
0.0
 71
     0
 42
0.2
  3
txt.shx
  4

  0
ENDTAB
  0
TABLE
  2
VIEW
  5
6
330
0
100
AcDbSymbolTable
 70
     0
  0
ENDTAB
  0
TABLE
  2
UCS
  5
7
330
0
100
AcDbSymbolTable
 70
     0
  0
ENDTAB
  0
TABLE
  2
APPID
  5
9
330
0
100
AcDbSymbolTable
 70
     1
  0
APPID
  5
12
330
9
100
AcDbSymbolTableRecord
100
AcDbRegAppTableRecord
  2
ACAD
 70
     0
  0
ENDTAB
  0
TABLE
  2
DIMSTYLE
  5
A
330
0
100
AcDbSymbolTable
 70
     6
100
AcDbDimStyleTable
  0
DIMSTYLE
105
27
330
A
100
AcDbSymbolTableRecord
100
AcDbDimStyleTableRecord
  2
Standard
 70
     0
340
11
  0
DIMSTYLE
105
1D8
102
{ACAD_REACTORS
330
1D9
102
}
330
A
100
AcDbSymbolTableRecord
100
AcDbDimStyleTableRecord
  2
ME10_DIM_0
 70
     0
 41
3.5
 42
0.0
 44
1.0
 73
     0
 74
     0
 77
     1
 78
     8
140
3.5
147
0.625
172
     1
173
     1
176
     2
177
     2
178
     7
271
     2
340
99
  0
DIMSTYLE
105
1E3
102
{ACAD_REACTORS
330
1E4
102
}
330
A
100
AcDbSymbolTableRecord
100
AcDbDimStyleTableRecord
  2
ME10_DIM_1
 70
     0
 41
3.5
 42
0.0
 44
1.0
 73
     0
 74
     0
 77
     1
 78
     8
140
3.5
147
0.625
172
     1
173
     1
176
     2
177
     2
178
     7
271
     2
340
1C5
  0
DIMSTYLE
105
1EE
102
{ACAD_REACTORS
330
1EF
102
}
330
A
100
AcDbSymbolTableRecord
100
AcDbDimStyleTableRecord
  2
ME10_DIM_2
 70
     0
 41
3.5
 42
0.0
 44
1.0
 73
     0
 74
     0
 77
     1
 78
     8
140
3.5
147
0.625
172
     1
173
     1
176
     2
177
     2
178
     7
271
     2
340
1C5
  0
DIMSTYLE
105
1F9
102
{ACAD_REACTORS
330
1FA
102
}
330
A
100
AcDbSymbolTableRecord
100
AcDbDimStyleTableRecord
  2
ME10_DIM_3
 70
     0
 41
3.5
 42
0.0
 44
1.0
 73
     0
 74
     0
 77
     1
 78
     8
140
3.5
147
0.625
172
     1
173
     1
176
     2
177
     2
178
     7
271
     2
340
1C5
  0
DIMSTYLE
105
204
102
{ACAD_REACTORS
330
205
102
}
330
A
100
AcDbSymbolTableRecord
100
AcDbDimStyleTableRecord
  2
ME10_DIM_4
 70
     0
 41
3.5
 42
0.0
 44
1.0
 73
     0
 74
     0
 77
     1
 78
     8
140
3.5
147
0.625
172
     1
173
     1
176
     2
177
     2
178
     7
271
     2
340
1C5
  0
ENDTAB
  0
TABLE
  2
BLOCK_RECORD
  5
1
330
0
100
AcDbSymbolTable
 70
    12
  0
BLOCK_RECORD
  5
1F
330
1
100
AcDbSymbolTableRecord
100
AcDbBlockTableRecord
  2
*Model_Space
340
22
  0
BLOCK_RECORD
  5
1B
330
1
100
AcDbSymbolTableRecord
100
AcDbBlockTableRecord
  2
*Paper_Space
340
1E
  0
BLOCK_RECORD
  5
23
330
1
100
AcDbSymbolTableRecord
100
AcDbBlockTableRecord
  2
*Paper_Space0
340
26
  0
BLOCK_RECORD
  5
36
330
1
100
AcDbSymbolTableRecord
100
AcDbBlockTableRecord
  2
_J__A4
340
0
102
{BLKREFS
331
48
102
}
  0
BLOCK_RECORD
  5
39
330
1
100
AcDbSymbolTableRecord
100
AcDbBlockTableRecord
  2
32-12-M2
340
0
102
{BLKREFS
331
49
102
}
  0
BLOCK_RECORD
  5
3C
330
1
100
AcDbSymbolTableRecord
100
AcDbBlockTableRecord
  2
37-1-13
340
0
102
{BLKREFS
331
4A
102
}
  0
BLOCK_RECORD
  5
3F
330
1
100
AcDbSymbolTableRecord
100
AcDbBlockTableRecord
  2
36-45
340
0
102
{BLKREFS
331
4B
102
}
  0
BLOCK_RECORD
  5
42
330
1
100
AcDbSymbolTableRecord
100
AcDbBlockTableRecord
  2
V21-2-0A
340
0
102
{BLKREFS
331
4C
102
}
  0
BLOCK_RECORD
  5
45
330
1
100
AcDbSymbolTableRecord
100
AcDbBlockTableRecord
  2
V21-2-0A-13-__________
340
0
102
{BLKREFS
331
4D
102
}
  0
BLOCK_RECORD
  5
1CF
330
1
100
AcDbSymbolTableRecord
100
AcDbBlockTableRecord
  2
*D07
340
0
  0
BLOCK_RECORD
  5
1DA
330
1
100
AcDbSymbolTableRecord
100
AcDbBlockTableRecord
  2
*D18
340
0
  0
BLOCK_RECORD
  5
1E5
330
1
100
AcDbSymbolTableRecord
100
AcDbBlockTableRecord
  2
*D29
340
0
  0
BLOCK_RECORD
  5
1F0
330
1
100
AcDbSymbolTableRecord
100
AcDbBlockTableRecord
  2
*D310
340
0
  0
BLOCK_RECORD
  5
1FB
330
1
100
AcDbSymbolTableRecord
100
AcDbBlockTableRecord
  2
*D411
340
0
  0
ENDTAB
  0
ENDSEC
  0
SECTION
  2
BLOCKS
  0
BLOCK
  5
20
330
1F
100
AcDbEntity
  8
0
100
AcDbBlockBegin
  2
*Model_Space
 70
     0
 71
     0
 10
0.0
 20
0.0
 30
0.0
  3
*Model_Space
  1

  0
ENDBLK
  5
21
330
1F
100
AcDbEntity
  8
0
100
AcDbBlockEnd
  0
BLOCK
  5
1C
330
1B
100
AcDbEntity
 67
     1
  8
0
100
AcDbBlockBegin
  2
*Paper_Space
 70
     0
 71
     0
 10
0.0
 20
0.0
 30
0.0
  3
*Paper_Space
  1

  0
ENDBLK
  5
1D
330
1B
100
AcDbEntity
 67
     1
  8
0
100
AcDbBlockEnd
  0
BLOCK
  5
24
330
23
100
AcDbEntity
  8
0
100
AcDbBlockBegin
  2
*Paper_Space0
 70
     0
 71
     0
 10
0.0
 20
0.0
 30
0.0
  3
*Paper_Space0
  1

  0
ENDBLK
  5
25
330
23
100
AcDbEntity
  8
0
100
AcDbBlockEnd
  0
BLOCK
  5
37
330
36
100
AcDbEntity
  8
0
100
AcDbBlockBegin
  2
_J__A4
 70
     0
 71
     0
 10
0.0
 20
0.0
 30
0.0
  3
_J__A4
  1

  0
POINT
  5
4E
330
36
100
AcDbEntity
  8
1
 62
     4
100
AcDbPoint
 10
93.75
 20
17.0
 30
0.0
  0
POINT
  5
4F
330
36
100
AcDbEntity
  8
1
 62
     4
100
AcDbPoint
 10
85.25
 20
17.0
 30
0.0
  0
POINT
  5
50
330
36
100
AcDbEntity
  8
1
 62
     4
100
AcDbPoint
 10
106.5
 20
19.00000000000001
 30
0.0
  0
POINT
  5
51
330
36
100
AcDbEntity
  8
1
 62
     4
100
AcDbPoint
 10
106.5
 20
12.5
 30
0.0
  0
POINT
  5
52
330
36
100
AcDbEntity
  8
1
 62
     4
100
AcDbPoint
 10
112.25
 20
12.5
 30
0.0
  0
POINT
  5
53
330
36
100
AcDbEntity
  8
1
 62
     4
100
AcDbPoint
 10
100.75
 20
12.5
 30
0.0
  0
POINT
  5
54
330
36
100
AcDbEntity
  8
1
 62
     4
100
AcDbPoint
 10
123.5
 20
19.00000000000001
 30
0.0
  0
POINT
  5
55
330
36
100
AcDbEntity
  8
1
 62
     4
100
AcDbPoint
 10
123.5
 20
12.5
 30
0.0
  0
POINT
  5
56
330
36
100
AcDbEntity
  8
1
 62
     4
100
AcDbPoint
 10
129.25
 20
12.5
 30
0.0
  0
POINT
  5
57
330
36
100
AcDbEntity
  8
1
 62
     4
100
AcDbPoint
 10
117.75
 20
12.5
 30
0.0
  0
POINT
  5
58
330
36
100
AcDbEntity
  8
1
 62
     4
100
AcDbPoint
 10
140.5
 20
19.00000000000001
 30
0.0
  0
POINT
  5
59
330
36
100
AcDbEntity
  8
1
 62
     4
100
AcDbPoint
 10
140.5
 20
12.5
 30
0.0
  0
POINT
  5
5A
330
36
100
AcDbEntity
  8
1
 62
     4
100
AcDbPoint
 10
146.25
 20
12.5
 30
0.0
  0
POINT
  5
5B
330
36
100
AcDbEntity
  8
1
 62
     4
100
AcDbPoint
 10
134.75
 20
12.5
 30
0.0
  0
POINT
  5
5C
330
36
100
AcDbEntity
  8
1
 62
     4
100
AcDbPoint
 10
151.75
 20
12.5
 30
0.0
  0
POINT
  5
5D
330
36
100
AcDbEntity
  8
1
 62
     4
100
AcDbPoint
 10
163.25
 20
12.5
 30
0.0
  0
POINT
  5
5E
330
36
100
AcDbEntity
  8
1
 62
     4
100
AcDbPoint
 10
157.5
 20
12.5
 30
0.0
  0
POINT
  5
5F
330
36
100
AcDbEntity
  8
1
 62
     4
100
AcDbPoint
 10
57.0
 20
14.25
 30
0.0
  0
POINT
  5
60
330
36
100
AcDbEntity
  8
1
 62
     4
100
AcDbPoint
 10
57.0
 20
22.75000000000001
 30
0.0
  0
POINT
  5
61
330
36
100
AcDbEntity
  8
1
 62
     4
100
AcDbPoint
 10
47.5
 20
282.0000000000003
 30
0.0
  0
POINT
  5
62
330
36
100
AcDbEntity
  8
1
 62
     4
100
AcDbPoint
 10
157.5
 20
19.00000000000001
 30
0.0
  0
POINT
  5
63
330
36
100
AcDbEntity
  8
1
 62
     4
100
AcDbPoint
 10
57.0
 20
16.25
 30
0.0
  0
POINT
  5
64
330
36
100
AcDbEntity
  8
1
 62
     4
100
AcDbPoint
 10
57.0
 20
24.75000000000001
 30
0.0
  0
POINT
  5
65
330
36
100
AcDbEntity
  8
1
 62
     4
100
AcDbPoint
 10
57.0
 20
20.75000000000001
 30
0.0
  0
POINT
  5
66
330
36
100
AcDbEntity
  8
1
 62
     4
100
AcDbPoint
 10
57.0
 20
12.25
 30
0.0
  0
POINT
  5
67
330
36
100
AcDbEntity
  8
1
 62
     4
100
AcDbPoint
 10
34.0
 20
34.0
 30
0.0
  0
LINE
  5
68
330
36
100
AcDbEntity
  8
1
  6
Continuous
 62
     7
100
AcDbLine
 10
105.0
 20
10.0
 30
0.0
 11
200.0
 21
10.0
 31
0.0
  0
LINE
  5
69
330
36
100
AcDbEntity
  8
1
  6
Continuous
 62
     2
100
AcDbLine
 10
105.0
 20
10.0
 30
0.0
 11
105.0
 21
5.0
 31
0.0
  0
LINE
  5
6A
330
36
100
AcDbEntity
  8
1
  6
Continuous
 62
     7
100
AcDbLine
 10
200.0
 20
148.5
 30
0.0
 11
200.0
 21
287.0000000000003
 31
0.0
  0
LINE
  5
6B
330
36
100
AcDbEntity
  8
1
  6
Continuous
 62
     2
100
AcDbLine
 10
200.0
 20
148.5
 30
0.0
 11
205.0
 21
148.5
 31
0.0
  0
LINE
  5
6C
330
36
100
AcDbEntity
  8
1
  6
Continuous
 62
     7
100
AcDbLine
 10
25.0
 20
148.5
 30
0.0
 11
25.0
 21
287.0000000000003
 31
0.0
  0
LINE
  5
6D
330
36
100
AcDbEntity
  8
1
  6
Continuous
 62
     2
100
AcDbLine
 10
25.0
 20
148.5
 30
0.0
 11
20.0
 21
148.5
 31
0.0
  0
LINE
  5
6E
330
36
100
AcDbEntity
  8
1
  6
Continuous
 62
     7
100
AcDbLine
 10
105.0
 20
287.0000000000003
 30
0.0
 11
25.0
 21
287.0000000000003
 31
0.0
  0
LINE
  5
6F
330
36
100
AcDbEntity
  8
1
  6
Continuous
 62
     2
100
AcDbLine
 10
105.0
 20
287.0000000000003
 30
0.0
 11
105.0
 21
292.0000000000003
 31
0.0
  0
LINE
  5
70
330
36
100
AcDbEntity
  8
1
  6
Continuous
 62
     2
100
AcDbLine
 10
166.0
 20
20.00000000000001
 30
0.0
 11
200.0
 21
20.00000000000001
 31
0.0
  0
LINE
  5
71
330
36
100
AcDbEntity
  8
1
  6
Continuous
 62
     2
100
AcDbLine
 10
98.0
 20
27.00000000000001
 30
0.0
 11
98.0
 21
9.99999999999999
 31
0.0
  0
LINE
  5
72
330
36
100
AcDbEntity
  8
1
  6
Continuous
 62
     2
100
AcDbLine
 10
115.0
 20
27.00000000000001
 30
0.0
 11
115.0
 21
9.99999999999999
 31
0.0
  0
LINE
  5
73
330
36
100
AcDbEntity
  8
1
  6
Continuous
 62
     2
100
AcDbLine
 10
149.0
 20
27.00000000000001
 30
0.0
 11
149.0
 21
10.0
 31
0.0
  0
LINE
  5
74
330
36
100
AcDbEntity
  8
1
  6
Continuous
 62
     2
100
AcDbLine
 10
132.0
 20
27.00000000000001
 30
0.0
 11
132.0
 21
9.99999999999999
 31
0.0
  0
LINE
  5
75
330
36
100
AcDbEntity
  8
1
  6
Continuous
 62
     2
100
AcDbLine
 10
166.0
 20
27.00000000000001
 30
0.0
 11
166.0
 21
10.0
 31
0.0
  0
LINE
  5
76
330
36
100
AcDbEntity
  8
1
  6
Continuous
 62
     2
100
AcDbLine
 10
55.0
 20
277.0000000000003
 30
0.0
 11
25.0
 21
277.0000000000003
 31
0.0
  0
LINE
  5
77
330
36
100
AcDbEntity
  8
1
  6
Continuous
 62
     7
100
AcDbLine
 10
25.0
 20
10.0
 30
0.0
 11
25.0
 21
148.5
 31
0.0
  0
LINE
  5
78
330
36
100
AcDbEntity
  8
1
  6
Continuous
 62
     2
100
AcDbLine
 10
40.0
 20
287.0000000000003
 30
0.0
 11
40.0
 21
277.0000000000003
 31
0.0
  0
LINE
  5
79
330
36
100
AcDbEntity
  8
1
  6
Continuous
 62
     2
100
AcDbLine
 10
55.0
 20
287.0000000000003
 30
0.0
 11
55.0
 21
277.0000000000003
 31
0.0
  0
LINE
  5
7A
330
36
100
AcDbEntity
  8
1
  6
Continuous
 62
     2
100
AcDbLine
 10
33.0
 20
41.0
 30
0.0
 11
33.0
 21
27.0
 31
0.0
  0
LINE
  5
7B
330
36
100
AcDbEntity
  8
1
  6
Continuous
 62
     7
100
AcDbLine
 10
200.0
 20
27.00000000000001
 30
0.0
 11
25.0
 21
27.00000000000001
 31
0.0
  0
LINE
  5
7C
330
36
100
AcDbEntity
  8
1
  6
Continuous
 62
     7
100
AcDbLine
 10
25.0
 20
41.0
 30
0.0
 11
200.0
 21
41.0
 31
0.0
  0
LINE
  5
7D
330
36
100
AcDbEntity
  8
1
  6
PHANTOM
 62
     4
100
AcDbLine
 10
0.0
 20
0.0
 30
0.0
 11
210.0
 21
0.00000000000001
 31
0.0
  0
LINE
  5
7E
330
36
100
AcDbEntity
  8
1
  6
PHANTOM
 62
     4
100
AcDbLine
 10
210.0
 20
0.00000000000001
 30
0.0
 11
210.0
 21
297.0
 31
0.0
  0
LINE
  5
7F
330
36
100
AcDbEntity
  8
1
  6
PHANTOM
 62
     4
100
AcDbLine
 10
210.0
 20
297.0
 30
0.0
 11
0.0
 21
297.0
 31
0.0
  0
LINE
  5
80
330
36
100
AcDbEntity
  8
1
  6
PHANTOM
 62
     4
100
AcDbLine
 10
0.0
 20
297.0
 30
0.0
 11
0.0
 21
0.0
 31
0.0
  0
LINE
  5
81
330
36
100
AcDbEntity
  8
1
  6
Continuous
 62
     7
100
AcDbLine
 10
25.0
 20
10.0
 30
0.0
 11
105.0
 21
10.0
 31
0.0
  0
LINE
  5
82
330
36
100
AcDbEntity
  8
1
  6
Continuous
 62
     7
100
AcDbLine
 10
200.0
 20
10.0
 30
0.0
 11
200.0
 21
148.5
 31
0.0
  0
LINE
  5
83
330
36
100
AcDbEntity
  8
1
  6
Continuous
 62
     7
100
AcDbLine
 10
200.0
 20
287.0000000000003
 30
0.0
 11
105.0
 21
287.0000000000003
 31
0.0
  0
LINE
  5
84
330
36
100
AcDbEntity
  8
1
  6
Continuous
 62
     2
100
AcDbLine
 10
25.0
 20
18.50000000000001
 30
0.0
 11
81.0
 21
18.50000000000001
 31
0.0
  0
LINE
  5
85
330
36
100
AcDbEntity
  8
1
  6
Continuous
 62
     2
100
AcDbLine
 10
33.0
 20
27.0
 30
0.0
 11
33.0
 21
10.0
 31
0.0
  0
LINE
  5
86
330
36
100
AcDbEntity
  8
1
  6
Continuous
 62
     7
100
AcDbLine
 10
191.0
 20
24.70000000000001
 30
0.0
 11
191.0
 21
22.30000000000001
 31
0.0
  0
LINE
  5
87
330
36
100
AcDbEntity
  8
1
  6
Continuous
 62
     7
100
AcDbLine
 10
191.0
 20
24.70000000000001
 30
0.0
 11
196.0
 21
25.50000000000001
 31
0.0
  0
LINE
  5
88
330
36
100
AcDbEntity
  8
1
  6
Continuous
 62
     7
100
AcDbLine
 10
196.0
 20
25.50000000000001
 30
0.0
 11
196.0
 21
21.50000000000001
 31
0.0
  0
LINE
  5
89
330
36
100
AcDbEntity
  8
1
  6
Continuous
 62
     7
100
AcDbLine
 10
196.0
 20
21.50000000000001
 30
0.0
 11
191.0
 21
22.30000000000001
 31
0.0
  0
LINE
  5
8A
330
36
100
AcDbEntity
  8
1
  6
DOT_CENTER
 62
     2
100
AcDbLine
 10
184.0
 20
23.50000000000001
 30
0.0
 11
197.0
 21
23.50000000000001
 31
0.0
  0
LINE
  5
8B
330
36
100
AcDbEntity
  8
1
  6
DOT_CENTER
 62
     2
100
AcDbLine
 10
187.0
 20
26.50000000000001
 30
0.0
 11
187.0
 21
20.50000000000001
 31
0.0
  0
LINE
  5
8C
330
36
100
AcDbEntity
  8
1
  6
Continuous
 62
     2
100
AcDbLine
 10
81.0
 20
27.00000000000001
 30
0.0
 11
81.0
 21
10.0
 31
0.0
  0
CIRCLE
  5
8D
330
36
100
AcDbEntity
  8
1
  6
Continuous
 62
     7
100
AcDbCircle
 10
103.5
 20
12.5
 30
0.0
 40
0.2999999999999972
  0
CIRCLE
  5
8E
330
36
100
AcDbEntity
  8
1
  6
Continuous
 62
     7
100
AcDbCircle
 10
109.5
 20
12.5
 30
0.0
 40
0.2999999999999972
  0
CIRCLE
  5
8F
330
36
100
AcDbEntity
  8
1
  6
Continuous
 62
     7
100
AcDbCircle
 10
120.5
 20
12.5
 30
0.0
 40
0.2999999999999972
  0
CIRCLE
  5
90
330
36
100
AcDbEntity
  8
1
  6
Continuous
 62
     7
100
AcDbCircle
 10
126.5
 20
12.5
 30
0.0
 40
0.2999999999999972
  0
CIRCLE
  5
91
330
36
100
AcDbEntity
  8
1
  6
Continuous
 62
     7
100
AcDbCircle
 10
137.5
 20
12.5
 30
0.0
 40
0.3000000000000114
  0
CIRCLE
  5
92
330
36
100
AcDbEntity
  8
1
  6
Continuous
 62
     7
100
AcDbCircle
 10
143.5
 20
12.5
 30
0.0
 40
0.3000000000000114
  0
CIRCLE
  5
93
330
36
100
AcDbEntity
  8
1
  6
Continuous
 62
     7
100
AcDbCircle
 10
160.5
 20
12.5
 30
0.0
 40
0.3000000000000114
  0
CIRCLE
  5
94
330
36
100
AcDbEntity
  8
1
  6
Continuous
 62
     7
100
AcDbCircle
 10
154.5
 20
12.5
 30
0.0
 40
0.3000000000000114
  0
CIRCLE
  5
95
330
36
100
AcDbEntity
  8
1
  6
Continuous
 62
     7
100
AcDbCircle
 10
187.0
 20
23.50000000000001
 30
0.0
 40
1.200000000000102
  0
CIRCLE
  5
96
330
36
100
AcDbEntity
  8
1
  6
Continuous
 62
     7
100
AcDbCircle
 10
187.0
 20
23.50000000000001
 30
0.0
 40
2.0
  0
CIRCLE
  5
97
330
36
100
AcDbEntity
  8
1
  6
DOT_CENTER
 62
     7
100
AcDbCircle
 10
89.5
 20
16.0
 30
0.0
 40
0.1000000000000227
  0
CIRCLE
  5
98
330
36
100
AcDbEntity
  8
1
  6
DOT_CENTER
 62
     7
100
AcDbCircle
 10
89.5
 20
18.0
 30
0.0
 40
0.1000000000000227
  0
MTEXT
  5
9A
330
36
100
AcDbEntity
  8
1
 62
     7
100
AcDbMText
 10
188.5
 20
15.0
 30
0.0
 40
3.0
 41
0.0
 71
     5
 72
     1
  1
三栄水栓製作所
  7
CONVERTER_1
 73
     1
 44
1.32052821128451
  0
MTEXT
  5
9B
330
36
100
AcDbEntity
  8
1
 62
     7
100
AcDbMText
 10
171.5
 20
15.0
 30
0.0
 40
2.5
 41
0.0
 71
     5
 72
     1
  1
株式会社
  7
CONVERTER_1
 73
     1
 44
1.32052821128451
  0
MTEXT
  5
9C
330
36
100
AcDbEntity
  8
1
 62
     2
100
AcDbMText
 10
32.5
 20
282.0000000000003
 30
0.0
 40
5.0
 41
0.0
 71
     5
 72
     1
  1
図番
  7
CONVERTER_1
 73
     1
 44
0.60024009603842
  0
MTEXT
  5
9D
330
36
100
AcDbEntity
  8
1
 62
     2
100
AcDbMText
 10
29.0
 20
34.0
 30
0.0
 40
3.5
 41
0.0
 71
     5
 72
     1
  1
備考
  7
CONVERTER_1
 73
     1
 44
0.60024009603842
  0
MTEXT
  5
9E
330
36
100
AcDbEntity
  8
1
 62
     2
100
AcDbMText
 10
29.0
 20
22.75
 30
0.0
 40
3.5
 41
0.0
 71
     5
 72
     1
  1
品名
  7
CONVERTER_1
 73
     1
 44
0.96038415366146
  0
MTEXT
  5
9F
330
36
100
AcDbEntity
  8
1
 62
     2
100
AcDbMText
 10
29.0
 20
14.25
 30
0.0
 40
3.5
 41
0.0
 71
     5
 72
     1
  1
品番
  7
CONVERTER_1
 73
     1
 44
0.96038415366146
  0
MTEXT
  5
A0
330
36
100
AcDbEntity
  8
1
 62
     2
100
AcDbMText
 10
101.5
 20
25.00000000000001
 30
0.0
 40
3.0
 41
0.0
 71
     5
 72
     1
  1
承認
  7
CONVERTER_1
 73
     1
 44
0.78031212484994
  0
MTEXT
  5
A1
330
36
100
AcDbEntity
  8
1
 62
     2
100
AcDbMText
 10
175.0
 20
23.50000000000001
 30
0.0
 40
3.5
 41
0.0
 71
     5
 72
     1
  1
第三角法
  7
CONVERTER_1
 73
     1
 44
0.7202881152461
  0
MTEXT
  5
A2
330
36
100
AcDbEntity
  8
1
 62
     2
100
AcDbMText
 10
118.5
 20
25.00000000000001
 30
0.0
 40
3.0
 41
0.0
 71
     5
 72
     1
  1
検図
  7
CONVERTER_1
 73
     1
 44
0.78031212484994
  0
MTEXT
  5
A3
330
36
100
AcDbEntity
  8
1
 62
     2
100
AcDbMText
 10
152.5
 20
25.00000000000001
 30
0.0
 40
3.0
 41
0.0
 71
     5
 72
     1
  1
設計
  7
CONVERTER_1
 73
     1
 44
0.78031212484994
  0
MTEXT
  5
A4
330
36
100
AcDbEntity
  8
1
 62
     2
100
AcDbMText
 10
135.5
 20
25.00000000000001
 30
0.0
 40
3.0
 41
0.0
 71
     5
 72
     1
  1
製図
  7
CONVERTER_1
 73
     1
 44
0.78031212484994
  0
MTEXT
  5
A5
330
36
100
AcDbEntity
  8
1
 62
     2
100
AcDbMText
 10
89.5
 20
24.00000000000001
 30
0.0
 40
3.5
 41
0.0
 71
     5
 72
     1
  1
尺度
  7
CONVERTER_1
 73
     1
 44
0.7202881152461
  0
MTEXT
  5
A6
330
36
100
AcDbEntity
  8
1
 62
   250
100
AcDbMText
 10
25.0
 20
5.0
 30
0.0
 40
3.5
 41
0.0
 71
     4
 72
     1
  1
備考欄の文字列 原点位置=4
  7
CONVERTER_1
 73
     1
 44
0.7202881152461
  0
ENDBLK
  5
38
330
36
100
AcDbEntity
  8
0
100
AcDbBlockEnd
  0
BLOCK
  5
3A
330
39
100
AcDbEntity
  8
0
100
AcDbBlockBegin
  2
32-12-M2
 70
     0
 71
     0
 10
305.4918338093335
 20
107.0440085943921
 30
0.0
  3
32-12-M2
  1

  0
LINE
  5
A7
330
39
100
AcDbEntity
  8
1
  6
Continuous
 62
     7
100
AcDbLine
 10
68.88815233773909
 20
174.820133931223
 30
0.0
 11
47.88815233773909
 21
174.820133931223
 31
0.0
  0
LINE
  5
A8
330
39
100
AcDbEntity
  8
1
  6
Continuous
 62
     7
100
AcDbLine
 10
46.88815233773909
 20
175.820133931223
 30
0.0
 11
47.88815233773909
 21
174.820133931223
 31
0.0
  0
LINE
  5
A9
330
39
100
AcDbEntity
  8
1
  6
Continuous
 62
     7
100
AcDbLine
 10
46.88815233773909
 20
175.820133931223
 30
0.0
 11
46.88815233773909
 21
185.820133931223
 31
0.0
  0
LINE
  5
AA
330
39
100
AcDbEntity
  8
1
  6
Continuous
 62
     7
100
AcDbLine
 10
47.28045718315315
 20
186.2124387766372
 30
0.0
 11
47.88815233773909
 21
186.820133931223
 31
0.0
  0
LINE
  5
AB
330
39
100
AcDbEntity
  8
1
  6
Continuous
 62
     7
100
AcDbLine
 10
46.88815233773909
 20
185.820133931223
 30
0.0
 11
47.28045718315315
 21
186.2124387766372
 31
0.0
  0
LINE
  5
AC
330
39
100
AcDbEntity
  8
1
  6
Continuous
 62
     7
100
AcDbLine
 10
68.88815233773909
 20
186.820133931223
 30
0.0
 11
47.88815233773909
 21
186.820133931223
 31
0.0
  0
LINE
  5
AD
330
39
100
AcDbEntity
  8
1
  6
Continuous
 62
     7
100
AcDbLine
 10
68.88815233773909
 20
186.820133931223
 30
0.0
 11
69.49584749232679
 21
186.2124387766354
 31
0.0
  0
LINE
  5
AE
330
39
100
AcDbEntity
  8
1
  6
Continuous
 62
     7
100
AcDbLine
 10
69.49584749232679
 20
186.2124387766354
 30
0.0
 11
69.88815233773909
 21
185.820133931223
 31
0.0
  0
LINE
  5
AF
330
39
100
AcDbEntity
  8
1
  6
Continuous
 62
     7
100
AcDbLine
 10
69.88815233773909
 20
175.820133931223
 30
0.0
 11
69.88815233773909
 21
185.820133931223
 31
0.0
  0
LINE
  5
B0
330
39
100
AcDbEntity
  8
1
  6
Continuous
 62
     7
100
AcDbLine
 10
69.88815233773909
 20
175.820133931223
 30
0.0
 11
68.88815233773909
 21
174.820133931223
 31
0.0
  0
LINE
  5
B1
330
39
100
AcDbEntity
  8
1
  6
Continuous
 62
     7
100
AcDbLine
 10
106.3087390641401
 20
96.71243877663626
 30
0.0
 11
106.3087390641401
 21
79.12013393122294
 31
0.0
  0
LINE
  5
B2
330
39
100
AcDbEntity
  8
1
  6
Continuous
 62
     7
100
AcDbLine
 10
118.3087390641401
 20
96.71243877663625
 30
0.0
 11
118.3087390641401
 21
74.92782908580972
 31
0.0
  0
LINE
  5
B3
330
39
100
AcDbEntity
  8
1
  6
Continuous
 62
     7
100
AcDbLine
 10
106.3087390641401
 20
79.12013393122294
 30
0.0
 11
106.3087390641401
 21
74.92782908580972
 31
0.0
  0
LINE
  5
B4
330
39
100
AcDbEntity
  8
1
  6
Continuous
 62
     7
100
AcDbLine
 10
46.8881523377392
 20
80.92115444565665
 30
0.0
 11
46.8881523377392
 21
90.71911341678937
 31
0.0
  0
LINE
  5
B5
330
39
100
AcDbEntity
  8
1
  6
Continuous
 62
     7
100
AcDbLine
 10
48.39551165061991
 20
93.32993633196087
 30
0.0
 11
56.88079302485846
 21
98.22891581752717
 31
0.0
  0
LINE
  5
B6
330
39
100
AcDbEntity
  8
1
  6
Continuous
 62
     7
100
AcDbLine
 10
56.88079302485846
 20
73.41135204491876
 30
0.0
 11
48.39551165061991
 21
78.31033153048509
 31
0.0
  0
LINE
  5
B7
330
39
100
AcDbEntity
  8
1
  6
Continuous
 62
     7
100
AcDbLine
 10
68.38079302485846
 20
78.31033153048509
 30
0.0
 11
59.89551165061991
 21
73.41135204491876
 31
0.0
  0
LINE
  5
B8
330
39
100
AcDbEntity
  8
1
  6
Continuous
 62
     7
100
AcDbLine
 10
69.8881523377392
 20
90.71911341678937
 30
0.0
 11
69.8881523377392
 21
80.92115444565665
 31
0.0
  0
LINE
  5
B9
330
39
100
AcDbEntity
  8
1
  6
Continuous
 62
     7
100
AcDbLine
 10
59.89551165061991
 20
98.22891581752717
 30
0.0
 11
68.38079302485846
 21
93.32993633196087
 31
0.0
  0
ARC
  5
BA
330
39
100
AcDbEntity
  8
1
  6
Continuous
 62
     7
100
AcDbCircle
 10
112.3087390641401
 20
86.32013393122298
 30
0.0
 40
12.0
100
AcDbArc
 50
90.0
 51
120.0
  0
ARC
  5
BB
330
39
100
AcDbEntity
  8
1
  6
Continuous
 62
     7
100
AcDbCircle
 10
112.3087390641401
 20
85.32013393122298
 30
0.0
 40
11.99999999999998
100
AcDbArc
 50
-87.61198453673123
 51
-60.00000000000001
  0
ARC
  5
BC
330
39
100
AcDbEntity
  8
1
  6
Continuous
 62
     7
100
AcDbCircle
 10
112.3085232473672
 20
85.65157415974915
 30
0.0
 40
4.7304197190156
100
AcDbArc
 50
-89.99738598454816
 51
-40.07428910507914
  0
ARC
  5
BD
330
39
100
AcDbEntity
  8
1
  6
Continuous
 62
     7
100
AcDbCircle
 10
112.0906156415238
 20
85.83490234357583
 30
0.0
 40
5.015187954023592
100
AcDbArc
 50
-40.0742891050799
 51
-5.05243810312467
  0
ARC
  5
BE
330
39
100
AcDbEntity
  8
1
  6
Continuous
 62
     7
100
AcDbCircle
 10
112.2367453619807
 20
85.94232026716105
 30
0.0
 40
4.80401881965665
100
AcDbArc
 50
-178.5425709926176
 51
-152.8482326541359
  0
ARC
  5
BF
330
39
100
AcDbEntity
  8
1
  6
Continuous
 62
     7
100
AcDbCircle
 10
113.2354018992433
 20
86.45449773827437
 30
0.0
 40
5.926355953201331
100
AcDbArc
 50
-152.8482326541363
 51
-128.3579306802657
  0
ARC
  5
C0
330
39
100
AcDbEntity
  8
1
  6
Continuous
 62
     7
100
AcDbCircle
 10
112.1181499500158
 20
85.04274842538081
 30
0.0
 40
4.125998199723433
100
AcDbArc
 50
-128.3579306802643
 51
-87.3524372952804
  0
ARC
  5
C1
330
39
100
AcDbEntity
  8
1
  6
Continuous
 62
     7
100
AcDbCircle
 10
112.1682423202697
 20
85.82803929434709
 30
0.0
 40
4.937258481435613
100
AcDbArc
 50
-5.05243810312434
 51
-0.09174000870537
  0
ARC
  5
C2
330
39
100
AcDbEntity
  8
1
  6
Continuous
 62
     7
100
AcDbCircle
 10
112.3085232473672
 20
85.98869370269682
 30
0.0
 40
4.730419719015545
100
AcDbArc
 50
40.07428910507914
 51
89.99738598454816
  0
ARC
  5
C3
330
39
100
AcDbEntity
  8
1
  6
Continuous
 62
     7
100
AcDbCircle
 10
112.0906156415238
 20
85.80536551887013
 30
0.0
 40
5.015187954023559
100
AcDbArc
 50
5.05243810312467
 51
40.0742891050799
  0
ARC
  5
C4
330
39
100
AcDbEntity
  8
1
  6
Continuous
 62
     7
100
AcDbCircle
 10
112.2367453619807
 20
85.69794759528492
 30
0.0
 40
4.804018819656616
100
AcDbArc
 50
152.8482326541359
 51
178.5425709926176
  0
ARC
  5
C5
330
39
100
AcDbEntity
  8
1
  6
Continuous
 62
     7
100
AcDbCircle
 10
113.2354018992433
 20
85.1857701241716
 30
0.0
 40
5.926355953201357
100
AcDbArc
 50
128.3579306802657
 51
152.8482326541363
  0
ARC
  5
C6
330
39
100
AcDbEntity
  8
1
  6
Continuous
 62
     7
100
AcDbCircle
 10
112.1181499500158
 20
86.59751943706516
 30
0.0
 40
4.125998199723425
100
AcDbArc
 50
87.3524372952804
 51
128.3579306802643
  0
ARC
  5
C7
330
39
100
AcDbEntity
  8
1
  6
Continuous
 62
     7
100
AcDbCircle
 10
112.1682423202697
 20
85.81222856809887
 30
0.0
 40
4.937258481435654
100
AcDbArc
 50
0.09174000870537
 51
5.05243810312434
  0
ARC
  5
C8
330
39
100
AcDbEntity
  8
1
  6
Continuous
 62
     7
100
AcDbCircle
 10
112.3087390641401
 20
85.32013393122298
 30
0.0
 40
12.0
100
AcDbArc
 50
-120.0
 51
-97.1807557814583
  0
ARC
  5
C9
330
39
100
AcDbEntity
  8
1
  6
Continuous
 62
     7
100
AcDbCircle
 10
112.3087390641401
 20
86.32013393122298
 30
0.0
 40
12.0
100
AcDbArc
 50
60.00000000000001
 51
90.0
  0
ARC
  5
CA
330
39
100
AcDbEntity
  8
1
  6
Continuous
 62
     7
100
AcDbCircle
 10
112.3087390641401
 20
85.32013393122298
 30
0.0
 40
11.99999999999999
100
AcDbArc
 50
-97.1807557814583
 51
-90.0
  0
ARC
  5
CB
330
39
100
AcDbEntity
  8
1
  6
Continuous
 62
     7
100
AcDbCircle
 10
112.3087390641401
 20
85.32013393122298
 30
0.0
 40
12.0
100
AcDbArc
 50
-90.0
 51
-87.61198453673123
  0
ARC
  5
CC
330
39
100
AcDbEntity
  8
1
  6
Continuous
 62
     7
100
AcDbCircle
 10
58.3881523377392
 20
85.82013393122298
 30
0.0
 40
12.49999999999999
100
AcDbArc
 50
-156.9260819343691
 51
-143.0739180656309
  0
ARC
  5
CD
330
39
100
AcDbEntity
  8
1
  6
Continuous
 62
     7
100
AcDbCircle
 10
58.3881523377392
 20
85.82013393122298
 30
0.0
 40
12.50000000000001
100
AcDbArc
 50
143.0739180656309
 51
156.9260819343689
  0
ARC
  5
CE
330
39
100
AcDbEntity
  8
1
  6
Continuous
 62
     7
100
AcDbCircle
 10
58.3881523377392
 20
85.82013393122298
 30
0.0
 40
12.50000000000001
100
AcDbArc
 50
-96.92608193436914
 51
-90.0
  0
ARC
  5
CF
330
39
100
AcDbEntity
  8
1
  6
Continuous
 62
     7
100
AcDbCircle
 10
58.3881523377392
 20
85.82013393122298
 30
0.0
 40
12.50000000000001
100
AcDbArc
 50
-90.0
 51
-83.07391806563101
  0
ARC
  5
D0
330
39
100
AcDbEntity
  8
1
  6
Continuous
 62
     7
100
AcDbCircle
 10
58.3881523377392
 20
85.82013393122298
 30
0.0
 40
12.49999999999996
100
AcDbArc
 50
90.0
 51
96.92608193436915
  0
ARC
  5
D1
330
39
100
AcDbEntity
  8
1
  6
Continuous
 62
     7
100
AcDbCircle
 10
58.3881523377392
 20
85.82013393122298
 30
0.0
 40
12.49999999999996
100
AcDbArc
 50
83.07391806563098
 51
90.0
  0
ARC
  5
D2
330
39
100
AcDbEntity
  8
1
  6
Continuous
 62
     7
100
AcDbCircle
 10
58.3881523377392
 20
85.82013393122298
 30
0.0
 40
12.5
100
AcDbArc
 50
-36.9260819343692
 51
-23.07391806563086
  0
ARC
  5
D3
330
39
100
AcDbEntity
  8
1
  6
Continuous
 62
     7
100
AcDbCircle
 10
58.3881523377392
 20
85.82013393122298
 30
0.0
 40
12.50000000000001
100
AcDbArc
 50
23.0739180656311
 51
36.92608193436915
  0
CIRCLE
  5
D4
330
39
100
AcDbEntity
  8
1
  6
Continuous
 62
     2
100
AcDbCircle
 10
58.3881523377392
 20
85.82013393122298
 30
0.0
 40
6.13046379786438
  0
CIRCLE
  5
D5
330
39
100
AcDbEntity
  8
1
  6
Continuous
 62
     7
100
AcDbCircle
 10
58.3881523377392
 20
85.82013393122298
 30
0.0
 40
6.699999999999974
  0
CIRCLE
  5
D6
330
39
100
AcDbEntity
  8
1
  6
Continuous
 62
     7
100
AcDbCircle
 10
58.3881523377392
 20
85.82013393122298
 30
0.0
 40
10.89230484541328
  0
SPLINE
  5
D7
330
39
100
AcDbEntity
  8
1
  6
Continuous
 62
     7
100
AcDbSpline
210
0.0
220
0.0
230
1.0
 70
    11
 71
     3
 72
    79
 73
    75
 74
    73
 42
0.0000000001
 43
0.0000000001
 44
0.00000001
 40
0.0
 40
0.0
 40
0.0
 40
0.0
 40
0.3721190355493693
 40
0.7442083357061868
 40
1.12067090221537
 40
1.497080847434369
 40
1.880095083548915
 40
2.263044503421092
 40
2.653944416462962
 40
3.044778034672734
 40
3.443900231890476
 40
3.842962930545904
 40
4.249661986690417
 40
4.656313584035244
 40
5.069086936979617
 40
5.481827668214052
 40
5.898516068697465
 40
6.315187939170025
 40
6.733222185284616
 40
7.151256431399178
 40
7.567928301871797
 40
7.984616702355211
 40
8.397357433589596
 40
8.810130786533938
 40
9.216782383878789
 40
9.623481440023284
 40
10.02254413867872
 40
10.42166633589648
 40
10.81249995410628
 40
11.20339986714811
 40
11.58634928702034
 40
11.96936352313485
 40
12.34577346835384
 40
12.722236034863
 40
13.09432533501983
 40
13.46644437056919
 40
13.83703262100035
 40
14.20762087143152
 40
14.57973990698088
 40
14.95182920713773
 40
15.32829177364691
 40
15.70470171886589
 40
16.08771595498041
 40
16.47066537485258
 40
16.86156528789443
 40
17.25239890610422
 40
17.65152110332195
 40
18.05058380197741
 40
18.4572828581219
 40
18.86393445546678
 40
19.27670780841109
 40
19.68944853964552
 40
20.1061369401289
 40
20.52280881060149
 40
20.94084305671606
 40
21.35887730283067
 40
21.77554917330327
 40
22.19223757378668
 40
22.60497830502111
 40
23.01775165796551
 40
23.42440325531036
 40
23.83110231145488
 40
24.23016501011027
 40
24.62928720732799
 40
25.02012082553772
 40
25.41102073857961
 40
25.79397015845182
 40
26.17698439456635
 40
26.55339433978536
 40
26.92985690629455
 40
27.3019462064514
 40
27.67406524200074
 40
28.04465349243189
 40
28.41524174286306
 40
28.41524174286306
 40
28.41524174286306
 40
28.41524174286306
 10
63.76801941456604
 20
176.0417434494825
 30
0.0
 10
63.6448761652599
 20
176.0574606309894
 30
0.0
 10
63.39859950681303
 20
176.0888937380704
 30
0.0
 10
63.03598607846105
 20
176.1823284824928
 30
0.0
 10
62.68220628762701
 20
176.3079996343248
 30
0.0
 10
62.33904564231797
 20
176.4694512129379
 30
0.0
 10
62.01052853805943
 20
176.6630745249608
 30
0.0
 10
61.69753004864265
 20
176.8892377754424
 30
0.0
 10
61.4041156275961
 20
177.144256466165
 30
0.0
 10
61.13080326610866
 20
177.4282063098902
 30
0.0
 10
60.88123195849974
 20
177.7367323427779
 30
0.0
 10
60.65582880582175
 20
178.069707731259
 30
0.0
 10
60.45750091498452
 20
178.4223639213543
 30
0.0
 10
60.28672686102622
 20
178.7941687604936
 30
0.0
 10
60.14552485722193
 20
179.1803219767086
 30
0.0
 10
60.03442689740399
 20
179.5796464247686
 30
0.0
 10
59.95456124314581
 20
179.9876928585054
 30
0.0
 10
59.90638598978644
 20
180.4024504723915
 30
0.0
 10
59.8902715423978
 20
180.8201339312217
 30
0.0
 10
59.90638598978598
 20
181.2378173900601
 30
0.0
 10
59.95456124314774
 20
181.6525750039219
 30
0.0
 10
60.03442689739704
 20
182.0606214377478
 30
0.0
 10
60.14552485724769
 20
182.4599458854788
 30
0.0
 10
60.28672686093098
 20
182.8460991029131
 30
0.0
 10
60.45750091533434
 20
183.2179039375662
 30
0.0
 10
60.65582880452593
 20
183.5705601442494
 30
0.0
 10
60.88123196323556
 20
183.9035354719328
 30
0.0
 10
61.13080324857569
 20
184.2120617292851
 30
0.0
 10
61.4041156915268
 20
184.4960107518772
 30
0.0
 10
61.69752981189029
 20
184.7510324734078
 30
0.0
 10
62.01052940174959
 20
184.9771846317122
 30
0.0
 10
62.33904243966413
 20
185.1708489314339
 30
0.0
 10
62.68221801209097
 20
185.3321500485513
 30
0.0
 10
63.0359425048079
 20
185.4583785911325
 30
0.0
 10
63.39876003563579
 20
185.5497560352746
 30
0.0
 10
63.7669144925418
 20
185.6044909502097
 30
0.0
 10
64.13815233773917
 20
185.6230757576443
 30
0.0
 10
64.50939018293657
 20
185.6044909502098
 30
0.0
 10
64.87754463984254
 20
185.5497560352746
 30
0.0
 10
65.24036217067048
 20
185.4583785911325
 30
0.0
 10
65.59408666338732
 20
185.3321500485512
 30
0.0
 10
65.93726223581425
 20
185.1708489314339
 30
0.0
 10
66.26577527372874
 20
184.977184631712
 30
0.0
 10
66.57877486358804
 20
184.7510324734078
 30
0.0
 10
66.87218898395155
 20
184.4960107518771
 30
0.0
 10
67.14550142690263
 20
184.212061729285
 30
0.0
 10
67.39507271224274
 20
183.9035354719327
 30
0.0
 10
67.62047587095238
 20
183.5705601442493
 30
0.0
 10
67.81880376014397
 20
183.2179039375661
 30
0.0
 10
67.98957781454726
 20
182.8460991029129
 30
0.0
 10
68.13077981823065
 20
182.4599458854788
 30
0.0
 10
68.24187777808122
 20
182.0606214377477
 30
0.0
 10
68.32174343233049
 20
181.6525750039218
 30
0.0
 10
68.36991868569228
 20
181.2378173900597
 30
0.0
 10
68.38603313308029
 20
180.8201339312229
 30
0.0
 10
68.36991868569231
 20
180.4024504723867
 30
0.0
 10
68.32174343233035
 20
179.9876928585228
 30
0.0
 10
68.24187777808167
 20
179.5796464247034
 30
0.0
 10
68.13077981822869
 20
179.1803219769487
 30
0.0
 10
67.98957781455407
 20
178.7941687596018
 30
0.0
 10
67.81880376011884
 20
178.4223639246273
 30
0.0
 10
67.62047587104519
 20
178.0697077191325
 30
0.0
 10
67.39507271190334
 20
177.736732387093
 30
0.0
 10
67.14550142815877
 20
177.4282061458233
 30
0.0
 10
66.87218897937095
 20
177.1442570643991
 30
0.0
 10
66.57877488055068
 20
176.8892355600184
 30
0.0
 10
66.26577521184733
 20
176.6630826069863
 30
0.0
 10
65.93726246527659
 20
176.4694212439344
 30
0.0
 10
65.59408582335765
 20
176.3081093466133
 30
0.0
 10
65.24036529261761
 20
176.1819207397362
 30
0.0
 10
64.87753313833908
 20
176.090395894986
 30
0.0
 10
64.50943305312585
 20
176.0362090326812
 30
0.0
 10
64.13799307249221
 20
176.0155867522189
 30
0.0
 10
63.89134396720809
 20
176.0330245503946
 30
0.0
 10
63.76801941456603
 20
176.0417434494825
 30
0.0
 11
63.76801941456604
 21
176.0417434494825
 31
0.0
 11
63.39995840908222
 21
176.0965492234523
 31
0.0
 11
63.03908175869644
 21
176.187205114036
 31
0.0
 11
62.68451897219158
 21
176.3137329544846
 31
0.0
 11
62.34375243784982
 21
176.473616086592
 31
0.0
 11
62.01376891977897
 21
176.6680660361112
 31
0.0
 11
61.70321190522546
 21
176.8921298638301
 31
0.0
 11
61.40810083667997
 21
177.1484737719654
 31
0.0
 11
61.13688986607405
 21
177.4298907695791
 31
0.0
 11
60.8857742590312
 21
177.7401156560912
 31
0.0
 11
60.66190063583393
 21
178.0704664367694
 31
0.0
 11
60.46243513654098
 21
178.42489222147
 31
0.0
 11
60.2925606915624
 21
178.7943623752934
 31
0.0
 11
60.15071408149035
 21
179.1819980033154
 31
0.0
 11
60.03998528487855
 21
179.5796084217162
 31
0.0
 11
59.95989289798896
 21
179.9885270354522
 31
0.0
 11
59.91177018289908
 21
180.4024106566979
 31
0.0
 11
59.89564886643567
 21
180.8201339312231
 31
0.0
 11
59.91177018289909
 21
181.2378572057483
 31
0.0
 11
59.959892897989
 21
181.6517408269941
 31
0.0
 11
60.0399852848786
 21
182.0606594407301
 31
0.0
 11
60.15071408149041
 21
182.4582698591308
 31
0.0
 11
60.29256069156245
 21
182.8459054871528
 31
0.0
 11
60.46243513654103
 21
183.2153756409763
 31
0.0
 11
60.66190063583399
 21
183.5698014256768
 31
0.0
 11
60.88577425903127
 21
183.900152206355
 31
0.0
 11
61.13688986607414
 21
184.2103770928671
 31
0.0
 11
61.40810083668008
 21
184.4917940904809
 31
0.0
 11
61.70321190522557
 21
184.7481379986161
 31
0.0
 11
62.01376891977908
 21
184.9722018263351
 31
0.0
 11
62.34375243784994
 21
185.1666517758542
 31
0.0
 11
62.6845189721917
 21
185.3265349079615
 31
0.0
 11
63.03908175869655
 21
185.4530627484101
 31
0.0
 11
63.39995840908234
 21
185.5437186389939
 31
0.0
 11
63.76801941456616
 21
185.5985244129637
 31
0.0
 11
64.13815233773917
 21
185.6168893398904
 31
0.0
 11
64.5082852609122
 21
185.5985244129637
 31
0.0
 11
64.87634626639601
 21
185.5437186389939
 31
0.0
 11
65.2372229167818
 21
185.4530627484101
 31
0.0
 11
65.59178570328666
 21
185.3265349079614
 31
0.0
 11
65.93255223762841
 21
185.166651775854
 31
0.0
 11
66.26253575569926
 21
184.972201826335
 31
0.0
 11
66.57309277025274
 21
184.748137998616
 31
0.0
 11
66.86820383879825
 21
184.4917940904808
 31
0.0
 11
67.13941480940417
 21
184.210377092867
 31
0.0
 11
67.39053041644704
 21
183.900152206355
 31
0.0
 11
67.61440403964431
 21
183.5698014256768
 31
0.0
 11
67.81386953893727
 21
183.2153756409762
 31
0.0
 11
67.98374398391584
 21
182.8459054871527
 31
0.0
 11
68.12559059398788
 21
182.4582698591307
 31
0.0
 11
68.23631939059968
 21
182.06065944073
 31
0.0
 11
68.31641177748924
 21
181.651740826994
 31
0.0
 11
68.36453449257914
 21
181.2378572057482
 31
0.0
 11
68.38065580904257
 21
180.820133931223
 31
0.0
 11
68.36453449257914
 21
180.4024106566978
 31
0.0
 11
68.31641177748922
 21
179.988527035452
 31
0.0
 11
68.23631939059963
 21
179.5796084217161
 31
0.0
 11
68.12559059398782
 21
179.1819980033153
 31
0.0
 11
67.98374398391579
 21
178.7943623752933
 31
0.0
 11
67.81386953893721
 21
178.4248922214698
 31
0.0
 11
67.61440403964426
 21
178.0704664367692
 31
0.0
 11
67.39053041644696
 21
177.740115656091
 31
0.0
 11
67.13941480940409
 21
177.429890769579
 31
0.0
 11
66.86820383879817
 21
177.1484737719653
 31
0.0
 11
66.57309277025266
 21
176.89212986383
 31
0.0
 11
66.26253575569916
 21
176.668066036111
 31
0.0
 11
65.93255223762832
 21
176.4736160865919
 31
0.0
 11
65.59178570328655
 21
176.3137329544845
 31
0.0
 11
65.23722291678168
 21
176.1872051140359
 31
0.0
 11
64.87634626639587
 21
176.0965492234521
 31
0.0
 11
64.50828526091206
 21
176.0417434494824
 31
0.0
 11
64.13815233773906
 21
176.0233785225557
 31
0.0
 11
63.76801941456603
 21
176.0417434494825
 31
0.0
  0
SPLINE
  5
D8
330
39
100
AcDbEntity
  8
1
  6
Continuous
 62
     7
100
AcDbSpline
210
0.0
220
0.0
230
1.0
 70
    11
 71
     3
 72
    79
 73
    75
 74
    73
 42
0.0000000001
 43
0.0000000001
 44
0.00000001
 40
0.0
 40
0.0
 40
0.0
 40
0.0
 40
0.3721190355493693
 40
0.7442083357061868
 40
1.120670902215363
 40
1.497080847434368
 40
1.880095083548933
 40
2.263044503421093
 40
2.653944416462969
 40
3.044778034672735
 40
3.443900231890483
 40
3.842962930545914
 40
4.249661986690428
 40
4.656313584035249
 40
5.069086936979621
 40
5.481827668214057
 40
5.898516068697469
 40
6.315187939170029
 40
6.733222185284619
 40
7.151256431399181
 40
7.567928301871801
 40
7.984616702355212
 40
8.397357433589594
 40
8.810130786533943
 40
9.216782383878787
 40
9.623481440023278
 40
10.02254413867871
 40
10.42166633589648
 40
10.81249995410628
 40
11.20339986714812
 40
11.58634928702033
 40
11.96936352313484
 40
12.34577346835384
 40
12.72223603486301
 40
13.09432533501984
 40
13.46644437056921
 40
13.83703262100037
 40
14.20762087143152
 40
14.57973990698088
 40
14.95182920713772
 40
15.32829177364692
 40
15.7047017188659
 40
16.08771595498041
 40
16.47066537485259
 40
16.86156528789443
 40
17.25239890610424
 40
17.65152110332197
 40
18.05058380197741
 40
18.4572828581219
 40
18.86393445546678
 40
19.2767078084111
 40
19.68944853964553
 40
20.10613694012891
 40
20.5228088106015
 40
20.94084305671607
 40
21.35887730283069
 40
21.77554917330328
 40
22.19223757378669
 40
22.60497830502112
 40
23.01775165796552
 40
23.42440325531038
 40
23.83110231145489
 40
24.23016501011028
 40
24.629287207328
 40
25.02012082553774
 40
25.41102073857962
 40
25.79397015845183
 40
26.17698439456638
 40
26.55339433978537
 40
26.92985690629456
 40
27.30194620645139
 40
27.67406524200075
 40
28.04465349243191
 40
28.41524174286306
 40
28.41524174286306
 40
28.41524174286306
 40
28.41524174286306
 10
53.00828526091217
 20
176.0417434494825
 30
0.0
 10
53.13142851021831
 20
176.0574606309894
 30
0.0
 10
53.3777051686652
 20
176.0888937380703
 30
0.0
 10
53.74031859701714
 20
176.1823284824929
 30
0.0
 10
54.09409838785122
 20
176.3079996343248
 30
0.0
 10
54.43725903316025
 20
176.4694512129379
 30
0.0
 10
54.76577613741882
 20
176.6630745249608
 30
0.0
 10
55.07877462683556
 20
176.8892377754425
 30
0.0
 10
55.37218904788212
 20
177.144256466165
 30
0.0
 10
55.64550140936955
 20
177.4282063098902
 30
0.0
 10
55.89507271697848
 20
177.7367323427779
 30
0.0
 10
56.12047586965649
 20
178.069707731259
 30
0.0
 10
56.31880376049371
 20
178.4223639213543
 30
0.0
 10
56.48957781445199
 20
178.7941687604937
 30
0.0
 10
56.63077981825627
 20
179.1803219767085
 30
0.0
 10
56.74187777807426
 20
179.5796464247686
 30
0.0
 10
56.8217434323324
 20
179.9876928585055
 30
0.0
 10
56.86991868569178
 20
180.4024504723915
 30
0.0
 10
56.88603313308042
 20
180.8201339312217
 30
0.0
 10
56.86991868569224
 20
181.2378173900601
 30
0.0
 10
56.82174343233049
 20
181.6525750039219
 30
0.0
 10
56.74187777808117
 20
182.0606214377478
 30
0.0
 10
56.63077981823056
 20
182.4599458854788
 30
0.0
 10
56.4895778145472
 20
182.8460991029131
 30
0.0
 10
56.31880376014388
 20
183.2179039375661
 30
0.0
 10
56.12047587095233
 20
183.5705601442494
 30
0.0
 10
55.89507271224262
 20
183.9035354719328
 30
0.0
 10
55.64550142690254
 20
184.212061729285
 30
0.0
 10
55.37218898395144
 20
184.4960107518772
 30
0.0
 10
55.0787748635879
 20
184.7510324734078
 30
0.0
 10
54.76577527372866
 20
184.9771846317121
 30
0.0
 10
54.4372622358141
 20
185.170848931434
 30
0.0
 10
54.09408666338722
 20
185.3321500485513
 30
0.0
 10
53.74036217067031
 20
185.4583785911325
 30
0.0
 10
53.3775446398424
 20
185.5497560352746
 30
0.0
 10
53.00939018293644
 20
185.6044909502097
 30
0.0
 10
52.63815233773903
 20
185.6230757576443
 30
0.0
 10
52.26691449254164
 20
185.6044909502097
 30
0.0
 10
51.89876003563567
 20
185.5497560352746
 30
0.0
 10
51.53594250480775
 20
185.4583785911325
 30
0.0
 10
51.18221801209089
 20
185.3321500485512
 30
0.0
 10
50.83904243966396
 20
185.1708489314338
 30
0.0
 10
50.51052940174951
 20
184.977184631712
 30
0.0
 10
50.19752981189018
 20
184.7510324734077
 30
0.0
 10
49.90411569152669
 20
184.4960107518771
 30
0.0
 10
49.63080324857558
 20
184.212061729285
 30
0.0
 10
49.38123196323545
 20
183.9035354719327
 30
0.0
 10
49.15582880452585
 20
183.5705601442493
 30
0.0
 10
48.95750091533424
 20
183.217903937566
 30
0.0
 10
48.78672686093095
 20
182.846099102913
 30
0.0
 10
48.64552485724757
 20
182.4599458854788
 30
0.0
 10
48.53442689739701
 20
182.0606214377476
 30
0.0
 10
48.4545612431477
 20
181.6525750039218
 30
0.0
 10
48.40638598978591
 20
181.2378173900598
 30
0.0
 10
48.39027154239791
 20
180.8201339312229
 30
0.0
 10
48.40638598978589
 20
180.4024504723867
 30
0.0
 10
48.45456124314787
 20
179.9876928585228
 30
0.0
 10
48.53442689739653
 20
179.5796464247033
 30
0.0
 10
48.64552485724948
 20
179.1803219769488
 30
0.0
 10
48.78672686092413
 20
178.7941687596018
 30
0.0
 10
48.95750091535941
 20
178.4223639246273
 30
0.0
 10
49.15582880443302
 20
178.0697077191325
 30
0.0
 10
49.38123196357487
 20
177.7367323870931
 30
0.0
 10
49.63080324731946
 20
177.4282061458233
 30
0.0
 10
49.90411569610728
 20
177.1442570643991
 30
0.0
 10
50.19752979492752
 20
176.8892355600185
 30
0.0
 10
50.51052946363092
 20
176.6630826069863
 30
0.0
 10
50.83904221020163
 20
176.4694212439343
 30
0.0
 10
51.18221885212059
 20
176.3081093466132
 30
0.0
 10
51.5359393828606
 20
176.1819207397363
 30
0.0
 10
51.89877153713915
 20
176.0903958949859
 30
0.0
 10
52.26687162235238
 20
176.0362090326812
 30
0.0
 10
52.638311602986
 20
176.0155867522188
 30
0.0
 10
52.88496070827011
 20
176.0330245503945
 30
0.0
 10
53.00828526091217
 20
176.0417434494825
 30
0.0
 11
53.00828526091217
 21
176.0417434494825
 31
0.0
 11
53.376346266396
 21
176.0965492234523
 31
0.0
 11
53.73722291678178
 21
176.187205114036
 31
0.0
 11
54.09178570328663
 21
176.3137329544846
 31
0.0
 11
54.4325522376284
 21
176.473616086592
 31
0.0
 11
54.76253575569927
 21
176.6680660361112
 31
0.0
 11
55.07309277025276
 21
176.8921298638301
 31
0.0
 11
55.36820383879825
 21
177.1484737719654
 31
0.0
 11
55.63941480940417
 21
177.4298907695791
 31
0.0
 11
55.89053041644702
 21
177.7401156560912
 31
0.0
 11
56.1144040396443
 21
178.0704664367694
 31
0.0
 11
56.31386953893725
 21
178.42489222147
 31
0.0
 11
56.48374398391582
 21
178.7943623752934
 31
0.0
 11
56.62559059398786
 21
179.1819980033154
 31
0.0
 11
56.73631939059967
 21
179.5796084217162
 31
0.0
 11
56.81641177748925
 21
179.9885270354522
 31
0.0
 11
56.86453449257914
 21
180.4024106566979
 31
0.0
 11
56.88065580904254
 21
180.8201339312231
 31
0.0
 11
56.86453449257912
 21
181.2378572057483
 31
0.0
 11
56.81641177748921
 21
181.6517408269941
 31
0.0
 11
56.73631939059963
 21
182.0606594407301
 31
0.0
 11
56.62559059398782
 21
182.4582698591308
 31
0.0
 11
56.48374398391576
 21
182.8459054871528
 31
0.0
 11
56.3138695389372
 21
183.2153756409763
 31
0.0
 11
56.11440403964424
 21
183.5698014256768
 31
0.0
 11
55.89053041644696
 21
183.900152206355
 31
0.0
 11
55.63941480940407
 21
184.2103770928671
 31
0.0
 11
55.36820383879814
 21
184.4917940904809
 31
0.0
 11
55.07309277025264
 21
184.7481379986161
 31
0.0
 11
54.76253575569915
 21
184.9722018263351
 31
0.0
 11
54.43255223762829
 21
185.1666517758542
 31
0.0
 11
54.09178570328653
 21
185.3265349079615
 31
0.0
 11
53.73722291678165
 21
185.4530627484101
 31
0.0
 11
53.37634626639587
 21
185.5437186389939
 31
0.0
 11
53.00828526091205
 21
185.5985244129637
 31
0.0
 11
52.63815233773903
 21
185.6168893398904
 31
0.0
 11
52.26801941456602
 21
185.5985244129637
 31
0.0
 11
51.89995840908221
 21
185.5437186389939
 31
0.0
 11
51.53908175869643
 21
185.4530627484101
 31
0.0
 11
51.18451897219155
 21
185.3265349079614
 31
0.0
 11
50.8437524378498
 21
185.166651775854
 31
0.0
 11
50.51376891977896
 21
184.972201826335
 31
0.0
 11
50.20321190522547
 21
184.748137998616
 31
0.0
 11
49.90810083667997
 21
184.4917940904808
 31
0.0
 11
49.63688986607403
 21
184.210377092867
 31
0.0
 11
49.38577425903117
 21
183.900152206355
 31
0.0
 11
49.1619006358339
 21
183.5698014256768
 31
0.0
 11
48.96243513654095
 21
183.2153756409762
 31
0.0
 11
48.79256069156237
 21
182.8459054871527
 31
0.0
 11
48.65071408149033
 21
182.4582698591307
 31
0.0
 11
48.53998528487854
 21
182.06065944073
 31
0.0
 11
48.45989289798897
 21
181.651740826994
 31
0.0
 11
48.41177018289906
 21
181.2378572057482
 31
0.0
 11
48.39564886643564
 21
180.820133931223
 31
0.0
 11
48.41177018289908
 21
180.4024106566978
 31
0.0
 11
48.45989289798899
 21
179.988527035452
 31
0.0
 11
48.53998528487858
 21
179.5796084217161
 31
0.0
 11
48.65071408149038
 21
179.1819980033153
 31
0.0
 11
48.79256069156243
 21
178.7943623752933
 31
0.0
 11
48.96243513654102
 21
178.4248922214698
 31
0.0
 11
49.16190063583396
 21
178.0704664367692
 31
0.0
 11
49.38577425903125
 21
177.740115656091
 31
0.0
 11
49.63688986607413
 21
177.429890769579
 31
0.0
 11
49.90810083668006
 21
177.1484737719653
 31
0.0
 11
50.20321190522556
 21
176.89212986383
 31
0.0
 11
50.51376891977905
 21
176.668066036111
 31
0.0
 11
50.84375243784992
 21
176.4736160865919
 31
0.0
 11
51.18451897219168
 21
176.3137329544845
 31
0.0
 11
51.53908175869655
 21
176.1872051140359
 31
0.0
 11
51.89995840908233
 21
176.0965492234521
 31
0.0
 11
52.26801941456615
 21
176.0417434494824
 31
0.0
 11
52.63815233773917
 21
176.0233785225557
 31
0.0
 11
53.00828526091217
 21
176.0417434494825
 31
0.0
  0
SPLINE
  5
D9
330
39
100
AcDbEntity
  8
1
  6
Continuous
 62
     7
100
AcDbSpline
210
0.0
220
0.0
230
1.0
 70
    11
 71
     3
 72
    79
 73
    75
 74
    73
 42
0.0000000001
 43
0.0000000001
 44
0.00000001
 40
0.0
 40
0.0
 40
0.0
 40
0.0
 40
0.2251440043915155
 40
0.4498541163684122
 40
0.6980863442793597
 40
0.9458096979690795
 40
1.225753246444181
 40
1.505341882254219
 40
1.820037946962677
 40
2.134517093609289
 40
2.48253380261985
 40
2.830421094392857
 40
3.207135646622302
 40
3.583774048987444
 40
3.982383404506695
 40
4.380950216893889
 40
4.793229956183881
 40
5.205490581551461
 40
5.622408661135184
 40
6.039326740718908
 40
6.451587366086502
 40
6.86386710537645
 40
7.262433917763658
 40
7.661043273282894
 40
8.037681675648061
 40
8.414396227877532
 40
8.762283519650518
 40
9.110300228661085
 40
9.424779375307722
 40
9.739475440016207
 40
10.01906407582624
 40
10.2990076243013
 40
10.546730977991
 40
10.7949632059019
 40
11.01967331787878
 40
11.24481732227032
 40
11.46116996799158
 40
11.67752261371283
 40
11.90266661810434
 40
12.12737673008122
 40
12.37560895799216
 40
12.62333231168185
 40
12.90327586015693
 40
13.18286449596694
 40
13.49756056067542
 40
13.8120397073221
 40
14.16005641633268
 40
14.50794370810573
 40
14.88465826033521
 40
15.26129666270036
 40
15.65990601821957
 40
16.05847283060677
 40
16.47075256989674
 40
16.88301319526432
 40
17.29993127484803
 40
17.71684935443175
 40
18.12910997979937
 40
18.54138971908934
 40
18.93995653147654
 40
19.33856588699575
 40
19.71520428936086
 40
20.09191884159028
 40
20.43980613336333
 40
20.78782284237395
 40
21.10230198902062
 40
21.41699805372915
 40
21.69658668953918
 40
21.97653023801422
 40
22.22425359170393
 40
22.47248581961487
 40
22.69719593159179
 40
22.9223399359833
 40
23.13869258170456
 40
23.35504522742582
 40
23.35504522742582
 40
23.35504522742582
 40
23.35504522742582
 10
117.0855247958252
 20
95.99493877769177
 30
0.0
 10
117.069175125749
 20
96.06837383265055
 30
0.0
 10
117.0365072943098
 20
96.21510242019716
 30
0.0
 10
116.9390769249651
 20
96.42799076259395
 30
0.0
 10
116.8114584214386
 20
96.63212364719624
 30
0.0
 10
116.6461554888004
 20
96.8319226790974
 30
0.0
 10
116.4521184506025
 20
97.0190748575659
 30
0.0
 10
116.2232610439813
 20
97.2001095411715
 30
0.0
 10
115.9696671015384
 20
97.36646878651736
 30
0.0
 10
115.6842311736242
 20
97.52395369041267
 30
0.0
 10
115.3782900757509
 20
97.66541716432349
 30
0.0
 10
115.0448515802698
 20
97.7950248296314
 30
0.0
 10
114.6952453509865
 20
97.90760568904371
 30
0.0
 10
114.3238220974159
 20
98.00567931790428
 30
0.0
 10
113.9407054978914
 20
98.08596954127421
 30
0.0
 10
113.5424797309418
 20
98.14972770922202
 30
0.0
 10
113.1371720202178
 20
98.19518615999105
 30
0.0
 10
112.7241417515343
 20
98.22285597140372
 30
0.0
 10
112.308739064143
 20
98.23196275951084
 30
0.0
 10
111.8933363767344
 20
98.22285597140548
 30
0.0
 10
111.480306108102
 20
98.19518615998403
 30
0.0
 10
111.0749983971932
 20
98.14972770924786
 30
0.0
 10
110.6767726309107
 20
98.08596954118121
 30
0.0
 10
110.2936560289601
 20
98.00567931824367
 30
0.0
 10
109.9222327839671
 20
97.90760568785427
 30
0.0
 10
109.572626523859
 20
97.79502483393618
 30
0.0
 10
109.2391881350437
 20
97.66541714961606
 30
0.0
 10
108.9332466583334
 20
97.5239537432294
 30
0.0
 10
108.6478120151407
 20
97.36646861034441
 30
0.0
 10
108.3942135546975
 20
97.20011017029022
 30
0.0
 10
108.165371234076
 20
97.01907279774504
 30
0.0
 10
107.9712813856877
 20
96.83193003220349
 30
0.0
 10
107.8061542262387
 20
96.63209967036073
 30
0.0
 10
107.677916175171
 20
96.42807721436449
 30
0.0
 10
107.5825927874166
 20
96.21481332203092
 30
0.0
 10
107.526605616327
 20
95.99887322148939
 30
0.0
 10
107.5061948854202
 20
95.77942607474398
 30
0.0
 10
107.5266056163269
 20
95.5599789279986
 30
0.0
 10
107.5825927874165
 20
95.34403882745701
 30
0.0
 10
107.677916175171
 20
95.1307749351235
 30
0.0
 10
107.8061542262387
 20
94.92675247912729
 30
0.0
 10
107.9712813856877
 20
94.72692211728452
 30
0.0
 10
108.165371234076
 20
94.53977935174294
 30
0.0
 10
108.3942135546975
 20
94.35874197919773
 30
0.0
 10
108.6478120151407
 20
94.19238353914356
 30
0.0
 10
108.9332466583333
 20
94.03489840625842
 30
0.0
 10
109.2391881350436
 20
93.89343499987166
 30
0.0
 10
109.572626523859
 20
93.76382731555152
 30
0.0
 10
109.9222327839671
 20
93.65124646163343
 30
0.0
 10
110.2936560289601
 20
93.55317283124414
 30
0.0
 10
110.6767726309107
 20
93.4728826083068
 30
0.0
 10
111.0749983971932
 20
93.40912444024013
 30
0.0
 10
111.4803061081018
 20
93.36366598950391
 30
0.0
 10
111.8933363767351
 20
93.33599617808233
 30
0.0
 10
112.3087390641403
 20
93.32688938997768
 30
0.0
 10
112.7241417515443
 20
93.33599617808217
 30
0.0
 10
113.1371720201812
 20
93.36366598950443
 30
0.0
 10
113.5424797310767
 20
93.40912444023829
 30
0.0
 10
113.9407054974063
 20
93.47288260831328
 30
0.0
 10
114.3238220991862
 20
93.55317283122027
 30
0.0
 10
114.6952453447827
 20
93.65124646171712
 30
0.0
 10
115.0448516027219
 20
93.76382731524859
 30
0.0
 10
115.3782899990423
 20
93.89343500090651
 30
0.0
 10
115.6842314490973
 20
94.03489840254218
 30
0.0
 10
115.9696661826841
 20
94.19238355153924
 30
0.0
 10
116.2232643252369
 20
94.3587419349324
 30
0.0
 10
116.4521077073226
 20
94.53977949667376
 30
0.0
 10
116.6461938399395
 20
94.72692159991354
 30
0.0
 10
116.8113333669445
 20
94.92675416615847
 30
0.0
 10
116.9395278261029
 20
95.13076885230096
 30
0.0
 10
117.0349994629333
 20
95.34405916865796
 30
0.0
 10
117.0904513223503
 20
95.5599038548563
 30
0.0
 10
117.1127872285554
 20
95.77969414625217
 30
0.0
 10
117.094612273402
 20
95.92319056721192
 30
0.0
 10
117.0855247958252
 20
95.99493877769177
 30
0.0
 11
117.0855247958252
 21
95.99493877769177
 31
0.0
 11
117.0289319257263
 21
96.21285405886179
 31
0.0
 11
116.9383543410158
 21
96.41850020050489
 31
0.0
 11
116.8069001722039
 21
96.62906857532786
 31
0.0
 11
116.6498427004256
 21
96.82064052140012
 31
0.0
 11
116.449033618639
 21
97.01568949731343
 31
0.0
 11
116.2301797189421
 21
97.18968023230119
 31
0.0
 11
115.9675533523966
 21
97.36306132913163
 31
0.0
 11
115.6924302921419
 21
97.51539135043952
 31
0.0
 11
115.3768469211652
 21
97.66209774332519
 31
0.0
 11
115.0527102648176
 21
97.78843457797342
 31
0.0
 11
114.6942867043036
 21
97.90439321339954
 31
0.0
 11
114.3301816177118
 21
98.00074658414562
 31
0.0
 11
113.9401187210263
 21
98.08284624880257
 31
0.0
 11
113.5465804562345
 21
98.14595835604976
 31
0.0
 11
113.1368931315288
 21
98.19211980538262
 31
0.0
 11
112.7255548701332
 21
98.2196816982871
 31
0.0
 11
112.3087390641401
 21
98.22891581752724
 31
0.0
 11
111.8919232581471
 21
98.21968169828709
 31
0.0
 11
111.4805849967514
 21
98.1921198053826
 31
0.0
 11
111.0708976720457
 21
98.14595835604976
 31
0.0
 11
110.677359407254
 21
98.08284624880257
 31
0.0
 11
110.2872965105685
 21
98.00074658414562
 31
0.0
 11
109.9231914239766
 21
97.90439321339956
 31
0.0
 11
109.5647678634626
 21
97.78843457797343
 31
0.0
 11
109.240631207115
 21
97.66209774332519
 31
0.0
 11
108.9250478361383
 21
97.5153913504395
 31
0.0
 11
108.6499247758835
 21
97.36306132913161
 31
0.0
 11
108.387298409338
 21
97.18968023230119
 31
0.0
 11
108.1684445096411
 21
97.01568949731346
 31
0.0
 11
107.9676354278545
 21
96.82064052140018
 31
0.0
 11
107.8105779560763
 21
96.62906857532789
 31
0.0
 11
107.6791237872645
 21
96.41850020050492
 31
0.0
 11
107.5885462025541
 21
96.21285405886181
 31
0.0
 11
107.5319533324551
 21
95.99493877769177
 31
0.0
 11
107.5129075408274
 21
95.77942607474398
 31
0.0
 11
107.5319533324551
 21
95.56391337179619
 31
0.0
 11
107.588546202554
 21
95.34599809062618
 31
0.0
 11
107.6791237872644
 21
95.14035194898307
 31
0.0
 11
107.8105779560763
 21
94.9297835741601
 31
0.0
 11
107.9676354278545
 21
94.73821162808781
 31
0.0
 11
108.1684445096412
 21
94.54316265217452
 31
0.0
 11
108.387298409338
 21
94.36917191718679
 31
0.0
 11
108.6499247758835
 21
94.19579082035635
 31
0.0
 11
108.9250478361382
 21
94.04346079904835
 31
0.0
 11
109.2406312071149
 21
93.89675440616254
 31
0.0
 11
109.5647678634626
 21
93.77041757151426
 31
0.0
 11
109.9231914239766
 21
93.65445893608816
 31
0.0
 11
110.2872965105685
 21
93.5581055653422
 31
0.0
 11
110.677359407254
 21
93.47600590068541
 31
0.0
 11
111.0708976720457
 21
93.41289379343824
 31
0.0
 11
111.4805849967514
 21
93.36673234410534
 31
0.0
 11
111.8919232581471
 21
93.33917045120086
 31
0.0
 11
112.3087390641401
 21
93.32993633196071
 31
0.0
 11
112.7255548701331
 21
93.33917045120084
 31
0.0
 11
113.1368931315288
 21
93.36673234410534
 31
0.0
 11
113.5465804562345
 21
93.41289379343822
 31
0.0
 11
113.9401187210263
 21
93.47600590068538
 31
0.0
 11
114.3301816177118
 21
93.5581055653422
 31
0.0
 11
114.6942867043036
 21
93.65445893608815
 31
0.0
 11
115.0527102648176
 21
93.77041757151426
 31
0.0
 11
115.3768469211652
 21
93.89675440616254
 31
0.0
 11
115.6924302921419
 21
94.04346079904835
 31
0.0
 11
115.9675533523967
 21
94.19579082035632
 31
0.0
 11
116.2301797189422
 21
94.3691719171868
 31
0.0
 11
116.4490336186391
 21
94.54316265217454
 31
0.0
 11
116.6498427004257
 21
94.73821162808781
 31
0.0
 11
116.8069001722039
 21
94.92978357416008
 31
0.0
 11
116.9383543410158
 21
95.14035194898305
 31
0.0
 11
117.0289319257263
 21
95.34599809062617
 31
0.0
 11
117.0855247958252
 21
95.56391337179619
 31
0.0
 11
117.1045705874529
 21
95.77942607474398
 31
0.0
 11
117.0855247958252
 21
95.99493877769177
 31
0.0
  0
SPLINE
  5
DA
330
39
100
AcDbEntity
  8
1
  6
Continuous
 62
     7
100
AcDbSpline
210
0.0
220
0.0
230
1.0
 70
    11
 71
     3
 72
    79
 73
    75
 74
    73
 42
0.0000000001
 43
0.0000000001
 44
0.00000001
 40
0.0
 40
0.0
 40
0.0
 40
0.0
 40
0.2251440043915292
 40
0.4498541163684129
 40
0.6980863442793484
 40
0.9458096979690902
 40
1.225753246444182
 40
1.50534188225422
 40
1.820037946962693
 40
2.134517093609291
 40
2.482533802619846
 40
2.830421094392859
 40
3.207135646622307
 40
3.583774048987446
 40
3.982383404506697
 40
4.380950216893891
 40
4.793229956183884
 40
5.205490581551463
 40
5.622408661135186
 40
6.039326740718908
 40
6.451587366086502
 40
6.863867105376452
 40
7.26243391776366
 40
7.661043273282891
 40
8.037681675648061
 40
8.414396227877541
 40
8.762283519650516
 40
9.110300228661089
 40
9.424779375307725
 40
9.739475440016211
 40
10.01906407582624
 40
10.2990076243013
 40
10.54673097799099
 40
10.79496320590191
 40
11.01967331787879
 40
11.24481732227032
 40
11.46116996799158
 40
11.67752261371284
 40
11.90266661810434
 40
12.12737673008123
 40
12.37560895799216
 40
12.62333231168186
 40
12.90327586015695
 40
13.18286449596694
 40
13.49756056067543
 40
13.8120397073221
 40
14.16005641633268
 40
14.50794370810574
 40
14.88465826033521
 40
15.26129666270036
 40
15.65990601821958
 40
16.05847283060678
 40
16.47075256989674
 40
16.88301319526432
 40
17.29993127484803
 40
17.71684935443176
 40
18.12910997979938
 40
18.54138971908934
 40
18.93995653147654
 40
19.33856588699575
 40
19.71520428936087
 40
20.09191884159028
 40
20.43980613336333
 40
20.78782284237395
 40
21.10230198902063
 40
21.41699805372915
 40
21.69658668953916
 40
21.97653023801422
 40
22.22425359170394
 40
22.47248581961487
 40
22.69719593159177
 40
22.92233993598331
 40
23.13869258170456
 40
23.35504522742582
 40
23.35504522742582
 40
23.35504522742582
 40
23.35504522742582
 10
117.0855247958252
 20
75.64532908475422
 30
0.0
 10
117.0691751257491
 20
75.57189402979545
 30
0.0
 10
117.0365072943098
 20
75.42516544224888
 30
0.0
 10
116.939076924965
 20
75.212277099852
 30
0.0
 10
116.8114584214386
 20
75.0081442152498
 30
0.0
 10
116.6461554888004
 20
74.80834518334859
 30
0.0
 10
116.4521184506025
 20
74.62119300488011
 30
0.0
 10
116.2232610439813
 20
74.44015832127448
 30
0.0
 10
115.9696671015384
 20
74.27379907592859
 30
0.0
 10
115.6842311736242
 20
74.1163141720333
 30
0.0
 10
115.3782900757508
 20
73.97485069812259
 30
0.0
 10
115.0448515802698
 20
73.84524303281455
 30
0.0
 10
114.6952453509865
 20
73.73266217340229
 30
0.0
 10
114.3238220974158
 20
73.63458854454171
 30
0.0
 10
113.9407054978914
 20
73.55429832117179
 30
0.0
 10
113.5424797309418
 20
73.49054015322398
 30
0.0
 10
113.1371720202178
 20
73.44508170245493
 30
0.0
 10
112.7241417515343
 20
73.41741189104226
 30
0.0
 10
112.308739064143
 20
73.40830510293519
 30
0.0
 10
111.8933363767344
 20
73.41741189104049
 30
0.0
 10
111.480306108102
 20
73.44508170246195
 30
0.0
 10
111.0749983971932
 20
73.49054015319811
 30
0.0
 10
110.6767726309107
 20
73.55429832126481
 30
0.0
 10
110.2936560289601
 20
73.63458854420227
 30
0.0
 10
109.9222327839671
 20
73.73266217459172
 30
0.0
 10
109.572626523859
 20
73.84524302850981
 30
0.0
 10
109.2391881350437
 20
73.97485071282993
 30
0.0
 10
108.9332466583334
 20
74.11631411921658
 30
0.0
 10
108.6478120151407
 20
74.27379925210161
 30
0.0
 10
108.3942135546975
 20
74.44015769215572
 30
0.0
 10
108.165371234076
 20
74.62119506470097
 30
0.0
 10
107.9712813856877
 20
74.80833783024252
 30
0.0
 10
107.8061542262387
 20
75.00816819208525
 30
0.0
 10
107.677916175171
 20
75.2121906480815
 30
0.0
 10
107.5825927874166
 20
75.42545454041505
 30
0.0
 10
107.526605616327
 20
75.64139464095665
 30
0.0
 10
107.5061948854203
 20
75.860841787702
 30
0.0
 10
107.5266056163269
 20
76.0802889344474
 30
0.0
 10
107.5825927874165
 20
76.29622903498893
 30
0.0
 10
107.677916175171
 20
76.50949292732253
 30
0.0
 10
107.8061542262387
 20
76.71351538331872
 30
0.0
 10
107.9712813856877
 20
76.91334574516148
 30
0.0
 10
108.165371234076
 20
77.10048851070309
 30
0.0
 10
108.3942135546975
 20
77.28152588324824
 30
0.0
 10
108.6478120151407
 20
77.44788432330242
 30
0.0
 10
108.9332466583334
 20
77.60536945618755
 30
0.0
 10
109.2391881350436
 20
77.74683286257431
 30
0.0
 10
109.572626523859
 20
77.87644054689451
 30
0.0
 10
109.9222327839671
 20
77.98902140081256
 30
0.0
 10
110.2936560289601
 20
78.08709503120183
 30
0.0
 10
110.6767726309107
 20
78.16738525413926
 30
0.0
 10
111.0749983971933
 20
78.23114342220586
 30
0.0
 10
111.4803061081019
 20
78.27660187294202
 30
0.0
 10
111.8933363767351
 20
78.30427168436367
 30
0.0
 10
112.3087390641403
 20
78.31337847246834
 30
0.0
 10
112.7241417515443
 20
78.30427168436378
 30
0.0
 10
113.1371720201812
 20
78.27660187294157
 30
0.0
 10
113.5424797310768
 20
78.23114342220769
 30
0.0
 10
113.9407054974063
 20
78.16738525413271
 30
0.0
 10
114.3238220991861
 20
78.08709503122573
 30
0.0
 10
114.6952453447827
 20
77.98902140072886
 30
0.0
 10
115.0448516027219
 20
77.87644054719736
 30
0.0
 10
115.3782899990423
 20
77.74683286153949
 30
0.0
 10
115.6842314490973
 20
77.60536945990381
 30
0.0
 10
115.9696661826841
 20
77.44788431090674
 30
0.0
 10
116.2232643252369
 20
77.28152592751361
 30
0.0
 10
116.4521077073226
 20
77.10048836577226
 30
0.0
 10
116.6461938399394
 20
76.91334626253246
 30
0.0
 10
116.8113333669445
 20
76.71351369628751
 30
0.0
 10
116.9395278261029
 20
76.50949901014504
 30
0.0
 10
117.0349994629333
 20
76.296208693788
 30
0.0
 10
117.0904513223503
 20
76.08036400758969
 30
0.0
 10
117.1127872285554
 20
75.86057371619381
 30
0.0
 10
117.094612273402
 20
75.71707729523412
 30
0.0
 10
117.0855247958252
 20
75.64532908475422
 30
0.0
 11
117.0855247958252
 21
75.64532908475422
 31
0.0
 11
117.0289319257263
 21
75.42741380358419
 31
0.0
 11
116.9383543410158
 21
75.2217676619411
 31
0.0
 11
116.8069001722039
 21
75.01119928711815
 31
0.0
 11
116.6498427004256
 21
74.81962734104586
 31
0.0
 11
116.449033618639
 21
74.62457836513256
 31
0.0
 11
116.2301797189421
 21
74.45058763014481
 31
0.0
 11
115.9675533523966
 21
74.27720653331434
 31
0.0
 11
115.6924302921419
 21
74.12487651200648
 31
0.0
 11
115.3768469211652
 21
73.97817011912082
 31
0.0
 11
115.0527102648176
 21
73.85183328447258
 31
0.0
 11
114.6942867043036
 21
73.73587464904644
 31
0.0
 11
114.3301816177118
 21
73.63952127830038
 31
0.0
 11
113.9401187210263
 21
73.55742161364343
 31
0.0
 11
113.5465804562345
 21
73.49430950639624
 31
0.0
 11
113.1368931315288
 21
73.44814805706336
 31
0.0
 11
112.7255548701332
 21
73.42058616415889
 31
0.0
 11
112.3087390641401
 21
73.41135204491877
 31
0.0
 11
111.8919232581471
 21
73.42058616415889
 31
0.0
 11
111.4805849967514
 21
73.44814805706338
 31
0.0
 11
111.0708976720457
 21
73.49430950639624
 31
0.0
 11
110.677359407254
 21
73.55742161364343
 31
0.0
 11
110.2872965105685
 21
73.63952127830035
 31
0.0
 11
109.9231914239766
 21
73.73587464904642
 31
0.0
 11
109.5647678634626
 21
73.85183328447258
 31
0.0
 11
109.240631207115
 21
73.97817011912079
 31
0.0
 11
108.9250478361383
 21
74.1248765120065
 31
0.0
 11
108.6499247758835
 21
74.27720653331438
 31
0.0
 11
108.387298409338
 21
74.45058763014481
 31
0.0
 11
108.1684445096411
 21
74.62457836513254
 31
0.0
 11
107.9676354278545
 21
74.81962734104582
 31
0.0
 11
107.8105779560763
 21
75.01119928711809
 31
0.0
 11
107.6791237872645
 21
75.22176766194107
 31
0.0
 11
107.5885462025541
 21
75.42741380358419
 31
0.0
 11
107.5319533324551
 21
75.64532908475422
 31
0.0
 11
107.5129075408274
 21
75.86084178770201
 31
0.0
 11
107.5319533324551
 21
76.07635449064981
 31
0.0
 11
107.588546202554
 21
76.29426977181981
 31
0.0
 11
107.6791237872644
 21
76.49991591346293
 31
0.0
 11
107.8105779560763
 21
76.7104842882859
 31
0.0
 11
107.9676354278545
 21
76.90205623435818
 31
0.0
 11
108.1684445096412
 21
77.09710521027149
 31
0.0
 11
108.387298409338
 21
77.27109594525919
 31
0.0
 11
108.6499247758835
 21
77.44447704208965
 31
0.0
 11
108.9250478361382
 21
77.59680706339763
 31
0.0
 11
109.2406312071149
 21
77.74351345628344
 31
0.0
 11
109.5647678634626
 21
77.86985029093174
 31
0.0
 11
109.9231914239766
 21
77.98580892635783
 31
0.0
 11
110.2872965105685
 21
78.08216229710378
 31
0.0
 11
110.677359407254
 21
78.16426196176062
 31
0.0
 11
111.0708976720457
 21
78.22737406900777
 31
0.0
 11
111.4805849967514
 21
78.27353551834062
 31
0.0
 11
111.8919232581471
 21
78.30109741124514
 31
0.0
 11
112.3087390641401
 21
78.31033153048529
 31
0.0
 11
112.7255548701331
 21
78.30109741124514
 31
0.0
 11
113.1368931315288
 21
78.27353551834064
 31
0.0
 11
113.5465804562345
 21
78.22737406900777
 31
0.0
 11
113.9401187210263
 21
78.16426196176062
 31
0.0
 11
114.3301816177118
 21
78.08216229710379
 31
0.0
 11
114.6942867043036
 21
77.98580892635783
 31
0.0
 11
115.0527102648176
 21
77.86985029093174
 31
0.0
 11
115.3768469211652
 21
77.74351345628345
 31
0.0
 11
115.6924302921419
 21
77.59680706339765
 31
0.0
 11
115.9675533523967
 21
77.44447704208966
 31
0.0
 11
116.2301797189422
 21
77.27109594525919
 31
0.0
 11
116.4490336186391
 21
77.09710521027148
 31
0.0
 11
116.6498427004257
 21
76.90205623435818
 31
0.0
 11
116.8069001722039
 21
76.7104842882859
 31
0.0
 11
116.9383543410158
 21
76.49991591346294
 31
0.0
 11
117.0289319257263
 21
76.29426977181984
 31
0.0
 11
117.0855247958252
 21
76.07635449064979
 31
0.0
 11
117.1045705874529
 21
75.86084178770201
 31
0.0
 11
117.0855247958252
 21
75.64532908475422
 31
0.0
  0
ENDBLK
  5
3B
330
39
100
AcDbEntity
  8
0
100
AcDbBlockEnd
  0
BLOCK
  5
3D
330
3C
100
AcDbEntity
  8
0
100
AcDbBlockBegin
  2
37-1-13
 70
     0
 71
     0
 10
334.1920769040352
 20
168.5453826608498
 30
0.0
  3
37-1-13
  1

  0
LINE
  5
DB
330
3C
100
AcDbEntity
  8
1
  6
Continuous
 62
     7
100
AcDbLine
 10
51.88815233773912
 20
200.0618036820253
 30
0.0
 11
46.32600347241746
 21
203.2731118266916
 31
0.0
  0
LINE
  5
DC
330
3C
100
AcDbEntity
  8
1
  6
Continuous
 62
     7
100
AcDbLine
 10
57.45030120306078
 20
196.8504955373591
 30
0.0
 11
51.88815233773912
 21
200.0618036820253
 31
0.0
  0
LINE
  5
DD
330
3C
100
AcDbEntity
  8
1
  6
Continuous
 62
     7
100
AcDbLine
 10
64.88815233773912
 20
200.0618036820253
 30
0.0
 11
59.32600347241746
 21
196.8504955373591
 31
0.0
  0
LINE
  5
DE
330
3C
100
AcDbEntity
  8
1
  6
Continuous
 62
     7
100
AcDbLine
 10
70.45030120306078
 20
203.2731118266916
 30
0.0
 11
64.88815233773912
 21
200.0618036820253
 31
0.0
  0
LINE
  5
DF
330
3C
100
AcDbEntity
  8
1
  6
Continuous
 62
     7
100
AcDbLine
 10
71.38815233773912
 20
211.320133931223
 30
0.0
 11
71.38815233773912
 21
204.8975176418905
 31
0.0
  0
LINE
  5
E0
330
3C
100
AcDbEntity
  8
1
  6
Continuous
 62
     7
100
AcDbLine
 10
71.38815233773912
 20
217.7427502205556
 30
0.0
 11
71.38815233773912
 21
211.320133931223
 31
0.0
  0
LINE
  5
E1
330
3C
100
AcDbEntity
  8
1
  6
Continuous
 62
     7
100
AcDbLine
 10
64.88815233773912
 20
222.5784641804208
 30
0.0
 11
70.45030120306078
 21
219.3671560357545
 31
0.0
  0
LINE
  5
E2
330
3C
100
AcDbEntity
  8
1
  6
Continuous
 62
     7
100
AcDbLine
 10
59.32600347241746
 20
225.7897723250871
 30
0.0
 11
64.88815233773912
 21
222.5784641804208
 31
0.0
  0
LINE
  5
E3
330
3C
100
AcDbEntity
  8
1
  6
Continuous
 62
     7
100
AcDbLine
 10
51.88815233773912
 20
222.5784641804208
 30
0.0
 11
57.45030120306078
 21
225.7897723250871
 31
0.0
  0
LINE
  5
E4
330
3C
100
AcDbEntity
  8
1
  6
Continuous
 62
     7
100
AcDbLine
 10
46.32600347241746
 20
219.3671560357545
 30
0.0
 11
51.88815233773912
 21
222.5784641804208
 31
0.0
  0
LINE
  5
E5
330
3C
100
AcDbEntity
  8
1
  6
Continuous
 62
     7
100
AcDbLine
 10
45.38815233773912
 20
211.320133931223
 30
0.0
 11
45.38815233773912
 21
217.7427502205556
 31
0.0
  0
LINE
  5
E6
330
3C
100
AcDbEntity
  8
1
  6
Continuous
 62
     7
100
AcDbLine
 10
45.38815233773912
 20
204.8975176418905
 30
0.0
 11
45.38815233773912
 21
211.320133931223
 31
0.0
  0
LINE
  5
E7
330
3C
100
AcDbEntity
  8
1
  6
Continuous
 62
     7
100
AcDbLine
 10
148.8087390641401
 20
124.7498252194079
 30
0.0
 11
136.8087390641401
 21
124.7498252194079
 31
0.0
  0
LINE
  5
E8
330
3C
100
AcDbEntity
  8
0
  6
Continuous
 62
     7
100
AcDbLine
 10
151.4840218706841
 20
117.8205394336793
 30
0.0
 11
147.654085843037
 21
117.8205394336793
 31
0.0
  0
LINE
  5
E9
330
3C
100
AcDbEntity
  8
0
  6
Continuous
 62
     7
100
AcDbLine
 10
137.9633922852432
 20
117.8205394336793
 30
0.0
 11
134.1334562575961
 21
117.8205394336793
 31
0.0
  0
LINE
  5
EA
330
3C
100
AcDbEntity
  8
1
  6
Continuous
 62
     7
100
AcDbLine
 10
129.7380248498687
 20
110.7498252194079
 30
0.0
 11
155.8794532784115
 21
110.7498252194079
 31
0.0
  0
LINE
  5
EB
330
3C
100
AcDbEntity
  8
1
  6
Continuous
 62
     7
100
AcDbLine
 10
71.38828993024379
 20
117.5828846924664
 30
0.0
 11
71.38828993024407
 21
110.820133931223
 31
0.0
  0
LINE
  5
EC
330
3C
100
AcDbEntity
  8
1
  6
Continuous
 62
     7
100
AcDbLine
 10
71.38828993024407
 20
110.820133931223
 30
0.0
 11
45.3882899302439
 21
110.8201339312229
 31
0.0
  0
LINE
  5
ED
330
3C
100
AcDbEntity
  8
1
  6
Continuous
 62
     7
100
AcDbLine
 10
45.3882899302439
 20
117.5829953297317
 30
0.0
 11
45.3882899302439
 21
110.8201339312229
 31
0.0
  0
LINE
  5
EE
330
3C
100
AcDbEntity
  8
1
  6
Continuous
 62
     7
100
AcDbLine
 10
45.88828993024418
 20
118.3201339312231
 30
0.0
 11
58.3882899302441
 21
118.320133931223
 31
0.0
  0
LINE
  5
EF
330
3C
100
AcDbEntity
  8
1
  6
Continuous
 62
     7
100
AcDbLine
 10
58.3882899302441
 20
118.320133931223
 30
0.0
 11
70.8882899302439
 21
118.3201339312231
 31
0.0
  0
LINE
  5
F0
330
3C
100
AcDbEntity
  8
1
  6
Continuous
 62
     7
100
AcDbLine
 10
52.3882899302441
 20
124.820133931223
 30
0.0
 11
64.3882899302441
 21
124.820133931223
 31
0.0
  0
LINE
  5
F1
330
3C
100
AcDbEntity
  8
1
  6
Continuous
 62
     7
100
AcDbLine
 10
45.3882899302439
 20
117.8908481454942
 30
0.0
 11
45.3882899302439
 21
117.5829953297317
 31
0.0
  0
LINE
  5
F2
330
3C
100
AcDbEntity
  8
1
  6
Continuous
 62
     7
100
AcDbLine
 10
71.38828993024379
 20
117.8908481454946
 30
0.0
 11
71.38828993024379
 21
117.5828846924664
 31
0.0
  0
ARC
  5
F3
330
3C
100
AcDbEntity
  8
1
  6
Continuous
 62
     7
100
AcDbCircle
 10
58.38815233773912
 20
211.320133931223
 30
0.0
 40
13.00000000000001
100
AcDbArc
 50
-120.0
 51
-60.00000000000005
  0
ARC
  5
F4
330
3C
100
AcDbEntity
  8
1
  6
Continuous
 62
     7
100
AcDbCircle
 10
58.38815233773912
 20
211.320133931223
 30
0.0
 40
14.5
100
AcDbArc
 50
-90.0
 51
-86.29155527472901
  0
ARC
  5
F5
330
3C
100
AcDbEntity
  8
1
  6
Continuous
 62
     7
100
AcDbCircle
 10
58.38815233773912
 20
211.320133931223
 30
0.0
 40
14.49999999999993
100
AcDbArc
 50
-93.70844472527099
 51
-90.0
  0
ARC
  5
F6
330
3C
100
AcDbEntity
  8
1
  6
Continuous
 62
     7
100
AcDbCircle
 10
58.38815233773912
 20
211.320133931223
 30
0.0
 40
13.00000000000001
100
AcDbArc
 50
-60.00000000000005
 51
0.0
  0
ARC
  5
F7
330
3C
100
AcDbEntity
  8
1
  6
Continuous
 62
     7
100
AcDbCircle
 10
58.38815233773912
 20
211.320133931223
 30
0.0
 40
14.49999999999992
100
AcDbArc
 50
-33.7084447252708
 51
-26.29155527472924
  0
ARC
  5
F8
330
3C
100
AcDbEntity
  8
1
  6
Continuous
 62
     7
100
AcDbCircle
 10
58.38815233773912
 20
211.320133931223
 30
0.0
 40
14.5
100
AcDbArc
 50
26.29155527472944
 51
33.70844472527109
  0
ARC
  5
F9
330
3C
100
AcDbEntity
  8
1
  6
Continuous
 62
     7
100
AcDbCircle
 10
58.38815233773912
 20
211.320133931223
 30
0.0
 40
14.50000000000012
100
AcDbArc
 50
86.29155527472905
 51
90.0
  0
ARC
  5
FA
330
3C
100
AcDbEntity
  8
1
  6
Continuous
 62
     7
100
AcDbCircle
 10
58.38815233773912
 20
211.320133931223
 30
0.0
 40
14.5
100
AcDbArc
 50
90.0
 51
93.70844472527095
  0
ARC
  5
FB
330
3C
100
AcDbEntity
  8
1
  6
Continuous
 62
     7
100
AcDbCircle
 10
58.38815233773912
 20
211.320133931223
 30
0.0
 40
14.49999999999997
100
AcDbArc
 50
146.2915552747289
 51
153.7084447252706
  0
ARC
  5
FC
330
3C
100
AcDbEntity
  8
1
  6
Continuous
 62
     7
100
AcDbCircle
 10
58.38815233773912
 20
211.320133931223
 30
0.0
 40
14.49999999999998
100
AcDbArc
 50
-153.7084447252708
 51
-146.2915552747292
  0
ARC
  5
FD
330
3C
100
AcDbEntity
  8
1
  6
Continuous
 62
     7
100
AcDbCircle
 10
58.38815233773912
 20
211.320133931223
 30
0.0
 40
13.0
100
AcDbArc
 50
180.0
 51
-120.0
  0
ARC
  5
FE
330
3C
100
AcDbEntity
  8
1
  6
Continuous
 62
     7
100
AcDbCircle
 10
58.38815233773912
 20
211.320133931223
 30
0.0
 40
13.00000000000008
100
AcDbArc
 50
119.9999999999998
 51
180.0
  0
ARC
  5
FF
330
3C
100
AcDbEntity
  8
1
  6
Continuous
 62
     7
100
AcDbCircle
 10
58.38815233773912
 20
211.320133931223
 30
0.0
 40
13.00000000000008
100
AcDbArc
 50
60.00000000000023
 51
119.9999999999998
  0
ARC
  5
100
330
3C
100
AcDbEntity
  8
1
  6
Continuous
 62
     7
100
AcDbCircle
 10
58.38815233773912
 20
211.320133931223
 30
0.0
 40
12.99999999999999
100
AcDbArc
 50
0.0
 51
60.00000000000023
  0
ARC
  5
101
330
3C
100
AcDbEntity
  8
1
  6
Continuous
 62
     7
100
AcDbCircle
 10
152.30873906414
 20
114.2498252194079
 30
0.0
 40
5.000000000000036
100
AcDbArc
 50
-44.4270040008053
 51
53.13010235415703
  0
ARC
  5
102
330
3C
100
AcDbEntity
  8
1
  6
Continuous
 62
     7
100
AcDbCircle
 10
168.7151942692549
 20
138.1562804245228
 30
0.0
 40
23.9999999999999
100
AcDbArc
 50
-146.0408074999024
 51
-123.9591925000977
  0
ARC
  5
103
330
3C
100
AcDbEntity
  8
1
  6
Continuous
 62
     7
100
AcDbCircle
 10
133.3087390641401
 20
114.2498252194079
 30
0.0
 40
4.999999999999932
100
AcDbArc
 50
126.869897645843
 51
-135.572995999194
  0
ARC
  5
104
330
3C
100
AcDbEntity
  8
1
  6
Continuous
 62
     7
100
AcDbCircle
 10
116.9022838590252
 20
138.1562804245228
 30
0.0
 40
24.00000000000004
100
AcDbArc
 50
-56.04080749990232
 51
-33.95919250009751
  0
ARC
  5
105
330
3C
100
AcDbEntity
  8
1
  6
Continuous
 62
     7
100
AcDbCircle
 10
84.29474513535882
 20
138.2265891363379
 30
0.0
 40
23.99999999999983
100
AcDbArc
 50
-146.0408074999023
 51
-123.9591925000977
  0
ARC
  5
106
330
3C
100
AcDbEntity
  8
1
  6
Continuous
 62
     7
100
AcDbCircle
 10
32.48183472512909
 20
138.2265891363379
 30
0.0
 40
24.0
100
AcDbArc
 50
-56.04080749990203
 51
-33.95919250009736
  0
ARC
  5
107
330
3C
100
AcDbEntity
  8
1
  6
Continuous
 62
     7
100
AcDbCircle
 10
48.8882899302441
 20
114.3201339312229
 30
0.0
 40
5.000000000000112
100
AcDbArc
 50
126.869897645842
 51
134.4270040008083
  0
ARC
  5
108
330
3C
100
AcDbEntity
  8
1
  6
Continuous
 62
     7
100
AcDbCircle
 10
67.88828993024413
 20
114.3201339312229
 30
0.0
 40
4.99999999999996
100
AcDbArc
 50
45.57299599919932
 51
53.13010235415943
  0
CIRCLE
  5
109
330
3C
100
AcDbEntity
  8
1
  6
Continuous
 62
     7
100
AcDbCircle
 10
58.38815233773912
 20
211.320133931223
 30
0.0
 40
6.0
  0
SPLINE
  5
10A
330
3C
100
AcDbEntity
  8
1
  6
Continuous
 62
     7
100
AcDbSpline
210
0.0
220
0.0
230
1.0
 70
    11
 71
     3
 72
    79
 73
    75
 74
    73
 42
0.0000000001
 43
0.0000000001
 44
0.00000001
 40
0.0
 40
0.0
 40
0.0
 40
0.0
 40
0.3142650659705584
 40
0.6282865583860398
 40
0.9611940750941833
 40
1.293759071489281
 40
1.653345631090619
 40
2.012624930760571
 40
2.402527484666802
 40
2.792202156791427
 40
3.212046604562043
 40
3.631735870026531
 40
4.077938487430379
 40
4.524041249095251
 40
4.99065391433734
 40
5.457207554045803
 40
5.93667858674344
 40
6.416122255863979
 40
6.899971960151168
 40
7.38382166443833
 40
7.863265333558905
 40
8.342736366256554
 40
8.809290005964995
 40
9.275902671207042
 40
9.722005432871928
 40
10.16820805027578
 40
10.58789731574029
 40
11.00774176351094
 40
11.39741643563561
 40
11.78731898954191
 40
12.14659828921187
 40
12.50618484881326
 40
12.83874984520828
 40
13.17165736191638
 40
13.48567885433184
 40
13.79994392030241
 40
14.10737582563233
 40
14.41480773096228
 40
14.72907279693285
 40
15.04309428934833
 40
15.37600180605646
 40
15.70856680245153
 40
16.0681533620529
 40
16.42743266172285
 40
16.81733521562911
 40
17.20700988775373
 40
17.62685433552437
 40
18.04654360098889
 40
18.49274621839273
 40
18.93884898005762
 40
19.4054616452997
 40
19.87201528500814
 40
20.35148631770579
 40
20.83092998682635
 40
21.31477969111352
 40
21.7986293954007
 40
22.27807306452125
 40
22.75754409721889
 40
23.22409773692735
 40
23.69071040216944
 40
24.1368131638343
 40
24.58301578123813
 40
25.00270504670263
 40
25.42254949447325
 40
25.81222416659789
 40
26.20212672050416
 40
26.56140602017409
 40
26.92099257977544
 40
27.25355757617046
 40
27.58646509287857
 40
27.90048658529409
 40
28.21475165126466
 40
28.52218355659459
 40
28.82961546192453
 40
28.82961546192453
 40
28.82961546192453
 40
28.82961546192453
 10
70.4287476793934
 20
114.6266484669546
 30
0.0
 10
70.4101551437148
 20
114.7299158455091
 30
0.0
 10
70.37298448264531
 20
114.9363705644427
 30
0.0
 10
70.26203782576282
 20
115.2384427702486
 30
0.0
 10
70.11497279115092
 20
115.5306250164197
 30
0.0
 10
69.92481788145243
 20
115.8154672551557
 30
0.0
 10
69.69968312577763
 20
116.0848962105888
 30
0.0
 10
69.43504683571095
 20
116.3436823982104
 30
0.0
 10
69.13998676770227
 20
116.5833493295208
 30
0.0
 10
68.80922062065933
 20
116.8086777834102
 30
0.0
 10
68.4531535514556
 20
117.0122322043136
 30
0.0
 10
68.06642046238966
 20
117.197716394323
 30
0.0
 10
67.65974727557531
 20
117.3594793099819
 30
0.0
 10
67.22877112016269
 20
117.4998407515839
 30
0.0
 10
66.78339768418378
 20
117.6150787062103
 30
0.0
 10
66.32118481981142
 20
117.7063280647827
 30
0.0
 10
65.85026643725821
 20
117.7715327264889
 30
0.0
 10
65.37073499980706
 20
117.8111214699979
 30
0.0
 10
64.88828993024676
 20
117.824206489164
 30
0.0
 10
64.40584486067129
 20
117.8111214699991
 30
0.0
 10
63.92631342326519
 20
117.7715327264839
 30
0.0
 10
63.45539504054848
 20
117.7063280648009
 30
0.0
 10
62.99318217676982
 20
117.6150787061443
 30
0.0
 10
62.54780873862009
 20
117.4998407518257
 30
0.0
 10
62.11683259096901
 20
117.3594793091234
 30
0.0
 10
61.71015937602677
 20
117.1977163974516
 30
0.0
 10
61.32342638599636
 20
117.0122321934043
 30
0.0
 10
60.96735896063058
 20
116.8086778229859
 30
0.0
 10
60.63659405213348
 20
116.5833491935359
 30
0.0
 10
60.34152955232146
 20
116.3436828904213
 30
0.0
 10
60.07690857241277
 20
116.0848945326275
 30
0.0
 10
59.85171904431132
 20
115.8154733410328
 30
0.0
 10
59.66175404714618
 20
115.5306041827261
 30
0.0
 10
59.5140046324593
 20
115.2385189455174
 30
0.0
 10
59.40547564705931
 20
114.9361040415378
 30
0.0
 10
59.34126399424087
 20
114.6298821661804
 30
0.0
 10
59.31866270940635
 20
114.3199827337955
 30
0.0
 10
59.34126399424081
 20
114.0100833014106
 30
0.0
 10
59.40547564705926
 20
113.7038614260532
 30
0.0
 10
59.51400463245928
 20
113.4014465220736
 30
0.0
 10
59.66175404714625
 20
113.1093612848649
 30
0.0
 10
59.85171904431128
 20
112.8244921265581
 30
0.0
 10
60.07690857241271
 20
112.5550709349633
 30
0.0
 10
60.34152955232146
 20
112.2962825771697
 30
0.0
 10
60.63659405213355
 20
112.0566162740551
 30
0.0
 10
60.96735896063059
 20
111.8312876446052
 30
0.0
 10
61.32342638599631
 20
111.6277332741867
 30
0.0
 10
61.71015937602675
 20
111.4422490701394
 30
0.0
 10
62.116832590969
 20
111.2804861584677
 30
0.0
 10
62.54780873862011
 20
111.1401247157654
 30
0.0
 10
62.99318217676984
 20
111.0248867614467
 30
0.0
 10
63.45539504054852
 20
110.9336374027901
 30
0.0
 10
63.92631342326502
 20
110.868432741107
 30
0.0
 10
64.40584486067192
 20
110.8288439975917
 30
0.0
 10
64.8882899302444
 20
110.8157589784274
 30
0.0
 10
65.3707349998158
 20
110.8288439975916
 30
0.0
 10
65.8502664372259
 20
110.8684327411074
 30
0.0
 10
66.32118481993076
 20
110.9336374027888
 30
0.0
 10
66.78339768375165
 20
111.0248867614515
 30
0.0
 10
67.22877112174723
 20
111.1401247157482
 30
0.0
 10
67.65974726994942
 20
111.2804861585286
 30
0.0
 10
68.06642048289444
 20
111.4422490699172
 30
0.0
 10
68.45315347995673
 20
111.6277332749613
 30
0.0
 10
68.80922088003386
 20
111.8312876417952
 30
0.0
 10
69.13998587647123
 20
112.0566162837104
 30
0.0
 10
69.43505006161263
 20
112.2962825422214
 30
0.0
 10
69.6996721285861
 20
112.5550710541035
 30
0.0
 10
69.92485776768946
 20
112.8244916944435
 30
0.0
 10
70.11483624918436
 20
113.1093627641164
 30
0.0
 10
70.26253707094017
 20
113.4014411134129
 30
0.0
 10
70.37123771788929
 20
113.7038803499372
 30
0.0
 10
70.43482080247409
 20
114.0100131275047
 30
0.0
 10
70.45972029284528
 20
114.3202383240996
 30
0.0
 10
70.43907188387736
 20
114.5245117526696
 30
0.0
 10
70.4287476793934
 20
114.6266484669546
 30
0.0
 11
70.4287476793934
 21
114.6266484669546
 31
0.0
 11
70.36412575433832
 21
114.9341977125912
 31
0.0
 11
70.25892579514704
 21
115.2300734741618
 31
0.0
 11
70.10903212817451
 21
115.5273264022926
 31
0.0
 11
69.92525798162232
 21
115.8045024111503
 31
0.0
 11
69.69520087045054
 21
116.0808648895102
 31
0.0
 11
69.43883953178926
 21
116.3325799649648
 31
0.0
 11
69.13667365038151
 21
116.5789938072214
 31
0.0
 11
68.81493318237168
 21
116.7988333426564
 31
0.0
 11
68.45077480007504
 21
117.0077783902811
 31
0.0
 11
68.07252828958852
 21
117.1896262851023
 31
0.0
 11
67.65811406395088
 21
117.3550276918895
 31
0.0
 11
67.23402010723341
 21
117.4934184063206
 31
0.0
 11
66.78237694714518
 21
117.6106610406728
 31
0.0
 11
66.32468383818986
 21
117.7011558843935
 31
0.0
 11
65.84977565443806
 21
117.7671459457794
 31
0.0
 11
65.37195896919164
 21
117.8066104508426
 31
0.0
 11
64.88828993024421
 21
117.8198315363681
 31
0.0
 11
64.40462089129682
 21
117.8066104508425
 31
0.0
 11
63.92680420605036
 21
117.7671459457793
 31
0.0
 11
63.45189602229855
 21
117.7011558843934
 31
0.0
 11
62.99420291334324
 21
117.6106610406728
 31
0.0
 11
62.54255975325505
 21
117.4934184063206
 31
0.0
 11
62.11846579653756
 21
117.3550276918896
 31
0.0
 11
61.7040515708999
 21
117.1896262851024
 31
0.0
 11
61.32580506041334
 21
117.0077783902812
 31
0.0
 11
60.96164667811669
 21
116.7988333426564
 31
0.0
 11
60.63990621010684
 21
116.5789938072214
 31
0.0
 11
60.33774032869908
 21
116.3325799649647
 31
0.0
 11
60.08137899003782
 21
116.08086488951
 31
0.0
 11
59.85132187886595
 21
115.8045024111501
 31
0.0
 11
59.66754773231374
 21
115.5273264022925
 31
0.0
 11
59.51765406534123
 21
115.2300734741618
 31
0.0
 11
59.41245410615001
 21
114.9341977125912
 31
0.0
 11
59.34783218109501
 21
114.6266484669546
 31
0.0
 11
59.3261410649223
 21
114.3199827337955
 31
0.0
 11
59.34783218109497
 21
114.0133170006365
 31
0.0
 11
59.41245410614997
 21
113.7057677549998
 31
0.0
 11
59.51765406534123
 21
113.4098919934292
 31
0.0
 11
59.66754773231378
 21
113.1126390652984
 31
0.0
 11
59.85132187886595
 21
112.8354630564407
 31
0.0
 11
60.08137899003778
 21
112.5591005780808
 31
0.0
 11
60.33774032869909
 21
112.3073855026263
 31
0.0
 11
60.63990621010689
 21
112.0609716603696
 31
0.0
 11
60.96164667811668
 21
111.8411321249347
 31
0.0
 11
61.32580506041331
 21
111.6321870773098
 31
0.0
 11
61.70405157089988
 21
111.4503391824887
 31
0.0
 11
62.11846579653756
 21
111.2849377757016
 31
0.0
 11
62.54255975325506
 21
111.1465470612705
 31
0.0
 11
62.99420291334327
 21
111.0293044269183
 31
0.0
 11
63.45189602229856
 21
110.9388095831976
 31
0.0
 11
63.92680420605036
 21
110.8728195218117
 31
0.0
 11
64.4046208912968
 21
110.8333550167484
 31
0.0
 11
64.88828993024421
 21
110.8201339312229
 31
0.0
 11
65.37195896919162
 21
110.8333550167484
 31
0.0
 11
65.84977565443806
 21
110.8728195218117
 31
0.0
 11
66.32468383818986
 21
110.9388095831976
 31
0.0
 11
66.78237694714517
 21
111.0293044269183
 31
0.0
 11
67.23402010723339
 21
111.1465470612705
 31
0.0
 11
67.65811406395086
 21
111.2849377757015
 31
0.0
 11
68.07252828958852
 21
111.4503391824887
 31
0.0
 11
68.45077480007507
 21
111.6321870773098
 31
0.0
 11
68.81493318237168
 21
111.8411321249347
 31
0.0
 11
69.13667365038148
 21
112.0609716603697
 31
0.0
 11
69.43883953178926
 21
112.3073855026263
 31
0.0
 11
69.69520087045054
 21
112.5591005780809
 31
0.0
 11
69.92525798162234
 21
112.8354630564408
 31
0.0
 11
70.10903212817449
 21
113.1126390652984
 31
0.0
 11
70.25892579514704
 21
113.4098919934292
 31
0.0
 11
70.36412575433835
 21
113.7057677549998
 31
0.0
 11
70.42874767939341
 21
114.0133170006365
 31
0.0
 11
70.45043879556613
 21
114.3199827337955
 31
0.0
 11
70.4287476793934
 21
114.6266484669546
 31
0.0
  0
SPLINE
  5
10B
330
3C
100
AcDbEntity
  8
1
  6
Continuous
 62
     7
100
AcDbSpline
210
0.0
220
0.0
230
1.0
 70
    11
 71
     3
 72
    79
 73
    75
 74
    73
 42
0.0000000001
 43
0.0000000001
 44
0.00000001
 40
0.0
 40
0.0
 40
0.0
 40
0.0
 40
0.3142650659705584
 40
0.6282865583860398
 40
0.9611940750941865
 40
1.29375907148928
 40
1.653345631090619
 40
2.012624930760565
 40
2.402527484666813
 40
2.792202156791426
 40
3.212046604562042
 40
3.63173587002653
 40
4.077938487430365
 40
4.52404124909525
 40
4.990653914337361
 40
5.457207554045809
 40
5.936678586743446
 40
6.416122255863992
 40
6.899971960151166
 40
7.383821664438336
 40
7.863265333558889
 40
8.342736366256546
 40
8.809290005964986
 40
9.275902671207055
 40
9.72200543287194
 40
10.16820805027578
 40
10.58789731574029
 40
11.00774176351094
 40
11.39741643563561
 40
11.78731898954191
 40
12.14659828921189
 40
12.50618484881327
 40
12.83874984520828
 40
13.17165736191638
 40
13.48567885433184
 40
13.79994392030241
 40
14.10737582563234
 40
14.41480773096228
 40
14.72907279693285
 40
15.04309428934833
 40
15.37600180605647
 40
15.70856680245154
 40
16.0681533620529
 40
16.42743266172286
 40
16.81733521562912
 40
17.20700988775375
 40
17.62685433552437
 40
18.04654360098889
 40
18.49274621839272
 40
18.93884898005761
 40
19.40546164529969
 40
19.87201528500813
 40
20.35148631770579
 40
20.83092998682634
 40
21.31477969111351
 40
21.79862939540069
 40
22.27807306452124
 40
22.75754409721888
 40
23.22409773692736
 40
23.69071040216944
 40
24.13681316383431
 40
24.58301578123813
 40
25.00270504670262
 40
25.42254949447324
 40
25.81222416659788
 40
26.20212672050415
 40
26.56140602017408
 40
26.92099257977543
 40
27.25355757617046
 40
27.58646509287857
 40
27.90048658529409
 40
28.21475165126466
 40
28.52218355659459
 40
28.82961546192453
 40
28.82961546192453
 40
28.82961546192453
 40
28.82961546192453
 10
46.34783218109482
 20
114.6266484669546
 30
0.0
 10
46.36642471677342
 20
114.7299158455091
 30
0.0
 10
46.40359537784294
 20
114.9363705644427
 30
0.0
 10
46.51454203472538
 20
115.2384427702485
 30
0.0
 10
46.66160706933732
 20
115.5306250164196
 30
0.0
 10
46.85176197903581
 20
115.8154672551558
 30
0.0
 10
47.07689673471057
 20
116.0848962105888
 30
0.0
 10
47.34153302477727
 20
116.3436823982105
 30
0.0
 10
47.63659309278594
 20
116.5833493295208
 30
0.0
 10
47.96735923982888
 20
116.8086777834103
 30
0.0
 10
48.32342630903262
 20
117.0122322043136
 30
0.0
 10
48.71015939809853
 20
117.197716394323
 30
0.0
 10
49.11683258491292
 20
117.3594793099819
 30
0.0
 10
49.54780874032553
 20
117.4998407515839
 30
0.0
 10
49.99318217630442
 20
117.6150787062103
 30
0.0
 10
50.45539504067681
 20
117.7063280647828
 30
0.0
 10
50.92631342322999
 20
117.7715327264889
 30
0.0
 10
51.40584486068117
 20
117.811121469998
 30
0.0
 10
51.88828993024147
 20
117.824206489164
 30
0.0
 10
52.37073499981691
 20
117.8111214699991
 30
0.0
 10
52.85026643722302
 20
117.7715327264839
 30
0.0
 10
53.32118481993972
 20
117.7063280648008
 30
0.0
 10
53.7833976837184
 20
117.6150787061444
 30
0.0
 10
54.22877112186814
 20
117.4998407518257
 30
0.0
 10
54.65974726951921
 20
117.3594793091234
 30
0.0
 10
55.06642048446143
 20
117.1977163974517
 30
0.0
 10
55.45315347449187
 20
117.0122321934043
 30
0.0
 10
55.8092208998576
 20
116.8086778229859
 30
0.0
 10
56.13998580835474
 20
116.583349193536
 30
0.0
 10
56.43505030816675
 20
116.3436828904213
 30
0.0
 10
56.69967128807545
 20
116.0848945326275
 30
0.0
 10
56.92486081617689
 20
115.8154733410328
 30
0.0
 10
57.11482581334202
 20
115.5306041827262
 30
0.0
 10
57.26257522802892
 20
115.2385189455174
 30
0.0
 10
57.37110421342894
 20
114.9361040415378
 30
0.0
 10
57.43531586624734
 20
114.6298821661804
 30
0.0
 10
57.45791715108184
 20
114.3199827337955
 30
0.0
 10
57.43531586624738
 20
114.0100833014106
 30
0.0
 10
57.37110421342897
 20
113.7038614260532
 30
0.0
 10
57.2625752280289
 20
113.4014465220736
 30
0.0
 10
57.11482581334197
 20
113.1093612848649
 30
0.0
 10
56.92486081617691
 20
112.8244921265581
 30
0.0
 10
56.6996712880755
 20
112.5550709349634
 30
0.0
 10
56.43505030816673
 20
112.2962825771697
 30
0.0
 10
56.13998580835467
 20
112.0566162740552
 30
0.0
 10
55.80922089985759
 20
111.8312876446051
 30
0.0
 10
55.45315347449192
 20
111.6277332741867
 30
0.0
 10
55.06642048446145
 20
111.4422490701393
 30
0.0
 10
54.65974726951922
 20
111.2804861584677
 30
0.0
 10
54.22877112186811
 20
111.1401247157654
 30
0.0
 10
53.78339768371839
 20
111.0248867614468
 30
0.0
 10
53.32118481993969
 20
110.9336374027901
 30
0.0
 10
52.8502664372232
 20
110.868432741107
 30
0.0
 10
52.37073499981629
 20
110.8288439975917
 30
0.0
 10
51.88828993024382
 20
110.8157589784274
 30
0.0
 10
51.40584486067243
 20
110.8288439975916
 30
0.0
 10
50.92631342326233
 20
110.8684327411074
 30
0.0
 10
50.45539504055744
 20
110.9336374027888
 30
0.0
 10
49.99318217673658
 20
111.0248867614514
 30
0.0
 10
49.547808738741
 20
111.1401247157483
 30
0.0
 10
49.11683259053879
 20
111.2804861585286
 30
0.0
 10
48.71015937759374
 20
111.4422490699172
 30
0.0
 10
48.32342638053151
 20
111.6277332749613
 30
0.0
 10
47.96735898045432
 20
111.8312876417952
 30
0.0
 10
47.636593984017
 20
112.0566162837105
 30
0.0
 10
47.34152979887558
 20
112.2962825422214
 30
0.0
 10
47.07690773190214
 20
112.5550710541035
 30
0.0
 10
46.85172209279875
 20
112.8244916944436
 30
0.0
 10
46.66174361130386
 20
113.1093627641164
 30
0.0
 10
46.51404278954804
 20
113.401441113413
 30
0.0
 10
46.40534214259893
 20
113.7038803499372
 30
0.0
 10
46.34175905801409
 20
114.0100131275047
 30
0.0
 10
46.31685956764295
 20
114.3202383240996
 30
0.0
 10
46.33750797661085
 20
114.5245117526696
 30
0.0
 10
46.34783218109482
 20
114.6266484669546
 30
0.0
 11
46.34783218109482
 21
114.6266484669546
 31
0.0
 11
46.4124541061499
 21
114.9341977125912
 31
0.0
 11
46.51765406534118
 21
115.2300734741618
 31
0.0
 11
46.66754773231371
 21
115.5273264022926
 31
0.0
 11
46.85132187886589
 21
115.8045024111503
 31
0.0
 11
47.08137899003768
 21
116.0808648895102
 31
0.0
 11
47.33774032869895
 21
116.3325799649648
 31
0.0
 11
47.63990621010672
 21
116.5789938072214
 31
0.0
 11
47.96164667811654
 21
116.7988333426564
 31
0.0
 11
48.32580506041317
 21
117.0077783902811
 31
0.0
 11
48.70405157089969
 21
117.1896262851023
 31
0.0
 11
49.11846579653732
 21
117.3550276918895
 31
0.0
 11
49.54255975325481
 21
117.4934184063206
 31
0.0
 11
49.99420291334305
 21
117.6106610406728
 31
0.0
 11
50.45189602229836
 21
117.7011558843935
 31
0.0
 11
50.92680420605016
 21
117.7671459457794
 31
0.0
 11
51.40462089129659
 21
117.8066104508426
 31
0.0
 11
51.888289930244
 21
117.8198315363681
 31
0.0
 11
52.3719589691914
 21
117.8066104508425
 31
0.0
 11
52.84977565443784
 21
117.7671459457793
 31
0.0
 11
53.32468383818966
 21
117.7011558843934
 31
0.0
 11
53.78237694714497
 21
117.6106610406728
 31
0.0
 11
54.23402010723318
 21
117.4934184063206
 31
0.0
 11
54.65811406395066
 21
117.3550276918896
 31
0.0
 11
55.07252828958831
 21
117.1896262851024
 31
0.0
 11
55.45077480007487
 21
117.0077783902812
 31
0.0
 11
55.81493318237153
 21
116.7988333426564
 31
0.0
 11
56.13667365038138
 21
116.5789938072214
 31
0.0
 11
56.43883953178913
 21
116.3325799649647
 31
0.0
 11
56.69520087045041
 21
116.08086488951
 31
0.0
 11
56.92525798162227
 21
115.8045024111501
 31
0.0
 11
57.10903212817446
 21
115.5273264022925
 31
0.0
 11
57.25892579514698
 21
115.2300734741618
 31
0.0
 11
57.36412575433821
 21
114.9341977125912
 31
0.0
 11
57.42874767939321
 21
114.6266484669546
 31
0.0
 11
57.45043879556591
 21
114.3199827337955
 31
0.0
 11
57.42874767939324
 21
114.0133170006365
 31
0.0
 11
57.36412575433824
 21
113.7057677549998
 31
0.0
 11
57.25892579514697
 21
113.4098919934292
 31
0.0
 11
57.10903212817442
 21
113.1126390652984
 31
0.0
 11
56.92525798162225
 21
112.8354630564407
 31
0.0
 11
56.69520087045044
 21
112.5591005780808
 31
0.0
 11
56.43883953178911
 21
112.3073855026263
 31
0.0
 11
56.13667365038132
 21
112.0609716603696
 31
0.0
 11
55.81493318237152
 21
111.8411321249347
 31
0.0
 11
55.4507748000749
 21
111.6321870773098
 31
0.0
 11
55.07252828958833
 21
111.4503391824887
 31
0.0
 11
54.65811406395066
 21
111.2849377757016
 31
0.0
 11
54.23402010723316
 21
111.1465470612705
 31
0.0
 11
53.78237694714495
 21
111.0293044269183
 31
0.0
 11
53.32468383818966
 21
110.9388095831976
 31
0.0
 11
52.84977565443785
 21
110.8728195218117
 31
0.0
 11
52.37195896919141
 21
110.8333550167484
 31
0.0
 11
51.88828993024401
 21
110.8201339312229
 31
0.0
 11
51.40462089129659
 21
110.8333550167484
 31
0.0
 11
50.92680420605016
 21
110.8728195218117
 31
0.0
 11
50.45189602229837
 21
110.9388095831976
 31
0.0
 11
49.99420291334304
 21
111.0293044269183
 31
0.0
 11
49.54255975325481
 21
111.1465470612705
 31
0.0
 11
49.11846579653734
 21
111.2849377757015
 31
0.0
 11
48.70405157089969
 21
111.4503391824887
 31
0.0
 11
48.32580506041315
 21
111.6321870773098
 31
0.0
 11
47.96164667811654
 21
111.8411321249347
 31
0.0
 11
47.63990621010673
 21
112.0609716603697
 31
0.0
 11
47.33774032869896
 21
112.3073855026263
 31
0.0
 11
47.08137899003768
 21
112.5591005780809
 31
0.0
 11
46.85132187886588
 21
112.8354630564408
 31
0.0
 11
46.66754773231371
 21
113.1126390652984
 31
0.0
 11
46.51765406534117
 21
113.4098919934292
 31
0.0
 11
46.41245410614987
 21
113.7057677549998
 31
0.0
 11
46.3478321810948
 21
114.0133170006365
 31
0.0
 11
46.32614106492208
 21
114.3199827337955
 31
0.0
 11
46.34783218109482
 21
114.6266484669546
 31
0.0
  0
SPLINE
  5
10C
330
3C
100
AcDbEntity
  8
1
  6
Continuous
 62
     7
100
AcDbSpline
210
0.0
220
0.0
230
1.0
 70
    11
 71
     3
 72
    79
 73
    75
 74
    73
 42
0.0000000001
 43
0.0000000001
 44
0.00000001
 40
0.0
 40
0.0
 40
0.0
 40
0.0
 40
0.3219191133368784
 40
0.6433817983662578
 40
0.992875006886821
 40
1.34179514050701
 40
1.729749028413397
 40
2.117262757272403
 40
2.547908615556971
 40
2.978266915974187
 40
3.450266276154614
 40
3.922086452275986
 40
4.429962878428816
 40
4.937730797563106
 40
5.473111501542499
 40
6.008430500180179
 40
6.561033308980346
 40
7.113608122002714
 40
7.672061093536208
 40
8.230514065069702
 40
8.7830888780921
 40
9.335691686892245
 40
9.871010685529981
 40
10.40639138950933
 40
10.91415930864361
 40
11.42203573479647
 40
11.89385591091786
 40
12.36585527109824
 40
12.79621357151544
 40
13.22685942979999
 40
13.61437315865899
 40
14.00232704656539
 40
14.35124718018558
 40
14.70074038870615
 40
15.02220307373551
 40
15.34412218707249
 40
15.65570035748488
 40
15.96727852789727
 40
16.2891976412342
 40
16.61066032626359
 40
16.96015353478416
 40
17.30907366840434
 40
17.69702755631068
 40
18.08454128516968
 40
18.51518714345422
 40
18.94554544387144
 40
19.41754480405185
 40
19.88936498017324
 40
20.39724140632606
 40
20.90500932546036
 40
21.44039002943975
 40
21.97570902807743
 40
22.52831183687759
 40
23.08088664989999
 40
23.63933962143348
 40
24.19779259296698
 40
24.75036740598934
 40
25.30297021478947
 40
25.83828921342714
 40
26.3736699174066
 40
26.88143783654092
 40
27.38931426269373
 40
27.86113443881513
 40
28.33313379899555
 40
28.76349209941275
 40
29.19413795769724
 40
29.58165168655624
 40
29.9696055744626
 40
30.3185257080828
 40
30.66801891660335
 40
30.98948160163275
 40
31.3114007149697
 40
31.62297888538209
 40
31.93455705579442
 40
31.93455705579442
 40
31.93455705579442
 40
31.93455705579442
 10
149.2060332785043
 20
114.5957298249989
 30
0.0
 10
149.1843092615549
 20
114.7010487506587
 30
0.0
 10
149.1408920287359
 20
114.9115372770796
 30
0.0
 10
149.0112985747851
 20
115.2180304240229
 30
0.0
 10
148.8407834669005
 20
115.5129501339301
 30
0.0
 10
148.6200045857621
 20
115.8011492003993
 30
0.0
 10
148.3600470478219
 20
116.072104131108
 30
0.0
 10
148.0538152347529
 20
116.3334747532967
 30
0.0
 10
147.7137645883742
 20
116.5743225608581
 30
0.0
 10
147.3315740643684
 20
116.8017444712648
 30
0.0
 10
146.9213418139501
 20
117.0064226976667
 30
0.0
 10
146.4747709819536
 20
117.1935906608622
 30
0.0
 10
146.0061063603064
 20
117.3563835773009
 30
0.0
 10
145.5086084842181
 20
117.4980103391947
 30
0.0
 10
144.9951462610108
 20
117.6140622608835
 30
0.0
 10
144.4617066804504
 20
117.7061329292133
 30
0.0
 10
143.9186057026805
 20
117.7718239966729
 30
0.0
 10
143.3652899991961
 20
117.8117769314241
 30
0.0
 10
142.8087390641436
 20
117.8249438648645
 30
0.0
 10
142.2521881290702
 20
117.8117769314261
 30
0.0
 10
141.6988724256478
 20
117.7718239966651
 30
0.0
 10
141.1557714476531
 20
117.7061329292422
 30
0.0
 10
140.6223318679059
 20
117.6140622607791
 30
0.0
 10
140.1088696417356
 20
117.4980103395762
 30
0.0
 10
139.6113717761605
 20
117.3563835759585
 30
0.0
 10
139.14270711663
 20
117.1935906657316
 30
0.0
 10
138.6961364164652
 20
117.0064226809199
 30
0.0
 10
138.2859036958831
 20
116.8017445316091
 30
0.0
 10
137.9037147797744
 20
116.5743223575611
 30
0.0
 10
137.5636584449993
 20
116.3334754827064
 30
0.0
 10
137.2574458525751
 20
116.0721017089752
 30
0.0
 10
136.9974205010766
 20
115.8011578974208
 30
0.0
 10
136.7768707350226
 20
115.5129212637448
 30
0.0
 10
136.6055412722265
 20
115.2181350807914
 30
0.0
 10
136.4787582466177
 20
114.9111811176487
 30
0.0
 10
136.4041109889046
 20
114.600429893213
 30
0.0
 10
136.3772754837754
 20
114.2851823265436
 30
0.0
 10
136.4041109889047
 20
113.9699347598743
 30
0.0
 10
136.4787582466177
 20
113.6591835354385
 30
0.0
 10
136.6055412722265
 20
113.3522295722958
 30
0.0
 10
136.7768707350226
 20
113.0574433893424
 30
0.0
 10
136.9974205010766
 20
112.7692067556665
 30
0.0
 10
137.2574458525751
 20
112.4982629441122
 30
0.0
 10
137.5636584449993
 20
112.2368891703809
 30
0.0
 10
137.9037147797743
 20
111.9960422955261
 30
0.0
 10
138.2859036958831
 20
111.7686201214783
 30
0.0
 10
138.6961364164654
 20
111.5639419721677
 30
0.0
 10
139.1427071166301
 20
111.3767739873558
 30
0.0
 10
139.6113717761605
 20
111.2139810771286
 30
0.0
 10
140.1088696417356
 20
111.0723543135111
 30
0.0
 10
140.6223318679059
 20
110.9563023923083
 30
0.0
 10
141.1557714476532
 20
110.8642317238451
 30
0.0
 10
141.6988724256476
 20
110.7985406564222
 30
0.0
 10
142.2521881290711
 20
110.758587721661
 30
0.0
 10
142.8087390641403
 20
110.7454207882232
 30
0.0
 10
143.3652899992081
 20
110.7585877216608
 30
0.0
 10
143.918605702636
 20
110.7985406564226
 30
0.0
 10
144.4617066806144
 20
110.864231723843
 30
0.0
 10
144.9951462604192
 20
110.9563023923157
 30
0.0
 10
145.5086084863802
 20
111.0723543134841
 30
0.0
 10
146.0061063526978
 20
111.2139810772235
 30
0.0
 10
146.474771009553
 20
111.3767739870119
 30
0.0
 10
146.9213417190275
 20
111.5639419733504
 30
0.0
 10
147.3315744064073
 20
111.7686201172169
 30
0.0
 10
147.7137634360639
 20
111.9960423098828
 30
0.0
 10
148.0538193691308
 20
112.2368891188708
 30
0.0
 10
148.360033318896
 20
112.4982631151605
 30
0.0
 10
148.6200538814748
 20
112.7692061414923
 30
0.0
 10
148.8406198273866
 20
113.0574454281234
 30
0.0
 10
149.0118917813256
 20
113.3522221815488
 30
0.0
 10
149.1388732763231
 20
113.6592086870297
 30
0.0
 10
149.2127999496736
 20
113.9698417597438
 30
0.0
 10
149.2422441790412
 20
114.2855170698893
 30
0.0
 10
149.2181035786832
 20
114.4923255732957
 30
0.0
 10
149.2060332785043
 20
114.5957298249989
 30
0.0
 11
149.2060332785043
 21
114.5957298249989
 31
0.0
 11
149.1307070438189
 21
114.9087120511711
 31
0.0
 11
149.0093096523546
 21
115.2063711367237
 31
0.0
 11
148.8343855354993
 21
115.5089385773785
 31
0.0
 11
148.6233157225424
 21
115.7867780880746
 31
0.0
 11
148.3555394144722
 21
116.0674987107192
 31
0.0
 11
148.0613775824933
 21
116.3197598981045
 31
0.0
 11
147.7105952747888
 21
116.5695750855114
 31
0.0
 11
147.3410880260683
 21
116.7901938967697
 31
0.0
 11
146.9191424764534
 21
117.00172486181
 31
0.0
 11
146.4841683788644
 21
117.1845138467677
 31
0.0
 11
146.0046301363772
 21
117.3517906779012
 31
0.0
 11
145.5163439404535
 21
117.4910919721244
 31
0.0
 11
144.9942368150353
 21
117.6095683317119
 31
0.0
 11
144.466742322148
 21
117.7007603833174
 31
0.0
 11
143.9181719114649
 21
117.7673964757659
 31
0.0
 11
143.3670327736861
 21
117.8072031937302
 31
0.0
 11
142.8087390641401
 21
117.8205394336793
 31
0.0
 11
142.2504453545941
 21
117.8072031937302
 31
0.0
 11
141.6993062168152
 21
117.7673964757659
 31
0.0
 11
141.1507358061322
 21
117.7007603833174
 31
0.0
 11
140.6232413132448
 21
117.6095683317118
 31
0.0
 11
140.1011341878267
 21
117.4910919721245
 31
0.0
 11
139.612847991903
 21
117.3517906779013
 31
0.0
 11
139.1333097494157
 21
117.1845138467678
 31
0.0
 11
138.6983356518268
 21
117.00172486181
 31
0.0
 11
138.2763901022119
 21
116.7901938967696
 31
0.0
 11
137.9068828534915
 21
116.5695750855113
 31
0.0
 11
137.556100545787
 21
116.3197598981044
 31
0.0
 11
137.261938713808
 21
116.0674987107192
 31
0.0
 11
136.9941624057378
 21
115.7867780880746
 31
0.0
 11
136.7830925927809
 21
115.5089385773785
 31
0.0
 11
136.6081684759255
 21
115.2063711367237
 31
0.0
 11
136.4867710844612
 21
114.9087120511712
 31
0.0
 11
136.4114448497758
 21
114.5957298249989
 31
0.0
 11
136.3861227748075
 21
114.2851823265436
 31
0.0
 11
136.4114448497758
 21
113.9746348280883
 31
0.0
 11
136.4867710844612
 21
113.6616526019161
 31
0.0
 11
136.6081684759255
 21
113.3639935163635
 31
0.0
 11
136.7830925927809
 21
113.0614260757088
 31
0.0
 11
136.9941624057379
 21
112.7835865650127
 31
0.0
 11
137.261938713808
 21
112.5028659423681
 31
0.0
 11
137.556100545787
 21
112.2506047549829
 31
0.0
 11
137.9068828534914
 21
112.000789567576
 31
0.0
 11
138.276390102212
 21
111.7801707563178
 31
0.0
 11
138.6983356518269
 21
111.5686397912775
 31
0.0
 11
139.1333097494158
 21
111.3858508063196
 31
0.0
 11
139.6128479919029
 21
111.218573975186
 31
0.0
 11
140.1011341878267
 21
111.0792726809628
 31
0.0
 11
140.6232413132449
 21
110.9607963213755
 31
0.0
 11
141.1507358061322
 21
110.8696042697699
 31
0.0
 11
141.6993062168152
 21
110.8029681773214
 31
0.0
 11
142.2504453545941
 21
110.763161459357
 31
0.0
 11
142.8087390641401
 21
110.7498252194079
 31
0.0
 11
143.3670327736861
 21
110.7631614593569
 31
0.0
 11
143.9181719114649
 21
110.8029681773213
 31
0.0
 11
144.466742322148
 21
110.8696042697699
 31
0.0
 11
144.9942368150352
 21
110.9607963213755
 31
0.0
 11
145.5163439404535
 21
111.0792726809628
 31
0.0
 11
146.0046301363773
 21
111.218573975186
 31
0.0
 11
146.4841683788644
 21
111.3858508063196
 31
0.0
 11
146.9191424764533
 21
111.5686397912775
 31
0.0
 11
147.3410880260682
 21
111.7801707563179
 31
0.0
 11
147.7105952747887
 21
112.0007895675761
 31
0.0
 11
148.0613775824932
 21
112.2506047549829
 31
0.0
 11
148.3555394144722
 21
112.5028659423681
 31
0.0
 11
148.6233157225424
 21
112.7835865650127
 31
0.0
 11
148.8343855354994
 21
113.0614260757087
 31
0.0
 11
149.0093096523546
 21
113.3639935163635
 31
0.0
 11
149.1307070438189
 21
113.6616526019161
 31
0.0
 11
149.2060332785043
 21
113.9746348280884
 31
0.0
 11
149.2313553534726
 21
114.2851823265437
 31
0.0
 11
149.2060332785043
 21
114.5957298249989
 31
0.0
  0
SPLINE
  5
10D
330
3C
100
AcDbEntity
  8
1
  6
Continuous
 62
     7
100
AcDbSpline
210
0.0
220
0.0
230
1.0
 70
    11
 71
     3
 72
    79
 73
    75
 74
    73
 42
0.0000000001
 43
0.0000000001
 44
0.00000001
 40
0.0
 40
0.0
 40
0.0
 40
0.0
 40
0.2813091385367587
 40
0.5626019606351624
 40
0.8464226525143119
 40
1.130214060738691
 40
1.417835711262242
 40
1.70542054240195
 40
1.997635978226853
 40
2.289812854371195
 40
2.586839035183184
 40
2.8838297921249
 40
3.18530704538455
 40
3.486755461402719
 40
3.791812980111027
 40
4.096850365689674
 40
4.404220799428677
 40
4.711580931801255
 40
5.019747232345973
 40
5.32791353289075
 40
5.635273665263371
 40
5.942644099002385
 40
6.247681484581004
 40
6.552739003289335
 40
6.854187419307516
 40
7.155664672567168
 40
7.452655429508856
 40
7.749681610320805
 40
8.041858486465127
 40
8.334073922290045
 40
8.621658753429832
 40
8.909280403953359
 40
9.193071812177699
 40
9.476892504056911
 40
9.758185326155404
 40
10.03949446469214
 40
10.31992040211352
 40
10.60034633953498
 40
10.88165547807171
 40
11.16294830017014
 40
11.44676899204928
 40
11.73056040027358
 40
12.01818205079707
 40
12.3057668819369
 40
12.59798231776187
 40
12.89015919390617
 40
13.18718537471816
 40
13.48417613165989
 40
13.7856533849196
 40
14.08710180093777
 40
14.39215931964608
 40
14.69719670522471
 40
15.00456713896368
 40
15.31192727133629
 40
15.62009357188103
 40
15.92825987242577
 40
16.23562000479842
 40
16.54299043853741
 40
16.84802782411604
 40
17.15308534282433
 40
17.45453375884251
 40
17.75601101210227
 40
18.05300176904407
 40
18.35002794985606
 40
18.6422048260003
 40
18.93442026182523
 40
19.22200509296495
 40
19.50962674348844
 40
19.79341815171278
 40
20.07723884359196
 40
20.35853166569043
 40
20.63984080422716
 40
20.92026674164857
 40
21.20069267907
 40
21.20069267907
 40
21.20069267907
 40
21.20069267907
 10
153.7869695769944
 20
117.8070174486514
 30
0.0
 10
153.6938426259735
 20
117.7954460451644
 30
0.0
 10
153.507594125463
 20
117.7723039093528
 30
0.0
 10
153.233292540357
 20
117.7035417689854
 30
0.0
 10
152.96554861178
 20
117.6109736421509
 30
0.0
 10
152.7059359757744
 20
117.4921213063204
 30
0.0
 10
152.4572188788558
 20
117.3494593906869
 30
0.0
 10
152.22037496348
 20
117.182916489753
 30
0.0
 10
151.9981595441638
 20
116.9949587704299
 30
0.0
 10
151.7912964921607
 20
116.7857965586227
 30
0.0
 10
151.6022377572893
 20
116.5583439821399
 30
0.0
 10
151.4315978126282
 20
116.3129983977867
 30
0.0
 10
151.2813340837624
 20
116.0529698394469
 30
0.0
 10
151.1520267316356
 20
115.7789470933904
 30
0.0
 10
151.0450359296878
 20
115.4941994080073
 30
0.0
 10
150.9609035905118
 20
115.1998365584584
 30
0.0
 10
150.9003846063068
 20
114.8989460784897
 30
0.0
 10
150.8639034683121
 20
114.593159756532
 30
0.0
 10
150.8516846867791
 20
114.2851823265446
 30
0.0
 10
150.8639034683118
 20
113.9772048965515
 30
0.0
 10
150.9003846063081
 20
113.6714185746111
 30
0.0
 10
150.9609035905069
 20
113.3705280945791
 30
0.0
 10
151.0450359297055
 20
113.0761652452644
 30
0.0
 10
151.1520267315695
 20
112.7914175590119
 30
0.0
 10
151.281334084006
 20
112.5173948161635
 30
0.0
 10
151.4315978117247
 20
112.2573662459389
 30
0.0
 10
151.6022377606064
 20
112.01202070531
 30
0.0
 10
151.7912964798592
 20
111.7845679670257
 30
0.0
 10
151.9981595892444
 20
111.5754063496711
 30
0.0
 10
152.2203747962469
 20
111.3874464308792
 30
0.0
 10
152.4572194920325
 20
111.2209116146207
 30
0.0
 10
152.7059336987045
 20
111.0782197574
 30
0.0
 10
152.9655569846818
 20
110.9594777502377
 30
0.0
 10
153.2332613923132
 20
110.8665002051044
 30
0.0
 10
153.5077092256577
 20
110.7992531272972
 30
0.0
 10
153.7862480483164
 20
110.7589377812026
 30
0.0
 10
154.0670693133377
 20
110.7452761022298
 30
0.0
 10
154.3478905783591
 20
110.7589377812026
 30
0.0
 10
154.6264294010178
 20
110.7992531272971
 30
0.0
 10
154.9008772343622
 20
110.8665002051044
 30
0.0
 10
155.1685816419935
 20
110.9594777502378
 30
0.0
 10
155.4282049279708
 20
111.0782197574
 30
0.0
 10
155.6769191346428
 20
111.2209116146206
 30
0.0
 10
155.9137638304284
 20
111.3874464308792
 30
0.0
 10
156.1359790374309
 20
111.5754063496711
 30
0.0
 10
156.3428421468163
 20
111.7845679670257
 30
0.0
 10
156.531900866069
 20
112.01202070531
 30
0.0
 10
156.7025408149509
 20
112.2573662459389
 30
0.0
 10
156.8528045426696
 20
112.5173948161636
 30
0.0
 10
156.982111895106
 20
112.7914175590119
 30
0.0
 10
157.0891026969699
 20
113.0761652452644
 30
0.0
 10
157.1732350361685
 20
113.3705280945791
 30
0.0
 10
157.2337540203673
 20
113.671418574611
 30
0.0
 10
157.2702351583637
 20
113.9772048965517
 30
0.0
 10
157.2824539398964
 20
114.2851823265437
 30
0.0
 10
157.2702351583637
 20
114.5931597565353
 30
0.0
 10
157.2337540203674
 20
114.8989460784772
 30
0.0
 10
157.1732350361688
 20
115.1998365585046
 30
0.0
 10
157.0891026969686
 20
115.4941994078361
 30
0.0
 10
156.9821118951108
 20
115.7789470940263
 30
0.0
 10
156.8528045426522
 20
116.0529698371047
 30
0.0
 10
156.7025408150157
 20
116.3129984064774
 30
0.0
 10
156.5319008658312
 20
116.5583439502406
 30
0.0
 10
156.3428421476981
 20
116.7857966769265
 30
0.0
 10
156.1359790341995
 20
116.9949583368932
 30
0.0
 10
155.9137638424162
 20
117.1829180980205
 30
0.0
 10
155.6769190906885
 20
117.3494534938125
 30
0.0
 10
155.428205091198
 20
117.4921432047317
 30
0.0
 10
155.1685810417992
 20
117.610893120579
 30
0.0
 10
154.9008794671461
 20
117.7038413173981
 30
0.0
 10
154.6264211502955
 20
117.7711969993695
 30
0.0
 10
154.3479213408368
 20
117.811108187169
 30
0.0
 10
154.0669549051643
 20
117.8262737654075
 30
0.0
 10
153.8802980197177
 20
117.8134362209034
 30
0.0
 10
153.7869695769944
 20
117.8070174486514
 30
0.0
 11
153.7869695769944
 21
117.8070174486514
 31
0.0
 11
153.5085700696408
 21
117.7666622045115
 31
0.0
 11
153.2353260447682
 21
117.6998538619526
 31
0.0
 11
152.9672199186035
 21
117.6067233607635
 31
0.0
 11
152.7090739005058
 21
117.4888327473869
 31
0.0
 11
152.4595812221576
 21
117.3457257339301
 31
0.0
 11
152.2242358150579
 21
117.1804454433364
 31
0.0
 11
152.001093622043
 21
116.9917726508335
 31
0.0
 11
151.7955286969578
 21
116.784142237531
 31
0.0
 11
151.6056141196888
 21
116.5557631548012
 31
0.0
 11
151.4359278169982
 21
116.3120213479892
 31
0.0
 11
151.2850321274377
 21
116.0510251313403
 31
0.0
 11
151.1562921404399
 21
115.778450071462
 31
0.0
 11
151.04894947715
 21
115.4929021028852
 31
0.0
 11
150.9650531339108
 21
115.1996288340867
 31
0.0
 11
150.9044211772713
 21
114.8982978709068
 31
0.0
 11
150.8679719432848
 21
114.5931066123264
 31
0.0
 11
150.8557611686715
 21
114.2851823265437
 31
0.0
 11
150.8679719432848
 21
113.977258040761
 31
0.0
 11
150.9044211772714
 21
113.6720667821806
 31
0.0
 11
150.9650531339108
 21
113.3707358190006
 31
0.0
 11
151.0489494771499
 21
113.0774625502021
 31
0.0
 11
151.1562921404399
 21
112.7919145816253
 31
0.0
 11
151.2850321274377
 21
112.519339521747
 31
0.0
 11
151.4359278169982
 21
112.2583433050981
 31
0.0
 11
151.6056141196889
 21
112.0146014982861
 31
0.0
 11
151.7955286969578
 21
111.7862224155563
 31
0.0
 11
152.001093622043
 21
111.5785920022538
 31
0.0
 11
152.2242358150579
 21
111.3899192097509
 31
0.0
 11
152.4595812221576
 21
111.2246389191572
 31
0.0
 11
152.7090739005058
 21
111.0815319057004
 31
0.0
 11
152.9672199186034
 21
110.9636412923238
 31
0.0
 11
153.2353260447682
 21
110.8705107911347
 31
0.0
 11
153.5085700696409
 21
110.8037024485757
 31
0.0
 11
153.7869695769944
 21
110.7633472044358
 31
0.0
 11
154.0670693133377
 21
110.7498252194079
 31
0.0
 11
154.347169049681
 21
110.7633472044358
 31
0.0
 11
154.6255685570346
 21
110.8037024485757
 31
0.0
 11
154.8988125819072
 21
110.8705107911347
 31
0.0
 11
155.1669187080719
 21
110.9636412923238
 31
0.0
 11
155.4250647261695
 21
111.0815319057004
 31
0.0
 11
155.6745574045177
 21
111.2246389191571
 31
0.0
 11
155.9099028116175
 21
111.3899192097508
 31
0.0
 11
156.1330450046324
 21
111.5785920022538
 31
0.0
 11
156.3386099297176
 21
111.7862224155563
 31
0.0
 11
156.5285245069865
 21
112.0146014982861
 31
0.0
 11
156.6982108096772
 21
112.2583433050981
 31
0.0
 11
156.8491064992378
 21
112.5193395217471
 31
0.0
 11
156.9778464862357
 21
112.7919145816254
 31
0.0
 11
157.0851891495256
 21
113.0774625502021
 31
0.0
 11
157.1690854927647
 21
113.3707358190006
 31
0.0
 11
157.2297174494041
 21
113.6720667821805
 31
0.0
 11
157.2661666833907
 21
113.9772580407609
 31
0.0
 11
157.278377458004
 21
114.2851823265436
 31
0.0
 11
157.2661666833907
 21
114.5931066123263
 31
0.0
 11
157.2297174494042
 21
114.8982978709068
 31
0.0
 11
157.1690854927647
 21
115.1996288340867
 31
0.0
 11
157.0851891495256
 21
115.4929021028852
 31
0.0
 11
156.9778464862357
 21
115.778450071462
 31
0.0
 11
156.8491064992379
 21
116.0510251313403
 31
0.0
 11
156.6982108096773
 21
116.3120213479892
 31
0.0
 11
156.5285245069865
 21
116.5557631548013
 31
0.0
 11
156.3386099297176
 21
116.7841422375311
 31
0.0
 11
156.1330450046324
 21
116.9917726508335
 31
0.0
 11
155.9099028116175
 21
117.1804454433364
 31
0.0
 11
155.6745574045177
 21
117.3457257339301
 31
0.0
 11
155.4250647261696
 21
117.4888327473868
 31
0.0
 11
155.1669187080719
 21
117.6067233607634
 31
0.0
 11
154.8988125819072
 21
117.6998538619525
 31
0.0
 11
154.6255685570345
 21
117.7666622045115
 31
0.0
 11
154.347169049681
 21
117.8070174486514
 31
0.0
 11
154.0670693133377
 21
117.8205394336793
 31
0.0
 11
153.7869695769944
 21
117.8070174486514
 31
0.0
  0
SPLINE
  5
10E
330
3C
100
AcDbEntity
  8
1
  6
Continuous
 62
     7
100
AcDbSpline
210
0.0
220
0.0
230
1.0
 70
    11
 71
     3
 72
    79
 73
    75
 74
    73
 42
0.0000000001
 43
0.0000000001
 44
0.00000001
 40
0.0
 40
0.0
 40
0.0
 40
0.0
 40
0.2813091385367587
 40
0.5626019606351624
 40
0.8464226525142851
 40
1.13021406073869
 40
1.417835711262241
 40
1.705420542401948
 40
1.997635978226852
 40
2.289812854371194
 40
2.586839035183165
 40
2.883829792124897
 40
3.185307045384561
 40
3.486755461402718
 40
3.791812980111025
 40
4.096850365689672
 40
4.404220799428675
 40
4.711580931801254
 40
5.019747232345974
 40
5.327913532890753
 40
5.635273665263375
 40
5.942644099002393
 40
6.247681484580998
 40
6.552739003289338
 40
6.854187419307544
 40
7.155664672567167
 40
7.452655429508855
 40
7.749681610320787
 40
8.041858486465149
 40
8.334073922290088
 40
8.621658753429829
 40
8.909280403953355
 40
9.193071812177696
 40
9.476892504056908
 40
9.758185326155374
 40
10.03949446469211
 40
10.31992040211354
 40
10.60034633953495
 40
10.88165547807171
 40
11.16294830017013
 40
11.44676899204928
 40
11.73056040027358
 40
12.01818205079709
 40
12.30576688193685
 40
12.5979823177618
 40
12.89015919390608
 40
13.18718537471807
 40
13.48417613165984
 40
13.78565338491957
 40
14.08710180093774
 40
14.39215931964606
 40
14.69719670522468
 40
15.00456713896365
 40
15.31192727133626
 40
15.620093571881
 40
15.92825987242575
 40
16.2356200047984
 40
16.54299043853738
 40
16.84802782411602
 40
17.15308534282432
 40
17.45453375884253
 40
17.75601101210228
 40
18.05300176904408
 40
18.35002794985604
 40
18.64220482600026
 40
18.93442026182516
 40
19.22200509296489
 40
19.5096267434884
 40
19.79341815171272
 40
20.0772388435919
 40
20.35853166569037
 40
20.6398408042271
 40
20.9202667416485
 40
21.20069267906994
 40
21.20069267906994
 40
21.20069267906994
 40
21.20069267906994
 10
131.8305085512858
 20
117.8070174486514
 30
0.0
 10
131.9236355023067
 20
117.7954460451644
 30
0.0
 10
132.1098840028172
 20
117.7723039093529
 30
0.0
 10
132.3841855879232
 20
117.7035417689853
 30
0.0
 10
132.6519295165001
 20
117.6109736421509
 30
0.0
 10
132.9115421525058
 20
117.4921213063204
 30
0.0
 10
133.1602592494244
 20
117.3494593906869
 30
0.0
 10
133.3971031648002
 20
117.182916489753
 30
0.0
 10
133.6193185841164
 20
116.9949587704299
 30
0.0
 10
133.8261816361194
 20
116.7857965586227
 30
0.0
 10
134.0152403709909
 20
116.55834398214
 30
0.0
 10
134.185880315652
 20
116.3129983977867
 30
0.0
 10
134.3361440445179
 20
116.0529698394469
 30
0.0
 10
134.4654513966446
 20
115.7789470933904
 30
0.0
 10
134.5724421985923
 20
115.4941994080073
 30
0.0
 10
134.6565745377684
 20
115.1998365584584
 30
0.0
 10
134.7170935219734
 20
114.8989460784897
 30
0.0
 10
134.753574659968
 20
114.593159756532
 30
0.0
 10
134.7657934415012
 20
114.2851823265447
 30
0.0
 10
134.7535746599683
 20
113.9772048965514
 30
0.0
 10
134.7170935219721
 20
113.6714185746111
 30
0.0
 10
134.6565745377732
 20
113.3705280945791
 30
0.0
 10
134.5724421985747
 20
113.0761652452644
 30
0.0
 10
134.4654513967107
 20
112.7914175590118
 30
0.0
 10
134.3361440442742
 20
112.5173948161636
 30
0.0
 10
134.1858803165556
 20
112.2573662459389
 30
0.0
 10
134.0152403676738
 20
112.0120207053099
 30
0.0
 10
133.8261816484211
 20
111.7845679670257
 30
0.0
 10
133.6193185390358
 20
111.5754063496711
 30
0.0
 10
133.3971033320333
 20
111.3874464308792
 30
0.0
 10
133.1602586362477
 20
111.2209116146206
 30
0.0
 10
132.9115444295757
 20
111.0782197574
 30
0.0
 10
132.6519211435984
 20
110.9594777502377
 30
0.0
 10
132.384216735967
 20
110.8665002051045
 30
0.0
 10
132.1097689026226
 20
110.7992531272972
 30
0.0
 10
131.8312300799638
 20
110.7589377812026
 30
0.0
 10
131.5504088149425
 20
110.7452761022298
 30
0.0
 10
131.2695875499211
 20
110.7589377812026
 30
0.0
 10
130.9910487272624
 20
110.7992531272971
 30
0.0
 10
130.7166008939181
 20
110.8665002051044
 30
0.0
 10
130.4488964862867
 20
110.9594777502378
 30
0.0
 10
130.1892732003094
 20
111.0782197574
 30
0.0
 10
129.9405589936374
 20
111.2209116146205
 30
0.0
 10
129.7037142978519
 20
111.3874464308792
 30
0.0
 10
129.4814990908493
 20
111.5754063496711
 30
0.0
 10
129.2746359814641
 20
111.7845679670257
 30
0.0
 10
129.0855772622113
 20
112.01202070531
 30
0.0
 10
128.9149373133294
 20
112.2573662459389
 30
0.0
 10
128.7646735856106
 20
112.5173948161635
 30
0.0
 10
128.6353662331742
 20
112.7914175590119
 30
0.0
 10
128.5283754313102
 20
113.0761652452644
 30
0.0
 10
128.4442430921117
 20
113.3705280945791
 30
0.0
 10
128.3837241079129
 20
113.671418574611
 30
0.0
 10
128.3472429699165
 20
113.9772048965517
 30
0.0
 10
128.3350241883838
 20
114.2851823265437
 30
0.0
 10
128.3472429699164
 20
114.5931597565353
 30
0.0
 10
128.3837241079129
 20
114.8989460784772
 30
0.0
 10
128.4442430921113
 20
115.1998365585047
 30
0.0
 10
128.5283754313116
 20
115.4941994078361
 30
0.0
 10
128.6353662331694
 20
115.7789470940264
 30
0.0
 10
128.7646735856282
 20
116.0529698371046
 30
0.0
 10
128.9149373132646
 20
116.3129984064774
 30
0.0
 10
129.0855772624491
 20
116.5583439502406
 30
0.0
 10
129.2746359805822
 20
116.7857966769265
 30
0.0
 10
129.4814990940807
 20
116.9949583368932
 30
0.0
 10
129.703714285864
 20
117.1829180980206
 30
0.0
 10
129.9405590375917
 20
117.3494534938125
 30
0.0
 10
130.1892730370822
 20
117.4921432047316
 30
0.0
 10
130.448897086481
 20
117.6108931205791
 30
0.0
 10
130.7165986611341
 20
117.7038413173981
 30
0.0
 10
130.9910569779847
 20
117.7711969993695
 30
0.0
 10
131.2695567874435
 20
117.811108187169
 30
0.0
 10
131.5505232231159
 20
117.8262737654075
 30
0.0
 10
131.7371801085625
 20
117.8134362209034
 30
0.0
 10
131.8305085512858
 20
117.8070174486514
 30
0.0
 11
131.8305085512858
 21
117.8070174486514
 31
0.0
 11
132.1089080586394
 21
117.7666622045115
 31
0.0
 11
132.382152083512
 21
117.6998538619526
 31
0.0
 11
132.6502582096767
 21
117.6067233607635
 31
0.0
 11
132.9084042277744
 21
117.4888327473869
 31
0.0
 11
133.1578969061226
 21
117.3457257339301
 31
0.0
 11
133.3932423132223
 21
117.1804454433364
 31
0.0
 11
133.6163845062372
 21
116.9917726508335
 31
0.0
 11
133.8219494313224
 21
116.784142237531
 31
0.0
 11
134.0118640085914
 21
116.5557631548012
 31
0.0
 11
134.181550311282
 21
116.3120213479892
 31
0.0
 11
134.3324460008425
 21
116.0510251313403
 31
0.0
 11
134.4611859878403
 21
115.778450071462
 31
0.0
 11
134.5685286511302
 21
115.4929021028852
 31
0.0
 11
134.6524249943694
 21
115.1996288340867
 31
0.0
 11
134.7130569510089
 21
114.8982978709068
 31
0.0
 11
134.7495061849954
 21
114.5931066123264
 31
0.0
 11
134.7617169596087
 21
114.2851823265437
 31
0.0
 11
134.7495061849954
 21
113.977258040761
 31
0.0
 11
134.7130569510088
 21
113.6720667821806
 31
0.0
 11
134.6524249943694
 21
113.3707358190006
 31
0.0
 11
134.5685286511303
 21
113.0774625502021
 31
0.0
 11
134.4611859878403
 21
112.7919145816253
 31
0.0
 11
134.3324460008424
 21
112.519339521747
 31
0.0
 11
134.181550311282
 21
112.2583433050981
 31
0.0
 11
134.0118640085914
 21
112.0146014982861
 31
0.0
 11
133.8219494313225
 21
111.7862224155563
 31
0.0
 11
133.6163845062372
 21
111.5785920022538
 31
0.0
 11
133.3932423132223
 21
111.3899192097509
 31
0.0
 11
133.1578969061226
 21
111.2246389191572
 31
0.0
 11
132.9084042277744
 21
111.0815319057004
 31
0.0
 11
132.6502582096768
 21
110.9636412923238
 31
0.0
 11
132.382152083512
 21
110.8705107911347
 31
0.0
 11
132.1089080586393
 21
110.8037024485757
 31
0.0
 11
131.8305085512858
 21
110.7633472044358
 31
0.0
 11
131.5504088149425
 21
110.7498252194079
 31
0.0
 11
131.2703090785992
 21
110.7633472044358
 31
0.0
 11
130.9919095712456
 21
110.8037024485757
 31
0.0
 11
130.718665546373
 21
110.8705107911347
 31
0.0
 11
130.4505594202083
 21
110.9636412923238
 31
0.0
 11
130.1924134021107
 21
111.0815319057004
 31
0.0
 11
129.9429207237625
 21
111.2246389191571
 31
0.0
 11
129.7075753166628
 21
111.3899192097508
 31
0.0
 11
129.4844331236479
 21
111.5785920022538
 31
0.0
 11
129.2788681985628
 21
111.7862224155563
 31
0.0
 11
129.0889536212938
 21
112.0146014982861
 31
0.0
 11
128.919267318603
 21
112.2583433050981
 31
0.0
 11
128.7683716290424
 21
112.5193395217471
 31
0.0
 11
128.6396316420446
 21
112.7919145816254
 31
0.0
 11
128.5322889787546
 21
113.0774625502021
 31
0.0
 11
128.4483926355155
 21
113.3707358190006
 31
0.0
 11
128.3877606788761
 21
113.6720667821805
 31
0.0
 11
128.3513114448896
 21
113.9772580407609
 31
0.0
 11
128.3391006702762
 21
114.2851823265436
 31
0.0
 11
128.3513114448895
 21
114.5931066123263
 31
0.0
 11
128.387760678876
 21
114.8982978709068
 31
0.0
 11
128.4483926355155
 21
115.1996288340867
 31
0.0
 11
128.5322889787547
 21
115.4929021028852
 31
0.0
 11
128.6396316420446
 21
115.778450071462
 31
0.0
 11
128.7683716290425
 21
116.0510251313403
 31
0.0
 11
128.919267318603
 21
116.3120213479892
 31
0.0
 11
129.0889536212938
 21
116.5557631548013
 31
0.0
 11
129.2788681985627
 21
116.7841422375311
 31
0.0
 11
129.4844331236479
 21
116.9917726508335
 31
0.0
 11
129.7075753166627
 21
117.1804454433364
 31
0.0
 11
129.9429207237625
 21
117.3457257339301
 31
0.0
 11
130.1924134021107
 21
117.4888327473868
 31
0.0
 11
130.4505594202083
 21
117.6067233607634
 31
0.0
 11
130.718665546373
 21
117.6998538619525
 31
0.0
 11
130.9919095712457
 21
117.7666622045115
 31
0.0
 11
131.2703090785992
 21
117.8070174486514
 31
0.0
 11
131.5504088149425
 21
117.8205394336793
 31
0.0
 11
131.8305085512858
 21
117.8070174486514
 31
0.0
  0
ENDBLK
  5
3E
330
3C
100
AcDbEntity
  8
0
100
AcDbBlockEnd
  0
BLOCK
  5
40
330
3F
100
AcDbEntity
  8
0
100
AcDbBlockBegin
  2
36-45
 70
     0
 71
     0
 10
48.65519959247681
 20
-69.5341935349111
 30
0.0
  3
36-45
  1

  0
LINE
  5
10F
330
3F
100
AcDbEntity
  8
1
  6
Continuous
 62
     7
100
AcDbLine
 10
53.04188388423579
 20
88.82013393122298
 30
0.0
 11
63.73442079124261
 21
88.82013393122298
 31
0.0
  0
LINE
  5
110
330
3F
100
AcDbEntity
  8
1
  6
Continuous
 62
     7
100
AcDbLine
 10
141.9087390641402
 20
126.3201339312232
 30
0.0
 11
141.9087390641402
 21
124.8201339312231
 31
0.0
  0
LINE
  5
111
330
3F
100
AcDbEntity
  8
1
  6
Continuous
 62
     7
100
AcDbLine
 10
143.7087390641403
 20
126.3201339312232
 30
0.0
 11
143.7087390641403
 21
127.3201339312232
 31
0.0
  0
LINE
  5
112
330
3F
100
AcDbEntity
  8
1
  6
Continuous
 62
     7
100
AcDbLine
 10
143.7087390641403
 20
126.3201339312232
 30
0.0
 11
147.5587390641403
 21
126.3201339312232
 31
0.0
  0
LINE
  5
113
330
3F
100
AcDbEntity
  8
1
  6
Continuous
 62
     7
100
AcDbLine
 10
138.0587390641403
 20
126.3201339312232
 30
0.0
 11
141.9087390641402
 21
126.3201339312232
 31
0.0
  0
LINE
  5
114
330
3F
100
AcDbEntity
  8
1
  6
Continuous
 62
     7
100
AcDbLine
 10
53.63815233773914
 20
126.3201339312232
 30
0.0
 11
63.13815233773914
 21
126.3201339312232
 31
0.0
  0
LINE
  5
115
330
3F
100
AcDbEntity
  8
1
  6
Continuous
 62
     7
100
AcDbLine
 10
63.13815233773914
 20
124.820133931223
 30
0.0
 11
63.13815233773914
 21
126.3201339312232
 31
0.0
  0
LINE
  5
116
330
3F
100
AcDbEntity
  8
1
  6
Continuous
 62
     7
100
AcDbLine
 10
54.63815233773914
 20
127.3201339312232
 30
0.0
 11
57.48815233773911
 21
127.3201339312232
 31
0.0
  0
LINE
  5
117
330
3F
100
AcDbEntity
  8
1
  6
Continuous
 62
     7
100
AcDbLine
 10
53.63815233773914
 20
126.3201339312232
 30
0.0
 11
53.63815233773914
 21
124.820133931223
 31
0.0
  0
LINE
  5
118
330
3F
100
AcDbEntity
  8
1
  6
Continuous
 62
     7
100
AcDbLine
 10
54.63815233773914
 20
127.3201339312232
 30
0.0
 11
53.63815233773914
 21
126.3201339312232
 31
0.0
  0
LINE
  5
119
330
3F
100
AcDbEntity
  8
1
  6
Continuous
 62
     7
100
AcDbLine
 10
57.48815233773911
 20
127.3201339312232
 30
0.0
 11
62.13815233773914
 21
127.3201339312232
 31
0.0
  0
LINE
  5
11A
330
3F
100
AcDbEntity
  8
1
  6
Continuous
 62
     7
100
AcDbLine
 10
63.13815233773914
 20
126.3201339312232
 30
0.0
 11
62.13815233773914
 21
127.3201339312232
 31
0.0
  0
LINE
  5
11B
330
3F
100
AcDbEntity
  8
1
  6
Continuous
 62
     7
100
AcDbLine
 10
53.69773657791578
 20
210.6049405872466
 30
0.0
 11
54.71391772356427
 21
210.6049405872466
 31
0.0
  0
LINE
  5
11C
330
3F
100
AcDbEntity
  8
1
  6
Continuous
 62
     7
100
AcDbLine
 10
54.71391772356427
 20
210.6049405872466
 30
0.0
 11
62.06238695191385
 21
210.6049405872466
 31
0.0
  0
LINE
  5
11D
330
3F
100
AcDbEntity
  8
1
  6
Continuous
 62
     7
100
AcDbLine
 10
62.06238695191385
 20
210.6049405872466
 30
0.0
 11
63.07856809756257
 21
210.6049405872466
 31
0.0
  0
LINE
  5
11E
330
3F
100
AcDbEntity
  8
1
  6
Continuous
 62
     7
100
AcDbLine
 10
62.06238695191385
 20
212.1049405872466
 30
0.0
 11
63.07856809756257
 21
212.1049405872466
 31
0.0
  0
LINE
  5
11F
330
3F
100
AcDbEntity
  8
1
  6
Continuous
 62
     7
100
AcDbLine
 10
54.71391772356427
 20
212.1049405872466
 30
0.0
 11
62.06238695191385
 21
212.1049405872466
 31
0.0
  0
LINE
  5
120
330
3F
100
AcDbEntity
  8
1
  6
Continuous
 62
     7
100
AcDbLine
 10
53.69773657791578
 20
212.1049405872466
 30
0.0
 11
54.71391772356427
 21
212.1049405872466
 31
0.0
  0
LINE
  5
121
330
3F
100
AcDbEntity
  8
1
  6
Continuous
 62
     7
100
AcDbLine
 10
143.7087390641403
 20
124.8201339312231
 30
0.0
 11
143.7087390641403
 21
126.3201339312232
 31
0.0
  0
LINE
  5
122
330
3F
100
AcDbEntity
  8
1
  6
Continuous
 62
     7
100
AcDbLine
 10
147.5587390641403
 20
124.8201339312231
 30
0.0
 11
147.5587390641403
 21
126.3201339312232
 31
0.0
  0
LINE
  5
123
330
3F
100
AcDbEntity
  8
1
  6
Continuous
 62
     7
100
AcDbLine
 10
139.0587390641403
 20
127.3201339312232
 30
0.0
 11
141.9087390641402
 21
127.3201339312232
 31
0.0
  0
LINE
  5
124
330
3F
100
AcDbEntity
  8
1
  6
Continuous
 62
     7
100
AcDbLine
 10
141.9087390641402
 20
127.3201339312232
 30
0.0
 11
141.9087390641402
 21
126.3201339312232
 31
0.0
  0
LINE
  5
125
330
3F
100
AcDbEntity
  8
1
  6
Continuous
 62
     7
100
AcDbLine
 10
139.0587390641403
 20
127.3201339312232
 30
0.0
 11
138.0587390641403
 21
126.3201339312232
 31
0.0
  0
LINE
  5
126
330
3F
100
AcDbEntity
  8
1
  6
Continuous
 62
     7
100
AcDbLine
 10
138.0587390641403
 20
126.3201339312232
 30
0.0
 11
138.0587390641403
 21
124.8201339312231
 31
0.0
  0
LINE
  5
127
330
3F
100
AcDbEntity
  8
1
  6
Continuous
 62
     7
100
AcDbLine
 10
143.7087390641403
 20
127.3201339312232
 30
0.0
 11
146.5587390641403
 21
127.3201339312232
 31
0.0
  0
LINE
  5
128
330
3F
100
AcDbEntity
  8
1
  6
Continuous
 62
     7
100
AcDbLine
 10
147.5587390641403
 20
126.3201339312232
 30
0.0
 11
146.5587390641403
 21
127.3201339312232
 31
0.0
  0
ARC
  5
129
330
3F
100
AcDbEntity
  8
1
  6
Continuous
 62
     7
100
AcDbCircle
 10
58.38815233773912
 20
211.3549405872467
 30
0.0
 40
3.750000000000098
100
AcDbArc
 50
-168.4630409671835
 51
-11.53695903281688
  0
ARC
  5
12A
330
3F
100
AcDbEntity
  8
1
  6
Continuous
 62
     7
100
AcDbCircle
 10
58.38815233773912
 20
211.3549405872467
 30
0.0
 40
4.749999999999931
100
AcDbArc
 50
-170.9152797126077
 51
-9.08472028739207
  0
ARC
  5
12B
330
3F
100
AcDbEntity
  8
1
  6
Continuous
 62
     7
100
AcDbCircle
 10
58.38815233773912
 20
211.3549405872467
 30
0.0
 40
4.749999999999903
100
AcDbArc
 50
170.9152797126098
 51
-170.9152797126077
  0
ARC
  5
12C
330
3F
100
AcDbEntity
  8
1
  6
Continuous
 62
     7
100
AcDbCircle
 10
58.38815233773912
 20
211.3549405872467
 30
0.0
 40
4.750000000000028
100
AcDbArc
 50
-9.08472028739207
 51
9.08472028739003
  0
ARC
  5
12D
330
3F
100
AcDbEntity
  8
1
  6
Continuous
 62
     7
100
AcDbCircle
 10
58.38815233773912
 20
211.3549405872467
 30
0.0
 40
4.750000000000002
100
AcDbArc
 50
9.08472028739003
 51
170.9152797126098
  0
ARC
  5
12E
330
3F
100
AcDbEntity
  8
1
  6
Continuous
 62
     7
100
AcDbCircle
 10
58.38815233773912
 20
211.3549405872467
 30
0.0
 40
3.749999999999945
100
AcDbArc
 50
11.53695903281433
 51
168.4630409671861
  0
CIRCLE
  5
12F
330
3F
100
AcDbEntity
  8
1
  6
Continuous
 62
     7
100
AcDbCircle
 10
58.38815233773912
 20
211.3201339312229
 30
0.0
 40
5.0
  0
ENDBLK
  5
41
330
3F
100
AcDbEntity
  8
0
100
AcDbBlockEnd
  0
BLOCK
  5
43
330
42
100
AcDbEntity
  8
0
100
AcDbBlockBegin
  2
V21-2-0A
 70
     0
 71
     0
 10
200.0
 20
445.5
 30
0.0
  3
V21-2-0A
  1

  0
LINE
  5
130
330
42
100
AcDbEntity
  8
1
  6
Continuous
 62
     2
100
AcDbLine
 10
153.9957390641401
 20
110.820133931223
 30
0.0
 11
153.9957390641401
 21
109.320133931223
 31
0.0
  0
LINE
  5
131
330
42
100
AcDbEntity
  8
1
  6
Continuous
 62
     7
100
AcDbLine
 10
130.8087390641401
 20
110.820133931223
 30
0.0
 11
130.8087390641401
 21
109.320133931223
 31
0.0
  0
LINE
  5
132
330
42
100
AcDbEntity
  8
1
  6
Continuous
 62
     7
100
AcDbLine
 10
118.3087390641401
 20
75.32013393122298
 30
0.0
 11
121.8087390641401
 21
75.32013393122298
 31
0.0
  0
LINE
  5
133
330
42
100
AcDbEntity
  8
1
  6
Continuous
 62
     2
100
AcDbLine
 10
118.3087390641401
 20
95.15813393122295
 30
0.0
 11
121.8087390641401
 21
95.15813393122295
 31
0.0
  0
LINE
  5
134
330
42
100
AcDbEntity
  8
1
  6
Continuous
 62
     7
100
AcDbLine
 10
118.3087390641401
 20
96.32013393122298
 30
0.0
 11
121.8087390641401
 21
96.32013393122298
 31
0.0
  0
LINE
  5
135
330
42
100
AcDbEntity
  8
1
  6
PHANTOM
 62
     4
100
AcDbLine
 10
58.38815233773906
 20
244.0590269322928
 30
0.0
 11
58.38815233773906
 21
249.320133931223
 31
0.0
  0
LINE
  5
136
330
42
100
AcDbEntity
  8
1
  6
PHANTOM
 62
     4
100
AcDbLine
 10
58.38815233773906
 20
239.320133931223
 30
0.0
 11
58.38815233773906
 21
244.0590269322928
 31
0.0
  0
LINE
  5
137
330
42
100
AcDbEntity
  8
1
  6
Continuous
 62
     7
100
AcDbLine
 10
58.38815233773906
 20
239.320133931223
 30
0.0
 11
58.38815233773906
 21
244.0590269322928
 31
0.0
  0
LINE
  5
138
330
42
100
AcDbEntity
  8
1
  6
Continuous
 62
     2
100
AcDbLine
 10
67.72615233773908
 20
190.320133931223
 30
0.0
 11
67.72615233773908
 21
186.820133931223
 31
0.0
  0
LINE
  5
139
330
42
100
AcDbEntity
  8
1
  6
Continuous
 62
     7
100
AcDbLine
 10
68.88815233773909
 20
186.820133931223
 30
0.0
 11
68.88815233773906
 21
190.320133931223
 31
0.0
  0
LINE
  5
13A
330
42
100
AcDbEntity
  8
1
  6
Continuous
 62
     7
100
AcDbLine
 10
47.88815233773906
 20
186.820133931223
 30
0.0
 11
47.88815233773906
 21
190.320133931223
 31
0.0
  0
LINE
  5
13B
330
42
100
AcDbEntity
  8
1
  6
Continuous
 62
     2
100
AcDbLine
 10
49.05015233773909
 20
186.820133931223
 30
0.0
 11
49.05015233773909
 21
190.320133931223
 31
0.0
  0
LINE
  5
13C
330
42
100
AcDbEntity
  8
1
  6
PHANTOM
 62
     4
100
AcDbLine
 10
42.88815233773906
 20
211.320133931223
 30
0.0
 11
73.88815233773906
 21
211.320133931223
 31
0.0
  0
LINE
  5
13D
330
42
100
AcDbEntity
  8
1
  6
Continuous
 62
     7
100
AcDbLine
 10
71.38815233773906
 20
244.0590269322928
 30
0.0
 11
71.38815233773906
 21
246.070133931223
 31
0.0
  0
LINE
  5
13E
330
42
100
AcDbEntity
  8
1
  6
Continuous
 62
     7
100
AcDbLine
 10
71.38815233773906
 20
236.9174085921976
 30
0.0
 11
71.38815233773906
 21
244.0590269322928
 31
0.0
  0
LINE
  5
13F
330
42
100
AcDbEntity
  8
1
  6
Continuous
 62
     7
100
AcDbLine
 10
45.38815233773906
 20
246.070133931223
 30
0.0
 11
45.63815233773906
 21
246.320133931223
 31
0.0
  0
LINE
  5
140
330
42
100
AcDbEntity
  8
1
  6
Continuous
 62
     7
100
AcDbLine
 10
45.38815233773906
 20
236.9174085921975
 30
0.0
 11
45.38815233773906
 21
246.070133931223
 31
0.0
  0
LINE
  5
141
330
42
100
AcDbEntity
  8
1
  6
Continuous
 62
     7
100
AcDbLine
 10
45.88815233773906
 20
234.7379591204273
 30
0.0
 11
45.88815233773906
 21
218.6686031595725
 31
0.0
  0
LINE
  5
142
330
42
100
AcDbEntity
  8
1
  6
Continuous
 62
     7
100
AcDbLine
 10
68.88815233773906
 20
192.332776969618
 30
0.0
 11
68.88815233773906
 21
193.820133931223
 31
0.0
  0
LINE
  5
143
330
42
100
AcDbEntity
  8
1
  6
Continuous
 62
     7
100
AcDbLine
 10
47.91065233773909
 20
246.320133931223
 30
0.0
 11
68.86565233773897
 21
246.320133931223
 31
0.0
  0
LINE
  5
144
330
42
100
AcDbEntity
  8
1
  6
Continuous
 62
     7
100
AcDbLine
 10
47.88815233773906
 20
192.332776969618
 30
0.0
 11
47.88815233773906
 21
193.820133931223
 31
0.0
  0
LINE
  5
145
330
42
100
AcDbEntity
  8
1
  6
Continuous
 62
     7
100
AcDbLine
 10
68.88815233773906
 20
190.320133931223
 30
0.0
 11
67.72615233773908
 21
190.320133931223
 31
0.0
  0
LINE
  5
146
330
42
100
AcDbEntity
  8
1
  6
Continuous
 62
     2
100
AcDbLine
 10
68.88815233773906
 20
192.332776969618
 30
0.0
 11
67.72615233773908
 21
190.320133931223
 31
0.0
  0
LINE
  5
147
330
42
100
AcDbEntity
  8
1
  6
Continuous
 62
     2
100
AcDbLine
 10
49.05015233773909
 20
190.320133931223
 30
0.0
 11
47.88815233773906
 21
192.332776969618
 31
0.0
  0
LINE
  5
148
330
42
100
AcDbEntity
  8
1
  6
Continuous
 62
     7
100
AcDbLine
 10
47.88815233773906
 20
190.320133931223
 30
0.0
 11
47.88815233773906
 21
192.332776969618
 31
0.0
  0
LINE
  5
149
330
42
100
AcDbEntity
  8
1
  6
Continuous
 62
     7
100
AcDbLine
 10
49.05015233773909
 20
190.320133931223
 30
0.0
 11
47.88815233773906
 21
190.320133931223
 31
0.0
  0
LINE
  5
14A
330
42
100
AcDbEntity
  8
1
  6
Continuous
 62
     7
100
AcDbLine
 10
68.88815233773906
 20
190.320133931223
 30
0.0
 11
68.88815233773906
 21
192.332776969618
 31
0.0
  0
LINE
  5
14B
330
42
100
AcDbEntity
  8
1
  6
Continuous
 62
     7
100
AcDbLine
 10
47.91065233773909
 20
246.320133931223
 30
0.0
 11
45.63815233773906
 21
246.320133931223
 31
0.0
  0
LINE
  5
14C
330
42
100
AcDbEntity
  8
1
  6
Continuous
 62
     7
100
AcDbLine
 10
45.63815233773906
 20
246.320133931223
 30
0.0
 11
47.91065233773909
 21
246.320133931223
 31
0.0
  0
LINE
  5
14D
330
42
100
AcDbEntity
  8
1
  6
Continuous
 62
     7
100
AcDbLine
 10
71.13815233773906
 20
246.320133931223
 30
0.0
 11
71.38815233773906
 21
246.070133931223
 31
0.0
  0
LINE
  5
14E
330
42
100
AcDbEntity
  8
1
  6
Continuous
 62
     7
100
AcDbLine
 10
71.13815233773906
 20
246.320133931223
 30
0.0
 11
68.86565233773897
 21
246.320133931223
 31
0.0
  0
LINE
  5
14F
330
42
100
AcDbEntity
  8
1
  6
PHANTOM
 62
     4
100
AcDbLine
 10
58.38815233773906
 20
178.320133931223
 30
0.0
 11
58.38815233773906
 21
239.320133931223
 31
0.0
  0
LINE
  5
150
330
42
100
AcDbEntity
  8
1
  6
Continuous
 62
     7
100
AcDbLine
 10
49.05015233773909
 20
190.320133931223
 30
0.0
 11
68.88815233773906
 21
190.320133931223
 31
0.0
  0
LINE
  5
151
330
42
100
AcDbEntity
  8
1
  6
Continuous
 62
     7
100
AcDbLine
 10
175.5476320652099
 20
78.31458043175786
 30
0.0
 11
170.8087390641401
 21
78.31458043175786
 31
0.0
  0
LINE
  5
152
330
42
100
AcDbEntity
  8
1
  6
Continuous
 62
     7
100
AcDbLine
 10
175.5476320652099
 20
93.32568743068811
 30
0.0
 11
170.8087390641401
 21
93.32568743068811
 31
0.0
  0
LINE
  5
153
330
42
100
AcDbEntity
  8
1
  6
Continuous
 62
     7
100
AcDbLine
 10
130.3087390641401
 20
107.4119766246695
 30
0.0
 11
155.3087390641401
 21
107.4119766246695
 31
0.0
  0
LINE
  5
154
330
42
100
AcDbEntity
  8
1
  6
Continuous
 62
     7
100
AcDbLine
 10
131.6217390641401
 20
109.320133931223
 30
0.0
 11
153.9957390641401
 21
109.320133931223
 31
0.0
  0
LINE
  5
155
330
42
100
AcDbEntity
  8
1
  6
Continuous
 62
     7
100
AcDbLine
 10
121.8087390641401
 20
95.15813393122295
 30
0.0
 11
121.8087390641401
 21
76.48213393122296
 31
0.0
  0
LINE
  5
156
330
42
100
AcDbEntity
  8
1
  6
PHANTOM
 62
     4
100
AcDbLine
 10
109.8087390641401
 20
85.82013393122298
 30
0.0
 11
180.8087390641401
 21
85.82013393122298
 31
0.0
  0
LINE
  5
157
330
42
100
AcDbEntity
  8
1
  6
PHANTOM
 62
     4
100
AcDbLine
 10
142.8087390641401
 20
118.320133931223
 30
0.0
 11
142.8087390641401
 21
70.32013393122298
 31
0.0
  0
LINE
  5
158
330
42
100
AcDbEntity
  8
1
  6
Continuous
 62
     7
100
AcDbLine
 10
175.5476320652099
 20
70.80902693229274
 30
0.0
 11
170.8087390641401
 21
70.80902693229268
 31
0.0
  0
LINE
  5
159
330
42
100
AcDbEntity
  8
1
  6
Continuous
 62
     7
100
AcDbLine
 10
169.7620981592772
 20
71.85566783715564
 30
0.0
 11
170.8087390641401
 21
70.80902693229268
 31
0.0
  0
LINE
  5
15A
330
42
100
AcDbEntity
  8
1
  6
Continuous
 62
     7
100
AcDbLine
 10
175.5476320652099
 20
70.80902693229274
 30
0.0
 11
170.8087390641401
 21
70.80902693229268
 31
0.0
  0
LINE
  5
15B
330
42
100
AcDbEntity
  8
1
  6
Continuous
 62
     7
100
AcDbLine
 10
155.3087390641401
 20
107.4119766246695
 30
0.0
 11
155.3087390641401
 21
103.320133931223
 31
0.0
  0
LINE
  5
15C
330
42
100
AcDbEntity
  8
1
  6
Continuous
 62
     7
100
AcDbLine
 10
154.8087390641401
 20
107.9119766246695
 30
0.0
 11
155.3087390641401
 21
107.4119766246695
 31
0.0
  0
LINE
  5
15D
330
42
100
AcDbEntity
  8
1
  6
Continuous
 62
     7
100
AcDbLine
 10
130.3087390641401
 20
107.4119766246695
 30
0.0
 11
130.3087390641401
 21
101.320133931223
 31
0.0
  0
LINE
  5
15E
330
42
100
AcDbEntity
  8
1
  6
Continuous
 62
     7
100
AcDbLine
 10
130.8087390641401
 20
107.9119766246695
 30
0.0
 11
130.3087390641401
 21
107.4119766246695
 31
0.0
  0
LINE
  5
15F
330
42
100
AcDbEntity
  8
1
  6
Continuous
 62
     7
100
AcDbLine
 10
170.8087390641401
 20
100.8312409301532
 30
0.0
 11
169.7620981592771
 21
99.78460002529027
 31
0.0
  0
LINE
  5
160
330
42
100
AcDbEntity
  8
1
  6
Continuous
 62
     7
100
AcDbLine
 10
177.8087390641401
 20
73.07013393122298
 30
0.0
 11
177.8087390641401
 21
75.34263393122308
 31
0.0
  0
LINE
  5
161
330
42
100
AcDbEntity
  8
1
  6
Continuous
 62
     7
100
AcDbLine
 10
177.8087390641401
 20
73.07013393122298
 30
0.0
 11
175.5476320652099
 21
70.80902693229274
 31
0.0
  0
LINE
  5
162
330
42
100
AcDbEntity
  8
1
  6
Continuous
 62
     7
100
AcDbLine
 10
177.8087390641401
 20
98.57013393122298
 30
0.0
 11
177.8087390641401
 21
96.29763393122295
 31
0.0
  0
LINE
  5
163
330
42
100
AcDbEntity
  8
1
  6
Continuous
 62
     7
100
AcDbLine
 10
175.5476320652099
 20
100.8312409301532
 30
0.0
 11
177.8087390641401
 21
98.57013393122298
 31
0.0
  0
LINE
  5
164
330
42
100
AcDbEntity
  8
1
  6
Continuous
 62
     7
100
AcDbLine
 10
177.8087390641401
 20
96.29763393122295
 30
0.0
 11
177.8087390641401
 21
98.57013393122298
 31
0.0
  0
LINE
  5
165
330
42
100
AcDbEntity
  8
1
  6
Continuous
 62
     7
100
AcDbLine
 10
121.8087390641401
 20
75.32013393122298
 30
0.0
 11
123.8213821025351
 21
75.32013393122298
 31
0.0
  0
LINE
  5
166
330
42
100
AcDbEntity
  8
1
  6
Continuous
 62
     2
100
AcDbLine
 10
131.6217390641401
 20
109.320133931223
 30
0.0
 11
131.6217390641401
 21
110.820133931223
 31
0.0
  0
LINE
  5
167
330
42
100
AcDbEntity
  8
1
  6
Continuous
 62
     7
100
AcDbLine
 10
130.8087390641401
 20
109.320133931223
 30
0.0
 11
131.6217390641401
 21
109.320133931223
 31
0.0
  0
LINE
  5
168
330
42
100
AcDbEntity
  8
1
  6
Continuous
 62
     7
100
AcDbLine
 10
130.8087390641401
 20
109.320133931223
 30
0.0
 11
130.8087390641401
 21
107.9119766246695
 31
0.0
  0
LINE
  5
169
330
42
100
AcDbEntity
  8
1
  6
Continuous
 62
     2
100
AcDbLine
 10
131.6217390641401
 20
109.320133931223
 30
0.0
 11
130.8087390641401
 21
107.9119766246695
 31
0.0
  0
LINE
  5
16A
330
42
100
AcDbEntity
  8
1
  6
Continuous
 62
     7
100
AcDbLine
 10
121.8087390641401
 20
95.15813393122295
 30
0.0
 11
121.8087390641401
 21
96.32013393122298
 31
0.0
  0
LINE
  5
16B
330
42
100
AcDbEntity
  8
1
  6
Continuous
 62
     7
100
AcDbLine
 10
121.8087390641401
 20
96.32013393122298
 30
0.0
 11
123.8213821025351
 21
96.32013393122298
 31
0.0
  0
LINE
  5
16C
330
42
100
AcDbEntity
  8
1
  6
Continuous
 62
     2
100
AcDbLine
 10
121.8087390641401
 20
95.15813393122295
 30
0.0
 11
123.8213821025351
 21
96.32013393122298
 31
0.0
  0
LINE
  5
16D
330
42
100
AcDbEntity
  8
1
  6
Continuous
 62
     2
100
AcDbLine
 10
121.8087390641401
 20
76.48213393122296
 30
0.0
 11
118.3087390641401
 21
76.48213393122296
 31
0.0
  0
LINE
  5
16E
330
42
100
AcDbEntity
  8
1
  6
Continuous
 62
     2
100
AcDbLine
 10
123.8213821025351
 20
75.32013393122298
 30
0.0
 11
121.8087390641401
 21
76.48213393122296
 31
0.0
  0
LINE
  5
16F
330
42
100
AcDbEntity
  8
1
  6
Continuous
 62
     7
100
AcDbLine
 10
121.8087390641401
 20
75.32013393122298
 30
0.0
 11
121.8087390641401
 21
76.48213393122296
 31
0.0
  0
LINE
  5
170
330
42
100
AcDbEntity
  8
1
  6
Continuous
 62
     2
100
AcDbLine
 10
154.8087390641401
 20
107.9119766246695
 30
0.0
 11
153.9957390641401
 21
109.320133931223
 31
0.0
  0
LINE
  5
171
330
42
100
AcDbEntity
  8
1
  6
Continuous
 62
     7
100
AcDbLine
 10
154.8087390641401
 20
107.9119766246695
 30
0.0
 11
154.8087390641401
 21
109.320133931223
 31
0.0
  0
LINE
  5
172
330
42
100
AcDbEntity
  8
1
  6
Continuous
 62
     7
100
AcDbLine
 10
153.9957390641401
 20
109.320133931223
 30
0.0
 11
154.8087390641401
 21
109.320133931223
 31
0.0
  0
LINE
  5
173
330
42
100
AcDbEntity
  8
1
  6
Continuous
 62
     7
100
AcDbLine
 10
154.8087390641401
 20
109.320133931223
 30
0.0
 11
154.8087390641401
 21
110.820133931223
 31
0.0
  0
LINE
  5
174
330
42
100
AcDbEntity
  8
1
  6
Continuous
 62
     7
100
AcDbLine
 10
170.8087390641401
 20
100.8312409301532
 30
0.0
 11
175.5476320652099
 21
100.8312409301532
 31
0.0
  0
LINE
  5
175
330
42
100
AcDbEntity
  8
1
  6
Continuous
 62
     7
100
AcDbLine
 10
123.8213821025351
 20
96.32013393122298
 30
0.0
 11
125.3087390641401
 21
96.32013393122298
 31
0.0
  0
LINE
  5
176
330
42
100
AcDbEntity
  8
1
  6
Continuous
 62
     7
100
AcDbLine
 10
142.8087390641401
 20
73.32013393122298
 30
0.0
 11
166.2265642533444
 21
73.32013393122298
 31
0.0
  0
LINE
  5
177
330
42
100
AcDbEntity
  8
1
  6
Continuous
 62
     7
100
AcDbLine
 10
160.3087390641401
 20
98.32013393122298
 30
0.0
 11
166.2265642533444
 21
98.32013393122298
 31
0.0
  0
LINE
  5
178
330
42
100
AcDbEntity
  8
1
  6
Continuous
 62
     7
100
AcDbLine
 10
177.8087390641401
 20
96.29763393122295
 30
0.0
 11
177.8087390641401
 21
75.34263393122308
 31
0.0
  0
LINE
  5
179
330
42
100
AcDbEntity
  8
1
  6
Continuous
 62
     7
100
AcDbLine
 10
123.8213821025351
 20
75.32013393122298
 30
0.0
 11
125.3087390641401
 21
75.32013393122298
 31
0.0
  0
LINE
  5
17A
330
42
100
AcDbEntity
  8
1
  6
Continuous
 62
     7
100
AcDbLine
 10
70.88815233773906
 20
218.6686031595726
 30
0.0
 11
70.88815233773906
 21
234.7379591204273
 31
0.0
  0
ARC
  5
17B
330
42
100
AcDbEntity
  8
1
  6
Continuous
 62
     7
100
AcDbCircle
 10
15.32565233773866
 20
193.820133931223
 30
0.0
 40
32.5625000000004
100
AcDbArc
 50
0.0
 51
13.03960350331393
  0
ARC
  5
17C
330
42
100
AcDbEntity
  8
1
  6
Continuous
 62
     7
100
AcDbCircle
 10
90.88815233773906
 20
211.320133931223
 30
0.0
 40
45.00000000000011
100
AcDbArc
 50
-169.4583981264958
 51
-166.9603964966861
  0
ARC
  5
17D
330
42
100
AcDbEntity
  8
1
  6
Continuous
 62
     7
100
AcDbCircle
 10
101.4506523377395
 20
193.820133931223
 30
0.0
 40
32.56250000000038
100
AcDbArc
 50
166.9603964966861
 51
180.0
  0
ARC
  5
17E
330
42
100
AcDbEntity
  8
1
  6
Continuous
 62
     7
100
AcDbCircle
 10
125.3087390641401
 20
42.75763393122259
 30
0.0
 40
32.56250000000033
100
AcDbArc
 50
76.96039649668609
 51
90.0
  0
ARC
  5
17F
330
42
100
AcDbEntity
  8
1
  6
Continuous
 62
     7
100
AcDbCircle
 10
142.8087390641401
 20
118.320133931223
 30
0.0
 40
45.00000000000007
100
AcDbArc
 50
-103.0396035033139
 51
-90.0
  0
ARC
  5
180
330
42
100
AcDbEntity
  8
1
  6
Continuous
 62
     7
100
AcDbCircle
 10
25.88815233773906
 20
211.320133931223
 30
0.0
 40
45.00000000000006
100
AcDbArc
 50
-13.0396035033139
 51
-10.5416018735045
  0
SPLINE
  5
181
330
42
100
AcDbEntity
  8
1
  6
Continuous
 62
     7
100
AcDbSpline
210
0.0
220
0.0
230
1.0
 70
     8
 71
     3
 72
    33
 73
    29
 74
    27
 42
0.0000000001
 43
0.0000000001
 44
0.00000001
 40
0.0
 40
0.0
 40
0.0
 40
0.0
 40
0.5939249141923356
 40
1.187851599377387
 40
1.513819741513142
 40
1.839789281990885
 40
2.196317437918346
 40
2.552851935104855
 40
2.958199561198935
 40
3.363541512548598
 40
3.863542578220939
 40
4.363662706811267
 40
5.224160052688855
 40
6.084683379167877
 40
6.883623439069085
 40
7.682563498970337
 40
8.543086825449475
 40
9.40358417132704
 40
9.90370429991723
 40
10.40370536558951
 40
10.80904731693922
 40
11.21439494303342
 40
11.57092944021993
 40
11.92745759614734
 40
12.25342713662515
 40
12.57939527876093
 40
13.17332196394599
 40
13.76724687813828
 40
13.76724687813828
 40
13.76724687813828
 40
13.76724687813828
 10
58.38815233773906
 20
244.0590269322928
 30
0.0
 10
58.21596414252078
 20
244.1567505635129
 30
0.0
 10
57.87158723864553
 20
244.3521981173499
 30
0.0
 10
57.42406469537417
 20
244.5855855098475
 30
0.0
 10
57.05157747983845
 20
244.7692363461266
 30
0.0
 10
56.74732713334765
 20
244.9122291113188
 30
0.0
 10
56.43093555035222
 20
245.0531885979906
 30
0.0
 10
56.08702808403432
 20
245.1971825811811
 30
0.0
 10
55.72436828811886
 20
245.3382441603378
 30
0.0
 10
55.3127117206173
 20
245.4847711451694
 30
0.0
 10
54.86608248619525
 20
245.6266362320661
 30
0.0
 10
54.2676316697596
 20
245.7900587431128
 30
0.0
 10
53.54224877142806
 20
245.9422679651881
 30
0.0
 10
52.70785370342989
 20
246.0475034577746
 30
0.0
 10
51.8881523377391
 20
246.0808632591487
 30
0.0
 10
51.06845097204828
 20
246.0475034577745
 30
0.0
 10
50.23405590405007
 20
245.9422679651881
 30
0.0
 10
49.50867300571854
 20
245.7900587431127
 30
0.0
 10
48.91022218928297
 20
245.626636232066
 30
0.0
 10
48.46359295486104
 20
245.4847711451692
 30
0.0
 10
48.05193638735932
 20
245.3382441603379
 30
0.0
 10
47.68927659144383
 20
245.1971825811811
 30
0.0
 10
47.34536912512591
 20
245.0531885979905
 30
0.0
 10
47.02897754213041
 20
244.9122291113188
 30
0.0
 10
46.72472719563969
 20
244.7692363461265
 30
0.0
 10
46.35223998010389
 20
244.5855855098476
 30
0.0
 10
45.9047174368326
 20
244.3521981173497
 30
0.0
 10
45.56034053295733
 20
244.1567505635128
 30
0.0
 10
45.38815233773906
 20
244.0590269322928
 30
0.0
 11
58.38815233773906
 21
244.0590269322928
 31
0.0
 11
57.86989240780343
 21
244.3491190706239
 31
0.0
 11
57.3435632930637
 21
244.6243036820254
 31
0.0
 11
57.05113502405859
 21
244.7683208239707
 31
0.0
 11
56.75610910129456
 21
244.9069420568916
 31
0.0
 11
56.43040436013726
 21
245.0519549789251
 31
0.0
 11
56.10150303387572
 21
245.1895804317579
 31
0.0
 11
55.72368284781293
 21
245.3364089200822
 31
0.0
 11
55.3417695431987
 21
245.4722188066243
 31
0.0
 11
54.86515544315397
 21
245.6233481066029
 31
0.0
 11
54.38263548891019
 21
245.7548571814905
 31
0.0
 11
53.54030693316063
 21
245.930750008039
 31
0.0
 11
52.68643001970713
 21
246.0374955563568
 31
0.0
 11
51.88815233773912
 21
246.0700218808759
 31
0.0
 11
51.08987465577107
 21
246.0374955563567
 31
0.0
 11
50.23599774231746
 21
245.930750008039
 31
0.0
 11
49.39366918656793
 21
245.7548571814904
 31
0.0
 11
48.91114923232428
 21
245.6233481066029
 31
0.0
 11
48.43453513227963
 21
245.4722188066242
 31
0.0
 11
48.0526218276653
 21
245.3364089200822
 31
0.0
 11
47.67480164160238
 21
245.189580431758
 31
0.0
 11
47.34590031534084
 21
245.0519549789251
 31
0.0
 11
47.02019557418358
 21
244.9069420568917
 31
0.0
 11
46.72516965141951
 21
244.7683208239707
 31
0.0
 11
46.43274138241438
 21
244.6243036820254
 31
0.0
 11
45.90641226767466
 21
244.3491190706238
 31
0.0
 11
45.38815233773906
 21
244.0590269322928
 31
0.0
  0
SPLINE
  5
182
330
42
100
AcDbEntity
  8
1
  6
Continuous
 62
     7
100
AcDbSpline
210
0.0
220
0.0
230
1.0
 70
     8
 71
     3
 72
    33
 73
    29
 74
    27
 42
0.0000000001
 43
0.0000000001
 44
0.00000001
 40
0.0
 40
0.0
 40
0.0
 40
0.0
 40
0.5939249141923079
 40
1.18785159937736
 40
1.513819741513102
 40
1.839789281990893
 40
2.196317437918343
 40
2.552851935104841
 40
2.958199561198921
 40
3.363541512548565
 40
3.863542578220914
 40
4.363662706811212
 40
5.224160052688806
 40
6.084683379167835
 40
6.883623439069044
 40
7.682563498970294
 40
8.543086825449421
 40
9.403584171326987
 40
9.9037042999172
 40
10.40370536558949
 40
10.80904731693923
 40
11.21439494303343
 40
11.57092944021994
 40
11.92745759614736
 40
12.25342713662513
 40
12.57939527876091
 40
13.17332196394595
 40
13.76724687813823
 40
13.76724687813823
 40
13.76724687813823
 40
13.76724687813823
 10
58.38815233773906
 20
239.320133931223
 30
0.0
 10
58.21596414252078
 20
239.2224103000029
 30
0.0
 10
57.8715872386455
 20
239.026962746166
 30
0.0
 10
57.42406469537417
 20
238.7935753536683
 30
0.0
 10
57.05157747983839
 20
238.6099245173893
 30
0.0
 10
56.7473271333477
 20
238.4669317521971
 30
0.0
 10
56.43093555035222
 20
238.3259722655253
 30
0.0
 10
56.0870280840343
 20
238.1819782823348
 30
0.0
 10
55.72436828811888
 20
238.040916703178
 30
0.0
 10
55.31271172061727
 20
237.8943897183466
 30
0.0
 10
54.86608248619529
 20
237.7525246314498
 30
0.0
 10
54.26763166975955
 20
237.5891021204031
 30
0.0
 10
53.54224877142809
 20
237.4368928983279
 30
0.0
 10
52.70785370342988
 20
237.3316574057413
 30
0.0
 10
51.8881523377391
 20
237.2982976043672
 30
0.0
 10
51.0684509720483
 20
237.3316574057413
 30
0.0
 10
50.23405590405005
 20
237.4368928983277
 30
0.0
 10
49.50867300571851
 20
237.5891021204029
 30
0.0
 10
48.91022218928298
 20
237.7525246314498
 30
0.0
 10
48.46359295486101
 20
237.8943897183466
 30
0.0
 10
48.05193638735935
 20
238.040916703178
 30
0.0
 10
47.68927659144381
 20
238.1819782823349
 30
0.0
 10
47.34536912512591
 20
238.3259722655253
 30
0.0
 10
47.02897754213046
 20
238.4669317521972
 30
0.0
 10
46.72472719563967
 20
238.6099245173893
 30
0.0
 10
46.3522399801039
 20
238.7935753536683
 30
0.0
 10
45.90471743683258
 20
239.0269627461661
 30
0.0
 10
45.56034053295733
 20
239.2224103000029
 30
0.0
 10
45.38815233773906
 20
239.320133931223
 30
0.0
 11
58.38815233773906
 21
239.320133931223
 31
0.0
 11
57.86989240780343
 21
239.030041792892
 31
0.0
 11
57.3435632930637
 21
238.7548571814905
 31
0.0
 11
57.05113502405859
 21
238.6108400395452
 31
0.0
 11
56.75610910129456
 21
238.4722188066242
 31
0.0
 11
56.43040436013726
 21
238.3272058845907
 31
0.0
 11
56.10150303387572
 21
238.1895804317579
 31
0.0
 11
55.72368284781293
 21
238.0427519434337
 31
0.0
 11
55.3417695431987
 21
237.9069420568916
 31
0.0
 11
54.86515544315397
 21
237.755812756913
 31
0.0
 11
54.38263548891019
 21
237.6243036820255
 31
0.0
 11
53.54030693316063
 21
237.4484108554769
 31
0.0
 11
52.68643001970713
 21
237.3416653071591
 31
0.0
 11
51.88815233773912
 21
237.3091389826399
 31
0.0
 11
51.08987465577107
 21
237.3416653071591
 31
0.0
 11
50.23599774231746
 21
237.4484108554767
 31
0.0
 11
49.39366918656793
 21
237.6243036820253
 31
0.0
 11
48.91114923232428
 21
237.755812756913
 31
0.0
 11
48.43453513227963
 21
237.9069420568916
 31
0.0
 11
48.0526218276653
 21
238.0427519434337
 31
0.0
 11
47.67480164160238
 21
238.189580431758
 31
0.0
 11
47.34590031534084
 21
238.3272058845908
 31
0.0
 11
47.02019557418358
 21
238.4722188066243
 31
0.0
 11
46.72516965141951
 21
238.6108400395451
 31
0.0
 11
46.43274138241438
 21
238.7548571814905
 31
0.0
 11
45.90641226767466
 21
239.030041792892
 31
0.0
 11
45.38815233773906
 21
239.320133931223
 31
0.0
  0
SPLINE
  5
183
330
42
100
AcDbEntity
  8
1
  6
Continuous
 62
     7
100
AcDbSpline
210
0.0
220
0.0
230
1.0
 70
     8
 71
     3
 72
    33
 73
    29
 74
    27
 42
0.0000000001
 43
0.0000000001
 44
0.00000001
 40
0.0
 40
0.0
 40
0.0
 40
0.0
 40
0.5939249141923141
 40
1.187851599377372
 40
1.513819741513064
 40
1.839789281990823
 40
2.196317437918311
 40
2.552851935104855
 40
2.958199561198948
 40
3.363541512548586
 40
3.863542578220894
 40
4.36366270681122
 40
5.224160052688807
 40
6.08468337916785
 40
6.883623439069052
 40
7.68256349897028
 40
8.543086825449402
 40
9.403584171326967
 40
9.903704299917207
 40
10.40370536558951
 40
10.80904731693924
 40
11.2143949430334
 40
11.57092944021989
 40
11.92745759614732
 40
12.25342713662511
 40
12.5793952787609
 40
13.17332196394594
 40
13.76724687813823
 40
13.76724687813823
 40
13.76724687813823
 40
13.76724687813823
 10
58.38815233773906
 20
239.320133931223
 30
0.0
 10
58.56034053295734
 20
239.222410300003
 30
0.0
 10
58.90471743683261
 20
239.026962746166
 30
0.0
 10
59.35223998010395
 20
238.7935753536684
 30
0.0
 10
59.72472719563968
 20
238.6099245173893
 30
0.0
 10
60.02897754213036
 20
238.4669317521971
 30
0.0
 10
60.34536912512586
 20
238.3259722655252
 30
0.0
 10
60.68927659144383
 20
238.1819782823349
 30
0.0
 10
61.05193638735925
 20
238.0409167031779
 30
0.0
 10
61.46359295486086
 20
237.8943897183466
 30
0.0
 10
61.91022218928285
 20
237.7525246314498
 30
0.0
 10
62.50867300571852
 20
237.5891021204032
 30
0.0
 10
63.23405590405005
 20
237.4368928983279
 30
0.0
 10
64.06845097204823
 20
237.3316574057413
 30
0.0
 10
64.888152337739
 20
237.2982976043672
 30
0.0
 10
65.70785370342982
 20
237.3316574057413
 30
0.0
 10
66.54224877142802
 20
237.4368928983276
 30
0.0
 10
67.2676316697596
 20
237.589102120403
 30
0.0
 10
67.86608248619513
 20
237.7525246314497
 30
0.0
 10
68.31271172061712
 20
237.8943897183466
 30
0.0
 10
68.7243682881188
 20
238.0409167031781
 30
0.0
 10
69.08702808403427
 20
238.1819782823349
 30
0.0
 10
69.43093555035219
 20
238.3259722655254
 30
0.0
 10
69.74732713334761
 20
238.4669317521972
 30
0.0
 10
70.05157747983841
 20
238.6099245173892
 30
0.0
 10
70.42406469537421
 20
238.7935753536684
 30
0.0
 10
70.87158723864552
 20
239.026962746166
 30
0.0
 10
71.21596414252079
 20
239.222410300003
 30
0.0
 10
71.38815233773906
 20
239.320133931223
 30
0.0
 11
58.38815233773906
 21
239.320133931223
 31
0.0
 11
58.9064122676747
 21
239.030041792892
 31
0.0
 11
59.43274138241443
 21
238.7548571814905
 31
0.0
 11
59.72516965141949
 21
238.6108400395452
 31
0.0
 11
60.02019557418348
 21
238.4722188066242
 31
0.0
 11
60.34590031534082
 21
238.3272058845907
 31
0.0
 11
60.67480164160241
 21
238.1895804317579
 31
0.0
 11
61.05262182766521
 21
238.0427519434337
 31
0.0
 11
61.43453513227944
 21
237.9069420568916
 31
0.0
 11
61.91114923232413
 21
237.755812756913
 31
0.0
 11
62.39366918656793
 21
237.6243036820255
 31
0.0
 11
63.23599774231749
 21
237.4484108554769
 31
0.0
 11
64.089874655771
 21
237.3416653071591
 31
0.0
 11
64.888152337739
 21
237.3091389826399
 31
0.0
 11
65.68643001970703
 21
237.3416653071591
 31
0.0
 11
66.54030693316064
 21
237.4484108554767
 31
0.0
 11
67.38263548891017
 21
237.6243036820253
 31
0.0
 11
67.86515544315384
 21
237.755812756913
 31
0.0
 11
68.34176954319851
 21
237.9069420568916
 31
0.0
 11
68.72368284781283
 21
238.0427519434337
 31
0.0
 11
69.1015030338757
 21
238.189580431758
 31
0.0
 11
69.43040436013722
 21
238.3272058845908
 31
0.0
 11
69.7561091012945
 21
238.4722188066243
 31
0.0
 11
70.05113502405858
 21
238.6108400395451
 31
0.0
 11
70.34356329306372
 21
238.7548571814905
 31
0.0
 11
70.86989240780345
 21
239.030041792892
 31
0.0
 11
71.38815233773906
 21
239.320133931223
 31
0.0
  0
SPLINE
  5
184
330
42
100
AcDbEntity
  8
1
  6
Continuous
 62
     7
100
AcDbSpline
210
0.0
220
0.0
230
1.0
 70
     8
 71
     3
 72
    33
 73
    29
 74
    27
 42
0.0000000001
 43
0.0000000001
 44
0.00000001
 40
0.0
 40
0.0
 40
0.0
 40
0.0
 40
0.5939249141923418
 40
1.1878515993774
 40
1.513819741513104
 40
1.839789281990815
 40
2.196317437918314
 40
2.55285193510487
 40
2.958199561198962
 40
3.363541512548619
 40
3.863542578220919
 40
4.363662706811274
 40
5.224160052688855
 40
6.084683379167891
 40
6.883623439069092
 40
7.682563498970323
 40
8.543086825449453
 40
9.403584171327019
 40
9.903704299917237
 40
10.40370536558953
 40
10.80904731693923
 40
11.21439494303339
 40
11.57092944021988
 40
11.9274575961473
 40
12.25342713662513
 40
12.57939527876091
 40
13.17332196394598
 40
13.76724687813827
 40
13.76724687813827
 40
13.76724687813827
 40
13.76724687813827
 10
58.38815233773906
 20
244.0590269322928
 30
0.0
 10
58.56034053295736
 20
244.1567505635129
 30
0.0
 10
58.9047174368326
 20
244.3521981173498
 30
0.0
 10
59.35223998010395
 20
244.5855855098475
 30
0.0
 10
59.72472719563965
 20
244.7692363461266
 30
0.0
 10
60.02897754213041
 20
244.9122291113187
 30
0.0
 10
60.34536912512585
 20
245.0531885979905
 30
0.0
 10
60.68927659144383
 20
245.197182581181
 30
0.0
 10
61.05193638735928
 20
245.3382441603379
 30
0.0
 10
61.46359295486084
 20
245.4847711451694
 30
0.0
 10
61.91022218928286
 20
245.6266362320661
 30
0.0
 10
62.50867300571851
 20
245.7900587431129
 30
0.0
 10
63.23405590405004
 20
245.942267965188
 30
0.0
 10
64.06845097204824
 20
246.0475034577746
 30
0.0
 10
64.88815233773902
 20
246.0808632591487
 30
0.0
 10
65.70785370342981
 20
246.0475034577746
 30
0.0
 10
66.54224877142805
 20
245.9422679651881
 30
0.0
 10
67.26763166975954
 20
245.7900587431126
 30
0.0
 10
67.86608248619515
 20
245.6266362320661
 30
0.0
 10
68.31271172061709
 20
245.4847711451691
 30
0.0
 10
68.7243682881188
 20
245.338244160338
 30
0.0
 10
69.08702808403427
 20
245.197182581181
 30
0.0
 10
69.43093555035213
 20
245.0531885979906
 30
0.0
 10
69.74732713334765
 20
244.9122291113188
 30
0.0
 10
70.0515774798384
 20
244.7692363461265
 30
0.0
 10
70.4240646953742
 20
244.5855855098475
 30
0.0
 10
70.87158723864552
 20
244.3521981173498
 30
0.0
 10
71.21596414252079
 20
244.1567505635129
 30
0.0
 10
71.38815233773906
 20
244.0590269322928
 30
0.0
 11
58.38815233773906
 21
244.0590269322928
 31
0.0
 11
58.9064122676747
 21
244.3491190706239
 31
0.0
 11
59.43274138241443
 21
244.6243036820254
 31
0.0
 11
59.72516965141949
 21
244.7683208239707
 31
0.0
 11
60.02019557418348
 21
244.9069420568916
 31
0.0
 11
60.34590031534082
 21
245.0519549789251
 31
0.0
 11
60.67480164160241
 21
245.1895804317579
 31
0.0
 11
61.05262182766521
 21
245.3364089200822
 31
0.0
 11
61.43453513227944
 21
245.4722188066243
 31
0.0
 11
61.91114923232413
 21
245.6233481066029
 31
0.0
 11
62.39366918656793
 21
245.7548571814905
 31
0.0
 11
63.23599774231749
 21
245.930750008039
 31
0.0
 11
64.089874655771
 21
246.0374955563568
 31
0.0
 11
64.888152337739
 21
246.0700218808759
 31
0.0
 11
65.68643001970703
 21
246.0374955563567
 31
0.0
 11
66.54030693316064
 21
245.930750008039
 31
0.0
 11
67.38263548891017
 21
245.7548571814904
 31
0.0
 11
67.86515544315384
 21
245.6233481066029
 31
0.0
 11
68.34176954319851
 21
245.4722188066242
 31
0.0
 11
68.72368284781283
 21
245.3364089200822
 31
0.0
 11
69.1015030338757
 21
245.189580431758
 31
0.0
 11
69.43040436013722
 21
245.0519549789251
 31
0.0
 11
69.7561091012945
 21
244.9069420568917
 31
0.0
 11
70.05113502405858
 21
244.7683208239707
 31
0.0
 11
70.34356329306372
 21
244.6243036820254
 31
0.0
 11
70.86989240780345
 21
244.3491190706238
 31
0.0
 11
71.38815233773906
 21
244.0590269322928
 31
0.0
  0
SPLINE
  5
185
330
42
100
AcDbEntity
  8
1
  6
Continuous
 62
     7
100
AcDbSpline
210
0.0
220
0.0
230
1.0
 70
     8
 71
     3
 72
    33
 73
    29
 74
    27
 42
0.0000000001
 43
0.0000000001
 44
0.00000001
 40
0.0
 40
0.0
 40
0.0
 40
0.0
 40
0.4133569006801242
 40
0.8267148991713165
 40
1.047477429691608
 40
1.268240273686101
 40
1.504227369535133
 40
1.740225682305871
 40
2.001195139144826
 40
2.26213923159306
 40
2.573023665195266
 40
2.884147975817132
 40
3.395079514214134
 40
3.905704156216011
 40
4.367715781294331
 40
4.829727406372666
 40
5.340352048374627
 40
5.851283586771669
 40
6.162407897393472
 40
6.473292330995691
 40
6.734236423443925
 40
6.995205880282852
 40
7.231204193053578
 40
7.467191288902616
 40
7.687954132897128
 40
7.908716663417411
 40
8.322074661908584
 40
8.735431562588667
 40
8.735431562588667
 40
8.735431562588667
 40
8.735431562588667
 10
170.8087390641401
 20
70.80902693229268
 30
0.0
 10
170.7121226104208
 20
70.90727713399737
 30
0.0
 10
170.5188894463841
 20
71.10377779834387
 30
0.0
 10
170.2846124910528
 20
71.36283166695695
 30
0.0
 10
170.0995194132729
 20
71.57951447345623
 30
0.0
 10
169.9568975334209
 20
71.75464947076489
 30
0.0
 10
169.8157531312604
 20
71.93744615935269
 30
0.0
 10
169.6722447357518
 20
72.13522244265053
 30
0.0
 10
169.5309618463068
 20
72.34473848799863
 30
0.0
 10
169.3851310428177
 20
72.58103689837037
 30
0.0
 10
169.2429089325772
 20
72.83890745022394
 30
0.0
 10
169.0810826369496
 20
73.18037323414009
 30
0.0
 10
168.9279185685167
 20
73.59858004030978
 30
0.0
 10
168.8206239091434
 20
74.08316420881124
 30
0.0
 10
168.7873081248592
 20
74.56180368202526
 30
0.0
 10
168.8206239091434
 20
75.04044315523937
 30
0.0
 10
168.9279185685168
 20
75.52502732374083
 30
0.0
 10
169.0810826369497
 20
75.94323412991059
 30
0.0
 10
169.2429089325772
 20
76.2846999138267
 30
0.0
 10
169.3851310428177
 20
76.54257046568027
 30
0.0
 10
169.5309618463069
 20
76.77886887605199
 30
0.0
 10
169.6722447357518
 20
76.98838492140008
 30
0.0
 10
169.8157531312605
 20
77.18616120469791
 30
0.0
 10
169.9568975334209
 20
77.36895789328572
 30
0.0
 10
170.099519413273
 20
77.54409289059434
 30
0.0
 10
170.2846124910527
 20
77.76077569709366
 30
0.0
 10
170.5188894463842
 20
78.01982956570674
 30
0.0
 10
170.7121226104208
 20
78.21633023005317
 30
0.0
 10
170.8087390641401
 20
78.31458043175786
 30
0.0
 11
170.8087390641401
 21
70.80902693229268
 31
0.0
 11
170.5209725892255
 21
71.10576652057692
 31
0.0
 11
170.2434623144076
 21
71.41212069842851
 31
0.0
 11
170.1001822694426
 21
71.58006986810958
 31
0.0
 11
169.9608239395412
 21
71.75128753418302
 31
0.0
 11
169.8166935936791
 21
71.93814671326962
 31
0.0
 11
169.678185564675
 21
72.12922452342046
 31
0.0
 11
169.5324318307568
 21
72.34569832426416
 31
0.0
 11
169.3955471898087
 21
72.56785685877532
 31
0.0
 11
169.245781448398
 21
72.84028915083312
 31
0.0
 11
169.1129088149425
 21
73.12161316320768
 31
0.0
 11
168.9387712681986
 21
73.60195382538687
 31
0.0
 11
168.8302704400762
 21
74.10091784745289
 31
0.0
 11
168.798037084712
 21
74.56180368202527
 31
0.0
 11
168.8302704400762
 21
75.02268951659767
 31
0.0
 11
168.9387712681986
 21
75.52165353866377
 31
0.0
 11
169.1129088149425
 21
76.001994200843
 31
0.0
 11
169.245781448398
 21
76.28331821321751
 31
0.0
 11
169.3955471898087
 21
76.55575050527531
 31
0.0
 11
169.5324318307568
 21
76.77790903978647
 31
0.0
 11
169.678185564675
 21
76.99438284063015
 31
0.0
 11
169.8166935936791
 21
77.18546065078098
 31
0.0
 11
169.9608239395413
 21
77.37231982986756
 31
0.0
 11
170.1001822694427
 21
77.54353749594101
 31
0.0
 11
170.2434623144076
 21
77.71148666562209
 31
0.0
 11
170.5209725892255
 21
78.01784084347368
 31
0.0
 11
170.8087390641401
 21
78.31458043175786
 31
0.0
  0
SPLINE
  5
186
330
42
100
AcDbEntity
  8
1
  6
Continuous
 62
     7
100
AcDbSpline
210
0.0
220
0.0
230
1.0
 70
     8
 71
     3
 72
    33
 73
    29
 74
    27
 42
0.0000000001
 43
0.0000000001
 44
0.00000001
 40
0.0
 40
0.0
 40
0.0
 40
0.0
 40
0.6660942076091939
 40
1.332190222770898
 40
1.699632944385087
 40
2.067077053321455
 40
2.470589213764451
 40
2.874107007989138
 40
3.33498320037275
 40
3.795855500931687
 40
4.367402403401251
 40
4.9390512912103
 40
5.929102491977414
 40
6.919199823136928
 40
7.841546055180293
 40
8.763892287223673
 40
9.753989618383212
 40
10.74404081915034
 40
11.31568970695938
 40
11.88723660942896
 40
12.34810890998787
 40
12.80898510237147
 40
13.21250289659618
 40
13.61601505703917
 40
13.98345916597556
 40
14.35090188758971
 40
15.01699790275142
 40
15.68309211036059
 40
15.68309211036059
 40
15.68309211036059
 40
15.68309211036059
 10
170.8087390641401
 20
93.32568743068811
 30
0.0
 10
170.7108011504965
 20
93.12641115225539
 30
0.0
 10
170.5149250574393
 20
92.72785805462215
 30
0.0
 10
170.2817295911245
 20
92.211411121464
 30
0.0
 10
170.0983507414735
 20
91.78191573927359
 30
0.0
 10
169.9552977924429
 20
91.43042443528617
 30
0.0
 10
169.8143763045335
 20
91.06514856148966
 30
0.0
 10
169.670308063325
 20
90.66779463183102
 30
0.0
 10
169.5292906404669
 20
90.24910040804471
 30
0.0
 10
169.3826662934308
 20
89.77336371856956
 30
0.0
 10
169.2408676012906
 20
89.25769735777955
 30
0.0
 10
169.0772344051015
 20
88.56555565361823
 30
0.0
 10
168.9251587895496
 20
87.72793995001319
 30
0.0
 10
168.8202170434906
 20
86.7652648314039
 30
0.0
 10
168.78686927729
 20
85.82013393122298
 30
0.0
 10
168.8202170434906
 20
84.87500303104204
 30
0.0
 10
168.9251587895496
 20
83.91232791243274
 30
0.0
 10
169.0772344051015
 20
83.07471220882771
 30
0.0
 10
169.2408676012907
 20
82.38257050466636
 30
0.0
 10
169.3826662934308
 20
81.86690414387638
 30
0.0
 10
169.529290640467
 20
81.39116745440121
 30
0.0
 10
169.6703080633249
 20
80.97247323061492
 30
0.0
 10
169.8143763045336
 20
80.57511930095626
 30
0.0
 10
169.9552977924428
 20
80.20984342715975
 30
0.0
 10
170.0983507414735
 20
79.85835212317237
 30
0.0
 10
170.2817295911246
 20
79.42885674098196
 30
0.0
 10
170.5149250574393
 20
78.91240980782386
 30
0.0
 10
170.7108011504966
 20
78.51385671019058
 30
0.0
 10
170.8087390641401
 20
78.31458043175786
 30
0.0
 11
170.8087390641401
 21
93.32568743068811
 31
0.0
 11
170.5181990712611
 21
92.72629773612505
 31
0.0
 11
170.2434623144076
 21
92.11949989841639
 31
0.0
 11
170.0993120559053
 21
91.78151342436605
 31
0.0
 11
169.9608239395413
 21
91.44116622690737
 31
0.0
 11
169.8156601384019
 21
91.06466983321398
 31
0.0
 11
169.678185564675
 21
90.68529224843256
 31
0.0
 11
169.5311840708947
 21
90.24848860200504
 31
0.0
 11
169.3955471898087
 21
89.80802757772283
 31
0.0
 11
169.244217940979
 21
89.25687848703029
 31
0.0
 11
169.1129088149425
 21
88.70051496885819
 31
0.0
 11
168.9367645613665
 21
87.72625905685531
 31
0.0
 11
168.8302704400762
 21
86.74190560036735
 31
0.0
 11
168.7977195302977
 21
85.82013393122298
 31
0.0
 11
168.8302704400762
 21
84.89836226207861
 31
0.0
 11
168.9367645613665
 21
83.91400880559061
 31
0.0
 11
169.1129088149425
 21
82.93975289358772
 31
0.0
 11
169.244217940979
 21
82.38338937541563
 31
0.0
 11
169.3955471898087
 21
81.83224028472309
 31
0.0
 11
169.5311840708947
 21
81.3917792604409
 31
0.0
 11
169.678185564675
 21
80.95497561401339
 31
0.0
 11
169.8156601384019
 21
80.57559802923194
 31
0.0
 11
169.9608239395413
 21
80.19910163553855
 31
0.0
 11
170.0993120559054
 21
79.85875443807987
 31
0.0
 11
170.2434623144076
 21
79.52076796402957
 31
0.0
 11
170.5181990712611
 21
78.91397012632091
 31
0.0
 11
170.8087390641401
 21
78.31458043175786
 31
0.0
  0
SPLINE
  5
187
330
42
100
AcDbEntity
  8
1
  6
Continuous
 62
     7
100
AcDbSpline
210
0.0
220
0.0
230
1.0
 70
     8
 71
     3
 72
    33
 73
    29
 74
    27
 42
0.0000000001
 43
0.0000000001
 44
0.00000001
 40
0.0
 40
0.0
 40
0.0
 40
0.0
 40
0.4133569006800629
 40
0.8267148991712657
 40
1.047477429691568
 40
1.268240273686072
 40
1.504227369535116
 40
1.740225682305842
 40
2.001195139144774
 40
2.262139231593007
 40
2.573023665195226
 40
2.884147975817066
 40
3.395079514214082
 40
3.905704156216001
 40
4.367715781294292
 40
4.829727406372613
 40
5.340352048374532
 40
5.851283586771601
 40
6.162407897393416
 40
6.473292330995624
 40
6.734236423443857
 40
6.995205880282785
 40
7.231204193053523
 40
7.467191288902572
 40
7.68795413289705
 40
7.908716663417312
 40
8.322074661908443
 40
8.735431562588598
 40
8.735431562588598
 40
8.735431562588598
 40
8.735431562588598
 10
170.8087390641401
 20
100.8312409301532
 30
0.0
 10
170.7121226104208
 20
100.7329907284485
 30
0.0
 10
170.5188894463842
 20
100.5364900641021
 30
0.0
 10
170.2846124910527
 20
100.277436195489
 30
0.0
 10
170.099519413273
 20
100.0607533889897
 30
0.0
 10
169.9568975334209
 20
99.88561839168106
 30
0.0
 10
169.8157531312604
 20
99.70282170309321
 30
0.0
 10
169.6722447357519
 20
99.50504541979538
 30
0.0
 10
169.5309618463068
 20
99.29552937444731
 30
0.0
 10
169.3851310428176
 20
99.05923096407557
 30
0.0
 10
169.2429089325772
 20
98.80136041222202
 30
0.0
 10
169.0810826369496
 20
98.45989462830586
 30
0.0
 10
168.9279185685167
 20
98.04168782213611
 30
0.0
 10
168.8206239091434
 20
97.55710365363473
 30
0.0
 10
168.7873081248592
 20
97.07846418042065
 30
0.0
 10
168.8206239091434
 20
96.59982470720659
 30
0.0
 10
168.9279185685167
 20
96.11524053870514
 30
0.0
 10
169.0810826369496
 20
95.69703373253542
 30
0.0
 10
169.2429089325772
 20
95.35556794861927
 30
0.0
 10
169.3851310428177
 20
95.0976973967657
 30
0.0
 10
169.5309618463069
 20
94.86139898639402
 30
0.0
 10
169.6722447357518
 20
94.65188294104584
 30
0.0
 10
169.8157531312605
 20
94.45410665774807
 30
0.0
 10
169.9568975334209
 20
94.27130996916023
 30
0.0
 10
170.099519413273
 20
94.09617497185167
 30
0.0
 10
170.2846124910528
 20
93.87949216535235
 30
0.0
 10
170.5188894463842
 20
93.62043829673937
 30
0.0
 10
170.7121226104208
 20
93.42393763239281
 30
0.0
 10
170.8087390641401
 20
93.32568743068811
 30
0.0
 11
170.8087390641401
 21
100.8312409301532
 31
0.0
 11
170.5209725892255
 21
100.5345013418691
 31
0.0
 11
170.2434623144076
 21
100.2281471640174
 31
0.0
 11
170.1001822694426
 21
100.0601979943364
 31
0.0
 11
169.9608239395412
 21
99.8889803282629
 31
0.0
 11
169.8166935936791
 21
99.70212114917629
 31
0.0
 11
169.678185564675
 21
99.51104333902546
 31
0.0
 11
169.5324318307568
 21
99.29456953818179
 31
0.0
 11
169.3955471898087
 21
99.07241100367064
 31
0.0
 11
169.245781448398
 21
98.79997871161282
 31
0.0
 11
169.1129088149425
 21
98.51865469923828
 31
0.0
 11
168.9387712681986
 21
98.03831403705908
 31
0.0
 11
168.8302704400762
 21
97.53935001499302
 31
0.0
 11
168.798037084712
 21
97.07846418042067
 31
0.0
 11
168.8302704400762
 21
96.61757834584829
 31
0.0
 11
168.9387712681986
 21
96.11861432378223
 31
0.0
 11
169.1129088149425
 21
95.63827366160297
 31
0.0
 11
169.245781448398
 21
95.35694964922844
 31
0.0
 11
169.3955471898087
 21
95.08451735717065
 31
0.0
 11
169.5324318307568
 21
94.8623588226595
 31
0.0
 11
169.678185564675
 21
94.64588502181582
 31
0.0
 11
169.8166935936791
 21
94.45480721166497
 31
0.0
 11
169.9608239395413
 21
94.26794803257837
 31
0.0
 11
170.1001822694427
 21
94.09673036650497
 31
0.0
 11
170.2434623144076
 21
93.92878119682392
 31
0.0
 11
170.5209725892255
 21
93.62242701897239
 31
0.0
 11
170.8087390641401
 21
93.32568743068811
 31
0.0
  0
SPLINE
  5
188
330
42
100
AcDbEntity
  8
1
  6
Continuous
 62
     7
100
AcDbSpline
210
0.0
220
0.0
230
1.0
 70
     8
 71
     3
 72
    33
 73
    29
 74
    27
 42
0.0000000001
 43
0.0000000001
 44
0.00000001
 40
0.0
 40
0.0
 40
0.0
 40
0.0
 40
0.4133569006800935
 40
0.8267148991712752
 40
1.047477429691511
 40
1.268240273686022
 40
1.504227369535054
 40
1.740225682305808
 40
2.001195139144764
 40
2.262139231592998
 40
2.573023665195203
 40
2.884147975817094
 40
3.395079514214106
 40
3.905704156215953
 40
4.367715781294277
 40
4.829727406372612
 40
5.340352048374549
 40
5.851283586771601
 40
6.162407897393427
 40
6.473292330995647
 40
6.73423642344388
 40
6.995205880282808
 40
7.231204193053534
 40
7.46719128890259
 40
7.687954132897047
 40
7.90871666341733
 40
8.322074661908504
 40
8.735431562588627
 40
8.735431562588627
 40
8.735431562588627
 40
8.735431562588627
 10
175.5476320652099
 20
70.80902693229274
 30
0.0
 10
175.6442485189292
 20
70.90727713399743
 30
0.0
 10
175.8374816829658
 20
71.1037777983439
 30
0.0
 10
176.0717586382973
 20
71.36283166695691
 30
0.0
 10
176.2568517160769
 20
71.57951447345626
 30
0.0
 10
176.3994735959292
 20
71.75464947076486
 30
0.0
 10
176.5406179980895
 20
71.9374461593527
 30
0.0
 10
176.6841263935982
 20
72.13522244265053
 30
0.0
 10
176.8254092830431
 20
72.34473848799864
 30
0.0
 10
176.9712400865323
 20
72.58103689837037
 30
0.0
 10
177.1134621967728
 20
72.83890745022397
 30
0.0
 10
177.2752884924004
 20
73.18037323414006
 30
0.0
 10
177.4284525608335
 20
73.5985800403098
 30
0.0
 10
177.5357472202065
 20
74.08316420881123
 30
0.0
 10
177.5690630044908
 20
74.56180368202529
 30
0.0
 10
177.5357472202065
 20
75.04044315523935
 30
0.0
 10
177.4284525608334
 20
75.52502732374083
 30
0.0
 10
177.2752884924005
 20
75.94323412991059
 30
0.0
 10
177.1134621967728
 20
76.2846999138267
 30
0.0
 10
176.9712400865324
 20
76.54257046568024
 30
0.0
 10
176.8254092830432
 20
76.77886887605199
 30
0.0
 10
176.6841263935982
 20
76.98838492140007
 30
0.0
 10
176.5406179980896
 20
77.18616120469793
 30
0.0
 10
176.3994735959292
 20
77.36895789328568
 30
0.0
 10
176.256851716077
 20
77.54409289059436
 30
0.0
 10
176.0717586382974
 20
77.76077569709368
 30
0.0
 10
175.8374816829659
 20
78.01982956570674
 30
0.0
 10
175.6442485189292
 20
78.21633023005319
 30
0.0
 10
175.5476320652099
 20
78.31458043175786
 30
0.0
 11
175.5476320652099
 21
70.80902693229274
 31
0.0
 11
175.8353985401245
 21
71.10576652057694
 31
0.0
 11
176.1129088149424
 21
71.41212069842851
 31
0.0
 11
176.2561888599073
 21
71.58006986810958
 31
0.0
 11
176.3955471898087
 21
71.75128753418302
 31
0.0
 11
176.5396775356709
 21
71.93814671326962
 31
0.0
 11
176.678185564675
 21
72.12922452342046
 31
0.0
 11
176.8239392985932
 21
72.34569832426416
 31
0.0
 11
176.9608239395413
 21
72.56785685877532
 31
0.0
 11
177.110589680952
 21
72.84028915083312
 31
0.0
 11
177.2434623144076
 21
73.12161316320768
 31
0.0
 11
177.4175998611515
 21
73.60195382538687
 31
0.0
 11
177.5261006892738
 21
74.10091784745289
 31
0.0
 11
177.558334044638
 21
74.56180368202527
 31
0.0
 11
177.5261006892738
 21
75.02268951659767
 31
0.0
 11
177.4175998611515
 21
75.52165353866377
 31
0.0
 11
177.2434623144076
 21
76.001994200843
 31
0.0
 11
177.110589680952
 21
76.28331821321751
 31
0.0
 11
176.9608239395413
 21
76.55575050527531
 31
0.0
 11
176.8239392985932
 21
76.77790903978647
 31
0.0
 11
176.678185564675
 21
76.99438284063015
 31
0.0
 11
176.5396775356709
 21
77.18546065078098
 31
0.0
 11
176.3955471898087
 21
77.37231982986756
 31
0.0
 11
176.2561888599074
 21
77.54353749594101
 31
0.0
 11
176.1129088149425
 21
77.71148666562209
 31
0.0
 11
175.8353985401246
 21
78.01784084347368
 31
0.0
 11
175.5476320652099
 21
78.31458043175786
 31
0.0
  0
SPLINE
  5
189
330
42
100
AcDbEntity
  8
1
  6
Continuous
 62
     7
100
AcDbSpline
210
0.0
220
0.0
230
1.0
 70
     8
 71
     3
 72
    33
 73
    29
 74
    27
 42
0.0000000001
 43
0.0000000001
 44
0.00000001
 40
0.0
 40
0.0
 40
0.0
 40
0.0
 40
0.6660942076091939
 40
1.332190222770898
 40
1.699632944385098
 40
2.067077053321466
 40
2.470589213764452
 40
2.874107007989177
 40
3.334983200372772
 40
3.795855500931683
 40
4.367402403401255
 40
4.939051291210317
 40
5.929102491977421
 40
6.919199823136938
 40
7.841546055180302
 40
8.76389228722368
 40
9.753989618383228
 40
10.74404081915035
 40
11.3156897069594
 40
11.88723660942898
 40
12.34810890998787
 40
12.80898510237146
 40
13.21250289659619
 40
13.61601505703918
 40
13.98345916597556
 40
14.35090188758969
 40
15.01699790275142
 40
15.6830921103606
 40
15.6830921103606
 40
15.6830921103606
 40
15.6830921103606
 10
175.5476320652099
 20
93.32568743068811
 30
0.0
 10
175.6455699788535
 20
93.12641115225539
 30
0.0
 10
175.8414460719108
 20
92.72785805462213
 30
0.0
 10
176.0746415382255
 20
92.21141112146401
 30
0.0
 10
176.2580203878765
 20
91.78191573927357
 30
0.0
 10
176.4010733369073
 20
91.4304244352862
 30
0.0
 10
176.5419948248164
 20
91.06514856148962
 30
0.0
 10
176.6860630660252
 20
90.66779463183106
 30
0.0
 10
176.8270804888831
 20
90.24910040804471
 30
0.0
 10
176.9737048359193
 20
89.77336371856957
 30
0.0
 10
177.1155035280594
 20
89.25769735777956
 30
0.0
 10
177.2791367242486
 20
88.56555565361825
 30
0.0
 10
177.4312123398003
 20
87.72793995001315
 30
0.0
 10
177.5361540858595
 20
86.76526483140394
 30
0.0
 10
177.56950185206
 20
85.82013393122296
 30
0.0
 10
177.5361540858595
 20
84.87500303104204
 30
0.0
 10
177.4312123398003
 20
83.91232791243277
 30
0.0
 10
177.2791367242485
 20
83.07471220882769
 30
0.0
 10
177.1155035280594
 20
82.38257050466633
 30
0.0
 10
176.9737048359192
 20
81.86690414387638
 30
0.0
 10
176.8270804888831
 20
81.39116745440123
 30
0.0
 10
176.686063066025
 20
80.97247323061491
 30
0.0
 10
176.5419948248164
 20
80.57511930095626
 30
0.0
 10
176.4010733369072
 20
80.20984342715977
 30
0.0
 10
176.2580203878765
 20
79.85835212317238
 30
0.0
 10
176.0746415382255
 20
79.4288567409819
 30
0.0
 10
175.8414460719108
 20
78.91240980782385
 30
0.0
 10
175.6455699788535
 20
78.51385671019058
 30
0.0
 10
175.5476320652099
 20
78.31458043175786
 30
0.0
 11
175.5476320652099
 21
93.32568743068811
 31
0.0
 11
175.8381720580889
 21
92.72629773612505
 31
0.0
 11
176.1129088149424
 21
92.11949989841639
 31
0.0
 11
176.2570590734447
 21
91.78151342436605
 31
0.0
 11
176.3955471898088
 21
91.44116622690737
 31
0.0
 11
176.5407109909482
 21
91.06466983321398
 31
0.0
 11
176.6781855646751
 21
90.68529224843256
 31
0.0
 11
176.8251870584553
 21
90.24848860200504
 31
0.0
 11
176.9608239395413
 21
89.80802757772283
 31
0.0
 11
177.112153188371
 21
89.25687848703029
 31
0.0
 11
177.2434623144076
 21
88.70051496885819
 31
0.0
 11
177.4196065679835
 21
87.72625905685531
 31
0.0
 11
177.5261006892738
 21
86.74190560036735
 31
0.0
 11
177.5586515990523
 21
85.82013393122298
 31
0.0
 11
177.5261006892738
 21
84.89836226207861
 31
0.0
 11
177.4196065679835
 21
83.91400880559061
 31
0.0
 11
177.2434623144075
 21
82.93975289358772
 31
0.0
 11
177.1121531883709
 21
82.38338937541563
 31
0.0
 11
176.9608239395413
 21
81.83224028472309
 31
0.0
 11
176.8251870584553
 21
81.3917792604409
 31
0.0
 11
176.678185564675
 21
80.95497561401339
 31
0.0
 11
176.5407109909482
 21
80.57559802923194
 31
0.0
 11
176.3955471898087
 21
80.19910163553855
 31
0.0
 11
176.2570590734447
 21
79.85875443807987
 31
0.0
 11
176.1129088149425
 21
79.52076796402957
 31
0.0
 11
175.8381720580889
 21
78.91397012632091
 31
0.0
 11
175.5476320652099
 21
78.31458043175786
 31
0.0
  0
SPLINE
  5
18A
330
42
100
AcDbEntity
  8
1
  6
Continuous
 62
     7
100
AcDbSpline
210
0.0
220
0.0
230
1.0
 70
     8
 71
     3
 72
    33
 73
    29
 74
    27
 42
0.0000000001
 43
0.0000000001
 44
0.00000001
 40
0.0
 40
0.0
 40
0.0
 40
0.0
 40
0.4133569006800629
 40
0.8267148991712657
 40
1.047477429691513
 40
1.268240273686035
 40
1.504227369535078
 40
1.740225682305821
 40
2.001195139144753
 40
2.262139231592986
 40
2.573023665195205
 40
2.884147975817069
 40
3.395079514214094
 40
3.905704156215984
 40
4.367715781294279
 40
4.8297274063726
 40
5.340352048374495
 40
5.851283586771573
 40
6.162407897393413
 40
6.47329233099562
 40
6.734236423443853
 40
6.995205880282781
 40
7.231204193053519
 40
7.467191288902586
 40
7.68795413289701
 40
7.908716663417272
 40
8.322074661908403
 40
8.735431562588596
 40
8.735431562588596
 40
8.735431562588596
 40
8.735431562588596
 10
175.5476320652099
 20
100.8312409301532
 30
0.0
 10
175.6442485189292
 20
100.7329907284485
 30
0.0
 10
175.8374816829659
 20
100.5364900641021
 30
0.0
 10
176.0717586382973
 20
100.2774361954891
 30
0.0
 10
176.256851716077
 20
100.0607533889896
 30
0.0
 10
176.3994735959291
 20
99.88561839168108
 30
0.0
 10
176.5406179980896
 20
99.70282170309321
 30
0.0
 10
176.6841263935981
 20
99.50504541979538
 30
0.0
 10
176.8254092830432
 20
99.29552937444731
 30
0.0
 10
176.9712400865323
 20
99.05923096407555
 30
0.0
 10
177.1134621967729
 20
98.80136041222201
 30
0.0
 10
177.2752884924004
 20
98.45989462830586
 30
0.0
 10
177.4284525608334
 20
98.04168782213615
 30
0.0
 10
177.5357472202065
 20
97.55710365363471
 30
0.0
 10
177.5690630044908
 20
97.07846418042067
 30
0.0
 10
177.5357472202066
 20
96.59982470720661
 30
0.0
 10
177.4284525608334
 20
96.11524053870514
 30
0.0
 10
177.2752884924005
 20
95.6970337325354
 30
0.0
 10
177.1134621967728
 20
95.35556794861928
 30
0.0
 10
176.9712400865323
 20
95.09769739676568
 30
0.0
 10
176.8254092830432
 20
94.86139898639404
 30
0.0
 10
176.6841263935982
 20
94.65188294104584
 30
0.0
 10
176.5406179980895
 20
94.45410665774804
 30
0.0
 10
176.3994735959291
 20
94.27130996916026
 30
0.0
 10
176.2568517160771
 20
94.09617497185162
 30
0.0
 10
176.0717586382973
 20
93.87949216535232
 30
0.0
 10
175.8374816829659
 20
93.62043829673932
 30
0.0
 10
175.6442485189292
 20
93.42393763239282
 30
0.0
 10
175.5476320652099
 20
93.32568743068811
 30
0.0
 11
175.5476320652099
 21
100.8312409301532
 31
0.0
 11
175.8353985401245
 21
100.5345013418691
 31
0.0
 11
176.1129088149424
 21
100.2281471640174
 31
0.0
 11
176.2561888599073
 21
100.0601979943364
 31
0.0
 11
176.3955471898087
 21
99.8889803282629
 31
0.0
 11
176.5396775356709
 21
99.70212114917629
 31
0.0
 11
176.678185564675
 21
99.51104333902546
 31
0.0
 11
176.8239392985932
 21
99.29456953818179
 31
0.0
 11
176.9608239395413
 21
99.07241100367064
 31
0.0
 11
177.110589680952
 21
98.79997871161282
 31
0.0
 11
177.2434623144076
 21
98.51865469923828
 31
0.0
 11
177.4175998611515
 21
98.03831403705908
 31
0.0
 11
177.5261006892738
 21
97.53935001499302
 31
0.0
 11
177.558334044638
 21
97.07846418042067
 31
0.0
 11
177.5261006892738
 21
96.61757834584829
 31
0.0
 11
177.4175998611515
 21
96.11861432378223
 31
0.0
 11
177.2434623144076
 21
95.63827366160297
 31
0.0
 11
177.110589680952
 21
95.35694964922844
 31
0.0
 11
176.9608239395413
 21
95.08451735717065
 31
0.0
 11
176.8239392985932
 21
94.8623588226595
 31
0.0
 11
176.678185564675
 21
94.64588502181582
 31
0.0
 11
176.5396775356709
 21
94.45480721166497
 31
0.0
 11
176.3955471898087
 21
94.26794803257837
 31
0.0
 11
176.2561888599074
 21
94.09673036650497
 31
0.0
 11
176.1129088149425
 21
93.92878119682392
 31
0.0
 11
175.8353985401246
 21
93.62242701897239
 31
0.0
 11
175.5476320652099
 21
93.32568743068811
 31
0.0
  0
ARC
  5
18B
330
42
100
AcDbEntity
  8
1
  6
Continuous
 62
     7
100
AcDbCircle
 10
40.88815233773906
 20
234.7379591204273
 30
0.0
 40
5.0
100
AcDbArc
 50
0.0
 51
25.8419327631657
  0
ARC
  5
18C
330
42
100
AcDbEntity
  8
1
  6
Continuous
 62
     7
100
AcDbCircle
 10
75.88815233773906
 20
234.7379591204273
 30
0.0
 40
4.999999999999989
100
AcDbArc
 50
154.1580672368331
 51
180.0
  0
ARC
  5
18D
330
42
100
AcDbEntity
  8
1
  6
Continuous
 62
     7
100
AcDbCircle
 10
125.3087390641401
 20
101.320133931223
 30
0.0
 40
5.000000000000014
100
AcDbArc
 50
-90.0
 51
0.0
  0
ARC
  5
18E
330
42
100
AcDbEntity
  8
1
  6
Continuous
 62
     7
100
AcDbCircle
 10
166.2265642533444
 20
68.32013393122298
 30
0.0
 40
4.999999999999981
100
AcDbArc
 50
44.99999999999885
 51
90.0
  0
ARC
  5
18F
330
42
100
AcDbEntity
  8
1
  6
Continuous
 62
     7
100
AcDbCircle
 10
166.2265642533444
 20
103.320133931223
 30
0.0
 40
5.000000000000014
100
AcDbArc
 50
-90.0
 51
-45.00000000000035
  0
ARC
  5
190
330
42
100
AcDbEntity
  8
1
  6
Continuous
 62
     7
100
AcDbCircle
 10
160.3087390641401
 20
103.320133931223
 30
0.0
 40
5.0
100
AcDbArc
 50
180.0
 51
-90.0
  0
ENDBLK
  5
44
330
42
100
AcDbEntity
  8
0
100
AcDbBlockEnd
  0
BLOCK
  5
46
330
45
100
AcDbEntity
  8
0
100
AcDbBlockBegin
  2
V21-2-0A-13-__________
 70
     0
 71
     0
 10
210.0
 20
594.0
 30
0.0
  3
V21-2-0A-13-__________
  1

  0
LINE
  5
191
330
45
100
AcDbEntity
  8
1
  6
Continuous
 62
     7
100
AcDbLine
 10
46.38815233773912
 20
110.8201339312229
 30
0.0
 11
46.38815233773912
 21
109.320133931223
 31
0.0
  0
LINE
  5
192
330
45
100
AcDbEntity
  8
1
  6
Continuous
 62
     2
100
AcDbLine
 10
69.57515233773913
 20
110.820133931223
 30
0.0
 11
69.57515233773913
 21
109.320133931223
 31
0.0
  0
LINE
  5
193
330
45
100
AcDbEntity
  8
1
  6
Continuous
 62
     7
100
AcDbLine
 10
52.44403033554863
 20
87.32013393122298
 30
0.0
 11
64.33227433992977
 21
87.32013393122298
 31
0.0
  0
LINE
  5
194
330
45
100
AcDbEntity
  8
1
  6
PHANTOM
 62
     4
100
AcDbLine
 10
42.38815233773912
 20
85.82013393122298
 30
0.0
 11
74.38815233773912
 21
85.82013393122298
 31
0.0
  0
LINE
  5
195
330
45
100
AcDbEntity
  8
1
  6
PHANTOM
 62
     4
100
AcDbLine
 10
58.38815233773912
 20
118.320133931223
 30
0.0
 11
58.38815233773912
 21
67.80902693229268
 31
0.0
  0
LINE
  5
196
330
45
100
AcDbEntity
  8
1
  6
Continuous
 62
     7
100
AcDbLine
 10
46.38815233773912
 20
107.9119766246695
 30
0.0
 11
70.38815233773912
 21
107.9119766246695
 31
0.0
  0
LINE
  5
197
330
45
100
AcDbEntity
  8
1
  6
Continuous
 62
     7
100
AcDbLine
 10
45.88815233773912
 20
107.4119766246695
 30
0.0
 11
70.88815233773912
 21
107.4119766246695
 31
0.0
  0
LINE
  5
198
330
45
100
AcDbEntity
  8
1
  6
Continuous
 62
     7
100
AcDbLine
 10
69.57515233773913
 20
109.320133931223
 30
0.0
 11
47.2011523377391
 21
109.320133931223
 31
0.0
  0
LINE
  5
199
330
45
100
AcDbEntity
  8
1
  6
Continuous
 62
     7
100
AcDbLine
 10
70.38815233773912
 20
109.320133931223
 30
0.0
 11
70.38815233773912
 21
110.820133931223
 31
0.0
  0
LINE
  5
19A
330
45
100
AcDbEntity
  8
1
  6
Continuous
 62
     7
100
AcDbLine
 10
69.57515233773913
 20
109.320133931223
 30
0.0
 11
70.38815233773912
 21
109.320133931223
 31
0.0
  0
LINE
  5
19B
330
45
100
AcDbEntity
  8
1
  6
Continuous
 62
     7
100
AcDbLine
 10
70.38815233773912
 20
107.9119766246695
 30
0.0
 11
70.38815233773912
 21
109.320133931223
 31
0.0
  0
LINE
  5
19C
330
45
100
AcDbEntity
  8
1
  6
Continuous
 62
     2
100
AcDbLine
 10
70.38815233773912
 20
107.9119766246695
 30
0.0
 11
69.57515233773913
 21
109.320133931223
 31
0.0
  0
LINE
  5
19D
330
45
100
AcDbEntity
  8
1
  6
Continuous
 62
     2
100
AcDbLine
 10
47.2011523377391
 20
109.320133931223
 30
0.0
 11
46.38815233773912
 21
107.9119766246695
 31
0.0
  0
LINE
  5
19E
330
45
100
AcDbEntity
  8
1
  6
Continuous
 62
     7
100
AcDbLine
 10
46.38815233773912
 20
109.320133931223
 30
0.0
 11
46.38815233773912
 21
107.9119766246695
 31
0.0
  0
LINE
  5
19F
330
45
100
AcDbEntity
  8
1
  6
Continuous
 62
     7
100
AcDbLine
 10
46.38815233773912
 20
109.320133931223
 30
0.0
 11
47.2011523377391
 21
109.320133931223
 31
0.0
  0
LINE
  5
1A0
330
45
100
AcDbEntity
  8
1
  6
Continuous
 62
     2
100
AcDbLine
 10
47.2011523377391
 20
109.320133931223
 30
0.0
 11
47.2011523377391
 21
110.8201339312229
 31
0.0
  0
LINE
  5
1A1
330
45
100
AcDbEntity
  8
1
  6
Continuous
 62
     7
100
AcDbLine
 10
71.38815233773912
 20
85.82013393122298
 30
0.0
 11
71.38815233773912
 21
78.31458043175786
 31
0.0
  0
LINE
  5
1A2
330
45
100
AcDbEntity
  8
1
  6
Continuous
 62
     7
100
AcDbLine
 10
71.38815233773912
 20
78.31458043175786
 30
0.0
 11
58.38815233773912
 21
70.80902693229268
 31
0.0
  0
LINE
  5
1A3
330
45
100
AcDbEntity
  8
1
  6
Continuous
 62
     7
100
AcDbLine
 10
58.38815233773912
 20
70.80902693229268
 30
0.0
 11
45.38815233773912
 21
78.31458043175786
 31
0.0
  0
LINE
  5
1A4
330
45
100
AcDbEntity
  8
1
  6
Continuous
 62
     7
100
AcDbLine
 10
45.38815233773912
 20
78.31458043175786
 30
0.0
 11
45.38815233773912
 21
85.82013393122298
 31
0.0
  0
LINE
  5
1A5
330
45
100
AcDbEntity
  8
1
  6
Continuous
 62
     7
100
AcDbLine
 10
71.38815233773912
 20
93.32568743068811
 30
0.0
 11
71.38815233773912
 21
85.82013393122298
 31
0.0
  0
LINE
  5
1A6
330
45
100
AcDbEntity
  8
1
  6
Continuous
 62
     7
100
AcDbLine
 10
45.38815233773912
 20
93.32568743068811
 30
0.0
 11
45.88815233773912
 21
93.61436256528288
 31
0.0
  0
LINE
  5
1A7
330
45
100
AcDbEntity
  8
1
  6
Continuous
 62
     7
100
AcDbLine
 10
45.38815233773912
 20
85.82013393122298
 30
0.0
 11
45.38815233773912
 21
93.32568743068811
 31
0.0
  0
LINE
  5
1A8
330
45
100
AcDbEntity
  8
1
  6
Continuous
 62
     7
100
AcDbLine
 10
46.38815233773912
 20
107.9119766246695
 30
0.0
 11
45.88815233773912
 21
107.4119766246695
 31
0.0
  0
LINE
  5
1A9
330
45
100
AcDbEntity
  8
1
  6
Continuous
 62
     7
100
AcDbLine
 10
45.88815233773912
 20
107.4119766246695
 30
0.0
 11
45.88815233773912
 21
85.82013393122298
 31
0.0
  0
LINE
  5
1AA
330
45
100
AcDbEntity
  8
1
  6
Continuous
 62
     7
100
AcDbLine
 10
70.38815233773912
 20
107.9119766246695
 30
0.0
 11
70.88815233773912
 21
107.4119766246695
 31
0.0
  0
LINE
  5
1AB
330
45
100
AcDbEntity
  8
1
  6
Continuous
 62
     7
100
AcDbLine
 10
70.88815233773912
 20
107.4119766246695
 30
0.0
 11
70.8881523377392
 21
85.82013393122298
 31
0.0
  0
LINE
  5
1AC
330
45
100
AcDbEntity
  8
1
  6
Continuous
 62
     7
100
AcDbLine
 10
70.88815233773912
 20
93.61436256528288
 30
0.0
 11
71.38815233773912
 21
93.32568743068811
 31
0.0
  0
ARC
  5
1AD
330
45
100
AcDbEntity
  8
1
  6
Continuous
 62
     7
100
AcDbCircle
 10
58.38815233773912
 20
85.82013393122298
 30
0.0
 40
12.75
100
AcDbArc
 50
168.6351230329663
 51
0.0
  0
ARC
  5
1AE
330
45
100
AcDbEntity
  8
1
  6
Continuous
 62
     7
100
AcDbCircle
 10
58.38815233773912
 20
85.82013393122298
 30
0.0
 40
12.74999999999999
100
AcDbArc
 50
0.0
 51
11.36487696703189
  0
ARC
  5
1AF
330
45
100
AcDbEntity
  8
1
  6
Continuous
 62
     7
100
AcDbCircle
 10
58.38815233773912
 20
85.82013393122298
 30
0.0
 40
12.5
100
AcDbArc
 50
180.0
 51
0.0
  0
ENDBLK
  5
47
330
45
100
AcDbEntity
  8
0
100
AcDbBlockEnd
  0
BLOCK
  5
1D6
330
1CF
100
AcDbEntity
  8
0
100
AcDbBlockBegin
  2
*D07
 70
     1
 71
     0
 10
0.0
 20
0.0
 30
0.0
  3
*D07
  1

  0
LINE
  5
1D0
330
1CF
100
AcDbEntity
  8
1
  6
Continuous
 62
     2
100
AcDbLine
 10
96.3087390641401
 20
85.8201339312229
 30
0.0
 11
96.3087390641401
 21
127.3201339312231
 31
0.0
  0
LINE
  5
1D1
330
1CF
100
AcDbEntity
  8
1
  6
Continuous
 62
     2
100
AcDbLine
 10
103.3087390641401
 20
85.8201339312229
 30
0.0
 11
95.3087390641401
 21
85.8201339312229
 31
0.0
  0
LINE
  5
1D2
330
1CF
100
AcDbEntity
  8
1
  6
Continuous
 62
     2
100
AcDbLine
 10
139.0587390641403
 20
127.3201339312231
 30
0.0
 11
95.3087390641401
 21
127.3201339312231
 31
0.0
  0
SOLID
  5
1D3
330
1CF
100
AcDbEntity
  8
1
 62
     2
100
AcDbTrace
 10
95.84795532258421
 20
89.3201339312229
 30
0.0
 11
96.76952280569599
 21
89.3201339312229
 31
0.0
 12
96.3087390641401
 22
85.8201339312229
 32
0.0
 13
96.3087390641401
 23
85.8201339312229
 33
0.0
  0
SOLID
  5
1D4
330
1CF
100
AcDbEntity
  8
1
 62
     2
100
AcDbTrace
 10
96.76952280569599
 20
123.8201339312231
 30
0.0
 11
95.84795532258421
 21
123.8201339312231
 31
0.0
 12
96.3087390641401
 22
127.3201339312231
 32
0.0
 13
96.3087390641401
 23
127.3201339312231
 33
0.0
  0
MTEXT
  5
1D5
330
1CF
100
AcDbEntity
  8
1
 62
     7
100
AcDbMText
 10
95.3087390641401
 20
97.120133931223
 30
0.0
 40
3.5
 41
0.0
 71
     7
 72
     1
  1
42リフト5
  7
CONVERTER_1
 11
0.0
 21
1.0
 31
0.0
 73
     1
 44
0.60024009603842
  0
ENDBLK
  5
1D7
330
1CF
100
AcDbEntity
  8
0
100
AcDbBlockEnd
  0
BLOCK
  5
1E1
330
1DA
100
AcDbEntity
  8
0
100
AcDbBlockBegin
  2
*D18
 70
     1
 71
     0
 10
0.0
 20
0.0
 30
0.0
  3
*D18
  1

  0
LINE
  5
1DB
330
1DA
100
AcDbEntity
  8
1
  6
Continuous
 62
     2
100
AcDbLine
 10
112.80873906414
 20
60.80902693229263
 30
0.0
 11
142.80873906414
 21
60.80902693229263
 31
0.0
  0
LINE
  5
1DC
330
1DA
100
AcDbEntity
  8
1
  6
Continuous
 62
     2
100
AcDbLine
 10
142.8087390641401
 20
67.80902693229251
 30
0.0
 11
142.8087390641401
 21
59.80902693229263
 31
0.0
  0
LINE
  5
1DD
330
1DA
100
AcDbEntity
  8
1
  6
Continuous
 62
     2
100
AcDbLine
 10
112.8087390641401
 20
73.33055512294121
 30
0.0
 11
112.8087390641401
 21
59.80902693229263
 31
0.0
  0
SOLID
  5
1DE
330
1DA
100
AcDbEntity
  8
1
 62
     2
100
AcDbTrace
 10
116.30873906414
 20
61.26981067384852
 30
0.0
 11
116.30873906414
 21
60.34824319073675
 31
0.0
 12
112.80873906414
 22
60.80902693229263
 32
0.0
 13
112.80873906414
 23
60.80902693229263
 33
0.0
  0
SOLID
  5
1DF
330
1DA
100
AcDbEntity
  8
1
 62
     2
100
AcDbTrace
 10
139.30873906414
 20
60.34824319073675
 30
0.0
 11
139.30873906414
 21
61.26981067384852
 31
0.0
 12
142.80873906414
 22
60.80902693229263
 32
0.0
 13
142.80873906414
 23
60.80902693229263
 33
0.0
  0
MTEXT
  5
1E0
330
1DA
100
AcDbEntity
  8
1
 62
     7
100
AcDbMText
 10
125.1837390641401
 20
61.80902693229263
 30
0.0
 40
3.5
 41
0.0
 71
     7
 72
     1
  1
30
  7
CONVERTER_2
 11
0.9999999999970621
 21
2.424068405545307E-6
 31
0.0
 73
     1
 44
0.60024009603842
  0
ENDBLK
  5
1E2
330
1DA
100
AcDbEntity
  8
0
100
AcDbBlockEnd
  0
BLOCK
  5
1EC
330
1E5
100
AcDbEntity
  8
0
100
AcDbBlockBegin
  2
*D29
 70
     1
 71
     0
 10
0.0
 20
0.0
 30
0.0
  3
*D29
  1

  0
LINE
  5
1E6
330
1E5
100
AcDbEntity
  8
1
  6
Continuous
 62
     2
100
AcDbLine
 10
142.8087390641401
 20
60.80902693229274
 30
0.0
 11
177.8087390641401
 21
60.80902693229274
 31
0.0
  0
LINE
  5
1E7
330
1E5
100
AcDbEntity
  8
1
  6
Continuous
 62
     2
100
AcDbLine
 10
142.8087390641401
 20
70.32013393122298
 30
0.0
 11
142.8087390641401
 21
59.80902693229274
 31
0.0
  0
LINE
  5
1E8
330
1E5
100
AcDbEntity
  8
1
  6
Continuous
 62
     2
100
AcDbLine
 10
177.8087390641401
 20
73.07013393122298
 30
0.0
 11
177.8087390641401
 21
59.80902693229274
 31
0.0
  0
SOLID
  5
1E9
330
1E5
100
AcDbEntity
  8
1
 62
     2
100
AcDbTrace
 10
146.3087390641401
 20
61.26981067384863
 30
0.0
 11
146.3087390641401
 21
60.34824319073685
 31
0.0
 12
142.8087390641401
 22
60.80902693229274
 32
0.0
 13
142.8087390641401
 23
60.80902693229274
 33
0.0
  0
SOLID
  5
1EA
330
1E5
100
AcDbEntity
  8
1
 62
     2
100
AcDbTrace
 10
174.3087390641401
 20
60.34824319073685
 30
0.0
 11
174.3087390641401
 21
61.26981067384863
 31
0.0
 12
177.8087390641401
 22
60.80902693229274
 32
0.0
 13
177.8087390641401
 23
60.80902693229274
 33
0.0
  0
MTEXT
  5
1EB
330
1E5
100
AcDbEntity
  8
1
 62
     7
100
AcDbMText
 10
157.258120291181
 20
61.80902693229274
 30
0.0
 40
3.5
 41
0.0
 71
     7
 72
     1
  1
35
  7
CONVERTER_2
 11
0.9999999999970621
 21
2.424068405545307E-6
 31
0.0
 73
     1
 44
0.60024009603842
  0
ENDBLK
  5
1ED
330
1E5
100
AcDbEntity
  8
0
100
AcDbBlockEnd
  0
BLOCK
  5
1F7
330
1F0
100
AcDbEntity
  8
0
100
AcDbBlockBegin
  2
*D310
 70
     1
 71
     0
 10
0.0
 20
0.0
 30
0.0
  3
*D310
  1

  0
LINE
  5
1F1
330
1F0
100
AcDbEntity
  8
1
  6
Continuous
 62
     2
100
AcDbLine
 10
45.38815233773906
 20
256.3201339312229
 30
0.0
 11
71.38815233773906
 21
256.3201339312229
 31
0.0
  0
LINE
  5
1F2
330
1F0
100
AcDbEntity
  8
1
  6
Continuous
 62
     2
100
AcDbLine
 10
45.38815233773906
 20
246.0701339312229
 30
0.0
 11
45.38815233773906
 21
257.3201339312229
 31
0.0
  0
LINE
  5
1F3
330
1F0
100
AcDbEntity
  8
1
  6
Continuous
 62
     2
100
AcDbLine
 10
71.38815233773906
 20
246.0701339312229
 30
0.0
 11
71.38815233773906
 21
257.3201339312229
 31
0.0
  0
SOLID
  5
1F4
330
1F0
100
AcDbEntity
  8
1
 62
     2
100
AcDbTrace
 10
48.88815233773906
 20
256.7809176727788
 30
0.0
 11
48.88815233773906
 21
255.8593501896671
 31
0.0
 12
45.38815233773906
 22
256.3201339312229
 32
0.0
 13
45.38815233773906
 23
256.3201339312229
 33
0.0
  0
SOLID
  5
1F5
330
1F0
100
AcDbEntity
  8
1
 62
     2
100
AcDbTrace
 10
67.88815233773906
 20
255.8593501896671
 30
0.0
 11
67.88815233773906
 21
256.7809176727788
 31
0.0
 12
71.38815233773906
 22
256.3201339312229
 32
0.0
 13
71.38815233773906
 23
256.3201339312229
 33
0.0
  0
MTEXT
  5
1F6
330
1F0
100
AcDbEntity
  8
1
 62
     7
100
AcDbMText
 10
55.8999556966414
 20
257.3201339312229
 30
0.0
 40
3.5
 41
0.0
 71
     7
 72
     1
  1
26
  7
CONVERTER_2
 11
0.9999999999970621
 21
2.424068405545307E-6
 31
0.0
 73
     1
 44
0.60024009603842
  0
ENDBLK
  5
1F8
330
1F0
100
AcDbEntity
  8
0
100
AcDbBlockEnd
  0
BLOCK
  5
202
330
1FB
100
AcDbEntity
  8
0
100
AcDbBlockBegin
  2
*D411
 70
     1
 71
     0
 10
0.0
 20
0.0
 30
0.0
  3
*D411
  1

  0
LINE
  5
1FC
330
1FB
100
AcDbEntity
  8
1
  6
Continuous
 62
     2
100
AcDbLine
 10
106.3087390641401
 20
52.80902693229274
 30
0.0
 11
177.8087390641401
 21
52.80902693229274
 31
0.0
  0
LINE
  5
1FD
330
1FB
100
AcDbEntity
  8
1
  6
Continuous
 62
     2
100
AcDbLine
 10
177.8087390641401
 20
73.07013393122298
 30
0.0
 11
177.8087390641401
 21
51.80902693229274
 31
0.0
  0
LINE
  5
1FE
330
1FB
100
AcDbEntity
  8
1
  6
Continuous
 62
     2
100
AcDbLine
 10
106.3087390641401
 20
74.92782908580972
 30
0.0
 11
106.3087390641401
 21
51.80902693229274
 31
0.0
  0
SOLID
  5
1FF
330
1FB
100
AcDbEntity
  8
1
 62
     2
100
AcDbTrace
 10
109.8087390641401
 20
53.26981067384863
 30
0.0
 11
109.8087390641401
 21
52.34824319073685
 31
0.0
 12
106.3087390641401
 22
52.80902693229274
 32
0.0
 13
106.3087390641401
 23
52.80902693229274
 33
0.0
  0
SOLID
  5
200
330
1FB
100
AcDbEntity
  8
1
 62
     2
100
AcDbTrace
 10
174.3087390641401
 20
52.34824319073685
 30
0.0
 11
174.3087390641401
 21
53.26981067384863
 31
0.0
 12
177.8087390641401
 22
52.80902693229274
 32
0.0
 13
177.8087390641401
 23
52.80902693229274
 33
0.0
  0
MTEXT
  5
201
330
1FB
100
AcDbEntity
  8
1
 62
     7
100
AcDbMText
 10
140.492905299561
 20
53.80902693229274
 30
0.0
 40
3.5
 41
0.0
 71
     7
 72
     1
  1
72
  7
CONVERTER_2
 11
0.9999999999970621
 21
2.424068405545307E-6
 31
0.0
 73
     1
 44
0.60024009603842
  0
ENDBLK
  5
203
330
1FB
100
AcDbEntity
  8
0
100
AcDbBlockEnd
  0
ENDSEC
  0
SECTION
  2
ENTITIES
  0
INSERT
  5
48
330
1F
100
AcDbEntity
  8
1
100
AcDbBlockReference
  2
_J__A4
 10
0.0
 20
0.0
 30
0.0
  0
INSERT
  5
49
330
1F
100
AcDbEntity
  8
0
100
AcDbBlockReference
  2
32-12-M2
 10
305.4918338093335
 20
107.0440085943921
 30
0.0
  0
INSERT
  5
4A
330
1F
100
AcDbEntity
  8
1
100
AcDbBlockReference
  2
37-1-13
 10
334.1920769040352
 20
168.5453826608498
 30
0.0
  0
INSERT
  5
4B
330
1F
100
AcDbEntity
  8
1
100
AcDbBlockReference
  2
36-45
 10
48.65519959247681
 20
-69.5341935349111
 30
0.0
  0
INSERT
  5
4C
330
1F
100
AcDbEntity
  8
1
100
AcDbBlockReference
  2
V21-2-0A
 10
200.0
 20
445.5
 30
0.0
  0
INSERT
  5
4D
330
1F
100
AcDbEntity
  8
1
100
AcDbBlockReference
  2
V21-2-0A-13-__________
 10
210.0
 20
594.0
 30
0.0
  0
LINE
  5
1B0
330
1F
100
AcDbEntity
  8
1
  6
Continuous
 62
     7
100
AcDbLine
 10
94.73167440900234
 20
136.5529528688746
 30
0.0
 11
97.82972925045137
 21
136.5529528688747
 31
0.0
  0
LINE
  5
1B1
330
1F
100
AcDbEntity
  8
1
  6
Continuous
 62
     7
100
AcDbLine
 10
94.73167440900234
 20
137.182635557375
 30
0.0
 11
94.73167440900234
 21
136.5529528688746
 31
0.0
  0
LINE
  5
1B2
330
1F
100
AcDbEntity
  8
1
  6
Continuous
 62
     7
100
AcDbLine
 10
90.36405711824939
 20
135.5929528688746
 30
0.0
 11
94.73167440900234
 21
137.182635557375
 31
0.0
  0
LINE
  5
1B3
330
1F
100
AcDbEntity
  8
1
  6
Continuous
 62
     7
100
AcDbLine
 10
94.73167440900234
 20
134.0032701803742
 30
0.0
 11
90.36405711824939
 21
135.5929528688746
 31
0.0
  0
LINE
  5
1B4
330
1F
100
AcDbEntity
  8
1
  6
Continuous
 62
     7
100
AcDbLine
 10
94.73167440900234
 20
134.6329528688746
 30
0.0
 11
94.73167440900234
 21
134.0032701803742
 31
0.0
  0
LINE
  5
1B5
330
1F
100
AcDbEntity
  8
1
  6
Continuous
 62
     7
100
AcDbLine
 10
97.82972925045137
 20
134.6329528688746
 30
0.0
 11
94.73167440900234
 21
134.6329528688746
 31
0.0
  0
LINE
  5
1B6
330
1F
100
AcDbEntity
  8
1
  6
Continuous
 62
     7
100
AcDbLine
 10
97.82972925045137
 20
136.5529528688747
 30
0.0
 11
97.82972925045137
 21
134.6329528688746
 31
0.0
  0
LINE
  5
1B7
330
1F
100
AcDbEntity
  8
1
  6
DASH_CENTER
 62
     2
100
AcDbLine
 10
103.3087390641401
 20
85.82013393122298
 30
0.0
 11
180.8087390641401
 21
85.82013393122298
 31
0.0
  0
LINE
  5
1B8
330
1F
100
AcDbEntity
  8
0
  6
DASH_CENTER
 62
     2
100
AcDbLine
 10
58.38815233773912
 20
171.820133931223
 30
0.0
 11
58.38815233773912
 21
249.3549405872465
 31
0.0
  0
LINE
  5
1B9
330
1F
100
AcDbEntity
  8
1
  6
DASH_CENTER
 62
     2
100
AcDbLine
 10
142.8087390641401
 20
130.820133931223
 30
0.0
 11
142.8087390641401
 21
83.82013393122298
 31
0.0
  0
LINE
  5
1BA
330
1F
100
AcDbEntity
  8
1
  6
Continuous
 62
     7
100
AcDbLine
 10
142.8087390641401
 20
72.77558402192057
 30
0.0
 11
142.8087390641401
 21
72.62641315896467
 31
0.0
  0
LINE
  5
1BB
330
1F
100
AcDbEntity
  8
1
  6
DASH_CENTER
 62
     2
100
AcDbLine
 10
41.95843874977493
 20
211.320133931223
 30
0.0
 11
74.8320889030345
 21
211.320133931223
 31
0.0
  0
LINE
  5
1BC
330
1F
100
AcDbEntity
  8
1
  6
DASH_CENTER
 62
     2
100
AcDbLine
 10
58.38815233773912
 20
130.820133931223
 30
0.0
 11
58.38815233773912
 21
67.80902693229251
 31
0.0
  0
LINE
  5
1BD
330
1F
100
AcDbEntity
  8
1
  6
DASH_CENTER
 62
     2
100
AcDbLine
 10
42.38815233773909
 20
85.82013393122298
 30
0.0
 11
74.38815233773931
 21
85.82013393122298
 31
0.0
  0
LINE
  5
1BE
330
1F
100
AcDbEntity
  8
1
  6
DASH_CENTER
 62
     2
100
AcDbLine
 10
142.8087390641401
 20
83.82013393122298
 30
0.0
 11
142.8087390641401
 21
67.80902693229251
 31
0.0
  0
SOLID
  5
1BF
330
1F
100
AcDbEntity
  8
1
 62
     2
100
AcDbTrace
 10
72.23910191190089
 20
103.9916568389585
 30
0.0
 11
73.03720276357736
 21
103.5308730974026
 31
0.0
 12
70.88815233773912
 22
100.730176054935
 32
0.0
 13
70.88815233773912
 23
100.730176054935
 33
0.0
  0
LEADER
  5
1C0
330
1F
100
AcDbEntity
  8
1
  6
Continuous
 62
     2
100
AcDbLeader
  3
Standard
 71
     0
 76
     3
 10
70.88815233773912
 20
100.730176054935
 30
0.0
 10
89.28413510839609
 20
132.5929528688746
 30
0.0
 10
99.53791399429464
 20
132.5929528688746
 30
0.0
  0
SOLID
  5
1C1
330
1F
100
AcDbEntity
  8
1
 62
     2
100
AcDbTrace
 10
117.9096886383019
 20
99.12083097369056
 30
0.0
 11
118.7077894899783
 21
99.58161471524645
 31
0.0
 12
120.0587390641401
 22
96.32013393122297
 32
0.0
 13
120.0587390641401
 23
96.32013393122297
 33
0.0
  0
LEADER
  5
1C2
330
1F
100
AcDbEntity
  8
1
  6
Continuous
 62
     2
100
AcDbLeader
  3
Standard
 71
     0
 76
     3
 10
120.0587390641401
 20
96.32013393122297
 30
0.0
 10
114.9354948960129
 20
105.1938531300003
 30
0.0
 10
101.133498698113
 20
105.1938531300003
 30
0.0
  0
SOLID
  5
1C3
330
1F
100
AcDbEntity
  8
1
 62
     2
100
AcDbTrace
 10
179.1596886383018
 20
99.55911471524642
 30
0.0
 11
179.9577894899783
 21
99.09833097369054
 31
0.0
 12
177.80873906414
 22
96.29763393122295
 32
0.0
 13
177.80873906414
 23
96.29763393122295
 33
0.0
  0
LEADER
  5
1C4
330
1F
100
AcDbEntity
  8
1
  6
Continuous
 62
     2
100
AcDbLeader
  3
Standard
 71
     0
 76
     3
 10
177.80873906414
 20
96.29763393122295
 30
0.0
 10
184.8817840018309
 20
108.5485071275215
 30
0.0
 10
169.200253778754
 20
108.5485071275215
 30
0.0
  0
MTEXT
  5
1C6
330
1F
100
AcDbEntity
  8
0
 62
     7
100
AcDbMText
 10
93.75
 20
17.00000000000001
 30
0.0
 40
3.5
 41
0.0
 71
     5
 72
     1
  1
1
  7
CONVERTER_2
 73
     1
 44
0.7202881152461
  0
MTEXT
  5
1C7
330
1F
100
AcDbEntity
  8
0
 62
     7
100
AcDbMText
 10
85.25
 20
17.00000000000001
 30
0.0
 40
3.5
 41
0.0
 71
     5
 72
     1
  1
1
  7
CONVERTER_2
 73
     1
 44
0.7202881152461
  0
MTEXT
  5
1C8
330
1F
100
AcDbEntity
  8
1
 62
     7
100
AcDbMText
 10
34.0
 20
37.5
 30
0.0
 40
3.5
 41
0.0
 71
     4
 72
     1
  1
JIS
  7
CONVERTER_2
 73
     1
 44
0.7202881152461
  0
MTEXT
  5
1C9
330
1F
100
AcDbEntity
  8
1
 62
     7
100
AcDbMText
 10
57.0
 20
14.25
 30
0.0
 40
3.5
 41
0.0
 71
     5
 72
     1
  1
V210AD-2-13
  7
CONVERTER_2
 73
     1
 44
0.7202881152461
  0
MTEXT
  5
1CA
330
1F
100
AcDbEntity
  8
0
 62
     7
100
AcDbMText
 10
177.0410188902925
 20
111.5485071275215
 30
0.0
 40
3.5
 41
0.0
 71
     5
 72
     1
  1
Rc1/2
  7
CONVERTER_2
 73
     1
 44
1.32052821128451
  0
MTEXT
  5
1CB
330
1F
100
AcDbEntity
  8
1
 62
     7
100
AcDbMText
 10
108.0344967970629
 20
108.1938531300003
 30
0.0
 40
3.5
 41
0.0
 71
     5
 72
     1
  1
PJ1/2
  7
CONVERTER_2
 73
     1
 44
1.32052821128451
  0
MTEXT
  5
1CC
330
1F
100
AcDbEntity
  8
1
 62
     7
100
AcDbMText
 10
57.0
 20
24.75000000000001
 30
0.0
 40
3.5
 41
0.0
 71
     5
 72
     1
  1
D式化粧バルブ2型
  7
CONVERTER_1
 73
     1
 44
0.78031212484994
  0
MTEXT
  5
1CD
330
1F
100
AcDbEntity
  8
1
 62
     7
100
AcDbMText
 10
57.0
 20
20.75000000000001
 30
0.0
 40
3.5
 41
0.0
 71
     5
 72
     1
  1
(ナット付)
  7
CONVERTER_1
 73
     1
 44
0.78031212484994
  0
MTEXT
  5
1CE
330
1F
100
AcDbEntity
  8
1
 62
     7
100
AcDbMText
 10
34.0
 20
30.50000000000001
 30
0.0
 40
3.5
 41
0.0
 71
     4
 72
     1
  1
共用形
  7
CONVERTER_1
 73
     1
 44
0.7202881152461
  0
DIMENSION
  5
1D9
330
1F
100
AcDbEntity
  8
1
100
AcDbDimension
  2
*D07
 10
96.3087390641401
 20
85.8201339312229
 30
0.0
 11
93.5587390641401
 21
106.570133931223
 31
0.0
  1
42リフト5
 71
     5
 42
0.0
 53
90.0
  3
ME10_DIM_0
100
AcDbAlignedDimension
 13
139.0587390641403
 23
127.3201339312232
 33
0.0
 14
103.3087390641401
 24
85.82013393122298
 34
0.0
 50
90.0
100
AcDbRotatedDimension
  0
DIMENSION
  5
1E4
330
1F
100
AcDbEntity
  8
1
100
AcDbDimension
  2
*D18
 10
112.80873906414
 20
60.80902693229263
 30
0.0
 11
127.8087390641401
 21
63.55902693229263
 31
0.0
  1
<>
 71
     5
 42
0.0
 53
0.00013888888889
  3
ME10_DIM_1
100
AcDbAlignedDimension
 13
142.8087390641401
 23
67.80902693229251
 33
0.0
 14
112.8087390641401
 24
73.33055512294121
 34
0.0
100
AcDbRotatedDimension
  0
DIMENSION
  5
1EF
330
1F
100
AcDbEntity
  8
1
100
AcDbDimension
  2
*D29
 10
142.8087390641401
 20
60.80902693229274
 30
0.0
 11
159.883120291181
 21
63.55902693229274
 31
0.0
  1
<>
 71
     5
 42
0.0
 53
0.00013888888889
  3
ME10_DIM_2
100
AcDbAlignedDimension
 13
177.8087390641401
 23
73.07013393122298
 33
0.0
 14
142.8087390641401
 24
70.32013393122298
 34
0.0
100
AcDbRotatedDimension
  0
DIMENSION
  5
1FA
330
1F
100
AcDbEntity
  8
1
100
AcDbDimension
  2
*D310
 10
45.38815233773906
 20
256.3201339312229
 30
0.0
 11
58.5249556966414
 21
259.0701339312229
 31
0.0
  1
<>
 71
     5
 42
0.0
 53
0.00013888888889
  3
ME10_DIM_3
100
AcDbAlignedDimension
 13
71.38815233773906
 23
246.070133931223
 33
0.0
 14
45.38815233773906
 24
246.070133931223
 34
0.0
100
AcDbRotatedDimension
  0
DIMENSION
  5
205
330
1F
100
AcDbEntity
  8
1
100
AcDbDimension
  2
*D411
 10
106.3087390641401
 20
52.80902693229274
 30
0.0
 11
143.117905299561
 21
55.55902693229274
 31
0.0
  1
72
 71
     5
 42
0.0
 53
0.00013888888889
  3
ME10_DIM_4
100
AcDbAlignedDimension
 13
177.8087390641401
 23
73.07013393122298
 33
0.0
 14
106.3087390641401
 24
74.92782908580972
 34
0.0
100
AcDbRotatedDimension
  0
ENDSEC
  0
SECTION
  2
OBJECTS
  0
DICTIONARY
  5
C
330
0
100
AcDbDictionary
281
     1
  3
ACAD_GROUP
350
D
  3
ACAD_LAYOUT
350
1A
  3
ACAD_MLINESTYLE
350
17
  3
ACAD_PLOTSETTINGS
350
19
  3
ACAD_PLOTSTYLENAME
350
E
  3
ACAD_TABLESTYLE
350
2A
  3
AcDbVariableDictionary
350
2C
  0
DICTIONARY
  5
D
102
{ACAD_REACTORS
330
C
102
}
330
C
100
AcDbDictionary
281
     1
  0
DICTIONARY
  5
1A
102
{ACAD_REACTORS
330
C
102
}
330
C
100
AcDbDictionary
281
     1
  3
Layout1
350
1E
  3
Layout2
350
26
  3
Model
350
22
  0
DICTIONARY
  5
17
102
{ACAD_REACTORS
330
C
102
}
330
C
100
AcDbDictionary
281
     1
  3
Standard
350
18
  0
DICTIONARY
  5
19
102
{ACAD_REACTORS
330
C
102
}
330
C
100
AcDbDictionary
281
     1
  0
ACDBDICTIONARYWDFLT
  5
E
102
{ACAD_REACTORS
330
C
102
}
330
C
100
AcDbDictionary
281
     1
  3
Normal
350
F
100
AcDbDictionaryWithDefault
340
F
  0
DICTIONARY
  5
2A
102
{ACAD_REACTORS
330
C
102
}
330
C
100
AcDbDictionary
281
     1
  3
Standard
350
2B
  0
DICTIONARY
  5
2C
102
{ACAD_REACTORS
330
C
102
}
330
C
100
AcDbDictionary
281
     1
  3
CTABLESTYLE
350
2D
  0
LAYOUT
  5
1E
102
{ACAD_REACTORS
330
1A
102
}
330
1A
100
AcDbPlotSettings
  1

  2

  4

  6

 40
0.0
 41
0.0
 42
0.0
 43
0.0
 44
0.0
 45
0.0
 46
0.0
 47
0.0
 48
0.0
 49
0.0
140
0.0
141
0.0
142
1.0
143
1.0
 70
   688
 72
     0
 73
     0
 74
     5
  7

 75
    16
147
1.0
148
0.0
149
0.0
100
AcDbLayout
  1
Layout1
 70
     1
 71
     1
 10
0.0
 20
0.0
 11
12.0
 21
9.0
 12
0.0
 22
0.0
 32
0.0
 14
1.00000000000000E+20
 24
1.00000000000000E+20
 34
1.00000000000000E+20
 15
-1.00000000000000E+20
 25
-1.00000000000000E+20
 35
-1.00000000000000E+20
146
0.0
 13
0.0
 23
0.0
 33
0.0
 16
1.0
 26
0.0
 36
0.0
 17
0.0
 27
1.0
 37
0.0
 76
     0
330
1B
  0
LAYOUT
  5
26
102
{ACAD_REACTORS
330
1A
102
}
330
1A
100
AcDbPlotSettings
  1

  2

  4

  6

 40
0.0
 41
0.0
 42
0.0
 43
0.0
 44
0.0
 45
0.0
 46
0.0
 47
0.0
 48
0.0
 49
0.0
140
0.0
141
0.0
142
1.0
143
1.0
 70
   688
 72
     0
 73
     0
 74
     5
  7

 75
    16
147
1.0
148
0.0
149
0.0
100
AcDbLayout
  1
Layout2
 70
     1
 71
     2
 10
0.0
 20
0.0
 11
0.0
 21
0.0
 12
0.0
 22
0.0
 32
0.0
 14
0.0
 24
0.0
 34
0.0
 15
0.0
 25
0.0
 35
0.0
146
0.0
 13
0.0
 23
0.0
 33
0.0
 16
1.0
 26
0.0
 36
0.0
 17
0.0
 27
1.0
 37
0.0
 76
     0
330
23
  0
LAYOUT
  5
22
102
{ACAD_REACTORS
330
1A
102
}
330
1A
100
AcDbPlotSettings
  1

  2

  4

  6

 40
0.0
 41
0.0
 42
0.0
 43
0.0
 44
0.0
 45
0.0
 46
0.0
 47
0.0
 48
0.0
 49
0.0
140
0.0
141
0.0
142
1.0
143
1.0
 70
  1712
 72
     0
 73
     0
 74
     0
  7

 75
     0
147
1.0
148
0.0
149
0.0
100
AcDbLayout
  1
Model
 70
     1
 71
     0
 10
0.0
 20
0.0
 11
0.0
 21
0.0
 12
0.0
 22
0.0
 32
0.0
 14
0.0
 24
0.0
 34
0.0
 15
210.0
 25
297.0
 35
0.0
146
0.0
 13
0.0
 23
0.0
 33
0.0
 16
1.0
 26
0.0
 36
0.0
 17
0.0
 27
1.0
 37
0.0
 76
     0
330
1F
  0
MLINESTYLE
  5
18
102
{ACAD_REACTORS
330
17
102
}
330
17
100
AcDbMlineStyle
  2
Standard
 70
     0
  3

 62
   256
 51
90.0
 52
90.0
 71
     2
 49
0.5
 62
   256
  6
BYLAYER
 49
-0.5
 62
   256
  6
BYLAYER
  0
ACDBPLACEHOLDER
  5
F
102
{ACAD_REACTORS
330
E
102
}
330
E
  0
TABLESTYLE
  5
2B
102
{ACAD_REACTORS
330
2A
102
}
330
2A
100
AcDbTableStyle
  3
Standard
 70
     0
 71
     0
 40
0.06
 41
0.06
280
     0
281
     0
  7
Standard
140
0.18
170
     2
 62
     0
 63
     7
283
     0
274
    -2
284
     1
 64
     0
275
    -2
285
     1
 65
     0
276
    -2
286
     1
 66
     0
277
    -2
287
     1
 67
     0
278
    -2
288
     1
 68
     0
279
    -2
289
     1
 69
     0
  7
Standard
140
0.25
170
     5
 62
     0
 63
     7
283
     0
274
    -2
284
     1
 64
     0
275
    -2
285
     1
 65
     0
276
    -2
286
     1
 66
     0
277
    -2
287
     1
 67
     0
278
    -2
288
     1
 68
     0
279
    -2
289
     1
 69
     0
  7
Standard
140
0.18
170
     5
 62
     0
 63
     7
283
     0
274
    -2
284
     1
 64
     0
275
    -2
285
     1
 65
     0
276
    -2
286
     1
 66
     0
277
    -2
287
     1
 67
     0
278
    -2
288
     1
 68
     0
279
    -2
289
     1
 69
     0
  0
DICTIONARYVAR
  5
2D
102
{ACAD_REACTORS
330
2C
102
}
330
2C
100
DictionaryVariables
280
     0
  1
Standard
  0
ENDSEC
  0
EOF
