  0
SECTION
  2
HEADER
  9
$ACADVER
  1
AC1015
  9
$ACADMAINTVER
 70
     6
  9
$DWGCODEPAGE
  3
ANSI_932
  9
$INSBASE
 10
0.0
 20
0.0
 30
0.0
  9
$EXTMIN
 10
0.0
 20
0.0
 30
0.0
  9
$EXTMAX
 10
210.0
 20
297.0
 30
0.0
  9
$LIMMIN
 10
0.0
 20
0.0
  9
$LIMMAX
 10
12.0
 20
9.0
  9
$ORTHOMODE
 70
     0
  9
$REGENMODE
 70
     1
  9
$FILLMODE
 70
     1
  9
$QTEXTMODE
 70
     0
  9
$MIRRTEXT
 70
     1
  9
$LTSCALE
 40
1.0
  9
$ATTMODE
 70
     1
  9
$TEXTSIZE
 40
0.2
  9
$TRACEWID
 40
0.05
  9
$TEXTSTYLE
  7
Standard
  9
$CLAYER
  8
0
  9
$CELTYPE
  6
ByLayer
  9
$CECOLOR
 62
   256
  9
$CELTSCALE
 40
1.0
  9
$DISPSILH
 70
     0
  9
$DIMSCALE
 40
1.0
  9
$DIMASZ
 40
0.18
  9
$DIMEXO
 40
0.0625
  9
$DIMDLI
 40
0.38
  9
$DIMRND
 40
0.0
  9
$DIMDLE
 40
0.0
  9
$DIMEXE
 40
0.18
  9
$DIMTP
 40
0.0
  9
$DIMTM
 40
0.0
  9
$DIMTXT
 40
0.18
  9
$DIMCEN
 40
0.09
  9
$DIMTSZ
 40
0.0
  9
$DIMTOL
 70
     0
  9
$DIMLIM
 70
     0
  9
$DIMTIH
 70
     1
  9
$DIMTOH
 70
     1
  9
$DIMSE1
 70
     0
  9
$DIMSE2
 70
     0
  9
$DIMTAD
 70
     0
  9
$DIMZIN
 70
     0
  9
$DIMBLK
  1

  9
$DIMASO
 70
     1
  9
$DIMSHO
 70
     1
  9
$DIMPOST
  1

  9
$DIMAPOST
  1

  9
$DIMALT
 70
     0
  9
$DIMALTD
 70
     2
  9
$DIMALTF
 40
25.4
  9
$DIMLFAC
 40
1.0
  9
$DIMTOFL
 70
     0
  9
$DIMTVP
 40
0.0
  9
$DIMTIX
 70
     0
  9
$DIMSOXD
 70
     0
  9
$DIMSAH
 70
     0
  9
$DIMBLK1
  1

  9
$DIMBLK2
  1

  9
$DIMSTYLE
  2
Standard
  9
$DIMCLRD
 70
     0
  9
$DIMCLRE
 70
     0
  9
$DIMCLRT
 70
     0
  9
$DIMTFAC
 40
1.0
  9
$DIMGAP
 40
0.09
  9
$DIMJUST
 70
     0
  9
$DIMSD1
 70
     0
  9
$DIMSD2
 70
     0
  9
$DIMTOLJ
 70
     1
  9
$DIMTZIN
 70
     0
  9
$DIMALTZ
 70
     0
  9
$DIMALTTZ
 70
     0
  9
$DIMUPT
 70
     0
  9
$DIMDEC
 70
     4
  9
$DIMTDEC
 70
     4
  9
$DIMALTU
 70
     2
  9
$DIMALTTD
 70
     2
  9
$DIMTXSTY
  7
Standard
  9
$DIMAUNIT
 70
     0
  9
$DIMADEC
 70
     0
  9
$DIMALTRND
 40
0.0
  9
$DIMAZIN
 70
     0
  9
$DIMDSEP
 70
    46
  9
$DIMATFIT
 70
     3
  9
$DIMFRAC
 70
     0
  9
$DIMLDRBLK
  1

  9
$DIMLUNIT
 70
     2
  9
$DIMLWD
 70
    -2
  9
$DIMLWE
 70
    -2
  9
$DIMTMOVE
 70
     0
  9
$LUNITS
 70
     2
  9
$LUPREC
 70
     4
  9
$SKETCHINC
 40
0.1
  9
$FILLETRAD
 40
0.5
  9
$AUNITS
 70
     0
  9
$AUPREC
 70
     0
  9
$MENU
  1
.
  9
$ELEVATION
 40
0.0
  9
$PELEVATION
 40
0.0
  9
$THICKNESS
 40
0.0
  9
$LIMCHECK
 70
     0
  9
$CHAMFERA
 40
0.5
  9
$CHAMFERB
 40
0.5
  9
$CHAMFERC
 40
1.0
  9
$CHAMFERD
 40
0.0
  9
$SKPOLY
 70
     0
  9
$TDCREATE
 40
2457206.727429537
  9
$TDUCREATE
 40
2457206.352429537
  9
$TDUPDATE
 40
2457206.72743081
  9
$TDUUPDATE
 40
2457206.35243081
  9
$TDINDWG
 40
0.0000000116
  9
$TDUSRTIMER
 40
0.0000000116
  9
$USRTIMER
 70
     1
  9
$ANGBASE
 50
0.0
  9
$ANGDIR
 70
     0
  9
$PDMODE
 70
     0
  9
$PDSIZE
 40
0.0
  9
$PLINEWID
 40
0.0
  9
$SPLFRAME
 70
     0
  9
$SPLINETYPE
 70
     6
  9
$SPLINESEGS
 70
     8
  9
$HANDSEED
  5
451
  9
$SURFTAB1
 70
     6
  9
$SURFTAB2
 70
     6
  9
$SURFTYPE
 70
     6
  9
$SURFU
 70
     6
  9
$SURFV
 70
     6
  9
$UCSBASE
  2

  9
$UCSNAME
  2

  9
$UCSORG
 10
0.0
 20
0.0
 30
0.0
  9
$UCSXDIR
 10
1.0
 20
0.0
 30
0.0
  9
$UCSYDIR
 10
0.0
 20
1.0
 30
0.0
  9
$UCSORTHOREF
  2

  9
$UCSORTHOVIEW
 70
     0
  9
$UCSORGTOP
 10
0.0
 20
0.0
 30
0.0
  9
$UCSORGBOTTOM
 10
0.0
 20
0.0
 30
0.0
  9
$UCSORGLEFT
 10
0.0
 20
0.0
 30
0.0
  9
$UCSORGRIGHT
 10
0.0
 20
0.0
 30
0.0
  9
$UCSORGFRONT
 10
0.0
 20
0.0
 30
0.0
  9
$UCSORGBACK
 10
0.0
 20
0.0
 30
0.0
  9
$PUCSBASE
  2

  9
$PUCSNAME
  2

  9
$PUCSORG
 10
0.0
 20
0.0
 30
0.0
  9
$PUCSXDIR
 10
1.0
 20
0.0
 30
0.0
  9
$PUCSYDIR
 10
0.0
 20
1.0
 30
0.0
  9
$PUCSORTHOREF
  2

  9
$PUCSORTHOVIEW
 70
     0
  9
$PUCSORGTOP
 10
0.0
 20
0.0
 30
0.0
  9
$PUCSORGBOTTOM
 10
0.0
 20
0.0
 30
0.0
  9
$PUCSORGLEFT
 10
0.0
 20
0.0
 30
0.0
  9
$PUCSORGRIGHT
 10
0.0
 20
0.0
 30
0.0
  9
$PUCSORGFRONT
 10
0.0
 20
0.0
 30
0.0
  9
$PUCSORGBACK
 10
0.0
 20
0.0
 30
0.0
  9
$USERI1
 70
     0
  9
$USERI2
 70
     0
  9
$USERI3
 70
     0
  9
$USERI4
 70
     0
  9
$USERI5
 70
     0
  9
$USERR1
 40
18.1
  9
$USERR2
 40
0.0
  9
$USERR3
 40
0.0
  9
$USERR4
 40
0.0
  9
$USERR5
 40
0.0
  9
$WORLDVIEW
 70
     1
  9
$SHADEDGE
 70
     3
  9
$SHADEDIF
 70
    70
  9
$TILEMODE
 70
     1
  9
$MAXACTVP
 70
    64
  9
$PINSBASE
 10
0.0
 20
0.0
 30
0.0
  9
$PLIMCHECK
 70
     0
  9
$PEXTMIN
 10
1.00000000000000E+20
 20
1.00000000000000E+20
 30
1.00000000000000E+20
  9
$PEXTMAX
 10
-1.00000000000000E+20
 20
-1.00000000000000E+20
 30
-1.00000000000000E+20
  9
$PLIMMIN
 10
0.0
 20
0.0
  9
$PLIMMAX
 10
12.0
 20
9.0
  9
$UNITMODE
 70
     0
  9
$VISRETAIN
 70
     1
  9
$PLINEGEN
 70
     0
  9
$PSLTSCALE
 70
     1
  9
$TREEDEPTH
 70
  3020
  9
$CMLSTYLE
  2
Standard
  9
$CMLJUST
 70
     0
  9
$CMLSCALE
 40
1.0
  9
$PROXYGRAPHICS
 70
     1
  9
$MEASUREMENT
 70
     1
  9
$CELWEIGHT
370
    -1
  9
$ENDCAPS
280
     0
  9
$JOINSTYLE
280
     0
  9
$LWDISPLAY
290
     0
  9
$INSUNITS
 70
     4
  9
$HYPERLINKBASE
  1

  9
$STYLESHEET
  1

  9
$XEDIT
290
     1
  9
$CEPSNTYPE
380
     0
  9
$PSTYLEMODE
290
     1
  9
$FINGERPRINTGUID
  2
{39EC141B-A12F-4B37-9645-3D088896F01D}
  9
$VERSIONGUID
  2
{FAEB1C32-E019-11D5-929B-00C0DF256EC4}
  9
$EXTNAMES
290
     1
  9
$PSVPSCALE
 40
0.0
  9
$OLESTARTUP
290
     0
  0
ENDSEC
  0
SECTION
  2
CLASSES
  0
CLASS
  1
ACDBDICTIONARYWDFLT
  2
AcDbDictionaryWithDefault
  3
ObjectDBX Classes
 90
        0
280
     0
281
     0
  0
CLASS
  1
VISUALSTYLE
  2
AcDbVisualStyle
  3
ObjectDBX Classes
 90
     4095
280
     0
281
     0
  0
CLASS
  1
MATERIAL
  2
AcDbMaterial
  3
ObjectDBX Classes
 90
     1153
280
     0
281
     0
  0
CLASS
  1
DICTIONARYVAR
  2
AcDbDictionaryVar
  3
ObjectDBX Classes
 90
        0
280
     0
281
     0
  0
CLASS
  1
ACDBPLACEHOLDER
  2
AcDbPlaceHolder
  3
ObjectDBX Classes
 90
        0
280
     0
281
     0
  0
CLASS
  1
LAYOUT
  2
AcDbLayout
  3
ObjectDBX Classes
 90
        0
280
     0
281
     0
  0
ENDSEC
  0
SECTION
  2
TABLES
  0
TABLE
  2
VPORT
  5
8
330
0
100
AcDbSymbolTable
 70
     1
  0
VPORT
  5
29
330
8
100
AcDbSymbolTableRecord
100
AcDbViewportTableRecord
  2
*Active
 70
     0
 10
0.0
 20
0.0
 11
1.0
 21
1.0
 12
105.0
 22
148.5
 13
0.0
 23
0.0
 14
0.5
 24
0.5
 15
0.5
 25
0.5
 16
0.0
 26
0.0
 36
1.0
 17
0.0
 27
0.0
 37
0.0
 40
326.7
 41
1.60267857142857
 42
50.0
 43
0.0
 44
0.0
 50
0.0
 51
0.0
 71
     0
 72
   100
 73
     1
 74
     3
 75
     0
 76
     0
 77
     0
 78
     0
281
     0
 65
     1
110
0.0
120
0.0
130
0.0
111
1.0
121
0.0
131
0.0
112
0.0
122
1.0
132
0.0
 79
     0
146
0.0
  0
ENDTAB
  0
TABLE
  2
LTYPE
  5
5
330
0
100
AcDbSymbolTable
 70
     8
  0
LTYPE
  5
14
330
5
100
AcDbSymbolTableRecord
100
AcDbLinetypeTableRecord
  2
ByBlock
 70
     0
  3

 72
    65
 73
     0
 40
0.0
  0
LTYPE
  5
15
330
5
100
AcDbSymbolTableRecord
100
AcDbLinetypeTableRecord
  2
ByLayer
 70
     0
  3

 72
    65
 73
     0
 40
0.0
  0
LTYPE
  5
16
330
5
100
AcDbSymbolTableRecord
100
AcDbLinetypeTableRecord
  2
Continuous
 70
     0
  3
Solid line
 72
    65
 73
     0
 40
0.0
  0
LTYPE
  5
3F
330
5
100
AcDbSymbolTableRecord
100
AcDbLinetypeTableRecord
  2
DASHED
 70
     0
  3
Dashed
 72
    65
 73
     2
 40
15.0
 49
7.0
 74
     0
 49
-8.0
 74
     0
  0
LTYPE
  5
40
330
5
100
AcDbSymbolTableRecord
100
AcDbLinetypeTableRecord
  2
DOTTED
 70
     0
  3
Dotted
 72
    65
 73
     2
 40
1.0
 49
0.0
 74
     0
 49
-1.0
 74
     0
  0
LTYPE
  5
41
330
5
100
AcDbSymbolTableRecord
100
AcDbLinetypeTableRecord
  2
DOT_CENTER
 70
     0
  3
Dot_Center
 72
    65
 73
     4
 40
14.0
 49
12.0
 74
     0
 49
-1.0
 74
     0
 49
0.0
 74
     0
 49
-1.0
 74
     0
  0
LTYPE
  5
42
330
5
100
AcDbSymbolTableRecord
100
AcDbLinetypeTableRecord
  2
LONG_DASHED
 70
     0
  3
Long_Dashed
 72
    65
 73
     2
 40
15.0
 49
10.0
 74
     0
 49
-5.0
 74
     0
  0
LTYPE
  5
43
330
5
100
AcDbSymbolTableRecord
100
AcDbLinetypeTableRecord
  2
DASH_CENTER
 70
     0
  3
Dash_Center
 72
    65
 73
     4
 40
14.0
 49
11.0
 74
     0
 49
-1.0
 74
     0
 49
1.0
 74
     0
 49
-1.0
 74
     0
  0
LTYPE
  5
44
330
5
100
AcDbSymbolTableRecord
100
AcDbLinetypeTableRecord
  2
PHANTOM
 70
     0
  3
Phantom
 72
    65
 73
     6
 40
13.0
 49
10.0
 74
     0
 49
-1.0
 74
     0
 49
0.0
 74
     0
 49
-1.0
 74
     0
 49
0.0
 74
     0
 49
-1.0
 74
     0
  0
LTYPE
  5
45
330
5
100
AcDbSymbolTableRecord
100
AcDbLinetypeTableRecord
  2
CENTER_DASH_DASH
 70
     0
  3
Center_Dash_Dash
 72
    65
 73
     6
 40
14.0
 49
9.0
 74
     0
 49
-1.0
 74
     0
 49
1.0
 74
     0
 49
-1.0
 74
     0
 49
1.0
 74
     0
 49
-1.0
 74
     0
  0
ENDTAB
  0
TABLE
  2
LAYER
  5
2
330
0
100
AcDbSymbolTable
 70
     2
  0
LAYER
  5
10
330
2
100
AcDbSymbolTableRecord
100
AcDbLayerTableRecord
  2
0
 70
     0
 62
     7
  6
Continuous
370
    -3
390
F
  0
LAYER
  5
46
330
2
100
AcDbSymbolTableRecord
100
AcDbLayerTableRecord
  2
1
 70
     0
 62
     7
  6
Continuous
370
    -3
390
F
  0
ENDTAB
  0
TABLE
  2
STYLE
  5
3
330
0
100
AcDbSymbolTable
 70
     3
  0
STYLE
  5
11
330
3
100
AcDbSymbolTableRecord
100
AcDbTextStyleTableRecord
  2
Standard
 70
     0
 40
0.0
 41
1.0
 50
0.0
 71
     0
 42
0.2
  3
txt
  4

  0
STYLE
  5
C2
330
3
100
AcDbSymbolTableRecord
100
AcDbTextStyleTableRecord
  2
CONVERTER_11
 70
     0
 40
0.0
 41
0.89
 50
0.0
 71
     0
 42
0.2
  3
MS Mincho.ttf
  4

1001
ACAD
1000
MS Mincho
1071
    32785
  0
STYLE
  5
3F0
330
3
100
AcDbSymbolTableRecord
100
AcDbTextStyleTableRecord
  2
CONVERTER_12
 70
     0
 40
0.0
 41
0.9
 50
0.0
 71
     0
 42
0.2
  3
txt.shx
  4

  0
ENDTAB
  0
TABLE
  2
VIEW
  5
6
330
0
100
AcDbSymbolTable
 70
     0
  0
ENDTAB
  0
TABLE
  2
UCS
  5
7
330
0
100
AcDbSymbolTable
 70
     0
  0
ENDTAB
  0
TABLE
  2
APPID
  5
9
330
0
100
AcDbSymbolTable
 70
     1
  0
APPID
  5
12
330
9
100
AcDbSymbolTableRecord
100
AcDbRegAppTableRecord
  2
ACAD
 70
     0
  0
ENDTAB
  0
TABLE
  2
DIMSTYLE
  5
A
330
0
100
AcDbSymbolTable
 70
     5
100
AcDbDimStyleTable
  0
DIMSTYLE
105
27
330
A
100
AcDbSymbolTableRecord
100
AcDbDimStyleTableRecord
  2
Standard
 70
     0
178
     0
340
11
  0
DIMSTYLE
105
403
102
{ACAD_REACTORS
330
404
102
}
330
A
100
AcDbSymbolTableRecord
100
AcDbDimStyleTableRecord
  2
ME10_DIM_10
 70
     0
 41
3.5
 42
0.0
 44
1.0
 73
     0
 74
     0
 77
     1
 78
     8
140
3.5
147
1.0
172
     1
173
     1
174
     1
175
     1
176
     2
177
     2
271
     2
178
     7
271
     2
340
3F0
  0
DIMSTYLE
105
40E
102
{ACAD_REACTORS
330
40F
102
}
330
A
100
AcDbSymbolTableRecord
100
AcDbDimStyleTableRecord
  2
ME10_DIM_11
 70
     0
 41
3.5
 42
0.0
 44
1.0
 73
     0
 74
     0
 77
     1
 78
     8
140
3.5
147
1.0
172
     1
173
     1
174
     1
175
     1
176
     2
177
     2
271
     2
178
     7
271
     2
340
C2
  0
DIMSTYLE
105
419
102
{ACAD_REACTORS
330
41A
102
}
330
A
100
AcDbSymbolTableRecord
100
AcDbDimStyleTableRecord
  2
ME10_DIM_12
 70
     0
 41
3.5
 42
0.0
 44
1.0
 73
     0
 74
     0
 77
     1
 78
     8
140
3.5
147
1.0
172
     1
173
     1
174
     1
175
     1
176
     2
177
     2
271
     2
178
     7
271
     2
340
C2
  0
DIMSTYLE
105
424
102
{ACAD_REACTORS
330
425
102
}
330
A
100
AcDbSymbolTableRecord
100
AcDbDimStyleTableRecord
  2
ME10_DIM_13
 70
     0
 41
3.5
 42
0.0
 44
1.0
 73
     0
 74
     0
 77
     1
 78
     8
140
3.5
147
1.0
172
     1
173
     1
174
     1
175
     1
176
     2
177
     2
271
     2
178
     7
271
     2
340
3F0
  0
ENDTAB
  0
TABLE
  2
BLOCK_RECORD
  5
1
330
0
100
AcDbSymbolTable
 70
    17
  0
BLOCK_RECORD
  5
1F
330
1
100
AcDbSymbolTableRecord
100
AcDbBlockTableRecord
  2
*Model_Space
340
22
  0
BLOCK_RECORD
  5
1B
330
1
100
AcDbSymbolTableRecord
100
AcDbBlockTableRecord
  2
*Paper_Space
340
1E
  0
BLOCK_RECORD
  5
23
330
1
100
AcDbSymbolTableRecord
100
AcDbBlockTableRecord
  2
*Paper_Space0
340
26
  0
BLOCK_RECORD
  5
47
330
1
100
AcDbSymbolTableRecord
100
AcDbBlockTableRecord
  2
開示A4
340
0
102
{BLKREFS
331
6B
102
}
  0
BLOCK_RECORD
  5
4A
330
1
100
AcDbSymbolTableRecord
100
AcDbBlockTableRecord
  2
42-15
340
0
102
{BLKREFS
331
6C
102
}
  0
BLOCK_RECORD
  5
4D
330
1
100
AcDbSymbolTableRecord
100
AcDbBlockTableRecord
  2
21-1A
340
0
102
{BLKREFS
331
6D
102
}
  0
BLOCK_RECORD
  5
50
330
1
100
AcDbSymbolTableRecord
100
AcDbBlockTableRecord
  2
V2110-2-0-13
340
0
102
{BLKREFS
331
6E
102
}
  0
BLOCK_RECORD
  5
53
330
1
100
AcDbSymbolTableRecord
100
AcDbBlockTableRecord
  2
36-54-M11
340
0
102
{BLKREFS
331
6F
102
}
  0
BLOCK_RECORD
  5
56
330
1
100
AcDbSymbolTableRecord
100
AcDbBlockTableRecord
  2
H86F-B__1
340
0
102
{BLKREFS
331
70
102
}
  0
BLOCK_RECORD
  5
59
330
1
100
AcDbSymbolTableRecord
100
AcDbBlockTableRecord
  2
H86F-B__2
340
0
102
{BLKREFS
331
71
102
}
  0
BLOCK_RECORD
  5
5C
330
1
100
AcDbSymbolTableRecord
100
AcDbBlockTableRecord
  2
H86F-A
340
0
102
{BLKREFS
331
72
102
}
  0
BLOCK_RECORD
  5
5F
330
1
100
AcDbSymbolTableRecord
100
AcDbBlockTableRecord
  2
72-207__3
340
0
102
{BLKREFS
331
73
102
}
  0
BLOCK_RECORD
  5
62
330
1
100
AcDbSymbolTableRecord
100
AcDbBlockTableRecord
  2
72-207__4
340
0
102
{BLKREFS
331
74
102
}
  0
BLOCK_RECORD
  5
65
330
1
100
AcDbSymbolTableRecord
100
AcDbBlockTableRecord
  2
72-206
340
0
102
{BLKREFS
331
75
102
}
  0
BLOCK_RECORD
  5
68
330
1
100
AcDbSymbolTableRecord
100
AcDbBlockTableRecord
  2
37-1-13
340
0
102
{BLKREFS
331
76
102
}
  0
BLOCK_RECORD
  5
3FA
330
1
100
AcDbSymbolTableRecord
100
AcDbBlockTableRecord
  2
*D13
340
0
  0
BLOCK_RECORD
  5
405
330
1
100
AcDbSymbolTableRecord
100
AcDbBlockTableRecord
  2
*D14
340
0
  0
BLOCK_RECORD
  5
410
330
1
100
AcDbSymbolTableRecord
100
AcDbBlockTableRecord
  2
*D15
340
0
  0
BLOCK_RECORD
  5
41B
330
1
100
AcDbSymbolTableRecord
100
AcDbBlockTableRecord
  2
*D16
340
0
  0
ENDTAB
  0
ENDSEC
  0
SECTION
  2
BLOCKS
  0
BLOCK
  5
20
330
1F
100
AcDbEntity
  8
0
100
AcDbBlockBegin
  2
*Model_Space
 70
     0
 10
0.0
 20
0.0
 30
0.0
  3
*Model_Space
  1

  0
ENDBLK
  5
21
330
1F
100
AcDbEntity
  8
0
100
AcDbBlockEnd
  0
BLOCK
  5
1C
330
1B
100
AcDbEntity
 67
     1
  8
0
100
AcDbBlockBegin
  2
*Paper_Space
 70
     0
 10
0.0
 20
0.0
 30
0.0
  3
*Paper_Space
  1

  0
ENDBLK
  5
1D
330
1B
100
AcDbEntity
 67
     1
  8
0
100
AcDbBlockEnd
  0
BLOCK
  5
24
330
23
100
AcDbEntity
  8
0
100
AcDbBlockBegin
  2
*Paper_Space0
 70
     0
 10
0.0
 20
0.0
 30
0.0
  3
*Paper_Space0
  1

  0
ENDBLK
  5
25
330
23
100
AcDbEntity
  8
0
100
AcDbBlockEnd
  0
BLOCK
  5
48
330
47
100
AcDbEntity
  8
0
100
AcDbBlockBegin
  2
開示A4
 70
     0
 10
0.0
 20
0.0
 30
0.0
  3
開示A4
  1

  0
POINT
  5
77
330
47
100
AcDbEntity
  8
1
 62
     4
100
AcDbPoint
 10
93.75
 20
17.0
 30
0.0
  0
POINT
  5
78
330
47
100
AcDbEntity
  8
1
 62
     4
100
AcDbPoint
 10
85.25
 20
17.0
 30
0.0
  0
POINT
  5
79
330
47
100
AcDbEntity
  8
1
 62
     4
100
AcDbPoint
 10
106.5
 20
19.00000000000001
 30
0.0
  0
POINT
  5
7A
330
47
100
AcDbEntity
  8
1
 62
     4
100
AcDbPoint
 10
106.5
 20
12.5
 30
0.0
  0
POINT
  5
7B
330
47
100
AcDbEntity
  8
1
 62
     4
100
AcDbPoint
 10
112.25
 20
12.5
 30
0.0
  0
POINT
  5
7C
330
47
100
AcDbEntity
  8
1
 62
     4
100
AcDbPoint
 10
100.75
 20
12.5
 30
0.0
  0
POINT
  5
7D
330
47
100
AcDbEntity
  8
1
 62
     4
100
AcDbPoint
 10
123.5
 20
19.00000000000001
 30
0.0
  0
POINT
  5
7E
330
47
100
AcDbEntity
  8
1
 62
     4
100
AcDbPoint
 10
123.5
 20
12.5
 30
0.0
  0
POINT
  5
7F
330
47
100
AcDbEntity
  8
1
 62
     4
100
AcDbPoint
 10
129.25
 20
12.5
 30
0.0
  0
POINT
  5
80
330
47
100
AcDbEntity
  8
1
 62
     4
100
AcDbPoint
 10
117.75
 20
12.5
 30
0.0
  0
POINT
  5
81
330
47
100
AcDbEntity
  8
1
 62
     4
100
AcDbPoint
 10
140.5
 20
19.00000000000001
 30
0.0
  0
POINT
  5
82
330
47
100
AcDbEntity
  8
1
 62
     4
100
AcDbPoint
 10
140.5
 20
12.5
 30
0.0
  0
POINT
  5
83
330
47
100
AcDbEntity
  8
1
 62
     4
100
AcDbPoint
 10
146.25
 20
12.5
 30
0.0
  0
POINT
  5
84
330
47
100
AcDbEntity
  8
1
 62
     4
100
AcDbPoint
 10
134.75
 20
12.5
 30
0.0
  0
POINT
  5
85
330
47
100
AcDbEntity
  8
1
 62
     4
100
AcDbPoint
 10
151.75
 20
12.5
 30
0.0
  0
POINT
  5
86
330
47
100
AcDbEntity
  8
1
 62
     4
100
AcDbPoint
 10
163.25
 20
12.5
 30
0.0
  0
POINT
  5
87
330
47
100
AcDbEntity
  8
1
 62
     4
100
AcDbPoint
 10
157.5
 20
12.5
 30
0.0
  0
POINT
  5
88
330
47
100
AcDbEntity
  8
1
 62
     4
100
AcDbPoint
 10
57.0
 20
14.25
 30
0.0
  0
POINT
  5
89
330
47
100
AcDbEntity
  8
1
 62
     4
100
AcDbPoint
 10
57.0
 20
22.75000000000001
 30
0.0
  0
POINT
  5
8A
330
47
100
AcDbEntity
  8
1
 62
     4
100
AcDbPoint
 10
47.5
 20
282.0000000000003
 30
0.0
  0
POINT
  5
8B
330
47
100
AcDbEntity
  8
1
 62
     4
100
AcDbPoint
 10
157.5
 20
19.00000000000001
 30
0.0
  0
POINT
  5
8C
330
47
100
AcDbEntity
  8
1
 62
     4
100
AcDbPoint
 10
57.0
 20
16.25
 30
0.0
  0
POINT
  5
8D
330
47
100
AcDbEntity
  8
1
 62
     4
100
AcDbPoint
 10
57.0
 20
24.75000000000001
 30
0.0
  0
POINT
  5
8E
330
47
100
AcDbEntity
  8
1
 62
     4
100
AcDbPoint
 10
57.0
 20
20.75000000000001
 30
0.0
  0
POINT
  5
8F
330
47
100
AcDbEntity
  8
1
 62
     4
100
AcDbPoint
 10
57.0
 20
12.25
 30
0.0
  0
POINT
  5
90
330
47
100
AcDbEntity
  8
1
 62
     4
100
AcDbPoint
 10
34.0
 20
34.00000000000001
 30
0.0
  0
LINE
  5
91
330
47
100
AcDbEntity
  8
1
  6
Continuous
 62
     7
100
AcDbLine
 10
105.0
 20
10.0
 30
0.0
 11
200.0
 21
10.0
 31
0.0
  0
LINE
  5
92
330
47
100
AcDbEntity
  8
1
  6
Continuous
 62
     2
100
AcDbLine
 10
105.0
 20
10.0
 30
0.0
 11
105.0
 21
5.0
 31
0.0
  0
LINE
  5
93
330
47
100
AcDbEntity
  8
1
  6
Continuous
 62
     7
100
AcDbLine
 10
200.0
 20
148.5
 30
0.0
 11
200.0
 21
287.0000000000003
 31
0.0
  0
LINE
  5
94
330
47
100
AcDbEntity
  8
1
  6
Continuous
 62
     2
100
AcDbLine
 10
200.0
 20
148.5
 30
0.0
 11
205.0
 21
148.5
 31
0.0
  0
LINE
  5
95
330
47
100
AcDbEntity
  8
1
  6
Continuous
 62
     7
100
AcDbLine
 10
25.0
 20
148.5
 30
0.0
 11
25.0
 21
287.0000000000003
 31
0.0
  0
LINE
  5
96
330
47
100
AcDbEntity
  8
1
  6
Continuous
 62
     7
100
AcDbLine
 10
105.0
 20
287.0000000000003
 30
0.0
 11
25.0
 21
287.0000000000003
 31
0.0
  0
LINE
  5
97
330
47
100
AcDbEntity
  8
1
  6
Continuous
 62
     2
100
AcDbLine
 10
105.0
 20
287.0000000000003
 30
0.0
 11
105.0
 21
292.0000000000003
 31
0.0
  0
LINE
  5
98
330
47
100
AcDbEntity
  8
1
  6
Continuous
 62
     2
100
AcDbLine
 10
166.0
 20
20.00000000000001
 30
0.0
 11
200.0
 21
20.00000000000001
 31
0.0
  0
LINE
  5
99
330
47
100
AcDbEntity
  8
1
  6
Continuous
 62
     2
100
AcDbLine
 10
98.0
 20
27.00000000000001
 30
0.0
 11
98.0
 21
9.99999999999999
 31
0.0
  0
LINE
  5
9A
330
47
100
AcDbEntity
  8
1
  6
Continuous
 62
     2
100
AcDbLine
 10
115.0
 20
27.00000000000001
 30
0.0
 11
115.0
 21
9.99999999999999
 31
0.0
  0
LINE
  5
9B
330
47
100
AcDbEntity
  8
1
  6
Continuous
 62
     2
100
AcDbLine
 10
149.0
 20
27.00000000000001
 30
0.0
 11
149.0
 21
10.0
 31
0.0
  0
LINE
  5
9C
330
47
100
AcDbEntity
  8
1
  6
Continuous
 62
     2
100
AcDbLine
 10
132.0
 20
27.00000000000001
 30
0.0
 11
132.0
 21
9.99999999999999
 31
0.0
  0
LINE
  5
9D
330
47
100
AcDbEntity
  8
1
  6
Continuous
 62
     2
100
AcDbLine
 10
166.0
 20
27.00000000000001
 30
0.0
 11
166.0
 21
10.0
 31
0.0
  0
LINE
  5
9E
330
47
100
AcDbEntity
  8
1
  6
Continuous
 62
     2
100
AcDbLine
 10
55.0
 20
277.0000000000003
 30
0.0
 11
25.0
 21
277.0000000000003
 31
0.0
  0
LINE
  5
9F
330
47
100
AcDbEntity
  8
1
  6
Continuous
 62
     7
100
AcDbLine
 10
25.0
 20
10.0
 30
0.0
 11
25.0
 21
148.5
 31
0.0
  0
LINE
  5
A0
330
47
100
AcDbEntity
  8
1
  6
Continuous
 62
     2
100
AcDbLine
 10
40.0
 20
287.0000000000003
 30
0.0
 11
40.0
 21
277.0000000000003
 31
0.0
  0
LINE
  5
A1
330
47
100
AcDbEntity
  8
1
  6
Continuous
 62
     2
100
AcDbLine
 10
55.0
 20
287.0000000000003
 30
0.0
 11
55.0
 21
277.0000000000003
 31
0.0
  0
LINE
  5
A2
330
47
100
AcDbEntity
  8
1
  6
Continuous
 62
     2
100
AcDbLine
 10
33.0
 20
41.00000000000001
 30
0.0
 11
33.0
 21
27.0
 31
0.0
  0
LINE
  5
A3
330
47
100
AcDbEntity
  8
1
  6
Continuous
 62
     7
100
AcDbLine
 10
200.0
 20
27.00000000000001
 30
0.0
 11
25.0
 21
27.00000000000001
 31
0.0
  0
LINE
  5
A4
330
47
100
AcDbEntity
  8
1
  6
Continuous
 62
     7
100
AcDbLine
 10
25.0
 20
41.0
 30
0.0
 11
200.0
 21
41.0
 31
0.0
  0
LINE
  5
A5
330
47
100
AcDbEntity
  8
1
  6
PHANTOM
 62
     4
100
AcDbLine
 10
0.0
 20
0.0
 30
0.0
 11
210.0
 21
0.0
 31
0.0
  0
LINE
  5
A6
330
47
100
AcDbEntity
  8
1
  6
PHANTOM
 62
     4
100
AcDbLine
 10
210.0
 20
0.0
 30
0.0
 11
210.0
 21
297.0
 31
0.0
  0
LINE
  5
A7
330
47
100
AcDbEntity
  8
1
  6
PHANTOM
 62
     4
100
AcDbLine
 10
210.0
 20
297.0
 30
0.0
 11
0.0
 21
297.0
 31
0.0
  0
LINE
  5
A8
330
47
100
AcDbEntity
  8
1
  6
PHANTOM
 62
     4
100
AcDbLine
 10
0.0
 20
297.0
 30
0.0
 11
0.0
 21
0.0
 31
0.0
  0
LINE
  5
A9
330
47
100
AcDbEntity
  8
1
  6
Continuous
 62
     7
100
AcDbLine
 10
25.0
 20
10.0
 30
0.0
 11
105.0
 21
10.0
 31
0.0
  0
LINE
  5
AA
330
47
100
AcDbEntity
  8
1
  6
Continuous
 62
     7
100
AcDbLine
 10
200.0
 20
10.0
 30
0.0
 11
200.0
 21
148.5
 31
0.0
  0
LINE
  5
AB
330
47
100
AcDbEntity
  8
1
  6
Continuous
 62
     7
100
AcDbLine
 10
200.0
 20
287.0000000000003
 30
0.0
 11
105.0
 21
287.0000000000003
 31
0.0
  0
LINE
  5
AC
330
47
100
AcDbEntity
  8
1
  6
Continuous
 62
     2
100
AcDbLine
 10
25.0
 20
18.50000000000001
 30
0.0
 11
81.0
 21
18.50000000000001
 31
0.0
  0
LINE
  5
AD
330
47
100
AcDbEntity
  8
1
  6
Continuous
 62
     2
100
AcDbLine
 10
33.0
 20
27.0
 30
0.0
 11
33.0
 21
10.0
 31
0.0
  0
LINE
  5
AE
330
47
100
AcDbEntity
  8
1
  6
Continuous
 62
     7
100
AcDbLine
 10
191.0
 20
24.70000000000001
 30
0.0
 11
191.0
 21
22.30000000000001
 31
0.0
  0
LINE
  5
AF
330
47
100
AcDbEntity
  8
1
  6
Continuous
 62
     7
100
AcDbLine
 10
191.0
 20
24.70000000000001
 30
0.0
 11
196.0
 21
25.50000000000001
 31
0.0
  0
LINE
  5
B0
330
47
100
AcDbEntity
  8
1
  6
Continuous
 62
     7
100
AcDbLine
 10
196.0
 20
25.50000000000001
 30
0.0
 11
196.0
 21
21.50000000000001
 31
0.0
  0
LINE
  5
B1
330
47
100
AcDbEntity
  8
1
  6
Continuous
 62
     7
100
AcDbLine
 10
196.0
 20
21.50000000000001
 30
0.0
 11
191.0
 21
22.30000000000001
 31
0.0
  0
LINE
  5
B2
330
47
100
AcDbEntity
  8
1
  6
DOT_CENTER
 62
     2
100
AcDbLine
 10
184.0
 20
23.50000000000001
 30
0.0
 11
197.0
 21
23.50000000000001
 31
0.0
  0
LINE
  5
B3
330
47
100
AcDbEntity
  8
1
  6
DOT_CENTER
 62
     2
100
AcDbLine
 10
187.0
 20
26.50000000000001
 30
0.0
 11
187.0
 21
20.50000000000001
 31
0.0
  0
LINE
  5
B4
330
47
100
AcDbEntity
  8
1
  6
Continuous
 62
     2
100
AcDbLine
 10
81.0
 20
27.00000000000001
 30
0.0
 11
81.0
 21
10.0
 31
0.0
  0
LINE
  5
B5
330
47
100
AcDbEntity
  8
1
  6
Continuous
 62
     2
100
AcDbLine
 10
25.0
 20
148.5
 30
0.0
 11
20.0
 21
148.5
 31
0.0
  0
CIRCLE
  5
B6
330
47
100
AcDbEntity
  8
1
  6
Continuous
 62
     7
100
AcDbCircle
 10
103.5
 20
12.5
 30
0.0
 40
0.2999999999999972
  0
CIRCLE
  5
B7
330
47
100
AcDbEntity
  8
1
  6
Continuous
 62
     7
100
AcDbCircle
 10
109.5
 20
12.5
 30
0.0
 40
0.2999999999999972
  0
CIRCLE
  5
B8
330
47
100
AcDbEntity
  8
1
  6
Continuous
 62
     7
100
AcDbCircle
 10
120.5
 20
12.5
 30
0.0
 40
0.2999999999999972
  0
CIRCLE
  5
B9
330
47
100
AcDbEntity
  8
1
  6
Continuous
 62
     7
100
AcDbCircle
 10
126.5
 20
12.5
 30
0.0
 40
0.2999999999999972
  0
CIRCLE
  5
BA
330
47
100
AcDbEntity
  8
1
  6
Continuous
 62
     7
100
AcDbCircle
 10
137.5
 20
12.5
 30
0.0
 40
0.3000000000000114
  0
CIRCLE
  5
BB
330
47
100
AcDbEntity
  8
1
  6
Continuous
 62
     7
100
AcDbCircle
 10
143.5
 20
12.5
 30
0.0
 40
0.3000000000000114
  0
CIRCLE
  5
BC
330
47
100
AcDbEntity
  8
1
  6
Continuous
 62
     7
100
AcDbCircle
 10
160.5
 20
12.5
 30
0.0
 40
0.3000000000000114
  0
CIRCLE
  5
BD
330
47
100
AcDbEntity
  8
1
  6
Continuous
 62
     7
100
AcDbCircle
 10
154.5
 20
12.5
 30
0.0
 40
0.3000000000000114
  0
CIRCLE
  5
BE
330
47
100
AcDbEntity
  8
1
  6
Continuous
 62
     7
100
AcDbCircle
 10
187.0
 20
23.50000000000001
 30
0.0
 40
1.200000000000102
  0
CIRCLE
  5
BF
330
47
100
AcDbEntity
  8
1
  6
Continuous
 62
     7
100
AcDbCircle
 10
187.0
 20
23.50000000000001
 30
0.0
 40
2.0
  0
CIRCLE
  5
C0
330
47
100
AcDbEntity
  8
1
  6
DOT_CENTER
 62
     7
100
AcDbCircle
 10
89.5
 20
16.0
 30
0.0
 40
0.1000000000000227
  0
CIRCLE
  5
C1
330
47
100
AcDbEntity
  8
1
  6
DOT_CENTER
 62
     7
100
AcDbCircle
 10
89.5
 20
18.0
 30
0.0
 40
0.1000000000000227
  0
MTEXT
  5
C3
330
47
100
AcDbEntity
  8
1
 62
     7
100
AcDbMText
 10
188.5
 20
15.0
 30
0.0
 40
3.0
 41
0.0
 71
     5
 72
     1
  1
三栄水栓製作所
  7
CONVERTER_11
 73
     1
 44
1.0
  0
MTEXT
  5
C4
330
47
100
AcDbEntity
  8
1
 62
     7
100
AcDbMText
 10
171.5
 20
15.0
 30
0.0
 40
2.5
 41
0.0
 71
     5
 72
     1
  1
株式会社
  7
CONVERTER_11
 73
     1
 44
1.0
  0
MTEXT
  5
C5
330
47
100
AcDbEntity
  8
1
 62
     2
100
AcDbMText
 10
32.5
 20
282.0000000000003
 30
0.0
 40
5.0
 41
0.0
 71
     5
 72
     1
  1
図番
  7
CONVERTER_11
 73
     1
 44
0.45454545454545
  0
MTEXT
  5
C6
330
47
100
AcDbEntity
  8
1
 62
     2
100
AcDbMText
 10
29.0
 20
34.00000000000001
 30
0.0
 40
3.5
 41
0.0
 71
     5
 72
     1
  1
備考
  7
CONVERTER_11
 73
     1
 44
0.45454545454545
  0
MTEXT
  5
C7
330
47
100
AcDbEntity
  8
1
 62
     2
100
AcDbMText
 10
29.0
 20
22.75
 30
0.0
 40
3.5
 41
0.0
 71
     5
 72
     1
  1
品名
  7
CONVERTER_11
 73
     1
 44
0.72727272727273
  0
MTEXT
  5
C8
330
47
100
AcDbEntity
  8
1
 62
     2
100
AcDbMText
 10
29.0
 20
14.25
 30
0.0
 40
3.5
 41
0.0
 71
     5
 72
     1
  1
品番
  7
CONVERTER_11
 73
     1
 44
0.72727272727273
  0
MTEXT
  5
C9
330
47
100
AcDbEntity
  8
1
 62
     2
100
AcDbMText
 10
101.5
 20
25.00000000000001
 30
0.0
 40
3.0
 41
0.0
 71
     5
 72
     1
  1
承認
  7
CONVERTER_11
 73
     1
 44
0.59090909090909
  0
MTEXT
  5
CA
330
47
100
AcDbEntity
  8
1
 62
     2
100
AcDbMText
 10
175.0
 20
23.50000000000001
 30
0.0
 40
3.5
 41
0.0
 71
     5
 72
     1
  1
第三角法
  7
CONVERTER_11
 73
     1
 44
0.54545454545455
  0
MTEXT
  5
CB
330
47
100
AcDbEntity
  8
1
 62
     2
100
AcDbMText
 10
118.5
 20
25.00000000000001
 30
0.0
 40
3.0
 41
0.0
 71
     5
 72
     1
  1
検図
  7
CONVERTER_11
 73
     1
 44
0.59090909090909
  0
MTEXT
  5
CC
330
47
100
AcDbEntity
  8
1
 62
     2
100
AcDbMText
 10
152.5
 20
25.00000000000001
 30
0.0
 40
3.0
 41
0.0
 71
     5
 72
     1
  1
設計
  7
CONVERTER_11
 73
     1
 44
0.59090909090909
  0
MTEXT
  5
CD
330
47
100
AcDbEntity
  8
1
 62
     2
100
AcDbMText
 10
135.5
 20
25.00000000000001
 30
0.0
 40
3.0
 41
0.0
 71
     5
 72
     1
  1
製図
  7
CONVERTER_11
 73
     1
 44
0.59090909090909
  0
MTEXT
  5
CE
330
47
100
AcDbEntity
  8
1
 62
     2
100
AcDbMText
 10
89.5
 20
24.00000000000001
 30
0.0
 40
3.5
 41
0.0
 71
     5
 72
     1
  1
尺度
  7
CONVERTER_11
 73
     1
 44
0.54545454545455
  0
MTEXT
  5
CF
330
47
100
AcDbEntity
  8
1
 62
   250
100
AcDbMText
 10
25.0
 20
5.0
 30
0.0
 40
3.5
 41
0.0
 71
     4
 72
     1
  1
備考欄の文字列 原点位置=4
  7
CONVERTER_11
 73
     1
 44
0.54545454545455
  0
ENDBLK
  5
49
330
47
100
AcDbEntity
  8
0
100
AcDbBlockEnd
  0
BLOCK
  5
4B
330
4A
100
AcDbEntity
  8
0
100
AcDbBlockBegin
  2
42-15
 70
     0
 10
126.7834304579283
 20
68.45353723684673
 30
0.0
  3
42-15
  1

  0
LINE
  5
D0
330
4A
100
AcDbEntity
  8
1
  6
Continuous
 62
     7
100
AcDbLine
 10
175.3059994369065
 20
185.7589760741149
 30
0.0
 11
178.3059994369065
 21
185.7589760741149
 31
0.0
  0
LINE
  5
D1
330
4A
100
AcDbEntity
  8
1
  6
Continuous
 62
     2
100
AcDbLine
 10
178.3059994369065
 20
185.2589760741149
 30
0.0
 11
175.3059994369065
 21
185.2589760741149
 31
0.0
  0
LINE
  5
D2
330
4A
100
AcDbEntity
  8
1
  6
Continuous
 62
     2
100
AcDbLine
 10
178.3059994369065
 20
184.7589760741149
 30
0.0
 11
175.3059994369065
 21
184.7589760741149
 31
0.0
  0
LINE
  5
D3
330
4A
100
AcDbEntity
  8
1
  6
Continuous
 62
     2
100
AcDbLine
 10
178.3059994369065
 20
184.2589760741149
 30
0.0
 11
175.3059994369065
 21
184.2589760741149
 31
0.0
  0
LINE
  5
D4
330
4A
100
AcDbEntity
  8
1
  6
Continuous
 62
     2
100
AcDbLine
 10
178.3059994369065
 20
183.7589760741149
 30
0.0
 11
175.3059994369065
 21
183.7589760741149
 31
0.0
  0
LINE
  5
D5
330
4A
100
AcDbEntity
  8
1
  6
Continuous
 62
     2
100
AcDbLine
 10
178.1615872018843
 20
183.2589760741149
 30
0.0
 11
175.4115867630939
 21
183.2589760741149
 31
0.0
  0
LINE
  5
D6
330
4A
100
AcDbEntity
  8
1
  6
Continuous
 62
     2
100
AcDbLine
 10
178.1160730284542
 20
182.7589760741149
 30
0.0
 11
175.4720477493581
 21
182.7589760741149
 31
0.0
  0
LINE
  5
D7
330
4A
100
AcDbEntity
  8
1
  6
Continuous
 62
     2
100
AcDbLine
 10
178.0302177541713
 20
182.2589760741149
 30
0.0
 11
175.5604721371686
 21
182.2589760741149
 31
0.0
  0
LINE
  5
D8
330
4A
100
AcDbEntity
  8
1
  6
Continuous
 62
     2
100
AcDbLine
 10
178.0025259305789
 20
181.7589760741149
 30
0.0
 11
175.6666999171443
 21
181.7589760741149
 31
0.0
  0
LINE
  5
D9
330
4A
100
AcDbEntity
  8
1
  6
Continuous
 62
     7
100
AcDbLine
 10
175.3059994369065
 20
171.7589760741149
 30
0.0
 11
175.3059994369065
 21
185.7589760741149
 31
0.0
  0
LINE
  5
DA
330
4A
100
AcDbEntity
  8
1
  6
Continuous
 62
     2
100
AcDbLine
 10
175.3059994369065
 20
173.7589760741149
 30
0.0
 11
178.3059994369065
 21
173.7589760741149
 31
0.0
  0
LINE
  5
DB
330
4A
100
AcDbEntity
  8
1
  6
Continuous
 62
     2
100
AcDbLine
 10
175.4115867630939
 20
174.2589760741149
 30
0.0
 11
178.1615872018843
 21
174.2589760741149
 31
0.0
  0
LINE
  5
DC
330
4A
100
AcDbEntity
  8
1
  6
Continuous
 62
     2
100
AcDbLine
 10
175.4720477493581
 20
174.7589760741149
 30
0.0
 11
178.1160730284542
 21
174.7589760741149
 31
0.0
  0
LINE
  5
DD
330
4A
100
AcDbEntity
  8
1
  6
Continuous
 62
     2
100
AcDbLine
 10
175.5604721371686
 20
175.2589760741149
 30
0.0
 11
178.0302177541713
 21
175.2589760741149
 31
0.0
  0
LINE
  5
DE
330
4A
100
AcDbEntity
  8
1
  6
Continuous
 62
     2
100
AcDbLine
 10
175.6666999171443
 20
175.7589760741149
 30
0.0
 11
178.0025259305789
 21
175.7589760741149
 31
0.0
  0
LINE
  5
DF
330
4A
100
AcDbEntity
  8
1
  6
Continuous
 62
     2
100
AcDbLine
 10
176.2435932652757
 20
177.2589760741149
 30
0.0
 11
177.5923195951283
 21
177.2589760741149
 31
0.0
  0
LINE
  5
E0
330
4A
100
AcDbEntity
  8
1
  6
Continuous
 62
     2
100
AcDbLine
 10
175.9195486275839
 20
176.2589760741149
 30
0.0
 11
177.8375425641924
 21
176.2589760741149
 31
0.0
  0
LINE
  5
E1
330
4A
100
AcDbEntity
  8
1
  6
Continuous
 62
     2
100
AcDbLine
 10
176.0235622247523
 20
176.7589760741149
 30
0.0
 11
177.7916527488105
 21
176.7589760741149
 31
0.0
  0
LINE
  5
E2
330
4A
100
AcDbEntity
  8
1
  6
Continuous
 62
     2
100
AcDbLine
 10
176.2830984484673
 20
177.7589760741149
 30
0.0
 11
177.5483375390777
 21
177.7589760741149
 31
0.0
  0
LINE
  5
E3
330
4A
100
AcDbEntity
  8
1
  6
Continuous
 62
     7
100
AcDbLine
 10
178.3059994369065
 20
183.7589760741149
 30
0.0
 11
178.3059994369065
 21
173.7589760741149
 31
0.0
  0
LINE
  5
E4
330
4A
100
AcDbEntity
  8
1
  6
Continuous
 62
     2
100
AcDbLine
 10
177.5923195951283
 20
180.2589760741149
 30
0.0
 11
176.2435932652757
 21
180.2589760741149
 31
0.0
  0
LINE
  5
E5
330
4A
100
AcDbEntity
  8
1
  6
Continuous
 62
     2
100
AcDbLine
 10
177.8375425641924
 20
181.2589760741149
 30
0.0
 11
175.9195486275839
 21
181.2589760741149
 31
0.0
  0
LINE
  5
E6
330
4A
100
AcDbEntity
  8
1
  6
Continuous
 62
     7
100
AcDbLine
 10
178.3059994369065
 20
184.2589760741149
 30
0.0
 11
178.3059994369065
 21
183.7589760741149
 31
0.0
  0
LINE
  5
E7
330
4A
100
AcDbEntity
  8
1
  6
Continuous
 62
     7
100
AcDbLine
 10
178.3059994369065
 20
185.2589760741149
 30
0.0
 11
178.3059994369065
 21
184.7589760741149
 31
0.0
  0
LINE
  5
E8
330
4A
100
AcDbEntity
  8
1
  6
Continuous
 62
     7
100
AcDbLine
 10
178.3059994369065
 20
185.7589760741149
 30
0.0
 11
178.5753216359297
 21
184.7589760741148
 31
0.0
  0
LINE
  5
E9
330
4A
100
AcDbEntity
  8
1
  6
Continuous
 62
     7
100
AcDbLine
 10
178.3059994369065
 20
185.7589760741149
 30
0.0
 11
178.3059994369065
 21
185.2589760741149
 31
0.0
  0
LINE
  5
EA
330
4A
100
AcDbEntity
  8
1
  6
Continuous
 62
     7
100
AcDbLine
 10
178.3059994369065
 20
184.7589760741149
 30
0.0
 11
178.3059994369065
 21
184.2589760741149
 31
0.0
  0
LINE
  5
EB
330
4A
100
AcDbEntity
  8
1
  6
Continuous
 62
     2
100
AcDbLine
 10
177.7916527488105
 20
180.7589760741149
 30
0.0
 11
176.0235622247523
 21
180.7589760741149
 31
0.0
  0
LINE
  5
EC
330
4A
100
AcDbEntity
  8
1
  6
Continuous
 62
     2
100
AcDbLine
 10
177.5483375390777
 20
179.7589760741149
 30
0.0
 11
176.2830984484673
 21
179.7589760741149
 31
0.0
  0
LINE
  5
ED
330
4A
100
AcDbEntity
  8
1
  6
Continuous
 62
     7
100
AcDbLine
 10
178.6357651571102
 20
184.5089760741149
 30
0.0
 11
178.6357651571102
 21
178.7589760741149
 31
0.0
  0
LINE
  5
EE
330
4A
100
AcDbEntity
  8
1
  6
Continuous
 62
     7
100
AcDbLine
 10
178.3059994369065
 20
173.7589760741149
 30
0.0
 11
178.3059994369065
 21
173.2589760741149
 31
0.0
  0
LINE
  5
EF
330
4A
100
AcDbEntity
  8
1
  6
Continuous
 62
     2
100
AcDbLine
 10
175.3059994369065
 20
173.2589760741149
 30
0.0
 11
178.3059994369065
 21
173.2589760741149
 31
0.0
  0
LINE
  5
F0
330
4A
100
AcDbEntity
  8
1
  6
Continuous
 62
     7
100
AcDbLine
 10
178.3059994369065
 20
172.7589760741149
 30
0.0
 11
178.3059994369065
 21
172.2589760741149
 31
0.0
  0
LINE
  5
F1
330
4A
100
AcDbEntity
  8
1
  6
Continuous
 62
     2
100
AcDbLine
 10
175.3059994369065
 20
172.2589760741149
 30
0.0
 11
178.3059994369065
 21
172.2589760741149
 31
0.0
  0
LINE
  5
F2
330
4A
100
AcDbEntity
  8
1
  6
Continuous
 62
     7
100
AcDbLine
 10
178.3059994369065
 20
171.7589760741149
 30
0.0
 11
175.3059994369065
 21
171.7589760741149
 31
0.0
  0
LINE
  5
F3
330
4A
100
AcDbEntity
  8
1
  6
Continuous
 62
     7
100
AcDbLine
 10
178.5753216359297
 20
172.7589760741148
 30
0.0
 11
178.3059994369065
 21
171.7589760741149
 31
0.0
  0
LINE
  5
F4
330
4A
100
AcDbEntity
  8
1
  6
Continuous
 62
     7
100
AcDbLine
 10
178.3059994369065
 20
172.2589760741149
 30
0.0
 11
178.3059994369065
 21
171.7589760741149
 31
0.0
  0
LINE
  5
F5
330
4A
100
AcDbEntity
  8
1
  6
Continuous
 62
     2
100
AcDbLine
 10
175.3059994369065
 20
172.7589760741149
 30
0.0
 11
178.3059994369065
 21
172.7589760741149
 31
0.0
  0
LINE
  5
F6
330
4A
100
AcDbEntity
  8
1
  6
Continuous
 62
     7
100
AcDbLine
 10
178.3059994369065
 20
173.2589760741149
 30
0.0
 11
178.3059994369065
 21
172.7589760741149
 31
0.0
  0
LINE
  5
F7
330
4A
100
AcDbEntity
  8
1
  6
Continuous
 62
     7
100
AcDbLine
 10
178.6357651571102
 20
178.7589760741149
 30
0.0
 11
178.6357651571102
 21
173.0089760741149
 31
0.0
  0
LINE
  5
F8
330
4A
100
AcDbEntity
  8
1
  6
Continuous
 62
     2
100
AcDbLine
 10
177.5483375390777
 20
254.0308192373482
 30
0.0
 11
176.2830984484673
 21
254.0308192373482
 31
0.0
  0
LINE
  5
F9
330
4A
100
AcDbEntity
  8
1
  6
Continuous
 62
     2
100
AcDbLine
 10
177.7916527488105
 20
255.0308192373482
 30
0.0
 11
176.0235622247523
 21
255.0308192373482
 31
0.0
  0
LINE
  5
FA
330
4A
100
AcDbEntity
  8
1
  6
Continuous
 62
     2
100
AcDbLine
 10
178.0025259305789
 20
256.0308192373482
 30
0.0
 11
175.6666999171443
 21
256.0308192373482
 31
0.0
  0
LINE
  5
FB
330
4A
100
AcDbEntity
  8
1
  6
Continuous
 62
     2
100
AcDbLine
 10
178.1160730284542
 20
257.0308192373482
 30
0.0
 11
175.472047749358
 21
257.0308192373482
 31
0.0
  0
LINE
  5
FC
330
4A
100
AcDbEntity
  8
1
  6
Continuous
 62
     2
100
AcDbLine
 10
178.3059994369065
 20
258.0308192373482
 30
0.0
 11
175.3059994369065
 21
258.0308192373482
 31
0.0
  0
LINE
  5
FD
330
4A
100
AcDbEntity
  8
1
  6
Continuous
 62
     7
100
AcDbLine
 10
175.3059994369065
 20
259.0308192373482
 30
0.0
 11
175.3059994369065
 21
258.5308192373482
 31
0.0
  0
LINE
  5
FE
330
4A
100
AcDbEntity
  8
1
  6
Continuous
 62
     2
100
AcDbLine
 10
178.3059994369065
 20
259.0308192373482
 30
0.0
 11
175.3059994369065
 21
259.0308192373482
 31
0.0
  0
LINE
  5
FF
330
4A
100
AcDbEntity
  8
1
  6
Continuous
 62
     7
100
AcDbLine
 10
178.3059994369065
 20
260.0308192373482
 30
0.0
 11
178.5753216359297
 21
259.0308192373483
 31
0.0
  0
LINE
  5
100
330
4A
100
AcDbEntity
  8
1
  6
Continuous
 62
     7
100
AcDbLine
 10
175.3059994369065
 20
260.0308192373482
 30
0.0
 11
175.3059994369065
 21
259.5308192373482
 31
0.0
  0
LINE
  5
101
330
4A
100
AcDbEntity
  8
1
  6
Continuous
 62
     7
100
AcDbLine
 10
175.3059994369065
 20
260.0308192373482
 30
0.0
 11
178.3059994369065
 21
260.0308192373482
 31
0.0
  0
LINE
  5
102
330
4A
100
AcDbEntity
  8
1
  6
Continuous
 62
     2
100
AcDbLine
 10
178.3059994369065
 20
259.5308192373482
 30
0.0
 11
175.3059994369065
 21
259.5308192373482
 31
0.0
  0
LINE
  5
103
330
4A
100
AcDbEntity
  8
1
  6
Continuous
 62
     7
100
AcDbLine
 10
178.3059994369065
 20
260.0308192373482
 30
0.0
 11
178.3059994369065
 21
246.0308192373482
 31
0.0
  0
LINE
  5
104
330
4A
100
AcDbEntity
  8
1
  6
Continuous
 62
     7
100
AcDbLine
 10
175.3059994369065
 20
259.5308192373482
 30
0.0
 11
175.3059994369065
 21
259.0308192373482
 31
0.0
  0
LINE
  5
105
330
4A
100
AcDbEntity
  8
1
  6
Continuous
 62
     2
100
AcDbLine
 10
178.3059994369065
 20
258.5308192373482
 30
0.0
 11
175.3059994369065
 21
258.5308192373482
 31
0.0
  0
LINE
  5
106
330
4A
100
AcDbEntity
  8
1
  6
Continuous
 62
     7
100
AcDbLine
 10
175.3059994369065
 20
258.5308192373482
 30
0.0
 11
175.3059994369065
 21
258.0308192373482
 31
0.0
  0
LINE
  5
107
330
4A
100
AcDbEntity
  8
1
  6
Continuous
 62
     2
100
AcDbLine
 10
178.1615872018843
 20
257.5308192373482
 30
0.0
 11
175.4115867630939
 21
257.5308192373482
 31
0.0
  0
LINE
  5
108
330
4A
100
AcDbEntity
  8
1
  6
Continuous
 62
     2
100
AcDbLine
 10
178.0302177541714
 20
256.5308192373482
 30
0.0
 11
175.5604721371686
 21
256.5308192373482
 31
0.0
  0
LINE
  5
109
330
4A
100
AcDbEntity
  8
1
  6
Continuous
 62
     2
100
AcDbLine
 10
177.8375425641924
 20
255.5308192373482
 30
0.0
 11
175.9195486275839
 21
255.5308192373482
 31
0.0
  0
LINE
  5
10A
330
4A
100
AcDbEntity
  8
1
  6
Continuous
 62
     2
100
AcDbLine
 10
177.5923195951283
 20
254.5308192373482
 30
0.0
 11
176.2435932652757
 21
254.5308192373482
 31
0.0
  0
LINE
  5
10B
330
4A
100
AcDbEntity
  8
1
  6
Continuous
 62
     2
100
AcDbLine
 10
176.2435932652757
 20
251.5308192373482
 30
0.0
 11
177.5923195951283
 21
251.5308192373482
 31
0.0
  0
LINE
  5
10C
330
4A
100
AcDbEntity
  8
1
  6
Continuous
 62
     2
100
AcDbLine
 10
175.9195486275839
 20
250.5308192373482
 30
0.0
 11
177.8375425641924
 21
250.5308192373482
 31
0.0
  0
LINE
  5
10D
330
4A
100
AcDbEntity
  8
1
  6
Continuous
 62
     2
100
AcDbLine
 10
175.5604721371686
 20
249.5308192373482
 30
0.0
 11
178.0302177541714
 21
249.5308192373482
 31
0.0
  0
LINE
  5
10E
330
4A
100
AcDbEntity
  8
1
  6
Continuous
 62
     2
100
AcDbLine
 10
175.4115867630939
 20
248.5308192373482
 30
0.0
 11
178.1615872018843
 21
248.5308192373482
 31
0.0
  0
LINE
  5
10F
330
4A
100
AcDbEntity
  8
1
  6
Continuous
 62
     7
100
AcDbLine
 10
175.3059994369065
 20
246.0308192373482
 30
0.0
 11
175.3059994369065
 21
258.0308192373482
 31
0.0
  0
LINE
  5
110
330
4A
100
AcDbEntity
  8
1
  6
Continuous
 62
     2
100
AcDbLine
 10
175.3059994369065
 20
247.5308192373482
 30
0.0
 11
178.3059994369065
 21
247.5308192373482
 31
0.0
  0
LINE
  5
111
330
4A
100
AcDbEntity
  8
1
  6
Continuous
 62
     2
100
AcDbLine
 10
175.3059994369065
 20
246.5308192373482
 30
0.0
 11
178.3059994369065
 21
246.5308192373482
 31
0.0
  0
LINE
  5
112
330
4A
100
AcDbEntity
  8
1
  6
Continuous
 62
     7
100
AcDbLine
 10
178.3059994369065
 20
246.0308192373482
 30
0.0
 11
175.3059994369065
 21
246.0308192373482
 31
0.0
  0
LINE
  5
113
330
4A
100
AcDbEntity
  8
1
  6
Continuous
 62
     7
100
AcDbLine
 10
178.5753216359297
 20
247.0308192373482
 30
0.0
 11
178.3059994369065
 21
246.0308192373482
 31
0.0
  0
LINE
  5
114
330
4A
100
AcDbEntity
  8
1
  6
Continuous
 62
     2
100
AcDbLine
 10
175.3059994369065
 20
247.0308192373482
 30
0.0
 11
178.3059994369065
 21
247.0308192373482
 31
0.0
  0
LINE
  5
115
330
4A
100
AcDbEntity
  8
1
  6
Continuous
 62
     2
100
AcDbLine
 10
175.3059994369065
 20
248.0308192373482
 30
0.0
 11
178.3059994369065
 21
248.0308192373482
 31
0.0
  0
LINE
  5
116
330
4A
100
AcDbEntity
  8
1
  6
Continuous
 62
     2
100
AcDbLine
 10
175.472047749358
 20
249.0308192373482
 30
0.0
 11
178.1160730284542
 21
249.0308192373482
 31
0.0
  0
LINE
  5
117
330
4A
100
AcDbEntity
  8
1
  6
Continuous
 62
     2
100
AcDbLine
 10
175.6666999171443
 20
250.0308192373482
 30
0.0
 11
178.0025259305789
 21
250.0308192373482
 31
0.0
  0
LINE
  5
118
330
4A
100
AcDbEntity
  8
1
  6
Continuous
 62
     2
100
AcDbLine
 10
176.0235622247523
 20
251.0308192373482
 30
0.0
 11
177.7916527488105
 21
251.0308192373482
 31
0.0
  0
LINE
  5
119
330
4A
100
AcDbEntity
  8
1
  6
Continuous
 62
     2
100
AcDbLine
 10
176.2830984484673
 20
252.0308192373482
 30
0.0
 11
177.5483375390777
 21
252.0308192373482
 31
0.0
  0
LINE
  5
11A
330
4A
100
AcDbEntity
  8
1
  6
Continuous
 62
     7
100
AcDbLine
 10
178.6357651571102
 20
258.7808192373482
 30
0.0
 11
178.6357651571102
 21
247.2808192373482
 31
0.0
  0
ARC
  5
11B
330
4A
100
AcDbEntity
  8
1
  6
Continuous
 62
     7
100
AcDbCircle
 10
154.3059994369065
 20
178.7589760741149
 30
0.0
 40
24.99999999999999
100
AcDbArc
 50
13.29707174720906
 51
13.88654036262873
  0
ARC
  5
11C
330
4A
100
AcDbEntity
  8
1
  6
Continuous
 62
     7
100
AcDbCircle
 10
154.3059994369065
 20
178.7589760741149
 30
0.0
 40
25.00000000000004
100
AcDbArc
 50
346.1134596373707
 51
346.7029282527909
  0
ARC
  5
11D
330
4A
100
AcDbEntity
  8
1
  6
Continuous
 62
     7
100
AcDbCircle
 10
154.3059994369065
 20
178.7589760741149
 30
0.0
 40
25.0
100
AcDbArc
 50
0.0
 51
13.29707174720906
  0
ARC
  5
11E
330
4A
100
AcDbEntity
  8
1
  6
Continuous
 62
     7
100
AcDbCircle
 10
154.3059994369065
 20
178.7589760741149
 30
0.0
 40
24.99999999999999
100
AcDbArc
 50
346.7029282527909
 51
0.0
  0
ARC
  5
11F
330
4A
100
AcDbEntity
  8
1
  6
Continuous
 62
     7
100
AcDbCircle
 10
154.3059994369065
 20
253.0308192373482
 30
0.0
 40
25.00000000000001
100
AcDbArc
 50
346.113459637371
 51
13.88654036262917
  0
CIRCLE
  5
120
330
4A
100
AcDbEntity
  8
1
  6
Continuous
 62
     7
100
AcDbCircle
 10
93.101984657664
 20
92.5
 30
0.0
 40
5.75
  0
CIRCLE
  5
121
330
4A
100
AcDbEntity
  8
1
  6
Continuous
 62
     7
100
AcDbCircle
 10
93.101984657664
 20
92.5
 30
0.0
 40
7.0
  0
ENDBLK
  5
4C
330
4A
100
AcDbEntity
  8
0
100
AcDbBlockEnd
  0
BLOCK
  5
4E
330
4D
100
AcDbEntity
  8
0
100
AcDbBlockBegin
  2
21-1A
 70
     0
 10
110.7459037119152
 20
63.31655515397961
 30
0.0
  3
21-1A
  1

  0
LINE
  5
122
330
4D
100
AcDbEntity
  8
1
  6
Continuous
 62
     7
100
AcDbLine
 10
164.3059994369065
 20
209.1837918705044
 30
0.0
 11
164.3059994369065
 21
160.8342017861891
 31
0.0
  0
LINE
  5
123
330
4D
100
AcDbEntity
  8
1
  6
Continuous
 62
     7
100
AcDbLine
 10
164.3059994369065
 20
164.9666846706242
 30
0.0
 11
164.3059994369065
 21
166.5320413017162
 31
0.0
  0
LINE
  5
124
330
4D
100
AcDbEntity
  8
1
  6
Continuous
 62
     7
100
AcDbLine
 10
169.2650760426501
 20
160.9562902197638
 30
0.0
 11
164.8756213696191
 21
160.339072725756
 31
0.0
  0
LINE
  5
125
330
4D
100
AcDbEntity
  8
1
  6
Continuous
 62
     7
100
AcDbLine
 10
168.0910791922571
 20
209.2270178058828
 30
0.0
 11
164.8755859873865
 21
209.6789259048752
 31
0.0
  0
LINE
  5
126
330
4D
100
AcDbEntity
  8
1
  6
Continuous
 62
     7
100
AcDbLine
 10
175.3059994369065
 20
257.0308192373482
 30
0.0
 11
175.3059994369065
 21
249.0308192373482
 31
0.0
  0
LINE
  5
127
330
4D
100
AcDbEntity
  8
1
  6
Continuous
 62
     7
100
AcDbLine
 10
164.3059994369064
 20
246.7447857504384
 30
0.0
 11
164.3059994369064
 21
225.8808629086147
 31
0.0
  0
LINE
  5
128
330
4D
100
AcDbEntity
  8
1
  6
Continuous
 62
     7
100
AcDbLine
 10
164.3059994369064
 20
259.4111357504385
 30
0.0
 11
164.3059994369064
 21
246.7447857504384
 31
0.0
  0
LINE
  5
129
330
4D
100
AcDbEntity
  8
1
  6
Continuous
 62
     7
100
AcDbLine
 10
164.8755717477229
 20
225.3857412525949
 30
0.0
 11
168.0909845652633
 21
225.8376380538847
 31
0.0
  0
LINE
  5
12A
330
4D
100
AcDbEntity
  8
1
  6
Continuous
 62
     7
100
AcDbLine
 10
164.3059994369064
 20
280.1807755660821
 30
0.0
 11
164.3059994369064
 21
259.4111357504385
 31
0.0
  0
LINE
  5
12B
330
4D
100
AcDbEntity
  8
1
  6
Continuous
 62
     7
100
AcDbLine
 10
168.0909845652633
 20
280.224000420812
 30
0.0
 11
164.8755717477229
 21
280.6758972221019
 31
0.0
  0
LINE
  5
12C
330
4D
100
AcDbEntity
  8
1
  6
Continuous
 62
     7
100
AcDbLine
 10
106.7908935789417
 20
75.92168101604187
 30
0.0
 11
99.572460785227
 21
77.85585425373608
 31
0.0
  0
LINE
  5
12D
330
4D
100
AcDbEntity
  8
1
  6
Continuous
 62
     7
100
AcDbLine
 10
114.3036845104524
 20
88.93421661606112
 30
0.0
 11
109.0194249544319
 21
94.21847617208164
 31
0.0
  0
LINE
  5
12E
330
4D
100
AcDbEntity
  8
1
  6
Continuous
 62
     7
100
AcDbLine
 10
85.81849329259207
 20
113.49986
 30
0.0
 11
83.6550204884591
 21
105.4256695741823
 31
0.0
  0
LINE
  5
12F
330
4D
100
AcDbEntity
  8
1
  6
Continuous
 62
     7
100
AcDbLine
 10
100.3854760227359
 20
113.49986
 30
0.0
 11
102.5489488268689
 21
105.4256695741823
 31
0.0
  0
LINE
  5
130
330
4D
100
AcDbEntity
  8
1
  6
Continuous
 62
     7
100
AcDbLine
 10
71.90028480487564
 20
88.93421661606112
 30
0.0
 11
77.18454436089607
 21
94.21847617208164
 31
0.0
  0
LINE
  5
131
330
4D
100
AcDbEntity
  8
1
  6
Continuous
 62
     7
100
AcDbLine
 10
80.4592659026862
 20
76.2020068262313
 30
0.0
 11
86.631508530101
 21
77.85585425373608
 31
0.0
  0
LINE
  5
132
330
4D
100
AcDbEntity
  8
1
  6
Continuous
 62
     7
100
AcDbLine
 10
98.8975396153984
 20
119.0529142706151
 30
0.0
 11
100.3854760227359
 21
113.49986
 31
0.0
  0
LINE
  5
133
330
4D
100
AcDbEntity
  8
1
  6
Continuous
 62
     7
100
AcDbLine
 10
87.3064296999296
 20
119.0529142706151
 30
0.0
 11
85.81849329259207
 21
113.49986
 31
0.0
  0
LINE
  5
134
330
4D
100
AcDbEntity
  8
1
  6
Continuous
 62
     7
100
AcDbLine
 10
67.20870887593375
 20
84.2426406871192
 30
0.0
 11
71.90028480487564
 21
88.93421661606112
 31
0.0
  0
LINE
  5
135
330
4D
100
AcDbEntity
  8
1
  6
Continuous
 62
     7
100
AcDbLine
 10
72.24375893104767
 20
74.00066836776853
 30
0.0
 11
80.4592659026862
 21
76.2020068262313
 31
0.0
  0
LINE
  5
136
330
4D
100
AcDbEntity
  8
1
  6
Continuous
 62
     7
100
AcDbLine
 10
113.1997054816598
 20
74.20444504226555
 30
0.0
 11
106.7908935789417
 21
75.92168101604187
 31
0.0
  0
LINE
  5
137
330
4D
100
AcDbEntity
  8
1
  6
Continuous
 62
     7
100
AcDbLine
 10
118.9952604393942
 20
84.2426406871192
 30
0.0
 11
114.3036845104524
 21
88.93421661606112
 31
0.0
  0
LINE
  5
138
330
4D
100
AcDbEntity
  8
1
  6
Continuous
 62
     7
100
AcDbLine
 10
164.3059994369065
 20
258.0778357504385
 30
0.0
 11
164.3059994369065
 21
248.0780857504384
 31
0.0
  0
ARC
  5
139
330
4D
100
AcDbEntity
  8
1
  6
Continuous
 62
     7
100
AcDbCircle
 10
100.3941784282073
 20
178.3947804088681
 30
0.0
 40
74.99999999999997
100
AcDbArc
 50
350.408507517335
 51
357.2213610340374
  0
ARC
  5
13A
330
4D
100
AcDbEntity
  8
1
  6
Continuous
 62
     7
100
AcDbCircle
 10
25.30599943690652
 20
178.7589760741149
 30
0.0
 40
150.0533238552215
100
AcDbArc
 50
1.52752544221293
 51
9.80290179376778
  0
ARC
  5
13B
330
4D
100
AcDbEntity
  8
1
  6
Continuous
 62
     7
100
AcDbCircle
 10
47.93875615039556
 20
254.6678686609788
 30
0.0
 40
127.4916460373059
100
AcDbArc
 50
349.1905067536478
 51
357.4658831052026
  0
ARC
  5
13C
330
4D
100
AcDbEntity
  8
1
  6
Continuous
 62
     7
100
AcDbCircle
 10
47.93875615039556
 20
251.3937698137179
 30
0.0
 40
127.4916460373056
100
AcDbArc
 50
2.53411689479733
 51
10.80949324635214
  0
ARC
  5
13D
330
4D
100
AcDbEntity
  8
1
  6
Continuous
 62
     7
100
AcDbCircle
 10
93.101984657664
 20
117.5
 30
0.0
 40
5.999999999999981
100
AcDbArc
 50
14.99999999999985
 51
39.7649854735052
  0
ARC
  5
13E
330
4D
100
AcDbEntity
  8
1
  6
Continuous
 62
     7
100
AcDbCircle
 10
93.101984657664
 20
117.5
 30
0.0
 40
6.0
100
AcDbArc
 50
90.0
 51
123.5601168989749
  0
ARC
  5
13F
330
4D
100
AcDbEntity
  8
1
  6
Continuous
 62
     7
100
AcDbCircle
 10
93.101984657664
 20
117.5
 30
0.0
 40
6.000000000000014
100
AcDbArc
 50
39.7649854735052
 51
56.43988310102473
  0
ARC
  5
140
330
4D
100
AcDbEntity
  8
1
  6
Continuous
 62
     7
100
AcDbCircle
 10
93.101984657664
 20
117.5
 30
0.0
 40
5.999999999999998
100
AcDbArc
 50
123.5601168989749
 51
140.2350145264946
  0
ARC
  5
141
330
4D
100
AcDbEntity
  8
1
  6
Continuous
 62
     7
100
AcDbCircle
 10
93.101984657664
 20
117.5
 30
0.0
 40
6.000000000000021
100
AcDbArc
 50
56.43988310102473
 51
90.0
  0
ARC
  5
142
330
4D
100
AcDbEntity
  8
1
  6
Continuous
 62
     7
100
AcDbCircle
 10
93.101984657664
 20
117.5
 30
0.0
 40
5.999999999999992
100
AcDbArc
 50
140.2350145264946
 51
165.0000000000002
  0
ARC
  5
143
330
4D
100
AcDbEntity
  8
1
  6
Continuous
 62
     7
100
AcDbCircle
 10
71.45134956305301
 20
80.0
 30
0.0
 40
5.999999999999928
100
AcDbArc
 50
135.0000000000004
 51
277.5242410789414
  0
ARC
  5
144
330
4D
100
AcDbEntity
  8
1
  6
Continuous
 62
     7
100
AcDbCircle
 10
114.752619752275
 20
80.0
 30
0.0
 40
6.000000000000059
100
AcDbArc
 50
254.9999999999995
 51
45.0
  0
ARC
  5
145
330
4D
100
AcDbEntity
  8
1
  6
Continuous
 62
     7
100
AcDbCircle
 10
164.8059994369065
 20
160.8342017861891
 30
0.0
 40
0.5
100
AcDbArc
 50
180.0
 51
278.0040943716999
  0
ARC
  5
146
330
4D
100
AcDbEntity
  8
1
  6
Continuous
 62
     7
100
AcDbCircle
 10
164.8059994369065
 20
209.1837918705046
 30
0.0
 40
0.4999999999998214
100
AcDbArc
 50
81.99999999999963
 51
180.0000000000228
  0
ARC
  5
147
330
4D
100
AcDbEntity
  8
1
  6
Continuous
 62
     7
100
AcDbCircle
 10
168.4296128500987
 20
166.8978389449608
 30
0.0
 40
5.999999999999866
100
AcDbArc
 50
278.0040943717012
 51
350.4085075173357
  0
ARC
  5
148
330
4D
100
AcDbEntity
  8
1
  6
Continuous
 62
     7
100
AcDbCircle
 10
167.2560405864968
 20
203.2854093934334
 30
0.0
 40
6.000000000000019
100
AcDbArc
 50
9.80290179376779
 51
82.00000000000082
  0
ARC
  5
149
330
4D
100
AcDbEntity
  8
1
  6
Continuous
 62
     7
100
AcDbCircle
 10
167.255966835468
 20
231.7790979261238
 30
0.0
 40
5.999850000000006
100
AcDbArc
 50
278.0000000000006
 51
350.1970982062309
  0
ARC
  5
14A
330
4D
100
AcDbEntity
  8
1
  6
Continuous
 62
     7
100
AcDbCircle
 10
164.8059869369064
 20
225.8808629086147
 30
0.0
 40
0.4999875000000031
100
AcDbArc
 50
180.0
 51
278.0000000000259
  0
ARC
  5
14B
330
4D
100
AcDbEntity
  8
1
  6
Continuous
 62
     7
100
AcDbCircle
 10
164.8059869369064
 20
280.1807755660821
 30
0.0
 40
0.4999874999999233
100
AcDbArc
 50
81.9999999999746
 51
180.0
  0
ARC
  5
14C
330
4D
100
AcDbEntity
  8
1
  6
Continuous
 62
     7
100
AcDbCircle
 10
167.255966835468
 20
274.282540548573
 30
0.0
 40
5.999850000000082
100
AcDbArc
 50
9.80290179376539
 51
81.99999999999923
  0
ARC
  5
14D
330
4D
100
AcDbEntity
  8
1
  6
Continuous
 62
     7
100
AcDbCircle
 10
126.6970944840956
 20
111.8961457017453
 30
0.0
 40
24.99999999999999
100
AcDbArc
 50
205.4674616676398
 51
214.5325383323596
  0
ARC
  5
14E
330
4D
100
AcDbEntity
  8
1
  6
Continuous
 62
     7
100
AcDbCircle
 10
126.6970944840956
 20
111.8961457017453
 30
0.0
 40
25.0
100
AcDbArc
 50
194.9999999999999
 51
205.4674616676398
  0
ARC
  5
14F
330
4D
100
AcDbEntity
  8
1
  6
Continuous
 62
     7
100
AcDbCircle
 10
59.50687483123241
 20
111.8961457017453
 30
0.0
 40
24.99999999999999
100
AcDbArc
 50
325.4674616676404
 51
334.5325383323599
  0
ARC
  5
150
330
4D
100
AcDbEntity
  8
1
  6
Continuous
 62
     7
100
AcDbCircle
 10
59.50687483123241
 20
111.8961457017453
 30
0.0
 40
24.99999999999996
100
AcDbArc
 50
315.0
 51
325.4674616676404
  0
ARC
  5
151
330
4D
100
AcDbEntity
  8
1
  6
Continuous
 62
     7
100
AcDbCircle
 10
93.101984657664
 20
53.70770859650929
 30
0.0
 40
25.00000000000002
100
AcDbArc
 50
85.46746166764046
 51
94.53253833235934
  0
ARC
  5
152
330
4D
100
AcDbEntity
  8
1
  6
Continuous
 62
     7
100
AcDbCircle
 10
93.101984657664
 20
53.70770859650929
 30
0.0
 40
25.00000000000007
100
AcDbArc
 50
75.00000000000013
 51
85.46746166764046
  0
ARC
  5
153
330
4D
100
AcDbEntity
  8
1
  6
Continuous
 62
     7
100
AcDbCircle
 10
126.6970944840956
 20
111.8961457017453
 30
0.0
 40
24.99999999999999
100
AcDbArc
 50
214.5325383323596
 51
224.9999999999999
  0
ARC
  5
154
330
4D
100
AcDbEntity
  8
1
  6
Continuous
 62
     7
100
AcDbCircle
 10
59.50687483123241
 20
111.8961457017453
 30
0.0
 40
24.99999999999998
100
AcDbArc
 50
334.5325383323599
 51
345.0
  0
ARC
  5
155
330
4D
100
AcDbEntity
  8
1
  6
Continuous
 62
     7
100
AcDbCircle
 10
93.101984657664
 20
53.70770859650929
 30
0.0
 40
25.00000000000002
100
AcDbArc
 50
94.53253833235934
 51
104.9999999999999
  0
ENDBLK
  5
4F
330
4D
100
AcDbEntity
  8
0
100
AcDbBlockEnd
  0
BLOCK
  5
51
330
50
100
AcDbEntity
  8
0
100
AcDbBlockBegin
  2
V2110-2-0-13
 70
     0
 10
-3.35228368400942
 20
311.4599379684382
 30
0.0
  3
V2110-2-0-13
  1

  0
LINE
  5
156
330
50
100
AcDbEntity
  8
1
  6
Continuous
 62
     7
100
AcDbLine
 10
123.0559994369061
 20
259.0308192373482
 30
0.0
 11
122.8059994369061
 21
259.0308192373482
 31
0.0
  0
LINE
  5
157
330
50
100
AcDbEntity
  8
1
  6
Continuous
 62
     7
100
AcDbLine
 10
122.8059994369061
 20
247.0308192373483
 30
0.0
 11
123.0559994369061
 21
247.0308192373483
 31
0.0
  0
LINE
  5
158
330
50
100
AcDbEntity
  8
1
  6
Continuous
 62
     7
100
AcDbLine
 10
123.8059994369061
 20
258.2808192373483
 30
0.0
 11
123.8059994369061
 21
247.7808192373482
 31
0.0
  0
LINE
  5
159
330
50
100
AcDbEntity
  8
1
  6
Continuous
 62
     7
100
AcDbLine
 10
122.8059994369061
 20
259.4534190808905
 30
0.0
 11
122.8059994369061
 21
246.6082193938063
 31
0.0
  0
LINE
  5
15A
330
50
100
AcDbEntity
  8
1
  6
Continuous
 62
     7
100
AcDbLine
 10
85.81849329259175
 20
113.49986
 30
0.0
 11
83.7639846576638
 21
113.49986
 31
0.0
  0
LINE
  5
15B
330
50
100
AcDbEntity
  8
1
  6
Continuous
 62
     7
100
AcDbLine
 10
96.4188544129595
 20
122.4998375
 30
0.0
 11
102.4399846576637
 21
122.4998375
 31
0.0
  0
LINE
  5
15C
330
50
100
AcDbEntity
  8
1
  6
Continuous
 62
     7
100
AcDbLine
 10
97.7140320366216
 20
121.337840405
 30
0.0
 11
102.4399613126637
 21
121.337840405
 31
0.0
  0
LINE
  5
15D
330
50
100
AcDbEntity
  8
1
  6
Continuous
 62
     7
100
AcDbLine
 10
103.601984657664
 20
111.2610470866874
 30
0.0
 11
103.6019846576637
 21
109.4033713644361
 31
0.0
  0
LINE
  5
15E
330
50
100
AcDbEntity
  8
1
  6
PHANTOM
 62
     4
100
AcDbLine
 10
121.8059994369061
 20
268.5057760992549
 30
0.0
 11
121.8059994369064
 21
238.0308567373484
 31
0.0
  0
LINE
  5
15F
330
50
100
AcDbEntity
  8
1
  6
Continuous
 62
     7
100
AcDbLine
 10
100.4643359121141
 20
248.0816077881001
 30
0.0
 11
100.4643359121141
 21
257.9800306865971
 31
0.0
  0
LINE
  5
160
330
50
100
AcDbEntity
  8
1
  6
Continuous
 62
     2
100
AcDbLine
 10
111.3059994369065
 20
197.7463330357195
 30
0.0
 11
112.4679994369065
 21
199.7589760741147
 31
0.0
  0
LINE
  5
161
330
50
100
AcDbEntity
  8
1
  6
Continuous
 62
     7
100
AcDbLine
 10
144.5069613312297
 20
166.7589760741147
 30
0.0
 11
141.1080617048495
 21
166.7589760741147
 31
0.0
  0
LINE
  5
162
330
50
100
AcDbEntity
  8
1
  6
Continuous
 62
     7
100
AcDbLine
 10
147.2355920613384
 20
166.7589760741147
 30
0.0
 11
144.5069613312297
 21
166.7589760741147
 31
0.0
  0
LINE
  5
163
330
50
100
AcDbEntity
  8
1
  6
Continuous
 62
     7
100
AcDbLine
 10
132.3059994369064
 20
197.7463330357195
 30
0.0
 11
132.3059994369065
 21
196.7589760741149
 31
0.0
  0
LINE
  5
164
330
50
100
AcDbEntity
  8
1
  6
Continuous
 62
     7
100
AcDbLine
 10
144.5069613312297
 20
190.7589760741149
 30
0.0
 11
138.3059994369065
 21
190.7589760741149
 31
0.0
  0
LINE
  5
165
330
50
100
AcDbEntity
  8
1
  6
Continuous
 62
     2
100
AcDbLine
 10
131.1439994369067
 20
199.7589760741147
 30
0.0
 11
132.3059994369064
 21
197.7463330357195
 31
0.0
  0
LINE
  5
166
330
50
100
AcDbEntity
  8
1
  6
Continuous
 62
     2
100
AcDbLine
 10
131.1439994369067
 20
208.7589760741147
 30
0.0
 11
131.1439994369067
 21
199.7589760741147
 31
0.0
  0
LINE
  5
167
330
50
100
AcDbEntity
  8
1
  6
Continuous
 62
     7
100
AcDbLine
 10
112.4679994369065
 20
208.7589760741147
 30
0.0
 11
115.3059994369065
 21
208.7589760741147
 31
0.0
  0
LINE
  5
168
330
50
100
AcDbEntity
  8
1
  6
Continuous
 62
     2
100
AcDbLine
 10
112.4679994369065
 20
199.7589760741147
 30
0.0
 11
112.4679994369065
 21
208.7589760741147
 31
0.0
  0
LINE
  5
169
330
50
100
AcDbEntity
  8
1
  6
Continuous
 62
     7
100
AcDbLine
 10
132.3059994369065
 20
207.5969760741148
 30
0.0
 11
132.3059994369065
 21
199.7589760741149
 31
0.0
  0
LINE
  5
16A
330
50
100
AcDbEntity
  8
1
  6
Continuous
 62
     7
100
AcDbLine
 10
131.1439994369067
 20
208.7589760741147
 30
0.0
 11
132.3059994369065
 21
207.5969760741148
 31
0.0
  0
LINE
  5
16B
330
50
100
AcDbEntity
  8
1
  6
Continuous
 62
     7
100
AcDbLine
 10
111.3059994369065
 20
207.5969760741148
 30
0.0
 11
111.3059994369065
 21
199.7589760741147
 31
0.0
  0
LINE
  5
16C
330
50
100
AcDbEntity
  8
1
  6
Continuous
 62
     7
100
AcDbLine
 10
112.4679994369065
 20
208.7589760741147
 30
0.0
 11
111.3059994369065
 21
207.5969760741148
 31
0.0
  0
LINE
  5
16D
330
50
100
AcDbEntity
  8
1
  6
Continuous
 62
     7
100
AcDbLine
 10
131.1439994369067
 20
199.7589760741147
 30
0.0
 11
132.3059994369065
 21
199.7589760741149
 31
0.0
  0
LINE
  5
16E
330
50
100
AcDbEntity
  8
1
  6
Continuous
 62
     7
100
AcDbLine
 10
132.3059994369065
 20
199.7589760741149
 30
0.0
 11
132.3059994369064
 21
197.7463330357195
 31
0.0
  0
LINE
  5
16F
330
50
100
AcDbEntity
  8
1
  6
Continuous
 62
     7
100
AcDbLine
 10
111.3059994369065
 20
199.7589760741147
 30
0.0
 11
112.4679994369065
 21
199.7589760741147
 31
0.0
  0
LINE
  5
170
330
50
100
AcDbEntity
  8
1
  6
Continuous
 62
     7
100
AcDbLine
 10
145.8059994369062
 20
190.7589760741147
 30
0.0
 11
147.2355920613384
 21
190.7589760741147
 31
0.0
  0
LINE
  5
171
330
50
100
AcDbEntity
  8
1
  6
Continuous
 62
     7
100
AcDbLine
 10
145.8059994369062
 20
190.7589760741147
 30
0.0
 11
145.8059994369065
 21
190.0089760741149
 31
0.0
  0
LINE
  5
172
330
50
100
AcDbEntity
  8
1
  6
Continuous
 62
     7
100
AcDbLine
 10
144.5069613312297
 20
190.7589760741149
 30
0.0
 11
145.8059994369062
 21
190.7589760741147
 31
0.0
  0
LINE
  5
173
330
50
100
AcDbEntity
  8
1
  6
Continuous
 62
     7
100
AcDbLine
 10
145.8059994369062
 20
166.7589760741147
 30
0.0
 11
145.8059994369065
 21
167.5089760741147
 31
0.0
  0
LINE
  5
174
330
50
100
AcDbEntity
  8
1
  6
Continuous
 62
     2
100
AcDbLine
 10
145.8059994369065
 20
190.0089760741149
 30
0.0
 11
147.2355920613384
 21
190.0089760741149
 31
0.0
  0
LINE
  5
175
330
50
100
AcDbEntity
  8
1
  6
Continuous
 62
     2
100
AcDbLine
 10
145.8059994369065
 20
167.5089760741147
 30
0.0
 11
147.2355920613387
 21
167.5089760741147
 31
0.0
  0
LINE
  5
176
330
50
100
AcDbEntity
  8
1
  6
Continuous
 62
     2
100
AcDbLine
 10
144.5069613312297
 20
166.7589760741147
 30
0.0
 11
145.8059994369065
 21
167.5089760741147
 31
0.0
  0
LINE
  5
177
330
50
100
AcDbEntity
  8
1
  6
Continuous
 62
     2
100
AcDbLine
 10
144.5069613312297
 20
190.7589760741149
 30
0.0
 11
145.8059994369065
 21
190.0089760741149
 31
0.0
  0
LINE
  5
178
330
50
100
AcDbEntity
  8
1
  6
Continuous
 62
     7
100
AcDbLine
 10
111.3059994369065
 20
195.6623474385509
 30
0.0
 11
111.3059994369065
 21
197.7463330357195
 31
0.0
  0
LINE
  5
179
330
50
100
AcDbEntity
  8
1
  6
Continuous
 62
     7
100
AcDbLine
 10
111.3059994369065
 20
197.7463330357195
 30
0.0
 11
111.3059994369065
 21
199.7589760741147
 31
0.0
  0
LINE
  5
17A
330
50
100
AcDbEntity
  8
1
  6
Continuous
 62
     7
100
AcDbLine
 10
106.3193484239975
 20
172.5589760741148
 30
0.0
 11
100.8059994369062
 21
172.5589760741148
 31
0.0
  0
LINE
  5
17B
330
50
100
AcDbEntity
  8
1
  6
Continuous
 62
     7
100
AcDbLine
 10
100.8059994369062
 20
172.5589760741148
 30
0.0
 11
100.3059994369065
 21
173.0589760741148
 31
0.0
  0
LINE
  5
17C
330
50
100
AcDbEntity
  8
1
  6
Continuous
 62
     7
100
AcDbLine
 10
100.3059994369065
 20
173.0589760741148
 30
0.0
 11
100.3059994369065
 21
184.4589760741148
 31
0.0
  0
LINE
  5
17D
330
50
100
AcDbEntity
  8
1
  6
Continuous
 62
     7
100
AcDbLine
 10
100.8059994369062
 20
184.9589760741148
 30
0.0
 11
100.3059994369065
 21
184.4589760741148
 31
0.0
  0
LINE
  5
17E
330
50
100
AcDbEntity
  8
1
  6
Continuous
 62
     7
100
AcDbLine
 10
107.3344868434538
 20
184.9589760741148
 30
0.0
 11
100.8059994369062
 21
184.9589760741148
 31
0.0
  0
LINE
  5
17F
330
50
100
AcDbEntity
  8
1
  6
Continuous
 62
     7
100
AcDbLine
 10
115.3059994369065
 20
208.7589760741147
 30
0.0
 11
131.1439994369067
 21
208.7589760741147
 31
0.0
  0
LINE
  5
180
330
50
100
AcDbEntity
  8
1
  6
Continuous
 62
     7
100
AcDbLine
 10
100.9643346621138
 20
246.8308347373485
 30
0.0
 11
100.4643359121141
 21
247.3308334873486
 31
0.0
  0
LINE
  5
181
330
50
100
AcDbEntity
  8
1
  6
Continuous
 62
     7
100
AcDbLine
 10
100.9643346621141
 20
259.2308037373487
 30
0.0
 11
100.4643359121141
 21
258.7308049873486
 31
0.0
  0
LINE
  5
182
330
50
100
AcDbEntity
  8
1
  6
Continuous
 62
     7
100
AcDbLine
 10
100.9643346621141
 20
259.2308037373487
 30
0.0
 11
105.7661079706145
 21
259.2308037373487
 31
0.0
  0
LINE
  5
183
330
50
100
AcDbEntity
  8
1
  6
Continuous
 62
     7
100
AcDbLine
 10
100.9643346621138
 20
246.8308347373485
 30
0.0
 11
105.6643229121138
 21
246.8308347373485
 31
0.0
  0
LINE
  5
184
330
50
100
AcDbEntity
  8
1
  6
Continuous
 62
     7
100
AcDbLine
 10
100.4643359121141
 20
247.3308334873486
 30
0.0
 11
100.4643359121138
 21
256.3938108298486
 31
0.0
  0
LINE
  5
185
330
50
100
AcDbEntity
  8
1
  6
Continuous
 62
     7
100
AcDbLine
 10
100.4643359121138
 20
256.3938108298486
 30
0.0
 11
100.4643359121141
 21
258.7308049873486
 31
0.0
  0
LINE
  5
186
330
50
100
AcDbEntity
  8
1
  6
Continuous
 62
     7
100
AcDbLine
 10
100.9643346621141
 20
259.2308037373487
 30
0.0
 11
100.9643346621138
 21
246.8308347373485
 31
0.0
  0
LINE
  5
187
330
50
100
AcDbEntity
  8
1
  6
Continuous
 62
     7
100
AcDbLine
 10
144.3977856507461
 20
265.5308192373483
 30
0.0
 11
135.0559994369063
 21
265.5308192373483
 31
0.0
  0
LINE
  5
188
330
50
100
AcDbEntity
  8
1
  6
Continuous
 62
     7
100
AcDbLine
 10
135.055999436906
 20
240.5308192373483
 30
0.0
 11
147.2338770963388
 21
240.5308192373483
 31
0.0
  0
LINE
  5
189
330
50
100
AcDbEntity
  8
1
  6
Continuous
 62
     7
100
AcDbLine
 10
145.8059394369061
 20
265.5308192373483
 30
0.0
 11
144.3977856507461
 21
265.5308192373483
 31
0.0
  0
LINE
  5
18A
330
50
100
AcDbEntity
  8
1
  6
Continuous
 62
     2
100
AcDbLine
 10
145.8059394369064
 20
264.7178212698486
 30
0.0
 11
144.3977856507461
 21
265.5308192373483
 31
0.0
  0
LINE
  5
18B
330
50
100
AcDbEntity
  8
1
  6
Continuous
 62
     7
100
AcDbLine
 10
145.8059394369061
 20
265.5308192373483
 30
0.0
 11
145.8059394369064
 21
264.7178212698486
 31
0.0
  0
LINE
  5
18C
330
50
100
AcDbEntity
  8
1
  6
Continuous
 62
     2
100
AcDbLine
 10
145.8059394369064
 20
264.7178212698486
 30
0.0
 11
147.2338770963385
 21
264.7178212698486
 31
0.0
  0
LINE
  5
18D
330
50
100
AcDbEntity
  8
1
  6
Continuous
 62
     7
100
AcDbLine
 10
147.2338770963385
 20
265.5308192373483
 30
0.0
 11
145.8059394369061
 21
265.5308192373483
 31
0.0
  0
LINE
  5
18E
330
50
100
AcDbEntity
  8
1
  6
Continuous
 62
     7
100
AcDbLine
 10
110.8447980010267
 20
260.9112476415162
 30
0.0
 11
112.7284600257532
 21
262.6828023620209
 31
0.0
  0
LINE
  5
18F
330
50
100
AcDbEntity
  8
1
  6
Continuous
 62
     7
100
AcDbLine
 10
110.844798001027
 20
245.1503908331808
 30
0.0
 11
112.7284600257529
 21
243.3788361126761
 31
0.0
  0
LINE
  5
190
330
50
100
AcDbEntity
  8
1
  6
Continuous
 62
     7
100
AcDbLine
 10
145.8059394369061
 20
240.5308192373484
 30
0.0
 11
147.2338770963388
 21
240.5308192373483
 31
0.0
  0
LINE
  5
191
330
50
100
AcDbEntity
  8
1
  6
Continuous
 62
     2
100
AcDbLine
 10
147.2338770963385
 20
241.3438172048482
 30
0.0
 11
145.8059394369064
 21
241.3438172048482
 31
0.0
  0
LINE
  5
192
330
50
100
AcDbEntity
  8
1
  6
Continuous
 62
     7
100
AcDbLine
 10
145.8059394369064
 20
241.3438172048482
 30
0.0
 11
145.8059394369061
 21
240.5308192373484
 31
0.0
  0
LINE
  5
193
330
50
100
AcDbEntity
  8
1
  6
Continuous
 62
     2
100
AcDbLine
 10
144.3977856507461
 20
240.5308192373484
 30
0.0
 11
145.8059394369064
 21
241.3438172048482
 31
0.0
  0
LINE
  5
194
330
50
100
AcDbEntity
  8
1
  6
Continuous
 62
     7
100
AcDbLine
 10
144.3977856507461
 20
240.5308192373484
 30
0.0
 11
145.8059394369061
 21
240.5308192373484
 31
0.0
  0
LINE
  5
195
330
50
100
AcDbEntity
  8
1
  6
Continuous
 62
     7
100
AcDbLine
 10
145.8059394369064
 20
264.7178212698486
 30
0.0
 11
145.8059394369064
 21
241.3438172048482
 31
0.0
  0
LINE
  5
196
330
50
100
AcDbEntity
  8
1
  6
Continuous
 62
     7
100
AcDbLine
 10
136.5559994369063
 20
145.7700830730447
 30
0.0
 11
134.8059994369065
 21
143.7589760741147
 31
0.0
  0
LINE
  5
197
330
50
100
AcDbEntity
  8
1
  6
Continuous
 62
     7
100
AcDbLine
 10
136.5559994369062
 20
149.7061514845074
 30
0.0
 11
136.5559994369063
 21
145.7700830730447
 31
0.0
  0
LINE
  5
198
330
50
100
AcDbEntity
  8
1
  6
Continuous
 62
     7
100
AcDbLine
 10
111.3059994369062
 20
143.7589760741147
 30
0.0
 11
134.8059994369065
 21
143.7589760741147
 31
0.0
  0
LINE
  5
199
330
50
100
AcDbEntity
  8
1
  6
Continuous
 62
     7
100
AcDbLine
 10
111.3059994369062
 20
143.7589760741147
 30
0.0
 11
108.8059994369065
 21
143.7589760741147
 31
0.0
  0
LINE
  5
19A
330
50
100
AcDbEntity
  8
1
  6
Continuous
 62
     7
100
AcDbLine
 10
108.8059994369065
 20
143.7589760741147
 30
0.0
 11
107.0559994369066
 21
145.7700830730445
 31
0.0
  0
LINE
  5
19B
330
50
100
AcDbEntity
  8
1
  6
Continuous
 62
     7
100
AcDbLine
 10
107.0559994369066
 20
145.7700830730445
 30
0.0
 11
107.0559994369065
 21
149.7061514845074
 31
0.0
  0
LINE
  5
19C
330
50
100
AcDbEntity
  8
1
  6
Continuous
 62
     7
100
AcDbLine
 10
107.0559994369065
 20
149.7061514845074
 30
0.0
 11
108.914400471359
 21
152.2320826363767
 31
0.0
  0
LINE
  5
19D
330
50
100
AcDbEntity
  8
1
  6
Continuous
 62
     7
100
AcDbLine
 10
134.697598402454
 20
152.2320826363767
 30
0.0
 11
136.5559994369062
 21
149.7061514845074
 31
0.0
  0
LINE
  5
19E
330
50
100
AcDbEntity
  8
1
  6
Continuous
 62
     7
100
AcDbLine
 10
80.102017157664
 20
63.4482863370942
 30
0.0
 11
80.102017157664
 21
57.5
 31
0.0
  0
LINE
  5
19F
330
50
100
AcDbEntity
  8
1
  6
Continuous
 62
     7
100
AcDbLine
 10
106.101952157664
 20
57.5
 30
0.0
 11
106.1019521576637
 21
63.4482863370942
 31
0.0
  0
LINE
  5
1A0
330
50
100
AcDbEntity
  8
1
  6
Continuous
 62
     7
100
AcDbLine
 10
106.101952157664
 20
57.5
 30
0.0
 11
80.102017157664
 21
57.5
 31
0.0
  0
LINE
  5
1A1
330
50
100
AcDbEntity
  8
1
  6
Continuous
 62
     7
100
AcDbLine
 10
93.101984657664
 20
63.4482863370942
 30
0.0
 11
93.101984657664
 21
59.7599943499996
 31
0.0
  0
LINE
  5
1A2
330
50
100
AcDbEntity
  8
1
  6
Continuous
 62
     7
100
AcDbLine
 10
102.6899584076633
 20
113.49986
 30
0.0
 11
102.4399846576637
 21
113.49986
 31
0.0
  0
LINE
  5
1A3
330
50
100
AcDbEntity
  8
1
  6
Continuous
 62
     2
100
AcDbLine
 10
83.7639846576638
 20
113.49986
 30
0.0
 11
83.76398465766349
 21
121.337840405
 31
0.0
  0
LINE
  5
1A4
330
50
100
AcDbEntity
  8
1
  6
Continuous
 62
     7
100
AcDbLine
 10
82.60198756266348
 20
113.49986
 30
0.0
 11
82.60199046766388
 21
111.4873569616047
 31
0.0
  0
LINE
  5
1A5
330
50
100
AcDbEntity
  8
1
  6
Continuous
 62
     2
100
AcDbLine
 10
83.7639846576638
 20
113.49986
 30
0.0
 11
83.76398465766349
 21
121.337840405
 31
0.0
  0
LINE
  5
1A6
330
50
100
AcDbEntity
  8
1
  6
Continuous
 62
     7
100
AcDbLine
 10
82.60198756266348
 20
113.49986
 30
0.0
 11
83.7639846576638
 21
113.49986
 31
0.0
  0
LINE
  5
1A7
330
50
100
AcDbEntity
  8
1
  6
Continuous
 62
     7
100
AcDbLine
 10
83.76398465766349
 20
122.4998375
 30
0.0
 11
82.6019875626638
 21
121.337840405
 31
0.0
  0
LINE
  5
1A8
330
50
100
AcDbEntity
  8
1
  6
Continuous
 62
     7
100
AcDbLine
 10
82.6019875626638
 20
121.337840405
 30
0.0
 11
83.76398465766349
 21
121.337840405
 31
0.0
  0
LINE
  5
1A9
330
50
100
AcDbEntity
  8
1
  6
Continuous
 62
     2
100
AcDbLine
 10
83.76398465766349
 20
121.337840405
 30
0.0
 11
83.76398465766349
 21
122.4998375
 31
0.0
  0
LINE
  5
1AA
330
50
100
AcDbEntity
  8
1
  6
Continuous
 62
     2
100
AcDbLine
 10
83.76398465766349
 20
121.337840405
 30
0.0
 11
83.76398465766349
 21
122.4998375
 31
0.0
  0
LINE
  5
1AB
330
50
100
AcDbEntity
  8
1
  6
Continuous
 62
     7
100
AcDbLine
 10
82.6019875626638
 20
121.337840405
 30
0.0
 11
82.60198756266348
 21
113.49986
 31
0.0
  0
LINE
  5
1AC
330
50
100
AcDbEntity
  8
1
  6
Continuous
 62
     7
100
AcDbLine
 10
83.76400800266359
 20
121.337840405
 30
0.0
 11
88.48993727870644
 21
121.337840405
 31
0.0
  0
LINE
  5
1AD
330
50
100
AcDbEntity
  8
1
  6
Continuous
 62
     7
100
AcDbLine
 10
83.76398465766349
 20
122.4998375
 30
0.0
 11
89.78511490236855
 21
122.4998375
 31
0.0
  0
LINE
  5
1AE
330
50
100
AcDbEntity
  8
1
  6
Continuous
 62
     7
100
AcDbLine
 10
103.6019817526634
 20
113.49986
 30
0.0
 11
103.601984657664
 21
111.4873569616048
 31
0.0
  0
LINE
  5
1AF
330
50
100
AcDbEntity
  8
1
  6
Continuous
 62
     7
100
AcDbLine
 10
103.6019817526634
 20
121.337840405
 30
0.0
 11
103.6019817526634
 21
113.49986
 31
0.0
  0
LINE
  5
1B0
330
50
100
AcDbEntity
  8
1
  6
Continuous
 62
     7
100
AcDbLine
 10
103.6019817526634
 20
121.337840405
 30
0.0
 11
102.4399846576637
 21
121.337840405
 31
0.0
  0
LINE
  5
1B1
330
50
100
AcDbEntity
  8
1
  6
Continuous
 62
     2
100
AcDbLine
 10
102.4399846576637
 20
121.337840405
 30
0.0
 11
102.4399846576637
 21
113.49986
 31
0.0
  0
LINE
  5
1B2
330
50
100
AcDbEntity
  8
1
  6
Continuous
 62
     2
100
AcDbLine
 10
102.4399846576637
 20
122.4998375
 30
0.0
 11
102.4399846576637
 21
121.337840405
 31
0.0
  0
LINE
  5
1B3
330
50
100
AcDbEntity
  8
1
  6
Continuous
 62
     7
100
AcDbLine
 10
102.4399846576637
 20
122.4998375
 30
0.0
 11
103.6019817526634
 21
121.337840405
 31
0.0
  0
LINE
  5
1B4
330
50
100
AcDbEntity
  8
1
  6
Continuous
 62
     7
100
AcDbLine
 10
102.4399846576637
 20
113.49986
 30
0.0
 11
103.6019817526634
 21
113.49986
 31
0.0
  0
LINE
  5
1B5
330
50
100
AcDbEntity
  8
1
  6
Continuous
 62
     7
100
AcDbLine
 10
83.7639846576638
 20
113.49986
 30
0.0
 11
83.51401090766339
 21
113.49986
 31
0.0
  0
LINE
  5
1B6
330
50
100
AcDbEntity
  8
1
  6
Continuous
 62
     7
100
AcDbLine
 10
102.4399846576637
 20
113.49986
 30
0.0
 11
100.3854760227359
 21
113.49986
 31
0.0
  0
LINE
  5
1B7
330
50
100
AcDbEntity
  8
1
  6
Continuous
 62
     2
100
AcDbLine
 10
102.4399846576637
 20
113.49986
 30
0.0
 11
103.601984657664
 21
111.4873569616048
 31
0.0
  0
LINE
  5
1B8
330
50
100
AcDbEntity
  8
1
  6
Continuous
 62
     2
100
AcDbLine
 10
82.60199046766388
 20
111.4873569616047
 30
0.0
 11
83.7639846576638
 21
113.49986
 31
0.0
  0
LINE
  5
1B9
330
50
100
AcDbEntity
  8
1
  6
Continuous
 62
     7
100
AcDbLine
 10
103.601984657664
 20
111.4873569616048
 30
0.0
 11
103.601984657664
 21
111.2610470866874
 31
0.0
  0
LINE
  5
1BA
330
50
100
AcDbEntity
  8
1
  6
Continuous
 62
     7
100
AcDbLine
 10
82.601984657664
 20
109.4033713644361
 30
0.0
 11
82.60198465766369
 21
111.4873569616048
 31
0.0
  0
LINE
  5
1BB
330
50
100
AcDbEntity
  8
1
  6
Continuous
 62
     7
100
AcDbLine
 10
103.6019846576637
 20
109.4033713644361
 30
0.0
 11
105.0302429702126
 21
100.624323851217
 31
0.0
  0
LINE
  5
1BC
330
50
100
AcDbEntity
  8
1
  6
Continuous
 62
     7
100
AcDbLine
 10
81.1737263451154
 20
100.624323851217
 30
0.0
 11
82.601984657664
 21
109.4033713644361
 31
0.0
  0
LINE
  5
1BD
330
50
100
AcDbEntity
  8
1
  6
Continuous
 62
     7
100
AcDbLine
 10
115.3060156869065
 20
149.7061514845074
 30
0.0
 11
115.3060156869065
 21
146.0178594974128
 31
0.0
  0
LINE
  5
1BE
330
50
100
AcDbEntity
  8
1
  6
Continuous
 62
     7
100
AcDbLine
 10
128.3059831869065
 20
146.0178594974128
 30
0.0
 11
128.3059831869065
 21
149.7061514845074
 31
0.0
  0
LINE
  5
1BF
330
50
100
AcDbEntity
  8
1
  6
Continuous
 62
     7
100
AcDbLine
 10
112.4679994369065
 20
199.7589760741147
 30
0.0
 11
131.1439994369067
 21
199.7589760741147
 31
0.0
  0
LINE
  5
1C0
330
50
100
AcDbEntity
  8
1
  6
Continuous
 62
     7
100
AcDbLine
 10
111.3059994369065
 20
207.5969760741148
 30
0.0
 11
132.3059994369065
 21
207.5969760741148
 31
0.0
  0
LINE
  5
1C1
330
50
100
AcDbEntity
  8
1
  6
Continuous
 62
     7
100
AcDbLine
 10
145.8059994369065
 20
190.0089760741149
 30
0.0
 11
145.8059994369065
 21
167.5089760741147
 31
0.0
  0
LINE
  5
1C2
330
50
100
AcDbEntity
  8
1
  6
Continuous
 62
     7
100
AcDbLine
 10
112.5035154169473
 20
262.4661936898225
 30
0.0
 11
114.5615529363715
 21
266.0308192373484
 31
0.0
  0
LINE
  5
1C3
330
50
100
AcDbEntity
  8
1
  6
Continuous
 62
     7
100
AcDbLine
 10
119.2442617454177
 20
240.0308192373483
 30
0.0
 11
114.5615529363715
 21
240.0308192373483
 31
0.0
  0
LINE
  5
1C4
330
50
100
AcDbEntity
  8
1
  6
Continuous
 62
     7
100
AcDbLine
 10
114.5615529363715
 20
240.0308192373483
 30
0.0
 11
112.5035154169472
 21
243.5954447848743
 31
0.0
  0
LINE
  5
1C5
330
50
100
AcDbEntity
  8
1
  6
Continuous
 62
     7
100
AcDbLine
 10
114.5615529363715
 20
266.0308192373484
 30
0.0
 11
119.2442617454172
 21
266.0308192373484
 31
0.0
  0
LINE
  5
1C6
330
50
100
AcDbEntity
  8
1
  6
Continuous
 62
     7
100
AcDbLine
 10
100.8059994369062
 20
184.9589760741148
 30
0.0
 11
100.8059994369062
 21
172.5589760741148
 31
0.0
  0
ARC
  5
1C7
330
50
100
AcDbEntity
  8
1
  6
Continuous
 62
     7
100
AcDbCircle
 10
123.0559994369061
 20
247.7808192373482
 30
0.0
 40
0.7499999999998863
100
AcDbArc
 50
270.0
 51
0.0
  0
ARC
  5
1C8
330
50
100
AcDbEntity
  8
1
  6
Continuous
 62
     7
100
AcDbCircle
 10
123.0559994369061
 20
258.2808192373483
 30
0.0
 40
0.75
100
AcDbArc
 50
0.0
 51
90.0
  0
ARC
  5
1C9
330
50
100
AcDbEntity
  8
1
  6
Continuous
 62
     7
100
AcDbCircle
 10
93.1019846576637
 20
92.5
 30
0.0
 40
21.4994625
100
AcDbArc
 50
305.6707893884551
 51
309.5468798082657
  0
ARC
  5
1CA
330
50
100
AcDbEntity
  8
1
  6
Continuous
 62
     7
100
AcDbCircle
 10
244.4853606390225
 20
90.47411103862987
 30
0.0
 40
164.6458402544785
100
AcDbArc
 50
184.9728489537457
 51
185.3808878267124
  0
ARC
  5
1CB
330
50
100
AcDbEntity
  8
1
  6
Continuous
 62
     7
100
AcDbCircle
 10
-58.28139132369444
 20
90.47411103862987
 30
0.0
 40
164.6458402544779
100
AcDbArc
 50
352.9000570324197
 51
354.6191121732876
  0
ARC
  5
1CC
330
50
100
AcDbEntity
  8
1
  6
Continuous
 62
     7
100
AcDbCircle
 10
93.1019846576637
 20
92.5
 30
0.0
 40
21.49946249999971
100
AcDbArc
 50
230.453120191735
 51
234.329210611545
  0
ARC
  5
1CD
330
50
100
AcDbEntity
  8
1
  6
Continuous
 62
     7
100
AcDbCircle
 10
106.3193484239975
 20
169.5589760741148
 30
0.0
 40
2.999999999999567
100
AcDbArc
 50
359.6234033906357
 51
90.0
  0
ARC
  5
1CE
330
50
100
AcDbEntity
  8
1
  6
Continuous
 62
     7
100
AcDbCircle
 10
296.2052465899869
 20
168.3108664254208
 30
0.0
 40
186.8899999999996
100
AcDbArc
 50
171.674238118397
 51
174.0609180840232
  0
ARC
  5
1CF
330
50
100
AcDbEntity
  8
1
  6
Continuous
 62
     7
100
AcDbCircle
 10
107.3344868434535
 20
187.9589760741148
 30
0.0
 40
3.0
100
AcDbArc
 50
270.0000000000057
 51
354.0609180840247
  0
ARC
  5
1D0
330
50
100
AcDbEntity
  8
0
  6
Continuous
 62
     7
100
AcDbCircle
 10
105.9335460986173
 20
238.8353861022657
 30
0.0
 40
7.999980000000205
100
AcDbArc
 50
52.12738195135418
 51
91.9285379980369
  0
ARC
  5
1D1
330
50
100
AcDbEntity
  8
0
  6
Continuous
 62
     7
100
AcDbCircle
 10
105.9335460986176
 20
267.2262523724313
 30
0.0
 40
7.999979999999987
100
AcDbArc
 50
268.0714620019631
 51
307.8726180486424
  0
ARC
  5
1D2
330
50
100
AcDbEntity
  8
1
  6
Continuous
 62
     7
100
AcDbCircle
 10
121.8059994369064
 20
253.0308192373484
 30
0.0
 40
13.24999999999986
100
AcDbArc
 50
101.1476910184545
 51
133.2432608276089
  0
ARC
  5
1D3
330
50
100
AcDbEntity
  8
1
  6
Continuous
 62
     7
100
AcDbCircle
 10
121.8059994369064
 20
253.0308192373484
 30
0.0
 40
13.24999999999985
100
AcDbArc
 50
258.8523089815477
 51
269.9999999999987
  0
ARC
  5
1D4
330
50
100
AcDbEntity
  8
1
  6
Continuous
 62
     7
100
AcDbCircle
 10
121.8059994369059
 20
148.8641525706875
 30
0.0
 40
117.4166666666609
100
AcDbArc
 50
83.52059940779523
 51
89.99999999999991
  0
ARC
  5
1D5
330
50
100
AcDbEntity
  8
1
  6
Continuous
 62
     7
100
AcDbCircle
 10
121.8059994369059
 20
357.1974859040091
 30
0.0
 40
117.4166666666606
100
AcDbArc
 50
270.0000000000001
 51
276.4794005922046
  0
ARC
  5
1D6
330
50
100
AcDbEntity
  8
1
  6
Continuous
 62
     7
100
AcDbCircle
 10
-52.59324771617432
 20
168.310866425421
 30
0.0
 40
186.89
100
AcDbArc
 50
355.8992941661746
 51
357.4720396354894
  0
ARC
  5
1D7
330
50
100
AcDbEntity
  8
1
  6
Continuous
 62
     7
100
AcDbCircle
 10
99.601968407664
 20
77.12424904148702
 30
0.0
 40
18.77425733474302
100
AcDbArc
 50
249.7438419995879
 51
290.2561580004112
  0
ARC
  5
1D8
330
50
100
AcDbEntity
  8
1
  6
Continuous
 62
     7
100
AcDbCircle
 10
86.602000907664
 20
77.12424904148702
 30
0.0
 40
18.77425733474292
100
AcDbArc
 50
249.7438419995887
 51
290.2561580004104
  0
ARC
  5
1D9
330
50
100
AcDbEntity
  8
1
  6
Continuous
 62
     7
100
AcDbCircle
 10
99.6019684076637
 20
45.83513926676955
 30
0.0
 40
18.77425733474296
100
AcDbArc
 50
69.74384199958882
 51
110.2561580004103
  0
ARC
  5
1DA
330
50
100
AcDbEntity
  8
1
  6
Continuous
 62
     7
100
AcDbCircle
 10
86.602000907664
 20
45.83513926676955
 30
0.0
 40
18.77425733474296
100
AcDbArc
 50
69.74384199958882
 51
110.2561580004112
  0
ARC
  5
1DB
330
50
100
AcDbEntity
  8
1
  6
Continuous
 62
     7
100
AcDbCircle
 10
-81.7605272846117
 20
78.51343544164826
 30
0.0
 40
187.0507232330453
100
AcDbArc
 50
356.2454229217918
 51
357.4292975661716
  0
ARC
  5
1DC
330
50
100
AcDbEntity
  8
1
  6
Continuous
 62
     7
100
AcDbCircle
 10
108.3848940928692
 20
66.1012309031484
 30
0.0
 40
3.499991250000182
100
AcDbArc
 50
177.3209898544473
 51
229.2869733355767
  0
ARC
  5
1DD
330
50
100
AcDbEntity
  8
1
  6
Continuous
 62
     7
100
AcDbCircle
 10
349.2725558565597
 20
83.00690756852913
 30
0.0
 40
268.4947755341484
100
AcDbArc
 50
182.7502619349383
 51
183.3109584324624
  0
ARC
  5
1DE
330
50
100
AcDbEntity
  8
1
  6
Continuous
 62
     7
100
AcDbCircle
 10
-58.28139132369444
 20
90.47411103862987
 30
0.0
 40
164.6458402544779
100
AcDbArc
 50
354.6191121732876
 51
355.0271510462543
  0
ARC
  5
1DF
330
50
100
AcDbEntity
  8
1
  6
Continuous
 62
     7
100
AcDbCircle
 10
244.4853606390225
 20
90.47411103862987
 30
0.0
 40
164.6458402544785
100
AcDbArc
 50
185.3808878267124
 51
187.0999429675802
  0
ARC
  5
1E0
330
50
100
AcDbEntity
  8
1
  6
Continuous
 62
     7
100
AcDbCircle
 10
121.8059994369065
 20
132.0930044141827
 30
0.0
 40
18.77425733474299
100
AcDbArc
 50
69.74384199958885
 51
110.2561580004111
  0
ARC
  5
1E1
330
50
100
AcDbEntity
  8
1
  6
Continuous
 62
     7
100
AcDbCircle
 10
121.8059994369062
 20
163.3821141889002
 30
0.0
 40
18.77425733474291
100
AcDbArc
 50
249.7438419995888
 51
290.2561580004112
  0
ARC
  5
1E2
330
50
100
AcDbEntity
  8
1
  6
Continuous
 62
     7
100
AcDbCircle
 10
132.4309913119062
 20
138.5285274216919
 30
0.0
 40
11.91448579339233
100
AcDbArc
 50
69.74384199958897
 51
110.2561580004098
  0
ARC
  5
1E3
330
50
100
AcDbEntity
  8
1
  6
Continuous
 62
     7
100
AcDbCircle
 10
132.4309913119065
 20
156.9465911813909
 30
0.0
 40
11.91448579339225
100
AcDbArc
 50
249.7438419995872
 51
290.2561580004113
  0
ARC
  5
1E4
330
50
100
AcDbEntity
  8
1
  6
Continuous
 62
     7
100
AcDbCircle
 10
111.1810075619065
 20
138.528527421692
 30
0.0
 40
11.91448579339226
100
AcDbArc
 50
69.74384199958877
 51
110.2561580004112
  0
ARC
  5
1E5
330
50
100
AcDbEntity
  8
1
  6
Continuous
 62
     7
100
AcDbCircle
 10
111.1810075619065
 20
156.946591181391
 30
0.0
 40
11.91448579339235
100
AcDbArc
 50
249.7438419995875
 51
290.2561580004099
  0
ARC
  5
1E6
330
50
100
AcDbEntity
  8
1
  6
Continuous
 62
     7
100
AcDbCircle
 10
296.2052465899869
 20
168.3108664254208
 30
0.0
 40
186.8899999999996
100
AcDbArc
 50
179.6234033906329
 51
184.1007058338254
  0
ARC
  5
1E7
330
50
100
AcDbEntity
  8
1
  6
Continuous
 62
     7
100
AcDbCircle
 10
121.8059994369064
 20
253.0308192373484
 30
0.0
 40
13.24999999999989
100
AcDbArc
 50
90.0000000000013
 51
101.1476910184545
  0
ARC
  5
1E8
330
50
100
AcDbEntity
  8
1
  6
Continuous
 62
     7
100
AcDbCircle
 10
121.8059994369064
 20
253.0308192373484
 30
0.0
 40
13.25000000000014
100
AcDbArc
 50
226.7567391723896
 51
258.8523089815477
  0
CIRCLE
  5
1E9
330
50
100
AcDbEntity
  8
1
  6
Continuous
 62
     7
100
AcDbCircle
 10
121.8059994369064
 20
253.0308192373484
 30
0.0
 40
6.499983750000138
  0
CIRCLE
  5
1EA
330
50
100
AcDbEntity
  8
1
  6
Continuous
 62
     2
100
AcDbCircle
 10
121.8059994369064
 20
253.0308192373484
 30
0.0
 40
9.337999999999994
  0
CIRCLE
  5
1EB
330
50
100
AcDbEntity
  8
1
  6
Continuous
 62
     7
100
AcDbCircle
 10
121.8059994369064
 20
253.0308192373484
 30
0.0
 40
10.50000000000009
  0
CIRCLE
  5
1EC
330
50
100
AcDbEntity
  8
1
  6
Continuous
 62
     7
100
AcDbCircle
 10
121.8059994369064
 20
253.0308192373484
 30
0.0
 40
11.0000000000002
  0
ARC
  5
1ED
330
50
100
AcDbEntity
  8
1
  6
Continuous
 62
     7
100
AcDbCircle
 10
109.3059994369062
 20
195.6623474385509
 30
0.0
 40
2.000000000000367
100
AcDbArc
 50
351.6742381184069
 51
0.0
  0
ARC
  5
1EE
330
50
100
AcDbEntity
  8
1
  6
Continuous
 62
     7
100
AcDbCircle
 10
138.3059994369064
 20
196.7589760741149
 30
0.0
 40
5.999999999999915
100
AcDbArc
 50
180.0
 51
270.0000000000008
  0
ARC
  5
1EF
330
50
100
AcDbEntity
  8
1
  6
Continuous
 62
     7
100
AcDbCircle
 10
137.6085672094318
 20
154.6746756448004
 30
0.0
 40
3.800000000000042
100
AcDbArc
 50
175.8992941661739
 51
220.0000018032323
  0
ARC
  5
1F0
330
50
100
AcDbEntity
  8
1
  6
Continuous
 62
     7
100
AcDbCircle
 10
74.1285468340201
 20
67.28706162428705
 30
0.0
 40
7.100601623314521
100
AcDbArc
 50
327.2736843275176
 51
1.71848813865974
  0
ARC
  5
1F1
330
50
100
AcDbEntity
  8
1
  6
Continuous
 62
     7
100
AcDbCircle
 10
141.1080617048495
 20
159.7589760741147
 30
0.0
 40
7.0
100
AcDbArc
 50
90.0
 51
177.4720396354903
  0
ARC
  5
1F2
330
50
100
AcDbEntity
  8
1
  6
Continuous
 62
     7
100
AcDbCircle
 10
106.0034316643806
 20
154.6746756448004
 30
0.0
 40
3.800000000000211
100
AcDbArc
 50
319.9999981967734
 51
4.10070583382576
  0
ENDBLK
  5
52
330
50
100
AcDbEntity
  8
0
100
AcDbBlockEnd
  0
BLOCK
  5
54
330
53
100
AcDbEntity
  8
0
100
AcDbBlockBegin
  2
36-54-M11
 70
     0
 10
0.64771631599058
 20
260.4599379684382
 30
0.0
  3
36-54-M11
  1

  0
LINE
  5
1F3
330
53
100
AcDbEntity
  8
1
  6
Continuous
 62
     7
100
AcDbLine
 10
125.3059994369064
 20
258.5080255279921
 30
0.0
 11
125.3059994369064
 21
247.5536129467047
 31
0.0
  0
LINE
  5
1F4
330
53
100
AcDbEntity
  8
1
  6
Continuous
 62
     7
100
AcDbLine
 10
164.3059994369062
 20
174.0089760741145
 30
0.0
 11
161.2339407600914
 21
174.0089760741145
 31
0.0
  0
LINE
  5
1F5
330
53
100
AcDbEntity
  8
1
  6
Continuous
 62
     7
100
AcDbLine
 10
161.2339407600914
 20
183.5089760741145
 30
0.0
 11
164.3059994369065
 21
183.5089760741145
 31
0.0
  0
LINE
  5
1F6
330
53
100
AcDbEntity
  8
1
  6
Continuous
 62
     7
100
AcDbLine
 10
161.2339407600916
 20
248.3161762560912
 30
0.0
 11
164.3059994369062
 21
248.3161762560912
 31
0.0
  0
LINE
  5
1F7
330
53
100
AcDbEntity
  8
1
  6
Continuous
 62
     7
100
AcDbLine
 10
164.3059994369062
 20
257.8161762560912
 30
0.0
 11
161.2339407600913
 21
257.8161762560912
 31
0.0
  0
ENDBLK
  5
55
330
53
100
AcDbEntity
  8
0
100
AcDbBlockEnd
  0
BLOCK
  5
57
330
56
100
AcDbEntity
  8
0
100
AcDbBlockBegin
  2
H86F-B__1
 70
     0
 10
-3.94926164237339
 20
187.8331897463125
 30
0.0
  3
H86F-B__1
  1

  0
LINE
  5
1F8
330
56
100
AcDbEntity
  8
1
  6
Continuous
 62
     7
100
AcDbLine
 10
34.92193054081653
 20
164.8449556903865
 30
0.0
 11
34.06741533208546
 21
164.615989030287
 31
0.0
  0
LINE
  5
1F9
330
56
100
AcDbEntity
  8
1
  6
Continuous
 62
     7
100
AcDbLine
 10
33.45504289638964
 20
164.4519043306752
 30
0.0
 11
32.60052768765857
 21
164.2229376705756
 31
0.0
  0
LINE
  5
1FA
330
56
100
AcDbEntity
  8
1
  6
Continuous
 62
     7
100
AcDbLine
 10
31.98815525196287
 20
164.0588529709638
 30
0.0
 11
30.86899943690665
 21
163.7589760741149
 31
0.0
  0
LINE
  5
1FB
330
56
100
AcDbEntity
  8
1
  6
Continuous
 62
     7
100
AcDbLine
 10
32.32581698611355
 20
163.3686229882854
 30
0.0
 11
30.86899943690665
 21
163.7589760741149
 31
0.0
  0
LINE
  5
1FC
330
56
100
AcDbEntity
  8
1
  6
Continuous
 62
     7
100
AcDbLine
 10
33.93818942180937
 20
162.9365890962425
 30
0.0
 11
32.93818942180906
 21
163.2045382886736
 31
0.0
  0
LINE
  5
1FD
330
56
100
AcDbEntity
  8
1
  6
Continuous
 62
     7
100
AcDbLine
 10
35.55056185750485
 20
162.5045552041996
 30
0.0
 11
34.55056185750482
 21
162.7725043966307
 31
0.0
  0
LINE
  5
1FE
330
56
100
AcDbEntity
  8
1
  6
Continuous
 62
     7
100
AcDbLine
 10
36.46707564825996
 20
162.2589760741149
 30
0.0
 11
36.16293429320064
 21
162.340470504588
 31
0.0
  0
LINE
  5
1FF
330
56
100
AcDbEntity
  8
1
  6
Continuous
 62
     7
100
AcDbLine
 10
37.16293429320095
 20
162.2589760741149
 30
0.0
 11
36.46707564825996
 21
162.2589760741149
 31
0.0
  0
LINE
  5
200
330
56
100
AcDbEntity
  8
1
  6
Continuous
 62
     7
100
AcDbLine
 10
36.45762637036708
 20
165.2589760741149
 30
0.0
 11
35.53430297651235
 21
165.0090403899983
 31
0.0
  0
LINE
  5
201
330
56
100
AcDbEntity
  8
1
  6
Continuous
 62
     7
100
AcDbLine
 10
32.34170864255572
 20
164.6712254066597
 30
0.0
 11
32.67937037670683
 21
162.7562505525896
 31
0.0
  0
LINE
  5
202
330
56
100
AcDbEntity
  8
1
  6
Continuous
 62
     7
100
AcDbLine
 10
32.34170864255572
 20
164.6712254066597
 30
0.0
 11
31.98815525196287
 21
164.0588529709638
 31
0.0
  0
LINE
  5
203
330
56
100
AcDbEntity
  8
1
  6
Continuous
 62
     7
100
AcDbLine
 10
32.32581698611355
 20
163.3686229882854
 30
0.0
 11
31.98815525196287
 21
164.0588529709638
 31
0.0
  0
LINE
  5
204
330
56
100
AcDbEntity
  8
1
  6
Continuous
 62
     7
100
AcDbLine
 10
32.67937037670683
 20
162.7562505525896
 30
0.0
 11
32.32581698611355
 21
163.3686229882854
 31
0.0
  0
LINE
  5
205
330
56
100
AcDbEntity
  8
1
  6
Continuous
 62
     7
100
AcDbLine
 10
32.93818942180906
 20
163.2045382886736
 30
0.0
 11
32.67937037670683
 21
162.7562505525896
 31
0.0
  0
LINE
  5
206
330
56
100
AcDbEntity
  8
1
  6
Continuous
 62
     7
100
AcDbLine
 10
32.60052768765857
 20
164.2229376705756
 30
0.0
 11
32.93818942180906
 21
163.2045382886736
 31
0.0
  0
LINE
  5
207
330
56
100
AcDbEntity
  8
1
  6
Continuous
 62
     7
100
AcDbLine
 10
32.34170864255572
 20
164.6712254066597
 30
0.0
 11
32.60052768765857
 21
164.2229376705756
 31
0.0
  0
LINE
  5
208
330
56
100
AcDbEntity
  8
1
  6
Continuous
 62
     7
100
AcDbLine
 10
33.80859628698266
 20
165.064276766371
 30
0.0
 11
33.45504289638964
 21
164.4519043306752
 31
0.0
  0
LINE
  5
209
330
56
100
AcDbEntity
  8
1
  6
Continuous
 62
     7
100
AcDbLine
 10
33.80859628698266
 20
165.064276766371
 30
0.0
 11
34.29174281240233
 21
162.3242166605468
 31
0.0
  0
LINE
  5
20A
330
56
100
AcDbEntity
  8
1
  6
Continuous
 62
     7
100
AcDbLine
 10
33.93818942180937
 20
162.9365890962425
 30
0.0
 11
33.45504289638964
 21
164.4519043306752
 31
0.0
  0
LINE
  5
20B
330
56
100
AcDbEntity
  8
1
  6
Continuous
 62
     7
100
AcDbLine
 10
34.29174281240233
 20
162.3242166605468
 30
0.0
 11
33.93818942180937
 21
162.9365890962425
 31
0.0
  0
LINE
  5
20C
330
56
100
AcDbEntity
  8
1
  6
Continuous
 62
     7
100
AcDbLine
 10
34.55056185750482
 20
162.7725043966307
 30
0.0
 11
34.29174281240233
 21
162.3242166605468
 31
0.0
  0
LINE
  5
20D
330
56
100
AcDbEntity
  8
1
  6
Continuous
 62
     7
100
AcDbLine
 10
34.06741533208546
 20
164.615989030287
 30
0.0
 11
34.55056185750482
 21
162.7725043966307
 31
0.0
  0
LINE
  5
20E
330
56
100
AcDbEntity
  8
1
  6
Continuous
 62
     7
100
AcDbLine
 10
33.80859628698266
 20
165.064276766371
 30
0.0
 11
34.06741533208546
 21
164.615989030287
 31
0.0
  0
LINE
  5
20F
330
56
100
AcDbEntity
  8
1
  6
Continuous
 62
     7
100
AcDbLine
 10
35.90411524809846
 20
161.8921827685039
 30
0.0
 11
35.55056185750485
 21
162.5045552041996
 31
0.0
  0
LINE
  5
210
330
56
100
AcDbEntity
  8
1
  6
Continuous
 62
     7
100
AcDbLine
 10
36.16293429320064
 20
162.340470504588
 30
0.0
 11
35.90411524809846
 21
161.8921827685039
 31
0.0
  0
LINE
  5
211
330
56
100
AcDbEntity
  8
1
  6
Continuous
 62
     7
100
AcDbLine
 10
34.92193054081653
 20
164.8449556903865
 30
0.0
 11
35.55056185750485
 21
162.5045552041996
 31
0.0
  0
LINE
  5
212
330
56
100
AcDbEntity
  8
1
  6
Continuous
 62
     7
100
AcDbLine
 10
35.27548393140987
 20
165.4573281260823
 30
0.0
 11
34.92193054081653
 21
164.8449556903865
 31
0.0
  0
LINE
  5
213
330
56
100
AcDbEntity
  8
1
  6
Continuous
 62
     7
100
AcDbLine
 10
35.27548393140987
 20
165.4573281260823
 30
0.0
 11
35.53430297651235
 21
165.0090403899983
 31
0.0
  0
LINE
  5
214
330
56
100
AcDbEntity
  8
1
  6
Continuous
 62
     7
100
AcDbLine
 10
35.27548393140987
 20
165.4573281260823
 30
0.0
 11
35.90411524809846
 21
161.8921827685039
 31
0.0
  0
LINE
  5
215
330
56
100
AcDbEntity
  8
1
  6
Continuous
 62
     7
100
AcDbLine
 10
35.53430297651235
 20
165.0090403899983
 30
0.0
 11
36.16293429320064
 21
162.340470504588
 31
0.0
  0
LINE
  5
216
330
56
100
AcDbEntity
  8
1
  6
Continuous
 62
     7
100
AcDbLine
 10
39.31763483158014
 20
162.2589760741149
 30
0.0
 11
37.74028456239054
 21
162.2589760741149
 31
0.0
  0
LINE
  5
217
330
56
100
AcDbEntity
  8
1
  6
Continuous
 62
     7
100
AcDbLine
 10
38.61232690874638
 20
165.2589760741149
 30
0.0
 11
37.03497663955673
 21
165.2589760741149
 31
0.0
  0
LINE
  5
218
330
56
100
AcDbEntity
  8
1
  6
Continuous
 62
     7
100
AcDbLine
 10
40.76702744712557
 20
165.2589760741149
 30
0.0
 11
39.18967717793592
 21
165.2589760741149
 31
0.0
  0
LINE
  5
219
330
56
100
AcDbEntity
  8
1
  6
Continuous
 62
     7
100
AcDbLine
 10
41.47233536995944
 20
162.2589760741149
 30
0.0
 11
39.89498510076973
 21
162.2589760741149
 31
0.0
  0
LINE
  5
21A
330
56
100
AcDbEntity
  8
1
  6
Continuous
 62
     7
100
AcDbLine
 10
43.62703590833863
 20
162.2589760741149
 30
0.0
 11
42.04968563914903
 21
162.2589760741149
 31
0.0
  0
LINE
  5
21B
330
56
100
AcDbEntity
  8
1
  6
Continuous
 62
     7
100
AcDbLine
 10
42.9217279855049
 20
165.2589760741149
 30
0.0
 11
41.34437771631522
 21
165.2589760741149
 31
0.0
  0
LINE
  5
21C
330
56
100
AcDbEntity
  8
1
  6
Continuous
 62
     7
100
AcDbLine
 10
45.07642852388406
 20
165.2589760741149
 30
0.0
 11
43.49907825469447
 21
165.2589760741149
 31
0.0
  0
LINE
  5
21D
330
56
100
AcDbEntity
  8
1
  6
Continuous
 62
     7
100
AcDbLine
 10
45.78173644671793
 20
162.2589760741149
 30
0.0
 11
44.20438617752834
 21
162.2589760741149
 31
0.0
  0
LINE
  5
21E
330
56
100
AcDbEntity
  8
1
  6
Continuous
 62
     7
100
AcDbLine
 10
47.93643698509717
 20
162.2589760741149
 30
0.0
 11
46.35908671590758
 21
162.2589760741149
 31
0.0
  0
LINE
  5
21F
330
56
100
AcDbEntity
  8
1
  6
Continuous
 62
     7
100
AcDbLine
 10
47.23112906226331
 20
165.2589760741149
 30
0.0
 11
45.65377879307377
 21
165.2589760741149
 31
0.0
  0
LINE
  5
220
330
56
100
AcDbEntity
  8
1
  6
Continuous
 62
     7
100
AcDbLine
 10
49.38582960064255
 20
165.2589760741149
 30
0.0
 11
47.8084793314529
 21
165.2589760741149
 31
0.0
  0
LINE
  5
221
330
56
100
AcDbEntity
  8
1
  6
Continuous
 62
     7
100
AcDbLine
 10
50.09113752347611
 20
162.2589760741149
 30
0.0
 11
48.51378725428683
 21
162.2589760741149
 31
0.0
  0
LINE
  5
222
330
56
100
AcDbEntity
  8
1
  6
Continuous
 62
     7
100
AcDbLine
 10
37.74028456239054
 20
162.2589760741149
 30
0.0
 11
37.45160942779572
 21
161.7589760741149
 31
0.0
  0
LINE
  5
223
330
56
100
AcDbEntity
  8
1
  6
Continuous
 62
     7
100
AcDbLine
 10
37.03497663955673
 20
165.2589760741149
 30
0.0
 11
37.74028456239054
 21
162.2589760741149
 31
0.0
  0
LINE
  5
224
330
56
100
AcDbEntity
  8
1
  6
Continuous
 62
     7
100
AcDbLine
 10
37.45160942779572
 20
161.7589760741149
 30
0.0
 11
37.16293429320095
 21
162.2589760741149
 31
0.0
  0
LINE
  5
225
330
56
100
AcDbEntity
  8
1
  6
Continuous
 62
     7
100
AcDbLine
 10
37.16293429320095
 20
162.2589760741149
 30
0.0
 11
36.45762637036708
 21
165.2589760741149
 31
0.0
  0
LINE
  5
226
330
56
100
AcDbEntity
  8
1
  6
Continuous
 62
     7
100
AcDbLine
 10
36.45762637036708
 20
165.2589760741149
 30
0.0
 11
36.74630150496199
 21
165.7589760741149
 31
0.0
  0
LINE
  5
227
330
56
100
AcDbEntity
  8
1
  6
Continuous
 62
     7
100
AcDbLine
 10
36.74630150496199
 20
165.7589760741149
 30
0.0
 11
37.45160942779572
 21
161.7589760741149
 31
0.0
  0
LINE
  5
228
330
56
100
AcDbEntity
  8
1
  6
Continuous
 62
     7
100
AcDbLine
 10
36.74630150496199
 20
165.7589760741149
 30
0.0
 11
37.03497663955673
 21
165.2589760741149
 31
0.0
  0
LINE
  5
229
330
56
100
AcDbEntity
  8
1
  6
Continuous
 62
     7
100
AcDbLine
 10
39.89498510076973
 20
162.2589760741149
 30
0.0
 11
39.60630996617471
 21
161.7589760741149
 31
0.0
  0
LINE
  5
22A
330
56
100
AcDbEntity
  8
1
  6
Continuous
 62
     7
100
AcDbLine
 10
39.18967717793592
 20
165.2589760741149
 30
0.0
 11
39.89498510076973
 21
162.2589760741149
 31
0.0
  0
LINE
  5
22B
330
56
100
AcDbEntity
  8
1
  6
Continuous
 62
     7
100
AcDbLine
 10
39.60630996617471
 20
161.7589760741149
 30
0.0
 11
39.31763483158014
 21
162.2589760741149
 31
0.0
  0
LINE
  5
22C
330
56
100
AcDbEntity
  8
1
  6
Continuous
 62
     7
100
AcDbLine
 10
39.31763483158014
 20
162.2589760741149
 30
0.0
 11
38.61232690874638
 21
165.2589760741149
 31
0.0
  0
LINE
  5
22D
330
56
100
AcDbEntity
  8
1
  6
Continuous
 62
     7
100
AcDbLine
 10
38.61232690874638
 20
165.2589760741149
 30
0.0
 11
38.90100204334084
 21
165.7589760741149
 31
0.0
  0
LINE
  5
22E
330
56
100
AcDbEntity
  8
1
  6
Continuous
 62
     7
100
AcDbLine
 10
38.90100204334084
 20
165.7589760741149
 30
0.0
 11
39.60630996617471
 21
161.7589760741149
 31
0.0
  0
LINE
  5
22F
330
56
100
AcDbEntity
  8
1
  6
Continuous
 62
     7
100
AcDbLine
 10
38.90100204334084
 20
165.7589760741149
 30
0.0
 11
39.18967717793592
 21
165.2589760741149
 31
0.0
  0
LINE
  5
230
330
56
100
AcDbEntity
  8
1
  6
Continuous
 62
     7
100
AcDbLine
 10
42.04968563914903
 20
162.2589760741149
 30
0.0
 11
41.76101050455426
 21
161.7589760741149
 31
0.0
  0
LINE
  5
231
330
56
100
AcDbEntity
  8
1
  6
Continuous
 62
     7
100
AcDbLine
 10
41.34437771631522
 20
165.2589760741149
 30
0.0
 11
42.04968563914903
 21
162.2589760741149
 31
0.0
  0
LINE
  5
232
330
56
100
AcDbEntity
  8
1
  6
Continuous
 62
     7
100
AcDbLine
 10
41.76101050455426
 20
161.7589760741149
 30
0.0
 11
41.47233536995944
 21
162.2589760741149
 31
0.0
  0
LINE
  5
233
330
56
100
AcDbEntity
  8
1
  6
Continuous
 62
     7
100
AcDbLine
 10
41.47233536995944
 20
162.2589760741149
 30
0.0
 11
40.76702744712557
 21
165.2589760741149
 31
0.0
  0
LINE
  5
234
330
56
100
AcDbEntity
  8
1
  6
Continuous
 62
     7
100
AcDbLine
 10
40.76702744712557
 20
165.2589760741149
 30
0.0
 11
41.05570258172034
 21
165.7589760741149
 31
0.0
  0
LINE
  5
235
330
56
100
AcDbEntity
  8
1
  6
Continuous
 62
     7
100
AcDbLine
 10
41.05570258172034
 20
165.7589760741149
 30
0.0
 11
41.76101050455426
 21
161.7589760741149
 31
0.0
  0
LINE
  5
236
330
56
100
AcDbEntity
  8
1
  6
Continuous
 62
     7
100
AcDbLine
 10
41.05570258172034
 20
165.7589760741149
 30
0.0
 11
41.34437771631522
 21
165.2589760741149
 31
0.0
  0
LINE
  5
237
330
56
100
AcDbEntity
  8
1
  6
Continuous
 62
     7
100
AcDbLine
 10
44.20438617752834
 20
162.2589760741149
 30
0.0
 11
43.91571104293325
 21
161.7589760741149
 31
0.0
  0
LINE
  5
238
330
56
100
AcDbEntity
  8
1
  6
Continuous
 62
     7
100
AcDbLine
 10
43.49907825469447
 20
165.2589760741149
 30
0.0
 11
44.20438617752834
 21
162.2589760741149
 31
0.0
  0
LINE
  5
239
330
56
100
AcDbEntity
  8
1
  6
Continuous
 62
     7
100
AcDbLine
 10
43.91571104293325
 20
161.7589760741149
 30
0.0
 11
43.62703590833863
 21
162.2589760741149
 31
0.0
  0
LINE
  5
23A
330
56
100
AcDbEntity
  8
1
  6
Continuous
 62
     7
100
AcDbLine
 10
43.62703590833863
 20
162.2589760741149
 30
0.0
 11
42.9217279855049
 21
165.2589760741149
 31
0.0
  0
LINE
  5
23B
330
56
100
AcDbEntity
  8
1
  6
Continuous
 62
     7
100
AcDbLine
 10
42.9217279855049
 20
165.2589760741149
 30
0.0
 11
43.21040312009933
 21
165.7589760741149
 31
0.0
  0
LINE
  5
23C
330
56
100
AcDbEntity
  8
1
  6
Continuous
 62
     7
100
AcDbLine
 10
43.21040312009933
 20
165.7589760741149
 30
0.0
 11
43.91571104293325
 21
161.7589760741149
 31
0.0
  0
LINE
  5
23D
330
56
100
AcDbEntity
  8
1
  6
Continuous
 62
     7
100
AcDbLine
 10
43.21040312009933
 20
165.7589760741149
 30
0.0
 11
43.49907825469447
 21
165.2589760741149
 31
0.0
  0
LINE
  5
23E
330
56
100
AcDbEntity
  8
1
  6
Continuous
 62
     7
100
AcDbLine
 10
46.35908671590758
 20
162.2589760741149
 30
0.0
 11
46.07041158131275
 21
161.7589760741149
 31
0.0
  0
LINE
  5
23F
330
56
100
AcDbEntity
  8
1
  6
Continuous
 62
     7
100
AcDbLine
 10
45.65377879307377
 20
165.2589760741149
 30
0.0
 11
46.35908671590758
 21
162.2589760741149
 31
0.0
  0
LINE
  5
240
330
56
100
AcDbEntity
  8
1
  6
Continuous
 62
     7
100
AcDbLine
 10
46.07041158131275
 20
161.7589760741149
 30
0.0
 11
45.78173644671793
 21
162.2589760741149
 31
0.0
  0
LINE
  5
241
330
56
100
AcDbEntity
  8
1
  6
Continuous
 62
     7
100
AcDbLine
 10
45.78173644671793
 20
162.2589760741149
 30
0.0
 11
45.07642852388406
 21
165.2589760741149
 31
0.0
  0
LINE
  5
242
330
56
100
AcDbEntity
  8
1
  6
Continuous
 62
     7
100
AcDbLine
 10
45.07642852388406
 20
165.2589760741149
 30
0.0
 11
45.36510365847852
 21
165.7589760741149
 31
0.0
  0
LINE
  5
243
330
56
100
AcDbEntity
  8
1
  6
Continuous
 62
     7
100
AcDbLine
 10
45.36510365847852
 20
165.7589760741149
 30
0.0
 11
46.07041158131275
 21
161.7589760741149
 31
0.0
  0
LINE
  5
244
330
56
100
AcDbEntity
  8
1
  6
Continuous
 62
     7
100
AcDbLine
 10
45.36510365847852
 20
165.7589760741149
 30
0.0
 11
45.65377879307377
 21
165.2589760741149
 31
0.0
  0
LINE
  5
245
330
56
100
AcDbEntity
  8
1
  6
Continuous
 62
     7
100
AcDbLine
 10
48.51378725428683
 20
162.2589760741149
 30
0.0
 11
48.22511211969169
 21
161.7589760741149
 31
0.0
  0
LINE
  5
246
330
56
100
AcDbEntity
  8
1
  6
Continuous
 62
     7
100
AcDbLine
 10
47.8084793314529
 20
165.2589760741149
 30
0.0
 11
48.51378725428683
 21
162.2589760741149
 31
0.0
  0
LINE
  5
247
330
56
100
AcDbEntity
  8
1
  6
Continuous
 62
     7
100
AcDbLine
 10
48.22511211969169
 20
161.7589760741149
 30
0.0
 11
47.93643698509717
 21
162.2589760741149
 31
0.0
  0
LINE
  5
248
330
56
100
AcDbEntity
  8
1
  6
Continuous
 62
     7
100
AcDbLine
 10
47.93643698509717
 20
162.2589760741149
 30
0.0
 11
47.23112906226331
 21
165.2589760741149
 31
0.0
  0
LINE
  5
249
330
56
100
AcDbEntity
  8
1
  6
Continuous
 62
     7
100
AcDbLine
 10
47.23112906226331
 20
165.2589760741149
 30
0.0
 11
47.51980419685782
 21
165.7589760741149
 31
0.0
  0
LINE
  5
24A
330
56
100
AcDbEntity
  8
1
  6
Continuous
 62
     7
100
AcDbLine
 10
47.51980419685782
 20
165.7589760741149
 30
0.0
 11
48.22511211969169
 21
161.7589760741149
 31
0.0
  0
LINE
  5
24B
330
56
100
AcDbEntity
  8
1
  6
Continuous
 62
     7
100
AcDbLine
 10
47.51980419685782
 20
165.7589760741149
 30
0.0
 11
47.8084793314529
 21
165.2589760741149
 31
0.0
  0
LINE
  5
24C
330
56
100
AcDbEntity
  8
1
  6
Continuous
 62
     7
100
AcDbLine
 10
50.9631798698322
 20
165.2589760741149
 30
0.0
 11
49.9631798698322
 21
165.2589760741149
 31
0.0
  0
LINE
  5
24D
330
56
100
AcDbEntity
  8
1
  6
Continuous
 62
     7
100
AcDbLine
 10
50.37981265807125
 20
161.7589760741149
 30
0.0
 11
50.09113752347611
 21
162.2589760741149
 31
0.0
  0
LINE
  5
24E
330
56
100
AcDbEntity
  8
1
  6
Continuous
 62
     7
100
AcDbLine
 10
50.09113752347611
 20
162.2589760741149
 30
0.0
 11
49.38582960064255
 21
165.2589760741149
 31
0.0
  0
LINE
  5
24F
330
56
100
AcDbEntity
  8
1
  6
Continuous
 62
     7
100
AcDbLine
 10
49.38582960064255
 20
165.2589760741149
 30
0.0
 11
49.67450473523707
 21
165.7589760741149
 31
0.0
  0
LINE
  5
250
330
56
100
AcDbEntity
  8
1
  6
Continuous
 62
     7
100
AcDbLine
 10
49.67450473523707
 20
165.7589760741149
 30
0.0
 11
50.37981265807125
 21
161.7589760741149
 31
0.0
  0
LINE
  5
251
330
56
100
AcDbEntity
  8
1
  6
Continuous
 62
     7
100
AcDbLine
 10
49.67450473523707
 20
165.7589760741149
 30
0.0
 11
49.9631798698322
 21
165.2589760741149
 31
0.0
  0
LINE
  5
252
330
56
100
AcDbEntity
  8
1
  6
Continuous
 62
     7
100
AcDbLine
 10
50.66848779266607
 20
162.2589760741149
 30
0.0
 11
50.37981265807125
 21
161.7589760741149
 31
0.0
  0
LINE
  5
253
330
56
100
AcDbEntity
  8
1
  6
Continuous
 62
     7
100
AcDbLine
 10
49.9631798698322
 20
165.2589760741149
 30
0.0
 11
50.66848779266607
 21
162.2589760741149
 31
0.0
  0
LINE
  5
254
330
56
100
AcDbEntity
  8
1
  6
Continuous
 62
     7
100
AcDbLine
 10
51.66848779266576
 20
162.2589760741149
 30
0.0
 11
50.66848779266607
 21
162.2589760741149
 31
0.0
  0
LINE
  5
255
330
56
100
AcDbEntity
  8
1
  6
Continuous
 62
     7
100
AcDbLine
 10
50.9631798698322
 20
165.2589760741149
 30
0.0
 11
51.25185500442666
 21
165.7589760741149
 31
0.0
  0
LINE
  5
256
330
56
100
AcDbEntity
  8
1
  6
Continuous
 62
     7
100
AcDbLine
 10
51.66848779266576
 20
162.2589760741149
 30
0.0
 11
50.9631798698322
 21
165.2589760741149
 31
0.0
  0
LINE
  5
257
330
56
100
AcDbEntity
  8
1
  6
Continuous
 62
     7
100
AcDbLine
 10
51.95716292726084
 20
161.7589760741149
 30
0.0
 11
51.66848779266576
 21
162.2589760741149
 31
0.0
  0
LINE
  5
258
330
56
100
AcDbEntity
  8
1
  6
Continuous
 62
     7
100
AcDbLine
 10
51.5405301390218
 20
165.2589760741149
 30
0.0
 11
52.11899943690634
 21
162.7984792648892
 31
0.0
  0
LINE
  5
259
330
56
100
AcDbEntity
  8
1
  6
Continuous
 62
     7
100
AcDbLine
 10
51.25185500442666
 20
165.7589760741149
 30
0.0
 11
51.5405301390218
 21
165.2589760741149
 31
0.0
  0
LINE
  5
25A
330
56
100
AcDbEntity
  8
1
  6
Continuous
 62
     7
100
AcDbLine
 10
51.25185500442666
 20
165.7589760741149
 30
0.0
 11
51.95716292726084
 21
161.7589760741149
 31
0.0
  0
LINE
  5
25B
330
56
100
AcDbEntity
  8
1
  6
Continuous
 62
     7
100
AcDbLine
 10
55.36899943690665
 20
167.7589760741149
 30
0.0
 11
55.36899943690665
 21
159.7589760741149
 31
0.0
  0
LINE
  5
25C
330
56
100
AcDbEntity
  8
1
  6
Continuous
 62
     7
100
AcDbLine
 10
55.36899943690665
 20
167.7589760741149
 30
0.0
 11
55.11892443690633
 21
167.5089010741146
 31
0.0
  0
LINE
  5
25D
330
56
100
AcDbEntity
  8
1
  6
Continuous
 62
     7
100
AcDbLine
 10
55.86899943690673
 20
167.7589760741149
 30
0.0
 11
55.36899943690665
 21
167.7589760741149
 31
0.0
  0
LINE
  5
25E
330
56
100
AcDbEntity
  8
1
  6
Continuous
 62
     7
100
AcDbLine
 10
55.86899943690665
 20
159.7589760741149
 30
0.0
 11
55.36899943690665
 21
159.7589760741149
 31
0.0
  0
LINE
  5
25F
330
56
100
AcDbEntity
  8
1
  6
Continuous
 62
     7
100
AcDbLine
 10
55.86899943690673
 20
167.7589760741149
 30
0.0
 11
55.86899943690665
 21
159.7589760741149
 31
0.0
  0
LINE
  5
260
330
56
100
AcDbEntity
  8
1
  6
Continuous
 62
     7
100
AcDbLine
 10
55.11892443690633
 20
160.0090510741152
 30
0.0
 11
55.36899943690665
 21
159.7589760741149
 31
0.0
  0
LINE
  5
261
330
56
100
AcDbEntity
  8
1
  6
Continuous
 62
     7
100
AcDbLine
 10
52.11899943690634
 20
162.0392851313408
 30
0.0
 11
51.95716292726084
 21
161.7589760741149
 31
0.0
  0
LINE
  5
262
330
56
100
AcDbEntity
  8
1
  6
Continuous
 62
     7
100
AcDbLine
 10
52.11899943690634
 20
165.2589760741149
 30
0.0
 11
51.5405301390218
 21
165.2589760741149
 31
0.0
  0
ENDBLK
  5
58
330
56
100
AcDbEntity
  8
0
100
AcDbBlockEnd
  0
BLOCK
  5
5A
330
59
100
AcDbEntity
  8
0
100
AcDbBlockBegin
  2
H86F-B__2
 70
     0
 10
-3.94926164237339
 20
169.6847624019174
 30
0.0
  3
H86F-B__2
  1

  0
LINE
  5
263
330
59
100
AcDbEntity
  8
1
  6
Continuous
 62
     7
100
AcDbLine
 10
51.66848779266616
 20
192.2589760741153
 30
0.0
 11
50.66848779266616
 21
192.2589760741153
 31
0.0
  0
LINE
  5
264
330
59
100
AcDbEntity
  8
1
  6
Continuous
 62
     7
100
AcDbLine
 10
52.11899943690668
 20
195.2589760741153
 30
0.0
 11
51.54053013902188
 21
195.2589760741153
 31
0.0
  0
LINE
  5
265
330
59
100
AcDbEntity
  8
1
  6
Continuous
 62
     7
100
AcDbLine
 10
50.96317986983229
 20
195.2589760741153
 30
0.0
 11
51.25185500442706
 21
195.7589760741153
 31
0.0
  0
LINE
  5
266
330
59
100
AcDbEntity
  8
1
  6
Continuous
 62
     7
100
AcDbLine
 10
51.66848779266616
 20
192.2589760741153
 30
0.0
 11
50.96317986983229
 21
195.2589760741153
 31
0.0
  0
LINE
  5
267
330
59
100
AcDbEntity
  8
1
  6
Continuous
 62
     7
100
AcDbLine
 10
51.95716292726092
 20
191.7589760741153
 30
0.0
 11
51.66848779266616
 21
192.2589760741153
 31
0.0
  0
LINE
  5
268
330
59
100
AcDbEntity
  8
1
  6
Continuous
 62
     7
100
AcDbLine
 10
52.11899943690668
 20
192.0392851313414
 30
0.0
 11
51.95716292726092
 21
191.7589760741153
 31
0.0
  0
LINE
  5
269
330
59
100
AcDbEntity
  8
1
  6
Continuous
 62
     7
100
AcDbLine
 10
51.54053013902188
 20
195.2589760741153
 30
0.0
 11
52.11899943690668
 21
192.7984792648896
 31
0.0
  0
LINE
  5
26A
330
59
100
AcDbEntity
  8
1
  6
Continuous
 62
     7
100
AcDbLine
 10
51.25185500442706
 20
195.7589760741153
 30
0.0
 11
51.54053013902188
 21
195.2589760741153
 31
0.0
  0
LINE
  5
26B
330
59
100
AcDbEntity
  8
1
  6
Continuous
 62
     7
100
AcDbLine
 10
51.25185500442706
 20
195.7589760741153
 30
0.0
 11
51.95716292726092
 21
191.7589760741153
 31
0.0
  0
LINE
  5
26C
330
59
100
AcDbEntity
  8
1
  6
Continuous
 62
     7
100
AcDbLine
 10
55.36899943690665
 20
197.7589760741149
 30
0.0
 11
55.36899943690673
 21
189.7589760741153
 31
0.0
  0
LINE
  5
26D
330
59
100
AcDbEntity
  8
1
  6
Continuous
 62
     7
100
AcDbLine
 10
55.36899943690665
 20
197.7589760741149
 30
0.0
 11
55.11892443690667
 21
197.5089010741153
 31
0.0
  0
LINE
  5
26E
330
59
100
AcDbEntity
  8
1
  6
Continuous
 62
     7
100
AcDbLine
 10
55.11892443690667
 20
190.0090510741154
 30
0.0
 11
55.36899943690673
 21
189.7589760741153
 31
0.0
  0
LINE
  5
26F
330
59
100
AcDbEntity
  8
1
  6
Continuous
 62
     7
100
AcDbLine
 10
55.86899943690676
 20
197.7589760741153
 30
0.0
 11
55.36899943690665
 21
197.7589760741149
 31
0.0
  0
LINE
  5
270
330
59
100
AcDbEntity
  8
1
  6
Continuous
 62
     7
100
AcDbLine
 10
55.86899943690676
 20
189.7589760741153
 30
0.0
 11
55.36899943690673
 21
189.7589760741153
 31
0.0
  0
LINE
  5
271
330
59
100
AcDbEntity
  8
1
  6
Continuous
 62
     7
100
AcDbLine
 10
55.86899943690676
 20
197.7589760741153
 30
0.0
 11
55.86899943690676
 21
189.7589760741153
 31
0.0
  0
LINE
  5
272
330
59
100
AcDbEntity
  8
1
  6
Continuous
 62
     7
100
AcDbLine
 10
51.25185500442706
 20
255.0308192373486
 30
0.0
 11
51.95716292726092
 21
251.0308192373486
 31
0.0
  0
LINE
  5
273
330
59
100
AcDbEntity
  8
1
  6
Continuous
 62
     7
100
AcDbLine
 10
51.25185500442706
 20
255.0308192373486
 30
0.0
 11
51.54053013902188
 21
254.5308192373486
 31
0.0
  0
LINE
  5
274
330
59
100
AcDbEntity
  8
1
  6
Continuous
 62
     7
100
AcDbLine
 10
51.54053013902188
 20
254.5308192373486
 30
0.0
 11
52.11899943690668
 21
252.0703224281231
 31
0.0
  0
LINE
  5
275
330
59
100
AcDbEntity
  8
1
  6
Continuous
 62
     7
100
AcDbLine
 10
52.11899943690668
 20
251.3111282945747
 30
0.0
 11
51.95716292726092
 21
251.0308192373486
 31
0.0
  0
LINE
  5
276
330
59
100
AcDbEntity
  8
1
  6
Continuous
 62
     7
100
AcDbLine
 10
51.95716292726092
 20
251.0308192373486
 30
0.0
 11
51.66848779266616
 21
251.5308192373486
 31
0.0
  0
LINE
  5
277
330
59
100
AcDbEntity
  8
1
  6
Continuous
 62
     7
100
AcDbLine
 10
51.66848779266616
 20
251.5308192373486
 30
0.0
 11
50.96317986983229
 21
254.5308192373486
 31
0.0
  0
LINE
  5
278
330
59
100
AcDbEntity
  8
1
  6
Continuous
 62
     7
100
AcDbLine
 10
50.96317986983229
 20
254.5308192373486
 30
0.0
 11
51.25185500442706
 21
255.0308192373486
 31
0.0
  0
LINE
  5
279
330
59
100
AcDbEntity
  8
1
  6
Continuous
 62
     7
100
AcDbLine
 10
52.11899943690668
 20
254.5308192373486
 30
0.0
 11
51.54053013902188
 21
254.5308192373486
 31
0.0
  0
LINE
  5
27A
330
59
100
AcDbEntity
  8
1
  6
Continuous
 62
     7
100
AcDbLine
 10
51.66848779266616
 20
251.5308192373486
 30
0.0
 11
50.66848779266616
 21
251.5308192373486
 31
0.0
  0
LINE
  5
27B
330
59
100
AcDbEntity
  8
1
  6
Continuous
 62
     7
100
AcDbLine
 10
34.92193054081659
 20
194.8449556903869
 30
0.0
 11
34.06741533208555
 21
194.6159890302872
 31
0.0
  0
LINE
  5
27C
330
59
100
AcDbEntity
  8
1
  6
Continuous
 62
     7
100
AcDbLine
 10
33.4550428963897
 20
194.4519043306757
 30
0.0
 11
32.60052768765866
 21
194.222937670576
 31
0.0
  0
LINE
  5
27D
330
59
100
AcDbEntity
  8
1
  6
Continuous
 62
     7
100
AcDbLine
 10
31.98815525196295
 20
194.0588529709642
 30
0.0
 11
30.86899943690673
 21
193.7589760741153
 31
0.0
  0
LINE
  5
27E
330
59
100
AcDbEntity
  8
1
  6
Continuous
 62
     7
100
AcDbLine
 10
32.32581698611364
 20
193.3686229882859
 30
0.0
 11
30.86899943690673
 21
193.7589760741153
 31
0.0
  0
LINE
  5
27F
330
59
100
AcDbEntity
  8
1
  6
Continuous
 62
     7
100
AcDbLine
 10
33.93818942180945
 20
192.936589096243
 30
0.0
 11
32.93818942180931
 21
193.2045382886741
 31
0.0
  0
LINE
  5
280
330
59
100
AcDbEntity
  8
1
  6
Continuous
 62
     7
100
AcDbLine
 10
35.55056185750522
 20
192.5045552042001
 30
0.0
 11
34.55056185750522
 21
192.7725043966311
 31
0.0
  0
LINE
  5
281
330
59
100
AcDbEntity
  8
1
  6
Continuous
 62
     7
100
AcDbLine
 10
36.46707564826008
 20
192.2589760741153
 30
0.0
 11
36.16293429320101
 21
192.3404705045882
 31
0.0
  0
LINE
  5
282
330
59
100
AcDbEntity
  8
1
  6
Continuous
 62
     7
100
AcDbLine
 10
37.16293429320101
 20
192.2589760741153
 30
0.0
 11
36.46707564826008
 21
192.2589760741153
 31
0.0
  0
LINE
  5
283
330
59
100
AcDbEntity
  8
1
  6
Continuous
 62
     7
100
AcDbLine
 10
36.45762637036717
 20
195.2589760741153
 30
0.0
 11
35.53430297651244
 21
195.0090403899988
 31
0.0
  0
LINE
  5
284
330
59
100
AcDbEntity
  8
1
  6
Continuous
 62
     7
100
AcDbLine
 10
32.34170864255594
 20
194.6712254066599
 30
0.0
 11
32.67937037670691
 21
192.75625055259
 31
0.0
  0
LINE
  5
285
330
59
100
AcDbEntity
  8
1
  6
Continuous
 62
     7
100
AcDbLine
 10
32.34170864255594
 20
194.6712254066599
 30
0.0
 11
31.98815525196295
 21
194.0588529709642
 31
0.0
  0
LINE
  5
286
330
59
100
AcDbEntity
  8
1
  6
Continuous
 62
     7
100
AcDbLine
 10
32.32581698611364
 20
193.3686229882859
 30
0.0
 11
31.98815525196295
 21
194.0588529709642
 31
0.0
  0
LINE
  5
287
330
59
100
AcDbEntity
  8
1
  6
Continuous
 62
     7
100
AcDbLine
 10
32.67937037670691
 20
192.75625055259
 30
0.0
 11
32.32581698611364
 21
193.3686229882859
 31
0.0
  0
LINE
  5
288
330
59
100
AcDbEntity
  8
1
  6
Continuous
 62
     7
100
AcDbLine
 10
32.93818942180931
 20
193.2045382886741
 30
0.0
 11
32.67937037670691
 21
192.75625055259
 31
0.0
  0
LINE
  5
289
330
59
100
AcDbEntity
  8
1
  6
Continuous
 62
     7
100
AcDbLine
 10
32.60052768765866
 20
194.222937670576
 30
0.0
 11
32.93818942180931
 21
193.2045382886741
 31
0.0
  0
LINE
  5
28A
330
59
100
AcDbEntity
  8
1
  6
Continuous
 62
     7
100
AcDbLine
 10
32.34170864255594
 20
194.6712254066599
 30
0.0
 11
32.60052768765866
 21
194.222937670576
 31
0.0
  0
LINE
  5
28B
330
59
100
AcDbEntity
  8
1
  6
Continuous
 62
     7
100
AcDbLine
 10
33.80859628698306
 20
195.0642767663715
 30
0.0
 11
33.4550428963897
 21
194.4519043306757
 31
0.0
  0
LINE
  5
28C
330
59
100
AcDbEntity
  8
1
  6
Continuous
 62
     7
100
AcDbLine
 10
33.80859628698306
 20
195.0642767663715
 30
0.0
 11
34.29174281240273
 21
192.3242166605472
 31
0.0
  0
LINE
  5
28D
330
59
100
AcDbEntity
  8
1
  6
Continuous
 62
     7
100
AcDbLine
 10
33.93818942180945
 20
192.936589096243
 30
0.0
 11
33.4550428963897
 21
194.4519043306757
 31
0.0
  0
LINE
  5
28E
330
59
100
AcDbEntity
  8
1
  6
Continuous
 62
     7
100
AcDbLine
 10
34.29174281240273
 20
192.3242166605472
 30
0.0
 11
33.93818942180945
 21
192.936589096243
 31
0.0
  0
LINE
  5
28F
330
59
100
AcDbEntity
  8
1
  6
Continuous
 62
     7
100
AcDbLine
 10
34.55056185750522
 20
192.7725043966311
 30
0.0
 11
34.29174281240273
 21
192.3242166605472
 31
0.0
  0
LINE
  5
290
330
59
100
AcDbEntity
  8
1
  6
Continuous
 62
     7
100
AcDbLine
 10
34.06741533208555
 20
194.6159890302872
 30
0.0
 11
34.55056185750522
 21
192.7725043966311
 31
0.0
  0
LINE
  5
291
330
59
100
AcDbEntity
  8
1
  6
Continuous
 62
     7
100
AcDbLine
 10
33.80859628698306
 20
195.0642767663715
 30
0.0
 11
34.06741533208555
 21
194.6159890302872
 31
0.0
  0
LINE
  5
292
330
59
100
AcDbEntity
  8
1
  6
Continuous
 62
     7
100
AcDbLine
 10
35.90411524809855
 20
191.8921827685043
 30
0.0
 11
35.55056185750522
 21
192.5045552042001
 31
0.0
  0
LINE
  5
293
330
59
100
AcDbEntity
  8
1
  6
Continuous
 62
     7
100
AcDbLine
 10
36.16293429320101
 20
192.3404705045882
 30
0.0
 11
35.90411524809855
 21
191.8921827685043
 31
0.0
  0
LINE
  5
294
330
59
100
AcDbEntity
  8
1
  6
Continuous
 62
     7
100
AcDbLine
 10
34.92193054081659
 20
194.8449556903869
 30
0.0
 11
35.55056185750522
 21
192.5045552042001
 31
0.0
  0
LINE
  5
295
330
59
100
AcDbEntity
  8
1
  6
Continuous
 62
     7
100
AcDbLine
 10
35.27548393140995
 20
195.4573281260828
 30
0.0
 11
34.92193054081659
 21
194.8449556903869
 31
0.0
  0
LINE
  5
296
330
59
100
AcDbEntity
  8
1
  6
Continuous
 62
     7
100
AcDbLine
 10
35.27548393140995
 20
195.4573281260828
 30
0.0
 11
35.53430297651244
 21
195.0090403899988
 31
0.0
  0
LINE
  5
297
330
59
100
AcDbEntity
  8
1
  6
Continuous
 62
     7
100
AcDbLine
 10
35.27548393140995
 20
195.4573281260828
 30
0.0
 11
35.90411524809855
 21
191.8921827685043
 31
0.0
  0
LINE
  5
298
330
59
100
AcDbEntity
  8
1
  6
Continuous
 62
     7
100
AcDbLine
 10
35.53430297651244
 20
195.0090403899988
 30
0.0
 11
36.16293429320101
 21
192.3404705045882
 31
0.0
  0
LINE
  5
299
330
59
100
AcDbEntity
  8
1
  6
Continuous
 62
     7
100
AcDbLine
 10
39.31763483158022
 20
192.2589760741153
 30
0.0
 11
37.7402845623906
 21
192.2589760741153
 31
0.0
  0
LINE
  5
29A
330
59
100
AcDbEntity
  8
1
  6
Continuous
 62
     7
100
AcDbLine
 10
38.61232690874644
 20
195.2589760741153
 30
0.0
 11
37.03497663955679
 21
195.2589760741153
 31
0.0
  0
LINE
  5
29B
330
59
100
AcDbEntity
  8
1
  6
Continuous
 62
     7
100
AcDbLine
 10
40.76702744712566
 20
195.2589760741153
 30
0.0
 11
39.18967717793601
 21
195.2589760741153
 31
0.0
  0
LINE
  5
29C
330
59
100
AcDbEntity
  8
1
  6
Continuous
 62
     7
100
AcDbLine
 10
41.47233536995952
 20
192.2589760741153
 30
0.0
 11
39.89498510076982
 21
192.2589760741153
 31
0.0
  0
LINE
  5
29D
330
59
100
AcDbEntity
  8
1
  6
Continuous
 62
     7
100
AcDbLine
 10
43.62703590833871
 20
192.2589760741153
 30
0.0
 11
42.04968563914909
 21
192.2589760741153
 31
0.0
  0
LINE
  5
29E
330
59
100
AcDbEntity
  8
1
  6
Continuous
 62
     7
100
AcDbLine
 10
42.92172798550496
 20
195.2589760741153
 30
0.0
 11
41.34437771631528
 21
195.2589760741153
 31
0.0
  0
LINE
  5
29F
330
59
100
AcDbEntity
  8
1
  6
Continuous
 62
     7
100
AcDbLine
 10
45.07642852388412
 20
195.2589760741153
 30
0.0
 11
43.49907825469455
 21
195.2589760741153
 31
0.0
  0
LINE
  5
2A0
330
59
100
AcDbEntity
  8
1
  6
Continuous
 62
     7
100
AcDbLine
 10
45.78173644671801
 20
192.2589760741153
 30
0.0
 11
44.20438617752845
 21
192.2589760741153
 31
0.0
  0
LINE
  5
2A1
330
59
100
AcDbEntity
  8
1
  6
Continuous
 62
     7
100
AcDbLine
 10
47.93643698509726
 20
192.2589760741153
 30
0.0
 11
46.35908671590767
 21
192.2589760741153
 31
0.0
  0
LINE
  5
2A2
330
59
100
AcDbEntity
  8
1
  6
Continuous
 62
     7
100
AcDbLine
 10
47.23112906226339
 20
195.2589760741153
 30
0.0
 11
45.65377879307386
 21
195.2589760741153
 31
0.0
  0
LINE
  5
2A3
330
59
100
AcDbEntity
  8
1
  6
Continuous
 62
     7
100
AcDbLine
 10
49.38582960064264
 20
195.2589760741153
 30
0.0
 11
47.80847933145299
 21
195.2589760741153
 31
0.0
  0
LINE
  5
2A4
330
59
100
AcDbEntity
  8
1
  6
Continuous
 62
     7
100
AcDbLine
 10
50.09113752347651
 20
192.2589760741153
 30
0.0
 11
48.51378725428691
 21
192.2589760741153
 31
0.0
  0
LINE
  5
2A5
330
59
100
AcDbEntity
  8
1
  6
Continuous
 62
     7
100
AcDbLine
 10
37.7402845623906
 20
192.2589760741153
 30
0.0
 11
37.4516094277958
 21
191.7589760741153
 31
0.0
  0
LINE
  5
2A6
330
59
100
AcDbEntity
  8
1
  6
Continuous
 62
     7
100
AcDbLine
 10
37.03497663955679
 20
195.2589760741153
 30
0.0
 11
37.7402845623906
 21
192.2589760741153
 31
0.0
  0
LINE
  5
2A7
330
59
100
AcDbEntity
  8
1
  6
Continuous
 62
     7
100
AcDbLine
 10
37.4516094277958
 20
191.7589760741153
 30
0.0
 11
37.16293429320101
 21
192.2589760741153
 31
0.0
  0
LINE
  5
2A8
330
59
100
AcDbEntity
  8
1
  6
Continuous
 62
     7
100
AcDbLine
 10
37.16293429320101
 20
192.2589760741153
 30
0.0
 11
36.45762637036717
 21
195.2589760741153
 31
0.0
  0
LINE
  5
2A9
330
59
100
AcDbEntity
  8
1
  6
Continuous
 62
     7
100
AcDbLine
 10
36.45762637036717
 20
195.2589760741153
 30
0.0
 11
36.74630150496199
 21
195.7589760741149
 31
0.0
  0
LINE
  5
2AA
330
59
100
AcDbEntity
  8
1
  6
Continuous
 62
     7
100
AcDbLine
 10
36.74630150496199
 20
195.7589760741149
 30
0.0
 11
37.4516094277958
 21
191.7589760741153
 31
0.0
  0
LINE
  5
2AB
330
59
100
AcDbEntity
  8
1
  6
Continuous
 62
     7
100
AcDbLine
 10
36.74630150496199
 20
195.7589760741149
 30
0.0
 11
37.03497663955679
 21
195.2589760741153
 31
0.0
  0
LINE
  5
2AC
330
59
100
AcDbEntity
  8
1
  6
Continuous
 62
     7
100
AcDbLine
 10
39.89498510076982
 20
192.2589760741153
 30
0.0
 11
39.6063099661751
 21
191.7589760741153
 31
0.0
  0
LINE
  5
2AD
330
59
100
AcDbEntity
  8
1
  6
Continuous
 62
     7
100
AcDbLine
 10
39.18967717793601
 20
195.2589760741153
 30
0.0
 11
39.89498510076982
 21
192.2589760741153
 31
0.0
  0
LINE
  5
2AE
330
59
100
AcDbEntity
  8
1
  6
Continuous
 62
     7
100
AcDbLine
 10
39.6063099661751
 20
191.7589760741153
 30
0.0
 11
39.31763483158022
 21
192.2589760741153
 31
0.0
  0
LINE
  5
2AF
330
59
100
AcDbEntity
  8
1
  6
Continuous
 62
     7
100
AcDbLine
 10
39.31763483158022
 20
192.2589760741153
 30
0.0
 11
38.61232690874644
 21
195.2589760741153
 31
0.0
  0
LINE
  5
2B0
330
59
100
AcDbEntity
  8
1
  6
Continuous
 62
     7
100
AcDbLine
 10
38.61232690874644
 20
195.2589760741153
 30
0.0
 11
38.90100204334118
 21
195.7589760741149
 31
0.0
  0
LINE
  5
2B1
330
59
100
AcDbEntity
  8
1
  6
Continuous
 62
     7
100
AcDbLine
 10
38.90100204334118
 20
195.7589760741149
 30
0.0
 11
39.6063099661751
 21
191.7589760741153
 31
0.0
  0
LINE
  5
2B2
330
59
100
AcDbEntity
  8
1
  6
Continuous
 62
     7
100
AcDbLine
 10
38.90100204334118
 20
195.7589760741149
 30
0.0
 11
39.18967717793601
 21
195.2589760741153
 31
0.0
  0
LINE
  5
2B3
330
59
100
AcDbEntity
  8
1
  6
Continuous
 62
     7
100
AcDbLine
 10
42.04968563914909
 20
192.2589760741153
 30
0.0
 11
41.76101050455438
 21
191.7589760741153
 31
0.0
  0
LINE
  5
2B4
330
59
100
AcDbEntity
  8
1
  6
Continuous
 62
     7
100
AcDbLine
 10
41.34437771631528
 20
195.2589760741153
 30
0.0
 11
42.04968563914909
 21
192.2589760741153
 31
0.0
  0
LINE
  5
2B5
330
59
100
AcDbEntity
  8
1
  6
Continuous
 62
     7
100
AcDbLine
 10
41.76101050455438
 20
191.7589760741153
 30
0.0
 11
41.47233536995952
 21
192.2589760741153
 31
0.0
  0
LINE
  5
2B6
330
59
100
AcDbEntity
  8
1
  6
Continuous
 62
     7
100
AcDbLine
 10
41.47233536995952
 20
192.2589760741153
 30
0.0
 11
40.76702744712566
 21
195.2589760741153
 31
0.0
  0
LINE
  5
2B7
330
59
100
AcDbEntity
  8
1
  6
Continuous
 62
     7
100
AcDbLine
 10
40.76702744712566
 20
195.2589760741153
 30
0.0
 11
41.05570258172037
 21
195.7589760741149
 31
0.0
  0
LINE
  5
2B8
330
59
100
AcDbEntity
  8
1
  6
Continuous
 62
     7
100
AcDbLine
 10
41.05570258172037
 20
195.7589760741149
 30
0.0
 11
41.76101050455438
 21
191.7589760741153
 31
0.0
  0
LINE
  5
2B9
330
59
100
AcDbEntity
  8
1
  6
Continuous
 62
     7
100
AcDbLine
 10
41.05570258172037
 20
195.7589760741149
 30
0.0
 11
41.34437771631528
 21
195.2589760741153
 31
0.0
  0
LINE
  5
2BA
330
59
100
AcDbEntity
  8
1
  6
Continuous
 62
     7
100
AcDbLine
 10
44.20438617752845
 20
192.2589760741153
 30
0.0
 11
43.91571104293365
 21
191.7589760741153
 31
0.0
  0
LINE
  5
2BB
330
59
100
AcDbEntity
  8
1
  6
Continuous
 62
     7
100
AcDbLine
 10
43.49907825469455
 20
195.2589760741153
 30
0.0
 11
44.20438617752845
 21
192.2589760741153
 31
0.0
  0
LINE
  5
2BC
330
59
100
AcDbEntity
  8
1
  6
Continuous
 62
     7
100
AcDbLine
 10
43.91571104293365
 20
191.7589760741153
 30
0.0
 11
43.62703590833871
 21
192.2589760741153
 31
0.0
  0
LINE
  5
2BD
330
59
100
AcDbEntity
  8
1
  6
Continuous
 62
     7
100
AcDbLine
 10
43.62703590833871
 20
192.2589760741153
 30
0.0
 11
42.92172798550496
 21
195.2589760741153
 31
0.0
  0
LINE
  5
2BE
330
59
100
AcDbEntity
  8
1
  6
Continuous
 62
     7
100
AcDbLine
 10
42.92172798550496
 20
195.2589760741153
 30
0.0
 11
43.21040312009967
 21
195.7589760741149
 31
0.0
  0
LINE
  5
2BF
330
59
100
AcDbEntity
  8
1
  6
Continuous
 62
     7
100
AcDbLine
 10
43.21040312009967
 20
195.7589760741149
 30
0.0
 11
43.91571104293365
 21
191.7589760741153
 31
0.0
  0
LINE
  5
2C0
330
59
100
AcDbEntity
  8
1
  6
Continuous
 62
     7
100
AcDbLine
 10
43.21040312009967
 20
195.7589760741149
 30
0.0
 11
43.49907825469455
 21
195.2589760741153
 31
0.0
  0
LINE
  5
2C1
330
59
100
AcDbEntity
  8
1
  6
Continuous
 62
     7
100
AcDbLine
 10
46.35908671590767
 20
192.2589760741153
 30
0.0
 11
46.07041158131284
 21
191.7589760741153
 31
0.0
  0
LINE
  5
2C2
330
59
100
AcDbEntity
  8
1
  6
Continuous
 62
     7
100
AcDbLine
 10
45.65377879307386
 20
195.2589760741153
 30
0.0
 11
46.35908671590767
 21
192.2589760741153
 31
0.0
  0
LINE
  5
2C3
330
59
100
AcDbEntity
  8
1
  6
Continuous
 62
     7
100
AcDbLine
 10
46.07041158131284
 20
191.7589760741153
 30
0.0
 11
45.78173644671801
 21
192.2589760741153
 31
0.0
  0
LINE
  5
2C4
330
59
100
AcDbEntity
  8
1
  6
Continuous
 62
     7
100
AcDbLine
 10
45.78173644671801
 20
192.2589760741153
 30
0.0
 11
45.07642852388412
 21
195.2589760741153
 31
0.0
  0
LINE
  5
2C5
330
59
100
AcDbEntity
  8
1
  6
Continuous
 62
     7
100
AcDbLine
 10
45.07642852388412
 20
195.2589760741153
 30
0.0
 11
45.36510365847886
 21
195.7589760741149
 31
0.0
  0
LINE
  5
2C6
330
59
100
AcDbEntity
  8
1
  6
Continuous
 62
     7
100
AcDbLine
 10
45.36510365847886
 20
195.7589760741149
 30
0.0
 11
46.07041158131284
 21
191.7589760741153
 31
0.0
  0
LINE
  5
2C7
330
59
100
AcDbEntity
  8
1
  6
Continuous
 62
     7
100
AcDbLine
 10
45.36510365847886
 20
195.7589760741149
 30
0.0
 11
45.65377879307386
 21
195.2589760741153
 31
0.0
  0
LINE
  5
2C8
330
59
100
AcDbEntity
  8
1
  6
Continuous
 62
     7
100
AcDbLine
 10
48.51378725428691
 20
192.2589760741153
 30
0.0
 11
48.22511211969209
 21
191.7589760741153
 31
0.0
  0
LINE
  5
2C9
330
59
100
AcDbEntity
  8
1
  6
Continuous
 62
     7
100
AcDbLine
 10
47.80847933145299
 20
195.2589760741153
 30
0.0
 11
48.51378725428691
 21
192.2589760741153
 31
0.0
  0
LINE
  5
2CA
330
59
100
AcDbEntity
  8
1
  6
Continuous
 62
     7
100
AcDbLine
 10
48.22511211969209
 20
191.7589760741153
 30
0.0
 11
47.93643698509726
 21
192.2589760741153
 31
0.0
  0
LINE
  5
2CB
330
59
100
AcDbEntity
  8
1
  6
Continuous
 62
     7
100
AcDbLine
 10
47.93643698509726
 20
192.2589760741153
 30
0.0
 11
47.23112906226339
 21
195.2589760741153
 31
0.0
  0
LINE
  5
2CC
330
59
100
AcDbEntity
  8
1
  6
Continuous
 62
     7
100
AcDbLine
 10
47.23112906226339
 20
195.2589760741153
 30
0.0
 11
47.51980419685813
 21
195.7589760741149
 31
0.0
  0
LINE
  5
2CD
330
59
100
AcDbEntity
  8
1
  6
Continuous
 62
     7
100
AcDbLine
 10
47.51980419685813
 20
195.7589760741149
 30
0.0
 11
48.22511211969209
 21
191.7589760741153
 31
0.0
  0
LINE
  5
2CE
330
59
100
AcDbEntity
  8
1
  6
Continuous
 62
     7
100
AcDbLine
 10
47.51980419685813
 20
195.7589760741149
 30
0.0
 11
47.80847933145299
 21
195.2589760741153
 31
0.0
  0
LINE
  5
2CF
330
59
100
AcDbEntity
  8
1
  6
Continuous
 62
     7
100
AcDbLine
 10
50.96317986983229
 20
195.2589760741153
 30
0.0
 11
49.96317986983229
 21
195.2589760741153
 31
0.0
  0
LINE
  5
2D0
330
59
100
AcDbEntity
  8
1
  6
Continuous
 62
     7
100
AcDbLine
 10
50.37981265807133
 20
191.7589760741153
 30
0.0
 11
50.09113752347651
 21
192.2589760741153
 31
0.0
  0
LINE
  5
2D1
330
59
100
AcDbEntity
  8
1
  6
Continuous
 62
     7
100
AcDbLine
 10
50.09113752347651
 20
192.2589760741153
 30
0.0
 11
49.38582960064264
 21
195.2589760741153
 31
0.0
  0
LINE
  5
2D2
330
59
100
AcDbEntity
  8
1
  6
Continuous
 62
     7
100
AcDbLine
 10
49.38582960064264
 20
195.2589760741153
 30
0.0
 11
49.67450473523746
 21
195.7589760741153
 31
0.0
  0
LINE
  5
2D3
330
59
100
AcDbEntity
  8
1
  6
Continuous
 62
     7
100
AcDbLine
 10
49.67450473523746
 20
195.7589760741153
 30
0.0
 11
50.37981265807133
 21
191.7589760741153
 31
0.0
  0
LINE
  5
2D4
330
59
100
AcDbEntity
  8
1
  6
Continuous
 62
     7
100
AcDbLine
 10
49.67450473523746
 20
195.7589760741153
 30
0.0
 11
49.96317986983229
 21
195.2589760741153
 31
0.0
  0
LINE
  5
2D5
330
59
100
AcDbEntity
  8
1
  6
Continuous
 62
     7
100
AcDbLine
 10
50.66848779266616
 20
192.2589760741153
 30
0.0
 11
50.37981265807133
 21
191.7589760741153
 31
0.0
  0
LINE
  5
2D6
330
59
100
AcDbEntity
  8
1
  6
Continuous
 62
     7
100
AcDbLine
 10
49.96317986983229
 20
195.2589760741153
 30
0.0
 11
50.66848779266616
 21
192.2589760741153
 31
0.0
  0
LINE
  5
2D7
330
59
100
AcDbEntity
  8
1
  6
Continuous
 62
     7
100
AcDbLine
 10
49.96317986983229
 20
254.5308192373486
 30
0.0
 11
50.66848779266616
 21
251.5308192373486
 31
0.0
  0
LINE
  5
2D8
330
59
100
AcDbEntity
  8
1
  6
Continuous
 62
     7
100
AcDbLine
 10
50.66848779266616
 20
251.5308192373486
 30
0.0
 11
50.37981265807133
 21
251.0308192373486
 31
0.0
  0
LINE
  5
2D9
330
59
100
AcDbEntity
  8
1
  6
Continuous
 62
     7
100
AcDbLine
 10
49.67450473523746
 20
255.0308192373486
 30
0.0
 11
49.96317986983229
 21
254.5308192373486
 31
0.0
  0
LINE
  5
2DA
330
59
100
AcDbEntity
  8
1
  6
Continuous
 62
     7
100
AcDbLine
 10
49.67450473523746
 20
255.0308192373486
 30
0.0
 11
50.37981265807133
 21
251.0308192373486
 31
0.0
  0
LINE
  5
2DB
330
59
100
AcDbEntity
  8
1
  6
Continuous
 62
     7
100
AcDbLine
 10
49.38582960064264
 20
254.5308192373486
 30
0.0
 11
49.67450473523746
 21
255.0308192373486
 31
0.0
  0
LINE
  5
2DC
330
59
100
AcDbEntity
  8
1
  6
Continuous
 62
     7
100
AcDbLine
 10
50.09113752347651
 20
251.5308192373486
 30
0.0
 11
49.38582960064264
 21
254.5308192373486
 31
0.0
  0
LINE
  5
2DD
330
59
100
AcDbEntity
  8
1
  6
Continuous
 62
     7
100
AcDbLine
 10
50.37981265807133
 20
251.0308192373486
 30
0.0
 11
50.09113752347651
 21
251.5308192373486
 31
0.0
  0
LINE
  5
2DE
330
59
100
AcDbEntity
  8
1
  6
Continuous
 62
     7
100
AcDbLine
 10
50.96317986983229
 20
254.5308192373486
 30
0.0
 11
49.96317986983229
 21
254.5308192373486
 31
0.0
  0
LINE
  5
2DF
330
59
100
AcDbEntity
  8
1
  6
Continuous
 62
     7
100
AcDbLine
 10
47.51980419685822
 20
255.0308192373486
 30
0.0
 11
47.80847933145299
 21
254.5308192373486
 31
0.0
  0
LINE
  5
2E0
330
59
100
AcDbEntity
  8
1
  6
Continuous
 62
     7
100
AcDbLine
 10
47.51980419685822
 20
255.0308192373486
 30
0.0
 11
48.22511211969209
 21
251.0308192373486
 31
0.0
  0
LINE
  5
2E1
330
59
100
AcDbEntity
  8
1
  6
Continuous
 62
     7
100
AcDbLine
 10
47.23112906226339
 20
254.5308192373486
 30
0.0
 11
47.51980419685822
 21
255.0308192373486
 31
0.0
  0
LINE
  5
2E2
330
59
100
AcDbEntity
  8
1
  6
Continuous
 62
     7
100
AcDbLine
 10
47.93643698509726
 20
251.5308192373486
 30
0.0
 11
47.23112906226339
 21
254.5308192373486
 31
0.0
  0
LINE
  5
2E3
330
59
100
AcDbEntity
  8
1
  6
Continuous
 62
     7
100
AcDbLine
 10
48.22511211969209
 20
251.0308192373486
 30
0.0
 11
47.93643698509726
 21
251.5308192373486
 31
0.0
  0
LINE
  5
2E4
330
59
100
AcDbEntity
  8
1
  6
Continuous
 62
     7
100
AcDbLine
 10
47.80847933145299
 20
254.5308192373486
 30
0.0
 11
48.51378725428691
 21
251.5308192373486
 31
0.0
  0
LINE
  5
2E5
330
59
100
AcDbEntity
  8
1
  6
Continuous
 62
     7
100
AcDbLine
 10
48.51378725428691
 20
251.5308192373486
 30
0.0
 11
48.22511211969209
 21
251.0308192373486
 31
0.0
  0
LINE
  5
2E6
330
59
100
AcDbEntity
  8
1
  6
Continuous
 62
     7
100
AcDbLine
 10
45.36510365847892
 20
255.0308192373486
 30
0.0
 11
45.65377879307386
 21
254.5308192373486
 31
0.0
  0
LINE
  5
2E7
330
59
100
AcDbEntity
  8
1
  6
Continuous
 62
     7
100
AcDbLine
 10
45.36510365847892
 20
255.0308192373486
 30
0.0
 11
46.07041158131284
 21
251.0308192373486
 31
0.0
  0
LINE
  5
2E8
330
59
100
AcDbEntity
  8
1
  6
Continuous
 62
     7
100
AcDbLine
 10
45.07642852388412
 20
254.5308192373486
 30
0.0
 11
45.36510365847892
 21
255.0308192373486
 31
0.0
  0
LINE
  5
2E9
330
59
100
AcDbEntity
  8
1
  6
Continuous
 62
     7
100
AcDbLine
 10
45.78173644671801
 20
251.5308192373486
 30
0.0
 11
45.07642852388412
 21
254.5308192373486
 31
0.0
  0
LINE
  5
2EA
330
59
100
AcDbEntity
  8
1
  6
Continuous
 62
     7
100
AcDbLine
 10
46.07041158131284
 20
251.0308192373486
 30
0.0
 11
45.78173644671801
 21
251.5308192373486
 31
0.0
  0
LINE
  5
2EB
330
59
100
AcDbEntity
  8
1
  6
Continuous
 62
     7
100
AcDbLine
 10
45.65377879307386
 20
254.5308192373486
 30
0.0
 11
46.35908671590767
 21
251.5308192373486
 31
0.0
  0
LINE
  5
2EC
330
59
100
AcDbEntity
  8
1
  6
Continuous
 62
     7
100
AcDbLine
 10
46.35908671590767
 20
251.5308192373486
 30
0.0
 11
46.07041158131284
 21
251.0308192373486
 31
0.0
  0
LINE
  5
2ED
330
59
100
AcDbEntity
  8
1
  6
Continuous
 62
     7
100
AcDbLine
 10
43.21040312009973
 20
255.0308192373486
 30
0.0
 11
43.49907825469455
 21
254.5308192373486
 31
0.0
  0
LINE
  5
2EE
330
59
100
AcDbEntity
  8
1
  6
Continuous
 62
     7
100
AcDbLine
 10
43.21040312009973
 20
255.0308192373486
 30
0.0
 11
43.91571104293365
 21
251.0308192373486
 31
0.0
  0
LINE
  5
2EF
330
59
100
AcDbEntity
  8
1
  6
Continuous
 62
     7
100
AcDbLine
 10
42.92172798550496
 20
254.5308192373486
 30
0.0
 11
43.21040312009973
 21
255.0308192373486
 31
0.0
  0
LINE
  5
2F0
330
59
100
AcDbEntity
  8
1
  6
Continuous
 62
     7
100
AcDbLine
 10
43.62703590833871
 20
251.5308192373486
 30
0.0
 11
42.92172798550496
 21
254.5308192373486
 31
0.0
  0
LINE
  5
2F1
330
59
100
AcDbEntity
  8
1
  6
Continuous
 62
     7
100
AcDbLine
 10
43.91571104293365
 20
251.0308192373486
 30
0.0
 11
43.62703590833871
 21
251.5308192373486
 31
0.0
  0
LINE
  5
2F2
330
59
100
AcDbEntity
  8
1
  6
Continuous
 62
     7
100
AcDbLine
 10
43.49907825469455
 20
254.5308192373486
 30
0.0
 11
44.20438617752845
 21
251.5308192373486
 31
0.0
  0
LINE
  5
2F3
330
59
100
AcDbEntity
  8
1
  6
Continuous
 62
     7
100
AcDbLine
 10
44.20438617752845
 20
251.5308192373486
 30
0.0
 11
43.91571104293365
 21
251.0308192373486
 31
0.0
  0
LINE
  5
2F4
330
59
100
AcDbEntity
  8
1
  6
Continuous
 62
     7
100
AcDbLine
 10
41.05570258172043
 20
255.0308192373486
 30
0.0
 11
41.34437771631528
 21
254.5308192373486
 31
0.0
  0
LINE
  5
2F5
330
59
100
AcDbEntity
  8
1
  6
Continuous
 62
     7
100
AcDbLine
 10
41.05570258172043
 20
255.0308192373486
 30
0.0
 11
41.76101050455438
 21
251.0308192373486
 31
0.0
  0
LINE
  5
2F6
330
59
100
AcDbEntity
  8
1
  6
Continuous
 62
     7
100
AcDbLine
 10
40.76702744712566
 20
254.5308192373486
 30
0.0
 11
41.05570258172043
 21
255.0308192373486
 31
0.0
  0
LINE
  5
2F7
330
59
100
AcDbEntity
  8
1
  6
Continuous
 62
     7
100
AcDbLine
 10
41.47233536995952
 20
251.5308192373486
 30
0.0
 11
40.76702744712566
 21
254.5308192373486
 31
0.0
  0
LINE
  5
2F8
330
59
100
AcDbEntity
  8
1
  6
Continuous
 62
     7
100
AcDbLine
 10
41.76101050455438
 20
251.0308192373486
 30
0.0
 11
41.47233536995952
 21
251.5308192373486
 31
0.0
  0
LINE
  5
2F9
330
59
100
AcDbEntity
  8
1
  6
Continuous
 62
     7
100
AcDbLine
 10
41.34437771631528
 20
254.5308192373486
 30
0.0
 11
42.04968563914909
 21
251.5308192373486
 31
0.0
  0
LINE
  5
2FA
330
59
100
AcDbEntity
  8
1
  6
Continuous
 62
     7
100
AcDbLine
 10
42.04968563914909
 20
251.5308192373486
 30
0.0
 11
41.76101050455438
 21
251.0308192373486
 31
0.0
  0
LINE
  5
2FB
330
59
100
AcDbEntity
  8
1
  6
Continuous
 62
     7
100
AcDbLine
 10
38.90100204334124
 20
255.0308192373486
 30
0.0
 11
39.18967717793601
 21
254.5308192373486
 31
0.0
  0
LINE
  5
2FC
330
59
100
AcDbEntity
  8
1
  6
Continuous
 62
     7
100
AcDbLine
 10
38.90100204334124
 20
255.0308192373486
 30
0.0
 11
39.6063099661751
 21
251.0308192373486
 31
0.0
  0
LINE
  5
2FD
330
59
100
AcDbEntity
  8
1
  6
Continuous
 62
     7
100
AcDbLine
 10
38.61232690874644
 20
254.5308192373486
 30
0.0
 11
38.90100204334124
 21
255.0308192373486
 31
0.0
  0
LINE
  5
2FE
330
59
100
AcDbEntity
  8
1
  6
Continuous
 62
     7
100
AcDbLine
 10
39.31763483158022
 20
251.5308192373486
 30
0.0
 11
38.61232690874644
 21
254.5308192373486
 31
0.0
  0
LINE
  5
2FF
330
59
100
AcDbEntity
  8
1
  6
Continuous
 62
     7
100
AcDbLine
 10
39.6063099661751
 20
251.0308192373486
 30
0.0
 11
39.31763483158022
 21
251.5308192373486
 31
0.0
  0
LINE
  5
300
330
59
100
AcDbEntity
  8
1
  6
Continuous
 62
     7
100
AcDbLine
 10
39.18967717793601
 20
254.5308192373486
 30
0.0
 11
39.89498510076982
 21
251.5308192373486
 31
0.0
  0
LINE
  5
301
330
59
100
AcDbEntity
  8
1
  6
Continuous
 62
     7
100
AcDbLine
 10
39.89498510076982
 20
251.5308192373486
 30
0.0
 11
39.6063099661751
 21
251.0308192373486
 31
0.0
  0
LINE
  5
302
330
59
100
AcDbEntity
  8
1
  6
Continuous
 62
     7
100
AcDbLine
 10
36.74630150496205
 20
255.0308192373486
 30
0.0
 11
37.03497663955679
 21
254.5308192373486
 31
0.0
  0
LINE
  5
303
330
59
100
AcDbEntity
  8
1
  6
Continuous
 62
     7
100
AcDbLine
 10
36.74630150496205
 20
255.0308192373486
 30
0.0
 11
37.4516094277958
 21
251.0308192373486
 31
0.0
  0
LINE
  5
304
330
59
100
AcDbEntity
  8
1
  6
Continuous
 62
     7
100
AcDbLine
 10
36.45762637036717
 20
254.5308192373486
 30
0.0
 11
36.74630150496205
 21
255.0308192373486
 31
0.0
  0
LINE
  5
305
330
59
100
AcDbEntity
  8
1
  6
Continuous
 62
     7
100
AcDbLine
 10
37.16293429320101
 20
251.5308192373486
 30
0.0
 11
36.45762637036717
 21
254.5308192373486
 31
0.0
  0
LINE
  5
306
330
59
100
AcDbEntity
  8
1
  6
Continuous
 62
     7
100
AcDbLine
 10
37.4516094277958
 20
251.0308192373486
 30
0.0
 11
37.16293429320101
 21
251.5308192373486
 31
0.0
  0
LINE
  5
307
330
59
100
AcDbEntity
  8
1
  6
Continuous
 62
     7
100
AcDbLine
 10
37.03497663955679
 20
254.5308192373486
 30
0.0
 11
37.7402845623906
 21
251.5308192373486
 31
0.0
  0
LINE
  5
308
330
59
100
AcDbEntity
  8
1
  6
Continuous
 62
     7
100
AcDbLine
 10
37.7402845623906
 20
251.5308192373486
 30
0.0
 11
37.4516094277958
 21
251.0308192373486
 31
0.0
  0
LINE
  5
309
330
59
100
AcDbEntity
  8
1
  6
Continuous
 62
     7
100
AcDbLine
 10
50.09113752347651
 20
251.5308192373486
 30
0.0
 11
48.51378725428691
 21
251.5308192373486
 31
0.0
  0
LINE
  5
30A
330
59
100
AcDbEntity
  8
1
  6
Continuous
 62
     7
100
AcDbLine
 10
49.38582960064264
 20
254.5308192373486
 30
0.0
 11
47.80847933145299
 21
254.5308192373486
 31
0.0
  0
LINE
  5
30B
330
59
100
AcDbEntity
  8
1
  6
Continuous
 62
     7
100
AcDbLine
 10
47.23112906226339
 20
254.5308192373486
 30
0.0
 11
45.65377879307386
 21
254.5308192373486
 31
0.0
  0
LINE
  5
30C
330
59
100
AcDbEntity
  8
1
  6
Continuous
 62
     7
100
AcDbLine
 10
47.93643698509726
 20
251.5308192373486
 30
0.0
 11
46.35908671590767
 21
251.5308192373486
 31
0.0
  0
LINE
  5
30D
330
59
100
AcDbEntity
  8
1
  6
Continuous
 62
     7
100
AcDbLine
 10
45.78173644671801
 20
251.5308192373486
 30
0.0
 11
44.20438617752845
 21
251.5308192373486
 31
0.0
  0
LINE
  5
30E
330
59
100
AcDbEntity
  8
1
  6
Continuous
 62
     7
100
AcDbLine
 10
45.07642852388412
 20
254.5308192373486
 30
0.0
 11
43.49907825469455
 21
254.5308192373486
 31
0.0
  0
LINE
  5
30F
330
59
100
AcDbEntity
  8
1
  6
Continuous
 62
     7
100
AcDbLine
 10
42.92172798550496
 20
254.5308192373486
 30
0.0
 11
41.34437771631528
 21
254.5308192373486
 31
0.0
  0
LINE
  5
310
330
59
100
AcDbEntity
  8
1
  6
Continuous
 62
     7
100
AcDbLine
 10
43.62703590833871
 20
251.5308192373486
 30
0.0
 11
42.04968563914909
 21
251.5308192373486
 31
0.0
  0
LINE
  5
311
330
59
100
AcDbEntity
  8
1
  6
Continuous
 62
     7
100
AcDbLine
 10
41.47233536995952
 20
251.5308192373486
 30
0.0
 11
39.89498510076982
 21
251.5308192373486
 31
0.0
  0
LINE
  5
312
330
59
100
AcDbEntity
  8
1
  6
Continuous
 62
     7
100
AcDbLine
 10
40.76702744712566
 20
254.5308192373486
 30
0.0
 11
39.18967717793601
 21
254.5308192373486
 31
0.0
  0
LINE
  5
313
330
59
100
AcDbEntity
  8
1
  6
Continuous
 62
     7
100
AcDbLine
 10
38.61232690874644
 20
254.5308192373486
 30
0.0
 11
37.03497663955679
 21
254.5308192373486
 31
0.0
  0
LINE
  5
314
330
59
100
AcDbEntity
  8
1
  6
Continuous
 62
     7
100
AcDbLine
 10
39.31763483158022
 20
251.5308192373486
 30
0.0
 11
37.7402845623906
 21
251.5308192373486
 31
0.0
  0
LINE
  5
315
330
59
100
AcDbEntity
  8
1
  6
Continuous
 62
     7
100
AcDbLine
 10
35.53430297651244
 20
254.2808835532321
 30
0.0
 11
36.16293429320101
 21
251.6123136678215
 31
0.0
  0
LINE
  5
316
330
59
100
AcDbEntity
  8
1
  6
Continuous
 62
     7
100
AcDbLine
 10
35.27548393140995
 20
254.7291712893161
 30
0.0
 11
35.90411524809855
 21
251.1640259317376
 31
0.0
  0
LINE
  5
317
330
59
100
AcDbEntity
  8
1
  6
Continuous
 62
     7
100
AcDbLine
 10
35.27548393140995
 20
254.7291712893161
 30
0.0
 11
35.53430297651244
 21
254.2808835532321
 31
0.0
  0
LINE
  5
318
330
59
100
AcDbEntity
  8
1
  6
Continuous
 62
     7
100
AcDbLine
 10
35.27548393140995
 20
254.7291712893161
 30
0.0
 11
34.92193054081659
 21
254.1167988536204
 31
0.0
  0
LINE
  5
319
330
59
100
AcDbEntity
  8
1
  6
Continuous
 62
     7
100
AcDbLine
 10
34.92193054081659
 20
254.1167988536204
 30
0.0
 11
35.55056185750522
 21
251.7763983674333
 31
0.0
  0
LINE
  5
31A
330
59
100
AcDbEntity
  8
1
  6
Continuous
 62
     7
100
AcDbLine
 10
36.16293429320101
 20
251.6123136678215
 30
0.0
 11
35.90411524809855
 21
251.1640259317376
 31
0.0
  0
LINE
  5
31B
330
59
100
AcDbEntity
  8
1
  6
Continuous
 62
     7
100
AcDbLine
 10
35.90411524809855
 20
251.1640259317376
 30
0.0
 11
35.55056185750522
 21
251.7763983674333
 31
0.0
  0
LINE
  5
31C
330
59
100
AcDbEntity
  8
1
  6
Continuous
 62
     7
100
AcDbLine
 10
33.80859628698306
 20
254.3361199296048
 30
0.0
 11
34.06741533208555
 21
253.8878321935205
 31
0.0
  0
LINE
  5
31D
330
59
100
AcDbEntity
  8
1
  6
Continuous
 62
     7
100
AcDbLine
 10
34.06741533208555
 20
253.8878321935205
 30
0.0
 11
34.55056185750522
 21
252.0443475598644
 31
0.0
  0
LINE
  5
31E
330
59
100
AcDbEntity
  8
1
  6
Continuous
 62
     7
100
AcDbLine
 10
34.55056185750522
 20
252.0443475598644
 30
0.0
 11
34.29174281240273
 21
251.5960598237805
 31
0.0
  0
LINE
  5
31F
330
59
100
AcDbEntity
  8
1
  6
Continuous
 62
     7
100
AcDbLine
 10
34.29174281240273
 20
251.5960598237805
 30
0.0
 11
33.93818942180945
 21
252.2084322594765
 31
0.0
  0
LINE
  5
320
330
59
100
AcDbEntity
  8
1
  6
Continuous
 62
     7
100
AcDbLine
 10
33.93818942180945
 20
252.2084322594765
 30
0.0
 11
33.4550428963897
 21
253.7237474939091
 31
0.0
  0
LINE
  5
321
330
59
100
AcDbEntity
  8
1
  6
Continuous
 62
     7
100
AcDbLine
 10
33.80859628698306
 20
254.3361199296048
 30
0.0
 11
34.29174281240273
 21
251.5960598237805
 31
0.0
  0
LINE
  5
322
330
59
100
AcDbEntity
  8
1
  6
Continuous
 62
     7
100
AcDbLine
 10
33.80859628698306
 20
254.3361199296048
 30
0.0
 11
33.4550428963897
 21
253.7237474939091
 31
0.0
  0
LINE
  5
323
330
59
100
AcDbEntity
  8
1
  6
Continuous
 62
     7
100
AcDbLine
 10
32.34170864255594
 20
253.9430685698932
 30
0.0
 11
32.60052768765866
 21
253.4947808338093
 31
0.0
  0
LINE
  5
324
330
59
100
AcDbEntity
  8
1
  6
Continuous
 62
     7
100
AcDbLine
 10
32.60052768765866
 20
253.4947808338093
 30
0.0
 11
32.93818942180931
 21
252.4763814519074
 31
0.0
  0
LINE
  5
325
330
59
100
AcDbEntity
  8
1
  6
Continuous
 62
     7
100
AcDbLine
 10
32.93818942180931
 20
252.4763814519074
 30
0.0
 11
32.67937037670691
 21
252.0280937158233
 31
0.0
  0
LINE
  5
326
330
59
100
AcDbEntity
  8
1
  6
Continuous
 62
     7
100
AcDbLine
 10
32.67937037670691
 20
252.0280937158233
 30
0.0
 11
32.32581698611364
 21
252.6404661515192
 31
0.0
  0
LINE
  5
327
330
59
100
AcDbEntity
  8
1
  6
Continuous
 62
     7
100
AcDbLine
 10
32.32581698611364
 20
252.6404661515192
 30
0.0
 11
31.98815525196295
 21
253.3306961341975
 31
0.0
  0
LINE
  5
328
330
59
100
AcDbEntity
  8
1
  6
Continuous
 62
     7
100
AcDbLine
 10
32.34170864255594
 20
253.9430685698932
 30
0.0
 11
31.98815525196295
 21
253.3306961341975
 31
0.0
  0
LINE
  5
329
330
59
100
AcDbEntity
  8
1
  6
Continuous
 62
     7
100
AcDbLine
 10
32.34170864255594
 20
253.9430685698932
 30
0.0
 11
32.67937037670691
 21
252.0280937158233
 31
0.0
  0
LINE
  5
32A
330
59
100
AcDbEntity
  8
1
  6
Continuous
 62
     7
100
AcDbLine
 10
36.45762637036717
 20
254.5308192373486
 30
0.0
 11
35.53430297651244
 21
254.2808835532321
 31
0.0
  0
LINE
  5
32B
330
59
100
AcDbEntity
  8
1
  6
Continuous
 62
     7
100
AcDbLine
 10
37.16293429320101
 20
251.5308192373486
 30
0.0
 11
36.46707564826008
 21
251.5308192373486
 31
0.0
  0
LINE
  5
32C
330
59
100
AcDbEntity
  8
1
  6
Continuous
 62
     7
100
AcDbLine
 10
36.46707564826008
 20
251.5308192373486
 30
0.0
 11
36.16293429320101
 21
251.6123136678215
 31
0.0
  0
LINE
  5
32D
330
59
100
AcDbEntity
  8
1
  6
Continuous
 62
     7
100
AcDbLine
 10
35.55056185750522
 20
251.7763983674333
 30
0.0
 11
34.55056185750522
 21
252.0443475598644
 31
0.0
  0
LINE
  5
32E
330
59
100
AcDbEntity
  8
1
  6
Continuous
 62
     7
100
AcDbLine
 10
33.93818942180945
 20
252.2084322594765
 30
0.0
 11
32.93818942180931
 21
252.4763814519074
 31
0.0
  0
LINE
  5
32F
330
59
100
AcDbEntity
  8
1
  6
Continuous
 62
     7
100
AcDbLine
 10
32.32581698611364
 20
252.6404661515192
 30
0.0
 11
30.86899943690673
 21
253.0308192373486
 31
0.0
  0
LINE
  5
330
330
59
100
AcDbEntity
  8
1
  6
Continuous
 62
     7
100
AcDbLine
 10
31.98815525196295
 20
253.3306961341975
 30
0.0
 11
30.86899943690673
 21
253.0308192373486
 31
0.0
  0
LINE
  5
331
330
59
100
AcDbEntity
  8
1
  6
Continuous
 62
     7
100
AcDbLine
 10
33.4550428963897
 20
253.7237474939091
 30
0.0
 11
32.60052768765866
 21
253.4947808338093
 31
0.0
  0
LINE
  5
332
330
59
100
AcDbEntity
  8
1
  6
Continuous
 62
     7
100
AcDbLine
 10
34.92193054081659
 20
254.1167988536204
 30
0.0
 11
34.06741533208555
 21
253.8878321935205
 31
0.0
  0
ENDBLK
  5
5B
330
59
100
AcDbEntity
  8
0
100
AcDbBlockEnd
  0
BLOCK
  5
5D
330
5C
100
AcDbEntity
  8
0
100
AcDbBlockBegin
  2
H86F-A
 70
     0
 10
88.36022329728512
 20
181.7322491767048
 30
0.0
  3
H86F-A
  1

  0
LINE
  5
333
330
5C
100
AcDbEntity
  8
1
  6
Continuous
 62
     7
100
AcDbLine
 10
55.11892443690638
 20
186.5087823241154
 30
0.0
 11
55.11892443690633
 21
190.0086948241154
 31
0.0
  0
LINE
  5
334
330
5C
100
AcDbEntity
  8
1
  6
Continuous
 62
     7
100
AcDbLine
 10
52.11899943690634
 20
200.2584385741154
 30
0.0
 11
52.11899943690634
 21
195.4782490246157
 31
0.0
  0
LINE
  5
335
330
5C
100
AcDbEntity
  8
1
  6
Continuous
 62
     7
100
AcDbLine
 10
55.11892443690633
 20
199.2584635741154
 30
0.0
 11
55.11892443690633
 21
197.5085073241154
 31
0.0
  0
LINE
  5
336
330
5C
100
AcDbEntity
  8
1
  6
Continuous
 62
     7
100
AcDbLine
 10
52.11899943690639
 20
178.7589760741154
 30
0.0
 11
52.11899943690634
 21
192.2586385741154
 31
0.0
  0
LINE
  5
337
330
5C
100
AcDbEntity
  8
1
  6
Continuous
 62
     7
100
AcDbLine
 10
52.11899943690634
 20
200.2584385741154
 30
0.0
 11
54.11894943690635
 21
200.2584385741154
 31
0.0
  0
LINE
  5
338
330
5C
100
AcDbEntity
  8
1
  6
Continuous
 62
     7
100
AcDbLine
 10
61.11904943690641
 20
184.5088323241154
 30
0.0
 11
57.1188744369064
 21
184.5088323241154
 31
0.0
  0
LINE
  5
339
330
5C
100
AcDbEntity
  8
1
  6
Continuous
 62
     7
100
AcDbLine
 10
63.11899943690642
 20
181.4099460953161
 30
0.0
 11
63.11899943690642
 21
182.5088823241154
 31
0.0
  0
LINE
  5
33A
330
5C
100
AcDbEntity
  8
1
  6
Continuous
 62
     7
100
AcDbLine
 10
55.11892443690633
 20
167.5092573241153
 30
0.0
 11
55.11892443690638
 21
171.0091698241154
 31
0.0
  0
LINE
  5
33B
330
5C
100
AcDbEntity
  8
1
  6
Continuous
 62
     7
100
AcDbLine
 10
52.11899943690634
 20
165.2593135741154
 30
0.0
 11
52.11899943690639
 21
178.7589760741154
 31
0.0
  0
LINE
  5
33C
330
5C
100
AcDbEntity
  8
1
  6
Continuous
 62
     7
100
AcDbLine
 10
57.1188744369064
 20
173.0091198241154
 30
0.0
 11
61.11904943690641
 21
173.0091198241154
 31
0.0
  0
LINE
  5
33D
330
5C
100
AcDbEntity
  8
1
  6
Continuous
 62
     7
100
AcDbLine
 10
63.11899943690642
 20
175.0090698241153
 30
0.0
 11
63.11899943690642
 21
181.4099460953161
 31
0.0
  0
LINE
  5
33E
330
5C
100
AcDbEntity
  8
1
  6
Continuous
 62
     7
100
AcDbLine
 10
52.11899943690634
 20
165.2593135741154
 30
0.0
 11
52.11899943690634
 21
162.039703123615
 31
0.0
  0
LINE
  5
33F
330
5C
100
AcDbEntity
  8
1
  6
Continuous
 62
     7
100
AcDbLine
 10
55.11892443690638
 20
186.5087823241154
 30
0.0
 11
55.11892443690638
 21
171.0091698241154
 31
0.0
  0
LINE
  5
340
330
5C
100
AcDbEntity
  8
1
  6
Continuous
 62
     7
100
AcDbLine
 10
52.11899943690634
 20
192.2586385741154
 30
0.0
 11
52.11899943690634
 21
195.4782490246157
 31
0.0
  0
LINE
  5
341
330
5C
100
AcDbEntity
  8
1
  6
Continuous
 62
     7
100
AcDbLine
 10
55.11892443690633
 20
197.5085073241154
 30
0.0
 11
55.11892443690633
 21
190.0086948241154
 31
0.0
  0
LINE
  5
342
330
5C
100
AcDbEntity
  8
1
  6
Continuous
 62
     7
100
AcDbLine
 10
55.11892443690633
 20
271.7803504873486
 30
0.0
 11
55.11892443690633
 21
264.2805379873487
 31
0.0
  0
LINE
  5
343
330
5C
100
AcDbEntity
  8
1
  6
Continuous
 62
     7
100
AcDbLine
 10
52.11899943690634
 20
266.5304817373486
 30
0.0
 11
52.11899943690634
 21
269.7500921878489
 31
0.0
  0
LINE
  5
344
330
5C
100
AcDbEntity
  8
1
  6
Continuous
 62
     7
100
AcDbLine
 10
55.11892443690638
 20
260.7806254873485
 30
0.0
 11
55.11892443690638
 21
245.2810129873487
 31
0.0
  0
LINE
  5
345
330
5C
100
AcDbEntity
  8
1
  6
Continuous
 62
     7
100
AcDbLine
 10
55.11892443690633
 20
241.7811004873486
 30
0.0
 11
55.11892443690633
 21
234.2812879873486
 31
0.0
  0
LINE
  5
346
330
5C
100
AcDbEntity
  8
1
  6
Continuous
 62
     7
100
AcDbLine
 10
52.11899943690634
 20
239.5311567373486
 30
0.0
 11
52.11899943690634
 21
236.3115462868483
 31
0.0
  0
LINE
  5
347
330
5C
100
AcDbEntity
  8
1
  6
Continuous
 62
     7
100
AcDbLine
 10
63.11899943690642
 20
249.2809129873485
 30
0.0
 11
63.11899943690642
 21
255.6817892585493
 31
0.0
  0
LINE
  5
348
330
5C
100
AcDbEntity
  8
1
  6
Continuous
 62
     7
100
AcDbLine
 10
57.1188744369064
 20
247.2809629873486
 30
0.0
 11
61.11904943690641
 21
247.2809629873486
 31
0.0
  0
LINE
  5
349
330
5C
100
AcDbEntity
  8
1
  6
Continuous
 62
     7
100
AcDbLine
 10
54.11894943690635
 20
231.5313567373487
 30
0.0
 11
52.11899943690634
 21
231.5313567373487
 31
0.0
  0
LINE
  5
34A
330
5C
100
AcDbEntity
  8
1
  6
Continuous
 62
     7
100
AcDbLine
 10
52.11899943690634
 20
239.5311567373486
 30
0.0
 11
52.11899943690639
 21
253.0308192373485
 31
0.0
  0
LINE
  5
34B
330
5C
100
AcDbEntity
  8
1
  6
Continuous
 62
     7
100
AcDbLine
 10
55.11892443690633
 20
234.2812879873486
 30
0.0
 11
55.11892443690633
 21
232.5313317373486
 31
0.0
  0
LINE
  5
34C
330
5C
100
AcDbEntity
  8
1
  6
Continuous
 62
     7
100
AcDbLine
 10
52.11899943690634
 20
236.3115462868483
 30
0.0
 11
52.11899943690634
 21
231.5313567373487
 31
0.0
  0
LINE
  5
34D
330
5C
100
AcDbEntity
  8
1
  6
Continuous
 62
     7
100
AcDbLine
 10
55.11892443690633
 20
241.7811004873486
 30
0.0
 11
55.11892443690638
 21
245.2810129873487
 31
0.0
  0
LINE
  5
34E
330
5C
100
AcDbEntity
  8
1
  6
Continuous
 62
     7
100
AcDbLine
 10
63.11899943690642
 20
255.6817892585493
 30
0.0
 11
63.11899943690642
 21
256.7807254873486
 31
0.0
  0
LINE
  5
34F
330
5C
100
AcDbEntity
  8
1
  6
Continuous
 62
     7
100
AcDbLine
 10
61.11904943690641
 20
258.7806754873486
 30
0.0
 11
57.1188744369064
 21
258.7806754873486
 31
0.0
  0
LINE
  5
350
330
5C
100
AcDbEntity
  8
1
  6
Continuous
 62
     7
100
AcDbLine
 10
52.11899943690634
 20
274.5302817373486
 30
0.0
 11
54.11894943690635
 21
274.5302817373486
 31
0.0
  0
LINE
  5
351
330
5C
100
AcDbEntity
  8
1
  6
Continuous
 62
     7
100
AcDbLine
 10
52.11899943690639
 20
253.0308192373485
 30
0.0
 11
52.11899943690634
 21
266.5304817373486
 31
0.0
  0
LINE
  5
352
330
5C
100
AcDbEntity
  8
1
  6
Continuous
 62
     7
100
AcDbLine
 10
55.11892443690633
 20
273.5303067373486
 30
0.0
 11
55.11892443690633
 21
271.7803504873486
 31
0.0
  0
LINE
  5
353
330
5C
100
AcDbEntity
  8
1
  6
Continuous
 62
     7
100
AcDbLine
 10
52.11899943690634
 20
274.5302817373486
 30
0.0
 11
52.11899943690634
 21
269.7500921878489
 31
0.0
  0
LINE
  5
354
330
5C
100
AcDbEntity
  8
1
  6
Continuous
 62
     7
100
AcDbLine
 10
55.11892443690638
 20
260.7806254873485
 30
0.0
 11
55.11892443690633
 21
264.2805379873487
 31
0.0
  0
LINE
  5
355
330
5C
100
AcDbEntity
  8
1
  6
Continuous
 62
     7
100
AcDbLine
 10
55.11892443690633
 20
160.0094448241154
 30
0.0
 11
55.11892443690633
 21
158.2594885741154
 31
0.0
  0
LINE
  5
356
330
5C
100
AcDbEntity
  8
1
  6
Continuous
 62
     7
100
AcDbLine
 10
54.11894943690635
 20
157.2595135741154
 30
0.0
 11
52.11899943690634
 21
157.2595135741154
 31
0.0
  0
LINE
  5
357
330
5C
100
AcDbEntity
  8
1
  6
Continuous
 62
     7
100
AcDbLine
 10
52.11899943690634
 20
162.039703123615
 30
0.0
 11
52.11899943690634
 21
157.2595135741154
 31
0.0
  0
LINE
  5
358
330
5C
100
AcDbEntity
  8
1
  6
Continuous
 62
     7
100
AcDbLine
 10
55.11892443690633
 20
167.5092573241153
 30
0.0
 11
55.11892443690633
 21
160.0094448241154
 31
0.0
  0
ARC
  5
359
330
5C
100
AcDbEntity
  8
1
  6
Continuous
 62
     7
100
AcDbCircle
 10
93.101984657664
 20
92.5
 30
0.0
 40
21.49946249999986
100
AcDbArc
 50
119.2344229468271
 51
189.5468798082658
  0
ARC
  5
35A
330
5C
100
AcDbEntity
  8
1
  6
Continuous
 62
     7
100
AcDbCircle
 10
93.101984657664
 20
92.5
 30
0.0
 40
21.4994624999999
100
AcDbArc
 50
43.64302045452133
 51
60.76555831193991
  0
ARC
  5
35B
330
5C
100
AcDbEntity
  8
1
  6
Continuous
 62
     7
100
AcDbCircle
 10
93.101984657664
 20
92.5
 30
0.0
 40
21.4994624999999
100
AcDbArc
 50
350.4531201917342
 51
0.0
  0
ARC
  5
35C
330
5C
100
AcDbEntity
  8
1
  6
Continuous
 62
     7
100
AcDbCircle
 10
93.101984657664
 20
92.5
 30
0.0
 40
21.49946249999989
100
AcDbArc
 50
0.0
 51
43.64302045452133
  0
ARC
  5
35D
330
5C
100
AcDbEntity
  8
1
  6
Continuous
 62
     7
100
AcDbCircle
 10
54.11894943690635
 20
199.2584635741154
 30
0.0
 40
0.999974999999985
100
AcDbArc
 50
0.0
 51
90.0
  0
ARC
  5
35E
330
5C
100
AcDbEntity
  8
1
  6
Continuous
 62
     7
100
AcDbCircle
 10
61.11904943690641
 20
182.5088823241154
 30
0.0
 40
1.999950000000013
100
AcDbArc
 50
0.0
 51
90.0
  0
ARC
  5
35F
330
5C
100
AcDbEntity
  8
1
  6
Continuous
 62
     7
100
AcDbCircle
 10
57.1188744369064
 20
186.5087823241154
 30
0.0
 40
1.99995000000002
100
AcDbArc
 50
180.0
 51
270.0
  0
ARC
  5
360
330
5C
100
AcDbEntity
  8
1
  6
Continuous
 62
     7
100
AcDbCircle
 10
61.11904943690641
 20
175.0090698241153
 30
0.0
 40
1.999949999999899
100
AcDbArc
 50
270.0
 51
0.0
  0
ARC
  5
361
330
5C
100
AcDbEntity
  8
1
  6
Continuous
 62
     7
100
AcDbCircle
 10
57.1188744369064
 20
171.0091698241154
 30
0.0
 40
1.999950000000013
100
AcDbArc
 50
90.0
 51
180.0
  0
ARC
  5
362
330
5C
100
AcDbEntity
  8
1
  6
Continuous
 62
     7
100
AcDbCircle
 10
57.1188744369064
 20
245.2810129873487
 30
0.0
 40
1.999949999999899
100
AcDbArc
 50
90.0
 51
180.0
  0
ARC
  5
363
330
5C
100
AcDbEntity
  8
1
  6
Continuous
 62
     7
100
AcDbCircle
 10
61.11904943690641
 20
249.2809129873485
 30
0.0
 40
1.999949999999899
100
AcDbArc
 50
270.0
 51
0.0
  0
ARC
  5
364
330
5C
100
AcDbEntity
  8
1
  6
Continuous
 62
     7
100
AcDbCircle
 10
54.11894943690635
 20
232.5313317373486
 30
0.0
 40
0.999974999999921
100
AcDbArc
 50
270.0
 51
0.0
  0
ARC
  5
365
330
5C
100
AcDbEntity
  8
1
  6
Continuous
 62
     7
100
AcDbCircle
 10
57.1188744369064
 20
260.7806254873485
 30
0.0
 40
1.99995000000002
100
AcDbArc
 50
180.0
 51
270.0
  0
ARC
  5
366
330
5C
100
AcDbEntity
  8
1
  6
Continuous
 62
     7
100
AcDbCircle
 10
61.11904943690641
 20
256.7807254873486
 30
0.0
 40
1.999950000000013
100
AcDbArc
 50
0.0
 51
90.0
  0
ARC
  5
367
330
5C
100
AcDbEntity
  8
1
  6
Continuous
 62
     7
100
AcDbCircle
 10
54.11894943690635
 20
273.5303067373486
 30
0.0
 40
0.999974999999985
100
AcDbArc
 50
0.0
 51
90.0
  0
ARC
  5
368
330
5C
100
AcDbEntity
  8
1
  6
Continuous
 62
     7
100
AcDbCircle
 10
54.11894943690635
 20
158.2594885741154
 30
0.0
 40
0.9999750000000063
100
AcDbArc
 50
270.0
 51
0.0
  0
ENDBLK
  5
5E
330
5C
100
AcDbEntity
  8
0
100
AcDbBlockEnd
  0
BLOCK
  5
60
330
5F
100
AcDbEntity
  8
0
100
AcDbBlockBegin
  2
72-207__3
 70
     0
 10
66.88099943690605
 20
173.0432084091376
 30
0.0
  3
72-207__3
  1

  0
LINE
  5
369
330
5F
100
AcDbEntity
  8
1
  6
Continuous
 62
     7
100
AcDbLine
 10
67.61900068690633
 20
181.6168527618947
 30
0.0
 11
63.11901193690665
 21
181.6168527618947
 31
0.0
  0
LINE
  5
36A
330
5F
100
AcDbEntity
  8
1
  6
Continuous
 62
     7
100
AcDbLine
 10
68.11899943690634
 20
178.7589760741155
 30
0.0
 11
68.11899943690634
 21
183.5089641991155
 31
0.0
  0
LINE
  5
36B
330
5F
100
AcDbEntity
  8
1
  6
Continuous
 62
     7
100
AcDbLine
 10
68.11899943690634
 20
183.5089641991155
 30
0.0
 11
67.61900068690633
 21
184.4747294496737
 31
0.0
  0
LINE
  5
36C
330
5F
100
AcDbEntity
  8
1
  6
Continuous
 62
     7
100
AcDbLine
 10
67.61900068690633
 20
184.4747294496737
 30
0.0
 11
63.11901193690665
 21
184.4747294496737
 31
0.0
  0
LINE
  5
36D
330
5F
100
AcDbEntity
  8
1
  6
Continuous
 62
     7
100
AcDbLine
 10
63.11901193690665
 20
175.9010993863365
 30
0.0
 11
67.61900068690633
 21
175.9010993863365
 31
0.0
  0
LINE
  5
36E
330
5F
100
AcDbEntity
  8
1
  6
Continuous
 62
     7
100
AcDbLine
 10
68.11899943690634
 20
174.0089879491155
 30
0.0
 11
68.11899943690634
 21
178.7589760741155
 31
0.0
  0
LINE
  5
36F
330
5F
100
AcDbEntity
  8
1
  6
Continuous
 62
     7
100
AcDbLine
 10
67.61900068690665
 20
173.0432226985575
 30
0.0
 11
68.11899943690634
 21
174.0089879491155
 31
0.0
  0
LINE
  5
370
330
5F
100
AcDbEntity
  8
1
  6
Continuous
 62
     7
100
AcDbLine
 10
63.11901193690633
 20
173.0432226985575
 30
0.0
 11
67.61900068690665
 21
173.0432226985575
 31
0.0
  0
LINE
  5
371
330
5F
100
AcDbEntity
  8
1
  6
Continuous
 62
     7
100
AcDbLine
 10
63.11901193690665
 20
184.4747294496737
 30
0.0
 11
63.11901193690633
 21
173.0432226985575
 31
0.0
  0
LINE
  5
372
330
5F
100
AcDbEntity
  8
1
  6
Continuous
 62
     7
100
AcDbLine
 10
68.0156891355733
 20
248.0816077881002
 30
0.0
 11
68.11888693690636
 21
248.2809379873485
 31
0.0
  0
LINE
  5
373
330
5F
100
AcDbEntity
  8
1
  6
Continuous
 62
     7
100
AcDbLine
 10
68.11888693690636
 20
248.2809379873485
 30
0.0
 11
68.1188869369065
 21
253.0308192373484
 31
0.0
  0
LINE
  5
374
330
5F
100
AcDbEntity
  8
1
  6
Continuous
 62
     7
100
AcDbLine
 10
68.1188869369065
 20
253.0308192373484
 30
0.0
 11
68.11888693690636
 21
257.7807004873484
 31
0.0
  0
LINE
  5
375
330
5F
100
AcDbEntity
  8
1
  6
Continuous
 62
     7
100
AcDbLine
 10
68.11888693690636
 20
257.7807004873484
 30
0.0
 11
68.0156891355733
 21
257.9800306865973
 31
0.0
  0
LINE
  5
376
330
5F
100
AcDbEntity
  8
1
  6
Continuous
 62
     7
100
AcDbLine
 10
63.11901193690665
 20
257.9800306865973
 30
0.0
 11
68.0156891355733
 21
257.9800306865973
 31
0.0
  0
LINE
  5
377
330
5F
100
AcDbEntity
  8
1
  6
Continuous
 62
     7
100
AcDbLine
 10
68.0156891355733
 20
248.0816077881002
 30
0.0
 11
63.11901193690665
 21
248.0816077881002
 31
0.0
  0
LINE
  5
378
330
5F
100
AcDbEntity
  8
1
  6
Continuous
 62
     7
100
AcDbLine
 10
63.11901193690665
 20
253.0308192373484
 30
0.0
 11
67.61889943690636
 21
253.0308192373484
 31
0.0
  0
LINE
  5
379
330
5F
100
AcDbEntity
  8
1
  6
Continuous
 62
     7
100
AcDbLine
 10
63.11901193690665
 20
257.9800306865973
 30
0.0
 11
63.11901193690665
 21
248.0816077881002
 31
0.0
  0
ARC
  5
37A
330
5F
100
AcDbEntity
  8
1
  6
Continuous
 62
     7
100
AcDbCircle
 10
54.15653434315655
 20
178.7589760741155
 30
0.0
 40
13.76246559374979
100
AcDbArc
 50
0.0
 51
11.98510029238524
  0
ARC
  5
37B
330
5F
100
AcDbEntity
  8
1
  6
Continuous
 62
     7
100
AcDbCircle
 10
64.36588381971919
 20
183.0457911057842
 30
0.0
 40
3.553116117187156
100
AcDbArc
 50
336.2864175266646
 51
23.71358247333578
  0
ARC
  5
37C
330
5F
100
AcDbEntity
  8
1
  6
Continuous
 62
     7
100
AcDbCircle
 10
54.15653434315655
 20
178.7589760741155
 30
0.0
 40
13.76246559374977
100
AcDbArc
 50
348.0148997076155
 51
0.0
  0
ARC
  5
37D
330
5F
100
AcDbEntity
  8
1
  6
Continuous
 62
     7
100
AcDbCircle
 10
64.36588381971919
 20
174.4721610424469
 30
0.0
 40
3.553116117187408
100
AcDbArc
 50
336.2864175266679
 51
23.71358247333703
  0
ARC
  5
37E
330
5F
100
AcDbEntity
  8
1
  6
Continuous
 62
     7
100
AcDbCircle
 10
57.56251804022625
 20
250.5562135127243
 30
0.0
 40
10.35637389668037
100
AcDbArc
 50
346.1757070278566
 51
13.8242929721438
  0
ARC
  5
37F
330
5F
100
AcDbEntity
  8
1
  6
Continuous
 62
     7
100
AcDbCircle
 10
57.56251804022656
 20
255.5054249619728
 30
0.0
 40
10.35637389667984
100
AcDbArc
 50
346.1757070278541
 51
13.82429297214619
  0
ENDBLK
  5
61
330
5F
100
AcDbEntity
  8
0
100
AcDbBlockEnd
  0
BLOCK
  5
63
330
62
100
AcDbEntity
  8
0
100
AcDbBlockBegin
  2
72-207__4
 70
     0
 10
117.957912305964
 20
273.4058909552157
 30
0.0
  3
72-207__4
  1

  0
LINE
  5
380
330
62
100
AcDbEntity
  8
1
  6
Continuous
 62
     7
100
AcDbLine
 10
95.80599943690618
 20
173.0432369879763
 30
0.0
 11
100.3059881869065
 21
173.0432369879763
 31
0.0
  0
LINE
  5
381
330
62
100
AcDbEntity
  8
1
  6
Continuous
 62
     7
100
AcDbLine
 10
95.30600068690649
 20
174.0090022385343
 30
0.0
 11
95.80599943690618
 21
173.0432369879763
 31
0.0
  0
LINE
  5
382
330
62
100
AcDbEntity
  8
1
  6
Continuous
 62
     7
100
AcDbLine
 10
95.30600068690649
 20
178.7589903635344
 30
0.0
 11
95.30600068690649
 21
174.0090022385343
 31
0.0
  0
LINE
  5
383
330
62
100
AcDbEntity
  8
1
  6
Continuous
 62
     7
100
AcDbLine
 10
95.80599943690618
 20
175.9011136757555
 30
0.0
 11
100.3059881869065
 21
175.9011136757555
 31
0.0
  0
LINE
  5
384
330
62
100
AcDbEntity
  8
1
  6
Continuous
 62
     7
100
AcDbLine
 10
100.3059881869062
 20
184.4747437390925
 30
0.0
 11
95.80599943690649
 21
184.4747437390925
 31
0.0
  0
LINE
  5
385
330
62
100
AcDbEntity
  8
1
  6
Continuous
 62
     7
100
AcDbLine
 10
95.80599943690649
 20
184.4747437390925
 30
0.0
 11
95.30600068690649
 21
183.5089784885344
 31
0.0
  0
LINE
  5
386
330
62
100
AcDbEntity
  8
1
  6
Continuous
 62
     7
100
AcDbLine
 10
95.30600068690649
 20
183.5089784885344
 30
0.0
 11
95.30600068690649
 21
178.7589903635344
 31
0.0
  0
LINE
  5
387
330
62
100
AcDbEntity
  8
1
  6
Continuous
 62
     7
100
AcDbLine
 10
100.3059881869062
 20
181.6168670513135
 30
0.0
 11
95.80599943690618
 21
181.6168670513135
 31
0.0
  0
LINE
  5
388
330
62
100
AcDbEntity
  8
1
  6
Continuous
 62
     7
100
AcDbLine
 10
95.96444966211376
 20
253.0308192373484
 30
0.0
 11
100.4643371621141
 21
253.0308192373484
 31
0.0
  0
LINE
  5
389
330
62
100
AcDbEntity
  8
1
  6
Continuous
 62
     7
100
AcDbLine
 10
100.4643371621141
 20
248.0816077881001
 30
0.0
 11
95.56765996344687
 21
248.0816077881001
 31
0.0
  0
LINE
  5
38A
330
62
100
AcDbEntity
  8
1
  6
Continuous
 62
     7
100
AcDbLine
 10
95.56765996344718
 20
257.9800306865971
 30
0.0
 11
100.4643371621138
 21
257.9800306865971
 31
0.0
  0
LINE
  5
38B
330
62
100
AcDbEntity
  8
1
  6
Continuous
 62
     7
100
AcDbLine
 10
95.46446216211409
 20
257.7807004873484
 30
0.0
 11
95.46446216211409
 21
253.0308192373484
 31
0.0
  0
LINE
  5
38C
330
62
100
AcDbEntity
  8
1
  6
Continuous
 62
     7
100
AcDbLine
 10
95.46446216211409
 20
253.0308192373484
 30
0.0
 11
95.46446216211409
 21
248.2809379873485
 31
0.0
  0
LINE
  5
38D
330
62
100
AcDbEntity
  8
1
  6
Continuous
 62
     7
100
AcDbLine
 10
95.46446216211409
 20
248.2809379873485
 30
0.0
 11
95.56765996344687
 21
248.0816077881001
 31
0.0
  0
LINE
  5
38E
330
62
100
AcDbEntity
  8
1
  6
Continuous
 62
     7
100
AcDbLine
 10
95.46446216211409
 20
257.7807004873484
 30
0.0
 11
95.56765996344718
 21
257.9800306865971
 31
0.0
  0
ARC
  5
38F
330
62
100
AcDbEntity
  8
1
  6
Continuous
 62
     7
100
AcDbCircle
 10
99.05911630409366
 20
174.4721753318658
 30
0.0
 40
3.553116117187559
100
AcDbArc
 50
156.2864175266635
 51
203.7135824733336
  0
ARC
  5
390
330
62
100
AcDbEntity
  8
1
  6
Continuous
 62
     7
100
AcDbCircle
 10
109.2684657806563
 20
178.7589903635344
 30
0.0
 40
13.76246559375014
100
AcDbArc
 50
180.0
 51
191.9851002923837
  0
ARC
  5
391
330
62
100
AcDbEntity
  8
1
  6
Continuous
 62
     7
100
AcDbCircle
 10
99.05911630409398
 20
183.0458053952031
 30
0.0
 40
3.553116117187434
100
AcDbArc
 50
156.2864175266681
 51
203.7135824733328
  0
ARC
  5
392
330
62
100
AcDbEntity
  8
1
  6
Continuous
 62
     7
100
AcDbCircle
 10
109.2684657806563
 20
178.7589903635344
 30
0.0
 40
13.76246559375013
100
AcDbArc
 50
168.0148997076154
 51
180.0
  0
ARC
  5
393
330
62
100
AcDbEntity
  8
1
  6
Continuous
 62
     7
100
AcDbCircle
 10
106.0208310587939
 20
255.5054249619728
 30
0.0
 40
10.35637389668014
100
AcDbArc
 50
166.1757070278552
 51
193.8242929721455
  0
ARC
  5
394
330
62
100
AcDbEntity
  8
1
  6
Continuous
 62
     7
100
AcDbCircle
 10
106.0208310587942
 20
250.5562135127243
 30
0.0
 40
10.35637389668038
100
AcDbArc
 50
166.1757070278566
 51
193.824292972144
  0
ENDBLK
  5
64
330
62
100
AcDbEntity
  8
0
100
AcDbBlockEnd
  0
BLOCK
  5
66
330
65
100
AcDbEntity
  8
0
100
AcDbBlockBegin
  2
72-206
 70
     0
 10
91.8111885737398
 20
178.7589760741149
 30
0.0
  3
72-206
  1

  0
LINE
  5
395
330
65
100
AcDbEntity
  8
1
  6
PHANTOM
 62
     4
100
AcDbLine
 10
58.11899943690671
 20
181.308976074115
 30
0.0
 11
58.11899943690639
 21
178.7589760741149
 31
0.0
  0
LINE
  5
396
330
65
100
AcDbEntity
  8
1
  6
PHANTOM
 62
     4
100
AcDbLine
 10
106.1189994369064
 20
181.308976074115
 30
0.0
 11
95.30600068690649
 21
181.308976074115
 31
0.0
  0
LINE
  5
397
330
65
100
AcDbEntity
  8
1
  6
PHANTOM
 62
     4
100
AcDbLine
 10
58.11899943690671
 20
181.308976074115
 30
0.0
 11
58.93199943690638
 21
182.1219760741149
 31
0.0
  0
LINE
  5
398
330
65
100
AcDbEntity
  8
1
  6
PHANTOM
 62
     4
100
AcDbLine
 10
58.93199943690638
 20
182.1219760741149
 30
0.0
 11
58.93199943690669
 21
178.7589760741149
 31
0.0
  0
LINE
  5
399
330
65
100
AcDbEntity
  8
1
  6
PHANTOM
 62
     4
100
AcDbLine
 10
106.1189994369064
 20
181.308976074115
 30
0.0
 11
106.1189994369064
 21
178.7589760741149
 31
0.0
  0
LINE
  5
39A
330
65
100
AcDbEntity
  8
1
  6
PHANTOM
 62
     4
100
AcDbLine
 10
105.3059994369066
 20
178.7589760741149
 30
0.0
 11
105.3059994369066
 21
182.1219760741148
 31
0.0
  0
LINE
  5
39B
330
65
100
AcDbEntity
  8
1
  6
PHANTOM
 62
     4
100
AcDbLine
 10
105.3059994369066
 20
182.1219760741148
 30
0.0
 11
106.1189994369064
 21
181.308976074115
 31
0.0
  0
LINE
  5
39C
330
65
100
AcDbEntity
  8
1
  6
PHANTOM
 62
     4
100
AcDbLine
 10
58.11899943690639
 20
178.7589760741149
 30
0.0
 11
58.11899943690671
 21
176.208976074115
 31
0.0
  0
LINE
  5
39D
330
65
100
AcDbEntity
  8
1
  6
PHANTOM
 62
     4
100
AcDbLine
 10
58.11899943690671
 20
176.208976074115
 30
0.0
 11
68.11899943690665
 21
176.208976074115
 31
0.0
  0
LINE
  5
39E
330
65
100
AcDbEntity
  8
1
  6
PHANTOM
 62
     4
100
AcDbLine
 10
58.93199943690669
 20
175.3959760741149
 30
0.0
 11
68.11899943690665
 21
175.3959760741149
 31
0.0
  0
LINE
  5
39F
330
65
100
AcDbEntity
  8
1
  6
PHANTOM
 62
     4
100
AcDbLine
 10
58.93199943690669
 20
175.3959760741149
 30
0.0
 11
58.11899943690671
 21
176.208976074115
 31
0.0
  0
LINE
  5
3A0
330
65
100
AcDbEntity
  8
1
  6
PHANTOM
 62
     4
100
AcDbLine
 10
58.93199943690669
 20
178.7589760741149
 30
0.0
 11
58.93199943690669
 21
175.3959760741149
 31
0.0
  0
LINE
  5
3A1
330
65
100
AcDbEntity
  8
1
  6
PHANTOM
 62
     4
100
AcDbLine
 10
106.1189994369064
 20
178.7589760741149
 30
0.0
 11
106.1189994369067
 21
176.208976074115
 31
0.0
  0
LINE
  5
3A2
330
65
100
AcDbEntity
  8
1
  6
PHANTOM
 62
     4
100
AcDbLine
 10
105.3059994369066
 20
175.3959760741149
 30
0.0
 11
105.3059994369066
 21
178.7589760741149
 31
0.0
  0
LINE
  5
3A3
330
65
100
AcDbEntity
  8
1
  6
PHANTOM
 62
     4
100
AcDbLine
 10
106.1189994369067
 20
176.208976074115
 30
0.0
 11
105.3059994369066
 21
175.3959760741149
 31
0.0
  0
LINE
  5
3A4
330
65
100
AcDbEntity
  8
1
  6
PHANTOM
 62
     4
100
AcDbLine
 10
105.3059994369066
 20
182.1219760741148
 30
0.0
 11
95.30600068690649
 21
182.1219760741148
 31
0.0
  0
LINE
  5
3A5
330
65
100
AcDbEntity
  8
1
  6
Continuous
 62
     7
100
AcDbLine
 10
68.11899943690665
 20
249.6678192373486
 30
0.0
 11
95.30601193690646
 21
249.6678192373486
 31
0.0
  0
LINE
  5
3A6
330
65
100
AcDbEntity
  8
1
  6
Continuous
 62
     2
100
AcDbLine
 10
68.11899943690665
 20
250.4808192373487
 30
0.0
 11
95.30601193690646
 21
250.4808192373487
 31
0.0
  0
LINE
  5
3A7
330
65
100
AcDbEntity
  8
1
  6
Continuous
 62
     2
100
AcDbLine
 10
95.30601193690646
 20
255.5808192373488
 30
0.0
 11
68.11899943690665
 21
255.5808192373488
 31
0.0
  0
LINE
  5
3A8
330
65
100
AcDbEntity
  8
1
  6
Continuous
 62
     7
100
AcDbLine
 10
95.30601193690615
 20
256.3938192373487
 30
0.0
 11
68.11899943690634
 21
256.3938192373487
 31
0.0
  0
LINE
  5
3A9
330
65
100
AcDbEntity
  8
1
  6
Continuous
 62
     7
100
AcDbLine
 10
95.30600068690649
 20
182.1219760741148
 30
0.0
 11
68.11899943690665
 21
182.1219760741149
 31
0.0
  0
LINE
  5
3AA
330
65
100
AcDbEntity
  8
1
  6
Continuous
 62
     2
100
AcDbLine
 10
95.30600068690649
 20
181.308976074115
 30
0.0
 11
68.11899943690665
 21
181.308976074115
 31
0.0
  0
LINE
  5
3AB
330
65
100
AcDbEntity
  8
1
  6
PHANTOM
 62
     4
100
AcDbLine
 10
95.30600068690617
 20
176.208976074115
 30
0.0
 11
106.1189994369067
 21
176.208976074115
 31
0.0
  0
LINE
  5
3AC
330
65
100
AcDbEntity
  8
1
  6
PHANTOM
 62
     4
100
AcDbLine
 10
95.30600068690649
 20
175.3959760741149
 30
0.0
 11
105.3059994369066
 21
175.3959760741149
 31
0.0
  0
LINE
  5
3AD
330
65
100
AcDbEntity
  8
1
  6
PHANTOM
 62
     4
100
AcDbLine
 10
68.11899943690665
 20
182.1219760741149
 30
0.0
 11
58.93199943690638
 21
182.1219760741149
 31
0.0
  0
LINE
  5
3AE
330
65
100
AcDbEntity
  8
1
  6
PHANTOM
 62
     4
100
AcDbLine
 10
68.11899943690665
 20
181.308976074115
 30
0.0
 11
58.11899943690671
 21
181.308976074115
 31
0.0
  0
LINE
  5
3AF
330
65
100
AcDbEntity
  8
1
  6
Continuous
 62
     2
100
AcDbLine
 10
68.11899943690665
 20
176.208976074115
 30
0.0
 11
95.30600068690617
 21
176.208976074115
 31
0.0
  0
LINE
  5
3B0
330
65
100
AcDbEntity
  8
1
  6
Continuous
 62
     7
100
AcDbLine
 10
68.11899943690665
 20
175.3959760741149
 30
0.0
 11
95.30600068690649
 21
175.3959760741149
 31
0.0
  0
ENDBLK
  5
67
330
65
100
AcDbEntity
  8
0
100
AcDbBlockEnd
  0
BLOCK
  5
69
330
68
100
AcDbEntity
  8
0
100
AcDbBlockBegin
  2
37-1-13
 70
     0
 10
119.8920403300561
 20
-14.60953667132827
 30
0.0
  3
37-1-13
  1

  0
LINE
  5
3B1
330
68
100
AcDbEntity
  8
1
  6
Continuous
 62
     7
100
AcDbLine
 10
154.3046722975773
 20
266.0307867373484
 30
0.0
 11
147.2339757600915
 21
266.0307867373484
 31
0.0
  0
LINE
  5
3B2
330
68
100
AcDbEntity
  8
1
  6
Continuous
 62
     7
100
AcDbLine
 10
154.3046722975773
 20
266.0307867373484
 30
0.0
 11
147.2339757600915
 21
266.0307867373484
 31
0.0
  0
LINE
  5
3B3
330
68
100
AcDbEntity
  8
1
  6
Continuous
 62
     7
100
AcDbLine
 10
147.2339757600915
 20
240.0308517373485
 30
0.0
 11
154.3046722975773
 21
240.0308517373485
 31
0.0
  0
LINE
  5
3B4
330
68
100
AcDbEntity
  8
1
  6
Continuous
 62
     7
100
AcDbLine
 10
147.2339757600915
 20
240.0308517373485
 30
0.0
 11
147.2339757600912
 21
266.1015007748345
 31
0.0
  0
LINE
  5
3B5
330
68
100
AcDbEntity
  8
1
  6
Continuous
 62
     7
100
AcDbLine
 10
161.2339407600913
 20
247.0308342373485
 30
0.0
 11
161.2339407600916
 21
259.0308042373486
 31
0.0
  0
LINE
  5
3B6
330
68
100
AcDbEntity
  8
1
  6
Continuous
 62
     7
100
AcDbLine
 10
161.2339407600914
 20
172.7604760441155
 30
0.0
 11
161.2339407600914
 21
184.7589760741154
 31
0.0
  0
LINE
  5
3B7
330
68
100
AcDbEntity
  8
1
  6
Continuous
 62
     7
100
AcDbLine
 10
147.2356907250915
 20
165.6906456514438
 30
0.0
 11
147.2356907250915
 21
191.8288064667867
 31
0.0
  0
LINE
  5
3B8
330
68
100
AcDbEntity
  8
1
  6
Continuous
 62
     7
100
AcDbLine
 10
95.0776154933854
 20
78.62952399589278
 30
0.0
 11
94.039835792342
 21
78.03036160613601
 31
0.0
  0
LINE
  5
3B9
330
68
100
AcDbEntity
  8
1
  6
Continuous
 62
     7
100
AcDbLine
 10
106.1019846576637
 20
98.92261628933261
 30
0.0
 11
106.101984657664
 21
97.72429150981895
 31
0.0
  0
LINE
  5
3BA
330
68
100
AcDbEntity
  8
1
  6
Continuous
 62
     7
100
AcDbLine
 10
104.1263538219425
 20
101.1461844942884
 30
0.0
 11
105.1641335229858
 21
100.5470221045315
 31
0.0
  0
LINE
  5
3BB
330
68
100
AcDbEntity
  8
1
  6
Continuous
 62
     7
100
AcDbLine
 10
81.0398357923423
 20
100.5470221045315
 30
0.0
 11
82.07761549338545
 21
101.1461844942883
 31
0.0
  0
LINE
  5
3BC
330
68
100
AcDbEntity
  8
1
  6
Continuous
 62
     7
100
AcDbLine
 10
80.101984657664
 20
97.72429150981895
 30
0.0
 11
80.10198465766369
 21
98.92261628933261
 31
0.0
  0
LINE
  5
3BD
330
68
100
AcDbEntity
  8
1
  6
Continuous
 62
     7
100
AcDbLine
 10
92.1641335229858
 20
78.03036160613601
 30
0.0
 11
91.1263538219424
 21
78.62952399589278
 31
0.0
  0
ARC
  5
3BE
330
68
100
AcDbEntity
  8
1
  6
Continuous
 62
     7
100
AcDbCircle
 10
150.7339670100915
 20
262.5307954873484
 30
0.0
 40
4.999987499999747
100
AcDbArc
 50
36.86989764584402
 51
44.42700400080642
  0
ARC
  5
3BF
330
68
100
AcDbEntity
  8
1
  6
Continuous
 62
     7
100
AcDbCircle
 10
174.6403624490681
 20
227.1244287983717
 30
0.0
 40
23.99993999999986
100
AcDbArc
 50
123.9591925000975
 51
146.0408074999022
  0
ARC
  5
3C0
330
68
100
AcDbEntity
  8
1
  6
Continuous
 62
     7
100
AcDbCircle
 10
150.7339670100915
 20
243.5308429873485
 30
0.0
 40
4.999987499999928
100
AcDbArc
 50
315.5729959991936
 51
323.1301023541562
  0
ARC
  5
3C1
330
68
100
AcDbEntity
  8
1
  6
Continuous
 62
     7
100
AcDbCircle
 10
174.6403624490681
 20
278.9372096763254
 30
0.0
 40
23.99994000000002
100
AcDbArc
 50
213.959192500098
 51
236.0408074999031
  0
ARC
  5
3C2
330
68
100
AcDbEntity
  8
1
  6
Continuous
 62
     7
100
AcDbCircle
 10
174.6387201918219
 20
204.6629430220958
 30
0.0
 40
23.99700006000001
100
AcDbArc
 50
213.9591925000976
 51
236.0408074999023
  0
ARC
  5
3C3
330
68
100
AcDbEntity
  8
1
  6
Continuous
 62
     7
100
AcDbCircle
 10
150.7352532338415
 20
188.2585385828654
 30
0.0
 40
4.999375012499956
100
AcDbArc
 50
36.86989764584298
 51
134.4270040008068
  0
ARC
  5
3C4
330
68
100
AcDbEntity
  8
1
  6
Continuous
 62
     7
100
AcDbCircle
 10
150.7352532338415
 20
169.2609135353655
 30
0.0
 40
4.999375012500189
100
AcDbArc
 50
225.5729959991966
 51
323.1301023541562
  0
ARC
  5
3C5
330
68
100
AcDbEntity
  8
1
  6
Continuous
 62
     7
100
AcDbCircle
 10
174.6387201918216
 20
152.856509096135
 30
0.0
 40
23.99700005999994
100
AcDbArc
 50
123.9591925000969
 51
146.0408074999019
  0
ARC
  5
3C6
330
68
100
AcDbEntity
  8
1
  6
Continuous
 62
     7
100
AcDbCircle
 10
93.1019846576637
 20
92.5
 30
0.0
 40
14.49999999999998
100
AcDbArc
 50
266.2915552747307
 51
270.0000000000011
  0
ARC
  5
3C7
330
68
100
AcDbEntity
  8
1
  6
Continuous
 62
     7
100
AcDbCircle
 10
93.1019846576637
 20
92.5
 30
0.0
 40
14.5
100
AcDbArc
 50
270.0000000000011
 51
273.7084447252708
  0
ARC
  5
3C8
330
68
100
AcDbEntity
  8
1
  6
Continuous
 62
     7
100
AcDbCircle
 10
93.1019846576637
 20
92.5
 30
0.0
 40
14.50000000000002
100
AcDbArc
 50
26.29155527472953
 51
33.70844472527013
  0
ARC
  5
3C9
330
68
100
AcDbEntity
  8
1
  6
Continuous
 62
     7
100
AcDbCircle
 10
93.1019846576637
 20
92.5
 30
0.0
 40
14.49999999999975
100
AcDbArc
 50
146.2915552747284
 51
153.7084447252705
  0
SPLINE
  5
3CA
330
68
100
AcDbEntity
  8
1
  6
Continuous
 62
     7
100
AcDbSpline
210
0.0
220
0.0
230
1.0
 70
    11
 71
     3
 72
    79
 73
    75
 74
    73
 42
0.000000001
 43
0.0000000001
 44
0.00000001
 40
0.0
 40
0.0
 40
0.0
 40
0.0
 40
0.3142765934721063
 40
0.62830966475412
 40
0.9612269685415704
 40
1.293801798801007
 40
1.653395852645028
 40
2.012682674258573
 40
2.402590347889682
 40
2.792270150795799
 40
3.212117567886192
 40
3.631809805407487
 40
4.078013631667208
 40
4.52411760178823
 40
4.99073018494416
 40
5.457283741499205
 40
5.936753907099291
 40
6.416196708411219
 40
6.900045282200924
 40
7.383893855990031
 40
7.863336657299585
 40
8.342806822894783
 40
8.809360379440854
 40
9.275972962581
 40
9.722076932677066
 40
10.16828075889728
 40
10.58797299636204
 40
11.00782041336806
 40
11.39750021616085
 40
11.78740788962989
 40
12.14669471103244
 40
12.50628876457621
 40
12.83886359442057
 40
13.17178089750335
 40
13.48581396674913
 40
13.8000905676189
 40
14.10753469376519
 40
14.41497881991018
 40
14.72925542077638
 40
15.04328849001678
 40
15.37620579309232
 40
15.70878062292839
 40
16.06837467646258
 40
16.42766149785534
 40
16.81756917131385
 40
17.20724897409635
 40
17.62709639109175
 40
18.04678862854635
 40
18.49299245475628
 40
18.93909642484307
 40
19.40570900797406
 40
19.87226256451196
 40
20.35173273009964
 40
20.83117553140251
 40
21.31502410518558
 40
21.79887267897002
 40
22.2783154802776
 40
22.75778564587451
 40
23.22433920242742
 40
23.6909517855818
 40
24.13705575570211
 40
24.58325958196175
 40
25.00295181948298
 40
25.4227992365719
 40
25.81247903947416
 40
26.20238671309545
 40
26.56167353468895
 40
26.92126758848841
 40
27.25384241864617
 40
27.58675972214014
 40
27.90079279191819
 40
28.21506939358259
 40
28.52251352185626
 40
28.82995764083091
 40
28.82995764083091
 40
28.82995764083091
 40
28.82995764083091
 10
151.0406450033946
 20
253.9903590212027
 30
0.0
 10
151.1439162974399
 20
254.0089514468744
 30
0.0
 10
151.350378865815
 20
254.0461218830624
 30
0.0
 10
151.6524629418607
 20
254.1570678688852
 30
0.0
 10
151.9446571055193
 20
254.3041323435246
 30
0.0
 10
152.2295107598788
 20
254.4942864204335
 30
0.0
 10
152.4989510093655
 20
254.7194205860337
 30
0.0
 10
152.7577477193794
 20
254.9840559945265
 30
0.0
 10
152.9974247846986
 20
255.2791154825292
 30
0.0
 10
153.2227624631804
 20
255.6098807031598
 30
0.0
 10
153.4263254753099
 20
255.9659471349445
 30
0.0
 10
153.6118172793717
 20
256.3526792402878
 30
0.0
 10
153.7735869877222
 20
256.7593516812694
 30
0.0
 10
153.9139541975083
 20
257.1903267995851
 30
0.0
 10
154.0291969678109
 20
257.6356993704989
 30
0.0
 10
154.1204500779107
 20
258.0979111648552
 30
0.0
 10
154.1856574566328
 20
258.5688285802565
 30
0.0
 10
154.2252478250944
 20
259.0483589457107
 30
0.0
 10
154.238333395358
 20
259.530802977398
 30
0.0
 10
154.2252478251106
 20
260.0132470091
 30
0.0
 10
154.185657456662
 20
260.4927773745081
 30
0.0
 10
154.1204500779912
 20
260.963694790071
 30
0.0
 10
154.0291969678488
 20
261.4259065838315
 30
0.0
 10
153.9139541979133
 20
261.8712791569139
 30
0.0
 10
153.7735869871094
 20
262.3022542674665
 30
0.0
 10
153.6118172828552
 20
262.7089267365739
 30
0.0
 10
153.4263254649005
 20
263.0956587428879
 30
0.0
 10
153.2227625034336
 20
263.4517255308241
 30
0.0
 10
152.997424649637
 20
263.7824895129671
 30
0.0
 10
152.7577482127454
 20
264.0775534326376
 30
0.0
 10
152.4989493330781
 20
264.3421735314275
 30
0.0
 10
152.2295168473332
 20
264.5673624682337
 30
0.0
 10
151.9446362756959
 20
264.7573266355412
 30
0.0
 10
151.6525391166127
 20
264.905075482869
 30
0.0
 10
151.3501123587542
 20
265.0136038082231
 30
0.0
 10
151.0438784325357
 20
265.0778151750717
 30
0.0
 10
150.7339670104802
 20
265.1004162217123
 30
0.0
 10
150.424055588425
 20
265.0778151750834
 30
0.0
 10
150.1178216622076
 20
265.0136038082461
 30
0.0
 10
149.8153949043509
 20
264.9050754829026
 30
0.0
 10
149.5232977452704
 20
264.7573266355851
 30
0.0
 10
149.2384171736365
 20
264.5673624682873
 30
0.0
 10
148.9689846878955
 20
264.3421735314908
 30
0.0
 10
148.7101858082331
 20
264.0775534327099
 30
0.0
 10
148.4705093713473
 20
263.7824895130478
 30
0.0
 10
148.2451715175575
 20
263.4517255309128
 30
0.0
 10
148.0416085560986
 20
263.0956587429839
 30
0.0
 10
147.8561167381532
 20
262.708926736677
 30
0.0
 10
147.6943470339096
 20
262.302254267576
 30
0.0
 10
147.5539798231179
 20
261.8712791570294
 30
0.0
 10
147.4387370531962
 20
261.4259065839525
 30
0.0
 10
147.3474839430696
 20
260.9636947901973
 30
0.0
 10
147.2822765644169
 20
260.4927773746396
 30
0.0
 10
147.2426861959888
 20
260.0132470092357
 30
0.0
 10
147.2296006257652
 20
259.530802977542
 30
0.0
 10
147.2426861960523
 20
259.0483589458494
 30
0.0
 10
147.2822765645492
 20
258.5688285804429
 30
0.0
 10
147.3474839432779
 20
258.0979111648974
 30
0.0
 10
147.4387370535022
 20
257.6356993711017
 30
0.0
 10
147.5539798235122
 20
257.1903267981822
 30
0.0
 10
147.694347034516
 20
256.7593516870904
 30
0.0
 10
147.8561167386374
 20
256.3526792199957
 30
0.0
 10
148.0416085577742
 20
255.9659472066722
 30
0.0
 10
148.2451715158788
 20
255.6098804440535
 30
0.0
 10
148.4705093824065
 20
255.2791163740147
 30
0.0
 10
148.7101857750082
 20
254.98405276906
 30
0.0
 10
148.9689848091187
 20
254.7194315833098
 30
0.0
 10
149.2384167440625
 20
254.4942465355172
 30
0.0
 10
149.5232992274409
 20
254.3042688842
 30
0.0
 10
149.8153894995532
 20
254.1565686295307
 30
0.0
 10
150.1178405894991
 20
254.0478686432727
 30
0.0
 10
150.4239854232654
 20
253.9842858451793
 30
0.0
 10
150.7342225942636
 20
253.9593865871207
 30
0.0
 10
150.9385042011311
 20
253.9800348796239
 30
0.0
 10
151.0406450033946
 20
253.9903590212027
 30
0.0
 11
151.0406450033946
 21
253.9903590212027
 31
0.0
 11
151.3482061072508
 21
254.054980606881
 31
0.0
 11
151.6440942463247
 21
254.1601803113222
 31
0.0
 11
151.9413585680298
 21
254.3100731190621
 31
0.0
 11
152.2185464918034
 21
254.4938470900914
 31
0.0
 11
152.4949197009495
 21
254.7239030238919
 31
0.0
 11
152.746645651353
 21
254.9802642260683
 31
0.0
 11
152.9930692062844
 21
255.282428792913
 31
0.0
 11
153.2129181691087
 21
255.6041690333086
 31
0.0
 11
153.4218715519272
 21
255.9683260563235
 31
0.0
 11
153.6037271588688
 21
256.3465721566849
 31
0.0
 11
153.7691352244731
 21
256.7609850261623
 31
0.0
 11
153.9075317459037
 21
257.1850783590582
 31
0.0
 11
154.0247791351536
 21
257.6367201999786
 31
0.0
 11
154.1152777415595
 21
258.094412480197
 31
0.0
 11
154.1812704971111
 21
258.5693194141483
 31
0.0
 11
154.2207366295345
 21
259.047135094219
 31
0.0
 11
154.2339582600916
 21
259.5308029873484
 31
0.0
 11
154.2207366295346
 21
260.0144708804779
 31
0.0
 11
154.1812704971113
 21
260.4922865605485
 31
0.0
 11
154.1152777415598
 21
260.9671934944997
 31
0.0
 11
154.024779135154
 21
261.424885774718
 31
0.0
 11
153.9075317459042
 21
261.8765276156385
 31
0.0
 11
153.7691352244736
 21
262.3006209485343
 31
0.0
 11
153.6037271588692
 21
262.7150338180118
 31
0.0
 11
153.4218715519275
 21
263.0932799183734
 31
0.0
 11
153.2129181691089
 21
263.4574369413884
 31
0.0
 11
152.9930692062846
 21
263.7791771817841
 31
0.0
 11
152.7466456513533
 21
264.0813417486286
 31
0.0
 11
152.4949197009498
 21
264.337702950805
 31
0.0
 11
152.2185464918037
 21
264.5677588846054
 31
0.0
 11
151.94135856803
 21
264.7515328556346
 31
0.0
 11
151.6440942463249
 21
264.9014256633744
 31
0.0
 11
151.348206107251
 21
265.0066253678157
 31
0.0
 11
151.0406450033947
 21
265.0712469534941
 31
0.0
 11
150.7339670100914
 21
265.092937947298
 31
0.0
 11
150.4272890167881
 21
265.0712469534944
 31
0.0
 11
150.119727912932
 21
265.0066253678161
 31
0.0
 11
149.8238397738582
 21
264.9014256633747
 31
0.0
 11
149.5265754521532
 21
264.7515328556347
 31
0.0
 11
149.2493875283796
 21
264.5677588846054
 31
0.0
 11
148.9730143192334
 21
264.337702950805
 31
0.0
 11
148.7212883688298
 21
264.0813417486287
 31
0.0
 11
148.4748648138984
 21
263.7791771817842
 31
0.0
 11
148.2550158510739
 21
263.4574369413884
 31
0.0
 11
148.0460624682554
 21
263.0932799183735
 31
0.0
 11
147.8642068613137
 21
262.7150338180119
 31
0.0
 11
147.6987987957093
 21
262.3006209485347
 31
0.0
 11
147.5604022742786
 21
261.8765276156388
 31
0.0
 11
147.4431548850288
 21
261.4248857747185
 31
0.0
 11
147.352656278623
 21
260.9671934945001
 31
0.0
 11
147.2866635230715
 21
260.4922865605488
 31
0.0
 11
147.2471973906483
 21
260.014470880478
 31
0.0
 11
147.2339757600915
 21
259.5308029873485
 31
0.0
 11
147.2471973906483
 21
259.0471350942191
 31
0.0
 11
147.2866635230715
 21
258.5693194141485
 31
0.0
 11
147.352656278623
 21
258.0944124801971
 31
0.0
 11
147.4431548850288
 21
257.6367201999788
 31
0.0
 11
147.5604022742787
 21
257.1850783590585
 31
0.0
 11
147.6987987957093
 21
256.7609850261627
 31
0.0
 11
147.8642068613137
 21
256.3465721566853
 31
0.0
 11
148.0460624682554
 21
255.9683260563236
 31
0.0
 11
148.255015851074
 21
255.6041690333087
 31
0.0
 11
148.4748648138984
 21
255.282428792913
 31
0.0
 11
148.7212883688296
 21
254.9802642260683
 31
0.0
 11
148.9730143192332
 21
254.7239030238919
 31
0.0
 11
149.2493875283794
 21
254.4938470900915
 31
0.0
 11
149.526575452153
 21
254.3100731190623
 31
0.0
 11
149.823839773858
 21
254.1601803113224
 31
0.0
 11
150.1197279129318
 21
254.0549806068811
 31
0.0
 11
150.4272890167879
 21
253.9903590212028
 31
0.0
 11
150.7339670100913
 21
253.9686680273991
 31
0.0
 11
151.0406450033946
 21
253.9903590212027
 31
0.0
  0
SPLINE
  5
3CB
330
68
100
AcDbEntity
  8
1
  6
Continuous
 62
     7
100
AcDbSpline
210
0.0
220
0.0
230
1.0
 70
    11
 71
     3
 72
    79
 73
    75
 74
    73
 42
0.000000001
 43
0.0000000001
 44
0.00000001
 40
0.0
 40
0.0
 40
0.0
 40
0.0
 40
0.314276593472241
 40
0.6283096647543003
 40
0.9612269685417507
 40
1.293801798801109
 40
1.653395852645057
 40
2.012682674258623
 40
2.402590347889709
 40
2.79227015079585
 40
3.212117567886293
 40
3.631809805407689
 40
4.078013631667384
 40
4.524117601788325
 40
4.990730184944145
 40
5.457283741499246
 40
5.93675390709944
 40
6.416196708411273
 40
6.900045282200918
 40
7.383893855990027
 40
7.863336657299691
 40
8.342806822894861
 40
8.809360379440905
 40
9.275972962580996
 40
9.722076932677062
 40
10.16828075889731
 40
10.58797299636202
 40
11.00782041336798
 40
11.39750021616071
 40
11.78740788962977
 40
12.14669471103231
 40
12.50628876457595
 40
12.83886359442023
 40
13.17178089750296
 40
13.48581396674874
 40
13.8000905676186
 40
14.10753469376493
 40
14.41497881990991
 40
14.72925542077602
 40
15.04328849001644
 40
15.37620579309205
 40
15.70878062292806
 40
16.06837467646224
 40
16.42766149785498
 40
16.8175691713135
 40
17.20724897409617
 40
17.62709639109167
 40
18.0467886285463
 40
18.49299245475651
 40
18.93909642484308
 40
19.40570900797407
 40
19.87226256451192
 40
20.35173273009957
 40
20.83117553140224
 40
21.31502410518518
 40
21.79887267896973
 40
22.27831548027753
 40
22.75778564587441
 40
23.22433920242729
 40
23.69095178558172
 40
24.13705575570204
 40
24.58325958196162
 40
25.00295181948282
 40
25.42279923657178
 40
25.81247903947404
 40
26.20238671309536
 40
26.56167353468881
 40
26.92126758848831
 40
27.25384241864605
 40
27.58675972214
 40
27.90079279191803
 40
28.21506939358232
 40
28.5225135218559
 40
28.82995764083062
 40
28.82995764083062
 40
28.82995764083062
 40
28.82995764083062
 10
151.0406450033944
 20
252.0712794534944
 30
0.0
 10
151.1439162974397
 20
252.0526870278227
 30
0.0
 10
151.3503788658149
 20
252.0155165916346
 30
0.0
 10
151.6524629418607
 20
251.9045706058118
 30
0.0
 10
151.9446571055193
 20
251.7575061311725
 30
0.0
 10
152.2295107598788
 20
251.5673520542635
 30
0.0
 10
152.4989510093654
 20
251.3422178886636
 30
0.0
 10
152.7577477193793
 20
251.0775824801707
 30
0.0
 10
152.9974247846987
 20
250.782522992168
 30
0.0
 10
153.2227624631804
 20
250.4517577715374
 30
0.0
 10
153.4263254753099
 20
250.0956913397526
 30
0.0
 10
153.6118172793717
 20
249.7089592344093
 30
0.0
 10
153.7735869877222
 20
249.3022867934276
 30
0.0
 10
153.9139541975083
 20
248.8713116751122
 30
0.0
 10
154.029196967811
 20
248.4259391041983
 30
0.0
 10
154.1204500779107
 20
247.963727309842
 30
0.0
 10
154.1856574566327
 20
247.4928098944407
 30
0.0
 10
154.2252478250944
 20
247.0132795289866
 30
0.0
 10
154.2383333953577
 20
246.5308354972991
 30
0.0
 10
154.2252478251103
 20
246.0483914655972
 30
0.0
 10
154.1856574566617
 20
245.5688611001891
 30
0.0
 10
154.1204500779909
 20
245.0979436846261
 30
0.0
 10
154.0291969678485
 20
244.6357318908657
 30
0.0
 10
153.9139541979129
 20
244.1903593177833
 30
0.0
 10
153.7735869871091
 20
243.7593842072308
 30
0.0
 10
153.611817282855
 20
243.3527117381232
 30
0.0
 10
153.4263254649003
 20
242.9659797318094
 30
0.0
 10
153.2227625034335
 20
242.6099129438732
 30
0.0
 10
152.997424649637
 20
242.2791489617301
 30
0.0
 10
152.7577482127454
 20
241.9840850420597
 30
0.0
 10
152.4989493330781
 20
241.7194649432697
 30
0.0
 10
152.2295168473331
 20
241.4942760064637
 30
0.0
 10
151.9446362756959
 20
241.3043118391563
 30
0.0
 10
151.6525391166129
 20
241.1565629918284
 30
0.0
 10
151.3501123587544
 20
241.0480346664741
 30
0.0
 10
151.0438784325358
 20
240.9838232996252
 30
0.0
 10
150.7339670104803
 20
240.961222252985
 30
0.0
 10
150.4240555884252
 20
240.9838232996137
 30
0.0
 10
150.1178216622078
 20
241.0480346664513
 30
0.0
 10
149.8153949043511
 20
241.1565629917944
 30
0.0
 10
149.5232977452704
 20
241.304311839112
 30
0.0
 10
149.2384171736365
 20
241.4942760064095
 30
0.0
 10
148.9689846878956
 20
241.7194649432062
 30
0.0
 10
148.7101858082332
 20
241.984085041987
 30
0.0
 10
148.4705093713475
 20
242.2791489616493
 30
0.0
 10
148.2451715175577
 20
242.6099129437844
 30
0.0
 10
148.0416085560987
 20
242.9659797317134
 30
0.0
 10
147.8561167381532
 20
243.3527117380204
 30
0.0
 10
147.6943470339099
 20
243.7593842071216
 30
0.0
 10
147.553979823118
 20
244.1903593176681
 30
0.0
 10
147.4387370531962
 20
244.6357318907449
 30
0.0
 10
147.3474839430696
 20
245.0979436845001
 30
0.0
 10
147.2822765644169
 20
245.5688611000577
 30
0.0
 10
147.2426861959888
 20
246.0483914654613
 30
0.0
 10
147.2296006257652
 20
246.530835497155
 30
0.0
 10
147.2426861960524
 20
247.0132795288477
 30
0.0
 10
147.2822765645492
 20
247.4928098942543
 30
0.0
 10
147.3474839432779
 20
247.9637273097999
 30
0.0
 10
147.4387370535022
 20
248.4259391035955
 30
0.0
 10
147.5539798235121
 20
248.8713116765151
 30
0.0
 10
147.6943470345157
 20
249.302286787607
 30
0.0
 10
147.8561167386372
 20
249.7089592547015
 30
0.0
 10
148.0416085577742
 20
250.095691268025
 30
0.0
 10
148.2451715158788
 20
250.4517580306436
 30
0.0
 10
148.4705093824065
 20
250.7825221006826
 30
0.0
 10
148.7101857750081
 20
251.0775857056372
 30
0.0
 10
148.9689848091187
 20
251.3422068913874
 30
0.0
 10
149.2384167440625
 20
251.56739193918
 30
0.0
 10
149.5232992274408
 20
251.7573695904973
 30
0.0
 10
149.8153894995532
 20
251.9050698451665
 30
0.0
 10
150.1178405894991
 20
252.0137698314244
 30
0.0
 10
150.4239854232652
 20
252.0773526295179
 30
0.0
 10
150.7342225942634
 20
252.1022518875767
 30
0.0
 10
150.9385042011308
 20
252.0816035950732
 30
0.0
 10
151.0406450033944
 20
252.0712794534944
 30
0.0
 11
151.0406450033944
 21
252.0712794534944
 31
0.0
 11
151.3482061072507
 21
252.006657867816
 31
0.0
 11
151.6440942463247
 21
251.9014581633748
 31
0.0
 11
151.9413585680298
 21
251.7515653556349
 31
0.0
 11
152.2185464918034
 21
251.5677913846058
 31
0.0
 11
152.4949197009495
 21
251.3377354508054
 31
0.0
 11
152.746645651353
 21
251.0813742486289
 31
0.0
 11
152.9930692062844
 21
250.7792096817843
 31
0.0
 11
153.2129181691087
 21
250.4574694413886
 31
0.0
 11
153.4218715519272
 21
250.0933124183736
 31
0.0
 11
153.6037271588688
 21
249.7150663180121
 31
0.0
 11
153.7691352244731
 21
249.3006534485348
 31
0.0
 11
153.9075317459037
 21
248.876560115639
 31
0.0
 11
154.0247791351536
 21
248.4249182747186
 31
0.0
 11
154.1152777415595
 21
247.9672259945002
 31
0.0
 11
154.1812704971111
 21
247.4923190605489
 31
0.0
 11
154.2207366295343
 21
247.0145033804782
 31
0.0
 11
154.2339582600913
 21
246.5308354873488
 31
0.0
 11
154.2207366295343
 21
246.0471675942194
 31
0.0
 11
154.181270497111
 21
245.5693519141486
 31
0.0
 11
154.1152777415595
 21
245.0944449801975
 31
0.0
 11
154.0247791351537
 21
244.6367526999792
 31
0.0
 11
153.907531745904
 21
244.1851108590588
 31
0.0
 11
153.7691352244734
 21
243.7610175261629
 31
0.0
 11
153.6037271588689
 21
243.3466046566855
 31
0.0
 11
153.4218715519272
 21
242.9683585563238
 31
0.0
 11
153.2129181691088
 21
242.6042015333089
 31
0.0
 11
152.9930692062845
 21
242.2824612929132
 31
0.0
 11
152.7466456513533
 21
241.9802967260686
 31
0.0
 11
152.4949197009498
 21
241.7239355238922
 31
0.0
 11
152.2185464918037
 21
241.493879590092
 31
0.0
 11
151.9413585680301
 21
241.3101056190629
 31
0.0
 11
151.6440942463251
 21
241.1602128113229
 31
0.0
 11
151.3482061072512
 21
241.0550131068815
 31
0.0
 11
151.0406450033949
 21
240.990391521203
 31
0.0
 11
150.7339670100915
 21
240.9687005273991
 31
0.0
 11
150.4272890167883
 21
240.9903915212028
 31
0.0
 11
150.1197279129323
 21
241.0550131068811
 31
0.0
 11
149.8238397738584
 21
241.1602128113224
 31
0.0
 11
149.5265754521532
 21
241.3101056190623
 31
0.0
 11
149.2493875283796
 21
241.4938795900915
 31
0.0
 11
148.9730143192335
 21
241.7239355238919
 31
0.0
 11
148.72128836883
 21
241.9802967260682
 31
0.0
 11
148.4748648138986
 21
242.2824612929129
 31
0.0
 11
148.2550158510741
 21
242.6042015333088
 31
0.0
 11
148.0460624682555
 21
242.9683585563238
 31
0.0
 11
147.8642068613138
 21
243.3466046566854
 31
0.0
 11
147.6987987957095
 21
243.7610175261629
 31
0.0
 11
147.5604022742788
 21
244.1851108590586
 31
0.0
 11
147.4431548850288
 21
244.6367526999789
 31
0.0
 11
147.352656278623
 21
245.0944449801972
 31
0.0
 11
147.2866635230715
 21
245.5693519141485
 31
0.0
 11
147.2471973906483
 21
246.0471675942192
 31
0.0
 11
147.2339757600915
 21
246.5308354873485
 31
0.0
 11
147.2471973906483
 21
247.0145033804779
 31
0.0
 11
147.2866635230715
 21
247.4923190605488
 31
0.0
 11
147.352656278623
 21
247.9672259945001
 31
0.0
 11
147.4431548850287
 21
248.4249182747185
 31
0.0
 11
147.5604022742785
 21
248.8765601156389
 31
0.0
 11
147.6987987957091
 21
249.3006534485346
 31
0.0
 11
147.8642068613136
 21
249.715066318012
 31
0.0
 11
148.0460624682554
 21
250.0933124183736
 31
0.0
 11
148.255015851074
 21
250.4574694413885
 31
0.0
 11
148.4748648138984
 21
250.7792096817843
 31
0.0
 11
148.7212883688296
 21
251.0813742486289
 31
0.0
 11
148.9730143192332
 21
251.3377354508053
 31
0.0
 11
149.2493875283794
 21
251.5677913846058
 31
0.0
 11
149.526575452153
 21
251.7515653556349
 31
0.0
 11
149.823839773858
 21
251.9014581633748
 31
0.0
 11
150.1197279129317
 21
252.0066578678161
 31
0.0
 11
150.4272890167878
 21
252.0712794534944
 31
0.0
 11
150.7339670100911
 21
252.0929704472982
 31
0.0
 11
151.0406450033944
 21
252.0712794534944
 31
0.0
  0
SPLINE
  5
3CC
330
68
100
AcDbEntity
  8
1
  6
Continuous
 62
     7
100
AcDbSpline
210
0.0
220
0.0
230
1.0
 70
    11
 71
     3
 72
    79
 73
    75
 74
    73
 42
0.000000001
 43
0.0000000001
 44
0.00000001
 40
0.0
 40
0.0
 40
0.0
 40
0.0
 40
0.3114359603061198
 40
0.6227326715760715
 40
0.9471398142057219
 40
1.271334486350487
 40
1.614651005217254
 40
1.957754694077473
 40
2.322963031245639
 40
2.687996406736302
 40
3.075184285998198
 40
3.462243082558689
 40
3.869033277925257
 40
4.275735477117903
 40
4.697847219444606
 40
5.119904915545905
 40
5.551726456314347
 40
5.983522390261216
 40
6.418658420472257
 40
6.85379445068019
 40
7.285590384617278
 40
7.717411925368607
 40
8.139469621444254
 40
8.561581363734003
 40
8.968283562877149
 40
9.375073758176063
 40
9.762132554649819
 40
10.149320433796
 40
10.51435380914225
 40
10.87956214611998
 40
11.22266583474318
 40
11.56598235329189
 40
11.89017702500809
 40
12.21458416693666
 40
12.52588087630972
 40
12.83731684452856
 40
13.14406843857004
 40
13.4508200326103
 40
13.7622560008256
 40
14.07355271019305
 40
14.39795985211392
 40
14.72215452382104
 40
15.06547104235916
 40
15.40857473097102
 40
15.77378306793629
 40
16.13881644327015
 40
16.52600432240318
 40
16.91306311886416
 40
17.31985331415005
 40
17.72655551328062
 40
18.14866725555786
 40
18.5707249516215
 40
19.00254649236104
 40
19.434342426287
 40
19.86947845648409
 40
20.30461448668475
 40
20.73641042062169
 40
21.16823196138059
 40
21.59028965747289
 40
22.01240139979054
 40
22.41910359897444
 40
22.82589379433177
 40
23.21295259088251
 40
23.60014047013266
 40
23.96517384560888
 40
24.33038218275637
 40
24.67348587158532
 40
25.01680239039627
 40
25.34099706242751
 40
25.66540420475617
 40
25.9767009146441
 40
26.28813688363298
 40
26.59488847965164
 40
26.90164006591072
 40
26.90164006591072
 40
26.90164006591072
 40
26.90164006591072
 10
150.4301383686683
 20
183.7395900159578
 30
0.0
 10
150.3275164299779
 20
183.7230248471958
 30
0.0
 10
150.1223184355284
 20
183.6899019238409
 30
0.0
 10
149.8212611993677
 20
183.5910621407779
 30
0.0
 10
149.5290855641066
 20
183.4593361809988
 30
0.0
 10
149.2447166962847
 20
183.2892758323818
 30
0.0
 10
148.9745688785729
 20
183.0870574652385
 30
0.0
 10
148.7158307570906
 20
182.8497747221637
 30
0.0
 10
148.4752464546543
 20
182.5842907410144
 30
0.0
 10
148.2497659586757
 20
182.2872839663204
 30
0.0
 10
148.0454060998827
 20
181.9667082378398
 30
0.0
 10
147.8597069886587
 20
181.6191761944045
 30
0.0
 10
147.6973436912028
 20
181.2530257113966
 30
0.0
 10
147.5567689029466
 20
180.8655607996599
 30
0.0
 10
147.4411243905921
 20
180.4646411054882
 30
0.0
 10
147.3496951606735
 20
180.0489650501143
 30
0.0
 10
147.2842372334352
 20
179.6251503333252
 30
0.0
 10
147.2445255059758
 20
179.1937875003677
 30
0.0
 10
147.2313013889466
 20
178.7596972575037
 30
0.0
 10
147.2443468182913
 20
178.3256016079038
 30
0.0
 10
147.2838809785194
 20
177.8942224648158
 30
0.0
 10
147.3491644433808
 20
177.4703808390736
 30
0.0
 10
147.4404225589385
 20
177.0546671839685
 30
0.0
 10
147.5559020288158
 20
176.6536999188009
 30
0.0
 10
147.6963173119087
 20
176.2661771806193
 30
0.0
 10
147.8585298724667
 20
175.8999598719246
 30
0.0
 10
148.044085921717
 20
175.5523514974819
 30
0.0
 10
148.2483137663607
 20
175.2316913858399
 30
0.0
 10
148.4736721139437
 20
174.9345928398458
 30
0.0
 10
148.7141466466523
 20
174.6690061669579
 30
0.0
 10
148.9727887138439
 20
174.4316298892913
 30
0.0
 10
149.2428473313942
 20
174.2292535052676
 30
0.0
 10
149.5271671605593
 20
174.0592416833098
 30
0.0
 10
149.8192121658176
 20
173.9267929378303
 30
0.0
 10
150.1205028740465
 20
173.8299921026368
 30
0.0
 10
150.4257491911713
 20
173.7724622744789
 30
0.0
 10
150.7342228036023
 20
173.7524465687302
 30
0.0
 10
151.0427046290506
 20
173.7723352944345
 30
0.0
 10
151.3479746015668
 20
173.8297394678359
 30
0.0
 10
151.6493051308174
 20
173.9264162732101
 30
0.0
 10
151.941404631784
 20
174.0587447916999
 30
0.0
 10
152.225794419564
 20
174.2286395634333
 30
0.0
 10
152.4959363193018
 20
174.4309047648959
 30
0.0
 10
152.7546760768062
 20
174.6681745564806
 30
0.0
 10
152.9952599137332
 20
174.9336622192786
 30
0.0
 10
153.220740538184
 20
175.230667974854
 30
0.0
 10
153.4251003602345
 20
175.5512439921229
 30
0.0
 10
153.610799481303
 20
175.8987759558616
 30
0.0
 10
153.7731627757324
 20
176.2649264612583
 30
0.0
 10
153.9137375645889
 20
176.6523913668451
 30
0.0
 10
154.0293820765702
 20
177.0533110627163
 30
0.0
 10
154.1208113064032
 20
177.4689871176171
 30
0.0
 10
154.1862692334911
 20
177.8928018345246
 30
0.0
 10
154.2259809608265
 20
178.324164667438
 30
0.0
 10
154.2392050777281
 20
178.7582549103013
 30
0.0
 10
154.2261596482556
 20
179.1923505598872
 30
0.0
 10
154.1866254878935
 20
179.6237297029662
 30
0.0
 10
154.1213420228906
 20
180.0475713286855
 30
0.0
 10
154.030083907173
 20
180.4632849838078
 30
0.0
 10
153.9146044371398
 20
180.8642522488346
 30
0.0
 10
153.7741891537997
 20
181.2517749874303
 30
0.0
 10
153.6119765932289
 20
181.6179922944996
 30
0.0
 10
153.4264205430187
 20
181.9656006745826
 30
0.0
 10
153.2221927007046
 20
182.2862607656015
 30
0.0
 10
152.9968343436411
 20
182.5833593841461
 30
0.0
 10
152.7563598437372
 20
182.8489457946453
 30
0.0
 10
152.4977176595693
 20
183.0863229949958
 30
0.0
 10
152.2276594632143
 20
183.2886960420021
 30
0.0
 10
151.9433381429941
 20
183.4587196609936
 30
0.0
 10
151.6512985616068
 20
183.5911254745644
 30
0.0
 10
151.3499883808877
 20
183.6880804196236
 30
0.0
 10
151.0448137680548
 20
183.7450427320276
 30
0.0
 10
150.7360763133461
 20
183.7671466365637
 30
0.0
 10
150.5321176826805
 20
183.748775553427
 30
0.0
 10
150.4301383686683
 20
183.7395900159578
 30
0.0
 11
150.4301383686683
 21
183.7395900159578
 31
0.0
 11
150.1240875054855
 21
183.6819251953042
 31
0.0
 11
149.8274829627575
 21
183.5874191817968
 31
0.0
 11
149.5318921873724
 21
183.453755097876
 31
0.0
 11
149.253249387568
 21
183.2880433741941
 31
0.0
 11
148.9781650929343
 21
183.0826294924036
 31
0.0
 11
148.7249075816566
 21
182.8511542794861
 31
0.0
 11
148.479291129072
 21
182.5808772222243
 31
0.0
 11
148.2582058976722
 21
182.2904108977954
 31
0.0
 11
148.0496702828836
 21
181.964178846684
 31
0.0
 11
147.8669599968765
 21
181.6229582972506
 31
0.0
 11
147.7016992642055
 21
181.2512498721852
 31
0.0
 11
147.5627766747913
 21
180.8690101660227
 31
0.0
 11
147.445509136164
 21
180.4635146082323
 31
0.0
 11
147.3547215140349
 21
180.0513370900391
 31
0.0
 11
147.2886269210077
 21
179.6246037449104
 31
0.0
 11
147.2490194051969
 21
179.1946281952944
 31
0.0
 11
147.2356908763931
 21
178.7596963441802
 31
0.0
 11
147.2488403711787
 21
178.3247590434338
 31
0.0
 11
147.2882708909289
 21
177.8947672264321
 31
0.0
 11
147.3541898202541
 21
177.4680067106521
 31
0.0
 11
147.4448077682676
 21
177.0557918560755
 31
0.0
 11
147.5619083810603
 21
176.6502480612925
 31
0.0
 11
147.7006736157125
 21
176.2679512022044
 31
0.0
 11
147.8657813264271
 21
175.8961747816367
 31
0.0
 11
148.0483511388564
 21
175.5548790512826
 31
0.0
 11
148.2567524476598
 21
175.2285611873881
 31
0.0
 11
148.4777180944129
 21
174.9380038812928
 31
0.0
 11
148.7232232708683
 21
174.667625742761
 31
0.0
 11
148.9763854775413
 21
174.4360462999638
 31
0.0
 11
149.2513851934602
 21
174.2305192014321
 31
0.0
 11
149.5299597570202
 21
174.0646927928422
 31
0.0
 11
149.8254954866344
 21
173.9309070449295
 31
0.0
 11
150.1220611023124
 21
173.8362789468113
 31
0.0
 11
150.4280882027453
 21
173.7784881499955
 31
0.0
 11
150.7342241659448
 21
173.7590636145072
 31
0.0
 11
151.0403680990141
 21
173.7783621322721
 31
0.0
 11
151.3464189621969
 21
173.8360269529259
 31
0.0
 11
151.6430235049249
 21
173.9305329664332
 31
0.0
 11
151.93861428031
 21
174.0641970503541
 31
0.0
 11
152.2172570801145
 21
174.229908774036
 31
0.0
 11
152.4923413747482
 21
174.4353226558265
 31
0.0
 11
152.7455988860258
 21
174.666797868744
 31
0.0
 11
152.9912153386104
 21
174.9370749260057
 31
0.0
 11
153.2123005700104
 21
175.2275412504347
 31
0.0
 11
153.4208361847989
 21
175.553773301546
 31
0.0
 11
153.603546470806
 21
175.8949938509794
 31
0.0
 11
153.7688072034769
 21
176.2667022760448
 31
0.0
 11
153.9077297928911
 21
176.6489419822074
 31
0.0
 11
154.0249973315184
 21
177.0544375399977
 31
0.0
 11
154.1157849536476
 21
177.4666150581909
 31
0.0
 11
154.1818795466747
 21
177.8933484033196
 31
0.0
 11
154.2214870624856
 21
178.3233239529356
 31
0.0
 11
154.2348155912894
 21
178.7582558040498
 31
0.0
 11
154.2216660965037
 21
179.1931931047962
 31
0.0
 11
154.1822355767535
 21
179.6231849217979
 31
0.0
 11
154.1163166474282
 21
180.0499454375779
 31
0.0
 11
154.0256986994147
 21
180.4621602921545
 31
0.0
 11
153.9085980866221
 21
180.8677040869375
 31
0.0
 11
153.76983285197
 21
181.2500009460256
 31
0.0
 11
153.6047251412553
 21
181.6217773665933
 31
0.0
 11
153.422155328826
 21
181.9630730969474
 31
0.0
 11
153.2137540200226
 21
182.2893909608419
 31
0.0
 11
152.9927883732695
 21
182.5799482669372
 31
0.0
 11
152.7472831968141
 21
182.850326405469
 31
0.0
 11
152.4941209901411
 21
183.0819058482663
 31
0.0
 11
152.2191212742223
 21
183.2874329467981
 31
0.0
 11
151.9405467106623
 21
183.4532593553879
 31
0.0
 11
151.645010981048
 21
183.5870451033006
 31
0.0
 11
151.34844536537
 21
183.6816732014188
 31
0.0
 11
151.0424182649371
 21
183.7394639982346
 31
0.0
 11
150.7362823017376
 21
183.7588885337228
 31
0.0
 11
150.4301383686683
 21
183.7395900159578
 31
0.0
  0
SPLINE
  5
3CD
330
68
100
AcDbEntity
  8
1
  6
Continuous
 62
     7
100
AcDbSpline
210
0.0
220
0.0
230
1.0
 70
    11
 71
     3
 72
    79
 73
    75
 74
    73
 42
0.000000001
 43
0.0000000001
 44
0.00000001
 40
0.0
 40
0.0
 40
0.0
 40
0.0
 40
0.281142387094701
 40
0.5622705941690158
 40
0.8456409395400701
 40
1.128985685267174
 40
1.415731911007533
 40
1.702445704169843
 40
1.993278240268781
 40
2.284076509745465
 40
2.579195360692
 40
2.874282452508579
 40
3.173373262450648
 40
3.472438015932974
 40
3.774727795290007
 40
4.076999272896275
 40
4.381357491378552
 40
4.685706310011256
 40
4.990776540294843
 40
5.295846770567866
 40
5.600195589169027
 40
5.904553807598226
 40
6.206825285129862
 40
6.509115064389478
 40
6.808179817751986
 40
7.107270627549243
 40
7.402357719196884
 40
7.697476569946378
 40
7.988274839198487
 40
8.279107375038496
 40
8.565821167904353
 40
8.852567393293329
 40
9.135912138582121
 40
9.419282483314484
 40
9.700410688990129
 40
9.981553084909763
 40
10.26191263891209
 40
10.54227219291323
 40
10.82341458882953
 40
11.10454279449981
 40
11.3879131392249
 40
11.67125788450443
 40
11.95800410988223
 40
12.24471790273522
 40
12.5355504385608
 40
12.82634870779724
 40
13.12146755852963
 40
13.41655465015921
 40
13.71564545993718
 40
14.01471021327956
 40
14.31699999251826
 40
14.61927147002828
 40
14.92362968843532
 40
15.22797850701382
 40
15.53304873726372
 40
15.83811896752382
 40
16.14246778613246
 40
16.44682600459019
 40
16.74909748217157
 40
17.0513872615033
 40
17.35045201495989
 40
17.64954282487525
 40
17.94462991666417
 40
18.23974876758124
 40
18.53054703702562
 40
18.82137957308704
 40
19.10809336620214
 40
19.39483959187494
 40
19.67818433748516
 40
19.96155468259229
 40
20.24268288872898
 40
20.52382528530607
 40
20.80418484072754
 40
21.08454438591978
 40
21.08454438591978
 40
21.08454438591978
 40
21.08454438591978
 10
154.2214355364113
 20
167.7828431589643
 30
0.0
 10
154.2099858460506
 20
167.8759275942896
 30
0.0
 10
154.1870870481281
 20
168.0620917707099
 30
0.0
 10
154.1190582632284
 20
168.336294943117
 30
0.0
 10
154.02744758725
 20
168.603988146042
 30
0.0
 10
153.9098513007799
 20
168.8635161902466
 30
0.0
 10
153.7686506296889
 20
169.1122193917667
 30
0.0
 10
153.603849261431
 20
169.3490038956573
 30
0.0
 10
153.4177952235921
 20
169.5712344782232
 30
0.0
 10
153.2107962516835
 20
169.7780640091746
 30
0.0
 10
152.9856256033571
 20
169.9671541741436
 30
0.0
 10
152.7427910554255
 20
170.1377812278735
 30
0.0
 10
152.4853546074341
 20
170.2880797560269
 30
0.0
 10
152.2141106192988
 20
170.4173869264823
 30
0.0
 10
151.9321927089019
 20
170.5244064752557
 30
0.0
 10
151.6407919845139
 20
170.6085430949165
 30
0.0
 10
151.3428912826159
 20
170.6690800358904
 30
0.0
 10
151.0401634628241
 20
170.7055626719983
 30
0.0
 10
150.7352532434384
 20
170.7177882001739
 30
0.0
 10
150.4303430240434
 20
170.7055626723508
 30
0.0
 10
150.127615204258
 20
170.6690800365949
 30
0.0
 10
149.8297145022801
 20
170.6085430959825
 30
0.0
 10
149.5383137780956
 20
170.5244064766593
 30
0.0
 10
149.2563958668147
 20
170.4173869283308
 30
0.0
 10
148.9851518817765
 20
170.2880797579462
 30
0.0
 10
148.7277154220919
 20
170.1377812312822
 30
0.0
 10
148.4848809169836
 20
169.9671541738427
 30
0.0
 10
148.2597101097378
 20
169.7780640244471
 30
0.0
 10
148.0527117222711
 20
169.5712344380644
 30
0.0
 10
147.8666555195717
 20
169.3490040627501
 30
0.0
 10
147.7018621211693
 20
169.1122187978803
 30
0.0
 10
147.5606319083955
 20
168.8635184192486
 30
0.0
 10
147.4431446283996
 20
168.6039799612767
 30
0.0
 10
147.3511291841699
 20
168.3363254305376
 30
0.0
 10
147.2845996736098
 20
168.0619790167605
 30
0.0
 10
147.2447018777397
 20
167.7835228161804
 30
0.0
 10
147.2311914453817
 20
167.502803073647
 30
0.0
 10
147.2447018777152
 20
167.2220833311134
 30
0.0
 10
147.284599673561
 20
166.9436271305333
 30
0.0
 10
147.3511291840968
 20
166.6692807167556
 30
0.0
 10
147.4431446283022
 20
166.4016261860158
 30
0.0
 10
147.5606319082742
 20
166.1420877280433
 30
0.0
 10
147.701862121024
 20
165.8933873494107
 30
0.0
 10
147.8666555194025
 20
165.6566020845399
 30
0.0
 10
148.0527117220781
 20
165.4343717092244
 30
0.0
 10
148.2597101095215
 20
165.2275421228405
 30
0.0
 10
148.4848809167442
 20
165.0384519734436
 30
0.0
 10
148.7277154218292
 20
164.8678249160025
 30
0.0
 10
148.9851518814906
 20
164.7175263893369
 30
0.0
 10
149.2563958665058
 20
164.5882192189507
 30
0.0
 10
149.5383137777638
 20
164.4811996706206
 30
0.0
 10
149.8297145019254
 20
164.3970630512956
 30
0.0
 10
150.1276152038802
 20
164.3365261106812
 30
0.0
 10
150.4303430236428
 20
164.3000434749227
 30
0.0
 10
150.7352532430135
 20
164.2878179470968
 30
0.0
 10
151.0401634623799
 20
164.300043475269
 30
0.0
 10
151.3428912821325
 20
164.3365261113748
 30
0.0
 10
151.6407919840638
 20
164.3970630523379
 30
0.0
 10
151.9321927082149
 20
164.4811996720167
 30
0.0
 10
152.2141106193764
 20
164.5882192206961
 30
0.0
 10
152.4853546045724
 20
164.7175263914643
 30
0.0
 10
152.742791063345
 20
164.8678249184152
 30
0.0
 10
152.9856255714397
 20
165.0384519765221
 30
0.0
 10
153.2107963671972
 20
165.227542125209
 30
0.0
 10
153.4177947964583
 20
165.4343717159846
 30
0.0
 10
153.6038508438246
 20
165.656602076868
 30
0.0
 10
153.7686448134926
 20
165.893387396742
 30
0.0
 10
153.909872908092
 20
166.1420875734465
 30
0.0
 10
154.0273680032099
 20
166.4016267785431
 30
0.0
 10
154.1193544270154
 20
166.6692785372105
 30
0.0
 10
154.1859914291049
 20
166.9436352212897
 30
0.0
 10
154.2254890767164
 20
167.2220531929717
 30
0.0
 10
154.2404889800877
 20
167.5029152365721
 30
0.0
 10
154.2277866824333
 20
167.6895338525233
 30
0.0
 10
154.2214355364113
 20
167.7828431589643
 30
0.0
 11
154.2214355364113
 21
167.7828431589643
 31
0.0
 11
154.1815027190735
 21
168.0611351225496
 31
0.0
 11
154.1153737669215
 21
168.3343749985273
 31
0.0
 11
154.023231464253
 21
168.6023461694426
 31
0.0
 11
153.9065160039428
 21
168.860535530401
 31
0.0
 11
153.764934765294
 21
169.1098910010446
 31
0.0
 11
153.6012776240609
 21
169.3453079486921
 31
0.0
 11
153.4146124860769
 21
169.5683319165929
 31
0.0
 11
153.2090039795683
 21
169.7739742651951
 31
0.0
 11
152.9830380741461
 21
169.9638019389886
 31
0.0
 11
152.7416654397715
 21
170.1335536491679
 31
0.0
 11
152.4833986112916
 21
170.2843964742681
 31
0.0
 11
152.2134829428752
 21
170.4131802415384
 31
0.0
 11
151.9308846723741
 21
170.5204990572914
 31
0.0
 11
151.6404954607769
 21
170.604416588061
 31
0.0
 11
151.3422367083951
 21
170.665043659577
 31
0.0
 11
151.0400789278418
 21
170.7014974532904
 31
0.0
 11
150.7352532338413
 21
170.7137098122297
 31
0.0
 11
150.4304275398408
 21
170.7014974532904
 31
0.0
 11
150.1282697592874
 21
170.665043659577
 31
0.0
 11
149.8300110069055
 21
170.6044165880611
 31
0.0
 11
149.5396217953082
 21
170.5204990572915
 31
0.0
 11
149.2570235248072
 21
170.4131802415384
 31
0.0
 11
148.9871078563907
 21
170.2843964742681
 31
0.0
 11
148.7288410279109
 21
170.133553649168
 31
0.0
 11
148.4874683935363
 21
169.9638019389886
 31
0.0
 11
148.2615024881143
 21
169.773974265195
 31
0.0
 11
148.0558939816058
 21
169.5683319165927
 31
0.0
 11
147.8692288436216
 21
169.345307948692
 31
0.0
 11
147.7055717023883
 21
169.1098910010446
 31
0.0
 11
147.5639904637394
 21
168.8605355304011
 31
0.0
 11
147.4472750034292
 21
168.6023461694427
 31
0.0
 11
147.3551327007607
 21
168.3343749985274
 31
0.0
 11
147.2890037486087
 21
168.0611351225496
 31
0.0
 11
147.2490709312714
 21
167.7828431589643
 31
0.0
 11
147.2356907250915
 21
167.5028030730531
 31
0.0
 11
147.2490709312714
 21
167.222762987142
 31
0.0
 11
147.2890037486088
 21
166.9444710235568
 31
0.0
 11
147.3551327007607
 21
166.671231147579
 31
0.0
 11
147.4472750034292
 21
166.4032599766637
 31
0.0
 11
147.5639904637394
 21
166.1450706157053
 31
0.0
 11
147.7055717023882
 21
165.8957151450618
 31
0.0
 11
147.8692288436215
 21
165.6602981974143
 31
0.0
 11
148.0558939816055
 21
165.4372742295137
 31
0.0
 11
148.2615024881141
 21
165.2316318809113
 31
0.0
 11
148.4874683935362
 21
165.0418042071178
 31
0.0
 11
148.7288410279107
 21
164.8720524969382
 31
0.0
 11
148.9871078563905
 21
164.721209671838
 31
0.0
 11
149.257023524807
 21
164.5924259045678
 31
0.0
 11
149.5396217953081
 21
164.4851070888149
 31
0.0
 11
149.8300110069054
 21
164.4011895580454
 31
0.0
 11
150.1282697592873
 21
164.3405624865295
 31
0.0
 11
150.4304275398408
 21
164.304108692816
 31
0.0
 11
150.7352532338414
 21
164.2918963338765
 31
0.0
 11
151.040078927842
 21
164.304108692816
 31
0.0
 11
151.3422367083953
 21
164.3405624865295
 31
0.0
 11
151.6404954607771
 21
164.4011895580454
 31
0.0
 11
151.9308846723743
 21
164.4851070888149
 31
0.0
 11
152.2134829428755
 21
164.5924259045679
 31
0.0
 11
152.483398611292
 21
164.7212096718381
 31
0.0
 11
152.7416654397718
 21
164.8720524969383
 31
0.0
 11
152.9830380741464
 21
165.0418042071177
 31
0.0
 11
153.2090039795685
 21
165.2316318809113
 31
0.0
 11
153.4146124860771
 21
165.4372742295135
 31
0.0
 11
153.601277624061
 21
165.6602981974143
 31
0.0
 11
153.764934765294
 21
165.8957151450618
 31
0.0
 11
153.9065160039428
 21
166.1450706157054
 31
0.0
 11
154.023231464253
 21
166.4032599766637
 31
0.0
 11
154.1153737669216
 21
166.671231147579
 31
0.0
 11
154.1815027190738
 21
166.9444710235567
 31
0.0
 11
154.2214355364115
 21
167.222762987142
 31
0.0
 11
154.2348157425915
 21
167.5028030730532
 31
0.0
 11
154.2214355364113
 21
167.7828431589643
 31
0.0
  0
SPLINE
  5
3CE
330
68
100
AcDbEntity
  8
1
  6
Continuous
 62
     7
100
AcDbSpline
210
0.0
220
0.0
230
1.0
 70
    11
 71
     3
 72
    79
 73
    75
 74
    73
 42
0.000000001
 43
0.0000000001
 44
0.00000001
 40
0.0
 40
0.0
 40
0.0
 40
0.0
 40
0.2811423870947291
 40
0.5622705941690715
 40
0.8456409395401528
 40
1.128985685267231
 40
1.415731911007565
 40
1.702445704169875
 40
1.993278240268791
 40
2.284076509745496
 40
2.579195360692049
 40
2.874282452508611
 40
3.173373262450651
 40
3.47243801593299
 40
3.774727795290032
 40
4.076999272896293
 40
4.38135749137856
 40
4.685706310011263
 40
4.990776540294853
 40
5.295846770567878
 40
5.600195589169036
 40
5.904553807598235
 40
6.206825285129848
 40
6.509115064389474
 40
6.808179817751969
 40
7.107270627549241
 40
7.402357719196864
 40
7.697476569946341
 40
7.98827483919847
 40
8.279107375038501
 40
8.565821167904334
 40
8.85256739329336
 40
9.135912138582203
 40
9.41928248331454
 40
9.700410688990129
 40
9.981553084909763
 40
10.26191263891206
 40
10.54227219291325
 40
10.82341458882961
 40
11.10454279449984
 40
11.38791313922491
 40
11.67125788450444
 40
11.95800410988226
 40
12.24471790273529
 40
12.53555043856088
 40
12.82634870779729
 40
13.12146755852969
 40
13.41655465015923
 40
13.7156454599372
 40
14.01471021327958
 40
14.31699999251827
 40
14.6192714700283
 40
14.92362968843534
 40
15.22797850701383
 40
15.53304873726374
 40
15.83811896752383
 40
16.14246778613247
 40
16.44682600459019
 40
16.74909748217156
 40
17.05138726150328
 40
17.35045201495987
 40
17.64954282487524
 40
17.94462991666415
 40
18.23974876758124
 40
18.53054703702565
 40
18.82137957308701
 40
19.10809336620214
 40
19.39483959187492
 40
19.67818433748519
 40
19.96155468259233
 40
20.24268288872895
 40
20.52382528530602
 40
20.80418484072748
 40
21.08454438591979
 40
21.08454438591979
 40
21.08454438591979
 40
21.08454438591979
 10
154.2214355364113
 20
189.7351089892677
 30
0.0
 10
154.2099858460506
 20
189.6420245539424
 30
0.0
 10
154.1870870481281
 20
189.4558603775219
 30
0.0
 10
154.1190582632284
 20
189.181657205115
 30
0.0
 10
154.0274475872499
 20
188.9139640021897
 30
0.0
 10
153.90985130078
 20
188.6544359579853
 30
0.0
 10
153.7686506296888
 20
188.4057327564653
 30
0.0
 10
153.6038492614311
 20
188.1689482525746
 30
0.0
 10
153.417795223592
 20
187.9467176700088
 30
0.0
 10
153.2107962516835
 20
187.7398881390573
 30
0.0
 10
152.9856256033571
 20
187.5507979740883
 30
0.0
 10
152.7427910554256
 20
187.3801709203584
 30
0.0
 10
152.4853546074341
 20
187.2298723922051
 30
0.0
 10
152.2141106192988
 20
187.1005652217497
 30
0.0
 10
151.9321927089018
 20
186.9935456729764
 30
0.0
 10
151.6407919845139
 20
186.9094090533153
 30
0.0
 10
151.3428912826159
 20
186.8488721123417
 30
0.0
 10
151.0401634628241
 20
186.8123894762337
 30
0.0
 10
150.7352532434384
 20
186.8001639480581
 30
0.0
 10
150.4303430240434
 20
186.8123894758813
 30
0.0
 10
150.127615204258
 20
186.8488721116371
 30
0.0
 10
149.8297145022801
 20
186.9094090522494
 30
0.0
 10
149.5383137780955
 20
186.9935456715726
 30
0.0
 10
149.2563958668147
 20
187.1005652199011
 30
0.0
 10
148.9851518817764
 20
187.2298723902857
 30
0.0
 10
148.7277154220919
 20
187.3801709169497
 30
0.0
 10
148.4848809169837
 20
187.5507979743891
 30
0.0
 10
148.2597101097378
 20
187.7398881237849
 30
0.0
 10
148.0527117222711
 20
187.9467177101675
 30
0.0
 10
147.8666555195717
 20
188.1689480854818
 30
0.0
 10
147.7018621211693
 20
188.4057333503517
 30
0.0
 10
147.5606319083955
 20
188.6544337289833
 30
0.0
 10
147.4431446283997
 20
188.9139721869553
 30
0.0
 10
147.3511291841698
 20
189.1816267176943
 30
0.0
 10
147.2845996736097
 20
189.4559731314715
 30
0.0
 10
147.2447018777397
 20
189.7344293320514
 30
0.0
 10
147.2311914453817
 20
190.0151490745849
 30
0.0
 10
147.2447018777152
 20
190.2958688171186
 30
0.0
 10
147.284599673561
 20
190.5743250176988
 30
0.0
 10
147.3511291840968
 20
190.8486714314764
 30
0.0
 10
147.4431446283023
 20
191.1163259622161
 30
0.0
 10
147.5606319082741
 20
191.3758644201886
 30
0.0
 10
147.701862121024
 20
191.6245647988213
 30
0.0
 10
147.8666555194024
 20
191.8613500636921
 30
0.0
 10
148.0527117220782
 20
192.0835804390077
 30
0.0
 10
148.2597101095214
 20
192.2904100253915
 30
0.0
 10
148.4848809167442
 20
192.4795001747884
 30
0.0
 10
148.7277154218292
 20
192.6501272322294
 30
0.0
 10
148.9851518814906
 20
192.8004257588951
 30
0.0
 10
149.2563958665058
 20
192.9297329292812
 30
0.0
 10
149.5383137777637
 20
193.0367524776113
 30
0.0
 10
149.8297145019254
 20
193.1208890969363
 30
0.0
 10
150.1276152038802
 20
193.1814260375508
 30
0.0
 10
150.4303430236428
 20
193.2179086733092
 30
0.0
 10
150.7352532430135
 20
193.2301342011351
 30
0.0
 10
151.0401634623799
 20
193.2179086729629
 30
0.0
 10
151.3428912821325
 20
193.181426036857
 30
0.0
 10
151.6407919840638
 20
193.1208890958941
 30
0.0
 10
151.9321927082149
 20
193.0367524762153
 30
0.0
 10
152.2141106193764
 20
192.9297329275359
 30
0.0
 10
152.4853546045724
 20
192.8004257567677
 30
0.0
 10
152.742791063345
 20
192.6501272298169
 30
0.0
 10
152.9856255714397
 20
192.4795001717098
 30
0.0
 10
153.2107963671973
 20
192.290410023023
 30
0.0
 10
153.4177947964583
 20
192.0835804322473
 30
0.0
 10
153.6038508438247
 20
191.861350071364
 30
0.0
 10
153.7686448134925
 20
191.6245647514901
 30
0.0
 10
153.909872908092
 20
191.3758645747855
 30
0.0
 10
154.0273680032098
 20
191.1163253696889
 30
0.0
 10
154.1193544270154
 20
190.8486736110215
 30
0.0
 10
154.1859914291049
 20
190.5743169269422
 30
0.0
 10
154.2254890767165
 20
190.2958989552604
 30
0.0
 10
154.2404889800877
 20
190.0150369116598
 30
0.0
 10
154.2277866824333
 20
189.8284182957087
 30
0.0
 10
154.2214355364113
 20
189.7351089892677
 30
0.0
 11
154.2214355364113
 21
189.7351089892677
 31
0.0
 11
154.1815027190735
 21
189.4568170256824
 31
0.0
 11
154.1153737669215
 21
189.1835771497046
 31
0.0
 11
154.023231464253
 21
188.9156059787892
 31
0.0
 11
153.9065160039428
 21
188.6574166178309
 31
0.0
 11
153.764934765294
 21
188.4080611471874
 31
0.0
 11
153.6012776240609
 21
188.1726441995398
 31
0.0
 11
153.4146124860769
 21
187.9496202316391
 31
0.0
 11
153.2090039795683
 21
187.7439778830368
 31
0.0
 11
152.9830380741461
 21
187.5541502092433
 31
0.0
 11
152.7416654397715
 21
187.384398499064
 31
0.0
 11
152.4833986112916
 21
187.2335556739638
 31
0.0
 11
152.2134829428752
 21
187.1047719066936
 31
0.0
 11
151.9308846723741
 21
186.9974530909405
 31
0.0
 11
151.6404954607769
 21
186.9135355601709
 31
0.0
 11
151.3422367083951
 21
186.8529084886551
 31
0.0
 11
151.0400789278418
 21
186.8164546949417
 31
0.0
 11
150.7352532338413
 21
186.8042423360023
 31
0.0
 11
150.4304275398408
 21
186.8164546949417
 31
0.0
 11
150.1282697592874
 21
186.852908488655
 31
0.0
 11
149.8300110069055
 21
186.9135355601709
 31
0.0
 11
149.5396217953082
 21
186.9974530909404
 31
0.0
 11
149.2570235248072
 21
187.1047719066935
 31
0.0
 11
148.9871078563907
 21
187.2335556739638
 31
0.0
 11
148.7288410279109
 21
187.384398499064
 31
0.0
 11
148.4874683935363
 21
187.5541502092433
 31
0.0
 11
148.2615024881143
 21
187.7439778830368
 31
0.0
 11
148.0558939816058
 21
187.9496202316392
 31
0.0
 11
147.8692288436216
 21
188.1726441995399
 31
0.0
 11
147.7055717023883
 21
188.4080611471873
 31
0.0
 11
147.5639904637394
 21
188.6574166178309
 31
0.0
 11
147.4472750034292
 21
188.9156059787894
 31
0.0
 11
147.3551327007607
 21
189.1835771497046
 31
0.0
 11
147.2890037486087
 21
189.4568170256823
 31
0.0
 11
147.2490709312714
 21
189.7351089892676
 31
0.0
 11
147.2356907250915
 21
190.0151490751788
 31
0.0
 11
147.2490709312714
 21
190.29518916109
 31
0.0
 11
147.2890037486088
 21
190.5734811246752
 31
0.0
 11
147.3551327007607
 21
190.8467210006529
 31
0.0
 11
147.4472750034292
 21
191.1146921715682
 31
0.0
 11
147.5639904637394
 21
191.3728815325267
 31
0.0
 11
147.7055717023882
 21
191.6222370031702
 31
0.0
 11
147.8692288436215
 21
191.8576539508177
 31
0.0
 11
148.0558939816055
 21
192.0806779187184
 31
0.0
 11
148.2615024881141
 21
192.2863202673207
 31
0.0
 11
148.4874683935362
 21
192.4761479411142
 31
0.0
 11
148.7288410279107
 21
192.6458996512937
 31
0.0
 11
148.9871078563905
 21
192.7967424763939
 31
0.0
 11
149.257023524807
 21
192.9255262436641
 31
0.0
 11
149.5396217953081
 21
193.032845059417
 31
0.0
 11
149.8300110069054
 21
193.1167625901865
 31
0.0
 11
150.1282697592873
 21
193.1773896617024
 31
0.0
 11
150.4304275398408
 21
193.2138434554159
 31
0.0
 11
150.7352532338414
 21
193.2260558143553
 31
0.0
 11
151.040078927842
 21
193.2138434554159
 31
0.0
 11
151.3422367083953
 21
193.1773896617024
 31
0.0
 11
151.6404954607771
 21
193.1167625901866
 31
0.0
 11
151.9308846723743
 21
193.0328450594171
 31
0.0
 11
152.2134829428755
 21
192.9255262436641
 31
0.0
 11
152.483398611292
 21
192.7967424763939
 31
0.0
 11
152.7416654397718
 21
192.6458996512937
 31
0.0
 11
152.9830380741464
 21
192.4761479411142
 31
0.0
 11
153.2090039795685
 21
192.2863202673207
 31
0.0
 11
153.4146124860771
 21
192.0806779187184
 31
0.0
 11
153.601277624061
 21
191.8576539508177
 31
0.0
 11
153.764934765294
 21
191.6222370031701
 31
0.0
 11
153.9065160039428
 21
191.3728815325266
 31
0.0
 11
154.023231464253
 21
191.1146921715682
 31
0.0
 11
154.1153737669216
 21
190.8467210006529
 31
0.0
 11
154.1815027190738
 21
190.5734811246753
 31
0.0
 11
154.2214355364115
 21
190.29518916109
 31
0.0
 11
154.2348157425915
 21
190.0151490751788
 31
0.0
 11
154.2214355364113
 21
189.7351089892677
 31
0.0
  0
ENDBLK
  5
6A
330
68
100
AcDbEntity
  8
0
100
AcDbBlockEnd
  0
BLOCK
  5
401
330
3FA
100
AcDbEntity
  8
0
100
AcDbBlockBegin
  2
*D13
 70
     1
 10
0.0
 20
0.0
 30
0.0
  3
*D13
  1

  0
LINE
  5
3FB
330
3FA
100
AcDbEntity
  8
1
  6
Continuous
 62
     2
100
AcDbLine
 10
41.71604763601732
 20
274.5302817373486
 30
0.0
 11
41.71604763601732
 21
231.5313567373487
 31
0.0
  0
LINE
  5
3FC
330
3FA
100
AcDbEntity
  8
1
  6
Continuous
 62
     2
100
AcDbLine
 10
52.11899943690632
 20
231.5313567373487
 30
0.0
 11
40.71604763601732
 21
231.5313567373487
 31
0.0
  0
LINE
  5
3FD
330
3FA
100
AcDbEntity
  8
1
  6
Continuous
 62
     2
100
AcDbLine
 10
52.11899943690632
 20
274.5302817373486
 30
0.0
 11
40.71604763601732
 21
274.5302817373486
 31
0.0
  0
SOLID
  5
3FE
330
3FA
100
AcDbEntity
  8
1
 62
     2
100
AcDbTrace
 10
42.17683137757321
 20
271.0302817373486
 30
0.0
 11
41.25526389446144
 21
271.0302817373486
 31
0.0
 12
41.71604763601732
 22
274.5302817373486
 32
0.0
 13
41.71604763601732
 23
274.5302817373486
 33
0.0
  0
SOLID
  5
3FF
330
3FA
100
AcDbEntity
  8
1
 62
     2
100
AcDbTrace
 10
41.25526389446144
 20
235.0313567373487
 30
0.0
 11
42.17683137757321
 21
235.0313567373487
 31
0.0
 12
41.71604763601732
 22
231.5313567373487
 32
0.0
 13
41.71604763601732
 23
231.5313567373487
 33
0.0
  0
MTEXT
  5
400
330
3FA
100
AcDbEntity
  8
1
 62
     7
100
AcDbMText
 10
40.71604763601732
 20
238.16606393471
 30
0.0
 40
3.5
 41
0.0
 71
     7
 72
     1
  1
{\Fgdt;n}43
  7
CONVERTER_12
 11
0.0
 21
1.0
 31
0.0
 73
     1
 44
0.60024009603842
  0
ENDBLK
  5
402
330
3FA
100
AcDbEntity
  8
0
100
AcDbBlockEnd
  0
BLOCK
  5
40C
330
405
100
AcDbEntity
  8
0
100
AcDbBlockBegin
  2
*D14
 70
     1
 10
0.0
 20
0.0
 30
0.0
  3
*D14
  1

  0
LINE
  5
406
330
405
100
AcDbEntity
  8
1
  6
Continuous
 62
     2
100
AcDbLine
 10
121.8059994369063
 20
218.7589760741147
 30
0.0
 11
179.3059994369065
 21
218.7589760741147
 31
0.0
  0
LINE
  5
407
330
405
100
AcDbEntity
  8
1
  6
Continuous
 62
     2
100
AcDbLine
 10
179.3059994369065
 20
178.7589760741149
 30
0.0
 11
179.3059994369065
 21
219.7589760741147
 31
0.0
  0
LINE
  5
408
330
405
100
AcDbEntity
  8
1
  6
Continuous
 62
     2
100
AcDbLine
 10
121.8059994369063
 20
211.7589760741147
 30
0.0
 11
121.8059994369063
 21
219.7589760741147
 31
0.0
  0
SOLID
  5
409
330
405
100
AcDbEntity
  8
1
 62
     2
100
AcDbTrace
 10
125.3059994369063
 20
219.2197598156706
 30
0.0
 11
125.3059994369063
 21
218.2981923325588
 31
0.0
 12
121.8059994369063
 22
218.7589760741147
 32
0.0
 13
121.8059994369063
 23
218.7589760741147
 33
0.0
  0
SOLID
  5
40A
330
405
100
AcDbEntity
  8
1
 62
     2
100
AcDbTrace
 10
175.8059994369065
 20
218.2981923325588
 30
0.0
 11
175.8059994369065
 21
219.2197598156706
 31
0.0
 12
179.3059994369065
 22
218.7589760741147
 32
0.0
 13
179.3059994369065
 23
218.7589760741147
 33
0.0
  0
MTEXT
  5
40B
330
405
100
AcDbEntity
  8
1
 62
     7
100
AcDbMText
 10
141.1059994369064
 20
219.7589760741147
 30
0.0
 40
3.5
 41
0.0
 71
     7
 72
     1
  1
58リフト5
  7
CONVERTER_11
 11
0.9999999999970619
 21
2.424068405545306E-6
 31
0.0
 73
     1
 44
0.45454545454545
  0
ENDBLK
  5
40D
330
405
100
AcDbEntity
  8
0
100
AcDbBlockEnd
  0
BLOCK
  5
417
330
410
100
AcDbEntity
  8
0
100
AcDbBlockBegin
  2
*D15
 70
     1
 10
0.0
 20
0.0
 30
0.0
  3
*D15
  1

  0
LINE
  5
411
330
410
100
AcDbEntity
  8
1
  6
Continuous
 62
     2
100
AcDbLine
 10
52.11899943690634
 20
218.7589760741147
 30
0.0
 11
121.8059994369063
 21
218.7589760741147
 31
0.0
  0
LINE
  5
412
330
410
100
AcDbEntity
  8
1
  6
Continuous
 62
     2
100
AcDbLine
 10
52.11899943690634
 20
200.2584385741154
 30
0.0
 11
52.11899943690634
 21
219.7589760741147
 31
0.0
  0
LINE
  5
413
330
410
100
AcDbEntity
  8
1
  6
Continuous
 62
     2
100
AcDbLine
 10
121.8059994369063
 20
211.7589760741147
 30
0.0
 11
121.8059994369063
 21
219.7589760741147
 31
0.0
  0
SOLID
  5
414
330
410
100
AcDbEntity
  8
1
 62
     2
100
AcDbTrace
 10
55.61899943690634
 20
219.2197598156706
 30
0.0
 11
55.61899943690634
 21
218.2981923325588
 31
0.0
 12
52.11899943690634
 22
218.7589760741147
 32
0.0
 13
52.11899943690634
 23
218.7589760741147
 33
0.0
  0
SOLID
  5
415
330
410
100
AcDbEntity
  8
1
 62
     2
100
AcDbTrace
 10
118.3059994369063
 20
218.2981923325588
 30
0.0
 11
118.3059994369063
 21
219.2197598156706
 31
0.0
 12
121.8059994369063
 22
218.7589760741147
 32
0.0
 13
121.8059994369063
 23
218.7589760741147
 33
0.0
  0
MTEXT
  5
416
330
410
100
AcDbEntity
  8
1
 62
     7
100
AcDbMText
 10
74.18749943690631
 20
219.7589760741147
 30
0.0
 40
3.5
 41
0.0
 71
     7
 72
     1
  1
最大70最小65
  7
CONVERTER_11
 11
0.9999999999970619
 21
2.424068405545306E-6
 31
0.0
 73
     1
 44
0.45454545454545
  0
ENDBLK
  5
418
330
410
100
AcDbEntity
  8
0
100
AcDbBlockEnd
  0
BLOCK
  5
422
330
41B
100
AcDbEntity
  8
0
100
AcDbBlockBegin
  2
*D16
 70
     1
 10
0.0
 20
0.0
 30
0.0
  3
*D16
  1

  0
LINE
  5
41C
330
41B
100
AcDbEntity
  8
1
  6
Continuous
 62
     2
100
AcDbLine
 10
55.47244696115818
 20
122.4998375
 30
0.0
 11
55.47244696115818
 21
57.49999999999999
 31
0.0
  0
LINE
  5
41D
330
41B
100
AcDbEntity
  8
1
  6
Continuous
 62
     2
100
AcDbLine
 10
80.102017157664
 20
57.49999999999999
 30
0.0
 11
54.47244696115818
 21
57.49999999999999
 31
0.0
  0
LINE
  5
41E
330
41B
100
AcDbEntity
  8
1
  6
Continuous
 62
     2
100
AcDbLine
 10
83.76398465766349
 20
122.4998375
 30
0.0
 11
54.47244696115818
 21
122.4998375
 31
0.0
  0
SOLID
  5
41F
330
41B
100
AcDbEntity
  8
1
 62
     2
100
AcDbTrace
 10
55.93323070271406
 20
118.9998375
 30
0.0
 11
55.01166321960229
 21
118.9998375
 31
0.0
 12
55.47244696115818
 22
122.4998375
 32
0.0
 13
55.47244696115818
 23
122.4998375
 33
0.0
  0
SOLID
  5
420
330
41B
100
AcDbEntity
  8
1
 62
     2
100
AcDbTrace
 10
55.01166321960229
 20
60.99999999999999
 30
0.0
 11
55.93323070271406
 21
60.99999999999999
 31
0.0
 12
55.47244696115818
 22
57.49999999999999
 32
0.0
 13
55.47244696115818
 23
57.49999999999999
 33
0.0
  0
MTEXT
  5
421
330
41B
100
AcDbEntity
  8
1
 62
     7
100
AcDbMText
 10
54.47244696115818
 20
87.37491875
 30
0.0
 40
3.5
 41
0.0
 71
     7
 72
     1
  1
65
  7
CONVERTER_12
 11
0.0
 21
1.0
 31
0.0
 73
     1
 44
0.60024009603842
  0
ENDBLK
  5
423
330
41B
100
AcDbEntity
  8
0
100
AcDbBlockEnd
  0
ENDSEC
  0
SECTION
  2
ENTITIES
  0
INSERT
  5
6B
330
1F
100
AcDbEntity
  8
1
100
AcDbBlockReference
  2
開示A4
 10
0.0
 20
0.0
 30
0.0
  0
INSERT
  5
6C
330
1F
100
AcDbEntity
  8
1
100
AcDbBlockReference
  2
42-15
 10
126.7834304579283
 20
68.45353723684673
 30
0.0
  0
INSERT
  5
6D
330
1F
100
AcDbEntity
  8
0
100
AcDbBlockReference
  2
21-1A
 10
110.7459037119152
 20
63.31655515397961
 30
0.0
  0
INSERT
  5
6E
330
1F
100
AcDbEntity
  8
1
100
AcDbBlockReference
  2
V2110-2-0-13
 10
-3.35228368400942
 20
311.4599379684382
 30
0.0
  0
INSERT
  5
6F
330
1F
100
AcDbEntity
  8
1
100
AcDbBlockReference
  2
36-54-M11
 10
0.64771631599058
 20
260.4599379684382
 30
0.0
  0
INSERT
  5
70
330
1F
100
AcDbEntity
  8
1
100
AcDbBlockReference
  2
H86F-B__1
 10
-3.94926164237339
 20
187.8331897463125
 30
0.0
  0
INSERT
  5
71
330
1F
100
AcDbEntity
  8
1
100
AcDbBlockReference
  2
H86F-B__2
 10
-3.94926164237339
 20
169.6847624019174
 30
0.0
  0
INSERT
  5
72
330
1F
100
AcDbEntity
  8
1
100
AcDbBlockReference
  2
H86F-A
 10
88.36022329728512
 20
181.7322491767048
 30
0.0
  0
INSERT
  5
73
330
1F
100
AcDbEntity
  8
1
100
AcDbBlockReference
  2
72-207__3
 10
66.88099943690605
 20
173.0432084091376
 30
0.0
  0
INSERT
  5
74
330
1F
100
AcDbEntity
  8
0
100
AcDbBlockReference
  2
72-207__4
 10
117.957912305964
 20
273.4058909552157
 30
0.0
  0
INSERT
  5
75
330
1F
100
AcDbEntity
  8
0
100
AcDbBlockReference
  2
72-206
 10
91.8111885737398
 20
178.7589760741149
 30
0.0
  0
INSERT
  5
76
330
1F
100
AcDbEntity
  8
1
100
AcDbBlockReference
  2
37-1-13
 10
119.8920403300561
 20
-14.60953667132827
 30
0.0
  0
LINE
  5
3CF
330
1F
100
AcDbEntity
  8
0
  6
Continuous
 62
     7
100
AcDbLine
 10
155.812665011512
 20
140.9898012736333
 30
0.0
 11
154.812665011512
 21
140.9898012736333
 31
0.0
  0
LINE
  5
3D0
330
1F
100
AcDbEntity
  8
0
  6
Continuous
 62
     7
100
AcDbLine
 10
154.812665011512
 20
140.9898012736333
 30
0.0
 11
154.812665011512
 21
143.7422139755255
 31
0.0
  0
LINE
  5
3D1
330
1F
100
AcDbEntity
  8
0
  6
Continuous
 62
     7
100
AcDbLine
 10
155.812665011512
 20
140.9898012736333
 30
0.0
 11
155.812665011512
 21
143.7422139755255
 31
0.0
  0
LINE
  5
3D2
330
1F
100
AcDbEntity
  8
0
  6
Continuous
 62
     7
100
AcDbLine
 10
155.312665011512
 20
145.9898012736333
 30
0.0
 11
154.0626864839264
 21
143.3092136707375
 31
0.0
  0
LINE
  5
3D3
330
1F
100
AcDbEntity
  8
0
  6
Continuous
 62
     7
100
AcDbLine
 10
154.0626864839264
 20
143.3092136707375
 30
0.0
 11
154.812665011512
 21
143.7422139755255
 31
0.0
  0
LINE
  5
3D4
330
1F
100
AcDbEntity
  8
0
  6
Continuous
 62
     7
100
AcDbLine
 10
156.5626435390976
 20
143.3092136707375
 30
0.0
 11
155.312665011512
 21
145.9898012736333
 31
0.0
  0
LINE
  5
3D5
330
1F
100
AcDbEntity
  8
0
  6
Continuous
 62
     7
100
AcDbLine
 10
155.812665011512
 20
143.7422139755255
 30
0.0
 11
156.5626435390976
 21
143.3092136707375
 31
0.0
  0
LINE
  5
3D6
330
1F
100
AcDbEntity
  8
1
  6
Continuous
 62
     2
100
AcDbLine
 10
85.6587524340935
 20
44.75381595202072
 30
0.0
 11
101.1587524340935
 21
44.75381595202072
 31
0.0
  0
LINE
  5
3D7
330
1F
100
AcDbEntity
  8
1
  6
DASH_CENTER
 62
     2
100
AcDbLine
 10
27.86899943690843
 20
253.0308192373482
 30
0.0
 11
182.3059994369065
 21
253.0308192373482
 31
0.0
  0
LINE
  5
3D8
330
1F
100
AcDbEntity
  8
1
  6
DASH_CENTER
 62
     2
100
AcDbLine
 10
182.3059994369065
 20
178.7589760741149
 30
0.0
 11
49.11899943690639
 21
178.7589760741154
 31
0.0
  0
LINE
  5
3D9
330
1F
100
AcDbEntity
  8
1
  6
DASH_CENTER
 62
     2
100
AcDbLine
 10
121.8059994369063
 20
211.7589760741147
 30
0.0
 11
121.8059994369063
 21
140.7589760741147
 31
0.0
  0
LINE
  5
3DA
330
1F
100
AcDbEntity
  8
1
  6
DASH_CENTER
 62
     2
100
AcDbLine
 10
121.8059994369061
 20
236.7808192373485
 30
0.0
 11
121.8059994369061
 21
269.2808192373483
 31
0.0
  0
LINE
  5
3DB
330
1F
100
AcDbEntity
  8
1
  6
DASH_CENTER
 62
     2
100
AcDbLine
 10
27.86899943690673
 20
193.7589760741153
 30
0.0
 11
58.86899943690676
 21
193.7589760741153
 31
0.0
  0
LINE
  5
3DC
330
1F
100
AcDbEntity
  8
1
  6
DASH_CENTER
 62
     2
100
AcDbLine
 10
27.86899943690665
 20
163.7589760741149
 30
0.0
 11
58.86899943690669
 21
163.7589760741149
 31
0.0
  0
LINE
  5
3DD
330
1F
100
AcDbEntity
  8
1
  6
DASH_CENTER
 62
     2
100
AcDbLine
 10
93.101984657664
 20
126.5
 30
0.0
 11
93.101984657664
 21
54.5
 31
0.0
  0
LINE
  5
3DE
330
1F
100
AcDbEntity
  8
1
  6
DASH_CENTER
 62
     2
100
AcDbLine
 10
68.60252215766413
 20
92.49999999999997
 30
0.0
 11
117.6014471576639
 21
92.5
 31
0.0
  0
LINE
  5
3DF
330
1F
100
AcDbEntity
  8
1
  6
DASH_CENTER
 62
     2
100
AcDbLine
 10
78.55943371449023
 20
100.8961457017456
 30
0.0
 11
122.546848386331
 21
75.4999999999934
 31
0.0
  0
LINE
  5
3E0
330
1F
100
AcDbEntity
  8
1
  6
DASH_CENTER
 62
     2
100
AcDbLine
 10
63.65712092898889
 20
75.50000000000726
 30
0.0
 11
107.6445356008381
 21
100.8961457017451
 31
0.0
  0
SOLID
  5
3E1
330
1F
100
AcDbEntity
  8
1
 62
     2
100
AcDbTrace
 10
109.9550498627445
 20
140.4974952900912
 30
0.0
 11
109.156949011068
 21
140.9582790316471
 31
0.0
 12
111.3059994369062
 22
143.7589760741147
 32
0.0
 13
111.3059994369062
 23
143.7589760741147
 33
0.0
  0
LEADER
  5
3E2
330
1F
100
AcDbEntity
  8
1
  6
Continuous
 62
     2
100
AcDbLeader
  3
Standard
 71
     0
 76
     3
 10
111.3059994369062
 20
143.7589760741147
 30
0.0
 10
104.1048508935922
 20
131.2862209242441
 30
0.0
 10
88.53004586515362
 20
131.2862209242441
 30
0.0
  0
SOLID
  5
3E3
330
1F
100
AcDbEntity
  8
1
 62
     2
100
AcDbTrace
 10
109.0503766462893
 20
205.4926147303551
 30
0.0
 11
109.8300843244381
 21
205.9838810151383
 31
0.0
 12
111.3059994369065
 22
202.7770139712356
 32
0.0
 13
111.3059994369065
 23
202.7770139712356
 33
0.0
  0
LEADER
  5
3E4
330
1F
100
AcDbEntity
  8
1
  6
Continuous
 62
     2
100
AcDbLeader
  3
Standard
 71
     0
 76
     3
 10
111.3059994369065
 20
202.7770139712356
 30
0.0
 10
106.9501780673686
 20
209.6903061544592
 30
0.0
 10
93.95030209296647
 20
209.6903061544592
 30
0.0
  0
SOLID
  5
3E5
330
1F
100
AcDbEntity
  8
1
 62
     2
100
AcDbTrace
 10
147.156949011068
 20
194.0204568581382
 30
0.0
 11
147.9550498627444
 21
193.5596731165823
 31
0.0
 12
145.8059994369062
 22
190.7589760741147
 32
0.0
 13
145.8059994369062
 23
190.7589760741147
 33
0.0
  0
LEADER
  5
3E6
330
1F
100
AcDbEntity
  8
1
  6
Continuous
 62
     2
100
AcDbLeader
  3
Standard
 71
     0
 76
     3
 10
145.8059994369062
 20
190.7589760741147
 30
0.0
 10
153.5934632302711
 20
204.2472590263258
 30
0.0
 10
134.89377454792
 20
204.2472590263258
 30
0.0
  0
SOLID
  5
3E7
330
1F
100
AcDbEntity
  8
1
 62
     2
100
AcDbTrace
 10
189.8059994369065
 20
179.2197598156708
 30
0.0
 11
189.8059994369065
 21
178.298192332559
 31
0.0
 12
186.3059994369065
 22
178.7589760741149
 32
0.0
 13
186.3059994369065
 23
178.7589760741149
 33
0.0
  0
LEADER
  5
3E8
330
1F
100
AcDbEntity
  8
1
  6
Continuous
 62
     2
100
AcDbLeader
  3
Standard
 71
     0
 76
     2
 10
186.3059994369065
 20
178.7589760741149
 30
0.0
 10
192.3059994369065
 20
178.7589760741149
 30
0.0
  0
CIRCLE
  5
3E9
102
{ACAD_REACTORS
330
3EA
102
}
330
1F
100
AcDbEntity
  8
1
 62
     2
100
AcDbCircle
 10
129.8059994369063
 20
178.7589760741151
 30
0.0
 40
0.875
  0
HATCH
  5
3EA
330
1F
100
AcDbEntity
  8
1
 62
     2
100
AcDbHatch
 10
0.0
 20
0.0
 30
0.0
210
0.0
220
0.0
230
1.0
  2
SOLID
 70
     1
 71
     1
 91
        1
 92
        1
 93
        1
 72
     2
 10
129.8059994369063
 20
178.7589760741151
 40
0.875
 50
0.0
 51
360.0
 73
     1
 97
        1
330
3E9
 75
     0
 76
     1
 98
        0
  0
LEADER
  5
3EB
330
1F
100
AcDbEntity
  8
1
  6
Continuous
 62
     2
100
AcDbLeader
  3
Standard
 71
     0
 76
     3
 10
129.8059994369063
 20
178.7589760741151
 30
0.0
 10
152.4780680788189
 20
139.4898012736333
 30
0.0
 10
158.707496824259
 20
139.4898012736333
 30
0.0
  0
SOLID
  5
3EC
330
1F
100
AcDbEntity
  8
1
 62
     2
100
AcDbTrace
 10
69.4699490110684
 20
185.3834568581384
 30
0.0
 11
70.26804986274487
 21
184.9226731165825
 31
0.0
 12
68.11899943690665
 22
182.1219760741149
 32
0.0
 13
68.11899943690665
 23
182.1219760741149
 33
0.0
  0
LEADER
  5
3ED
330
1F
100
AcDbEntity
  8
1
  6
Continuous
 62
     2
100
AcDbLeader
  3
Standard
 71
     0
 76
     3
 10
68.11899943690665
 20
182.1219760741149
 30
0.0
 10
73.47844994467926
 20
191.4048166542278
 30
0.0
 10
94.8499556831071
 20
191.4048166542278
 30
0.0
  0
MTEXT
  5
3EE
330
1F
100
AcDbEntity
  8
1
 62
     7
100
AcDbMText
 10
57.1012108983688
 20
22.61825614182251
 30
0.0
 40
3.5
 41
0.0
 71
     5
 72
     1
  1
止水栓本体
  7
CONVERTER_11
 73
     1
 44
0.54545454545455
  0
MTEXT
  5
3EF
330
1F
100
AcDbEntity
  8
1
 62
     7
100
AcDbMText
 10
84.16420281389318
 20
194.4048166542278
 30
0.0
 40
3.5
 41
0.0
 71
     5
 72
     1
  1
W1/4山20
  7
CONVERTER_11
 73
     1
 44
0.54545454545455
  0
MTEXT
  5
3F1
330
1F
100
AcDbEntity
  8
1
 62
     7
100
AcDbMText
 10
96.43973025210745
 20
134.3745764725656
 30
0.0
 40
3.5
 41
0.0
 71
     5
 72
     1
  1
Rc1/2
  7
CONVERTER_12
 73
     1
 44
0.7202881152461
  0
MTEXT
  5
3F2
330
1F
100
AcDbEntity
  8
1
 62
     7
100
AcDbMText
 10
144.8632615683532
 20
207.2472590263258
 30
0.0
 40
3.5
 41
0.0
 71
     5
 72
     1
  1
W24山20
  7
CONVERTER_11
 73
     1
 44
0.54545454545455
  0
MTEXT
  5
3F3
330
1F
100
AcDbEntity
  8
1
 62
     7
100
AcDbMText
 10
100.4139007866114
 20
212.6903061544592
 30
0.0
 40
3.5
 41
0.0
 71
     5
 72
     1
  1
PJ1/2
  7
CONVERTER_12
 73
     1
 44
0.7202881152461
  0
MTEXT
  5
3F4
330
1F
100
AcDbEntity
  8
1
 62
     7
100
AcDbMText
 10
85.25
 20
17.0
 30
0.0
 40
3.5
 41
0.0
 71
     5
 72
     1
  1
1
  7
CONVERTER_12
 73
     1
 44
0.7202881152461
  0
MTEXT
  5
3F5
330
1F
100
AcDbEntity
  8
1
 62
     7
100
AcDbMText
 10
93.75
 20
17.0
 30
0.0
 40
3.5
 41
0.0
 71
     5
 72
     1
  1
1
  7
CONVERTER_12
 73
     1
 44
0.7202881152461
  0
MTEXT
  5
3F6
330
1F
100
AcDbEntity
  8
1
 62
     7
100
AcDbMText
 10
195.3059994369065
 20
178.7589760741149
 30
0.0
 40
5.0
 41
0.0
 71
     5
 72
     1
  1
A
  7
CONVERTER_12
 73
     1
 44
0.7202881152461
  0
MTEXT
  5
3F7
330
1F
100
AcDbEntity
  8
1
 62
     7
100
AcDbMText
 10
93.1587524340934
 20
48.25381595202072
 30
0.0
 40
5.0
 41
0.0
 71
     5
 72
     1
  1
矢視A
  7
CONVERTER_11
 73
     1
 44
0.54545454545455
  0
MTEXT
  5
3F8
330
1F
100
AcDbEntity
  8
1
 62
     7
100
AcDbMText
 10
57.0
 20
14.25
 30
0.0
 40
3.5
 41
0.0
 71
     5
 72
     1
  1
V2110-13X48
  7
CONVERTER_12
 73
     1
 44
0.7202881152461
  0
MTEXT
  5
3F9
330
1F
100
AcDbEntity
  8
1
 62
     7
100
AcDbMText
 10
34.0
 20
34.00000000000001
 30
0.0
 40
3.5
 41
0.0
 71
     4
 72
     1
  1
共用形
  7
CONVERTER_11
 73
     1
 44
0.54545454545455
  0
DIMENSION
  5
404
330
1F
100
AcDbEntity
  8
1
100
AcDbDimension
  2
*D13
 10
41.71604763601732
 20
274.5302817373486
 30
0.0
 11
38.96604763601732
 21
242.54106393471
 31
0.0
 70
    32
  1
43
 71
     5
 42
-1.0
 53
90.0
  3
ME10_DIM_10
100
AcDbAlignedDimension
 13
52.11899943690634
 23
231.5313567373487
 33
0.0
 14
52.11899943690634
 24
274.5302817373486
 34
0.0
 50
90.0
100
AcDbRotatedDimension
  0
DIMENSION
  5
40F
330
1F
100
AcDbEntity
  8
1
100
AcDbDimension
  2
*D14
 10
121.8059994369063
 20
218.7589760741147
 30
0.0
 11
150.5559994369064
 21
221.5089760741147
 31
0.0
 70
    32
  1
58リフト5
 71
     5
 42
-1.0
 53
0.00013888888889
  3
ME10_DIM_11
100
AcDbAlignedDimension
 13
179.3059994369065
 23
178.7589760741149
 33
0.0
 14
121.8059994369063
 24
211.7589760741147
 34
0.0
100
AcDbRotatedDimension
  0
DIMENSION
  5
41A
330
1F
100
AcDbEntity
  8
1
100
AcDbDimension
  2
*D15
 10
52.11899943690634
 20
218.7589760741147
 30
0.0
 11
86.96249943690631
 21
221.5089760741147
 31
0.0
 70
    32
  1
最大70最小65
 71
     5
 42
-1.0
 53
0.00013888888889
  3
ME10_DIM_12
100
AcDbAlignedDimension
 13
121.8059994369063
 23
211.7589760741147
 33
0.0
 14
52.11899943690634
 24
200.2584385741154
 34
0.0
100
AcDbRotatedDimension
  0
DIMENSION
  5
425
330
1F
100
AcDbEntity
  8
1
100
AcDbDimension
  2
*D16
 10
55.47244696115818
 20
122.4998375
 30
0.0
 11
52.72244696115818
 21
89.99991875
 31
0.0
 70
    32
  1
<>
 71
     5
 42
-1.0
 53
90.0
  3
ME10_DIM_13
100
AcDbAlignedDimension
 13
80.102017157664
 23
57.5
 33
0.0
 14
83.76398465766349
 24
122.4998375
 34
0.0
 50
90.0
100
AcDbRotatedDimension
  0
ENDSEC
  0
SECTION
  2
OBJECTS
  0
DICTIONARY
  5
C
330
0
100
AcDbDictionary
281
     1
  3
ACAD_GROUP
350
D
  3
ACAD_LAYOUT
350
1A
  3
ACAD_MATERIAL
350
3B
  3
ACAD_MLEADERSTYLE
350
428
  3
ACAD_MLINESTYLE
350
17
  3
ACAD_PLOTSETTINGS
350
19
  3
ACAD_PLOTSTYLENAME
350
E
  3
ACAD_VISUALSTYLE
350
2A
  3
AcDbVariableDictionary
350
426
  0
DICTIONARY
  5
D
102
{ACAD_REACTORS
330
C
102
}
330
C
100
AcDbDictionary
281
     1
  0
DICTIONARY
  5
1A
102
{ACAD_REACTORS
330
C
102
}
330
C
100
AcDbDictionary
281
     1
  3
Layout1
350
1E
  3
Layout2
350
26
  3
Model
350
22
  0
DICTIONARY
  5
3B
102
{ACAD_REACTORS
330
C
102
}
330
C
100
AcDbDictionary
281
     1
  3
ByBlock
350
3D
  3
ByLayer
350
3C
  3
Global
350
3E
  0
DICTIONARY
  5
428
102
{ACAD_REACTORS
330
C
102
}
330
C
100
AcDbDictionary
281
     1
  0
DICTIONARY
  5
17
102
{ACAD_REACTORS
330
C
102
}
330
C
100
AcDbDictionary
281
     1
  3
Standard
350
18
  0
DICTIONARY
  5
19
102
{ACAD_REACTORS
330
C
102
}
330
C
100
AcDbDictionary
281
     1
  0
ACDBDICTIONARYWDFLT
  5
E
102
{ACAD_REACTORS
330
C
102
}
330
C
100
AcDbDictionary
281
     1
  3
Normal
350
F
100
AcDbDictionaryWithDefault
340
F
  0
DICTIONARY
  5
2A
102
{ACAD_REACTORS
330
C
102
}
330
C
100
AcDbDictionary
281
     1
  3
2dWireframe
350
2F
  3
3D Hidden
350
31
  3
3dWireframe
350
30
  3
Basic
350
32
  3
Brighten
350
36
  3
ColorChange
350
3A
  3
Conceptual
350
34
  3
Dim
350
35
  3
Facepattern
350
39
  3
Flat
350
2B
  3
FlatWithEdges
350
2C
  3
Gouraud
350
2D
  3
GouraudWithEdges
350
2E
  3
Linepattern
350
38
  3
Realistic
350
33
  3
Thicken
350
37
  0
DICTIONARY
  5
426
102
{ACAD_REACTORS
330
C
102
}
330
C
100
AcDbDictionary
281
     1
  3
DIMASSOC
350
429
  3
HIDETEXT
350
42A
  0
LAYOUT
  5
1E
102
{ACAD_REACTORS
330
1A
102
}
330
1A
100
AcDbPlotSettings
  1

  2
none_device
  4

  6

 40
0.0
 41
0.0
 42
0.0
 43
0.0
 44
0.0
 45
0.0
 46
0.0
 47
0.0
 48
0.0
 49
0.0
140
0.0
141
0.0
142
1.0
143
1.0
 70
   688
 72
     0
 73
     0
 74
     5
  7

 75
    16
147
1.0
148
0.0
149
0.0
100
AcDbLayout
  1
Layout1
 70
     1
 71
     1
 10
0.0
 20
0.0
 11
12.0
 21
9.0
 12
0.0
 22
0.0
 32
0.0
 14
1.00000000000000E+20
 24
1.00000000000000E+20
 34
1.00000000000000E+20
 15
-1.00000000000000E+20
 25
-1.00000000000000E+20
 35
-1.00000000000000E+20
146
0.0
 13
0.0
 23
0.0
 33
0.0
 16
1.0
 26
0.0
 36
0.0
 17
0.0
 27
1.0
 37
0.0
 76
     0
330
1B
  0
LAYOUT
  5
26
102
{ACAD_REACTORS
330
1A
102
}
330
1A
100
AcDbPlotSettings
  1

  2
none_device
  4

  6

 40
0.0
 41
0.0
 42
0.0
 43
0.0
 44
0.0
 45
0.0
 46
0.0
 47
0.0
 48
0.0
 49
0.0
140
0.0
141
0.0
142
1.0
143
1.0
 70
   688
 72
     0
 73
     0
 74
     5
  7

 75
    16
147
1.0
148
0.0
149
0.0
100
AcDbLayout
  1
Layout2
 70
     1
 71
     2
 10
0.0
 20
0.0
 11
0.0
 21
0.0
 12
0.0
 22
0.0
 32
0.0
 14
0.0
 24
0.0
 34
0.0
 15
0.0
 25
0.0
 35
0.0
146
0.0
 13
0.0
 23
0.0
 33
0.0
 16
1.0
 26
0.0
 36
0.0
 17
0.0
 27
1.0
 37
0.0
 76
     0
330
23
  0
LAYOUT
  5
22
102
{ACAD_REACTORS
330
1A
102
}
330
1A
100
AcDbPlotSettings
  1

  2
none_device
  4

  6

 40
0.0
 41
0.0
 42
0.0
 43
0.0
 44
0.0
 45
0.0
 46
0.0
 47
0.0
 48
0.0
 49
0.0
140
0.0
141
0.0
142
1.0
143
1.0
 70
  1712
 72
     0
 73
     0
 74
     0
  7

 75
     0
147
1.0
148
0.0
149
0.0
100
AcDbLayout
  1
Model
 70
     1
 71
     0
 10
0.0
 20
0.0
 11
12.0
 21
9.0
 12
0.0
 22
0.0
 32
0.0
 14
0.0
 24
0.0
 34
0.0
 15
210.0
 25
297.0
 35
0.0
146
0.0
 13
0.0
 23
0.0
 33
0.0
 16
1.0
 26
0.0
 36
0.0
 17
0.0
 27
1.0
 37
0.0
 76
     0
330
1F
331
29
  0
MATERIAL
  5
3D
102
{ACAD_REACTORS
330
3B
102
}
102
{ACAD_XDICTIONARY
360
44D
102
}
330
3B
100
AcDbMaterial
  1
ByBlock
  0
MATERIAL
  5
3C
102
{ACAD_REACTORS
330
3B
102
}
102
{ACAD_XDICTIONARY
360
44B
102
}
330
3B
100
AcDbMaterial
  1
ByLayer
  0
MATERIAL
  5
3E
102
{ACAD_REACTORS
330
3B
102
}
102
{ACAD_XDICTIONARY
360
44F
102
}
330
3B
100
AcDbMaterial
  1
Global
  0
MLINESTYLE
  5
18
102
{ACAD_REACTORS
330
17
102
}
330
17
100
AcDbMlineStyle
  2
Standard
 70
     0
  3

 62
   256
 51
90.0
 52
90.0
 71
     2
 49
0.5
 62
   256
  6
BYLAYER
 49
-0.5
 62
   256
  6
BYLAYER
  0
ACDBPLACEHOLDER
  5
F
102
{ACAD_REACTORS
330
E
102
}
330
E
  0
VISUALSTYLE
  5
2F
102
{ACAD_REACTORS
330
2A
102
}
102
{ACAD_XDICTIONARY
360
433
102
}
330
2A
100
AcDbVisualStyle
  2
2dWireframe
 70
     4
 71
     0
 72
     2
 73
     0
 90
        0
 40
-0.6
 41
-30.0
 62
     5
 63
     7
 74
     1
 91
        4
 64
     7
 65
   257
 75
     1
175
     1
 42
1.0
 92
        0
 66
   257
 43
1.0
 76
     1
 77
     6
 78
     2
 67
     7
 79
     5
170
     0
171
     0
290
     0
174
     0
 93
        1
 44
0.0
173
     0
291
     0
 45
0.0
1001
ACAD
1000
AcDbSavedByObjectVersion
1070
     0
  0
VISUALSTYLE
  5
31
102
{ACAD_REACTORS
330
2A
102
}
102
{ACAD_XDICTIONARY
360
437
102
}
330
2A
100
AcDbVisualStyle
  2
3D Hidden
 70
     6
 71
     1
 72
     2
 73
     2
 90
        0
 40
-0.6
 41
-30.0
 62
     5
 63
     7
 74
     2
 91
        2
 64
     7
 65
   257
 75
     2
175
     1
 42
40.0
 92
        0
 66
   257
 43
1.0
 76
     1
 77
     6
 78
     2
 67
     7
 79
     3
170
     0
171
     0
290
     0
174
     0
 93
        1
 44
0.0
173
     0
291
     0
 45
0.0
1001
ACAD
1000
AcDbSavedByObjectVersion
1070
     0
  0
VISUALSTYLE
  5
30
102
{ACAD_REACTORS
330
2A
102
}
102
{ACAD_XDICTIONARY
360
435
102
}
330
2A
100
AcDbVisualStyle
  2
3dWireframe
 70
     5
 71
     0
 72
     2
 73
     0
 90
        0
 40
-0.6
 41
-30.0
 62
     5
 63
     7
 74
     1
 91
        4
 64
     7
 65
   257
 75
     1
175
     1
 42
1.0
 92
        0
 66
   257
 43
1.0
 76
     1
 77
     6
 78
     2
 67
     7
 79
     5
170
     0
171
     0
290
     0
174
     0
 93
        1
 44
0.0
173
     0
291
     0
 45
0.0
1001
ACAD
1000
AcDbSavedByObjectVersion
1070
     0
  0
VISUALSTYLE
  5
32
102
{ACAD_REACTORS
330
2A
102
}
102
{ACAD_XDICTIONARY
360
439
102
}
330
2A
100
AcDbVisualStyle
  2
Basic
 70
     7
 71
     1
 72
     0
 73
     1
 90
        0
 40
-0.6
 41
-30.0
 62
     5
 63
     7
 74
     0
 91
        4
 64
     7
 65
   257
 75
     1
175
     1
 42
1.0
 92
        8
 66
     7
 43
1.0
 76
     1
 77
     6
 78
     2
 67
     7
 79
     5
170
     0
171
     0
290
     0
174
     0
 93
        1
 44
0.0
173
     0
291
     1
 45
0.0
1001
ACAD
1000
AcDbSavedByObjectVersion
1070
     0
  0
VISUALSTYLE
  5
36
102
{ACAD_REACTORS
330
2A
102
}
102
{ACAD_XDICTIONARY
360
441
102
}
330
2A
100
AcDbVisualStyle
  2
Brighten
 70
    12
 71
     2
 72
     2
 73
     0
 90
        0
 40
-0.6
 41
-30.0
 62
     5
 63
     7
 74
     1
 91
        4
 64
     7
 65
   257
 75
     1
175
     1
 42
1.0
 92
        8
 66
     7
 43
1.0
 76
     1
 77
     6
 78
     2
 67
     7
 79
     5
170
     0
171
     0
290
     0
174
     0
 93
        1
 44
50.0
173
     0
291
     1
 45
0.0
1001
ACAD
1000
AcDbSavedByObjectVersion
1070
     0
  0
VISUALSTYLE
  5
3A
102
{ACAD_REACTORS
330
2A
102
}
102
{ACAD_XDICTIONARY
360
449
102
}
330
2A
100
AcDbVisualStyle
  2
ColorChange
 70
    16
 71
     2
 72
     2
 73
     3
 90
        0
 40
-0.6
 41
-30.0
 62
     5
 63
     8
 74
     1
 91
        4
 64
     7
 65
   257
 75
     1
175
     1
 42
1.0
 92
        8
 66
     8
 43
1.0
 76
     1
 77
     6
 78
     2
 67
     7
 79
     5
170
     0
171
     0
290
     0
174
     0
 93
        1
 44
0.0
173
     0
291
     1
 45
0.0
1001
ACAD
1000
AcDbSavedByObjectVersion
1070
     0
  0
VISUALSTYLE
  5
34
102
{ACAD_REACTORS
330
2A
102
}
102
{ACAD_XDICTIONARY
360
43D
102
}
330
2A
100
AcDbVisualStyle
  2
Conceptual
 70
     9
 71
     3
 72
     2
 73
     0
 90
        0
 40
-0.6
 41
-30.0
 62
     5
 63
     7
 74
     2
 91
        2
 64
     7
 65
   257
 75
     1
175
     1
 42
40.0
 92
        8
 66
     7
 43
1.0
 76
     1
 77
     6
 78
     2
 67
     7
 79
     3
170
     0
171
     0
290
     0
174
     0
 93
        1
 44
0.0
173
     0
291
     0
 45
0.0
1001
ACAD
1000
AcDbSavedByObjectVersion
1070
     0
  0
VISUALSTYLE
  5
35
102
{ACAD_REACTORS
330
2A
102
}
102
{ACAD_XDICTIONARY
360
43F
102
}
330
2A
100
AcDbVisualStyle
  2
Dim
 70
    11
 71
     2
 72
     2
 73
     0
 90
        0
 40
-0.6
 41
-30.0
 62
     5
 63
     7
 74
     1
 91
        4
 64
     7
 65
   257
 75
     1
175
     1
 42
1.0
 92
        8
 66
     7
 43
1.0
 76
     1
 77
     6
 78
     2
 67
     7
 79
     5
170
     0
171
     0
290
     0
174
     0
 93
        1
 44
-50.0
173
     0
291
     1
 45
0.0
1001
ACAD
1000
AcDbSavedByObjectVersion
1070
     0
  0
VISUALSTYLE
  5
39
102
{ACAD_REACTORS
330
2A
102
}
102
{ACAD_XDICTIONARY
360
447
102
}
330
2A
100
AcDbVisualStyle
  2
Facepattern
 70
    15
 71
     2
 72
     2
 73
     0
 90
        0
 40
-0.6
 41
-30.0
 62
     5
 63
     7
 74
     1
 91
        4
 64
     7
 65
   257
 75
     1
175
     1
 42
1.0
 92
        8
 66
     7
 43
1.0
 76
     1
 77
     6
 78
     2
 67
     7
 79
     5
170
     0
171
     0
290
     0
174
     0
 93
        1
 44
0.0
173
     0
291
     1
 45
0.0
1001
ACAD
1000
AcDbSavedByObjectVersion
1070
     0
  0
VISUALSTYLE
  5
2B
102
{ACAD_REACTORS
330
2A
102
}
102
{ACAD_XDICTIONARY
360
42B
102
}
330
2A
100
AcDbVisualStyle
  2
Flat
 70
     0
 71
     2
 72
     1
 73
     1
 90
        2
 40
-0.6
 41
30.0
 62
     5
 63
     7
 74
     0
 91
        4
 64
     7
 65
   257
 75
     1
175
     1
 42
1.0
 92
        8
 66
     7
 43
1.0
 76
     1
 77
     6
 78
     2
 67
     7
 79
     5
170
     0
171
     0
290
     0
174
     0
 93
       13
 44
0.0
173
     0
291
     1
 45
0.0
1001
ACAD
1000
AcDbSavedByObjectVersion
1070
     0
  0
VISUALSTYLE
  5
2C
102
{ACAD_REACTORS
330
2A
102
}
102
{ACAD_XDICTIONARY
360
42D
102
}
330
2A
100
AcDbVisualStyle
  2
FlatWithEdges
 70
     1
 71
     2
 72
     1
 73
     1
 90
        2
 40
-0.6
 41
30.0
 62
     5
 63
     7
 74
     1
 91
        4
 64
     7
 65
   257
 75
     1
175
     1
 42
1.0
 92
        0
 66
   257
 43
1.0
 76
     1
 77
     6
 78
     2
 67
     7
 79
     5
170
     0
171
     0
290
     0
174
     0
 93
       13
 44
0.0
173
     0
291
     1
 45
0.0
1001
ACAD
1000
AcDbSavedByObjectVersion
1070
     0
  0
VISUALSTYLE
  5
2D
102
{ACAD_REACTORS
330
2A
102
}
102
{ACAD_XDICTIONARY
360
42F
102
}
330
2A
100
AcDbVisualStyle
  2
Gouraud
 70
     2
 71
     2
 72
     2
 73
     1
 90
        2
 40
-0.6
 41
30.0
 62
     5
 63
     7
 74
     0
 91
        4
 64
     7
 65
   257
 75
     1
175
     1
 42
1.0
 92
        0
 66
     7
 43
1.0
 76
     1
 77
     6
 78
     2
 67
     7
 79
     5
170
     0
171
     0
290
     0
174
     0
 93
       13
 44
0.0
173
     0
291
     1
 45
0.0
1001
ACAD
1000
AcDbSavedByObjectVersion
1070
     0
  0
VISUALSTYLE
  5
2E
102
{ACAD_REACTORS
330
2A
102
}
102
{ACAD_XDICTIONARY
360
431
102
}
330
2A
100
AcDbVisualStyle
  2
GouraudWithEdges
 70
     3
 71
     2
 72
     2
 73
     1
 90
        2
 40
-0.6
 41
30.0
 62
     5
 63
     7
 74
     1
 91
        4
 64
     7
 65
   257
 75
     1
175
     1
 42
1.0
 92
        0
 66
   257
 43
1.0
 76
     1
 77
     6
 78
     2
 67
     7
 79
     5
170
     0
171
     0
290
     0
174
     0
 93
       13
 44
0.0
173
     0
291
     1
 45
0.0
1001
ACAD
1000
AcDbSavedByObjectVersion
1070
     0
  0
VISUALSTYLE
  5
38
102
{ACAD_REACTORS
330
2A
102
}
102
{ACAD_XDICTIONARY
360
445
102
}
330
2A
100
AcDbVisualStyle
  2
Linepattern
 70
    14
 71
     2
 72
     2
 73
     0
 90
        0
 40
-0.6
 41
-30.0
 62
     5
 63
     7
 74
     1
 91
        4
 64
     7
 65
   257
 75
     7
175
     7
 42
1.0
 92
        8
 66
     7
 43
1.0
 76
     1
 77
     6
 78
     2
 67
     7
 79
     5
170
     0
171
     0
290
     0
174
     0
 93
        1
 44
0.0
173
     0
291
     1
 45
0.0
1001
ACAD
1000
AcDbSavedByObjectVersion
1070
     0
  0
VISUALSTYLE
  5
33
102
{ACAD_REACTORS
330
2A
102
}
102
{ACAD_XDICTIONARY
360
43B
102
}
330
2A
100
AcDbVisualStyle
  2
Realistic
 70
     8
 71
     2
 72
     2
 73
     0
 90
        0
 40
-0.6
 41
-30.0
 62
     5
 63
     7
 74
     1
 91
        0
 64
     7
 65
   257
 75
     1
175
     1
 42
1.0
 92
        8
 66
     8
 43
1.0
 76
     1
 77
     6
 78
     2
 67
     7
 79
     5
170
     0
171
     0
290
     0
174
     0
 93
       13
 44
0.0
173
     0
291
     0
 45
0.0
1001
ACAD
1000
AcDbSavedByObjectVersion
1070
     0
  0
VISUALSTYLE
  5
37
102
{ACAD_REACTORS
330
2A
102
}
102
{ACAD_XDICTIONARY
360
443
102
}
330
2A
100
AcDbVisualStyle
  2
Thicken
 70
    13
 71
     2
 72
     2
 73
     0
 90
        0
 40
-0.6
 41
-30.0
 62
     5
 63
     7
 74
     1
 91
        4
 64
     7
 65
   257
 75
     1
175
     1
 42
1.0
 92
       12
 66
     7
 43
1.0
 76
     1
 77
     6
 78
     2
 67
     7
 79
     5
170
     0
171
     0
290
     0
174
     0
 93
        1
 44
0.0
173
     0
291
     1
 45
0.0
1001
ACAD
1000
AcDbSavedByObjectVersion
1070
     0
  0
DICTIONARYVAR
  5
429
102
{ACAD_REACTORS
330
426
102
}
330
426
100
DictionaryVariables
280
     0
  1
2
  0
DICTIONARYVAR
  5
42A
102
{ACAD_REACTORS
330
426
102
}
330
426
100
DictionaryVariables
280
     0
  1
1
  0
DICTIONARY
  5
44D
330
3D
100
AcDbDictionary
280
     1
281
     1
  3
ACAD_XREC_ROUNDTRIP
360
44E
  0
DICTIONARY
  5
44B
330
3C
100
AcDbDictionary
280
     1
281
     1
  3
ACAD_XREC_ROUNDTRIP
360
44C
  0
DICTIONARY
  5
44F
330
3E
100
AcDbDictionary
280
     1
281
     1
  3
ACAD_XREC_ROUNDTRIP
360
450
  0
DICTIONARY
  5
433
330
2F
100
AcDbDictionary
280
     1
281
     1
  3
ACAD_XREC_ROUNDTRIP
360
434
  0
DICTIONARY
  5
437
330
31
100
AcDbDictionary
280
     1
281
     1
  3
ACAD_XREC_ROUNDTRIP
360
438
  0
DICTIONARY
  5
435
330
30
100
AcDbDictionary
280
     1
281
     1
  3
ACAD_XREC_ROUNDTRIP
360
436
  0
DICTIONARY
  5
439
330
32
100
AcDbDictionary
280
     1
281
     1
  3
ACAD_XREC_ROUNDTRIP
360
43A
  0
DICTIONARY
  5
441
330
36
100
AcDbDictionary
280
     1
281
     1
  3
ACAD_XREC_ROUNDTRIP
360
442
  0
DICTIONARY
  5
449
330
3A
100
AcDbDictionary
280
     1
281
     1
  3
ACAD_XREC_ROUNDTRIP
360
44A
  0
DICTIONARY
  5
43D
330
34
100
AcDbDictionary
280
     1
281
     1
  3
ACAD_XREC_ROUNDTRIP
360
43E
  0
DICTIONARY
  5
43F
330
35
100
AcDbDictionary
280
     1
281
     1
  3
ACAD_XREC_ROUNDTRIP
360
440
  0
DICTIONARY
  5
447
330
39
100
AcDbDictionary
280
     1
281
     1
  3
ACAD_XREC_ROUNDTRIP
360
448
  0
DICTIONARY
  5
42B
330
2B
100
AcDbDictionary
280
     1
281
     1
  3
ACAD_XREC_ROUNDTRIP
360
42C
  0
DICTIONARY
  5
42D
330
2C
100
AcDbDictionary
280
     1
281
     1
  3
ACAD_XREC_ROUNDTRIP
360
42E
  0
DICTIONARY
  5
42F
330
2D
100
AcDbDictionary
280
     1
281
     1
  3
ACAD_XREC_ROUNDTRIP
360
430
  0
DICTIONARY
  5
431
330
2E
100
AcDbDictionary
280
     1
281
     1
  3
ACAD_XREC_ROUNDTRIP
360
432
  0
DICTIONARY
  5
445
330
38
100
AcDbDictionary
280
     1
281
     1
  3
ACAD_XREC_ROUNDTRIP
360
446
  0
DICTIONARY
  5
43B
330
33
100
AcDbDictionary
280
     1
281
     1
  3
ACAD_XREC_ROUNDTRIP
360
43C
  0
DICTIONARY
  5
443
330
37
100
AcDbDictionary
280
     1
281
     1
  3
ACAD_XREC_ROUNDTRIP
360
444
  0
XRECORD
  5
44E
102
{ACAD_REACTORS
330
44D
102
}
330
44D
100
AcDbXrecord
280
     1
102
MATERIAL
148
0.0
149
0.0
149
0.0
 93
        0
 94
      127
282
     0
 72
     1
 77
     1
171
     1
175
     1
179
     1
273
     0
  0
XRECORD
  5
44C
102
{ACAD_REACTORS
330
44B
102
}
330
44B
100
AcDbXrecord
280
     1
102
MATERIAL
148
0.0
149
0.0
149
0.0
 93
        0
 94
      127
282
     0
 72
     1
 77
     1
171
     1
175
     1
179
     1
273
     0
  0
XRECORD
  5
450
102
{ACAD_REACTORS
330
44F
102
}
330
44F
100
AcDbXrecord
280
     1
102
MATERIAL
148
0.0
149
0.0
149
0.0
 93
        0
 94
      127
282
     0
 72
     1
 77
     1
171
     1
175
     1
179
     1
273
     0
  0
XRECORD
  5
434
102
{ACAD_REACTORS
330
433
102
}
330
433
100
AcDbXrecord
280
     1
102
RTVSPropertyOp0
 70
     1
102
RTVSPropertyOp1
 70
     1
102
RTVSPropertyOp2
 70
     1
102
RTVSPropertyOp3
 70
     1
102
RTVSPropertyOp4
 70
     1
102
RTVSPropertyOp5
 70
     1
102
RTVSPropertyOp6
 70
     1
102
RTVSPropertyOp7
 70
     1
102
RTVSPropertyOp8
 70
     1
102
RTVSPropertyOp9
 70
     1
102
RTVSPropertyOp10
 70
     1
102
RTVSPropertyOp11
 70
     1
102
RTVSPropertyOp12
 70
     1
102
RTVSPropertyOp13
 70
     1
102
RTVSPropertyOp14
 70
     1
102
RTVSPropertyOp15
 70
     1
102
RTVSPropertyOp16
 70
     1
102
RTVSPropertyOp17
 70
     1
102
RTVSPropertyOp18
 70
     1
102
RTVSPropertyOp19
 70
     1
102
RTVSPropertyOp20
 70
     1
102
RTVSPropertyOp21
 70
     1
102
RTVSPropertyOp22
 70
     1
102
RTVSPropertyOp23
 70
     1
102
RTVSPropertyOp24
 70
     1
102
RTVSPropertyOp25
 70
     1
102
RTVSPropertyOp26
 70
     1
102
RTVSPropertyOp27
 70
     1
102
RTVSPropertyOp28
 70
     1
102
RTVSPropertyOp29
 70
     1
102
RTVSPropertyOp30
 70
     1
102
RTVSPropertyOp31
 70
     1
102
RTVSPropertyOp32
 70
     1
  0
XRECORD
  5
438
102
{ACAD_REACTORS
330
437
102
}
330
437
100
AcDbXrecord
280
     1
102
RTVSPropertyOp0
 70
     1
102
RTVSPropertyOp1
 70
     1
102
RTVSPropertyOp2
 70
     1
102
RTVSPropertyOp3
 70
     1
102
RTVSPropertyOp4
 70
     1
102
RTVSPropertyOp5
 70
     1
102
RTVSPropertyOp6
 70
     1
102
RTVSPropertyOp7
 70
     1
102
RTVSPropertyOp8
 70
     1
102
RTVSPropertyOp9
 70
     1
102
RTVSPropertyOp10
 70
     1
102
RTVSPropertyOp11
 70
     1
102
RTVSPropertyOp12
 70
     1
102
RTVSPropertyOp13
 70
     1
102
RTVSPropertyOp14
 70
     1
102
RTVSPropertyOp15
 70
     1
102
RTVSPropertyOp16
 70
     1
102
RTVSPropertyOp17
 70
     1
102
RTVSPropertyOp18
 70
     1
102
RTVSPropertyOp19
 70
     1
102
RTVSPropertyOp20
 70
     1
102
RTVSPropertyOp21
 70
     1
102
RTVSPropertyOp22
 70
     1
102
RTVSPropertyOp23
 70
     1
102
RTVSPropertyOp24
 70
     1
102
RTVSPropertyOp25
 70
     1
102
RTVSPropertyOp26
 70
     1
102
RTVSPropertyOp27
 70
     1
102
RTVSPropertyOp28
 70
     1
102
RTVSPropertyOp29
 70
     1
102
RTVSPropertyOp30
 70
     1
102
RTVSPropertyOp31
 70
     1
102
RTVSPropertyOp32
 70
     1
  0
XRECORD
  5
436
102
{ACAD_REACTORS
330
435
102
}
330
435
100
AcDbXrecord
280
     1
102
RTVSPropertyOp0
 70
     1
102
RTVSPropertyOp1
 70
     1
102
RTVSPropertyOp2
 70
     1
102
RTVSPropertyOp3
 70
     1
102
RTVSPropertyOp4
 70
     1
102
RTVSPropertyOp5
 70
     1
102
RTVSPropertyOp6
 70
     1
102
RTVSPropertyOp7
 70
     1
102
RTVSPropertyOp8
 70
     1
102
RTVSPropertyOp9
 70
     1
102
RTVSPropertyOp10
 70
     1
102
RTVSPropertyOp11
 70
     1
102
RTVSPropertyOp12
 70
     1
102
RTVSPropertyOp13
 70
     1
102
RTVSPropertyOp14
 70
     1
102
RTVSPropertyOp15
 70
     1
102
RTVSPropertyOp16
 70
     1
102
RTVSPropertyOp17
 70
     1
102
RTVSPropertyOp18
 70
     1
102
RTVSPropertyOp19
 70
     1
102
RTVSPropertyOp20
 70
     1
102
RTVSPropertyOp21
 70
     1
102
RTVSPropertyOp22
 70
     1
102
RTVSPropertyOp23
 70
     1
102
RTVSPropertyOp24
 70
     1
102
RTVSPropertyOp25
 70
     1
102
RTVSPropertyOp26
 70
     1
102
RTVSPropertyOp27
 70
     1
102
RTVSPropertyOp28
 70
     1
102
RTVSPropertyOp29
 70
     1
102
RTVSPropertyOp30
 70
     1
102
RTVSPropertyOp31
 70
     1
102
RTVSPropertyOp32
 70
     1
  0
XRECORD
  5
43A
102
{ACAD_REACTORS
330
439
102
}
330
439
100
AcDbXrecord
280
     1
102
RTVSPropertyOp0
 70
     1
102
RTVSPropertyOp1
 70
     1
102
RTVSPropertyOp2
 70
     1
102
RTVSPropertyOp3
 70
     1
102
RTVSPropertyOp4
 70
     1
102
RTVSPropertyOp5
 70
     1
102
RTVSPropertyOp6
 70
     1
102
RTVSPropertyOp7
 70
     1
102
RTVSPropertyOp8
 70
     1
102
RTVSPropertyOp9
 70
     1
102
RTVSPropertyOp10
 70
     1
102
RTVSPropertyOp11
 70
     1
102
RTVSPropertyOp12
 70
     1
102
RTVSPropertyOp13
 70
     1
102
RTVSPropertyOp14
 70
     1
102
RTVSPropertyOp15
 70
     1
102
RTVSPropertyOp16
 70
     1
102
RTVSPropertyOp17
 70
     1
102
RTVSPropertyOp18
 70
     1
102
RTVSPropertyOp19
 70
     1
102
RTVSPropertyOp20
 70
     1
102
RTVSPropertyOp21
 70
     1
102
RTVSPropertyOp22
 70
     1
102
RTVSPropertyOp23
 70
     1
102
RTVSPropertyOp24
 70
     1
102
RTVSPropertyOp25
 70
     1
102
RTVSPropertyOp26
 70
     1
102
RTVSPropertyOp27
 70
     1
102
RTVSPropertyOp28
 70
     1
102
RTVSPropertyOp29
 70
     1
102
RTVSPropertyOp30
 70
     1
102
RTVSPropertyOp31
 70
     1
102
RTVSPropertyOp32
 70
     1
  0
XRECORD
  5
442
102
{ACAD_REACTORS
330
441
102
}
330
441
100
AcDbXrecord
280
     1
102
RTVSPropertyOp0
 70
     1
102
RTVSPropertyOp1
 70
     1
102
RTVSPropertyOp2
 70
     1
102
RTVSPropertyOp3
 70
     1
102
RTVSPropertyOp4
 70
     1
102
RTVSPropertyOp5
 70
     1
102
RTVSPropertyOp6
 70
     1
102
RTVSPropertyOp7
 70
     1
102
RTVSPropertyOp8
 70
     1
102
RTVSPropertyOp9
 70
     1
102
RTVSPropertyOp10
 70
     1
102
RTVSPropertyOp11
 70
     1
102
RTVSPropertyOp12
 70
     1
102
RTVSPropertyOp13
 70
     1
102
RTVSPropertyOp14
 70
     1
102
RTVSPropertyOp15
 70
     1
102
RTVSPropertyOp16
 70
     1
102
RTVSPropertyOp17
 70
     1
102
RTVSPropertyOp18
 70
     1
102
RTVSPropertyOp19
 70
     1
102
RTVSPropertyOp20
 70
     1
102
RTVSPropertyOp21
 70
     1
102
RTVSPropertyOp22
 70
     1
102
RTVSPropertyOp23
 70
     1
102
RTVSPropertyOp24
 70
     1
102
RTVSPropertyOp25
 70
     1
102
RTVSPropertyOp26
 70
     1
102
RTVSPropertyOp27
 70
     1
102
RTVSPropertyOp28
 70
     1
102
RTVSPropertyOp29
 70
     1
102
RTVSPropertyOp30
 70
     1
102
RTVSPropertyOp31
 70
     1
102
RTVSPropertyOp32
 70
     1
  0
XRECORD
  5
44A
102
{ACAD_REACTORS
330
449
102
}
330
449
100
AcDbXrecord
280
     1
102
RTVSPropertyOp0
 70
     1
102
RTVSPropertyOp1
 70
     1
102
RTVSPropertyOp2
 70
     1
102
RTVSPropertyOp3
 70
     1
102
RTVSPropertyOp4
 70
     1
102
RTVSPropertyOp5
 70
     1
102
RTVSPropertyOp6
 70
     1
102
RTVSPropertyOp7
 70
     1
102
RTVSPropertyOp8
 70
     1
102
RTVSPropertyOp9
 70
     1
102
RTVSPropertyOp10
 70
     1
102
RTVSPropertyOp11
 70
     1
102
RTVSPropertyOp12
 70
     1
102
RTVSPropertyOp13
 70
     1
102
RTVSPropertyOp14
 70
     1
102
RTVSPropertyOp15
 70
     1
102
RTVSPropertyOp16
 70
     1
102
RTVSPropertyOp17
 70
     1
102
RTVSPropertyOp18
 70
     1
102
RTVSPropertyOp19
 70
     1
102
RTVSPropertyOp20
 70
     1
102
RTVSPropertyOp21
 70
     1
102
RTVSPropertyOp22
 70
     1
102
RTVSPropertyOp23
 70
     1
102
RTVSPropertyOp24
 70
     1
102
RTVSPropertyOp25
 70
     1
102
RTVSPropertyOp26
 70
     1
102
RTVSPropertyOp27
 70
     1
102
RTVSPropertyOp28
 70
     1
102
RTVSPropertyOp29
 70
     1
102
RTVSPropertyOp30
 70
     1
102
RTVSPropertyOp31
 70
     1
102
RTVSPropertyOp32
 70
     1
  0
XRECORD
  5
43E
102
{ACAD_REACTORS
330
43D
102
}
330
43D
100
AcDbXrecord
280
     1
102
RTVSPropertyOp0
 70
     1
102
RTVSPropertyOp1
 70
     1
102
RTVSPropertyOp2
 70
     1
102
RTVSPropertyOp3
 70
     1
102
RTVSPropertyOp4
 70
     1
102
RTVSPropertyOp5
 70
     1
102
RTVSPropertyOp6
 70
     1
102
RTVSPropertyOp7
 70
     1
102
RTVSPropertyOp8
 70
     1
102
RTVSPropertyOp9
 70
     1
102
RTVSPropertyOp10
 70
     1
102
RTVSPropertyOp11
 70
     1
102
RTVSPropertyOp12
 70
     1
102
RTVSPropertyOp13
 70
     1
102
RTVSPropertyOp14
 70
     1
102
RTVSPropertyOp15
 70
     1
102
RTVSPropertyOp16
 70
     1
102
RTVSPropertyOp17
 70
     1
102
RTVSPropertyOp18
 70
     1
102
RTVSPropertyOp19
 70
     1
102
RTVSPropertyOp20
 70
     1
102
RTVSPropertyOp21
 70
     1
102
RTVSPropertyOp22
 70
     1
102
RTVSPropertyOp23
 70
     1
102
RTVSPropertyOp24
 70
     1
102
RTVSPropertyOp25
 70
     1
102
RTVSPropertyOp26
 70
     1
102
RTVSPropertyOp27
 70
     1
102
RTVSPropertyOp28
 70
     1
102
RTVSPropertyOp29
 70
     1
102
RTVSPropertyOp30
 70
     1
102
RTVSPropertyOp31
 70
     1
102
RTVSPropertyOp32
 70
     1
  0
XRECORD
  5
440
102
{ACAD_REACTORS
330
43F
102
}
330
43F
100
AcDbXrecord
280
     1
102
RTVSPropertyOp0
 70
     1
102
RTVSPropertyOp1
 70
     1
102
RTVSPropertyOp2
 70
     1
102
RTVSPropertyOp3
 70
     1
102
RTVSPropertyOp4
 70
     1
102
RTVSPropertyOp5
 70
     1
102
RTVSPropertyOp6
 70
     1
102
RTVSPropertyOp7
 70
     1
102
RTVSPropertyOp8
 70
     1
102
RTVSPropertyOp9
 70
     1
102
RTVSPropertyOp10
 70
     1
102
RTVSPropertyOp11
 70
     1
102
RTVSPropertyOp12
 70
     1
102
RTVSPropertyOp13
 70
     1
102
RTVSPropertyOp14
 70
     1
102
RTVSPropertyOp15
 70
     1
102
RTVSPropertyOp16
 70
     1
102
RTVSPropertyOp17
 70
     1
102
RTVSPropertyOp18
 70
     1
102
RTVSPropertyOp19
 70
     1
102
RTVSPropertyOp20
 70
     1
102
RTVSPropertyOp21
 70
     1
102
RTVSPropertyOp22
 70
     1
102
RTVSPropertyOp23
 70
     1
102
RTVSPropertyOp24
 70
     1
102
RTVSPropertyOp25
 70
     1
102
RTVSPropertyOp26
 70
     1
102
RTVSPropertyOp27
 70
     1
102
RTVSPropertyOp28
 70
     1
102
RTVSPropertyOp29
 70
     1
102
RTVSPropertyOp30
 70
     1
102
RTVSPropertyOp31
 70
     1
102
RTVSPropertyOp32
 70
     1
  0
XRECORD
  5
448
102
{ACAD_REACTORS
330
447
102
}
330
447
100
AcDbXrecord
280
     1
102
RTVSPropertyOp0
 70
     1
102
RTVSPropertyOp1
 70
     1
102
RTVSPropertyOp2
 70
     1
102
RTVSPropertyOp3
 70
     1
102
RTVSPropertyOp4
 70
     1
102
RTVSPropertyOp5
 70
     1
102
RTVSPropertyOp6
 70
     1
102
RTVSPropertyOp7
 70
     1
102
RTVSPropertyOp8
 70
     1
102
RTVSPropertyOp9
 70
     1
102
RTVSPropertyOp10
 70
     1
102
RTVSPropertyOp11
 70
     1
102
RTVSPropertyOp12
 70
     1
102
RTVSPropertyOp13
 70
     1
102
RTVSPropertyOp14
 70
     1
102
RTVSPropertyOp15
 70
     1
102
RTVSPropertyOp16
 70
     1
102
RTVSPropertyOp17
 70
     1
102
RTVSPropertyOp18
 70
     1
102
RTVSPropertyOp19
 70
     1
102
RTVSPropertyOp20
 70
     1
102
RTVSPropertyOp21
 70
     1
102
RTVSPropertyOp22
 70
     1
102
RTVSPropertyOp23
 70
     1
102
RTVSPropertyOp24
 70
     1
102
RTVSPropertyOp25
 70
     1
102
RTVSPropertyOp26
 70
     1
102
RTVSPropertyOp27
 70
     1
102
RTVSPropertyOp28
 70
     1
102
RTVSPropertyOp29
 70
     1
102
RTVSPropertyOp30
 70
     1
102
RTVSPropertyOp31
 70
     1
102
RTVSPropertyOp32
 70
     1
  0
XRECORD
  5
42C
102
{ACAD_REACTORS
330
42B
102
}
330
42B
100
AcDbXrecord
280
     1
102
RTVSPropertyOp0
 70
     1
102
RTVSPropertyOp1
 70
     1
102
RTVSPropertyOp2
 70
     1
102
RTVSPropertyOp3
 70
     1
102
RTVSPropertyOp4
 70
     1
102
RTVSPropertyOp5
 70
     1
102
RTVSPropertyOp6
 70
     1
102
RTVSPropertyOp7
 70
     1
102
RTVSPropertyOp8
 70
     1
102
RTVSPropertyOp9
 70
     1
102
RTVSPropertyOp10
 70
     1
102
RTVSPropertyOp11
 70
     1
102
RTVSPropertyOp12
 70
     1
102
RTVSPropertyOp13
 70
     1
102
RTVSPropertyOp14
 70
     1
102
RTVSPropertyOp15
 70
     1
102
RTVSPropertyOp16
 70
     1
102
RTVSPropertyOp17
 70
     1
102
RTVSPropertyOp18
 70
     1
102
RTVSPropertyOp19
 70
     1
102
RTVSPropertyOp20
 70
     1
102
RTVSPropertyOp21
 70
     1
102
RTVSPropertyOp22
 70
     1
102
RTVSPropertyOp23
 70
     1
102
RTVSPropertyOp24
 70
     1
102
RTVSPropertyOp25
 70
     1
102
RTVSPropertyOp26
 70
     1
102
RTVSPropertyOp27
 70
     1
102
RTVSPropertyOp28
 70
     1
102
RTVSPropertyOp29
 70
     1
102
RTVSPropertyOp30
 70
     1
102
RTVSPropertyOp31
 70
     1
102
RTVSPropertyOp32
 70
     1
  0
XRECORD
  5
42E
102
{ACAD_REACTORS
330
42D
102
}
330
42D
100
AcDbXrecord
280
     1
102
RTVSPropertyOp0
 70
     1
102
RTVSPropertyOp1
 70
     1
102
RTVSPropertyOp2
 70
     1
102
RTVSPropertyOp3
 70
     1
102
RTVSPropertyOp4
 70
     1
102
RTVSPropertyOp5
 70
     1
102
RTVSPropertyOp6
 70
     1
102
RTVSPropertyOp7
 70
     1
102
RTVSPropertyOp8
 70
     1
102
RTVSPropertyOp9
 70
     1
102
RTVSPropertyOp10
 70
     1
102
RTVSPropertyOp11
 70
     1
102
RTVSPropertyOp12
 70
     1
102
RTVSPropertyOp13
 70
     1
102
RTVSPropertyOp14
 70
     1
102
RTVSPropertyOp15
 70
     1
102
RTVSPropertyOp16
 70
     1
102
RTVSPropertyOp17
 70
     1
102
RTVSPropertyOp18
 70
     1
102
RTVSPropertyOp19
 70
     1
102
RTVSPropertyOp20
 70
     1
102
RTVSPropertyOp21
 70
     1
102
RTVSPropertyOp22
 70
     1
102
RTVSPropertyOp23
 70
     1
102
RTVSPropertyOp24
 70
     1
102
RTVSPropertyOp25
 70
     1
102
RTVSPropertyOp26
 70
     1
102
RTVSPropertyOp27
 70
     1
102
RTVSPropertyOp28
 70
     1
102
RTVSPropertyOp29
 70
     1
102
RTVSPropertyOp30
 70
     1
102
RTVSPropertyOp31
 70
     1
102
RTVSPropertyOp32
 70
     1
  0
XRECORD
  5
430
102
{ACAD_REACTORS
330
42F
102
}
330
42F
100
AcDbXrecord
280
     1
102
RTVSPropertyOp0
 70
     1
102
RTVSPropertyOp1
 70
     1
102
RTVSPropertyOp2
 70
     1
102
RTVSPropertyOp3
 70
     1
102
RTVSPropertyOp4
 70
     1
102
RTVSPropertyOp5
 70
     1
102
RTVSPropertyOp6
 70
     1
102
RTVSPropertyOp7
 70
     1
102
RTVSPropertyOp8
 70
     1
102
RTVSPropertyOp9
 70
     1
102
RTVSPropertyOp10
 70
     1
102
RTVSPropertyOp11
 70
     1
102
RTVSPropertyOp12
 70
     1
102
RTVSPropertyOp13
 70
     1
102
RTVSPropertyOp14
 70
     1
102
RTVSPropertyOp15
 70
     1
102
RTVSPropertyOp16
 70
     1
102
RTVSPropertyOp17
 70
     1
102
RTVSPropertyOp18
 70
     1
102
RTVSPropertyOp19
 70
     1
102
RTVSPropertyOp20
 70
     1
102
RTVSPropertyOp21
 70
     1
102
RTVSPropertyOp22
 70
     1
102
RTVSPropertyOp23
 70
     1
102
RTVSPropertyOp24
 70
     1
102
RTVSPropertyOp25
 70
     1
102
RTVSPropertyOp26
 70
     1
102
RTVSPropertyOp27
 70
     1
102
RTVSPropertyOp28
 70
     1
102
RTVSPropertyOp29
 70
     1
102
RTVSPropertyOp30
 70
     1
102
RTVSPropertyOp31
 70
     1
102
RTVSPropertyOp32
 70
     1
  0
XRECORD
  5
432
102
{ACAD_REACTORS
330
431
102
}
330
431
100
AcDbXrecord
280
     1
102
RTVSPropertyOp0
 70
     1
102
RTVSPropertyOp1
 70
     1
102
RTVSPropertyOp2
 70
     1
102
RTVSPropertyOp3
 70
     1
102
RTVSPropertyOp4
 70
     1
102
RTVSPropertyOp5
 70
     1
102
RTVSPropertyOp6
 70
     1
102
RTVSPropertyOp7
 70
     1
102
RTVSPropertyOp8
 70
     1
102
RTVSPropertyOp9
 70
     1
102
RTVSPropertyOp10
 70
     1
102
RTVSPropertyOp11
 70
     1
102
RTVSPropertyOp12
 70
     1
102
RTVSPropertyOp13
 70
     1
102
RTVSPropertyOp14
 70
     1
102
RTVSPropertyOp15
 70
     1
102
RTVSPropertyOp16
 70
     1
102
RTVSPropertyOp17
 70
     1
102
RTVSPropertyOp18
 70
     1
102
RTVSPropertyOp19
 70
     1
102
RTVSPropertyOp20
 70
     1
102
RTVSPropertyOp21
 70
     1
102
RTVSPropertyOp22
 70
     1
102
RTVSPropertyOp23
 70
     1
102
RTVSPropertyOp24
 70
     1
102
RTVSPropertyOp25
 70
     1
102
RTVSPropertyOp26
 70
     1
102
RTVSPropertyOp27
 70
     1
102
RTVSPropertyOp28
 70
     1
102
RTVSPropertyOp29
 70
     1
102
RTVSPropertyOp30
 70
     1
102
RTVSPropertyOp31
 70
     1
102
RTVSPropertyOp32
 70
     1
  0
XRECORD
  5
446
102
{ACAD_REACTORS
330
445
102
}
330
445
100
AcDbXrecord
280
     1
102
RTVSPropertyOp0
 70
     1
102
RTVSPropertyOp1
 70
     1
102
RTVSPropertyOp2
 70
     1
102
RTVSPropertyOp3
 70
     1
102
RTVSPropertyOp4
 70
     1
102
RTVSPropertyOp5
 70
     1
102
RTVSPropertyOp6
 70
     1
102
RTVSPropertyOp7
 70
     1
102
RTVSPropertyOp8
 70
     1
102
RTVSPropertyOp9
 70
     1
102
RTVSPropertyOp10
 70
     1
102
RTVSPropertyOp11
 70
     1
102
RTVSPropertyOp12
 70
     1
102
RTVSPropertyOp13
 70
     1
102
RTVSPropertyOp14
 70
     1
102
RTVSPropertyOp15
 70
     1
102
RTVSPropertyOp16
 70
     1
102
RTVSPropertyOp17
 70
     1
102
RTVSPropertyOp18
 70
     1
102
RTVSPropertyOp19
 70
     1
102
RTVSPropertyOp20
 70
     1
102
RTVSPropertyOp21
 70
     1
102
RTVSPropertyOp22
 70
     1
102
RTVSPropertyOp23
 70
     1
102
RTVSPropertyOp24
 70
     1
102
RTVSPropertyOp25
 70
     1
102
RTVSPropertyOp26
 70
     1
102
RTVSPropertyOp27
 70
     1
102
RTVSPropertyOp28
 70
     1
102
RTVSPropertyOp29
 70
     1
102
RTVSPropertyOp30
 70
     1
102
RTVSPropertyOp31
 70
     1
102
RTVSPropertyOp32
 70
     1
  0
XRECORD
  5
43C
102
{ACAD_REACTORS
330
43B
102
}
330
43B
100
AcDbXrecord
280
     1
102
RTVSPropertyOp0
 70
     1
102
RTVSPropertyOp1
 70
     1
102
RTVSPropertyOp2
 70
     1
102
RTVSPropertyOp3
 70
     1
102
RTVSPropertyOp4
 70
     1
102
RTVSPropertyOp5
 70
     1
102
RTVSPropertyOp6
 70
     1
102
RTVSPropertyOp7
 70
     1
102
RTVSPropertyOp8
 70
     1
102
RTVSPropertyOp9
 70
     1
102
RTVSPropertyOp10
 70
     1
102
RTVSPropertyOp11
 70
     1
102
RTVSPropertyOp12
 70
     1
102
RTVSPropertyOp13
 70
     1
102
RTVSPropertyOp14
 70
     1
102
RTVSPropertyOp15
 70
     1
102
RTVSPropertyOp16
 70
     1
102
RTVSPropertyOp17
 70
     1
102
RTVSPropertyOp18
 70
     1
102
RTVSPropertyOp19
 70
     1
102
RTVSPropertyOp20
 70
     1
102
RTVSPropertyOp21
 70
     1
102
RTVSPropertyOp22
 70
     1
102
RTVSPropertyOp23
 70
     1
102
RTVSPropertyOp24
 70
     1
102
RTVSPropertyOp25
 70
     1
102
RTVSPropertyOp26
 70
     1
102
RTVSPropertyOp27
 70
     1
102
RTVSPropertyOp28
 70
     1
102
RTVSPropertyOp29
 70
     1
102
RTVSPropertyOp30
 70
     1
102
RTVSPropertyOp31
 70
     1
102
RTVSPropertyOp32
 70
     1
  0
XRECORD
  5
444
102
{ACAD_REACTORS
330
443
102
}
330
443
100
AcDbXrecord
280
     1
102
RTVSPropertyOp0
 70
     1
102
RTVSPropertyOp1
 70
     1
102
RTVSPropertyOp2
 70
     1
102
RTVSPropertyOp3
 70
     1
102
RTVSPropertyOp4
 70
     1
102
RTVSPropertyOp5
 70
     1
102
RTVSPropertyOp6
 70
     1
102
RTVSPropertyOp7
 70
     1
102
RTVSPropertyOp8
 70
     1
102
RTVSPropertyOp9
 70
     1
102
RTVSPropertyOp10
 70
     1
102
RTVSPropertyOp11
 70
     1
102
RTVSPropertyOp12
 70
     1
102
RTVSPropertyOp13
 70
     1
102
RTVSPropertyOp14
 70
     1
102
RTVSPropertyOp15
 70
     1
102
RTVSPropertyOp16
 70
     1
102
RTVSPropertyOp17
 70
     1
102
RTVSPropertyOp18
 70
     1
102
RTVSPropertyOp19
 70
     1
102
RTVSPropertyOp20
 70
     1
102
RTVSPropertyOp21
 70
     1
102
RTVSPropertyOp22
 70
     1
102
RTVSPropertyOp23
 70
     1
102
RTVSPropertyOp24
 70
     1
102
RTVSPropertyOp25
 70
     1
102
RTVSPropertyOp26
 70
     1
102
RTVSPropertyOp27
 70
     1
102
RTVSPropertyOp28
 70
     1
102
RTVSPropertyOp29
 70
     1
102
RTVSPropertyOp30
 70
     1
102
RTVSPropertyOp31
 70
     1
102
RTVSPropertyOp32
 70
     1
  0
ENDSEC
  0
EOF
