  0
SECTION
  2
HEADER
  9
$ACADVER
  1
AC1015
  9
$ACADMAINTVER
 70
     6
  9
$DWGCODEPAGE
  3
ANSI_932
  9
$INSBASE
 10
0.0
 20
0.0
 30
0.0
  9
$EXTMIN
 10
0.0
 20
0.0
 30
0.0
  9
$EXTMAX
 10
210.0
 20
297.0
 30
0.0
  9
$LIMMIN
 10
0.0
 20
0.0
  9
$LIMMAX
 10
12.0
 20
9.0
  9
$ORTHOMODE
 70
     0
  9
$REGENMODE
 70
     1
  9
$FILLMODE
 70
     1
  9
$QTEXTMODE
 70
     0
  9
$MIRRTEXT
 70
     1
  9
$LTSCALE
 40
1.0
  9
$ATTMODE
 70
     1
  9
$TEXTSIZE
 40
0.2
  9
$TRACEWID
 40
0.05
  9
$TEXTSTYLE
  7
Standard
  9
$CLAYER
  8
0
  9
$CELTYPE
  6
ByLayer
  9
$CECOLOR
 62
   256
  9
$CELTSCALE
 40
1.0
  9
$DISPSILH
 70
     0
  9
$DIMSCALE
 40
1.0
  9
$DIMASZ
 40
0.18
  9
$DIMEXO
 40
0.0625
  9
$DIMDLI
 40
0.38
  9
$DIMRND
 40
0.0
  9
$DIMDLE
 40
0.0
  9
$DIMEXE
 40
0.18
  9
$DIMTP
 40
0.0
  9
$DIMTM
 40
0.0
  9
$DIMTXT
 40
0.18
  9
$DIMCEN
 40
0.09
  9
$DIMTSZ
 40
0.0
  9
$DIMTOL
 70
     0
  9
$DIMLIM
 70
     0
  9
$DIMTIH
 70
     1
  9
$DIMTOH
 70
     1
  9
$DIMSE1
 70
     0
  9
$DIMSE2
 70
     0
  9
$DIMTAD
 70
     0
  9
$DIMZIN
 70
     0
  9
$DIMBLK
  1

  9
$DIMASO
 70
     1
  9
$DIMSHO
 70
     1
  9
$DIMPOST
  1

  9
$DIMAPOST
  1

  9
$DIMALT
 70
     0
  9
$DIMALTD
 70
     2
  9
$DIMALTF
 40
25.4
  9
$DIMLFAC
 40
1.0
  9
$DIMTOFL
 70
     0
  9
$DIMTVP
 40
0.0
  9
$DIMTIX
 70
     0
  9
$DIMSOXD
 70
     0
  9
$DIMSAH
 70
     0
  9
$DIMBLK1
  1

  9
$DIMBLK2
  1

  9
$DIMSTYLE
  2
Standard
  9
$DIMCLRD
 70
     0
  9
$DIMCLRE
 70
     0
  9
$DIMCLRT
 70
     0
  9
$DIMTFAC
 40
1.0
  9
$DIMGAP
 40
0.09
  9
$DIMJUST
 70
     0
  9
$DIMSD1
 70
     0
  9
$DIMSD2
 70
     0
  9
$DIMTOLJ
 70
     1
  9
$DIMTZIN
 70
     0
  9
$DIMALTZ
 70
     0
  9
$DIMALTTZ
 70
     0
  9
$DIMUPT
 70
     0
  9
$DIMDEC
 70
     4
  9
$DIMTDEC
 70
     4
  9
$DIMALTU
 70
     2
  9
$DIMALTTD
 70
     2
  9
$DIMTXSTY
  7
Standard
  9
$DIMAUNIT
 70
     0
  9
$DIMADEC
 70
     0
  9
$DIMALTRND
 40
0.0
  9
$DIMAZIN
 70
     0
  9
$DIMDSEP
 70
    46
  9
$DIMATFIT
 70
     3
  9
$DIMFRAC
 70
     0
  9
$DIMLDRBLK
  1

  9
$DIMLUNIT
 70
     2
  9
$DIMLWD
 70
    -2
  9
$DIMLWE
 70
    -2
  9
$DIMTMOVE
 70
     0
  9
$LUNITS
 70
     2
  9
$LUPREC
 70
     4
  9
$SKETCHINC
 40
0.1
  9
$FILLETRAD
 40
0.5
  9
$AUNITS
 70
     0
  9
$AUPREC
 70
     0
  9
$MENU
  1
.
  9
$ELEVATION
 40
0.0
  9
$PELEVATION
 40
0.0
  9
$THICKNESS
 40
0.0
  9
$LIMCHECK
 70
     0
  9
$CHAMFERA
 40
0.5
  9
$CHAMFERB
 40
0.5
  9
$CHAMFERC
 40
1.0
  9
$CHAMFERD
 40
0.0
  9
$SKPOLY
 70
     0
  9
$TDCREATE
 40
2456563.497685301
  9
$TDUCREATE
 40
2456563.122685301
  9
$TDUPDATE
 40
2456563.497686389
  9
$TDUUPDATE
 40
2456563.122686389
  9
$TDINDWG
 40
0.0000000116
  9
$TDUSRTIMER
 40
0.0000000116
  9
$USRTIMER
 70
     1
  9
$ANGBASE
 50
0.0
  9
$ANGDIR
 70
     0
  9
$PDMODE
 70
     0
  9
$PDSIZE
 40
0.0
  9
$PLINEWID
 40
0.0
  9
$SPLFRAME
 70
     0
  9
$SPLINETYPE
 70
     6
  9
$SPLINESEGS
 70
     8
  9
$HANDSEED
  5
3DF
  9
$SURFTAB1
 70
     6
  9
$SURFTAB2
 70
     6
  9
$SURFTYPE
 70
     6
  9
$SURFU
 70
     6
  9
$SURFV
 70
     6
  9
$UCSBASE
  2

  9
$UCSNAME
  2

  9
$UCSORG
 10
0.0
 20
0.0
 30
0.0
  9
$UCSXDIR
 10
1.0
 20
0.0
 30
0.0
  9
$UCSYDIR
 10
0.0
 20
1.0
 30
0.0
  9
$UCSORTHOREF
  2

  9
$UCSORTHOVIEW
 70
     0
  9
$UCSORGTOP
 10
0.0
 20
0.0
 30
0.0
  9
$UCSORGBOTTOM
 10
0.0
 20
0.0
 30
0.0
  9
$UCSORGLEFT
 10
0.0
 20
0.0
 30
0.0
  9
$UCSORGRIGHT
 10
0.0
 20
0.0
 30
0.0
  9
$UCSORGFRONT
 10
0.0
 20
0.0
 30
0.0
  9
$UCSORGBACK
 10
0.0
 20
0.0
 30
0.0
  9
$PUCSBASE
  2

  9
$PUCSNAME
  2

  9
$PUCSORG
 10
0.0
 20
0.0
 30
0.0
  9
$PUCSXDIR
 10
1.0
 20
0.0
 30
0.0
  9
$PUCSYDIR
 10
0.0
 20
1.0
 30
0.0
  9
$PUCSORTHOREF
  2

  9
$PUCSORTHOVIEW
 70
     0
  9
$PUCSORGTOP
 10
0.0
 20
0.0
 30
0.0
  9
$PUCSORGBOTTOM
 10
0.0
 20
0.0
 30
0.0
  9
$PUCSORGLEFT
 10
0.0
 20
0.0
 30
0.0
  9
$PUCSORGRIGHT
 10
0.0
 20
0.0
 30
0.0
  9
$PUCSORGFRONT
 10
0.0
 20
0.0
 30
0.0
  9
$PUCSORGBACK
 10
0.0
 20
0.0
 30
0.0
  9
$USERI1
 70
     0
  9
$USERI2
 70
     0
  9
$USERI3
 70
     0
  9
$USERI4
 70
     0
  9
$USERI5
 70
     0
  9
$USERR1
 40
18.1
  9
$USERR2
 40
0.0
  9
$USERR3
 40
0.0
  9
$USERR4
 40
0.0
  9
$USERR5
 40
0.0
  9
$WORLDVIEW
 70
     1
  9
$SHADEDGE
 70
     3
  9
$SHADEDIF
 70
    70
  9
$TILEMODE
 70
     1
  9
$MAXACTVP
 70
    64
  9
$PINSBASE
 10
0.0
 20
0.0
 30
0.0
  9
$PLIMCHECK
 70
     0
  9
$PEXTMIN
 10
1.00000000000000E+20
 20
1.00000000000000E+20
 30
1.00000000000000E+20
  9
$PEXTMAX
 10
-1.00000000000000E+20
 20
-1.00000000000000E+20
 30
-1.00000000000000E+20
  9
$PLIMMIN
 10
0.0
 20
0.0
  9
$PLIMMAX
 10
12.0
 20
9.0
  9
$UNITMODE
 70
     0
  9
$VISRETAIN
 70
     1
  9
$PLINEGEN
 70
     0
  9
$PSLTSCALE
 70
     1
  9
$TREEDEPTH
 70
  3020
  9
$CMLSTYLE
  2
Standard
  9
$CMLJUST
 70
     0
  9
$CMLSCALE
 40
1.0
  9
$PROXYGRAPHICS
 70
     1
  9
$MEASUREMENT
 70
     1
  9
$CELWEIGHT
370
    -1
  9
$ENDCAPS
280
     0
  9
$JOINSTYLE
280
     0
  9
$LWDISPLAY
290
     0
  9
$INSUNITS
 70
     4
  9
$HYPERLINKBASE
  1

  9
$STYLESHEET
  1

  9
$XEDIT
290
     1
  9
$CEPSNTYPE
380
     0
  9
$PSTYLEMODE
290
     1
  9
$FINGERPRINTGUID
  2
{85D346E6-F066-4F94-A444-4C37584DC20D}
  9
$VERSIONGUID
  2
{FAEB1C32-E019-11D5-929B-00C0DF256EC4}
  9
$EXTNAMES
290
     1
  9
$PSVPSCALE
 40
0.0
  9
$OLESTARTUP
290
     0
  0
ENDSEC
  0
SECTION
  2
CLASSES
  0
CLASS
  1
ACDBDICTIONARYWDFLT
  2
AcDbDictionaryWithDefault
  3
ObjectDBX Classes
 90
        0
280
     0
281
     0
  0
CLASS
  1
VISUALSTYLE
  2
AcDbVisualStyle
  3
ObjectDBX Classes
 90
     4095
280
     0
281
     0
  0
CLASS
  1
MATERIAL
  2
AcDbMaterial
  3
ObjectDBX Classes
 90
     1153
280
     0
281
     0
  0
CLASS
  1
DICTIONARYVAR
  2
AcDbDictionaryVar
  3
ObjectDBX Classes
 90
        0
280
     0
281
     0
  0
CLASS
  1
ACDBPLACEHOLDER
  2
AcDbPlaceHolder
  3
ObjectDBX Classes
 90
        0
280
     0
281
     0
  0
CLASS
  1
LAYOUT
  2
AcDbLayout
  3
ObjectDBX Classes
 90
        0
280
     0
281
     0
  0
ENDSEC
  0
SECTION
  2
TABLES
  0
TABLE
  2
VPORT
  5
8
330
0
100
AcDbSymbolTable
 70
     1
  0
VPORT
  5
29
330
8
100
AcDbSymbolTableRecord
100
AcDbViewportTableRecord
  2
*Active
 70
     0
 10
0.0
 20
0.0
 11
1.0
 21
1.0
 12
105.0
 22
148.5
 13
0.0
 23
0.0
 14
0.5
 24
0.5
 15
0.5
 25
0.5
 16
0.0
 26
0.0
 36
1.0
 17
0.0
 27
0.0
 37
0.0
 40
326.7
 41
1.60267857142857
 42
50.0
 43
0.0
 44
0.0
 50
0.0
 51
0.0
 71
     0
 72
   100
 73
     1
 74
     3
 75
     0
 76
     0
 77
     0
 78
     0
281
     0
 65
     1
110
0.0
120
0.0
130
0.0
111
1.0
121
0.0
131
0.0
112
0.0
122
1.0
132
0.0
 79
     0
146
0.0
  0
ENDTAB
  0
TABLE
  2
LTYPE
  5
5
330
0
100
AcDbSymbolTable
 70
     8
  0
LTYPE
  5
14
330
5
100
AcDbSymbolTableRecord
100
AcDbLinetypeTableRecord
  2
ByBlock
 70
     0
  3

 72
    65
 73
     0
 40
0.0
  0
LTYPE
  5
15
330
5
100
AcDbSymbolTableRecord
100
AcDbLinetypeTableRecord
  2
ByLayer
 70
     0
  3

 72
    65
 73
     0
 40
0.0
  0
LTYPE
  5
16
330
5
100
AcDbSymbolTableRecord
100
AcDbLinetypeTableRecord
  2
Continuous
 70
     0
  3
Solid line
 72
    65
 73
     0
 40
0.0
  0
LTYPE
  5
3F
330
5
100
AcDbSymbolTableRecord
100
AcDbLinetypeTableRecord
  2
DASHED
 70
     0
  3
Dashed
 72
    65
 73
     2
 40
15.0
 49
7.0
 74
     0
 49
-8.0
 74
     0
  0
LTYPE
  5
40
330
5
100
AcDbSymbolTableRecord
100
AcDbLinetypeTableRecord
  2
DOTTED
 70
     0
  3
Dotted
 72
    65
 73
     2
 40
1.0
 49
0.0
 74
     0
 49
-1.0
 74
     0
  0
LTYPE
  5
41
330
5
100
AcDbSymbolTableRecord
100
AcDbLinetypeTableRecord
  2
DOT_CENTER
 70
     0
  3
Dot_Center
 72
    65
 73
     4
 40
14.0
 49
12.0
 74
     0
 49
-1.0
 74
     0
 49
0.0
 74
     0
 49
-1.0
 74
     0
  0
LTYPE
  5
42
330
5
100
AcDbSymbolTableRecord
100
AcDbLinetypeTableRecord
  2
LONG_DASHED
 70
     0
  3
Long_Dashed
 72
    65
 73
     2
 40
15.0
 49
10.0
 74
     0
 49
-5.0
 74
     0
  0
LTYPE
  5
43
330
5
100
AcDbSymbolTableRecord
100
AcDbLinetypeTableRecord
  2
DASH_CENTER
 70
     0
  3
Dash_Center
 72
    65
 73
     4
 40
14.0
 49
11.0
 74
     0
 49
-1.0
 74
     0
 49
1.0
 74
     0
 49
-1.0
 74
     0
  0
LTYPE
  5
44
330
5
100
AcDbSymbolTableRecord
100
AcDbLinetypeTableRecord
  2
PHANTOM
 70
     0
  3
Phantom
 72
    65
 73
     6
 40
13.0
 49
10.0
 74
     0
 49
-1.0
 74
     0
 49
0.0
 74
     0
 49
-1.0
 74
     0
 49
0.0
 74
     0
 49
-1.0
 74
     0
  0
LTYPE
  5
45
330
5
100
AcDbSymbolTableRecord
100
AcDbLinetypeTableRecord
  2
CENTER_DASH_DASH
 70
     0
  3
Center_Dash_Dash
 72
    65
 73
     6
 40
14.0
 49
9.0
 74
     0
 49
-1.0
 74
     0
 49
1.0
 74
     0
 49
-1.0
 74
     0
 49
1.0
 74
     0
 49
-1.0
 74
     0
  0
ENDTAB
  0
TABLE
  2
LAYER
  5
2
330
0
100
AcDbSymbolTable
 70
     2
  0
LAYER
  5
10
330
2
100
AcDbSymbolTableRecord
100
AcDbLayerTableRecord
  2
0
 70
     0
 62
     7
  6
Continuous
370
    -3
390
F
  0
LAYER
  5
46
330
2
100
AcDbSymbolTableRecord
100
AcDbLayerTableRecord
  2
1
 70
     0
 62
     7
  6
Continuous
370
    -3
390
F
  0
ENDTAB
  0
TABLE
  2
STYLE
  5
3
330
0
100
AcDbSymbolTable
 70
     3
  0
STYLE
  5
11
330
3
100
AcDbSymbolTableRecord
100
AcDbTextStyleTableRecord
  2
Standard
 70
     0
 40
0.0
 41
1.0
 50
0.0
 71
     0
 42
0.2
  3
txt
  4

  0
STYLE
  5
351
330
3
100
AcDbSymbolTableRecord
100
AcDbTextStyleTableRecord
  2
CONVERTER_11
 70
     0
 40
0.0
 41
0.89
 50
0.0
 71
     0
 42
0.2
  3
MS Mincho.ttf
  4

1001
ACAD
1000
MS Mincho
1071
    32785
  0
STYLE
  5
37F
330
3
100
AcDbSymbolTableRecord
100
AcDbTextStyleTableRecord
  2
CONVERTER_12
 70
     0
 40
0.0
 41
0.9
 50
0.0
 71
     0
 42
0.2
  3
txt.shx
  4

  0
ENDTAB
  0
TABLE
  2
VIEW
  5
6
330
0
100
AcDbSymbolTable
 70
     0
  0
ENDTAB
  0
TABLE
  2
UCS
  5
7
330
0
100
AcDbSymbolTable
 70
     0
  0
ENDTAB
  0
TABLE
  2
APPID
  5
9
330
0
100
AcDbSymbolTable
 70
     1
  0
APPID
  5
12
330
9
100
AcDbSymbolTableRecord
100
AcDbRegAppTableRecord
  2
ACAD
 70
     0
  0
ENDTAB
  0
TABLE
  2
DIMSTYLE
  5
A
330
0
100
AcDbSymbolTable
 70
     5
100
AcDbDimStyleTable
  0
DIMSTYLE
105
27
330
A
100
AcDbSymbolTableRecord
100
AcDbDimStyleTableRecord
  2
Standard
 70
     0
178
     0
340
11
  0
DIMSTYLE
105
391
102
{ACAD_REACTORS
330
392
102
}
330
A
100
AcDbSymbolTableRecord
100
AcDbDimStyleTableRecord
  2
ME10_DIM_10
 70
     0
 41
3.5
 42
0.0
 44
1.0
 73
     0
 74
     0
 77
     1
 78
     8
140
3.5
147
1.0
172
     1
173
     1
174
     1
175
     1
176
     2
177
     2
271
     2
178
     7
271
     2
340
351
  0
DIMSTYLE
105
39C
102
{ACAD_REACTORS
330
39D
102
}
330
A
100
AcDbSymbolTableRecord
100
AcDbDimStyleTableRecord
  2
ME10_DIM_11
 70
     0
  3
{\Fgdt;n}<>
 41
3.5
 42
0.0
 44
1.0
 73
     0
 74
     0
 77
     1
 78
     8
140
3.5
147
1.0
172
     1
173
     1
174
     1
175
     1
176
     2
177
     2
271
     2
178
     7
271
     2
340
37F
  0
DIMSTYLE
105
3A7
102
{ACAD_REACTORS
330
3A8
102
}
330
A
100
AcDbSymbolTableRecord
100
AcDbDimStyleTableRecord
  2
ME10_DIM_12
 70
     0
 41
3.5
 42
0.0
 44
1.0
 73
     0
 74
     0
 77
     1
 78
     8
140
3.5
147
1.0
172
     1
173
     1
174
     1
175
     1
176
     2
177
     2
271
     2
178
     7
271
     2
340
351
  0
DIMSTYLE
105
3B2
102
{ACAD_REACTORS
330
3B3
102
}
330
A
100
AcDbSymbolTableRecord
100
AcDbDimStyleTableRecord
  2
ME10_DIM_13
 70
     0
 41
3.5
 42
0.0
 44
1.0
 73
     0
 74
     0
 77
     1
 78
     8
140
3.5
147
1.0
172
     1
173
     1
174
     1
175
     1
176
     2
177
     2
271
     2
178
     7
271
     2
340
37F
  0
ENDTAB
  0
TABLE
  2
BLOCK_RECORD
  5
1
330
0
100
AcDbSymbolTable
 70
    15
  0
BLOCK_RECORD
  5
1F
330
1
100
AcDbSymbolTableRecord
100
AcDbBlockTableRecord
  2
*Model_Space
340
22
  0
BLOCK_RECORD
  5
1B
330
1
100
AcDbSymbolTableRecord
100
AcDbBlockTableRecord
  2
*Paper_Space
340
1E
  0
BLOCK_RECORD
  5
23
330
1
100
AcDbSymbolTableRecord
100
AcDbBlockTableRecord
  2
*Paper_Space0
340
26
  0
BLOCK_RECORD
  5
47
330
1
100
AcDbSymbolTableRecord
100
AcDbBlockTableRecord
  2
V2110-2-0-13
340
0
102
{BLKREFS
331
65
102
}
  0
BLOCK_RECORD
  5
4A
330
1
100
AcDbSymbolTableRecord
100
AcDbBlockTableRecord
  2
72-206
340
0
102
{BLKREFS
331
66
102
}
  0
BLOCK_RECORD
  5
4D
330
1
100
AcDbSymbolTableRecord
100
AcDbBlockTableRecord
  2
72-207__1
340
0
102
{BLKREFS
331
67
102
}
  0
BLOCK_RECORD
  5
50
330
1
100
AcDbSymbolTableRecord
100
AcDbBlockTableRecord
  2
72-207__2
340
0
102
{BLKREFS
331
68
102
}
  0
BLOCK_RECORD
  5
53
330
1
100
AcDbSymbolTableRecord
100
AcDbBlockTableRecord
  2
H86F-A
340
0
102
{BLKREFS
331
69
102
}
  0
BLOCK_RECORD
  5
56
330
1
100
AcDbSymbolTableRecord
100
AcDbBlockTableRecord
  2
H86F-B__3
340
0
102
{BLKREFS
331
6A
102
}
  0
BLOCK_RECORD
  5
59
330
1
100
AcDbSymbolTableRecord
100
AcDbBlockTableRecord
  2
H86F-B__4
340
0
102
{BLKREFS
331
6B
102
}
  0
BLOCK_RECORD
  5
5C
330
1
100
AcDbSymbolTableRecord
100
AcDbBlockTableRecord
  2
36-45
340
0
102
{BLKREFS
331
6C
102
}
  0
BLOCK_RECORD
  5
5F
330
1
100
AcDbSymbolTableRecord
100
AcDbBlockTableRecord
  2
37-1-13
340
0
102
{BLKREFS
331
6D
102
}
  0
BLOCK_RECORD
  5
62
330
1
100
AcDbSymbolTableRecord
100
AcDbBlockTableRecord
  2
開示A4
340
0
102
{BLKREFS
331
6E
102
}
  0
BLOCK_RECORD
  5
388
330
1
100
AcDbSymbolTableRecord
100
AcDbBlockTableRecord
  2
*D11
340
0
  0
BLOCK_RECORD
  5
393
330
1
100
AcDbSymbolTableRecord
100
AcDbBlockTableRecord
  2
*D12
340
0
  0
BLOCK_RECORD
  5
39E
330
1
100
AcDbSymbolTableRecord
100
AcDbBlockTableRecord
  2
*D13
340
0
  0
BLOCK_RECORD
  5
3A9
330
1
100
AcDbSymbolTableRecord
100
AcDbBlockTableRecord
  2
*D14
340
0
  0
ENDTAB
  0
ENDSEC
  0
SECTION
  2
BLOCKS
  0
BLOCK
  5
20
330
1F
100
AcDbEntity
  8
0
100
AcDbBlockBegin
  2
*Model_Space
 70
     0
 10
0.0
 20
0.0
 30
0.0
  3
*Model_Space
  1

  0
ENDBLK
  5
21
330
1F
100
AcDbEntity
  8
0
100
AcDbBlockEnd
  0
BLOCK
  5
1C
330
1B
100
AcDbEntity
 67
     1
  8
0
100
AcDbBlockBegin
  2
*Paper_Space
 70
     0
 10
0.0
 20
0.0
 30
0.0
  3
*Paper_Space
  1

  0
ENDBLK
  5
1D
330
1B
100
AcDbEntity
 67
     1
  8
0
100
AcDbBlockEnd
  0
BLOCK
  5
24
330
23
100
AcDbEntity
  8
0
100
AcDbBlockBegin
  2
*Paper_Space0
 70
     0
 10
0.0
 20
0.0
 30
0.0
  3
*Paper_Space0
  1

  0
ENDBLK
  5
25
330
23
100
AcDbEntity
  8
0
100
AcDbBlockEnd
  0
BLOCK
  5
48
330
47
100
AcDbEntity
  8
0
100
AcDbBlockBegin
  2
V2110-2-0-13
 70
     0
 10
128.7875562229416
 20
163.0028880496275
 30
0.0
  3
V2110-2-0-13
  1

  0
LINE
  5
6F
330
47
100
AcDbEntity
  8
1
  6
Continuous
 62
     7
100
AcDbLine
 10
111.3059994369066
 20
172.5589760741148
 30
0.0
 11
111.3059994369066
 21
184.9589760741148
 31
0.0
  0
LINE
  5
70
330
47
100
AcDbEntity
  8
1
  6
Continuous
 62
     7
100
AcDbLine
 10
123.601984657664
 20
111.2610470866874
 30
0.0
 11
123.601984657664
 21
109.4033713644361
 31
0.0
  0
LINE
  5
71
330
47
100
AcDbEntity
  8
1
  6
PHANTOM
 62
     4
100
AcDbLine
 10
132.3059994369065
 20
268.5057760992549
 30
0.0
 11
132.3059994369065
 21
238.0308567373484
 31
0.0
  0
LINE
  5
72
330
47
100
AcDbEntity
  8
1
  6
Continuous
 62
     7
100
AcDbLine
 10
110.9643359121142
 20
248.0816077881001
 30
0.0
 11
110.9643359121142
 21
257.9800306865971
 31
0.0
  0
LINE
  5
73
330
47
100
AcDbEntity
  8
1
  6
Continuous
 62
     2
100
AcDbLine
 10
121.8059994369066
 20
197.7463330357195
 30
0.0
 11
122.9679994369069
 21
199.7589760741147
 31
0.0
  0
LINE
  5
74
330
47
100
AcDbEntity
  8
1
  6
Continuous
 62
     7
100
AcDbLine
 10
155.0069613312298
 20
166.7589760741147
 30
0.0
 11
151.6080617048496
 21
166.7589760741147
 31
0.0
  0
LINE
  5
75
330
47
100
AcDbEntity
  8
1
  6
Continuous
 62
     7
100
AcDbLine
 10
157.7355920613388
 20
166.7589760741147
 30
0.0
 11
155.0069613312298
 21
166.7589760741147
 31
0.0
  0
LINE
  5
76
330
47
100
AcDbEntity
  8
1
  6
Continuous
 62
     7
100
AcDbLine
 10
142.8059994369068
 20
197.7463330357195
 30
0.0
 11
142.8059994369066
 21
196.7589760741149
 31
0.0
  0
LINE
  5
77
330
47
100
AcDbEntity
  8
1
  6
Continuous
 62
     7
100
AcDbLine
 10
155.0069613312298
 20
190.7589760741149
 30
0.0
 11
148.8059994369066
 21
190.7589760741149
 31
0.0
  0
LINE
  5
78
330
47
100
AcDbEntity
  8
1
  6
Continuous
 62
     2
100
AcDbLine
 10
141.6439994369068
 20
199.7589760741147
 30
0.0
 11
142.8059994369068
 21
197.7463330357195
 31
0.0
  0
LINE
  5
79
330
47
100
AcDbEntity
  8
1
  6
Continuous
 62
     2
100
AcDbLine
 10
141.6439994369068
 20
208.7589760741147
 30
0.0
 11
141.6439994369068
 21
199.7589760741147
 31
0.0
  0
LINE
  5
7A
330
47
100
AcDbEntity
  8
1
  6
Continuous
 62
     7
100
AcDbLine
 10
122.9679994369069
 20
208.7589760741147
 30
0.0
 11
125.8059994369066
 21
208.7589760741147
 31
0.0
  0
LINE
  5
7B
330
47
100
AcDbEntity
  8
1
  6
Continuous
 62
     2
100
AcDbLine
 10
122.9679994369069
 20
199.7589760741147
 30
0.0
 11
122.9679994369069
 21
208.7589760741147
 31
0.0
  0
LINE
  5
7C
330
47
100
AcDbEntity
  8
1
  6
Continuous
 62
     7
100
AcDbLine
 10
142.8059994369066
 20
207.5969760741148
 30
0.0
 11
142.8059994369066
 21
199.7589760741149
 31
0.0
  0
LINE
  5
7D
330
47
100
AcDbEntity
  8
1
  6
Continuous
 62
     7
100
AcDbLine
 10
141.6439994369068
 20
208.7589760741147
 30
0.0
 11
142.8059994369066
 21
207.5969760741148
 31
0.0
  0
LINE
  5
7E
330
47
100
AcDbEntity
  8
1
  6
Continuous
 62
     7
100
AcDbLine
 10
121.8059994369066
 20
207.5969760741148
 30
0.0
 11
121.8059994369066
 21
199.7589760741147
 31
0.0
  0
LINE
  5
7F
330
47
100
AcDbEntity
  8
1
  6
Continuous
 62
     7
100
AcDbLine
 10
122.9679994369069
 20
208.7589760741147
 30
0.0
 11
121.8059994369066
 21
207.5969760741148
 31
0.0
  0
LINE
  5
80
330
47
100
AcDbEntity
  8
1
  6
Continuous
 62
     7
100
AcDbLine
 10
141.6439994369068
 20
199.7589760741147
 30
0.0
 11
142.8059994369066
 21
199.7589760741149
 31
0.0
  0
LINE
  5
81
330
47
100
AcDbEntity
  8
1
  6
Continuous
 62
     7
100
AcDbLine
 10
142.8059994369066
 20
199.7589760741149
 30
0.0
 11
142.8059994369068
 21
197.7463330357195
 31
0.0
  0
LINE
  5
82
330
47
100
AcDbEntity
  8
1
  6
Continuous
 62
     7
100
AcDbLine
 10
121.8059994369066
 20
199.7589760741147
 30
0.0
 11
122.9679994369069
 21
199.7589760741147
 31
0.0
  0
LINE
  5
83
330
47
100
AcDbEntity
  8
1
  6
Continuous
 62
     7
100
AcDbLine
 10
156.3059994369066
 20
190.7589760741147
 30
0.0
 11
157.7355920613388
 21
190.7589760741147
 31
0.0
  0
LINE
  5
84
330
47
100
AcDbEntity
  8
1
  6
Continuous
 62
     7
100
AcDbLine
 10
156.3059994369066
 20
190.7589760741147
 30
0.0
 11
156.3059994369066
 21
190.0089760741149
 31
0.0
  0
LINE
  5
85
330
47
100
AcDbEntity
  8
1
  6
Continuous
 62
     7
100
AcDbLine
 10
155.0069613312298
 20
190.7589760741149
 30
0.0
 11
156.3059994369066
 21
190.7589760741147
 31
0.0
  0
LINE
  5
86
330
47
100
AcDbEntity
  8
1
  6
Continuous
 62
     7
100
AcDbLine
 10
156.3059994369066
 20
166.7589760741147
 30
0.0
 11
156.3059994369066
 21
167.5089760741147
 31
0.0
  0
LINE
  5
87
330
47
100
AcDbEntity
  8
1
  6
Continuous
 62
     2
100
AcDbLine
 10
156.3059994369066
 20
190.0089760741149
 30
0.0
 11
157.7355920613388
 21
190.0089760741149
 31
0.0
  0
LINE
  5
88
330
47
100
AcDbEntity
  8
1
  6
Continuous
 62
     2
100
AcDbLine
 10
156.3059994369066
 20
167.5089760741147
 30
0.0
 11
157.7355920613388
 21
167.5089760741147
 31
0.0
  0
LINE
  5
89
330
47
100
AcDbEntity
  8
1
  6
Continuous
 62
     2
100
AcDbLine
 10
155.0069613312298
 20
166.7589760741147
 30
0.0
 11
156.3059994369066
 21
167.5089760741147
 31
0.0
  0
LINE
  5
8A
330
47
100
AcDbEntity
  8
1
  6
Continuous
 62
     2
100
AcDbLine
 10
155.0069613312298
 20
190.7589760741149
 30
0.0
 11
156.3059994369066
 21
190.0089760741149
 31
0.0
  0
LINE
  5
8B
330
47
100
AcDbEntity
  8
1
  6
Continuous
 62
     7
100
AcDbLine
 10
121.8059994369066
 20
195.6623474385509
 30
0.0
 11
121.8059994369066
 21
197.7463330357195
 31
0.0
  0
LINE
  5
8C
330
47
100
AcDbEntity
  8
1
  6
Continuous
 62
     7
100
AcDbLine
 10
121.8059994369066
 20
197.7463330357195
 30
0.0
 11
121.8059994369066
 21
199.7589760741147
 31
0.0
  0
LINE
  5
8D
330
47
100
AcDbEntity
  8
1
  6
Continuous
 62
     7
100
AcDbLine
 10
116.8193484239976
 20
172.5589760741148
 30
0.0
 11
111.3059994369066
 21
172.5589760741148
 31
0.0
  0
LINE
  5
8E
330
47
100
AcDbEntity
  8
1
  6
Continuous
 62
     7
100
AcDbLine
 10
111.3059994369066
 20
172.5589760741148
 30
0.0
 11
110.8059994369066
 21
173.0589760741148
 31
0.0
  0
LINE
  5
8F
330
47
100
AcDbEntity
  8
1
  6
Continuous
 62
     7
100
AcDbLine
 10
110.8059994369066
 20
173.0589760741148
 30
0.0
 11
110.8059994369066
 21
184.4589760741148
 31
0.0
  0
LINE
  5
90
330
47
100
AcDbEntity
  8
1
  6
Continuous
 62
     7
100
AcDbLine
 10
111.3059994369066
 20
184.9589760741148
 30
0.0
 11
110.8059994369066
 21
184.4589760741148
 31
0.0
  0
LINE
  5
91
330
47
100
AcDbEntity
  8
1
  6
Continuous
 62
     7
100
AcDbLine
 10
117.8344868434539
 20
184.9589760741148
 30
0.0
 11
111.3059994369066
 21
184.9589760741148
 31
0.0
  0
LINE
  5
92
330
47
100
AcDbEntity
  8
1
  6
Continuous
 62
     7
100
AcDbLine
 10
125.8059994369066
 20
208.7589760741147
 30
0.0
 11
141.6439994369068
 21
208.7589760741147
 31
0.0
  0
LINE
  5
93
330
47
100
AcDbEntity
  8
1
  6
Continuous
 62
     7
100
AcDbLine
 10
111.4643346621142
 20
246.8308347373485
 30
0.0
 11
110.9643359121142
 21
247.3308334873486
 31
0.0
  0
LINE
  5
94
330
47
100
AcDbEntity
  8
1
  6
Continuous
 62
     7
100
AcDbLine
 10
111.4643346621142
 20
259.2308037373487
 30
0.0
 11
110.9643359121142
 21
258.7308049873486
 31
0.0
  0
LINE
  5
95
330
47
100
AcDbEntity
  8
1
  6
Continuous
 62
     7
100
AcDbLine
 10
111.4643346621142
 20
259.2308037373487
 30
0.0
 11
116.2661079706149
 21
259.2308037373487
 31
0.0
  0
LINE
  5
96
330
47
100
AcDbEntity
  8
1
  6
Continuous
 62
     7
100
AcDbLine
 10
111.4643346621142
 20
246.8308347373485
 30
0.0
 11
116.1643229121142
 21
246.8308347373485
 31
0.0
  0
LINE
  5
97
330
47
100
AcDbEntity
  8
1
  6
Continuous
 62
     7
100
AcDbLine
 10
110.9643359121142
 20
247.3308334873486
 30
0.0
 11
110.9643359121142
 21
256.3938108298486
 31
0.0
  0
LINE
  5
98
330
47
100
AcDbEntity
  8
1
  6
Continuous
 62
     7
100
AcDbLine
 10
110.9643359121142
 20
256.3938108298486
 30
0.0
 11
110.9643359121142
 21
258.7308049873486
 31
0.0
  0
LINE
  5
99
330
47
100
AcDbEntity
  8
1
  6
Continuous
 62
     7
100
AcDbLine
 10
111.4643346621142
 20
259.2308037373487
 30
0.0
 11
111.4643346621142
 21
246.8308347373485
 31
0.0
  0
LINE
  5
9A
330
47
100
AcDbEntity
  8
1
  6
Continuous
 62
     7
100
AcDbLine
 10
154.8977856507462
 20
265.5308192373483
 30
0.0
 11
145.5559994369064
 21
265.5308192373483
 31
0.0
  0
LINE
  5
9B
330
47
100
AcDbEntity
  8
1
  6
Continuous
 62
     7
100
AcDbLine
 10
145.5559994369064
 20
240.5308192373483
 30
0.0
 11
157.7338770963389
 21
240.5308192373483
 31
0.0
  0
LINE
  5
9C
330
47
100
AcDbEntity
  8
1
  6
Continuous
 62
     7
100
AcDbLine
 10
156.3059394369065
 20
265.5308192373483
 30
0.0
 11
154.8977856507462
 21
265.5308192373483
 31
0.0
  0
LINE
  5
9D
330
47
100
AcDbEntity
  8
1
  6
Continuous
 62
     2
100
AcDbLine
 10
156.3059394369065
 20
264.7178212698486
 30
0.0
 11
154.8977856507462
 21
265.5308192373483
 31
0.0
  0
LINE
  5
9E
330
47
100
AcDbEntity
  8
1
  6
Continuous
 62
     7
100
AcDbLine
 10
156.3059394369065
 20
265.5308192373483
 30
0.0
 11
156.3059394369065
 21
264.7178212698486
 31
0.0
  0
LINE
  5
9F
330
47
100
AcDbEntity
  8
1
  6
Continuous
 62
     2
100
AcDbLine
 10
156.3059394369065
 20
264.7178212698486
 30
0.0
 11
157.7338770963389
 21
264.7178212698486
 31
0.0
  0
LINE
  5
A0
330
47
100
AcDbEntity
  8
1
  6
Continuous
 62
     7
100
AcDbLine
 10
157.7338770963389
 20
265.5308192373483
 30
0.0
 11
156.3059394369065
 21
265.5308192373483
 31
0.0
  0
LINE
  5
A1
330
47
100
AcDbEntity
  8
1
  6
Continuous
 62
     7
100
AcDbLine
 10
133.1477142116988
 20
259.4760736922293
 30
0.0
 11
133.1477142116988
 21
259.0308042373483
 31
0.0
  0
LINE
  5
A2
330
47
100
AcDbEntity
  8
1
  6
Continuous
 62
     7
100
AcDbLine
 10
133.1477142116988
 20
259.0308042373483
 30
0.0
 11
133.3977135866988
 21
259.0308042373483
 31
0.0
  0
LINE
  5
A3
330
47
100
AcDbEntity
  8
1
  6
Continuous
 62
     7
100
AcDbLine
 10
133.1477142116988
 20
259.0308042373483
 30
0.0
 11
133.1477142116988
 21
247.0308342373484
 31
0.0
  0
LINE
  5
A4
330
47
100
AcDbEntity
  8
1
  6
Continuous
 62
     7
100
AcDbLine
 10
133.1477142116988
 20
247.0308342373484
 30
0.0
 11
133.3977135866988
 21
247.0308342373484
 31
0.0
  0
LINE
  5
A5
330
47
100
AcDbEntity
  8
1
  6
Continuous
 62
     7
100
AcDbLine
 10
134.1477117116988
 20
247.7808323623484
 30
0.0
 11
134.1477117116988
 21
258.2808061123484
 31
0.0
  0
LINE
  5
A6
330
47
100
AcDbEntity
  8
1
  6
Continuous
 62
     7
100
AcDbLine
 10
133.1477142116988
 20
247.0308342373484
 30
0.0
 11
133.1477142116988
 21
246.5855647824677
 31
0.0
  0
LINE
  5
A7
330
47
100
AcDbEntity
  8
1
  6
Continuous
 62
     7
100
AcDbLine
 10
121.3447980010271
 20
260.9112476415162
 30
0.0
 11
123.2284600257536
 21
262.6828023620209
 31
0.0
  0
LINE
  5
A8
330
47
100
AcDbEntity
  8
1
  6
Continuous
 62
     7
100
AcDbLine
 10
121.3447980010271
 20
245.1503908331808
 30
0.0
 11
123.2284600257533
 21
243.3788361126761
 31
0.0
  0
LINE
  5
A9
330
47
100
AcDbEntity
  8
1
  6
Continuous
 62
     7
100
AcDbLine
 10
156.3059394369065
 20
240.5308192373484
 30
0.0
 11
157.7338770963389
 21
240.5308192373483
 31
0.0
  0
LINE
  5
AA
330
47
100
AcDbEntity
  8
1
  6
Continuous
 62
     2
100
AcDbLine
 10
157.7338770963389
 20
241.3438172048482
 30
0.0
 11
156.3059394369065
 21
241.3438172048482
 31
0.0
  0
LINE
  5
AB
330
47
100
AcDbEntity
  8
1
  6
Continuous
 62
     7
100
AcDbLine
 10
156.3059394369065
 20
241.3438172048482
 30
0.0
 11
156.3059394369065
 21
240.5308192373484
 31
0.0
  0
LINE
  5
AC
330
47
100
AcDbEntity
  8
1
  6
Continuous
 62
     2
100
AcDbLine
 10
154.8977856507462
 20
240.5308192373484
 30
0.0
 11
156.3059394369065
 21
241.3438172048482
 31
0.0
  0
LINE
  5
AD
330
47
100
AcDbEntity
  8
1
  6
Continuous
 62
     7
100
AcDbLine
 10
154.8977856507462
 20
240.5308192373484
 30
0.0
 11
156.3059394369065
 21
240.5308192373484
 31
0.0
  0
LINE
  5
AE
330
47
100
AcDbEntity
  8
1
  6
Continuous
 62
     7
100
AcDbLine
 10
156.3059394369065
 20
264.7178212698486
 30
0.0
 11
156.3059394369065
 21
241.3438172048482
 31
0.0
  0
LINE
  5
AF
330
47
100
AcDbEntity
  8
1
  6
Continuous
 62
     7
100
AcDbLine
 10
147.0559994369067
 20
145.7700830730447
 30
0.0
 11
145.3059994369066
 21
143.7589760741147
 31
0.0
  0
LINE
  5
B0
330
47
100
AcDbEntity
  8
1
  6
Continuous
 62
     7
100
AcDbLine
 10
147.0559994369066
 20
149.7061514845074
 30
0.0
 11
147.0559994369067
 21
145.7700830730447
 31
0.0
  0
LINE
  5
B1
330
47
100
AcDbEntity
  8
1
  6
Continuous
 62
     7
100
AcDbLine
 10
121.8059994369066
 20
143.7589760741147
 30
0.0
 11
145.3059994369066
 21
143.7589760741147
 31
0.0
  0
LINE
  5
B2
330
47
100
AcDbEntity
  8
1
  6
Continuous
 62
     7
100
AcDbLine
 10
121.8059994369066
 20
143.7589760741147
 30
0.0
 11
119.3059994369066
 21
143.7589760741147
 31
0.0
  0
LINE
  5
B3
330
47
100
AcDbEntity
  8
1
  6
Continuous
 62
     7
100
AcDbLine
 10
119.3059994369066
 20
143.7589760741147
 30
0.0
 11
117.5559994369067
 21
145.7700830730445
 31
0.0
  0
LINE
  5
B4
330
47
100
AcDbEntity
  8
1
  6
Continuous
 62
     7
100
AcDbLine
 10
117.5559994369067
 20
145.7700830730445
 30
0.0
 11
117.5559994369066
 21
149.7061514845074
 31
0.0
  0
LINE
  5
B5
330
47
100
AcDbEntity
  8
1
  6
Continuous
 62
     7
100
AcDbLine
 10
117.5559994369066
 20
149.7061514845074
 30
0.0
 11
119.4144004713591
 21
152.2320826363767
 31
0.0
  0
LINE
  5
B6
330
47
100
AcDbEntity
  8
1
  6
Continuous
 62
     7
100
AcDbLine
 10
145.1975984024541
 20
152.2320826363767
 30
0.0
 11
147.0559994369066
 21
149.7061514845074
 31
0.0
  0
LINE
  5
B7
330
47
100
AcDbEntity
  8
1
  6
Continuous
 62
     7
100
AcDbLine
 10
100.102017157664
 20
63.4482863370942
 30
0.0
 11
100.102017157664
 21
57.5
 31
0.0
  0
LINE
  5
B8
330
47
100
AcDbEntity
  8
1
  6
Continuous
 62
     7
100
AcDbLine
 10
126.101952157664
 20
57.5
 30
0.0
 11
126.101952157664
 21
63.4482863370942
 31
0.0
  0
LINE
  5
B9
330
47
100
AcDbEntity
  8
1
  6
Continuous
 62
     7
100
AcDbLine
 10
126.101952157664
 20
57.5
 30
0.0
 11
100.102017157664
 21
57.5
 31
0.0
  0
LINE
  5
BA
330
47
100
AcDbEntity
  8
1
  6
Continuous
 62
     7
100
AcDbLine
 10
113.101984657664
 20
63.4482863370942
 30
0.0
 11
113.101984657664
 21
59.7599943499996
 31
0.0
  0
LINE
  5
BB
330
47
100
AcDbEntity
  8
1
  6
Continuous
 62
     7
100
AcDbLine
 10
122.6899584076636
 20
113.49986
 30
0.0
 11
122.4399846576637
 21
113.49986
 31
0.0
  0
LINE
  5
BC
330
47
100
AcDbEntity
  8
1
  6
Continuous
 62
     2
100
AcDbLine
 10
103.7639846576638
 20
113.49986
 30
0.0
 11
103.7639846576638
 21
121.337840405
 31
0.0
  0
LINE
  5
BD
330
47
100
AcDbEntity
  8
1
  6
Continuous
 62
     7
100
AcDbLine
 10
102.6019875626638
 20
113.49986
 30
0.0
 11
102.6019904676642
 21
111.4873569616047
 31
0.0
  0
LINE
  5
BE
330
47
100
AcDbEntity
  8
1
  6
Continuous
 62
     2
100
AcDbLine
 10
103.7639846576638
 20
113.49986
 30
0.0
 11
103.7639846576638
 21
121.337840405
 31
0.0
  0
LINE
  5
BF
330
47
100
AcDbEntity
  8
1
  6
Continuous
 62
     7
100
AcDbLine
 10
102.6019875626638
 20
113.49986
 30
0.0
 11
103.7639846576638
 21
113.49986
 31
0.0
  0
LINE
  5
C0
330
47
100
AcDbEntity
  8
1
  6
Continuous
 62
     7
100
AcDbLine
 10
103.7639846576638
 20
122.4998375
 30
0.0
 11
102.6019875626638
 21
121.337840405
 31
0.0
  0
LINE
  5
C1
330
47
100
AcDbEntity
  8
1
  6
Continuous
 62
     7
100
AcDbLine
 10
102.6019875626638
 20
121.337840405
 30
0.0
 11
103.7639846576638
 21
121.337840405
 31
0.0
  0
LINE
  5
C2
330
47
100
AcDbEntity
  8
1
  6
Continuous
 62
     2
100
AcDbLine
 10
103.7639846576638
 20
121.337840405
 30
0.0
 11
103.7639846576638
 21
122.4998375
 31
0.0
  0
LINE
  5
C3
330
47
100
AcDbEntity
  8
1
  6
Continuous
 62
     2
100
AcDbLine
 10
103.7639846576638
 20
121.337840405
 30
0.0
 11
103.7639846576638
 21
122.4998375
 31
0.0
  0
LINE
  5
C4
330
47
100
AcDbEntity
  8
1
  6
Continuous
 62
     7
100
AcDbLine
 10
102.6019875626638
 20
121.337840405
 30
0.0
 11
102.6019875626638
 21
113.49986
 31
0.0
  0
LINE
  5
C5
330
47
100
AcDbEntity
  8
1
  6
Continuous
 62
     7
100
AcDbLine
 10
103.7640080026639
 20
121.337840405
 30
0.0
 11
122.439961312664
 21
121.337840405
 31
0.0
  0
LINE
  5
C6
330
47
100
AcDbEntity
  8
1
  6
Continuous
 62
     7
100
AcDbLine
 10
103.7639846576638
 20
122.4998375
 30
0.0
 11
122.4399846576637
 21
122.4998375
 31
0.0
  0
LINE
  5
C7
330
47
100
AcDbEntity
  8
1
  6
Continuous
 62
     7
100
AcDbLine
 10
123.6019817526637
 20
113.49986
 30
0.0
 11
123.601984657664
 21
111.4873569616048
 31
0.0
  0
LINE
  5
C8
330
47
100
AcDbEntity
  8
1
  6
Continuous
 62
     7
100
AcDbLine
 10
123.6019817526637
 20
121.337840405
 30
0.0
 11
123.6019817526637
 21
113.49986
 31
0.0
  0
LINE
  5
C9
330
47
100
AcDbEntity
  8
1
  6
Continuous
 62
     7
100
AcDbLine
 10
123.6019817526637
 20
121.337840405
 30
0.0
 11
122.4399846576637
 21
121.337840405
 31
0.0
  0
LINE
  5
CA
330
47
100
AcDbEntity
  8
1
  6
Continuous
 62
     2
100
AcDbLine
 10
122.4399846576637
 20
121.337840405
 30
0.0
 11
122.4399846576637
 21
113.49986
 31
0.0
  0
LINE
  5
CB
330
47
100
AcDbEntity
  8
1
  6
Continuous
 62
     2
100
AcDbLine
 10
122.4399846576637
 20
122.4998375
 30
0.0
 11
122.4399846576637
 21
121.337840405
 31
0.0
  0
LINE
  5
CC
330
47
100
AcDbEntity
  8
1
  6
Continuous
 62
     7
100
AcDbLine
 10
122.4399846576637
 20
122.4998375
 30
0.0
 11
123.6019817526637
 21
121.337840405
 31
0.0
  0
LINE
  5
CD
330
47
100
AcDbEntity
  8
1
  6
Continuous
 62
     7
100
AcDbLine
 10
122.4399846576637
 20
113.49986
 30
0.0
 11
123.6019817526637
 21
113.49986
 31
0.0
  0
LINE
  5
CE
330
47
100
AcDbEntity
  8
1
  6
Continuous
 62
     7
100
AcDbLine
 10
103.7639846576638
 20
113.49986
 30
0.0
 11
103.5140109076637
 21
113.49986
 31
0.0
  0
LINE
  5
CF
330
47
100
AcDbEntity
  8
1
  6
Continuous
 62
     7
100
AcDbLine
 10
122.4399846576637
 20
113.49986
 30
0.0
 11
103.7639846576638
 21
113.49986
 31
0.0
  0
LINE
  5
D0
330
47
100
AcDbEntity
  8
1
  6
Continuous
 62
     2
100
AcDbLine
 10
122.4399846576637
 20
113.49986
 30
0.0
 11
123.601984657664
 21
111.4873569616048
 31
0.0
  0
LINE
  5
D1
330
47
100
AcDbEntity
  8
1
  6
Continuous
 62
     2
100
AcDbLine
 10
102.6019904676642
 20
111.4873569616047
 30
0.0
 11
103.7639846576638
 21
113.49986
 31
0.0
  0
LINE
  5
D2
330
47
100
AcDbEntity
  8
1
  6
Continuous
 62
     7
100
AcDbLine
 10
123.601984657664
 20
111.4873569616048
 30
0.0
 11
123.601984657664
 21
111.2610470866874
 31
0.0
  0
LINE
  5
D3
330
47
100
AcDbEntity
  8
1
  6
Continuous
 62
     7
100
AcDbLine
 10
102.601984657664
 20
109.4033713644361
 30
0.0
 11
102.601984657664
 21
111.4873569616048
 31
0.0
  0
LINE
  5
D4
330
47
100
AcDbEntity
  8
1
  6
Continuous
 62
     7
100
AcDbLine
 10
123.601984657664
 20
109.4033713644361
 30
0.0
 11
125.0302429702126
 21
100.624323851217
 31
0.0
  0
LINE
  5
D5
330
47
100
AcDbEntity
  8
1
  6
Continuous
 62
     7
100
AcDbLine
 10
101.1737263451154
 20
100.624323851217
 30
0.0
 11
102.601984657664
 21
109.4033713644361
 31
0.0
  0
LINE
  5
D6
330
47
100
AcDbEntity
  8
1
  6
Continuous
 62
     7
100
AcDbLine
 10
125.8060156869066
 20
149.7061514845074
 30
0.0
 11
125.8060156869066
 21
146.0178594974128
 31
0.0
  0
LINE
  5
D7
330
47
100
AcDbEntity
  8
1
  6
Continuous
 62
     7
100
AcDbLine
 10
138.8059831869066
 20
146.0178594974128
 30
0.0
 11
138.8059831869066
 21
149.7061514845074
 31
0.0
  0
LINE
  5
D8
330
47
100
AcDbEntity
  8
1
  6
Continuous
 62
     7
100
AcDbLine
 10
122.9679994369069
 20
199.7589760741147
 30
0.0
 11
141.6439994369068
 21
199.7589760741147
 31
0.0
  0
LINE
  5
D9
330
47
100
AcDbEntity
  8
1
  6
Continuous
 62
     7
100
AcDbLine
 10
121.8059994369066
 20
207.5969760741148
 30
0.0
 11
142.8059994369066
 21
207.5969760741148
 31
0.0
  0
LINE
  5
DA
330
47
100
AcDbEntity
  8
1
  6
Continuous
 62
     7
100
AcDbLine
 10
156.3059994369066
 20
190.0089760741149
 30
0.0
 11
156.3059994369066
 21
167.5089760741147
 31
0.0
  0
LINE
  5
DB
330
47
100
AcDbEntity
  8
1
  6
Continuous
 62
     7
100
AcDbLine
 10
123.0035154169474
 20
262.4661936898225
 30
0.0
 11
125.0615529363716
 21
266.0308192373484
 31
0.0
  0
LINE
  5
DC
330
47
100
AcDbEntity
  8
1
  6
Continuous
 62
     7
100
AcDbLine
 10
129.7442617454178
 20
240.0308192373483
 30
0.0
 11
125.0615529363716
 21
240.0308192373483
 31
0.0
  0
LINE
  5
DD
330
47
100
AcDbEntity
  8
1
  6
Continuous
 62
     7
100
AcDbLine
 10
125.0615529363716
 20
240.0308192373483
 30
0.0
 11
123.0035154169473
 21
243.5954447848743
 31
0.0
  0
LINE
  5
DE
330
47
100
AcDbEntity
  8
1
  6
Continuous
 62
     7
100
AcDbLine
 10
125.0615529363716
 20
266.0308192373484
 30
0.0
 11
129.7442617454173
 21
266.0308192373484
 31
0.0
  0
ARC
  5
DF
330
47
100
AcDbEntity
  8
1
  6
Continuous
 62
     7
100
AcDbCircle
 10
264.4853606390225
 20
90.47411103862987
 30
0.0
 40
164.6458402544781
100
AcDbArc
 50
179.2949848216556
 51
185.3808878267124
  0
ARC
  5
E0
330
47
100
AcDbEntity
  8
1
  6
Continuous
 62
     7
100
AcDbCircle
 10
-38.28139132369446
 20
90.47411103862987
 30
0.0
 40
164.6458402544782
100
AcDbArc
 50
352.9000570324198
 51
354.6191121732876
  0
ARC
  5
E1
330
47
100
AcDbEntity
  8
1
  6
Continuous
 62
     7
100
AcDbCircle
 10
116.8193484239976
 20
169.5589760741148
 30
0.0
 40
2.999999999999865
100
AcDbArc
 50
359.6234033906358
 51
90.0
  0
ARC
  5
E2
330
47
100
AcDbEntity
  8
1
  6
Continuous
 62
     7
100
AcDbCircle
 10
306.7052465899874
 20
168.3108664254208
 30
0.0
 40
186.8899999999999
100
AcDbArc
 50
171.674238118397
 51
174.0609180840232
  0
ARC
  5
E3
330
47
100
AcDbEntity
  8
1
  6
Continuous
 62
     7
100
AcDbCircle
 10
117.8344868434539
 20
187.9589760741148
 30
0.0
 40
3.0
100
AcDbArc
 50
270.0
 51
354.0609180840241
  0
ARC
  5
E4
330
47
100
AcDbEntity
  8
1
  6
Continuous
 62
     7
100
AcDbCircle
 10
132.3059994369065
 20
253.0308192373484
 30
0.0
 40
6.499983750000141
100
AcDbArc
 50
82.55959423757254
 51
277.4404057624277
  0
ARC
  5
E5
330
47
100
AcDbEntity
  8
1
  6
Continuous
 62
     7
100
AcDbCircle
 10
132.3059994369065
 20
253.0308192373484
 30
0.0
 40
6.499983749999915
100
AcDbArc
 50
277.4404057624277
 51
82.55959423757254
  0
ARC
  5
E6
330
47
100
AcDbEntity
  8
0
  6
Continuous
 62
     7
100
AcDbCircle
 10
116.4335460986177
 20
238.8353861022657
 30
0.0
 40
7.999980000000022
100
AcDbArc
 50
52.12738195135588
 51
91.9285379980369
  0
ARC
  5
E7
330
47
100
AcDbEntity
  8
0
  6
Continuous
 62
     7
100
AcDbCircle
 10
116.4335460986177
 20
267.2262523724313
 30
0.0
 40
7.999979999999987
100
AcDbArc
 50
268.0714620019631
 51
307.8726180486441
  0
ARC
  5
E8
330
47
100
AcDbEntity
  8
1
  6
Continuous
 62
     7
100
AcDbCircle
 10
132.3059994369065
 20
253.0308192373484
 30
0.0
 40
13.24999999999986
100
AcDbArc
 50
101.1476910184545
 51
133.2432608276079
  0
ARC
  5
E9
330
47
100
AcDbEntity
  8
1
  6
Continuous
 62
     7
100
AcDbCircle
 10
132.3059994369065
 20
253.0308192373484
 30
0.0
 40
13.24999999999985
100
AcDbArc
 50
258.8523089815477
 51
270.0
  0
ARC
  5
EA
330
47
100
AcDbEntity
  8
1
  6
Continuous
 62
     7
100
AcDbCircle
 10
132.3059994369063
 20
148.8641525706875
 30
0.0
 40
117.4166666666608
100
AcDbArc
 50
83.52059940779536
 51
89.99999999999991
  0
ARC
  5
EB
330
47
100
AcDbEntity
  8
1
  6
Continuous
 62
     7
100
AcDbCircle
 10
132.3059994369063
 20
357.1974859040091
 30
0.0
 40
117.4166666666606
100
AcDbArc
 50
270.0000000000001
 51
276.4794005922046
  0
ARC
  5
EC
330
47
100
AcDbEntity
  8
1
  6
Continuous
 62
     7
100
AcDbCircle
 10
-42.09324771617423
 20
168.310866425421
 30
0.0
 40
186.8900000000003
100
AcDbArc
 50
355.8992941661746
 51
357.4720396354894
  0
ARC
  5
ED
330
47
100
AcDbEntity
  8
1
  6
Continuous
 62
     7
100
AcDbCircle
 10
119.601968407664
 20
77.12424904148702
 30
0.0
 40
18.77425733474291
100
AcDbArc
 50
249.7438419995888
 51
290.2561580004112
  0
ARC
  5
EE
330
47
100
AcDbEntity
  8
1
  6
Continuous
 62
     7
100
AcDbCircle
 10
106.602000907664
 20
77.12424904148702
 30
0.0
 40
18.77425733474292
100
AcDbArc
 50
249.7438419995887
 51
290.2561580004112
  0
ARC
  5
EF
330
47
100
AcDbEntity
  8
1
  6
Continuous
 62
     7
100
AcDbCircle
 10
119.601968407664
 20
45.83513926676955
 30
0.0
 40
18.77425733474296
100
AcDbArc
 50
69.74384199958882
 51
110.2561580004112
  0
ARC
  5
F0
330
47
100
AcDbEntity
  8
1
  6
Continuous
 62
     7
100
AcDbCircle
 10
106.602000907664
 20
45.83513926676955
 30
0.0
 40
18.77425733474296
100
AcDbArc
 50
69.74384199958882
 51
110.2561580004112
  0
ARC
  5
F1
330
47
100
AcDbEntity
  8
1
  6
Continuous
 62
     7
100
AcDbCircle
 10
-61.76052728461139
 20
78.51343544164826
 30
0.0
 40
187.050723233045
100
AcDbArc
 50
356.2454229217918
 51
357.4292975661716
  0
ARC
  5
F2
330
47
100
AcDbEntity
  8
1
  6
Continuous
 62
     7
100
AcDbCircle
 10
128.3848940928692
 20
66.1012309031484
 30
0.0
 40
3.499991250000167
100
AcDbArc
 50
177.3209898544473
 51
229.2869733355805
  0
ARC
  5
F3
330
47
100
AcDbEntity
  8
1
  6
Continuous
 62
     7
100
AcDbCircle
 10
369.2725558565601
 20
83.00690756852913
 30
0.0
 40
268.4947755341485
100
AcDbArc
 50
182.7502619349382
 51
183.3109584324624
  0
ARC
  5
F4
330
47
100
AcDbEntity
  8
1
  6
Continuous
 62
     7
100
AcDbCircle
 10
-38.28139132369446
 20
90.47411103862987
 30
0.0
 40
164.6458402544782
100
AcDbArc
 50
354.6191121732876
 51
0.70501517834443
  0
ARC
  5
F5
330
47
100
AcDbEntity
  8
1
  6
Continuous
 62
     7
100
AcDbCircle
 10
104.8860187262184
 20
93.17739268297055
 30
0.0
 40
21.47665137345498
100
AcDbArc
 50
358.1925403927851
 51
8.93620264613941
  0
ARC
  5
F6
330
47
100
AcDbEntity
  8
1
  6
Continuous
 62
     7
100
AcDbCircle
 10
264.4853606390225
 20
90.47411103862987
 30
0.0
 40
164.6458402544781
100
AcDbArc
 50
185.3808878267124
 51
187.0999429675802
  0
ARC
  5
F7
330
47
100
AcDbEntity
  8
1
  6
Continuous
 62
     7
100
AcDbCircle
 10
121.3179505891096
 20
93.17739268297055
 30
0.0
 40
21.47665137345495
100
AcDbArc
 50
171.0637973538605
 51
181.807459607215
  0
ARC
  5
F8
330
47
100
AcDbEntity
  8
1
  6
Continuous
 62
     7
100
AcDbCircle
 10
132.3059994369066
 20
132.0930044141827
 30
0.0
 40
18.77425733474299
100
AcDbArc
 50
69.74384199958891
 51
110.2561580004111
  0
ARC
  5
F9
330
47
100
AcDbEntity
  8
1
  6
Continuous
 62
     7
100
AcDbCircle
 10
132.3059994369066
 20
163.3821141889002
 30
0.0
 40
18.77425733474291
100
AcDbArc
 50
249.7438419995888
 51
290.2561580004112
  0
ARC
  5
FA
330
47
100
AcDbEntity
  8
1
  6
Continuous
 62
     7
100
AcDbCircle
 10
142.9309913119066
 20
138.5285274216919
 30
0.0
 40
11.91448579339233
100
AcDbArc
 50
69.74384199958897
 51
110.2561580004112
  0
ARC
  5
FB
330
47
100
AcDbEntity
  8
1
  6
Continuous
 62
     7
100
AcDbCircle
 10
142.9309913119066
 20
156.9465911813909
 30
0.0
 40
11.91448579339215
100
AcDbArc
 50
249.7438419995885
 51
290.2561580004113
  0
ARC
  5
FC
330
47
100
AcDbEntity
  8
1
  6
Continuous
 62
     7
100
AcDbCircle
 10
121.6810075619066
 20
138.528527421692
 30
0.0
 40
11.91448579339226
100
AcDbArc
 50
69.74384199958877
 51
110.2561580004112
  0
ARC
  5
FD
330
47
100
AcDbEntity
  8
1
  6
Continuous
 62
     7
100
AcDbCircle
 10
121.6810075619066
 20
156.946591181391
 30
0.0
 40
11.91448579339225
100
AcDbArc
 50
249.7438419995888
 51
290.2561580004112
  0
ARC
  5
FE
330
47
100
AcDbEntity
  8
1
  6
Continuous
 62
     7
100
AcDbCircle
 10
306.7052465899874
 20
168.3108664254208
 30
0.0
 40
186.8899999999996
100
AcDbArc
 50
179.6234033906329
 51
184.1007058338253
  0
ARC
  5
FF
330
47
100
AcDbEntity
  8
1
  6
Continuous
 62
     7
100
AcDbCircle
 10
132.3059994369065
 20
253.0308192373484
 30
0.0
 40
13.24999999999989
100
AcDbArc
 50
90.0
 51
101.1476910184545
  0
ARC
  5
100
330
47
100
AcDbEntity
  8
1
  6
Continuous
 62
     7
100
AcDbCircle
 10
132.3059994369065
 20
253.0308192373484
 30
0.0
 40
13.24999999999993
100
AcDbArc
 50
226.7567391723905
 51
258.8523089815477
  0
CIRCLE
  5
101
330
47
100
AcDbEntity
  8
1
  6
Continuous
 62
     2
100
AcDbCircle
 10
132.3059994369065
 20
253.0308192373484
 30
0.0
 40
9.338000000000306
  0
CIRCLE
  5
102
330
47
100
AcDbEntity
  8
1
  6
Continuous
 62
     7
100
AcDbCircle
 10
132.3059994369065
 20
253.0308192373484
 30
0.0
 40
10.50000000000011
  0
CIRCLE
  5
103
330
47
100
AcDbEntity
  8
1
  6
Continuous
 62
     7
100
AcDbCircle
 10
132.3059994369065
 20
253.0308192373484
 30
0.0
 40
10.99999999999991
  0
ARC
  5
104
330
47
100
AcDbEntity
  8
1
  6
Continuous
 62
     7
100
AcDbCircle
 10
119.8059994369066
 20
195.6623474385509
 30
0.0
 40
2.000000000000071
100
AcDbArc
 50
351.6742381184056
 51
0.0
  0
ARC
  5
105
330
47
100
AcDbEntity
  8
1
  6
Continuous
 62
     7
100
AcDbCircle
 10
148.8059994369068
 20
196.7589760741149
 30
0.0
 40
6.000000000000199
100
AcDbArc
 50
180.0
 51
269.9999999999981
  0
ARC
  5
106
330
47
100
AcDbEntity
  8
1
  6
Continuous
 62
     7
100
AcDbCircle
 10
133.3977135866988
 20
247.7808323623484
 30
0.0
 40
0.749998125000019
100
AcDbArc
 50
270.0
 51
0.0
  0
ARC
  5
107
330
47
100
AcDbEntity
  8
1
  6
Continuous
 62
     7
100
AcDbCircle
 10
133.3977135866988
 20
258.2808061123484
 30
0.0
 40
0.7499981249999905
100
AcDbArc
 50
0.0
 51
90.0
  0
ARC
  5
108
330
47
100
AcDbEntity
  8
1
  6
Continuous
 62
     7
100
AcDbCircle
 10
148.1085672094322
 20
154.6746756448004
 30
0.0
 40
3.800000000000042
100
AcDbArc
 50
175.8992941661739
 51
220.0000018032295
  0
ARC
  5
109
330
47
100
AcDbEntity
  8
1
  6
Continuous
 62
     7
100
AcDbCircle
 10
94.12854683402041
 20
67.28706162428705
 30
0.0
 40
7.100601623314258
100
AcDbArc
 50
327.2736843275163
 51
1.71848813865974
  0
ARC
  5
10A
330
47
100
AcDbEntity
  8
1
  6
Continuous
 62
     7
100
AcDbCircle
 10
151.6080617048496
 20
159.7589760741147
 30
0.0
 40
7.0
100
AcDbArc
 50
90.0
 51
177.4720396354903
  0
ARC
  5
10B
330
47
100
AcDbEntity
  8
1
  6
Continuous
 62
     7
100
AcDbCircle
 10
116.503431664381
 20
154.6746756448004
 30
0.0
 40
3.799999999999983
100
AcDbArc
 50
319.9999981967704
 51
4.10070583382608
  0
ENDBLK
  5
49
330
47
100
AcDbEntity
  8
0
100
AcDbBlockEnd
  0
BLOCK
  5
4B
330
4A
100
AcDbEntity
  8
0
100
AcDbBlockBegin
  2
72-206
 70
     0
 10
102.3111885737401
 20
178.7589760741153
 30
0.0
  3
72-206
  1

  0
LINE
  5
10C
330
4A
100
AcDbEntity
  8
1
  6
Continuous
 62
     2
100
AcDbLine
 10
78.61887443690682
 20
250.4808192373485
 30
0.0
 11
105.9644609121142
 21
250.4808192373485
 31
0.0
  0
LINE
  5
10D
330
4A
100
AcDbEntity
  8
1
  6
Continuous
 62
     7
100
AcDbLine
 10
78.61887443690682
 20
249.6678192373485
 30
0.0
 11
105.9644609121142
 21
249.6678192373485
 31
0.0
  0
LINE
  5
10E
330
4A
100
AcDbEntity
  8
1
  6
Continuous
 62
     2
100
AcDbLine
 10
105.9644609121142
 20
255.5808192373486
 30
0.0
 11
78.61887443690682
 21
255.5808192373486
 31
0.0
  0
LINE
  5
10F
330
4A
100
AcDbEntity
  8
1
  6
Continuous
 62
     7
100
AcDbLine
 10
105.9644609121142
 20
256.3938192373484
 30
0.0
 11
78.61887443690682
 21
256.3938192373484
 31
0.0
  0
LINE
  5
110
330
4A
100
AcDbEntity
  8
1
  6
Continuous
 62
     2
100
AcDbLine
 10
105.8059994369066
 20
181.3089760741154
 30
0.0
 11
78.6189869369068
 21
181.3089760741154
 31
0.0
  0
LINE
  5
111
330
4A
100
AcDbEntity
  8
1
  6
Continuous
 62
     7
100
AcDbLine
 10
105.8059994369066
 20
182.1219760741152
 30
0.0
 11
78.6189869369068
 21
182.1219760741152
 31
0.0
  0
LINE
  5
112
330
4A
100
AcDbEntity
  8
1
  6
Continuous
 62
     2
100
AcDbLine
 10
78.6189869369068
 20
176.2089760741153
 30
0.0
 11
105.8059994369066
 21
176.2089760741153
 31
0.0
  0
LINE
  5
113
330
4A
100
AcDbEntity
  8
1
  6
Continuous
 62
     7
100
AcDbLine
 10
78.6189869369068
 20
175.3959760741153
 30
0.0
 11
105.8059994369066
 21
175.3959760741153
 31
0.0
  0
ENDBLK
  5
4C
330
4A
100
AcDbEntity
  8
0
100
AcDbBlockEnd
  0
BLOCK
  5
4E
330
4D
100
AcDbEntity
  8
0
100
AcDbBlockBegin
  2
72-207__1
 70
     0
 10
128.4579123059643
 20
273.4058909552161
 30
0.0
  3
72-207__1
  1

  0
LINE
  5
114
330
4D
100
AcDbEntity
  8
1
  6
Continuous
 62
     7
100
AcDbLine
 10
110.8059994369065
 20
184.4589760741148
 30
0.0
 11
110.8059994369065
 21
173.0432369879763
 31
0.0
  0
LINE
  5
115
330
4D
100
AcDbEntity
  8
1
  6
Continuous
 62
     7
100
AcDbLine
 10
110.9643359121142
 20
257.9800306865971
 30
0.0
 11
110.9643359121142
 21
248.0816077881001
 31
0.0
  0
LINE
  5
116
330
4D
100
AcDbEntity
  8
1
  6
Continuous
 62
     7
100
AcDbLine
 10
106.3059981869066
 20
173.0432369879763
 30
0.0
 11
110.8059869369066
 21
173.0432369879763
 31
0.0
  0
LINE
  5
117
330
4D
100
AcDbEntity
  8
1
  6
Continuous
 62
     7
100
AcDbLine
 10
105.8059994369066
 20
174.0090022385343
 30
0.0
 11
106.3059981869066
 21
173.0432369879763
 31
0.0
  0
LINE
  5
118
330
4D
100
AcDbEntity
  8
1
  6
Continuous
 62
     7
100
AcDbLine
 10
105.8059994369066
 20
178.7589903635344
 30
0.0
 11
105.8059994369066
 21
174.0090022385343
 31
0.0
  0
LINE
  5
119
330
4D
100
AcDbEntity
  8
1
  6
Continuous
 62
     7
100
AcDbLine
 10
106.3059981869066
 20
175.9011136757555
 30
0.0
 11
110.8059869369066
 21
175.9011136757555
 31
0.0
  0
LINE
  5
11A
330
4D
100
AcDbEntity
  8
1
  6
Continuous
 62
     7
100
AcDbLine
 10
110.8059869369066
 20
184.4747437390925
 30
0.0
 11
106.3059981869066
 21
184.4747437390925
 31
0.0
  0
LINE
  5
11B
330
4D
100
AcDbEntity
  8
1
  6
Continuous
 62
     7
100
AcDbLine
 10
106.3059981869066
 20
184.4747437390925
 30
0.0
 11
105.8059994369066
 21
183.5089784885344
 31
0.0
  0
LINE
  5
11C
330
4D
100
AcDbEntity
  8
1
  6
Continuous
 62
     7
100
AcDbLine
 10
105.8059994369066
 20
183.5089784885344
 30
0.0
 11
105.8059994369066
 21
178.7589903635344
 31
0.0
  0
LINE
  5
11D
330
4D
100
AcDbEntity
  8
1
  6
Continuous
 62
     7
100
AcDbLine
 10
110.8059869369066
 20
181.6168670513135
 30
0.0
 11
106.3059981869066
 21
181.6168670513135
 31
0.0
  0
LINE
  5
11E
330
4D
100
AcDbEntity
  8
1
  6
Continuous
 62
     7
100
AcDbLine
 10
106.4644484121142
 20
253.0308192373484
 30
0.0
 11
110.9643359121142
 21
253.0308192373484
 31
0.0
  0
LINE
  5
11F
330
4D
100
AcDbEntity
  8
1
  6
Continuous
 62
     7
100
AcDbLine
 10
110.9643359121142
 20
248.0816077881001
 30
0.0
 11
106.0676587134473
 21
248.0816077881001
 31
0.0
  0
LINE
  5
120
330
4D
100
AcDbEntity
  8
1
  6
Continuous
 62
     7
100
AcDbLine
 10
106.0676587134473
 20
257.9800306865971
 30
0.0
 11
110.9643359121142
 21
257.9800306865971
 31
0.0
  0
LINE
  5
121
330
4D
100
AcDbEntity
  8
1
  6
Continuous
 62
     7
100
AcDbLine
 10
106.0676587134473
 20
257.9800306865971
 30
0.0
 11
105.9644609121142
 21
257.7807004873484
 31
0.0
  0
LINE
  5
122
330
4D
100
AcDbEntity
  8
1
  6
Continuous
 62
     7
100
AcDbLine
 10
105.9644609121142
 20
257.7807004873484
 30
0.0
 11
105.9644609121142
 21
253.0308192373484
 31
0.0
  0
LINE
  5
123
330
4D
100
AcDbEntity
  8
1
  6
Continuous
 62
     7
100
AcDbLine
 10
105.9644609121142
 20
253.0308192373484
 30
0.0
 11
105.9644609121142
 21
248.2809379873485
 31
0.0
  0
LINE
  5
124
330
4D
100
AcDbEntity
  8
1
  6
Continuous
 62
     7
100
AcDbLine
 10
105.9644609121142
 20
248.2809379873485
 30
0.0
 11
106.0676587134473
 21
248.0816077881001
 31
0.0
  0
ARC
  5
125
330
4D
100
AcDbEntity
  8
1
  6
Continuous
 62
     7
100
AcDbCircle
 10
109.5591150540941
 20
174.4721753318658
 30
0.0
 40
3.553116117187559
100
AcDbArc
 50
156.2864175266635
 51
203.7135824733336
  0
ARC
  5
126
330
4D
100
AcDbEntity
  8
1
  6
Continuous
 62
     7
100
AcDbCircle
 10
119.7684645306567
 20
178.7589903635344
 30
0.0
 40
13.76246559375011
100
AcDbArc
 50
180.0
 51
191.9851002923837
  0
ARC
  5
127
330
4D
100
AcDbEntity
  8
1
  6
Continuous
 62
     7
100
AcDbCircle
 10
109.5591150540941
 20
183.0458053952031
 30
0.0
 40
3.553116117187434
100
AcDbArc
 50
156.2864175266681
 51
203.7135824733348
  0
ARC
  5
128
330
4D
100
AcDbEntity
  8
1
  6
Continuous
 62
     7
100
AcDbCircle
 10
119.7684645306567
 20
178.7589903635344
 30
0.0
 40
13.7624655937501
100
AcDbArc
 50
168.0148997076154
 51
180.0
  0
ARC
  5
129
330
4D
100
AcDbEntity
  8
1
  6
Continuous
 62
     7
100
AcDbCircle
 10
116.5208298087943
 20
255.5054249619728
 30
0.0
 40
10.35637389668011
100
AcDbArc
 50
166.1757070278551
 51
193.8242929721455
  0
ARC
  5
12A
330
4D
100
AcDbEntity
  8
1
  6
Continuous
 62
     7
100
AcDbCircle
 10
116.5208298087943
 20
250.5562135127243
 30
0.0
 40
10.35637389668006
100
AcDbArc
 50
166.1757070278562
 51
193.8242929721444
  0
ENDBLK
  5
4F
330
4D
100
AcDbEntity
  8
0
100
AcDbBlockEnd
  0
BLOCK
  5
51
330
50
100
AcDbEntity
  8
0
100
AcDbBlockBegin
  2
72-207__2
 70
     0
 10
77.3809994369064
 20
173.043208409138
 30
0.0
  3
72-207__2
  1

  0
LINE
  5
12B
330
50
100
AcDbEntity
  8
1
  6
Continuous
 62
     7
100
AcDbLine
 10
78.11898818690679
 20
181.6168527618947
 30
0.0
 11
73.61899943690679
 21
181.6168527618947
 31
0.0
  0
LINE
  5
12C
330
50
100
AcDbEntity
  8
1
  6
Continuous
 62
     7
100
AcDbLine
 10
78.6189869369068
 20
178.7589760741155
 30
0.0
 11
78.6189869369068
 21
183.5089641991155
 31
0.0
  0
LINE
  5
12D
330
50
100
AcDbEntity
  8
1
  6
Continuous
 62
     7
100
AcDbLine
 10
78.6189869369068
 20
183.5089641991155
 30
0.0
 11
78.11898818690679
 21
184.4747294496737
 31
0.0
  0
LINE
  5
12E
330
50
100
AcDbEntity
  8
1
  6
Continuous
 62
     7
100
AcDbLine
 10
78.11898818690679
 20
184.4747294496737
 30
0.0
 11
73.61899943690679
 21
184.4747294496737
 31
0.0
  0
LINE
  5
12F
330
50
100
AcDbEntity
  8
1
  6
Continuous
 62
     7
100
AcDbLine
 10
73.61899943690679
 20
175.9010993863365
 30
0.0
 11
78.11898818690679
 21
175.9010993863365
 31
0.0
  0
LINE
  5
130
330
50
100
AcDbEntity
  8
1
  6
Continuous
 62
     7
100
AcDbLine
 10
78.6189869369068
 20
174.0089879491155
 30
0.0
 11
78.6189869369068
 21
178.7589760741155
 31
0.0
  0
LINE
  5
131
330
50
100
AcDbEntity
  8
1
  6
Continuous
 62
     7
100
AcDbLine
 10
78.11898818690679
 20
173.0432226985575
 30
0.0
 11
78.6189869369068
 21
174.0089879491155
 31
0.0
  0
LINE
  5
132
330
50
100
AcDbEntity
  8
1
  6
Continuous
 62
     7
100
AcDbLine
 10
73.61899943690679
 20
173.0432226985575
 30
0.0
 11
78.11898818690679
 21
173.0432226985575
 31
0.0
  0
LINE
  5
133
330
50
100
AcDbEntity
  8
1
  6
Continuous
 62
     7
100
AcDbLine
 10
73.61899943690679
 20
184.4747294496737
 30
0.0
 11
73.61899943690679
 21
173.0432226985575
 31
0.0
  0
LINE
  5
134
330
50
100
AcDbEntity
  8
1
  6
Continuous
 62
     7
100
AcDbLine
 10
78.51567663557375
 20
248.0816077881002
 30
0.0
 11
78.61887443690682
 21
248.2809379873485
 31
0.0
  0
LINE
  5
135
330
50
100
AcDbEntity
  8
1
  6
Continuous
 62
     7
100
AcDbLine
 10
78.61887443690682
 20
248.2809379873485
 30
0.0
 11
78.61887443690682
 21
253.0308192373484
 31
0.0
  0
LINE
  5
136
330
50
100
AcDbEntity
  8
1
  6
Continuous
 62
     7
100
AcDbLine
 10
78.61887443690682
 20
253.0308192373484
 30
0.0
 11
78.61887443690682
 21
257.7807004873484
 31
0.0
  0
LINE
  5
137
330
50
100
AcDbEntity
  8
1
  6
Continuous
 62
     7
100
AcDbLine
 10
78.61887443690682
 20
257.7807004873484
 30
0.0
 11
78.51567663557375
 21
257.9800306865973
 31
0.0
  0
LINE
  5
138
330
50
100
AcDbEntity
  8
1
  6
Continuous
 62
     7
100
AcDbLine
 10
73.61899943690679
 20
257.9800306865973
 30
0.0
 11
78.51567663557375
 21
257.9800306865973
 31
0.0
  0
LINE
  5
139
330
50
100
AcDbEntity
  8
1
  6
Continuous
 62
     7
100
AcDbLine
 10
78.51567663557375
 20
248.0816077881002
 30
0.0
 11
73.61899943690679
 21
248.0816077881002
 31
0.0
  0
LINE
  5
13A
330
50
100
AcDbEntity
  8
1
  6
Continuous
 62
     7
100
AcDbLine
 10
73.61899943690679
 20
253.0308192373484
 30
0.0
 11
78.11888693690682
 21
253.0308192373484
 31
0.0
  0
LINE
  5
13B
330
50
100
AcDbEntity
  8
1
  6
Continuous
 62
     7
100
AcDbLine
 10
73.61899943690679
 20
257.9800306865973
 30
0.0
 11
73.61899943690679
 21
248.0816077881002
 31
0.0
  0
ARC
  5
13C
330
50
100
AcDbEntity
  8
1
  6
Continuous
 62
     7
100
AcDbCircle
 10
64.6565218431567
 20
178.7589760741155
 30
0.0
 40
13.76246559375011
100
AcDbArc
 50
0.0
 51
11.98510029238497
  0
ARC
  5
13D
330
50
100
AcDbEntity
  8
1
  6
Continuous
 62
     7
100
AcDbCircle
 10
74.86587131971933
 20
183.0457911057842
 30
0.0
 40
3.553116117187442
100
AcDbArc
 50
336.2864175266667
 51
23.71358247333375
  0
ARC
  5
13E
330
50
100
AcDbEntity
  8
1
  6
Continuous
 62
     7
100
AcDbCircle
 10
64.6565218431567
 20
178.7589760741155
 30
0.0
 40
13.76246559375008
100
AcDbArc
 50
348.0148997076159
 51
0.0
  0
ARC
  5
13F
330
50
100
AcDbEntity
  8
1
  6
Continuous
 62
     7
100
AcDbCircle
 10
74.86587131971933
 20
174.4721610424469
 30
0.0
 40
3.553116117187408
100
AcDbArc
 50
336.2864175266679
 51
23.71358247333501
  0
ARC
  5
140
330
50
100
AcDbEntity
  8
1
  6
Continuous
 62
     7
100
AcDbCircle
 10
68.06250554022671
 20
250.5562135127243
 30
0.0
 40
10.35637389668006
100
AcDbArc
 50
346.1757070278562
 51
13.8242929721438
  0
ARC
  5
141
330
50
100
AcDbEntity
  8
1
  6
Continuous
 62
     7
100
AcDbCircle
 10
68.06250554022671
 20
255.5054249619728
 30
0.0
 40
10.35637389668013
100
AcDbArc
 50
346.1757070278545
 51
13.82429297214579
  0
ENDBLK
  5
52
330
50
100
AcDbEntity
  8
0
100
AcDbBlockEnd
  0
BLOCK
  5
54
330
53
100
AcDbEntity
  8
0
100
AcDbBlockBegin
  2
H86F-A
 70
     0
 10
10.63099943690654
 20
223.2589760741153
 30
0.0
  3
H86F-A
  1

  0
LINE
  5
142
330
53
100
AcDbEntity
  8
1
  6
Continuous
 62
     7
100
AcDbLine
 10
65.61892443690675
 20
186.5087823241154
 30
0.0
 11
65.6189244369067
 21
190.0086948241154
 31
0.0
  0
LINE
  5
143
330
53
100
AcDbEntity
  8
1
  6
Continuous
 62
     7
100
AcDbLine
 10
62.61899943690671
 20
200.2584385741154
 30
0.0
 11
62.61899943690671
 21
195.4782490246157
 31
0.0
  0
LINE
  5
144
330
53
100
AcDbEntity
  8
1
  6
Continuous
 62
     7
100
AcDbLine
 10
65.6189244369067
 20
199.2584635741154
 30
0.0
 11
65.6189244369067
 21
197.5085073241154
 31
0.0
  0
LINE
  5
145
330
53
100
AcDbEntity
  8
1
  6
Continuous
 62
     7
100
AcDbLine
 10
62.61899943690676
 20
178.7589760741154
 30
0.0
 11
62.61899943690671
 21
192.2586385741154
 31
0.0
  0
LINE
  5
146
330
53
100
AcDbEntity
  8
1
  6
Continuous
 62
     7
100
AcDbLine
 10
62.61899943690671
 20
200.2584385741154
 30
0.0
 11
64.61894943690672
 21
200.2584385741154
 31
0.0
  0
LINE
  5
147
330
53
100
AcDbEntity
  8
1
  6
Continuous
 62
     7
100
AcDbLine
 10
71.61904943690678
 20
184.5088323241154
 30
0.0
 11
67.61887443690676
 21
184.5088323241154
 31
0.0
  0
LINE
  5
148
330
53
100
AcDbEntity
  8
1
  6
Continuous
 62
     7
100
AcDbLine
 10
73.61899943690679
 20
181.4099460953161
 30
0.0
 11
73.61899943690679
 21
182.5088823241154
 31
0.0
  0
LINE
  5
149
330
53
100
AcDbEntity
  8
1
  6
Continuous
 62
     7
100
AcDbLine
 10
65.6189244369067
 20
167.5092573241153
 30
0.0
 11
65.61892443690675
 21
171.0091698241154
 31
0.0
  0
LINE
  5
14A
330
53
100
AcDbEntity
  8
1
  6
Continuous
 62
     7
100
AcDbLine
 10
62.61899943690671
 20
165.2593135741154
 30
0.0
 11
62.61899943690676
 21
178.7589760741154
 31
0.0
  0
LINE
  5
14B
330
53
100
AcDbEntity
  8
1
  6
Continuous
 62
     7
100
AcDbLine
 10
67.61887443690676
 20
173.0091198241154
 30
0.0
 11
71.61904943690678
 21
173.0091198241154
 31
0.0
  0
LINE
  5
14C
330
53
100
AcDbEntity
  8
1
  6
Continuous
 62
     7
100
AcDbLine
 10
73.61899943690679
 20
175.0090698241153
 30
0.0
 11
73.61899943690679
 21
181.4099460953161
 31
0.0
  0
LINE
  5
14D
330
53
100
AcDbEntity
  8
1
  6
Continuous
 62
     7
100
AcDbLine
 10
62.61899943690671
 20
165.2593135741154
 30
0.0
 11
62.61899943690671
 21
162.039703123615
 31
0.0
  0
LINE
  5
14E
330
53
100
AcDbEntity
  8
1
  6
Continuous
 62
     7
100
AcDbLine
 10
65.61892443690675
 20
186.5087823241154
 30
0.0
 11
65.61892443690675
 21
171.0091698241154
 31
0.0
  0
LINE
  5
14F
330
53
100
AcDbEntity
  8
1
  6
Continuous
 62
     7
100
AcDbLine
 10
62.61899943690671
 20
192.2586385741154
 30
0.0
 11
62.61899943690671
 21
195.4782490246157
 31
0.0
  0
LINE
  5
150
330
53
100
AcDbEntity
  8
1
  6
Continuous
 62
     7
100
AcDbLine
 10
65.6189244369067
 20
197.5085073241154
 30
0.0
 11
65.6189244369067
 21
190.0086948241154
 31
0.0
  0
LINE
  5
151
330
53
100
AcDbEntity
  8
1
  6
Continuous
 62
     7
100
AcDbLine
 10
65.6189244369067
 20
271.7803504873486
 30
0.0
 11
65.6189244369067
 21
264.2805379873487
 31
0.0
  0
LINE
  5
152
330
53
100
AcDbEntity
  8
1
  6
Continuous
 62
     7
100
AcDbLine
 10
62.61899943690671
 20
266.5304817373486
 30
0.0
 11
62.61899943690671
 21
269.7500921878489
 31
0.0
  0
LINE
  5
153
330
53
100
AcDbEntity
  8
1
  6
Continuous
 62
     7
100
AcDbLine
 10
65.61892443690675
 20
260.7806254873485
 30
0.0
 11
65.61892443690675
 21
245.2810129873487
 31
0.0
  0
LINE
  5
154
330
53
100
AcDbEntity
  8
1
  6
Continuous
 62
     7
100
AcDbLine
 10
65.6189244369067
 20
241.7811004873486
 30
0.0
 11
65.6189244369067
 21
234.2812879873486
 31
0.0
  0
LINE
  5
155
330
53
100
AcDbEntity
  8
1
  6
Continuous
 62
     7
100
AcDbLine
 10
62.61899943690671
 20
239.5311567373486
 30
0.0
 11
62.61899943690671
 21
236.3115462868483
 31
0.0
  0
LINE
  5
156
330
53
100
AcDbEntity
  8
1
  6
Continuous
 62
     7
100
AcDbLine
 10
73.61899943690679
 20
249.2809129873485
 30
0.0
 11
73.61899943690679
 21
255.6817892585493
 31
0.0
  0
LINE
  5
157
330
53
100
AcDbEntity
  8
1
  6
Continuous
 62
     7
100
AcDbLine
 10
67.61887443690676
 20
247.2809629873486
 30
0.0
 11
71.61904943690678
 21
247.2809629873486
 31
0.0
  0
LINE
  5
158
330
53
100
AcDbEntity
  8
1
  6
Continuous
 62
     7
100
AcDbLine
 10
64.61894943690672
 20
231.5313567373487
 30
0.0
 11
62.61899943690671
 21
231.5313567373487
 31
0.0
  0
LINE
  5
159
330
53
100
AcDbEntity
  8
1
  6
Continuous
 62
     7
100
AcDbLine
 10
62.61899943690671
 20
239.5311567373486
 30
0.0
 11
62.61899943690676
 21
253.0308192373485
 31
0.0
  0
LINE
  5
15A
330
53
100
AcDbEntity
  8
1
  6
Continuous
 62
     7
100
AcDbLine
 10
65.6189244369067
 20
234.2812879873486
 30
0.0
 11
65.6189244369067
 21
232.5313317373486
 31
0.0
  0
LINE
  5
15B
330
53
100
AcDbEntity
  8
1
  6
Continuous
 62
     7
100
AcDbLine
 10
62.61899943690671
 20
236.3115462868483
 30
0.0
 11
62.61899943690671
 21
231.5313567373487
 31
0.0
  0
LINE
  5
15C
330
53
100
AcDbEntity
  8
1
  6
Continuous
 62
     7
100
AcDbLine
 10
65.6189244369067
 20
241.7811004873486
 30
0.0
 11
65.61892443690675
 21
245.2810129873487
 31
0.0
  0
LINE
  5
15D
330
53
100
AcDbEntity
  8
1
  6
Continuous
 62
     7
100
AcDbLine
 10
73.61899943690679
 20
255.6817892585493
 30
0.0
 11
73.61899943690679
 21
256.7807254873486
 31
0.0
  0
LINE
  5
15E
330
53
100
AcDbEntity
  8
1
  6
Continuous
 62
     7
100
AcDbLine
 10
71.61904943690678
 20
258.7806754873486
 30
0.0
 11
67.61887443690676
 21
258.7806754873486
 31
0.0
  0
LINE
  5
15F
330
53
100
AcDbEntity
  8
1
  6
Continuous
 62
     7
100
AcDbLine
 10
62.61899943690671
 20
274.5302817373486
 30
0.0
 11
64.61894943690672
 21
274.5302817373486
 31
0.0
  0
LINE
  5
160
330
53
100
AcDbEntity
  8
1
  6
Continuous
 62
     7
100
AcDbLine
 10
62.61899943690676
 20
253.0308192373485
 30
0.0
 11
62.61899943690671
 21
266.5304817373486
 31
0.0
  0
LINE
  5
161
330
53
100
AcDbEntity
  8
1
  6
Continuous
 62
     7
100
AcDbLine
 10
65.6189244369067
 20
273.5303067373486
 30
0.0
 11
65.6189244369067
 21
271.7803504873486
 31
0.0
  0
LINE
  5
162
330
53
100
AcDbEntity
  8
1
  6
Continuous
 62
     7
100
AcDbLine
 10
62.61899943690671
 20
274.5302817373486
 30
0.0
 11
62.61899943690671
 21
269.7500921878489
 31
0.0
  0
LINE
  5
163
330
53
100
AcDbEntity
  8
1
  6
Continuous
 62
     7
100
AcDbLine
 10
65.61892443690675
 20
260.7806254873485
 30
0.0
 11
65.6189244369067
 21
264.2805379873487
 31
0.0
  0
LINE
  5
164
330
53
100
AcDbEntity
  8
1
  6
Continuous
 62
     7
100
AcDbLine
 10
65.6189244369067
 20
160.0094448241154
 30
0.0
 11
65.6189244369067
 21
158.2594885741154
 31
0.0
  0
LINE
  5
165
330
53
100
AcDbEntity
  8
1
  6
Continuous
 62
     7
100
AcDbLine
 10
64.61894943690672
 20
157.2595135741154
 30
0.0
 11
62.61899943690671
 21
157.2595135741154
 31
0.0
  0
LINE
  5
166
330
53
100
AcDbEntity
  8
1
  6
Continuous
 62
     7
100
AcDbLine
 10
62.61899943690671
 20
162.039703123615
 30
0.0
 11
62.61899943690671
 21
157.2595135741154
 31
0.0
  0
LINE
  5
167
330
53
100
AcDbEntity
  8
1
  6
Continuous
 62
     7
100
AcDbLine
 10
65.6189244369067
 20
167.5092573241153
 30
0.0
 11
65.6189244369067
 21
160.0094448241154
 31
0.0
  0
ARC
  5
168
330
53
100
AcDbEntity
  8
1
  6
Continuous
 62
     7
100
AcDbCircle
 10
113.101984657664
 20
92.5
 30
0.0
 40
21.49946249999989
100
AcDbArc
 50
43.64302045452135
 51
60.76555831193991
  0
ARC
  5
169
330
53
100
AcDbEntity
  8
1
  6
Continuous
 62
     7
100
AcDbCircle
 10
113.101984657664
 20
92.5
 30
0.0
 40
21.49946249999986
100
AcDbArc
 50
119.2344229468271
 51
234.329210611545
  0
ARC
  5
16A
330
53
100
AcDbEntity
  8
1
  6
Continuous
 62
     7
100
AcDbCircle
 10
113.101984657664
 20
92.5
 30
0.0
 40
21.4994625
100
AcDbArc
 50
305.6707893884551
 51
0.0
  0
ARC
  5
16B
330
53
100
AcDbEntity
  8
1
  6
Continuous
 62
     7
100
AcDbCircle
 10
113.101984657664
 20
92.5
 30
0.0
 40
21.49946249999989
100
AcDbArc
 50
0.0
 51
43.64302045452135
  0
ARC
  5
16C
330
53
100
AcDbEntity
  8
1
  6
Continuous
 62
     7
100
AcDbCircle
 10
64.61894943690672
 20
199.2584635741154
 30
0.0
 40
0.9999749999999779
100
AcDbArc
 50
0.0
 51
90.0
  0
ARC
  5
16D
330
53
100
AcDbEntity
  8
1
  6
Continuous
 62
     7
100
AcDbCircle
 10
71.61904943690678
 20
182.5088823241154
 30
0.0
 40
1.999950000000013
100
AcDbArc
 50
0.0
 51
90.0
  0
ARC
  5
16E
330
53
100
AcDbEntity
  8
1
  6
Continuous
 62
     7
100
AcDbCircle
 10
67.61887443690676
 20
186.5087823241154
 30
0.0
 40
1.999950000000013
100
AcDbArc
 50
180.0
 51
270.0
  0
ARC
  5
16F
330
53
100
AcDbEntity
  8
1
  6
Continuous
 62
     7
100
AcDbCircle
 10
71.61904943690678
 20
175.0090698241153
 30
0.0
 40
1.999949999999899
100
AcDbArc
 50
270.0
 51
0.0
  0
ARC
  5
170
330
53
100
AcDbEntity
  8
1
  6
Continuous
 62
     7
100
AcDbCircle
 10
67.61887443690676
 20
171.0091698241154
 30
0.0
 40
1.999950000000013
100
AcDbArc
 50
90.0
 51
180.0
  0
ARC
  5
171
330
53
100
AcDbEntity
  8
1
  6
Continuous
 62
     7
100
AcDbCircle
 10
67.61887443690676
 20
245.2810129873487
 30
0.0
 40
1.999949999999899
100
AcDbArc
 50
90.0
 51
180.0
  0
ARC
  5
172
330
53
100
AcDbEntity
  8
1
  6
Continuous
 62
     7
100
AcDbCircle
 10
71.61904943690678
 20
249.2809129873485
 30
0.0
 40
1.999949999999899
100
AcDbArc
 50
270.0
 51
0.0
  0
ARC
  5
173
330
53
100
AcDbEntity
  8
1
  6
Continuous
 62
     7
100
AcDbCircle
 10
64.61894943690672
 20
232.5313317373486
 30
0.0
 40
0.999974999999921
100
AcDbArc
 50
270.0
 51
0.0
  0
ARC
  5
174
330
53
100
AcDbEntity
  8
1
  6
Continuous
 62
     7
100
AcDbCircle
 10
67.61887443690676
 20
260.7806254873485
 30
0.0
 40
1.999950000000013
100
AcDbArc
 50
180.0
 51
270.0
  0
ARC
  5
175
330
53
100
AcDbEntity
  8
1
  6
Continuous
 62
     7
100
AcDbCircle
 10
71.61904943690678
 20
256.7807254873486
 30
0.0
 40
1.999950000000013
100
AcDbArc
 50
0.0
 51
90.0
  0
ARC
  5
176
330
53
100
AcDbEntity
  8
1
  6
Continuous
 62
     7
100
AcDbCircle
 10
64.61894943690672
 20
273.5303067373486
 30
0.0
 40
0.9999749999999779
100
AcDbArc
 50
0.0
 51
90.0
  0
ARC
  5
177
330
53
100
AcDbEntity
  8
1
  6
Continuous
 62
     7
100
AcDbCircle
 10
64.61894943690672
 20
158.2594885741154
 30
0.0
 40
0.9999750000000063
100
AcDbArc
 50
270.0
 51
0.0
  0
ENDBLK
  5
55
330
53
100
AcDbEntity
  8
0
100
AcDbBlockEnd
  0
BLOCK
  5
57
330
56
100
AcDbEntity
  8
0
100
AcDbBlockBegin
  2
H86F-B__3
 70
     0
 10
6.55073835762695
 20
169.6847624019178
 30
0.0
  3
H86F-B__3
  1

  0
LINE
  5
178
330
56
100
AcDbEntity
  8
1
  6
Continuous
 62
     7
100
AcDbLine
 10
62.61899943690671
 20
192.0392851313414
 30
0.0
 11
62.45716292726087
 21
191.7589760741153
 31
0.0
  0
LINE
  5
179
330
56
100
AcDbEntity
  8
1
  6
Continuous
 62
     7
100
AcDbLine
 10
62.61899943690671
 20
195.2589760741153
 30
0.0
 11
62.04053013902183
 21
195.2589760741153
 31
0.0
  0
LINE
  5
17A
330
56
100
AcDbEntity
  8
1
  6
Continuous
 62
     7
100
AcDbLine
 10
65.6189244369067
 20
190.0090510741152
 30
0.0
 11
65.86899943690668
 21
189.7589760741153
 31
0.0
  0
LINE
  5
17B
330
56
100
AcDbEntity
  8
1
  6
Continuous
 62
     7
100
AcDbLine
 10
61.75185500442709
 20
255.0308192373486
 30
0.0
 11
62.45716292726095
 21
251.0308192373486
 31
0.0
  0
LINE
  5
17C
330
56
100
AcDbEntity
  8
1
  6
Continuous
 62
     7
100
AcDbLine
 10
61.75185500442709
 20
255.0308192373486
 30
0.0
 11
62.04053013902191
 21
254.5308192373486
 31
0.0
  0
LINE
  5
17D
330
56
100
AcDbEntity
  8
1
  6
Continuous
 62
     7
100
AcDbLine
 10
62.04053013902191
 20
254.5308192373486
 30
0.0
 11
62.61899943690671
 21
252.0703224281231
 31
0.0
  0
LINE
  5
17E
330
56
100
AcDbEntity
  8
1
  6
Continuous
 62
     7
100
AcDbLine
 10
62.61899943690671
 20
251.3111282945747
 30
0.0
 11
62.45716292726095
 21
251.0308192373486
 31
0.0
  0
LINE
  5
17F
330
56
100
AcDbEntity
  8
1
  6
Continuous
 62
     7
100
AcDbLine
 10
62.45716292726095
 20
251.0308192373486
 30
0.0
 11
62.16848779266618
 21
251.5308192373486
 31
0.0
  0
LINE
  5
180
330
56
100
AcDbEntity
  8
1
  6
Continuous
 62
     7
100
AcDbLine
 10
62.16848779266618
 20
251.5308192373486
 30
0.0
 11
61.46317986983232
 21
254.5308192373486
 31
0.0
  0
LINE
  5
181
330
56
100
AcDbEntity
  8
1
  6
Continuous
 62
     7
100
AcDbLine
 10
61.46317986983232
 20
254.5308192373486
 30
0.0
 11
61.75185500442709
 21
255.0308192373486
 31
0.0
  0
LINE
  5
182
330
56
100
AcDbEntity
  8
1
  6
Continuous
 62
     7
100
AcDbLine
 10
62.61899943690671
 20
254.5308192373486
 30
0.0
 11
62.04053013902191
 21
254.5308192373486
 31
0.0
  0
LINE
  5
183
330
56
100
AcDbEntity
  8
1
  6
Continuous
 62
     7
100
AcDbLine
 10
62.16848779266618
 20
251.5308192373486
 30
0.0
 11
61.16848779266618
 21
251.5308192373486
 31
0.0
  0
LINE
  5
184
330
56
100
AcDbEntity
  8
1
  6
Continuous
 62
     7
100
AcDbLine
 10
60.46317986983232
 20
254.5308192373486
 30
0.0
 11
61.16848779266618
 21
251.5308192373486
 31
0.0
  0
LINE
  5
185
330
56
100
AcDbEntity
  8
1
  6
Continuous
 62
     7
100
AcDbLine
 10
61.16848779266618
 20
251.5308192373486
 30
0.0
 11
60.87981265807136
 21
251.0308192373486
 31
0.0
  0
LINE
  5
186
330
56
100
AcDbEntity
  8
1
  6
Continuous
 62
     7
100
AcDbLine
 10
60.17450473523749
 20
255.0308192373486
 30
0.0
 11
60.46317986983232
 21
254.5308192373486
 31
0.0
  0
LINE
  5
187
330
56
100
AcDbEntity
  8
1
  6
Continuous
 62
     7
100
AcDbLine
 10
60.17450473523749
 20
255.0308192373486
 30
0.0
 11
60.87981265807136
 21
251.0308192373486
 31
0.0
  0
LINE
  5
188
330
56
100
AcDbEntity
  8
1
  6
Continuous
 62
     7
100
AcDbLine
 10
59.88582960064267
 20
254.5308192373486
 30
0.0
 11
60.17450473523749
 21
255.0308192373486
 31
0.0
  0
LINE
  5
189
330
56
100
AcDbEntity
  8
1
  6
Continuous
 62
     7
100
AcDbLine
 10
60.59113752347653
 20
251.5308192373486
 30
0.0
 11
59.88582960064267
 21
254.5308192373486
 31
0.0
  0
LINE
  5
18A
330
56
100
AcDbEntity
  8
1
  6
Continuous
 62
     7
100
AcDbLine
 10
60.87981265807136
 20
251.0308192373486
 30
0.0
 11
60.59113752347653
 21
251.5308192373486
 31
0.0
  0
LINE
  5
18B
330
56
100
AcDbEntity
  8
1
  6
Continuous
 62
     7
100
AcDbLine
 10
61.46317986983232
 20
254.5308192373486
 30
0.0
 11
60.46317986983232
 21
254.5308192373486
 31
0.0
  0
LINE
  5
18C
330
56
100
AcDbEntity
  8
1
  6
Continuous
 62
     7
100
AcDbLine
 10
58.01980419685825
 20
255.0308192373486
 30
0.0
 11
58.30847933145302
 21
254.5308192373486
 31
0.0
  0
LINE
  5
18D
330
56
100
AcDbEntity
  8
1
  6
Continuous
 62
     7
100
AcDbLine
 10
58.01980419685825
 20
255.0308192373486
 30
0.0
 11
58.72511211969211
 21
251.0308192373486
 31
0.0
  0
LINE
  5
18E
330
56
100
AcDbEntity
  8
1
  6
Continuous
 62
     7
100
AcDbLine
 10
57.73112906226342
 20
254.5308192373486
 30
0.0
 11
58.01980419685825
 21
255.0308192373486
 31
0.0
  0
LINE
  5
18F
330
56
100
AcDbEntity
  8
1
  6
Continuous
 62
     7
100
AcDbLine
 10
58.43643698509729
 20
251.5308192373486
 30
0.0
 11
57.73112906226342
 21
254.5308192373486
 31
0.0
  0
LINE
  5
190
330
56
100
AcDbEntity
  8
1
  6
Continuous
 62
     7
100
AcDbLine
 10
58.72511211969211
 20
251.0308192373486
 30
0.0
 11
58.43643698509729
 21
251.5308192373486
 31
0.0
  0
LINE
  5
191
330
56
100
AcDbEntity
  8
1
  6
Continuous
 62
     7
100
AcDbLine
 10
58.30847933145302
 20
254.5308192373486
 30
0.0
 11
59.01378725428694
 21
251.5308192373486
 31
0.0
  0
LINE
  5
192
330
56
100
AcDbEntity
  8
1
  6
Continuous
 62
     7
100
AcDbLine
 10
59.01378725428694
 20
251.5308192373486
 30
0.0
 11
58.72511211969211
 21
251.0308192373486
 31
0.0
  0
LINE
  5
193
330
56
100
AcDbEntity
  8
1
  6
Continuous
 62
     7
100
AcDbLine
 10
55.86510365847894
 20
255.0308192373486
 30
0.0
 11
56.15377879307388
 21
254.5308192373486
 31
0.0
  0
LINE
  5
194
330
56
100
AcDbEntity
  8
1
  6
Continuous
 62
     7
100
AcDbLine
 10
55.86510365847894
 20
255.0308192373486
 30
0.0
 11
56.57041158131287
 21
251.0308192373486
 31
0.0
  0
LINE
  5
195
330
56
100
AcDbEntity
  8
1
  6
Continuous
 62
     7
100
AcDbLine
 10
55.57642852388415
 20
254.5308192373486
 30
0.0
 11
55.86510365847894
 21
255.0308192373486
 31
0.0
  0
LINE
  5
196
330
56
100
AcDbEntity
  8
1
  6
Continuous
 62
     7
100
AcDbLine
 10
56.28173644671804
 20
251.5308192373486
 30
0.0
 11
55.57642852388415
 21
254.5308192373486
 31
0.0
  0
LINE
  5
197
330
56
100
AcDbEntity
  8
1
  6
Continuous
 62
     7
100
AcDbLine
 10
56.57041158131287
 20
251.0308192373486
 30
0.0
 11
56.28173644671804
 21
251.5308192373486
 31
0.0
  0
LINE
  5
198
330
56
100
AcDbEntity
  8
1
  6
Continuous
 62
     7
100
AcDbLine
 10
56.15377879307388
 20
254.5308192373486
 30
0.0
 11
56.85908671590769
 21
251.5308192373486
 31
0.0
  0
LINE
  5
199
330
56
100
AcDbEntity
  8
1
  6
Continuous
 62
     7
100
AcDbLine
 10
56.85908671590769
 20
251.5308192373486
 30
0.0
 11
56.57041158131287
 21
251.0308192373486
 31
0.0
  0
LINE
  5
19A
330
56
100
AcDbEntity
  8
1
  6
Continuous
 62
     7
100
AcDbLine
 10
53.71040312009976
 20
255.0308192373486
 30
0.0
 11
53.99907825469458
 21
254.5308192373486
 31
0.0
  0
LINE
  5
19B
330
56
100
AcDbEntity
  8
1
  6
Continuous
 62
     7
100
AcDbLine
 10
53.71040312009976
 20
255.0308192373486
 30
0.0
 11
54.41571104293368
 21
251.0308192373486
 31
0.0
  0
LINE
  5
19C
330
56
100
AcDbEntity
  8
1
  6
Continuous
 62
     7
100
AcDbLine
 10
53.42172798550499
 20
254.5308192373486
 30
0.0
 11
53.71040312009976
 21
255.0308192373486
 31
0.0
  0
LINE
  5
19D
330
56
100
AcDbEntity
  8
1
  6
Continuous
 62
     7
100
AcDbLine
 10
54.12703590833874
 20
251.5308192373486
 30
0.0
 11
53.42172798550499
 21
254.5308192373486
 31
0.0
  0
LINE
  5
19E
330
56
100
AcDbEntity
  8
1
  6
Continuous
 62
     7
100
AcDbLine
 10
54.41571104293368
 20
251.0308192373486
 30
0.0
 11
54.12703590833874
 21
251.5308192373486
 31
0.0
  0
LINE
  5
19F
330
56
100
AcDbEntity
  8
1
  6
Continuous
 62
     7
100
AcDbLine
 10
53.99907825469458
 20
254.5308192373486
 30
0.0
 11
54.70438617752848
 21
251.5308192373486
 31
0.0
  0
LINE
  5
1A0
330
56
100
AcDbEntity
  8
1
  6
Continuous
 62
     7
100
AcDbLine
 10
54.70438617752848
 20
251.5308192373486
 30
0.0
 11
54.41571104293368
 21
251.0308192373486
 31
0.0
  0
LINE
  5
1A1
330
56
100
AcDbEntity
  8
1
  6
Continuous
 62
     7
100
AcDbLine
 10
51.55570258172045
 20
255.0308192373486
 30
0.0
 11
51.84437771631531
 21
254.5308192373486
 31
0.0
  0
LINE
  5
1A2
330
56
100
AcDbEntity
  8
1
  6
Continuous
 62
     7
100
AcDbLine
 10
51.55570258172045
 20
255.0308192373486
 30
0.0
 11
52.26101050455441
 21
251.0308192373486
 31
0.0
  0
LINE
  5
1A3
330
56
100
AcDbEntity
  8
1
  6
Continuous
 62
     7
100
AcDbLine
 10
51.26702744712569
 20
254.5308192373486
 30
0.0
 11
51.55570258172045
 21
255.0308192373486
 31
0.0
  0
LINE
  5
1A4
330
56
100
AcDbEntity
  8
1
  6
Continuous
 62
     7
100
AcDbLine
 10
51.97233536995955
 20
251.5308192373486
 30
0.0
 11
51.26702744712569
 21
254.5308192373486
 31
0.0
  0
LINE
  5
1A5
330
56
100
AcDbEntity
  8
1
  6
Continuous
 62
     7
100
AcDbLine
 10
52.26101050455441
 20
251.0308192373486
 30
0.0
 11
51.97233536995955
 21
251.5308192373486
 31
0.0
  0
LINE
  5
1A6
330
56
100
AcDbEntity
  8
1
  6
Continuous
 62
     7
100
AcDbLine
 10
51.84437771631531
 20
254.5308192373486
 30
0.0
 11
52.54968563914912
 21
251.5308192373486
 31
0.0
  0
LINE
  5
1A7
330
56
100
AcDbEntity
  8
1
  6
Continuous
 62
     7
100
AcDbLine
 10
52.54968563914912
 20
251.5308192373486
 30
0.0
 11
52.26101050455441
 21
251.0308192373486
 31
0.0
  0
LINE
  5
1A8
330
56
100
AcDbEntity
  8
1
  6
Continuous
 62
     7
100
AcDbLine
 10
49.40100204334127
 20
255.0308192373486
 30
0.0
 11
49.68967717793603
 21
254.5308192373486
 31
0.0
  0
LINE
  5
1A9
330
56
100
AcDbEntity
  8
1
  6
Continuous
 62
     7
100
AcDbLine
 10
49.40100204334127
 20
255.0308192373486
 30
0.0
 11
50.10630996617513
 21
251.0308192373486
 31
0.0
  0
LINE
  5
1AA
330
56
100
AcDbEntity
  8
1
  6
Continuous
 62
     7
100
AcDbLine
 10
49.11232690874647
 20
254.5308192373486
 30
0.0
 11
49.40100204334127
 21
255.0308192373486
 31
0.0
  0
LINE
  5
1AB
330
56
100
AcDbEntity
  8
1
  6
Continuous
 62
     7
100
AcDbLine
 10
49.81763483158025
 20
251.5308192373486
 30
0.0
 11
49.11232690874647
 21
254.5308192373486
 31
0.0
  0
LINE
  5
1AC
330
56
100
AcDbEntity
  8
1
  6
Continuous
 62
     7
100
AcDbLine
 10
50.10630996617513
 20
251.0308192373486
 30
0.0
 11
49.81763483158025
 21
251.5308192373486
 31
0.0
  0
LINE
  5
1AD
330
56
100
AcDbEntity
  8
1
  6
Continuous
 62
     7
100
AcDbLine
 10
49.68967717793603
 20
254.5308192373486
 30
0.0
 11
50.39498510076984
 21
251.5308192373486
 31
0.0
  0
LINE
  5
1AE
330
56
100
AcDbEntity
  8
1
  6
Continuous
 62
     7
100
AcDbLine
 10
50.39498510076984
 20
251.5308192373486
 30
0.0
 11
50.10630996617513
 21
251.0308192373486
 31
0.0
  0
LINE
  5
1AF
330
56
100
AcDbEntity
  8
1
  6
Continuous
 62
     7
100
AcDbLine
 10
47.24630150496208
 20
255.0308192373486
 30
0.0
 11
47.53497663955682
 21
254.5308192373486
 31
0.0
  0
LINE
  5
1B0
330
56
100
AcDbEntity
  8
1
  6
Continuous
 62
     7
100
AcDbLine
 10
47.24630150496208
 20
255.0308192373486
 30
0.0
 11
47.95160942779583
 21
251.0308192373486
 31
0.0
  0
LINE
  5
1B1
330
56
100
AcDbEntity
  8
1
  6
Continuous
 62
     7
100
AcDbLine
 10
46.95762637036719
 20
254.5308192373486
 30
0.0
 11
47.24630150496208
 21
255.0308192373486
 31
0.0
  0
LINE
  5
1B2
330
56
100
AcDbEntity
  8
1
  6
Continuous
 62
     7
100
AcDbLine
 10
47.66293429320103
 20
251.5308192373486
 30
0.0
 11
46.95762637036719
 21
254.5308192373486
 31
0.0
  0
LINE
  5
1B3
330
56
100
AcDbEntity
  8
1
  6
Continuous
 62
     7
100
AcDbLine
 10
47.95160942779583
 20
251.0308192373486
 30
0.0
 11
47.66293429320103
 21
251.5308192373486
 31
0.0
  0
LINE
  5
1B4
330
56
100
AcDbEntity
  8
1
  6
Continuous
 62
     7
100
AcDbLine
 10
47.53497663955682
 20
254.5308192373486
 30
0.0
 11
48.24028456239063
 21
251.5308192373486
 31
0.0
  0
LINE
  5
1B5
330
56
100
AcDbEntity
  8
1
  6
Continuous
 62
     7
100
AcDbLine
 10
48.24028456239063
 20
251.5308192373486
 30
0.0
 11
47.95160942779583
 21
251.0308192373486
 31
0.0
  0
LINE
  5
1B6
330
56
100
AcDbEntity
  8
1
  6
Continuous
 62
     7
100
AcDbLine
 10
60.59113752347653
 20
251.5308192373486
 30
0.0
 11
59.01378725428694
 21
251.5308192373486
 31
0.0
  0
LINE
  5
1B7
330
56
100
AcDbEntity
  8
1
  6
Continuous
 62
     7
100
AcDbLine
 10
59.88582960064267
 20
254.5308192373486
 30
0.0
 11
58.30847933145302
 21
254.5308192373486
 31
0.0
  0
LINE
  5
1B8
330
56
100
AcDbEntity
  8
1
  6
Continuous
 62
     7
100
AcDbLine
 10
57.73112906226342
 20
254.5308192373486
 30
0.0
 11
56.15377879307388
 21
254.5308192373486
 31
0.0
  0
LINE
  5
1B9
330
56
100
AcDbEntity
  8
1
  6
Continuous
 62
     7
100
AcDbLine
 10
58.43643698509729
 20
251.5308192373486
 30
0.0
 11
56.85908671590769
 21
251.5308192373486
 31
0.0
  0
LINE
  5
1BA
330
56
100
AcDbEntity
  8
1
  6
Continuous
 62
     7
100
AcDbLine
 10
56.28173644671804
 20
251.5308192373486
 30
0.0
 11
54.70438617752848
 21
251.5308192373486
 31
0.0
  0
LINE
  5
1BB
330
56
100
AcDbEntity
  8
1
  6
Continuous
 62
     7
100
AcDbLine
 10
55.57642852388415
 20
254.5308192373486
 30
0.0
 11
53.99907825469458
 21
254.5308192373486
 31
0.0
  0
LINE
  5
1BC
330
56
100
AcDbEntity
  8
1
  6
Continuous
 62
     7
100
AcDbLine
 10
53.42172798550499
 20
254.5308192373486
 30
0.0
 11
51.84437771631531
 21
254.5308192373486
 31
0.0
  0
LINE
  5
1BD
330
56
100
AcDbEntity
  8
1
  6
Continuous
 62
     7
100
AcDbLine
 10
54.12703590833874
 20
251.5308192373486
 30
0.0
 11
52.54968563914912
 21
251.5308192373486
 31
0.0
  0
LINE
  5
1BE
330
56
100
AcDbEntity
  8
1
  6
Continuous
 62
     7
100
AcDbLine
 10
51.97233536995955
 20
251.5308192373486
 30
0.0
 11
50.39498510076984
 21
251.5308192373486
 31
0.0
  0
LINE
  5
1BF
330
56
100
AcDbEntity
  8
1
  6
Continuous
 62
     7
100
AcDbLine
 10
51.26702744712569
 20
254.5308192373486
 30
0.0
 11
49.68967717793603
 21
254.5308192373486
 31
0.0
  0
LINE
  5
1C0
330
56
100
AcDbEntity
  8
1
  6
Continuous
 62
     7
100
AcDbLine
 10
49.11232690874647
 20
254.5308192373486
 30
0.0
 11
47.53497663955682
 21
254.5308192373486
 31
0.0
  0
LINE
  5
1C1
330
56
100
AcDbEntity
  8
1
  6
Continuous
 62
     7
100
AcDbLine
 10
49.81763483158025
 20
251.5308192373486
 30
0.0
 11
48.24028456239063
 21
251.5308192373486
 31
0.0
  0
LINE
  5
1C2
330
56
100
AcDbEntity
  8
1
  6
Continuous
 62
     7
100
AcDbLine
 10
46.03430297651246
 20
254.2808835532321
 30
0.0
 11
46.66293429320103
 21
251.6123136678215
 31
0.0
  0
LINE
  5
1C3
330
56
100
AcDbEntity
  8
1
  6
Continuous
 62
     7
100
AcDbLine
 10
45.77548393140998
 20
254.7291712893161
 30
0.0
 11
46.40411524809858
 21
251.1640259317376
 31
0.0
  0
LINE
  5
1C4
330
56
100
AcDbEntity
  8
1
  6
Continuous
 62
     7
100
AcDbLine
 10
45.77548393140998
 20
254.7291712893161
 30
0.0
 11
46.03430297651246
 21
254.2808835532321
 31
0.0
  0
LINE
  5
1C5
330
56
100
AcDbEntity
  8
1
  6
Continuous
 62
     7
100
AcDbLine
 10
45.77548393140998
 20
254.7291712893161
 30
0.0
 11
45.42193054081662
 21
254.1167988536204
 31
0.0
  0
LINE
  5
1C6
330
56
100
AcDbEntity
  8
1
  6
Continuous
 62
     7
100
AcDbLine
 10
45.42193054081662
 20
254.1167988536204
 30
0.0
 11
46.05056185750524
 21
251.7763983674333
 31
0.0
  0
LINE
  5
1C7
330
56
100
AcDbEntity
  8
1
  6
Continuous
 62
     7
100
AcDbLine
 10
46.66293429320103
 20
251.6123136678215
 30
0.0
 11
46.40411524809858
 21
251.1640259317376
 31
0.0
  0
LINE
  5
1C8
330
56
100
AcDbEntity
  8
1
  6
Continuous
 62
     7
100
AcDbLine
 10
46.40411524809858
 20
251.1640259317376
 30
0.0
 11
46.05056185750524
 21
251.7763983674333
 31
0.0
  0
LINE
  5
1C9
330
56
100
AcDbEntity
  8
1
  6
Continuous
 62
     7
100
AcDbLine
 10
44.30859628698309
 20
254.3361199296048
 30
0.0
 11
44.56741533208557
 21
253.8878321935205
 31
0.0
  0
LINE
  5
1CA
330
56
100
AcDbEntity
  8
1
  6
Continuous
 62
     7
100
AcDbLine
 10
44.56741533208557
 20
253.8878321935205
 30
0.0
 11
45.05056185750524
 21
252.0443475598644
 31
0.0
  0
LINE
  5
1CB
330
56
100
AcDbEntity
  8
1
  6
Continuous
 62
     7
100
AcDbLine
 10
45.05056185750524
 20
252.0443475598644
 30
0.0
 11
44.79174281240276
 21
251.5960598237805
 31
0.0
  0
LINE
  5
1CC
330
56
100
AcDbEntity
  8
1
  6
Continuous
 62
     7
100
AcDbLine
 10
44.79174281240276
 20
251.5960598237805
 30
0.0
 11
44.43818942180948
 21
252.2084322594765
 31
0.0
  0
LINE
  5
1CD
330
56
100
AcDbEntity
  8
1
  6
Continuous
 62
     7
100
AcDbLine
 10
44.43818942180948
 20
252.2084322594765
 30
0.0
 11
43.95504289638973
 21
253.7237474939091
 31
0.0
  0
LINE
  5
1CE
330
56
100
AcDbEntity
  8
1
  6
Continuous
 62
     7
100
AcDbLine
 10
44.30859628698309
 20
254.3361199296048
 30
0.0
 11
44.79174281240276
 21
251.5960598237805
 31
0.0
  0
LINE
  5
1CF
330
56
100
AcDbEntity
  8
1
  6
Continuous
 62
     7
100
AcDbLine
 10
44.30859628698309
 20
254.3361199296048
 30
0.0
 11
43.95504289638973
 21
253.7237474939091
 31
0.0
  0
LINE
  5
1D0
330
56
100
AcDbEntity
  8
1
  6
Continuous
 62
     7
100
AcDbLine
 10
42.84170864255597
 20
253.9430685698932
 30
0.0
 11
43.10052768765868
 21
253.4947808338093
 31
0.0
  0
LINE
  5
1D1
330
56
100
AcDbEntity
  8
1
  6
Continuous
 62
     7
100
AcDbLine
 10
43.10052768765868
 20
253.4947808338093
 30
0.0
 11
43.43818942180934
 21
252.4763814519074
 31
0.0
  0
LINE
  5
1D2
330
56
100
AcDbEntity
  8
1
  6
Continuous
 62
     7
100
AcDbLine
 10
43.43818942180934
 20
252.4763814519074
 30
0.0
 11
43.17937037670694
 21
252.0280937158233
 31
0.0
  0
LINE
  5
1D3
330
56
100
AcDbEntity
  8
1
  6
Continuous
 62
     7
100
AcDbLine
 10
43.17937037670694
 20
252.0280937158233
 30
0.0
 11
42.82581698611367
 21
252.6404661515192
 31
0.0
  0
LINE
  5
1D4
330
56
100
AcDbEntity
  8
1
  6
Continuous
 62
     7
100
AcDbLine
 10
42.82581698611367
 20
252.6404661515192
 30
0.0
 11
42.48815525196298
 21
253.3306961341975
 31
0.0
  0
LINE
  5
1D5
330
56
100
AcDbEntity
  8
1
  6
Continuous
 62
     7
100
AcDbLine
 10
42.84170864255597
 20
253.9430685698932
 30
0.0
 11
42.48815525196298
 21
253.3306961341975
 31
0.0
  0
LINE
  5
1D6
330
56
100
AcDbEntity
  8
1
  6
Continuous
 62
     7
100
AcDbLine
 10
42.84170864255597
 20
253.9430685698932
 30
0.0
 11
43.17937037670694
 21
252.0280937158233
 31
0.0
  0
LINE
  5
1D7
330
56
100
AcDbEntity
  8
1
  6
Continuous
 62
     7
100
AcDbLine
 10
46.95762637036719
 20
254.5308192373486
 30
0.0
 11
46.03430297651246
 21
254.2808835532321
 31
0.0
  0
LINE
  5
1D8
330
56
100
AcDbEntity
  8
1
  6
Continuous
 62
     7
100
AcDbLine
 10
47.66293429320103
 20
251.5308192373486
 30
0.0
 11
46.96707564826011
 21
251.5308192373486
 31
0.0
  0
LINE
  5
1D9
330
56
100
AcDbEntity
  8
1
  6
Continuous
 62
     7
100
AcDbLine
 10
46.96707564826011
 20
251.5308192373486
 30
0.0
 11
46.66293429320103
 21
251.6123136678215
 31
0.0
  0
LINE
  5
1DA
330
56
100
AcDbEntity
  8
1
  6
Continuous
 62
     7
100
AcDbLine
 10
46.05056185750524
 20
251.7763983674333
 30
0.0
 11
45.05056185750524
 21
252.0443475598644
 31
0.0
  0
LINE
  5
1DB
330
56
100
AcDbEntity
  8
1
  6
Continuous
 62
     7
100
AcDbLine
 10
44.43818942180948
 20
252.2084322594765
 30
0.0
 11
43.43818942180934
 21
252.4763814519074
 31
0.0
  0
LINE
  5
1DC
330
56
100
AcDbEntity
  8
1
  6
Continuous
 62
     7
100
AcDbLine
 10
42.82581698611367
 20
252.6404661515192
 30
0.0
 11
41.36899943690676
 21
253.0308192373486
 31
0.0
  0
LINE
  5
1DD
330
56
100
AcDbEntity
  8
1
  6
Continuous
 62
     7
100
AcDbLine
 10
42.48815525196298
 20
253.3306961341975
 30
0.0
 11
41.36899943690676
 21
253.0308192373486
 31
0.0
  0
LINE
  5
1DE
330
56
100
AcDbEntity
  8
1
  6
Continuous
 62
     7
100
AcDbLine
 10
43.95504289638973
 20
253.7237474939091
 30
0.0
 11
43.10052768765868
 21
253.4947808338093
 31
0.0
  0
LINE
  5
1DF
330
56
100
AcDbEntity
  8
1
  6
Continuous
 62
     7
100
AcDbLine
 10
45.42193054081662
 20
254.1167988536204
 30
0.0
 11
44.56741533208557
 21
253.8878321935205
 31
0.0
  0
LINE
  5
1E0
330
56
100
AcDbEntity
  8
1
  6
Continuous
 62
     7
100
AcDbLine
 10
66.36899943690668
 20
197.7589760741153
 30
0.0
 11
66.36899943690668
 21
189.7589760741153
 31
0.0
  0
LINE
  5
1E1
330
56
100
AcDbEntity
  8
1
  6
Continuous
 62
     7
100
AcDbLine
 10
66.36899943690668
 20
189.7589760741153
 30
0.0
 11
65.86899943690668
 21
189.7589760741153
 31
0.0
  0
LINE
  5
1E2
330
56
100
AcDbEntity
  8
1
  6
Continuous
 62
     7
100
AcDbLine
 10
66.36899943690668
 20
197.7589760741153
 30
0.0
 11
65.86899943690668
 21
197.7589760741153
 31
0.0
  0
LINE
  5
1E3
330
56
100
AcDbEntity
  8
1
  6
Continuous
 62
     7
100
AcDbLine
 10
65.86899943690668
 20
197.7589760741153
 30
0.0
 11
65.6189244369067
 21
197.5089010741153
 31
0.0
  0
LINE
  5
1E4
330
56
100
AcDbEntity
  8
1
  6
Continuous
 62
     7
100
AcDbLine
 10
65.86899943690668
 20
197.7589760741153
 30
0.0
 11
65.86899943690668
 21
189.7589760741153
 31
0.0
  0
LINE
  5
1E5
330
56
100
AcDbEntity
  8
1
  6
Continuous
 62
     7
100
AcDbLine
 10
61.751855004427
 20
195.7589760741153
 30
0.0
 11
62.45716292726087
 21
191.7589760741153
 31
0.0
  0
LINE
  5
1E6
330
56
100
AcDbEntity
  8
1
  6
Continuous
 62
     7
100
AcDbLine
 10
61.751855004427
 20
195.7589760741153
 30
0.0
 11
62.04053013902183
 21
195.2589760741153
 31
0.0
  0
LINE
  5
1E7
330
56
100
AcDbEntity
  8
1
  6
Continuous
 62
     7
100
AcDbLine
 10
62.04053013902183
 20
195.2589760741153
 30
0.0
 11
62.61899943690671
 21
192.7984792648891
 31
0.0
  0
LINE
  5
1E8
330
56
100
AcDbEntity
  8
1
  6
Continuous
 62
     7
100
AcDbLine
 10
62.45716292726087
 20
191.7589760741153
 30
0.0
 11
62.1684877926661
 21
192.2589760741153
 31
0.0
  0
LINE
  5
1E9
330
56
100
AcDbEntity
  8
1
  6
Continuous
 62
     7
100
AcDbLine
 10
62.1684877926661
 20
192.2589760741153
 30
0.0
 11
61.46317986983223
 21
195.2589760741153
 31
0.0
  0
LINE
  5
1EA
330
56
100
AcDbEntity
  8
1
  6
Continuous
 62
     7
100
AcDbLine
 10
61.46317986983223
 20
195.2589760741153
 30
0.0
 11
61.751855004427
 21
195.7589760741153
 31
0.0
  0
LINE
  5
1EB
330
56
100
AcDbEntity
  8
1
  6
Continuous
 62
     7
100
AcDbLine
 10
62.1684877926661
 20
192.2589760741153
 30
0.0
 11
61.1684877926661
 21
192.2589760741153
 31
0.0
  0
LINE
  5
1EC
330
56
100
AcDbEntity
  8
1
  6
Continuous
 62
     7
100
AcDbLine
 10
60.46317986983223
 20
195.2589760741153
 30
0.0
 11
61.1684877926661
 21
192.2589760741153
 31
0.0
  0
LINE
  5
1ED
330
56
100
AcDbEntity
  8
1
  6
Continuous
 62
     7
100
AcDbLine
 10
61.1684877926661
 20
192.2589760741153
 30
0.0
 11
60.87981265807127
 21
191.7589760741153
 31
0.0
  0
LINE
  5
1EE
330
56
100
AcDbEntity
  8
1
  6
Continuous
 62
     7
100
AcDbLine
 10
60.17450473523741
 20
195.7589760741153
 30
0.0
 11
60.46317986983223
 21
195.2589760741153
 31
0.0
  0
LINE
  5
1EF
330
56
100
AcDbEntity
  8
1
  6
Continuous
 62
     7
100
AcDbLine
 10
60.17450473523741
 20
195.7589760741153
 30
0.0
 11
60.87981265807127
 21
191.7589760741153
 31
0.0
  0
LINE
  5
1F0
330
56
100
AcDbEntity
  8
1
  6
Continuous
 62
     7
100
AcDbLine
 10
59.88582960064258
 20
195.2589760741153
 30
0.0
 11
60.17450473523741
 21
195.7589760741153
 31
0.0
  0
LINE
  5
1F1
330
56
100
AcDbEntity
  8
1
  6
Continuous
 62
     7
100
AcDbLine
 10
60.59113752347645
 20
192.2589760741153
 30
0.0
 11
59.88582960064258
 21
195.2589760741153
 31
0.0
  0
LINE
  5
1F2
330
56
100
AcDbEntity
  8
1
  6
Continuous
 62
     7
100
AcDbLine
 10
60.87981265807127
 20
191.7589760741153
 30
0.0
 11
60.59113752347645
 21
192.2589760741153
 31
0.0
  0
LINE
  5
1F3
330
56
100
AcDbEntity
  8
1
  6
Continuous
 62
     7
100
AcDbLine
 10
61.46317986983223
 20
195.2589760741153
 30
0.0
 11
60.46317986983223
 21
195.2589760741153
 31
0.0
  0
LINE
  5
1F4
330
56
100
AcDbEntity
  8
1
  6
Continuous
 62
     7
100
AcDbLine
 10
58.01980419685816
 20
195.7589760741153
 30
0.0
 11
58.30847933145293
 21
195.2589760741153
 31
0.0
  0
LINE
  5
1F5
330
56
100
AcDbEntity
  8
1
  6
Continuous
 62
     7
100
AcDbLine
 10
58.01980419685816
 20
195.7589760741153
 30
0.0
 11
58.72511211969203
 21
191.7589760741153
 31
0.0
  0
LINE
  5
1F6
330
56
100
AcDbEntity
  8
1
  6
Continuous
 62
     7
100
AcDbLine
 10
57.73112906226334
 20
195.2589760741153
 30
0.0
 11
58.01980419685816
 21
195.7589760741153
 31
0.0
  0
LINE
  5
1F7
330
56
100
AcDbEntity
  8
1
  6
Continuous
 62
     7
100
AcDbLine
 10
58.4364369850972
 20
192.2589760741153
 30
0.0
 11
57.73112906226334
 21
195.2589760741153
 31
0.0
  0
LINE
  5
1F8
330
56
100
AcDbEntity
  8
1
  6
Continuous
 62
     7
100
AcDbLine
 10
58.72511211969203
 20
191.7589760741153
 30
0.0
 11
58.4364369850972
 21
192.2589760741153
 31
0.0
  0
LINE
  5
1F9
330
56
100
AcDbEntity
  8
1
  6
Continuous
 62
     7
100
AcDbLine
 10
58.30847933145293
 20
195.2589760741153
 30
0.0
 11
59.01378725428685
 21
192.2589760741153
 31
0.0
  0
LINE
  5
1FA
330
56
100
AcDbEntity
  8
1
  6
Continuous
 62
     7
100
AcDbLine
 10
59.01378725428685
 20
192.2589760741153
 30
0.0
 11
58.72511211969203
 21
191.7589760741153
 31
0.0
  0
LINE
  5
1FB
330
56
100
AcDbEntity
  8
1
  6
Continuous
 62
     7
100
AcDbLine
 10
55.86510365847889
 20
195.7589760741153
 30
0.0
 11
56.1537787930738
 21
195.2589760741153
 31
0.0
  0
LINE
  5
1FC
330
56
100
AcDbEntity
  8
1
  6
Continuous
 62
     7
100
AcDbLine
 10
55.86510365847889
 20
195.7589760741153
 30
0.0
 11
56.57041158131278
 21
191.7589760741153
 31
0.0
  0
LINE
  5
1FD
330
56
100
AcDbEntity
  8
1
  6
Continuous
 62
     7
100
AcDbLine
 10
55.57642852388409
 20
195.2589760741153
 30
0.0
 11
55.86510365847889
 21
195.7589760741153
 31
0.0
  0
LINE
  5
1FE
330
56
100
AcDbEntity
  8
1
  6
Continuous
 62
     7
100
AcDbLine
 10
56.28173644671799
 20
192.2589760741153
 30
0.0
 11
55.57642852388409
 21
195.2589760741153
 31
0.0
  0
LINE
  5
1FF
330
56
100
AcDbEntity
  8
1
  6
Continuous
 62
     7
100
AcDbLine
 10
56.57041158131278
 20
191.7589760741153
 30
0.0
 11
56.28173644671799
 21
192.2589760741153
 31
0.0
  0
LINE
  5
200
330
56
100
AcDbEntity
  8
1
  6
Continuous
 62
     7
100
AcDbLine
 10
56.1537787930738
 20
195.2589760741153
 30
0.0
 11
56.85908671590764
 21
192.2589760741153
 31
0.0
  0
LINE
  5
201
330
56
100
AcDbEntity
  8
1
  6
Continuous
 62
     7
100
AcDbLine
 10
56.85908671590764
 20
192.2589760741153
 30
0.0
 11
56.57041158131278
 21
191.7589760741153
 31
0.0
  0
LINE
  5
202
330
56
100
AcDbEntity
  8
1
  6
Continuous
 62
     7
100
AcDbLine
 10
53.7104031200997
 20
195.7589760741153
 30
0.0
 11
53.99907825469452
 21
195.2589760741153
 31
0.0
  0
LINE
  5
203
330
56
100
AcDbEntity
  8
1
  6
Continuous
 62
     7
100
AcDbLine
 10
53.7104031200997
 20
195.7589760741153
 30
0.0
 11
54.41571104293359
 21
191.7589760741153
 31
0.0
  0
LINE
  5
204
330
56
100
AcDbEntity
  8
1
  6
Continuous
 62
     7
100
AcDbLine
 10
53.42172798550493
 20
195.2589760741153
 30
0.0
 11
53.7104031200997
 21
195.7589760741153
 31
0.0
  0
LINE
  5
205
330
56
100
AcDbEntity
  8
1
  6
Continuous
 62
     7
100
AcDbLine
 10
54.12703590833868
 20
192.2589760741153
 30
0.0
 11
53.42172798550493
 21
195.2589760741153
 31
0.0
  0
LINE
  5
206
330
56
100
AcDbEntity
  8
1
  6
Continuous
 62
     7
100
AcDbLine
 10
54.41571104293359
 20
191.7589760741153
 30
0.0
 11
54.12703590833868
 21
192.2589760741153
 31
0.0
  0
LINE
  5
207
330
56
100
AcDbEntity
  8
1
  6
Continuous
 62
     7
100
AcDbLine
 10
53.99907825469452
 20
195.2589760741153
 30
0.0
 11
54.70438617752839
 21
192.2589760741153
 31
0.0
  0
LINE
  5
208
330
56
100
AcDbEntity
  8
1
  6
Continuous
 62
     7
100
AcDbLine
 10
54.70438617752839
 20
192.2589760741153
 30
0.0
 11
54.41571104293359
 21
191.7589760741153
 31
0.0
  0
LINE
  5
209
330
56
100
AcDbEntity
  8
1
  6
Continuous
 62
     7
100
AcDbLine
 10
51.5557025817204
 20
195.7589760741153
 30
0.0
 11
51.84437771631525
 21
195.2589760741153
 31
0.0
  0
LINE
  5
20A
330
56
100
AcDbEntity
  8
1
  6
Continuous
 62
     7
100
AcDbLine
 10
51.5557025817204
 20
195.7589760741153
 30
0.0
 11
52.26101050455432
 21
191.7589760741153
 31
0.0
  0
LINE
  5
20B
330
56
100
AcDbEntity
  8
1
  6
Continuous
 62
     7
100
AcDbLine
 10
51.26702744712563
 20
195.2589760741153
 30
0.0
 11
51.5557025817204
 21
195.7589760741153
 31
0.0
  0
LINE
  5
20C
330
56
100
AcDbEntity
  8
1
  6
Continuous
 62
     7
100
AcDbLine
 10
51.9723353699595
 20
192.2589760741153
 30
0.0
 11
51.26702744712563
 21
195.2589760741153
 31
0.0
  0
LINE
  5
20D
330
56
100
AcDbEntity
  8
1
  6
Continuous
 62
     7
100
AcDbLine
 10
52.26101050455432
 20
191.7589760741153
 30
0.0
 11
51.9723353699595
 21
192.2589760741153
 31
0.0
  0
LINE
  5
20E
330
56
100
AcDbEntity
  8
1
  6
Continuous
 62
     7
100
AcDbLine
 10
51.84437771631525
 20
195.2589760741153
 30
0.0
 11
52.54968563914906
 21
192.2589760741153
 31
0.0
  0
LINE
  5
20F
330
56
100
AcDbEntity
  8
1
  6
Continuous
 62
     7
100
AcDbLine
 10
52.54968563914906
 20
192.2589760741153
 30
0.0
 11
52.26101050455432
 21
191.7589760741153
 31
0.0
  0
LINE
  5
210
330
56
100
AcDbEntity
  8
1
  6
Continuous
 62
     7
100
AcDbLine
 10
49.40100204334121
 20
195.7589760741153
 30
0.0
 11
49.68967717793598
 21
195.2589760741153
 31
0.0
  0
LINE
  5
211
330
56
100
AcDbEntity
  8
1
  6
Continuous
 62
     7
100
AcDbLine
 10
49.40100204334121
 20
195.7589760741153
 30
0.0
 11
50.10630996617508
 21
191.7589760741153
 31
0.0
  0
LINE
  5
212
330
56
100
AcDbEntity
  8
1
  6
Continuous
 62
     7
100
AcDbLine
 10
49.11232690874641
 20
195.2589760741153
 30
0.0
 11
49.40100204334121
 21
195.7589760741153
 31
0.0
  0
LINE
  5
213
330
56
100
AcDbEntity
  8
1
  6
Continuous
 62
     7
100
AcDbLine
 10
49.81763483158017
 20
192.2589760741153
 30
0.0
 11
49.11232690874641
 21
195.2589760741153
 31
0.0
  0
LINE
  5
214
330
56
100
AcDbEntity
  8
1
  6
Continuous
 62
     7
100
AcDbLine
 10
50.10630996617508
 20
191.7589760741153
 30
0.0
 11
49.81763483158017
 21
192.2589760741153
 31
0.0
  0
LINE
  5
215
330
56
100
AcDbEntity
  8
1
  6
Continuous
 62
     7
100
AcDbLine
 10
49.68967717793598
 20
195.2589760741153
 30
0.0
 11
50.39498510076979
 21
192.2589760741153
 31
0.0
  0
LINE
  5
216
330
56
100
AcDbEntity
  8
1
  6
Continuous
 62
     7
100
AcDbLine
 10
50.39498510076979
 20
192.2589760741153
 30
0.0
 11
50.10630996617508
 21
191.7589760741153
 31
0.0
  0
LINE
  5
217
330
56
100
AcDbEntity
  8
1
  6
Continuous
 62
     7
100
AcDbLine
 10
47.24630150496202
 20
195.7589760741153
 30
0.0
 11
47.53497663955676
 21
195.2589760741153
 31
0.0
  0
LINE
  5
218
330
56
100
AcDbEntity
  8
1
  6
Continuous
 62
     7
100
AcDbLine
 10
47.24630150496202
 20
195.7589760741153
 30
0.0
 11
47.95160942779577
 21
191.7589760741153
 31
0.0
  0
LINE
  5
219
330
56
100
AcDbEntity
  8
1
  6
Continuous
 62
     7
100
AcDbLine
 10
46.95762637036714
 20
195.2589760741153
 30
0.0
 11
47.24630150496202
 21
195.7589760741153
 31
0.0
  0
LINE
  5
21A
330
56
100
AcDbEntity
  8
1
  6
Continuous
 62
     7
100
AcDbLine
 10
47.66293429320098
 20
192.2589760741153
 30
0.0
 11
46.95762637036714
 21
195.2589760741153
 31
0.0
  0
LINE
  5
21B
330
56
100
AcDbEntity
  8
1
  6
Continuous
 62
     7
100
AcDbLine
 10
47.95160942779577
 20
191.7589760741153
 30
0.0
 11
47.66293429320098
 21
192.2589760741153
 31
0.0
  0
LINE
  5
21C
330
56
100
AcDbEntity
  8
1
  6
Continuous
 62
     7
100
AcDbLine
 10
47.53497663955676
 20
195.2589760741153
 30
0.0
 11
48.24028456239057
 21
192.2589760741153
 31
0.0
  0
LINE
  5
21D
330
56
100
AcDbEntity
  8
1
  6
Continuous
 62
     7
100
AcDbLine
 10
48.24028456239057
 20
192.2589760741153
 30
0.0
 11
47.95160942779577
 21
191.7589760741153
 31
0.0
  0
LINE
  5
21E
330
56
100
AcDbEntity
  8
1
  6
Continuous
 62
     7
100
AcDbLine
 10
60.59113752347645
 20
192.2589760741153
 30
0.0
 11
59.01378725428685
 21
192.2589760741153
 31
0.0
  0
LINE
  5
21F
330
56
100
AcDbEntity
  8
1
  6
Continuous
 62
     7
100
AcDbLine
 10
59.88582960064258
 20
195.2589760741153
 30
0.0
 11
58.30847933145293
 21
195.2589760741153
 31
0.0
  0
LINE
  5
220
330
56
100
AcDbEntity
  8
1
  6
Continuous
 62
     7
100
AcDbLine
 10
57.73112906226334
 20
195.2589760741153
 30
0.0
 11
56.1537787930738
 21
195.2589760741153
 31
0.0
  0
LINE
  5
221
330
56
100
AcDbEntity
  8
1
  6
Continuous
 62
     7
100
AcDbLine
 10
58.4364369850972
 20
192.2589760741153
 30
0.0
 11
56.85908671590764
 21
192.2589760741153
 31
0.0
  0
LINE
  5
222
330
56
100
AcDbEntity
  8
1
  6
Continuous
 62
     7
100
AcDbLine
 10
56.28173644671799
 20
192.2589760741153
 30
0.0
 11
54.70438617752839
 21
192.2589760741153
 31
0.0
  0
LINE
  5
223
330
56
100
AcDbEntity
  8
1
  6
Continuous
 62
     7
100
AcDbLine
 10
55.57642852388409
 20
195.2589760741153
 30
0.0
 11
53.99907825469452
 21
195.2589760741153
 31
0.0
  0
LINE
  5
224
330
56
100
AcDbEntity
  8
1
  6
Continuous
 62
     7
100
AcDbLine
 10
53.42172798550493
 20
195.2589760741153
 30
0.0
 11
51.84437771631525
 21
195.2589760741153
 31
0.0
  0
LINE
  5
225
330
56
100
AcDbEntity
  8
1
  6
Continuous
 62
     7
100
AcDbLine
 10
54.12703590833868
 20
192.2589760741153
 30
0.0
 11
52.54968563914906
 21
192.2589760741153
 31
0.0
  0
LINE
  5
226
330
56
100
AcDbEntity
  8
1
  6
Continuous
 62
     7
100
AcDbLine
 10
51.9723353699595
 20
192.2589760741153
 30
0.0
 11
50.39498510076979
 21
192.2589760741153
 31
0.0
  0
LINE
  5
227
330
56
100
AcDbEntity
  8
1
  6
Continuous
 62
     7
100
AcDbLine
 10
51.26702744712563
 20
195.2589760741153
 30
0.0
 11
49.68967717793598
 21
195.2589760741153
 31
0.0
  0
LINE
  5
228
330
56
100
AcDbEntity
  8
1
  6
Continuous
 62
     7
100
AcDbLine
 10
49.11232690874641
 20
195.2589760741153
 30
0.0
 11
47.53497663955676
 21
195.2589760741153
 31
0.0
  0
LINE
  5
229
330
56
100
AcDbEntity
  8
1
  6
Continuous
 62
     7
100
AcDbLine
 10
49.81763483158017
 20
192.2589760741153
 30
0.0
 11
48.24028456239057
 21
192.2589760741153
 31
0.0
  0
LINE
  5
22A
330
56
100
AcDbEntity
  8
1
  6
Continuous
 62
     7
100
AcDbLine
 10
46.03430297651241
 20
195.0090403899987
 30
0.0
 11
46.66293429320098
 21
192.3404705045881
 31
0.0
  0
LINE
  5
22B
330
56
100
AcDbEntity
  8
1
  6
Continuous
 62
     7
100
AcDbLine
 10
45.77548393140989
 20
195.4573281260827
 30
0.0
 11
46.40411524809852
 21
191.8921827685042
 31
0.0
  0
LINE
  5
22C
330
56
100
AcDbEntity
  8
1
  6
Continuous
 62
     7
100
AcDbLine
 10
45.77548393140989
 20
195.4573281260827
 30
0.0
 11
46.03430297651241
 21
195.0090403899987
 31
0.0
  0
LINE
  5
22D
330
56
100
AcDbEntity
  8
1
  6
Continuous
 62
     7
100
AcDbLine
 10
45.77548393140989
 20
195.4573281260827
 30
0.0
 11
45.42193054081656
 21
194.8449556903869
 31
0.0
  0
LINE
  5
22E
330
56
100
AcDbEntity
  8
1
  6
Continuous
 62
     7
100
AcDbLine
 10
45.42193054081656
 20
194.8449556903869
 30
0.0
 11
46.05056185750519
 21
192.5045552042
 31
0.0
  0
LINE
  5
22F
330
56
100
AcDbEntity
  8
1
  6
Continuous
 62
     7
100
AcDbLine
 10
46.66293429320098
 20
192.3404705045881
 30
0.0
 11
46.40411524809852
 21
191.8921827685042
 31
0.0
  0
LINE
  5
230
330
56
100
AcDbEntity
  8
1
  6
Continuous
 62
     7
100
AcDbLine
 10
46.40411524809852
 20
191.8921827685042
 30
0.0
 11
46.05056185750519
 21
192.5045552042
 31
0.0
  0
LINE
  5
231
330
56
100
AcDbEntity
  8
1
  6
Continuous
 62
     7
100
AcDbLine
 10
44.308596286983
 20
195.0642767663714
 30
0.0
 11
44.56741533208552
 21
194.6159890302871
 31
0.0
  0
LINE
  5
232
330
56
100
AcDbEntity
  8
1
  6
Continuous
 62
     7
100
AcDbLine
 10
44.56741533208552
 20
194.6159890302871
 30
0.0
 11
45.05056185750519
 21
192.772504396631
 31
0.0
  0
LINE
  5
233
330
56
100
AcDbEntity
  8
1
  6
Continuous
 62
     7
100
AcDbLine
 10
45.05056185750519
 20
192.772504396631
 30
0.0
 11
44.79174281240267
 21
192.3242166605471
 31
0.0
  0
LINE
  5
234
330
56
100
AcDbEntity
  8
1
  6
Continuous
 62
     7
100
AcDbLine
 10
44.79174281240267
 20
192.3242166605471
 30
0.0
 11
44.4381894218094
 21
192.9365890962429
 31
0.0
  0
LINE
  5
235
330
56
100
AcDbEntity
  8
1
  6
Continuous
 62
     7
100
AcDbLine
 10
44.4381894218094
 20
192.9365890962429
 30
0.0
 11
43.95504289638967
 21
194.4519043306756
 31
0.0
  0
LINE
  5
236
330
56
100
AcDbEntity
  8
1
  6
Continuous
 62
     7
100
AcDbLine
 10
44.308596286983
 20
195.0642767663714
 30
0.0
 11
44.79174281240267
 21
192.3242166605471
 31
0.0
  0
LINE
  5
237
330
56
100
AcDbEntity
  8
1
  6
Continuous
 62
     7
100
AcDbLine
 10
44.308596286983
 20
195.0642767663714
 30
0.0
 11
43.95504289638967
 21
194.4519043306756
 31
0.0
  0
LINE
  5
238
330
56
100
AcDbEntity
  8
1
  6
Continuous
 62
     7
100
AcDbLine
 10
42.84170864255592
 20
194.6712254066598
 30
0.0
 11
43.10052768765863
 21
194.2229376705759
 31
0.0
  0
LINE
  5
239
330
56
100
AcDbEntity
  8
1
  6
Continuous
 62
     7
100
AcDbLine
 10
43.10052768765863
 20
194.2229376705759
 30
0.0
 11
43.43818942180926
 21
193.204538288674
 31
0.0
  0
LINE
  5
23A
330
56
100
AcDbEntity
  8
1
  6
Continuous
 62
     7
100
AcDbLine
 10
43.43818942180926
 20
193.204538288674
 30
0.0
 11
43.17937037670686
 21
192.7562505525899
 31
0.0
  0
LINE
  5
23B
330
56
100
AcDbEntity
  8
1
  6
Continuous
 62
     7
100
AcDbLine
 10
43.17937037670686
 20
192.7562505525899
 30
0.0
 11
42.82581698611361
 21
193.3686229882858
 31
0.0
  0
LINE
  5
23C
330
56
100
AcDbEntity
  8
1
  6
Continuous
 62
     7
100
AcDbLine
 10
42.82581698611361
 20
193.3686229882858
 30
0.0
 11
42.48815525196289
 21
194.0588529709642
 31
0.0
  0
LINE
  5
23D
330
56
100
AcDbEntity
  8
1
  6
Continuous
 62
     7
100
AcDbLine
 10
42.84170864255592
 20
194.6712254066598
 30
0.0
 11
42.48815525196289
 21
194.0588529709642
 31
0.0
  0
LINE
  5
23E
330
56
100
AcDbEntity
  8
1
  6
Continuous
 62
     7
100
AcDbLine
 10
42.84170864255592
 20
194.6712254066598
 30
0.0
 11
43.17937037670686
 21
192.7562505525899
 31
0.0
  0
LINE
  5
23F
330
56
100
AcDbEntity
  8
1
  6
Continuous
 62
     7
100
AcDbLine
 10
46.95762637036714
 20
195.2589760741153
 30
0.0
 11
46.03430297651241
 21
195.0090403899987
 31
0.0
  0
LINE
  5
240
330
56
100
AcDbEntity
  8
1
  6
Continuous
 62
     7
100
AcDbLine
 10
47.66293429320098
 20
192.2589760741153
 30
0.0
 11
46.96707564826002
 21
192.2589760741153
 31
0.0
  0
LINE
  5
241
330
56
100
AcDbEntity
  8
1
  6
Continuous
 62
     7
100
AcDbLine
 10
46.96707564826002
 20
192.2589760741153
 30
0.0
 11
46.66293429320098
 21
192.3404705045881
 31
0.0
  0
LINE
  5
242
330
56
100
AcDbEntity
  8
1
  6
Continuous
 62
     7
100
AcDbLine
 10
46.05056185750519
 20
192.5045552042
 30
0.0
 11
45.05056185750519
 21
192.772504396631
 31
0.0
  0
LINE
  5
243
330
56
100
AcDbEntity
  8
1
  6
Continuous
 62
     7
100
AcDbLine
 10
44.4381894218094
 20
192.9365890962429
 30
0.0
 11
43.43818942180926
 21
193.204538288674
 31
0.0
  0
LINE
  5
244
330
56
100
AcDbEntity
  8
1
  6
Continuous
 62
     7
100
AcDbLine
 10
42.82581698611361
 20
193.3686229882858
 30
0.0
 11
41.36899943690668
 21
193.7589760741153
 31
0.0
  0
LINE
  5
245
330
56
100
AcDbEntity
  8
1
  6
Continuous
 62
     7
100
AcDbLine
 10
42.48815525196289
 20
194.0588529709642
 30
0.0
 11
41.36899943690668
 21
193.7589760741153
 31
0.0
  0
LINE
  5
246
330
56
100
AcDbEntity
  8
1
  6
Continuous
 62
     7
100
AcDbLine
 10
43.95504289638967
 20
194.4519043306756
 30
0.0
 11
43.10052768765863
 21
194.2229376705759
 31
0.0
  0
LINE
  5
247
330
56
100
AcDbEntity
  8
1
  6
Continuous
 62
     7
100
AcDbLine
 10
45.42193054081656
 20
194.8449556903869
 30
0.0
 11
44.56741533208552
 21
194.6159890302871
 31
0.0
  0
ENDBLK
  5
58
330
56
100
AcDbEntity
  8
0
100
AcDbBlockEnd
  0
BLOCK
  5
5A
330
59
100
AcDbEntity
  8
0
100
AcDbBlockBegin
  2
H86F-B__4
 70
     0
 10
6.55073835762695
 20
187.8331897463129
 30
0.0
  3
H86F-B__4
  1

  0
LINE
  5
248
330
59
100
AcDbEntity
  8
1
  6
Continuous
 62
     7
100
AcDbLine
 10
62.61899943690671
 20
162.0392851313414
 30
0.0
 11
62.45716292726087
 21
161.7589760741153
 31
0.0
  0
LINE
  5
249
330
59
100
AcDbEntity
  8
1
  6
Continuous
 62
     7
100
AcDbLine
 10
65.6189244369067
 20
160.0090510741152
 30
0.0
 11
65.86899943690668
 21
159.7589760741153
 31
0.0
  0
LINE
  5
24A
330
59
100
AcDbEntity
  8
1
  6
Continuous
 62
     7
100
AcDbLine
 10
62.61899943690671
 20
165.2589760741153
 30
0.0
 11
62.04053013902183
 21
165.2589760741153
 31
0.0
  0
LINE
  5
24B
330
59
100
AcDbEntity
  8
1
  6
Continuous
 62
     7
100
AcDbLine
 10
45.42193054081656
 20
164.8449556903869
 30
0.0
 11
44.56741533208549
 21
164.6159890302874
 31
0.0
  0
LINE
  5
24C
330
59
100
AcDbEntity
  8
1
  6
Continuous
 62
     7
100
AcDbLine
 10
43.95504289638967
 20
164.4519043306756
 30
0.0
 11
43.1005276876586
 21
164.2229376705759
 31
0.0
  0
LINE
  5
24D
330
59
100
AcDbEntity
  8
1
  6
Continuous
 62
     7
100
AcDbLine
 10
42.48815525196289
 20
164.0588529709642
 30
0.0
 11
41.36899943690668
 21
163.7589760741153
 31
0.0
  0
LINE
  5
24E
330
59
100
AcDbEntity
  8
1
  6
Continuous
 62
     7
100
AcDbLine
 10
42.82581698611358
 20
163.3686229882858
 30
0.0
 11
41.36899943690668
 21
163.7589760741153
 31
0.0
  0
LINE
  5
24F
330
59
100
AcDbEntity
  8
1
  6
Continuous
 62
     7
100
AcDbLine
 10
44.4381894218094
 20
162.9365890962429
 30
0.0
 11
43.4381894218094
 21
163.204538288674
 31
0.0
  0
LINE
  5
250
330
59
100
AcDbEntity
  8
1
  6
Continuous
 62
     7
100
AcDbLine
 10
46.05056185750519
 20
162.5045552042
 30
0.0
 11
45.05056185750516
 21
162.772504396631
 31
0.0
  0
LINE
  5
251
330
59
100
AcDbEntity
  8
1
  6
Continuous
 62
     7
100
AcDbLine
 10
46.96707564825999
 20
162.2589760741153
 30
0.0
 11
46.66293429320098
 21
162.3404705045884
 31
0.0
  0
LINE
  5
252
330
59
100
AcDbEntity
  8
1
  6
Continuous
 62
     7
100
AcDbLine
 10
47.66293429320098
 20
162.2589760741153
 30
0.0
 11
46.96707564825999
 21
162.2589760741153
 31
0.0
  0
LINE
  5
253
330
59
100
AcDbEntity
  8
1
  6
Continuous
 62
     7
100
AcDbLine
 10
46.95762637036711
 20
165.2589760741153
 30
0.0
 11
46.03430297651238
 21
165.0090403899987
 31
0.0
  0
LINE
  5
254
330
59
100
AcDbEntity
  8
1
  6
Continuous
 62
     7
100
AcDbLine
 10
42.84170864255606
 20
164.6712254066601
 30
0.0
 11
43.17937037670686
 21
162.7562505525899
 31
0.0
  0
LINE
  5
255
330
59
100
AcDbEntity
  8
1
  6
Continuous
 62
     7
100
AcDbLine
 10
42.84170864255606
 20
164.6712254066601
 30
0.0
 11
42.48815525196289
 21
164.0588529709642
 31
0.0
  0
LINE
  5
256
330
59
100
AcDbEntity
  8
1
  6
Continuous
 62
     7
100
AcDbLine
 10
42.82581698611358
 20
163.3686229882858
 30
0.0
 11
42.48815525196289
 21
164.0588529709642
 31
0.0
  0
LINE
  5
257
330
59
100
AcDbEntity
  8
1
  6
Continuous
 62
     7
100
AcDbLine
 10
43.17937037670686
 20
162.7562505525899
 30
0.0
 11
42.82581698611358
 21
163.3686229882858
 31
0.0
  0
LINE
  5
258
330
59
100
AcDbEntity
  8
1
  6
Continuous
 62
     7
100
AcDbLine
 10
43.4381894218094
 20
163.204538288674
 30
0.0
 11
43.17937037670686
 21
162.7562505525899
 31
0.0
  0
LINE
  5
259
330
59
100
AcDbEntity
  8
1
  6
Continuous
 62
     7
100
AcDbLine
 10
43.1005276876586
 20
164.2229376705759
 30
0.0
 11
43.4381894218094
 21
163.204538288674
 31
0.0
  0
LINE
  5
25A
330
59
100
AcDbEntity
  8
1
  6
Continuous
 62
     7
100
AcDbLine
 10
42.84170864255606
 20
164.6712254066601
 30
0.0
 11
43.1005276876586
 21
164.2229376705759
 31
0.0
  0
LINE
  5
25B
330
59
100
AcDbEntity
  8
1
  6
Continuous
 62
     7
100
AcDbLine
 10
44.308596286983
 20
165.0642767663714
 30
0.0
 11
43.95504289638967
 21
164.4519043306756
 31
0.0
  0
LINE
  5
25C
330
59
100
AcDbEntity
  8
1
  6
Continuous
 62
     7
100
AcDbLine
 10
44.308596286983
 20
165.0642767663714
 30
0.0
 11
44.79174281240267
 21
162.3242166605471
 31
0.0
  0
LINE
  5
25D
330
59
100
AcDbEntity
  8
1
  6
Continuous
 62
     7
100
AcDbLine
 10
44.4381894218094
 20
162.9365890962429
 30
0.0
 11
43.95504289638967
 21
164.4519043306756
 31
0.0
  0
LINE
  5
25E
330
59
100
AcDbEntity
  8
1
  6
Continuous
 62
     7
100
AcDbLine
 10
44.79174281240267
 20
162.3242166605471
 30
0.0
 11
44.4381894218094
 21
162.9365890962429
 31
0.0
  0
LINE
  5
25F
330
59
100
AcDbEntity
  8
1
  6
Continuous
 62
     7
100
AcDbLine
 10
45.05056185750516
 20
162.772504396631
 30
0.0
 11
44.79174281240267
 21
162.3242166605471
 31
0.0
  0
LINE
  5
260
330
59
100
AcDbEntity
  8
1
  6
Continuous
 62
     7
100
AcDbLine
 10
44.56741533208549
 20
164.6159890302874
 30
0.0
 11
45.05056185750516
 21
162.772504396631
 31
0.0
  0
LINE
  5
261
330
59
100
AcDbEntity
  8
1
  6
Continuous
 62
     7
100
AcDbLine
 10
44.308596286983
 20
165.0642767663714
 30
0.0
 11
44.56741533208549
 21
164.6159890302874
 31
0.0
  0
LINE
  5
262
330
59
100
AcDbEntity
  8
1
  6
Continuous
 62
     7
100
AcDbLine
 10
46.40411524809849
 20
161.8921827685042
 30
0.0
 11
46.05056185750519
 21
162.5045552042
 31
0.0
  0
LINE
  5
263
330
59
100
AcDbEntity
  8
1
  6
Continuous
 62
     7
100
AcDbLine
 10
46.66293429320098
 20
162.3404705045884
 30
0.0
 11
46.40411524809849
 21
161.8921827685042
 31
0.0
  0
LINE
  5
264
330
59
100
AcDbEntity
  8
1
  6
Continuous
 62
     7
100
AcDbLine
 10
45.42193054081656
 20
164.8449556903869
 30
0.0
 11
46.05056185750519
 21
162.5045552042
 31
0.0
  0
LINE
  5
265
330
59
100
AcDbEntity
  8
1
  6
Continuous
 62
     7
100
AcDbLine
 10
45.77548393140989
 20
165.4573281260827
 30
0.0
 11
45.42193054081656
 21
164.8449556903869
 31
0.0
  0
LINE
  5
266
330
59
100
AcDbEntity
  8
1
  6
Continuous
 62
     7
100
AcDbLine
 10
45.77548393140989
 20
165.4573281260827
 30
0.0
 11
46.03430297651238
 21
165.0090403899987
 31
0.0
  0
LINE
  5
267
330
59
100
AcDbEntity
  8
1
  6
Continuous
 62
     7
100
AcDbLine
 10
45.77548393140989
 20
165.4573281260827
 30
0.0
 11
46.40411524809849
 21
161.8921827685042
 31
0.0
  0
LINE
  5
268
330
59
100
AcDbEntity
  8
1
  6
Continuous
 62
     7
100
AcDbLine
 10
46.03430297651238
 20
165.0090403899987
 30
0.0
 11
46.66293429320098
 21
162.3404705045884
 31
0.0
  0
LINE
  5
269
330
59
100
AcDbEntity
  8
1
  6
Continuous
 62
     7
100
AcDbLine
 10
49.81763483158017
 20
162.2589760741153
 30
0.0
 11
48.24028456239057
 21
162.2589760741153
 31
0.0
  0
LINE
  5
26A
330
59
100
AcDbEntity
  8
1
  6
Continuous
 62
     7
100
AcDbLine
 10
49.11232690874641
 20
165.2589760741153
 30
0.0
 11
47.53497663955676
 21
165.2589760741153
 31
0.0
  0
LINE
  5
26B
330
59
100
AcDbEntity
  8
1
  6
Continuous
 62
     7
100
AcDbLine
 10
51.2670274471256
 20
165.2589760741153
 30
0.0
 11
49.68967717793595
 21
165.2589760741153
 31
0.0
  0
LINE
  5
26C
330
59
100
AcDbEntity
  8
1
  6
Continuous
 62
     7
100
AcDbLine
 10
51.97233536995947
 20
162.2589760741153
 30
0.0
 11
50.39498510076976
 21
162.2589760741153
 31
0.0
  0
LINE
  5
26D
330
59
100
AcDbEntity
  8
1
  6
Continuous
 62
     7
100
AcDbLine
 10
54.12703590833866
 20
162.2589760741153
 30
0.0
 11
52.54968563914906
 21
162.2589760741153
 31
0.0
  0
LINE
  5
26E
330
59
100
AcDbEntity
  8
1
  6
Continuous
 62
     7
100
AcDbLine
 10
53.42172798550493
 20
165.2589760741153
 30
0.0
 11
51.84437771631525
 21
165.2589760741153
 31
0.0
  0
LINE
  5
26F
330
59
100
AcDbEntity
  8
1
  6
Continuous
 62
     7
100
AcDbLine
 10
55.57642852388409
 20
165.2589760741153
 30
0.0
 11
53.9990782546945
 21
165.2589760741153
 31
0.0
  0
LINE
  5
270
330
59
100
AcDbEntity
  8
1
  6
Continuous
 62
     7
100
AcDbLine
 10
56.28173644671796
 20
162.2589760741153
 30
0.0
 11
54.70438617752836
 21
162.2589760741153
 31
0.0
  0
LINE
  5
271
330
59
100
AcDbEntity
  8
1
  6
Continuous
 62
     7
100
AcDbLine
 10
58.4364369850972
 20
162.2589760741153
 30
0.0
 11
56.85908671590761
 21
162.2589760741153
 31
0.0
  0
LINE
  5
272
330
59
100
AcDbEntity
  8
1
  6
Continuous
 62
     7
100
AcDbLine
 10
57.73112906226334
 20
165.2589760741153
 30
0.0
 11
56.1537787930738
 21
165.2589760741153
 31
0.0
  0
LINE
  5
273
330
59
100
AcDbEntity
  8
1
  6
Continuous
 62
     7
100
AcDbLine
 10
59.88582960064258
 20
165.2589760741153
 30
0.0
 11
58.30847933145293
 21
165.2589760741153
 31
0.0
  0
LINE
  5
274
330
59
100
AcDbEntity
  8
1
  6
Continuous
 62
     7
100
AcDbLine
 10
60.59113752347645
 20
162.2589760741153
 30
0.0
 11
59.01378725428685
 21
162.2589760741153
 31
0.0
  0
LINE
  5
275
330
59
100
AcDbEntity
  8
1
  6
Continuous
 62
     7
100
AcDbLine
 10
48.24028456239057
 20
162.2589760741153
 30
0.0
 11
47.95160942779575
 21
161.7589760741153
 31
0.0
  0
LINE
  5
276
330
59
100
AcDbEntity
  8
1
  6
Continuous
 62
     7
100
AcDbLine
 10
47.53497663955676
 20
165.2589760741153
 30
0.0
 11
48.24028456239057
 21
162.2589760741153
 31
0.0
  0
LINE
  5
277
330
59
100
AcDbEntity
  8
1
  6
Continuous
 62
     7
100
AcDbLine
 10
47.95160942779575
 20
161.7589760741153
 30
0.0
 11
47.66293429320098
 21
162.2589760741153
 31
0.0
  0
LINE
  5
278
330
59
100
AcDbEntity
  8
1
  6
Continuous
 62
     7
100
AcDbLine
 10
47.66293429320098
 20
162.2589760741153
 30
0.0
 11
46.95762637036711
 21
165.2589760741153
 31
0.0
  0
LINE
  5
279
330
59
100
AcDbEntity
  8
1
  6
Continuous
 62
     7
100
AcDbLine
 10
46.95762637036711
 20
165.2589760741153
 30
0.0
 11
47.24630150496202
 21
165.7589760741153
 31
0.0
  0
LINE
  5
27A
330
59
100
AcDbEntity
  8
1
  6
Continuous
 62
     7
100
AcDbLine
 10
47.24630150496202
 20
165.7589760741153
 30
0.0
 11
47.95160942779575
 21
161.7589760741153
 31
0.0
  0
LINE
  5
27B
330
59
100
AcDbEntity
  8
1
  6
Continuous
 62
     7
100
AcDbLine
 10
47.24630150496202
 20
165.7589760741153
 30
0.0
 11
47.53497663955676
 21
165.2589760741153
 31
0.0
  0
LINE
  5
27C
330
59
100
AcDbEntity
  8
1
  6
Continuous
 62
     7
100
AcDbLine
 10
50.39498510076976
 20
162.2589760741153
 30
0.0
 11
50.10630996617505
 21
161.7589760741153
 31
0.0
  0
LINE
  5
27D
330
59
100
AcDbEntity
  8
1
  6
Continuous
 62
     7
100
AcDbLine
 10
49.68967717793595
 20
165.2589760741153
 30
0.0
 11
50.39498510076976
 21
162.2589760741153
 31
0.0
  0
LINE
  5
27E
330
59
100
AcDbEntity
  8
1
  6
Continuous
 62
     7
100
AcDbLine
 10
50.10630996617505
 20
161.7589760741153
 30
0.0
 11
49.81763483158017
 21
162.2589760741153
 31
0.0
  0
LINE
  5
27F
330
59
100
AcDbEntity
  8
1
  6
Continuous
 62
     7
100
AcDbLine
 10
49.81763483158017
 20
162.2589760741153
 30
0.0
 11
49.11232690874641
 21
165.2589760741153
 31
0.0
  0
LINE
  5
280
330
59
100
AcDbEntity
  8
1
  6
Continuous
 62
     7
100
AcDbLine
 10
49.11232690874641
 20
165.2589760741153
 30
0.0
 11
49.40100204334118
 21
165.7589760741153
 31
0.0
  0
LINE
  5
281
330
59
100
AcDbEntity
  8
1
  6
Continuous
 62
     7
100
AcDbLine
 10
49.40100204334118
 20
165.7589760741153
 30
0.0
 11
50.10630996617505
 21
161.7589760741153
 31
0.0
  0
LINE
  5
282
330
59
100
AcDbEntity
  8
1
  6
Continuous
 62
     7
100
AcDbLine
 10
49.40100204334118
 20
165.7589760741153
 30
0.0
 11
49.68967717793595
 21
165.2589760741153
 31
0.0
  0
LINE
  5
283
330
59
100
AcDbEntity
  8
1
  6
Continuous
 62
     7
100
AcDbLine
 10
52.54968563914906
 20
162.2589760741153
 30
0.0
 11
52.26101050455429
 21
161.7589760741153
 31
0.0
  0
LINE
  5
284
330
59
100
AcDbEntity
  8
1
  6
Continuous
 62
     7
100
AcDbLine
 10
51.84437771631525
 20
165.2589760741153
 30
0.0
 11
52.54968563914906
 21
162.2589760741153
 31
0.0
  0
LINE
  5
285
330
59
100
AcDbEntity
  8
1
  6
Continuous
 62
     7
100
AcDbLine
 10
52.26101050455429
 20
161.7589760741153
 30
0.0
 11
51.97233536995947
 21
162.2589760741153
 31
0.0
  0
LINE
  5
286
330
59
100
AcDbEntity
  8
1
  6
Continuous
 62
     7
100
AcDbLine
 10
51.97233536995947
 20
162.2589760741153
 30
0.0
 11
51.2670274471256
 21
165.2589760741153
 31
0.0
  0
LINE
  5
287
330
59
100
AcDbEntity
  8
1
  6
Continuous
 62
     7
100
AcDbLine
 10
51.2670274471256
 20
165.2589760741153
 30
0.0
 11
51.55570258172037
 21
165.7589760741153
 31
0.0
  0
LINE
  5
288
330
59
100
AcDbEntity
  8
1
  6
Continuous
 62
     7
100
AcDbLine
 10
51.55570258172037
 20
165.7589760741153
 30
0.0
 11
52.26101050455429
 21
161.7589760741153
 31
0.0
  0
LINE
  5
289
330
59
100
AcDbEntity
  8
1
  6
Continuous
 62
     7
100
AcDbLine
 10
51.55570258172037
 20
165.7589760741153
 30
0.0
 11
51.84437771631525
 21
165.2589760741153
 31
0.0
  0
LINE
  5
28A
330
59
100
AcDbEntity
  8
1
  6
Continuous
 62
     7
100
AcDbLine
 10
54.70438617752836
 20
162.2589760741153
 30
0.0
 11
54.41571104293359
 21
161.7589760741153
 31
0.0
  0
LINE
  5
28B
330
59
100
AcDbEntity
  8
1
  6
Continuous
 62
     7
100
AcDbLine
 10
53.9990782546945
 20
165.2589760741153
 30
0.0
 11
54.70438617752836
 21
162.2589760741153
 31
0.0
  0
LINE
  5
28C
330
59
100
AcDbEntity
  8
1
  6
Continuous
 62
     7
100
AcDbLine
 10
54.41571104293359
 20
161.7589760741153
 30
0.0
 11
54.12703590833866
 21
162.2589760741153
 31
0.0
  0
LINE
  5
28D
330
59
100
AcDbEntity
  8
1
  6
Continuous
 62
     7
100
AcDbLine
 10
54.12703590833866
 20
162.2589760741153
 30
0.0
 11
53.42172798550493
 21
165.2589760741153
 31
0.0
  0
LINE
  5
28E
330
59
100
AcDbEntity
  8
1
  6
Continuous
 62
     7
100
AcDbLine
 10
53.42172798550493
 20
165.2589760741153
 30
0.0
 11
53.71040312009967
 21
165.7589760741153
 31
0.0
  0
LINE
  5
28F
330
59
100
AcDbEntity
  8
1
  6
Continuous
 62
     7
100
AcDbLine
 10
53.71040312009967
 20
165.7589760741153
 30
0.0
 11
54.41571104293359
 21
161.7589760741153
 31
0.0
  0
LINE
  5
290
330
59
100
AcDbEntity
  8
1
  6
Continuous
 62
     7
100
AcDbLine
 10
53.71040312009967
 20
165.7589760741153
 30
0.0
 11
53.9990782546945
 21
165.2589760741153
 31
0.0
  0
LINE
  5
291
330
59
100
AcDbEntity
  8
1
  6
Continuous
 62
     7
100
AcDbLine
 10
56.85908671590761
 20
162.2589760741153
 30
0.0
 11
56.57041158131278
 21
161.7589760741153
 31
0.0
  0
LINE
  5
292
330
59
100
AcDbEntity
  8
1
  6
Continuous
 62
     7
100
AcDbLine
 10
56.1537787930738
 20
165.2589760741153
 30
0.0
 11
56.85908671590761
 21
162.2589760741153
 31
0.0
  0
LINE
  5
293
330
59
100
AcDbEntity
  8
1
  6
Continuous
 62
     7
100
AcDbLine
 10
56.57041158131278
 20
161.7589760741153
 30
0.0
 11
56.28173644671796
 21
162.2589760741153
 31
0.0
  0
LINE
  5
294
330
59
100
AcDbEntity
  8
1
  6
Continuous
 62
     7
100
AcDbLine
 10
56.28173644671796
 20
162.2589760741153
 30
0.0
 11
55.57642852388409
 21
165.2589760741153
 31
0.0
  0
LINE
  5
295
330
59
100
AcDbEntity
  8
1
  6
Continuous
 62
     7
100
AcDbLine
 10
55.57642852388409
 20
165.2589760741153
 30
0.0
 11
55.86510365847886
 21
165.7589760741153
 31
0.0
  0
LINE
  5
296
330
59
100
AcDbEntity
  8
1
  6
Continuous
 62
     7
100
AcDbLine
 10
55.86510365847886
 20
165.7589760741153
 30
0.0
 11
56.57041158131278
 21
161.7589760741153
 31
0.0
  0
LINE
  5
297
330
59
100
AcDbEntity
  8
1
  6
Continuous
 62
     7
100
AcDbLine
 10
55.86510365847886
 20
165.7589760741153
 30
0.0
 11
56.1537787930738
 21
165.2589760741153
 31
0.0
  0
LINE
  5
298
330
59
100
AcDbEntity
  8
1
  6
Continuous
 62
     7
100
AcDbLine
 10
59.01378725428685
 20
162.2589760741153
 30
0.0
 11
58.72511211969203
 21
161.7589760741153
 31
0.0
  0
LINE
  5
299
330
59
100
AcDbEntity
  8
1
  6
Continuous
 62
     7
100
AcDbLine
 10
58.30847933145293
 20
165.2589760741153
 30
0.0
 11
59.01378725428685
 21
162.2589760741153
 31
0.0
  0
LINE
  5
29A
330
59
100
AcDbEntity
  8
1
  6
Continuous
 62
     7
100
AcDbLine
 10
58.72511211969203
 20
161.7589760741153
 30
0.0
 11
58.4364369850972
 21
162.2589760741153
 31
0.0
  0
LINE
  5
29B
330
59
100
AcDbEntity
  8
1
  6
Continuous
 62
     7
100
AcDbLine
 10
58.4364369850972
 20
162.2589760741153
 30
0.0
 11
57.73112906226334
 21
165.2589760741153
 31
0.0
  0
LINE
  5
29C
330
59
100
AcDbEntity
  8
1
  6
Continuous
 62
     7
100
AcDbLine
 10
57.73112906226334
 20
165.2589760741153
 30
0.0
 11
58.01980419685816
 21
165.7589760741153
 31
0.0
  0
LINE
  5
29D
330
59
100
AcDbEntity
  8
1
  6
Continuous
 62
     7
100
AcDbLine
 10
58.01980419685816
 20
165.7589760741153
 30
0.0
 11
58.72511211969203
 21
161.7589760741153
 31
0.0
  0
LINE
  5
29E
330
59
100
AcDbEntity
  8
1
  6
Continuous
 62
     7
100
AcDbLine
 10
58.01980419685816
 20
165.7589760741153
 30
0.0
 11
58.30847933145293
 21
165.2589760741153
 31
0.0
  0
LINE
  5
29F
330
59
100
AcDbEntity
  8
1
  6
Continuous
 62
     7
100
AcDbLine
 10
61.46317986983223
 20
165.2589760741153
 30
0.0
 11
60.46317986983223
 21
165.2589760741153
 31
0.0
  0
LINE
  5
2A0
330
59
100
AcDbEntity
  8
1
  6
Continuous
 62
     7
100
AcDbLine
 10
60.87981265807127
 20
161.7589760741153
 30
0.0
 11
60.59113752347645
 21
162.2589760741153
 31
0.0
  0
LINE
  5
2A1
330
59
100
AcDbEntity
  8
1
  6
Continuous
 62
     7
100
AcDbLine
 10
60.59113752347645
 20
162.2589760741153
 30
0.0
 11
59.88582960064258
 21
165.2589760741153
 31
0.0
  0
LINE
  5
2A2
330
59
100
AcDbEntity
  8
1
  6
Continuous
 62
     7
100
AcDbLine
 10
59.88582960064258
 20
165.2589760741153
 30
0.0
 11
60.17450473523741
 21
165.7589760741153
 31
0.0
  0
LINE
  5
2A3
330
59
100
AcDbEntity
  8
1
  6
Continuous
 62
     7
100
AcDbLine
 10
60.17450473523741
 20
165.7589760741153
 30
0.0
 11
60.87981265807127
 21
161.7589760741153
 31
0.0
  0
LINE
  5
2A4
330
59
100
AcDbEntity
  8
1
  6
Continuous
 62
     7
100
AcDbLine
 10
60.17450473523741
 20
165.7589760741153
 30
0.0
 11
60.46317986983223
 21
165.2589760741153
 31
0.0
  0
LINE
  5
2A5
330
59
100
AcDbEntity
  8
1
  6
Continuous
 62
     7
100
AcDbLine
 10
61.1684877926661
 20
162.2589760741153
 30
0.0
 11
60.87981265807127
 21
161.7589760741153
 31
0.0
  0
LINE
  5
2A6
330
59
100
AcDbEntity
  8
1
  6
Continuous
 62
     7
100
AcDbLine
 10
60.46317986983223
 20
165.2589760741153
 30
0.0
 11
61.1684877926661
 21
162.2589760741153
 31
0.0
  0
LINE
  5
2A7
330
59
100
AcDbEntity
  8
1
  6
Continuous
 62
     7
100
AcDbLine
 10
62.1684877926661
 20
162.2589760741153
 30
0.0
 11
61.1684877926661
 21
162.2589760741153
 31
0.0
  0
LINE
  5
2A8
330
59
100
AcDbEntity
  8
1
  6
Continuous
 62
     7
100
AcDbLine
 10
61.46317986983223
 20
165.2589760741153
 30
0.0
 11
61.751855004427
 21
165.7589760741153
 31
0.0
  0
LINE
  5
2A9
330
59
100
AcDbEntity
  8
1
  6
Continuous
 62
     7
100
AcDbLine
 10
62.1684877926661
 20
162.2589760741153
 30
0.0
 11
61.46317986983223
 21
165.2589760741153
 31
0.0
  0
LINE
  5
2AA
330
59
100
AcDbEntity
  8
1
  6
Continuous
 62
     7
100
AcDbLine
 10
62.45716292726087
 20
161.7589760741153
 30
0.0
 11
62.1684877926661
 21
162.2589760741153
 31
0.0
  0
LINE
  5
2AB
330
59
100
AcDbEntity
  8
1
  6
Continuous
 62
     7
100
AcDbLine
 10
62.04053013902183
 20
165.2589760741153
 30
0.0
 11
62.61899943690671
 21
162.7984792648891
 31
0.0
  0
LINE
  5
2AC
330
59
100
AcDbEntity
  8
1
  6
Continuous
 62
     7
100
AcDbLine
 10
61.751855004427
 20
165.7589760741153
 30
0.0
 11
62.04053013902183
 21
165.2589760741153
 31
0.0
  0
LINE
  5
2AD
330
59
100
AcDbEntity
  8
1
  6
Continuous
 62
     7
100
AcDbLine
 10
61.751855004427
 20
165.7589760741153
 30
0.0
 11
62.45716292726087
 21
161.7589760741153
 31
0.0
  0
LINE
  5
2AE
330
59
100
AcDbEntity
  8
1
  6
Continuous
 62
     7
100
AcDbLine
 10
65.86899943690668
 20
167.7589760741153
 30
0.0
 11
65.86899943690668
 21
159.7589760741153
 31
0.0
  0
LINE
  5
2AF
330
59
100
AcDbEntity
  8
1
  6
Continuous
 62
     7
100
AcDbLine
 10
65.86899943690668
 20
167.7589760741153
 30
0.0
 11
65.6189244369067
 21
167.5089010741153
 31
0.0
  0
LINE
  5
2B0
330
59
100
AcDbEntity
  8
1
  6
Continuous
 62
     7
100
AcDbLine
 10
66.36899943690668
 20
167.7589760741153
 30
0.0
 11
65.86899943690668
 21
167.7589760741153
 31
0.0
  0
LINE
  5
2B1
330
59
100
AcDbEntity
  8
1
  6
Continuous
 62
     7
100
AcDbLine
 10
66.36899943690668
 20
159.7589760741153
 30
0.0
 11
65.86899943690668
 21
159.7589760741153
 31
0.0
  0
LINE
  5
2B2
330
59
100
AcDbEntity
  8
1
  6
Continuous
 62
     7
100
AcDbLine
 10
66.36899943690668
 20
167.7589760741153
 30
0.0
 11
66.36899943690668
 21
159.7589760741153
 31
0.0
  0
ENDBLK
  5
5B
330
59
100
AcDbEntity
  8
0
100
AcDbBlockEnd
  0
BLOCK
  5
5D
330
5C
100
AcDbEntity
  8
0
100
AcDbBlockBegin
  2
36-45
 70
     0
 10
316.6139198316107
 20
383.9768765832272
 30
0.0
  3
36-45
  1

  0
LINE
  5
2B3
330
5C
100
AcDbEntity
  8
1
  6
Continuous
 62
     7
100
AcDbLine
 10
135.8059994369066
 20
258.5080255279926
 30
0.0
 11
135.8059994369066
 21
247.5536129467051
 31
0.0
  0
LINE
  5
2B4
330
5C
100
AcDbEntity
  8
1
  6
Continuous
 62
     7
100
AcDbLine
 10
173.3059994369065
 20
257.8161762560912
 30
0.0
 11
173.3059994369065
 21
248.3161762560912
 31
0.0
  0
LINE
  5
2B5
330
5C
100
AcDbEntity
  8
1
  6
Continuous
 62
     7
100
AcDbLine
 10
173.3059994369064
 20
177.858976074115
 30
0.0
 11
174.3059994369065
 21
177.858976074115
 31
0.0
  0
LINE
  5
2B6
330
5C
100
AcDbEntity
  8
1
  6
Continuous
 62
     7
100
AcDbLine
 10
173.3059994369065
 20
174.0089760741149
 30
0.0
 11
173.3059994369064
 21
177.858976074115
 31
0.0
  0
LINE
  5
2B7
330
5C
100
AcDbEntity
  8
1
  6
Continuous
 62
     7
100
AcDbLine
 10
173.3059994369065
 20
179.6589760741148
 30
0.0
 11
171.7338420963389
 21
179.6589760741149
 31
0.0
  0
LINE
  5
2B8
330
5C
100
AcDbEntity
  8
1
  6
Continuous
 62
     7
100
AcDbLine
 10
173.3059994369065
 20
183.5089760741149
 30
0.0
 11
173.3059994369065
 21
179.6589760741148
 31
0.0
  0
LINE
  5
2B9
330
5C
100
AcDbEntity
  8
1
  6
Continuous
 62
     7
100
AcDbLine
 10
117.2852847903344
 20
93.40000000000003
 30
0.0
 11
108.9186845249937
 21
93.40000000000003
 31
0.0
  0
LINE
  5
2BA
330
5C
100
AcDbEntity
  8
1
  6
Continuous
 62
     7
100
AcDbLine
 10
117.2852847903344
 20
91.60000000000008
 30
0.0
 11
108.9186845249937
 21
91.60000000000008
 31
0.0
  0
LINE
  5
2BB
330
5C
100
AcDbEntity
  8
1
  6
Continuous
 62
     7
100
AcDbLine
 10
117.7659422046406
 20
93.40000000000003
 30
0.0
 11
117.2852847903344
 21
93.40000000000003
 31
0.0
  0
LINE
  5
2BC
330
5C
100
AcDbEntity
  8
1
  6
Continuous
 62
     7
100
AcDbLine
 10
108.9186845249937
 20
93.40000000000003
 30
0.0
 11
108.4380271106875
 21
93.40000000000003
 31
0.0
  0
LINE
  5
2BD
330
5C
100
AcDbEntity
  8
1
  6
Continuous
 62
     7
100
AcDbLine
 10
108.9186845249937
 20
91.60000000000008
 30
0.0
 11
108.4380271106875
 21
91.60000000000008
 31
0.0
  0
LINE
  5
2BE
330
5C
100
AcDbEntity
  8
1
  6
Continuous
 62
     7
100
AcDbLine
 10
117.7659422046406
 20
91.60000000000008
 30
0.0
 11
117.2852847903344
 21
91.60000000000008
 31
0.0
  0
LINE
  5
2BF
330
5C
100
AcDbEntity
  8
1
  6
Continuous
 62
     7
100
AcDbLine
 10
174.3059994369065
 20
256.8161762560912
 30
0.0
 11
174.3059994369065
 21
249.3161762560912
 31
0.0
  0
LINE
  5
2C0
330
5C
100
AcDbEntity
  8
1
  6
Continuous
 62
     7
100
AcDbLine
 10
173.3059994369065
 20
248.3161762560912
 30
0.0
 11
174.3059994369065
 21
249.3161762560912
 31
0.0
  0
LINE
  5
2C1
330
5C
100
AcDbEntity
  8
1
  6
Continuous
 62
     7
100
AcDbLine
 10
171.7338420963389
 20
248.3161762560912
 30
0.0
 11
173.3059994369065
 21
248.3161762560912
 31
0.0
  0
LINE
  5
2C2
330
5C
100
AcDbEntity
  8
1
  6
Continuous
 62
     7
100
AcDbLine
 10
174.3059994369065
 20
256.8161762560912
 30
0.0
 11
173.3059994369065
 21
257.8161762560912
 31
0.0
  0
LINE
  5
2C3
330
5C
100
AcDbEntity
  8
1
  6
Continuous
 62
     7
100
AcDbLine
 10
173.3059994369065
 20
257.8161762560912
 30
0.0
 11
171.7338420963389
 21
257.8161762560912
 31
0.0
  0
LINE
  5
2C4
330
5C
100
AcDbEntity
  8
1
  6
Continuous
 62
     7
100
AcDbLine
 10
173.3059994369065
 20
183.5089760741149
 30
0.0
 11
171.7338420963389
 21
183.5089760741149
 31
0.0
  0
LINE
  5
2C5
330
5C
100
AcDbEntity
  8
1
  6
Continuous
 62
     7
100
AcDbLine
 10
174.3059994369065
 20
182.5089760741149
 30
0.0
 11
173.3059994369065
 21
183.5089760741149
 31
0.0
  0
LINE
  5
2C6
330
5C
100
AcDbEntity
  8
1
  6
Continuous
 62
     7
100
AcDbLine
 10
174.3059994369065
 20
179.6589760741149
 30
0.0
 11
173.3059994369065
 21
179.6589760741148
 31
0.0
  0
LINE
  5
2C7
330
5C
100
AcDbEntity
  8
1
  6
Continuous
 62
     7
100
AcDbLine
 10
174.3059994369065
 20
182.5089760741149
 30
0.0
 11
174.3059994369065
 21
179.6589760741149
 31
0.0
  0
LINE
  5
2C8
330
5C
100
AcDbEntity
  8
1
  6
Continuous
 62
     7
100
AcDbLine
 10
171.7338420963389
 20
174.0089760741149
 30
0.0
 11
173.3059994369065
 21
174.0089760741149
 31
0.0
  0
LINE
  5
2C9
330
5C
100
AcDbEntity
  8
1
  6
Continuous
 62
     7
100
AcDbLine
 10
173.3059994369065
 20
174.0089760741149
 30
0.0
 11
174.3059994369065
 21
175.0089760741149
 31
0.0
  0
LINE
  5
2CA
330
5C
100
AcDbEntity
  8
1
  6
Continuous
 62
     7
100
AcDbLine
 10
171.7338420963389
 20
177.858976074115
 30
0.0
 11
173.3059994369064
 21
177.858976074115
 31
0.0
  0
LINE
  5
2CB
330
5C
100
AcDbEntity
  8
1
  6
Continuous
 62
     7
100
AcDbLine
 10
174.3059994369065
 20
177.858976074115
 30
0.0
 11
174.3059994369065
 21
175.0089760741149
 31
0.0
  0
ARC
  5
2CC
330
5C
100
AcDbEntity
  8
1
  6
Continuous
 62
     7
100
AcDbCircle
 10
113.101984657664
 20
92.5
 30
0.0
 40
4.750000000000074
100
AcDbArc
 50
9.08472028739163
 51
170.9152797126082
  0
ARC
  5
2CD
330
5C
100
AcDbEntity
  8
1
  6
Continuous
 62
     7
100
AcDbCircle
 10
113.101984657664
 20
92.5
 30
0.0
 40
4.250000000000075
100
AcDbArc
 50
12.22578859315773
 51
167.774211406842
  0
ARC
  5
2CE
330
5C
100
AcDbEntity
  8
1
  6
Continuous
 62
     7
100
AcDbCircle
 10
113.101984657664
 20
92.5
 30
0.0
 40
4.749999999999972
100
AcDbArc
 50
189.0847202873904
 51
350.9152797126097
  0
ARC
  5
2CF
330
5C
100
AcDbEntity
  8
1
  6
Continuous
 62
     7
100
AcDbCircle
 10
113.101984657664
 20
92.5
 30
0.0
 40
4.750000000000055
100
AcDbArc
 50
350.9152797126097
 51
9.08472028739163
  0
ARC
  5
2D0
330
5C
100
AcDbEntity
  8
1
  6
Continuous
 62
     7
100
AcDbCircle
 10
113.101984657664
 20
92.5
 30
0.0
 40
4.749999999999989
100
AcDbArc
 50
170.9152797126082
 51
189.0847202873904
  0
ARC
  5
2D1
330
5C
100
AcDbEntity
  8
1
  6
Continuous
 62
     7
100
AcDbCircle
 10
113.101984657664
 20
92.5
 30
0.0
 40
4.249999999999968
100
AcDbArc
 50
192.2257885931564
 51
347.7742114068437
  0
ENDBLK
  5
5E
330
5C
100
AcDbEntity
  8
0
100
AcDbBlockEnd
  0
BLOCK
  5
60
330
5F
100
AcDbEntity
  8
0
100
AcDbBlockBegin
  2
37-1-13
 70
     0
 10
130.3920403300564
 20
-14.60953667132793
 30
0.0
  3
37-1-13
  1

  0
LINE
  5
2D2
330
5F
100
AcDbEntity
  8
1
  6
Continuous
 62
     7
100
AcDbLine
 10
164.8045736338247
 20
266.0307867373484
 30
0.0
 11
157.7338770963389
 21
266.0307867373484
 31
0.0
  0
LINE
  5
2D3
330
5F
100
AcDbEntity
  8
1
  6
Continuous
 62
     7
100
AcDbLine
 10
164.8045736338247
 20
266.0307867373484
 30
0.0
 11
157.7338770963389
 21
266.0307867373484
 31
0.0
  0
LINE
  5
2D4
330
5F
100
AcDbEntity
  8
1
  6
Continuous
 62
     7
100
AcDbLine
 10
157.7338770963389
 20
240.0308517373485
 30
0.0
 11
164.8045736338247
 21
240.0308517373485
 31
0.0
  0
LINE
  5
2D5
330
5F
100
AcDbEntity
  8
1
  6
Continuous
 62
     7
100
AcDbLine
 10
165.2338583463389
 20
253.0308192373489
 30
0.0
 11
165.233858346339
 21
240.5308504873487
 31
0.0
  0
LINE
  5
2D6
330
5F
100
AcDbEntity
  8
1
  6
Continuous
 62
     7
100
AcDbLine
 10
157.7338770963389
 20
240.0308517373485
 30
0.0
 11
157.7338770963389
 21
266.1015007748345
 31
0.0
  0
LINE
  5
2D7
330
5F
100
AcDbEntity
  8
1
  6
Continuous
 62
     7
100
AcDbLine
 10
171.733842096339
 20
247.0308342373485
 30
0.0
 11
171.733842096339
 21
259.0308042373486
 31
0.0
  0
LINE
  5
2D8
330
5F
100
AcDbEntity
  8
1
  6
Continuous
 62
     7
100
AcDbLine
 10
165.233858346339
 20
265.5307879873483
 30
0.0
 11
165.2338583463389
 21
253.0308192373489
 31
0.0
  0
LINE
  5
2D9
330
5F
100
AcDbEntity
  8
1
  6
Continuous
 62
     7
100
AcDbLine
 10
165.2346545800889
 20
191.2581635903653
 30
0.0
 11
165.2346545800889
 21
178.7597260591154
 31
0.0
  0
LINE
  5
2DA
330
5F
100
AcDbEntity
  8
1
  6
Continuous
 62
     7
100
AcDbLine
 10
171.7338420963388
 20
172.7604760441155
 30
0.0
 11
171.7338420963388
 21
184.7589760741154
 31
0.0
  0
LINE
  5
2DB
330
5F
100
AcDbEntity
  8
1
  6
Continuous
 62
     7
100
AcDbLine
 10
157.7355920613389
 20
165.6906456514438
 30
0.0
 11
157.7355920613389
 21
191.8288064667867
 31
0.0
  0
LINE
  5
2DC
330
5F
100
AcDbEntity
  8
1
  6
Continuous
 62
     7
100
AcDbLine
 10
165.2346545800889
 20
178.7597260591154
 30
0.0
 11
165.2346545800889
 21
166.2612885278655
 31
0.0
  0
LINE
  5
2DD
330
5F
100
AcDbEntity
  8
1
  6
Continuous
 62
     7
100
AcDbLine
 10
119.601984657664
 20
81.24166975080232
 30
0.0
 11
114.0398357923423
 21
78.03036160613601
 31
0.0
  0
LINE
  5
2DE
330
5F
100
AcDbEntity
  8
1
  6
Continuous
 62
     7
100
AcDbLine
 10
126.101984657664
 20
92.5
 30
0.0
 11
126.101984657664
 21
86.07738371066745
 31
0.0
  0
LINE
  5
2DF
330
5F
100
AcDbEntity
  8
1
  6
Continuous
 62
     7
100
AcDbLine
 10
119.601984657664
 20
103.7583302491977
 30
0.0
 11
125.1641335229858
 21
100.5470221045315
 31
0.0
  0
LINE
  5
2E0
330
5F
100
AcDbEntity
  8
1
  6
Continuous
 62
     7
100
AcDbLine
 10
106.601984657664
 20
103.7583302491977
 30
0.0
 11
112.1641335229858
 21
106.969638393864
 31
0.0
  0
LINE
  5
2E1
330
5F
100
AcDbEntity
  8
1
  6
Continuous
 62
     7
100
AcDbLine
 10
100.101984657664
 20
92.5
 30
0.0
 11
100.101984657664
 21
98.92261628933261
 31
0.0
  0
LINE
  5
2E2
330
5F
100
AcDbEntity
  8
1
  6
Continuous
 62
     7
100
AcDbLine
 10
106.601984657664
 20
81.24166975080232
 30
0.0
 11
101.0398357923423
 21
84.45297789546862
 31
0.0
  0
LINE
  5
2E3
330
5F
100
AcDbEntity
  8
1
  6
Continuous
 62
     7
100
AcDbLine
 10
125.1641335229858
 20
84.45297789546862
 30
0.0
 11
119.601984657664
 21
81.24166975080232
 31
0.0
  0
LINE
  5
2E4
330
5F
100
AcDbEntity
  8
1
  6
Continuous
 62
     7
100
AcDbLine
 10
126.101984657664
 20
98.92261628933261
 30
0.0
 11
126.101984657664
 21
92.5
 31
0.0
  0
LINE
  5
2E5
330
5F
100
AcDbEntity
  8
1
  6
Continuous
 62
     7
100
AcDbLine
 10
114.0398357923423
 20
106.969638393864
 30
0.0
 11
119.601984657664
 21
103.7583302491977
 31
0.0
  0
LINE
  5
2E6
330
5F
100
AcDbEntity
  8
1
  6
Continuous
 62
     7
100
AcDbLine
 10
101.0398357923423
 20
100.5470221045315
 30
0.0
 11
106.601984657664
 21
103.7583302491977
 31
0.0
  0
LINE
  5
2E7
330
5F
100
AcDbEntity
  8
1
  6
Continuous
 62
     7
100
AcDbLine
 10
100.101984657664
 20
86.07738371066745
 30
0.0
 11
100.101984657664
 21
92.5
 31
0.0
  0
LINE
  5
2E8
330
5F
100
AcDbEntity
  8
1
  6
Continuous
 62
     7
100
AcDbLine
 10
112.1641335229858
 20
78.03036160613601
 30
0.0
 11
106.601984657664
 21
81.24166975080232
 31
0.0
  0
ARC
  5
2E9
330
5F
100
AcDbEntity
  8
1
  6
Continuous
 62
     7
100
AcDbCircle
 10
161.2338683463389
 20
262.5307954873484
 30
0.0
 40
4.999987499999975
100
AcDbArc
 50
36.86989764584207
 51
44.42700400080642
  0
ARC
  5
2EA
330
5F
100
AcDbEntity
  8
1
  6
Continuous
 62
     7
100
AcDbCircle
 10
185.1402637853158
 20
227.1244287983717
 30
0.0
 40
23.99993999999985
100
AcDbArc
 50
123.9591925000974
 51
146.0408074999022
  0
ARC
  5
2EB
330
5F
100
AcDbEntity
  8
1
  6
Continuous
 62
     7
100
AcDbCircle
 10
161.2338683463389
 20
243.5308429873485
 30
0.0
 40
4.999987499999928
100
AcDbArc
 50
315.5729959991936
 51
323.1301023541582
  0
ARC
  5
2EC
330
5F
100
AcDbEntity
  8
1
  6
Continuous
 62
     7
100
AcDbCircle
 10
185.1402637853158
 20
278.9372096763254
 30
0.0
 40
23.99994000000002
100
AcDbArc
 50
213.959192500098
 51
236.0408074999025
  0
ARC
  5
2ED
330
5F
100
AcDbEntity
  8
1
  6
Continuous
 62
     7
100
AcDbCircle
 10
185.1386215280693
 20
204.6629430220958
 30
0.0
 40
23.99700006000003
100
AcDbArc
 50
213.9591925000976
 51
236.0408074999023
  0
ARC
  5
2EE
330
5F
100
AcDbEntity
  8
1
  6
Continuous
 62
     7
100
AcDbCircle
 10
161.2351545700889
 20
188.2585385828654
 30
0.0
 40
4.999375012499934
100
AcDbArc
 50
36.86989764584317
 51
134.4270040008068
  0
ARC
  5
2EF
330
5F
100
AcDbEntity
  8
1
  6
Continuous
 62
     7
100
AcDbCircle
 10
161.2351545700889
 20
169.2609135353655
 30
0.0
 40
4.999375012500189
100
AcDbArc
 50
225.5729959991966
 51
323.1301023541561
  0
ARC
  5
2F0
330
5F
100
AcDbEntity
  8
1
  6
Continuous
 62
     7
100
AcDbCircle
 10
185.1386215280693
 20
152.856509096135
 30
0.0
 40
23.99700006000012
100
AcDbArc
 50
123.9591925000976
 51
146.0408074999023
  0
ARC
  5
2F1
330
5F
100
AcDbEntity
  8
1
  6
Continuous
 62
     7
100
AcDbCircle
 10
113.101984657664
 20
92.5
 30
0.0
 40
14.50000000000002
100
AcDbArc
 50
86.2915552747292
 51
90.0
  0
ARC
  5
2F2
330
5F
100
AcDbEntity
  8
1
  6
Continuous
 62
     7
100
AcDbCircle
 10
113.101984657664
 20
92.5
 30
0.0
 40
14.5
100
AcDbArc
 50
266.2915552747295
 51
270.0
  0
ARC
  5
2F3
330
5F
100
AcDbEntity
  8
1
  6
Continuous
 62
     7
100
AcDbCircle
 10
113.101984657664
 20
92.5
 30
0.0
 40
14.5
100
AcDbArc
 50
270.0
 51
273.7084447252708
  0
ARC
  5
2F4
330
5F
100
AcDbEntity
  8
1
  6
Continuous
 62
     7
100
AcDbCircle
 10
113.101984657664
 20
92.5
 30
0.0
 40
12.99999999999998
100
AcDbArc
 50
239.9999999999999
 51
300.0000000000001
  0
ARC
  5
2F5
330
5F
100
AcDbEntity
  8
1
  6
Continuous
 62
     7
100
AcDbCircle
 10
113.101984657664
 20
92.5
 30
0.0
 40
14.50000000000001
100
AcDbArc
 50
326.2915552747296
 51
333.7084447252707
  0
ARC
  5
2F6
330
5F
100
AcDbEntity
  8
1
  6
Continuous
 62
     7
100
AcDbCircle
 10
113.101984657664
 20
92.5
 30
0.0
 40
12.99999999999998
100
AcDbArc
 50
300.0000000000001
 51
0.0
  0
ARC
  5
2F7
330
5F
100
AcDbEntity
  8
1
  6
Continuous
 62
     7
100
AcDbCircle
 10
113.101984657664
 20
92.5
 30
0.0
 40
14.50000000000002
100
AcDbArc
 50
26.29155527472953
 51
33.70844472527079
  0
ARC
  5
2F8
330
5F
100
AcDbEntity
  8
1
  6
Continuous
 62
     7
100
AcDbCircle
 10
113.101984657664
 20
92.5
 30
0.0
 40
13.0
100
AcDbArc
 50
0.0
 51
60.0
  0
ARC
  5
2F9
330
5F
100
AcDbEntity
  8
1
  6
Continuous
 62
     7
100
AcDbCircle
 10
113.101984657664
 20
92.5
 30
0.0
 40
14.5
100
AcDbArc
 50
90.0
 51
93.70844472527048
  0
ARC
  5
2FA
330
5F
100
AcDbEntity
  8
1
  6
Continuous
 62
     7
100
AcDbCircle
 10
113.101984657664
 20
92.5
 30
0.0
 40
13.0
100
AcDbArc
 50
60.0
 51
120.0
  0
ARC
  5
2FB
330
5F
100
AcDbEntity
  8
1
  6
Continuous
 62
     7
100
AcDbCircle
 10
113.101984657664
 20
92.5
 30
0.0
 40
14.5
100
AcDbArc
 50
146.291555274729
 51
153.7084447252705
  0
ARC
  5
2FC
330
5F
100
AcDbEntity
  8
1
  6
Continuous
 62
     7
100
AcDbCircle
 10
113.101984657664
 20
92.5
 30
0.0
 40
13.0
100
AcDbArc
 50
180.0
 51
239.9999999999999
  0
ARC
  5
2FD
330
5F
100
AcDbEntity
  8
1
  6
Continuous
 62
     7
100
AcDbCircle
 10
113.101984657664
 20
92.5
 30
0.0
 40
13.0
100
AcDbArc
 50
120.0
 51
180.0
  0
ARC
  5
2FE
330
5F
100
AcDbEntity
  8
1
  6
Continuous
 62
     7
100
AcDbCircle
 10
113.101984657664
 20
92.5
 30
0.0
 40
14.49999999999999
100
AcDbArc
 50
206.2915552747293
 51
213.7084447252706
  0
CIRCLE
  5
2FF
330
5F
100
AcDbEntity
  8
1
  6
Continuous
 62
     7
100
AcDbCircle
 10
113.101984657664
 20
92.5
 30
0.0
 40
5.0
  0
CIRCLE
  5
300
330
5F
100
AcDbEntity
  8
1
  6
Continuous
 62
     7
100
AcDbCircle
 10
113.101984657664
 20
92.5
 30
0.0
 40
5.999999999999972
  0
SPLINE
  5
301
330
5F
100
AcDbEntity
  8
1
  6
Continuous
 62
     7
100
AcDbSpline
210
0.0
220
0.0
230
1.0
 70
    11
 71
     3
 72
    79
 73
    75
 74
    73
 42
0.000000001
 43
0.0000000001
 44
0.00000001
 40
0.0
 40
0.0
 40
0.0
 40
0.0
 40
0.2811422043235023
 40
0.5622702315285375
 40
0.8456400003831321
 40
1.128984174645302
 40
1.41572923300178
 40
1.702441864836636
 40
1.993272527105213
 40
2.284068928727446
 40
2.579185174655867
 40
2.874269666599475
 40
3.173357202553081
 40
3.472418685981896
 40
3.774704658328557
 40
4.076972331532367
 40
4.381326400965489
 40
4.685671071838083
 40
4.990737035712981
 40
5.295802999577284
 40
5.600147670418254
 40
5.904501739798196
 40
6.206769412927318
 40
6.509055385176604
 40
6.808116868485549
 40
7.107204404294388
 40
7.402288896069022
 40
7.6974051418004
 40
7.988201543198095
 40
8.279032205207777
 40
8.565744836746054
 40
8.852489894751132
 40
9.135834068575013
 40
9.419203836790913
 40
9.700331862597345
 40
9.981474075745764
 40
10.26183358620105
 40
10.54219309665526
 40
10.82333530980057
 40
11.10446333560168
 40
11.38783310381029
 40
11.67117727762481
 40
11.95792233561873
 40
12.2446349671442
 40
12.53546562913947
 40
12.82626203052147
 40
13.12137827623576
 40
13.41646276799232
 40
13.71555030378185
 40
14.01461178707071
 40
14.31689775929893
 40
14.61916543240661
 40
14.92351950176431
 40
15.22786417258259
 40
15.53293013642366
 40
15.83799610027483
 40
16.14234077112341
 40
16.44669484053201
 40
16.74896251371104
 40
17.05124848603231
 40
17.35030996943532
 40
17.64939750536224
 40
17.94448199727816
 40
18.23959824317706
 40
18.53039464476712
 40
18.82122530699823
 40
19.10793793878588
 40
19.39468299707483
 40
19.67802717122006
 40
19.96139693981071
 40
20.24252496607822
 40
20.5236671798841
 40
20.80402669175858
 40
21.08438619340382
 40
21.08438619340382
 40
21.08438619340382
 40
21.08438619340382
 10
164.7213370680391
 20
189.7351090235278
 30
0.0
 10
164.709887545406
 20
189.6420246311005
 30
0.0
 10
164.6869890828126
 20
189.4558605395161
 30
0.0
 10
164.6189613086176
 20
189.1816574564992
 30
0.0
 10
164.5273519522186
 20
188.9139642778867
 30
0.0
 10
164.4097573971628
 20
188.6544363068011
 30
0.0
 10
164.2685587401995
 20
188.4057330818568
 30
0.0
 10
164.103759772912
 20
188.1689486201851
 30
0.0
 10
163.917708359117
 20
187.9467179781851
 30
0.0
 10
163.7107123696518
 20
187.7398884584568
 30
0.0
 10
163.4855448665128
 20
187.5507982167259
 30
0.0
 10
163.2427137802336
 20
187.380171151415
 30
0.0
 10
162.9852809044552
 20
187.2298725481319
 30
0.0
 10
162.7140407464387
 20
187.1005653552471
 30
0.0
 10
162.432126735238
 20
186.9935457471377
 30
0.0
 10
162.1407300929903
 20
186.909409106578
 30
0.0
 10
161.8428335104091
 20
186.8488721295285
 30
0.0
 10
161.5401099049556
 20
186.812389484845
 30
0.0
 10
161.2352039115623
 20
186.8001639449508
 30
0.0
 10
160.9302979181599
 20
186.8123894844925
 30
0.0
 10
160.6275743127127
 20
186.848872128824
 30
0.0
 10
160.3296777300519
 20
186.9094091055121
 30
0.0
 10
160.0382810880074
 20
186.9935457457339
 30
0.0
 10
159.756367075923
 20
187.1005653533986
 30
0.0
 10
159.4851269210033
 20
187.2298725462125
 30
0.0
 10
159.2276940335324
 20
187.3801711480065
 30
0.0
 10
158.984862990075
 20
187.5507982170267
 30
0.0
 10
158.7596953280207
 20
187.7398884431845
 30
0.0
 10
158.5526999229833
 20
187.946718018342
 30
0.0
 10
158.3666463443761
 20
188.1689484530981
 30
0.0
 10
158.2018553467863
 20
188.405733675723
 30
0.0
 10
158.0606271486915
 20
188.6544340778724
 30
0.0
 10
157.9431415982882
 20
188.9139724624007
 30
0.0
 10
157.8511274800464
 20
189.1816269699984
 30
0.0
 10
157.7845989584344
 20
189.4559732902363
 30
0.0
 10
157.7447017379991
 20
189.7344294243371
 30
0.0
 10
157.7311915140401
 20
190.0151490745835
 30
0.0
 10
157.7447017379746
 20
190.2958687248299
 30
0.0
 10
157.7845989583855
 20
190.5743248589311
 30
0.0
 10
157.8511274799733
 20
190.8486711791695
 30
0.0
 10
157.9431415981908
 20
191.1163256867677
 30
0.0
 10
158.0606271485701
 20
191.3758640712969
 30
0.0
 10
158.2018553466409
 20
191.624564473447
 30
0.0
 10
158.3666463442069
 20
191.861349696073
 30
0.0
 10
158.5526999227905
 20
192.0835801308303
 30
0.0
 10
158.7596953278045
 20
192.2904097059889
 30
0.0
 10
158.9848629898356
 20
192.4794999321481
 30
0.0
 10
159.2276940332698
 20
192.6501270011699
 30
0.0
 10
159.4851269207176
 20
192.8004256029652
 30
0.0
 10
159.7563670756143
 20
192.9297327957809
 30
0.0
 10
160.0382810876757
 20
193.0367524034471
 30
0.0
 10
160.3296777296972
 20
193.120889043671
 30
0.0
 10
160.6275743123349
 20
193.1814260203612
 30
0.0
 10
160.9302979177593
 20
193.2179086646952
 30
0.0
 10
161.2352039111373
 20
193.2301342042395
 30
0.0
 10
161.5401099045112
 20
193.217908664349
 30
0.0
 10
161.8428335099254
 20
193.1814260196674
 30
0.0
 10
162.1407300925399
 20
193.1208890426288
 30
0.0
 10
162.4321267345509
 20
193.0367524020511
 30
0.0
 10
162.7140407465159
 20
192.9297327940353
 30
0.0
 10
162.9852809015933
 20
192.8004256008378
 30
0.0
 10
163.2427137881524
 20
192.6501269987572
 30
0.0
 10
163.485544834596
 20
192.4794999290694
 30
0.0
 10
163.7107124851623
 20
192.2904097036204
 30
0.0
 10
163.9177079319929
 20
192.0835801240699
 30
0.0
 10
164.1037613552708
 20
191.8613497037444
 30
0.0
 10
164.2685529241152
 20
191.6245644261174
 30
0.0
 10
164.4097790040748
 20
191.3758642258883
 30
0.0
 10
164.5272723694712
 20
191.1163250942585
 30
0.0
 10
164.619257467741
 20
190.848673358649
 30
0.0
 10
164.6858934793491
 20
190.5743167684042
 30
0.0
 10
164.7253905570533
 20
190.2958988621204
 30
0.0
 10
164.7403902321396
 20
190.0150369147641
 30
0.0
 10
164.7276881208692
 20
189.8284183195835
 30
0.0
 10
164.7213370680391
 20
189.7351090235277
 30
0.0
 11
164.7213370680391
 21
189.7351090235278
 31
0.0
 11
164.6814048328538
 21
189.4568171610518
 31
0.0
 11
164.6152768170763
 21
189.1835772435181
 31
0.0
 11
164.5231358763463
 21
188.9156062139474
 31
0.0
 11
164.4064220357672
 21
188.6574167479308
 31
0.0
 11
164.2648429003059
 21
188.4080614255599
 31
0.0
 11
164.1011879961027
 21
188.17264433716
 31
0.0
 11
163.9145256260618
 21
187.9496204961264
 31
0.0
 11
163.7089199056628
 21
187.7439780032113
 31
0.0
 11
163.482957327651
 21
187.5541504185028
 31
0.0
 11
163.2415879573035
 21
187.3843985866403
 31
0.0
 11
162.9833248922146
 21
187.2335558096866
 31
0.0
 11
162.7134128872678
 21
187.104771958021
 31
0.0
 11
162.4308186834176
 21
186.9974531571101
 31
0.0
 11
162.140433444831
 21
186.9135355815772
 31
0.0
 11
161.8421789271177
 21
186.8529085062783
 31
0.0
 11
161.5400253259579
 21
186.8164546996647
 31
0.0
 11
161.2352039019652
 21
186.80424233632
 31
0.0
 11
160.9303824779726
 21
186.8164546996647
 31
0.0
 11
160.6282288768128
 21
186.8529085062783
 31
0.0
 11
160.3299743590995
 21
186.9135355815772
 31
0.0
 11
160.0395891205129
 21
186.9974531571101
 31
0.0
 11
159.7569949166627
 21
187.104771958021
 31
0.0
 11
159.4870829117159
 21
187.2335558096867
 31
0.0
 11
159.228819846627
 21
187.3843985866403
 31
0.0
 11
158.9874504762795
 21
187.5541504185028
 31
0.0
 11
158.7614878982678
 21
187.7439780032113
 31
0.0
 11
158.5558821778687
 21
187.9496204961264
 31
0.0
 11
158.3692198078278
 21
188.17264433716
 31
0.0
 11
158.2055649036247
 21
188.4080614255599
 31
0.0
 11
158.0639857681633
 21
188.6574167479308
 31
0.0
 11
157.9472719275842
 21
188.9156062139474
 31
0.0
 11
157.8551309868542
 21
189.1835772435181
 31
0.0
 11
157.7890029710767
 21
189.4568171610518
 31
0.0
 11
157.7490707358914
 21
189.7351090235277
 31
0.0
 11
157.7356907250916
 21
190.0151490751773
 31
0.0
 11
157.7490707358914
 21
190.2951891268269
 31
0.0
 11
157.7890029710767
 21
190.573480989303
 31
0.0
 11
157.8551309868542
 21
190.8467209068367
 31
0.0
 11
157.9472719275842
 21
191.1146919364074
 31
0.0
 11
158.0639857681633
 21
191.372881402424
 31
0.0
 11
158.2055649036246
 21
191.6222367247949
 31
0.0
 11
158.3692198078278
 21
191.8576538131947
 31
0.0
 11
158.5558821778686
 21
192.0806776542283
 31
0.0
 11
158.7614878982677
 21
192.2863201471435
 31
0.0
 11
158.9874504762795
 21
192.4761477318519
 31
0.0
 11
159.228819846627
 21
192.6458995637145
 31
0.0
 11
159.4870829117159
 21
192.7967423406681
 31
0.0
 11
159.7569949166627
 21
192.9255261923337
 31
0.0
 11
160.0395891205128
 21
193.0328449932446
 31
0.0
 11
160.3299743590994
 21
193.1167625687776
 31
0.0
 11
160.6282288768128
 21
193.1773896440765
 31
0.0
 11
160.9303824779726
 21
193.21384345069
 31
0.0
 11
161.2352039019652
 21
193.2260558140347
 31
0.0
 11
161.5400253259579
 21
193.21384345069
 31
0.0
 11
161.8421789271177
 21
193.1773896440764
 31
0.0
 11
162.140433444831
 21
193.1167625687776
 31
0.0
 11
162.4308186834176
 21
193.0328449932446
 31
0.0
 11
162.7134128872678
 21
192.9255261923337
 31
0.0
 11
162.9833248922146
 21
192.7967423406681
 31
0.0
 11
163.2415879573035
 21
192.6458995637145
 31
0.0
 11
163.482957327651
 21
192.4761477318519
 31
0.0
 11
163.7089199056628
 21
192.2863201471435
 31
0.0
 11
163.9145256260619
 21
192.0806776542283
 31
0.0
 11
164.1011879961027
 21
191.8576538131947
 31
0.0
 11
164.2648429003059
 21
191.6222367247949
 31
0.0
 11
164.4064220357672
 21
191.3728814024239
 31
0.0
 11
164.5231358763463
 21
191.1146919364074
 31
0.0
 11
164.6152768170763
 21
190.8467209068367
 31
0.0
 11
164.6814048328538
 21
190.573480989303
 31
0.0
 11
164.7213370680391
 21
190.295189126827
 31
0.0
 11
164.7347170788389
 21
190.0151490751774
 31
0.0
 11
164.7213370680391
 21
189.7351090235277
 31
0.0
  0
SPLINE
  5
302
330
5F
100
AcDbEntity
  8
1
  6
Continuous
 62
     7
100
AcDbSpline
210
0.0
220
0.0
230
1.0
 70
    11
 71
     3
 72
    79
 73
    75
 74
    73
 42
0.000000001
 43
0.0000000001
 44
0.00000001
 40
0.0
 40
0.0
 40
0.0
 40
0.0
 40
0.2811422043235023
 40
0.5622702315285375
 40
0.8456400003831321
 40
1.12898417464525
 40
1.415729233001728
 40
1.702441864836584
 40
1.993272527105183
 40
2.284068928727396
 40
2.579185174655799
 40
2.874269666599374
 40
3.173357202553009
 40
3.472418685981836
 40
3.774704658328518
 40
4.076972331532327
 40
4.381326400965444
 40
4.685671071838038
 40
4.990737035712933
 40
5.295802999577236
 40
5.6001476704182
 40
5.904501739798147
 40
6.206769412927269
 40
6.509055385176556
 40
6.8081168684855
 40
7.107204404294325
 40
7.402288896068943
 40
7.697405141800321
 40
7.988201543198016
 40
8.279032205207763
 40
8.56574483674604
 40
8.852489894751118
 40
9.135834068574948
 40
9.419203836790874
 40
9.700331862597306
 40
9.981474075745751
 40
10.26183358620106
 40
10.54219309665527
 40
10.82333530980049
 40
11.10446333560163
 40
11.38783310381017
 40
11.67117727762471
 40
11.95792233561863
 40
12.24463496714415
 40
12.53546562913938
 40
12.82626203052138
 40
13.12137827623569
 40
13.41646276799223
 40
13.71555030378178
 40
14.01461178707064
 40
14.3168977592989
 40
14.61916543240656
 40
14.92351950176423
 40
15.22786417258252
 40
15.53293013642359
 40
15.83799610027475
 40
16.14234077112334
 40
16.44669484053194
 40
16.74896251371096
 40
17.05124848603223
 40
17.35030996943527
 40
17.64939750536217
 40
17.94448199727811
 40
18.23959824317699
 40
18.53039464476702
 40
18.82122530699813
 40
19.10793793878579
 40
19.39468299707474
 40
19.67802717121996
 40
19.96139693981067
 40
20.24252496607818
 40
20.523667179884
 40
20.80402669175846
 40
21.08438619340372
 40
21.08438619340372
 40
21.08438619340372
 40
21.08438619340372
 10
164.7213370680391
 20
167.7828431247027
 30
0.0
 10
164.709887545406
 20
167.87592751713
 30
0.0
 10
164.6869890828126
 20
168.0620916087145
 30
0.0
 10
164.6189613086176
 20
168.3362946917313
 30
0.0
 10
164.5273519522186
 20
168.6039878703438
 30
0.0
 10
164.4097573971628
 20
168.8635158414293
 30
0.0
 10
164.2685587401995
 20
169.1122190663736
 30
0.0
 10
164.103759772912
 20
169.3490035280454
 30
0.0
 10
163.9177083591171
 20
169.5712341700452
 30
0.0
 10
163.7107123696517
 20
169.7780636897738
 30
0.0
 10
163.4855448665128
 20
169.9671539315044
 30
0.0
 10
163.2427137802335
 20
170.1377809968153
 30
0.0
 10
162.9852809044552
 20
170.2880796000985
 30
0.0
 10
162.7140407464387
 20
170.4173867929835
 30
0.0
 10
162.432126735238
 20
170.5244064010928
 30
0.0
 10
162.1407300929902
 20
170.6085430416525
 30
0.0
 10
161.8428335104092
 20
170.6690800187019
 30
0.0
 10
161.5401099049555
 20
170.7055626633855
 30
0.0
 10
161.2352039115623
 20
170.7177882032796
 30
0.0
 10
160.9302979181599
 20
170.705562663738
 30
0.0
 10
160.6275743127127
 20
170.6690800194064
 30
0.0
 10
160.3296777300518
 20
170.6085430427184
 30
0.0
 10
160.0382810880074
 20
170.5244064024964
 30
0.0
 10
159.756367075923
 20
170.4173867948319
 30
0.0
 10
159.4851269210033
 20
170.2880796020179
 30
0.0
 10
159.2276940335324
 20
170.137781000224
 30
0.0
 10
158.984862990075
 20
169.9671539312038
 30
0.0
 10
158.7596953280207
 20
169.7780637050459
 30
0.0
 10
158.5526999229833
 20
169.5712341298885
 30
0.0
 10
158.3666463443761
 20
169.3490036951323
 30
0.0
 10
158.2018553467862
 20
169.1122184725075
 30
0.0
 10
158.0606271486915
 20
168.863518070358
 30
0.0
 10
157.9431415982882
 20
168.6039796858298
 30
0.0
 10
157.8511274800464
 20
168.336325178232
 30
0.0
 10
157.7845989584344
 20
168.0619788579942
 30
0.0
 10
157.7447017379991
 20
167.7835227238934
 30
0.0
 10
157.7311915140401
 20
167.5028030736469
 30
0.0
 10
157.7447017379746
 20
167.2220834234004
 30
0.0
 10
157.7845989583856
 20
166.9436272892993
 30
0.0
 10
157.8511274799732
 20
166.669280969061
 30
0.0
 10
157.9431415981909
 20
166.4016264614627
 30
0.0
 10
158.06062714857
 20
166.1420880769337
 30
0.0
 10
158.201855346641
 20
165.8933876747834
 30
0.0
 10
158.3666463442069
 20
165.6566024521575
 30
0.0
 10
158.5526999227905
 20
165.4343720174002
 30
0.0
 10
158.7596953278045
 20
165.2275424422416
 30
0.0
 10
158.9848629898356
 20
165.0384522160823
 30
0.0
 10
159.2276940332697
 20
164.8678251470607
 30
0.0
 10
159.4851269207176
 20
164.7175265452652
 30
0.0
 10
159.7563670756142
 20
164.5882193524496
 30
0.0
 10
160.0382810876757
 20
164.4811997447832
 30
0.0
 10
160.3296777296972
 20
164.3970631045595
 30
0.0
 10
160.627574312335
 20
164.3365261278694
 30
0.0
 10
160.9302979177593
 20
164.3000434835353
 30
0.0
 10
161.2352039111372
 20
164.2878179439911
 30
0.0
 10
161.5401099045112
 20
164.3000434838816
 30
0.0
 10
161.8428335099254
 20
164.3365261285631
 30
0.0
 10
162.14073009254
 20
164.3970631056018
 30
0.0
 10
162.4321267345508
 20
164.4811997461793
 30
0.0
 10
162.714040746516
 20
164.5882193541951
 30
0.0
 10
162.9852809015933
 20
164.7175265473927
 30
0.0
 10
163.2427137881524
 20
164.8678251494733
 30
0.0
 10
163.485544834596
 20
165.0384522191611
 30
0.0
 10
163.7107124851623
 20
165.2275424446102
 30
0.0
 10
163.9177079319929
 20
165.4343720241606
 30
0.0
 10
164.1037613552708
 20
165.6566024444862
 30
0.0
 10
164.2685529241152
 20
165.8933877221131
 30
0.0
 10
164.4097790040748
 20
166.1420879223422
 30
0.0
 10
164.5272723694712
 20
166.401627053972
 30
0.0
 10
164.619257467741
 20
166.6692787895815
 30
0.0
 10
164.6858934793491
 20
166.9436353798264
 30
0.0
 10
164.7253905570533
 20
167.2220532861101
 30
0.0
 10
164.7403902321396
 20
167.5029152334664
 30
0.0
 10
164.7276881208693
 20
167.689533828647
 30
0.0
 10
164.7213370680391
 20
167.7828431247027
 30
0.0
 11
164.7213370680391
 21
167.7828431247027
 31
0.0
 11
164.6814048328538
 21
168.0611349871787
 31
0.0
 11
164.6152768170763
 21
168.3343749047124
 31
0.0
 11
164.5231358763463
 21
168.6023459342831
 31
0.0
 11
164.4064220357672
 21
168.8605354002996
 31
0.0
 11
164.2648429003059
 21
169.1098907226706
 31
0.0
 11
164.1011879961027
 21
169.3453078110705
 31
0.0
 11
163.9145256260618
 21
169.5683316521041
 31
0.0
 11
163.7089199056628
 21
169.7739741450192
 31
0.0
 11
163.482957327651
 21
169.9638017297276
 31
0.0
 11
163.2415879573035
 21
170.1335535615901
 31
0.0
 11
162.9833248922146
 21
170.2843963385438
 31
0.0
 11
162.7134128872678
 21
170.4131801902095
 31
0.0
 11
162.4308186834176
 21
170.5204989911204
 31
0.0
 11
162.140433444831
 21
170.6044165666534
 31
0.0
 11
161.8421789271177
 21
170.6650436419522
 31
0.0
 11
161.5400253259579
 21
170.7014974485657
 31
0.0
 11
161.2352039019652
 21
170.7137098119104
 31
0.0
 11
160.9303824779726
 21
170.7014974485657
 31
0.0
 11
160.6282288768128
 21
170.6650436419522
 31
0.0
 11
160.3299743590995
 21
170.6044165666533
 31
0.0
 11
160.0395891205129
 21
170.5204989911203
 31
0.0
 11
159.7569949166627
 21
170.4131801902094
 31
0.0
 11
159.4870829117159
 21
170.2843963385438
 31
0.0
 11
159.228819846627
 21
170.1335535615901
 31
0.0
 11
158.9874504762795
 21
169.9638017297277
 31
0.0
 11
158.7614878982678
 21
169.7739741450192
 31
0.0
 11
158.5558821778687
 21
169.5683316521041
 31
0.0
 11
158.3692198078278
 21
169.3453078110705
 31
0.0
 11
158.2055649036247
 21
169.1098907226706
 31
0.0
 11
158.0639857681633
 21
168.8605354002996
 31
0.0
 11
157.9472719275842
 21
168.6023459342831
 31
0.0
 11
157.8551309868542
 21
168.3343749047124
 31
0.0
 11
157.7890029710767
 21
168.0611349871787
 31
0.0
 11
157.7490707358914
 21
167.7828431247027
 31
0.0
 11
157.7356907250916
 21
167.5028030730531
 31
0.0
 11
157.7490707358914
 21
167.2227630214035
 31
0.0
 11
157.7890029710767
 21
166.9444711589275
 31
0.0
 11
157.8551309868542
 21
166.6712312413938
 31
0.0
 11
157.9472719275842
 21
166.4032602118232
 31
0.0
 11
158.0639857681633
 21
166.1450707458065
 31
0.0
 11
158.2055649036246
 21
165.8957154234356
 31
0.0
 11
158.3692198078278
 21
165.6602983350357
 31
0.0
 11
158.5558821778686
 21
165.4372744940022
 31
0.0
 11
158.7614878982677
 21
165.231632001087
 31
0.0
 11
158.9874504762795
 21
165.0418044163786
 31
0.0
 11
159.228819846627
 21
164.872052584516
 31
0.0
 11
159.4870829117159
 21
164.7212098075624
 31
0.0
 11
159.7569949166627
 21
164.5924259558967
 31
0.0
 11
160.0395891205128
 21
164.4851071549858
 31
0.0
 11
160.3299743590994
 21
164.4011895794528
 31
0.0
 11
160.6282288768128
 21
164.3405625041541
 31
0.0
 11
160.9303824779726
 21
164.3041086975405
 31
0.0
 11
161.2352039019652
 21
164.2918963341958
 31
0.0
 11
161.5400253259579
 21
164.3041086975405
 31
0.0
 11
161.8421789271177
 21
164.3405625041541
 31
0.0
 11
162.140433444831
 21
164.4011895794529
 31
0.0
 11
162.4308186834176
 21
164.4851071549859
 31
0.0
 11
162.7134128872678
 21
164.5924259558968
 31
0.0
 11
162.9833248922146
 21
164.7212098075624
 31
0.0
 11
163.2415879573035
 21
164.872052584516
 31
0.0
 11
163.482957327651
 21
165.0418044163786
 31
0.0
 11
163.7089199056628
 21
165.231632001087
 31
0.0
 11
163.9145256260619
 21
165.4372744940022
 31
0.0
 11
164.1011879961027
 21
165.6602983350357
 31
0.0
 11
164.2648429003059
 21
165.8957154234356
 31
0.0
 11
164.4064220357672
 21
166.1450707458065
 31
0.0
 11
164.5231358763463
 21
166.4032602118231
 31
0.0
 11
164.6152768170763
 21
166.6712312413938
 31
0.0
 11
164.6814048328538
 21
166.9444711589275
 31
0.0
 11
164.7213370680391
 21
167.2227630214035
 31
0.0
 11
164.7347170788389
 21
167.5028030730531
 31
0.0
 11
164.7213370680391
 21
167.7828431247027
 31
0.0
  0
SPLINE
  5
303
330
5F
100
AcDbEntity
  8
1
  6
Continuous
 62
     7
100
AcDbSpline
210
0.0
220
0.0
230
1.0
 70
    11
 71
     3
 72
    79
 73
    75
 74
    73
 42
0.000000001
 43
0.0000000001
 44
0.00000001
 40
0.0
 40
0.0
 40
0.0
 40
0.0
 40
0.3114288958506826
 40
0.6227185268301854
 40
0.9471194827164
 40
1.271307947753001
 40
1.614619482710921
 40
1.957718172420914
 40
2.322922824780502
 40
2.687952507074968
 40
3.075137920805999
 40
3.462194248140734
 40
3.86898300371745
 40
4.275683761861698
 40
4.697794830717463
 40
5.119851853098727
 40
5.551673191663002
 40
5.983468923430198
 40
6.418604910288292
 40
6.853740897143246
 40
7.285536628900831
 40
7.717357967447938
 40
8.139414989803509
 40
8.561526058622391
 40
8.968226816717017
 40
9.375015572226143
 40
9.762071899474202
 40
10.14925731308946
 40
10.51428699523954
 40
10.87949164740858
 40
11.22259033688156
 40
11.56590187152149
 40
11.89009033612956
 40
12.21449129131474
 40
12.52578092039743
 40
12.83720982416066
 40
13.14395402215122
 40
13.45069822014059
 40
13.76212712390035
 40
14.07341675297735
 40
14.39781770815484
 40
14.72200617275378
 40
15.06531770738303
 40
15.40841639684467
 40
15.77362104900134
 40
16.13865073113891
 40
16.52583614474114
 40
16.9128924719764
 40
17.31968122747247
 40
17.72638198555456
 40
18.14849305436091
 40
18.5705500767045
 40
19.00237141523986
 40
19.4341671469862
 40
19.86930313383037
 40
20.3044391206781
 40
20.73623485243553
 40
21.1680561909902
 40
21.59011321336236
 40
22.01222428220917
 40
22.41892504034463
 40
22.82571379591217
 40
23.21277012323714
 40
23.59995553695641
 40
23.96498521923638
 40
24.33018987157524
 40
24.67328856125391
 40
25.01660009615602
 40
25.3407885610791
 40
25.66518951666438
 40
25.97647914626192
 40
26.28790805079525
 40
26.59465225076306
 40
26.9013964409714
 40
26.9013964409714
 40
26.9013964409714
 40
26.9013964409714
 10
160.9290713599991
 20
183.7395271591141
 30
0.0
 10
160.8264552188078
 20
183.7229408426275
 30
0.0
 10
160.6212688230211
 20
183.6897756342906
 30
0.0
 10
160.3202391042209
 20
183.590873707546
 30
0.0
 10
160.0280977451011
 20
183.4590875215981
 30
0.0
 10
159.7437707460378
 20
183.288968454054
 30
0.0
 10
159.4736713246319
 20
183.0866944539741
 30
0.0
 10
159.2149883694573
 20
182.8493583184975
 30
0.0
 10
158.974464810857
 20
182.5838248795419
 30
0.0
 10
158.7490510041276
 20
182.2867716205803
 30
0.0
 10
158.5447623205216
 20
181.9661539535826
 30
0.0
 10
158.3591393360302
 20
181.618583667153
 30
0.0
 10
158.1968555169396
 20
181.25239991543
 30
0.0
 10
158.0563639643528
 20
180.864906089934
 30
0.0
 10
157.9408048913219
 20
180.4639627417276
 30
0.0
 10
157.8494634855509
 20
180.0482679214672
 30
0.0
 10
157.7840944368317
 20
179.6244398640486
 30
0.0
 10
157.744472474739
 20
179.1930689399179
 30
0.0
 10
157.7313380367964
 20
178.7589760840067
 30
0.0
 10
157.7444724746292
 20
178.3248832280838
 30
0.0
 10
157.7840944366134
 20
177.8935123039879
 30
0.0
 10
157.8494634851961
 20
177.4696842464412
 30
0.0
 10
157.9408048908943
 20
177.0539894266443
 30
0.0
 10
158.0563639635627
 20
176.6530460767289
 30
0.0
 10
158.1968555167609
 20
176.2655522573729
 30
0.0
 10
158.3591393328292
 20
175.8993684832512
 30
0.0
 10
158.5447623271899
 20
175.5517982765077
 30
0.0
 10
158.7490509739989
 20
175.2311803207117
 30
0.0
 10
158.9744649094219
 20
174.9341280808509
 30
0.0
 10
159.2149880017399
 20
174.668590960266
 30
0.0
 10
159.4736725956709
 20
174.4312677761039
 30
0.0
 10
159.7437660892483
 20
174.2289469423972
 30
0.0
 10
160.028114043033
 20
174.0589934485127
 30
0.0
 10
160.3201791415245
 20
173.9266047168145
 30
0.0
 10
160.621482605977
 20
173.8298657137357
 30
0.0
 10
160.926733459907
 20
173.7723986575351
 30
0.0
 10
161.2352039015244
 20
173.7524463652433
 30
0.0
 10
161.5436743431416
 20
173.772398657521
 30
0.0
 10
161.8489251970707
 20
173.8298657137076
 30
0.0
 10
162.1502286615218
 20
173.9266047167727
 30
0.0
 10
162.4422937600111
 20
174.0589934484575
 30
0.0
 10
162.7266417137931
 20
174.228946942329
 30
0.0
 10
162.996735207367
 20
174.4312677760229
 30
0.0
 10
163.2554198012938
 20
174.6685909601729
 30
0.0
 10
163.4959428936068
 20
174.934128080746
 30
0.0
 10
163.7213568290239
 20
175.2311803205955
 30
0.0
 10
163.9256454758262
 20
175.5517982763806
 30
0.0
 10
164.1112684701792
 20
175.8993684831136
 30
0.0
 10
164.2735522862386
 20
176.2655522572253
 30
0.0
 10
164.414043839427
 20
176.6530460765715
 30
0.0
 10
164.5296029120842
 20
177.0539894264771
 30
0.0
 10
164.6209443177698
 20
177.4696842462645
 30
0.0
 10
164.6863133663385
 20
177.8935123038015
 30
0.0
 10
164.7259353283071
 20
178.3248832278882
 30
0.0
 10
164.7390697661222
 20
178.7589760837985
 30
0.0
 10
164.7259353281619
 20
179.1930689397075
 30
0.0
 10
164.6863133660436
 20
179.6244398637944
 30
0.0
 10
164.6209443173196
 20
180.0482679213182
 30
0.0
 10
164.5296029114616
 20
180.4639627411322
 30
0.0
 10
164.4140438386371
 20
180.8649060909067
 30
0.0
 10
164.2735522851915
 20
181.2523999106766
 30
0.0
 10
164.1112684691109
 20
181.6185836831731
 30
0.0
 10
163.9256454737891
 20
181.9661538955569
 30
0.0
 10
163.721356829314
 20
182.2867718307297
 30
0.0
 10
163.4959428843952
 20
182.5838241431407
 30
0.0
 10
163.2554198249371
 20
182.8493610013387
 30
0.0
 10
162.9967351138357
 20
183.0866851081728
 30
0.0
 10
162.7266420421556
 20
183.2890026049143
 30
0.0
 10
162.4422925948403
 20
183.4589678955952
 30
0.0
 10
162.1502329292172
 20
183.5913136963398
 30
0.0
 10
161.8489099600443
 20
183.688206805325
 30
0.0
 10
161.5437309290089
 20
183.745106361038
 30
0.0
 10
161.2349962090606
 20
183.7671467931665
 30
0.0
 10
161.0310463088065
 20
183.748733701065
 30
0.0
 10
160.9290713599991
 20
183.7395271591141
 30
0.0
 11
160.9290713599991
 21
183.7395271591141
 31
0.0
 11
160.6230395753366
 21
183.6817992718238
 31
0.0
 11
160.3264619228333
 21
183.5872322093786
 31
0.0
 11
160.0309055557678
 21
183.4535070670122
 31
0.0
 11
159.7523040217464
 21
183.2877381136309
 31
0.0
 11
159.4772684622125
 21
183.0822673106281
 31
0.0
 11
159.2240651561188
 21
182.8507402137944
 31
0.0
 11
158.9785101631017
 21
182.5804122954534
 31
0.0
 11
158.7574904290843
 21
182.2899007705887
 31
0.0
 11
158.5490269662563
 21
181.9636255351937
 31
0.0
 11
158.3663915939679
 21
181.6223676835734
 31
0.0
 11
158.2012113726296
 21
181.2506250493176
 31
0.0
 11
158.0623709828355
 21
180.8683570113841
 31
0.0
 11
157.945189769345
 21
180.462837199724
 31
0.0
 11
157.8544892642822
 21
180.0506411923196
 31
0.0
 11
157.7884841281867
 21
179.623894205864
 31
0.0
 11
157.7489660948088
 21
179.1939106259292
 31
0.0
 11
157.7357274127285
 21
178.7589760741152
 31
0.0
 11
157.7489660948089
 21
178.3240415223013
 31
0.0
 11
157.7884841281868
 21
177.8940579423664
 31
0.0
 11
157.8544892642822
 21
177.4673109559108
 31
0.0
 11
157.945189769345
 21
177.0551149485064
 31
0.0
 11
158.0623709828355
 21
176.6495951368464
 31
0.0
 11
158.2012113726295
 21
176.2673270989129
 31
0.0
 11
158.3663915939679
 21
175.895584464657
 31
0.0
 11
158.5490269662563
 21
175.5543266130367
 31
0.0
 11
158.7574904290843
 21
175.2280513776417
 31
0.0
 11
158.9785101631016
 21
174.9375398527771
 31
0.0
 11
159.2240651561187
 21
174.6672119344361
 31
0.0
 11
159.4772684622124
 21
174.4356848376024
 31
0.0
 11
159.7523040217463
 21
174.2302140345996
 31
0.0
 11
160.0309055557677
 21
174.0644450812182
 31
0.0
 11
160.3264619228333
 21
173.9307199388518
 31
0.0
 11
160.6230395753367
 21
173.8361528764067
 31
0.0
 11
160.9290713599992
 21
173.7784249891164
 31
0.0
 11
161.2352039019652
 21
173.7590634332303
 31
0.0
 11
161.5413364439313
 21
173.7784249891164
 31
0.0
 11
161.8473682285939
 21
173.8361528764067
 31
0.0
 11
162.1439458810972
 21
173.9307199388518
 31
0.0
 11
162.4395022481628
 21
174.0644450812183
 31
0.0
 11
162.7181037821841
 21
174.2302140345996
 31
0.0
 11
162.993139341718
 21
174.4356848376024
 31
0.0
 11
163.2463426478117
 21
174.6672119344361
 31
0.0
 11
163.4918976408288
 21
174.9375398527771
 31
0.0
 11
163.7129173748462
 21
175.2280513776417
 31
0.0
 11
163.9213808376742
 21
175.5543266130367
 31
0.0
 11
164.1040162099626
 21
175.895584464657
 31
0.0
 11
164.2691964313009
 21
176.2673270989129
 31
0.0
 11
164.408036821095
 21
176.6495951368463
 31
0.0
 11
164.5252180345855
 21
177.0551149485064
 31
0.0
 11
164.6159185396483
 21
177.4673109559108
 31
0.0
 11
164.6819236757437
 21
177.8940579423664
 31
0.0
 11
164.7214417091216
 21
178.3240415223013
 31
0.0
 11
164.734680391202
 21
178.7589760741152
 31
0.0
 11
164.7214417091216
 21
179.1939106259292
 31
0.0
 11
164.6819236757437
 21
179.6238942058641
 31
0.0
 11
164.6159185396483
 21
180.0506411923197
 31
0.0
 11
164.5252180345855
 21
180.462837199724
 31
0.0
 11
164.408036821095
 21
180.8683570113841
 31
0.0
 11
164.269196431301
 21
181.2506250493175
 31
0.0
 11
164.1040162099626
 21
181.6223676835734
 31
0.0
 11
163.9213808376742
 21
181.9636255351937
 31
0.0
 11
163.7129173748461
 21
182.2899007705887
 31
0.0
 11
163.4918976408288
 21
182.5804122954534
 31
0.0
 11
163.2463426478118
 21
182.8507402137944
 31
0.0
 11
162.9931393417181
 21
183.0822673106282
 31
0.0
 11
162.7181037821842
 21
183.2877381136309
 31
0.0
 11
162.4395022481628
 21
183.4535070670122
 31
0.0
 11
162.1439458810972
 21
183.5872322093786
 31
0.0
 11
161.8473682285939
 21
183.6817992718238
 31
0.0
 11
161.5413364439313
 21
183.7395271591141
 31
0.0
 11
161.2352039019652
 21
183.7588887150001
 31
0.0
 11
160.9290713599991
 21
183.7395271591141
 31
0.0
  0
SPLINE
  5
304
330
5F
100
AcDbEntity
  8
1
  6
Continuous
 62
     7
100
AcDbSpline
210
0.0
220
0.0
230
1.0
 70
    11
 71
     3
 72
    79
 73
    75
 74
    73
 42
0.000000001
 43
0.0000000001
 44
0.00000001
 40
0.0
 40
0.0
 40
0.0
 40
0.0
 40
0.3142765934721063
 40
0.62830966475412
 40
0.961226968541545
 40
1.293801798801005
 40
1.653395852645004
 40
2.01268267425857
 40
2.402590347889678
 40
2.792270150795812
 40
3.212117567886205
 40
3.631809805407549
 40
4.078013631667322
 40
4.524117601788354
 40
4.990730184944269
 40
5.45728374149932
 40
5.936753907099402
 40
6.41619670841132
 40
6.900045282201021
 40
7.383893855990128
 40
7.863336657299679
 40
8.342806822894877
 40
8.809360379440953
 40
9.275972962581099
 40
9.722076932677165
 40
10.16828075889738
 40
10.58797299636214
 40
11.00782041336817
 40
11.39750021616093
 40
11.78740788962999
 40
12.14669471103252
 40
12.50628876457634
 40
12.83886359442062
 40
13.17178089750333
 40
13.48581396674898
 40
13.80009056761872
 40
14.10753469376498
 40
14.41497881991
 40
14.72925542077623
 40
15.04328849001677
 40
15.37620579309238
 40
15.7087806229285
 40
16.06837467646266
 40
16.42766149785535
 40
16.81756917131379
 40
17.20724897409625
 40
17.62709639109165
 40
18.04678862854626
 40
18.49299245475619
 40
18.93909642484297
 40
19.40570900797396
 40
19.87226256451186
 40
20.35173273009955
 40
20.83117553140243
 40
21.31502410518551
 40
21.79887267896995
 40
22.27831548027754
 40
22.75778564587445
 40
23.22433920242736
 40
23.6909517855817
 40
24.13705575570199
 40
24.5832595819616
 40
25.00295181948283
 40
25.42279923657175
 40
25.81247903947399
 40
26.20238671309531
 40
26.56167353468883
 40
26.92126758848826
 40
27.25384241864602
 40
27.58675972213997
 40
27.90079279191807
 40
28.21506939358247
 40
28.52251352185611
 40
28.82995764083073
 40
28.82995764083073
 40
28.82995764083073
 40
28.82995764083073
 10
161.540546339642
 20
253.9903590212027
 30
0.0
 10
161.6438176336872
 20
254.0089514468744
 30
0.0
 10
161.8502802020624
 20
254.0461218830623
 30
0.0
 10
162.1523642781081
 20
254.1570678688853
 30
0.0
 10
162.4445584417667
 20
254.3041323435245
 30
0.0
 10
162.7294120961262
 20
254.4942864204335
 30
0.0
 10
162.9988523456128
 20
254.7194205860337
 30
0.0
 10
163.2576490556268
 20
254.9840559945265
 30
0.0
 10
163.497326120946
 20
255.2791154825292
 30
0.0
 10
163.7226637994278
 20
255.6098807031598
 30
0.0
 10
163.9262268115573
 20
255.9659471349445
 30
0.0
 10
164.1117186156192
 20
256.3526792402878
 30
0.0
 10
164.27348832397
 20
256.7593516812695
 30
0.0
 10
164.413855533756
 20
257.190326799585
 30
0.0
 10
164.5290983040586
 20
257.6356993704989
 30
0.0
 10
164.6203514141584
 20
258.0979111648552
 30
0.0
 10
164.6855587928804
 20
258.5688285802564
 30
0.0
 10
164.725149161342
 20
259.0483589457107
 30
0.0
 10
164.7382347316054
 20
259.5308029773981
 30
0.0
 10
164.725149161358
 20
260.0132470091
 30
0.0
 10
164.6855587929094
 20
260.4927773745081
 30
0.0
 10
164.6203514142387
 20
260.9636947900711
 30
0.0
 10
164.5290983040961
 20
261.4259065838314
 30
0.0
 10
164.4138555341607
 20
261.8712791569139
 30
0.0
 10
164.2734883233568
 20
262.3022542674665
 30
0.0
 10
164.1117186191026
 20
262.7089267365739
 30
0.0
 10
163.926226801148
 20
263.095658742888
 30
0.0
 10
163.722663839681
 20
263.4517255308239
 30
0.0
 10
163.4973259858845
 20
263.7824895129672
 30
0.0
 10
163.2576495489928
 20
264.0775534326374
 30
0.0
 10
162.9988506693256
 20
264.3421735314275
 30
0.0
 10
162.7294181835805
 20
264.5673624682336
 30
0.0
 10
162.4445376119434
 20
264.7573266355412
 30
0.0
 10
162.1524404528603
 20
264.905075482869
 30
0.0
 10
161.8500136950019
 20
265.0136038082231
 30
0.0
 10
161.5437797687834
 20
265.0778151750717
 30
0.0
 10
161.2338683467279
 20
265.1004162217122
 30
0.0
 10
160.9239569246728
 20
265.0778151750836
 30
0.0
 10
160.6177229984552
 20
265.0136038082461
 30
0.0
 10
160.3152962405985
 20
264.9050754829026
 30
0.0
 10
160.0231990815178
 20
264.7573266355851
 30
0.0
 10
159.738318509884
 20
264.5673624682873
 30
0.0
 10
159.4688860241429
 20
264.3421735314908
 30
0.0
 10
159.2100871444807
 20
264.0775534327099
 30
0.0
 10
158.9704107075949
 20
263.7824895130478
 30
0.0
 10
158.7450728538053
 20
263.4517255309128
 30
0.0
 10
158.5415098923463
 20
263.0956587429838
 30
0.0
 10
158.3560180744009
 20
262.708926736677
 30
0.0
 10
158.1942483701572
 20
262.3022542675759
 30
0.0
 10
158.0538811593656
 20
261.8712791570294
 30
0.0
 10
157.938638389444
 20
261.4259065839524
 30
0.0
 10
157.8473852793173
 20
260.9636947901973
 30
0.0
 10
157.7821779006645
 20
260.4927773746395
 30
0.0
 10
157.7425875322364
 20
260.0132470092357
 30
0.0
 10
157.7295019620126
 20
259.530802977542
 30
0.0
 10
157.7425875322999
 20
259.0483589458494
 30
0.0
 10
157.7821779007969
 20
258.568828580443
 30
0.0
 10
157.8473852795256
 20
258.0979111648974
 30
0.0
 10
157.9386383897499
 20
257.6356993711017
 30
0.0
 10
158.0538811597598
 20
257.1903267981822
 30
0.0
 10
158.1942483707634
 20
256.7593516870903
 30
0.0
 10
158.3560180748848
 20
256.3526792199958
 30
0.0
 10
158.5415098940216
 20
255.9659472066722
 30
0.0
 10
158.7450728521262
 20
255.6098804440535
 30
0.0
 10
158.9704107186539
 20
255.2791163740147
 30
0.0
 10
159.2100871112556
 20
254.98405276906
 30
0.0
 10
159.4688861453661
 20
254.7194315833098
 30
0.0
 10
159.7383180803099
 20
254.4942465355172
 30
0.0
 10
160.0232005636882
 20
254.3042688842
 30
0.0
 10
160.3152908358006
 20
254.1565686295306
 30
0.0
 10
160.6177419257466
 20
254.0478686432729
 30
0.0
 10
160.9238867595128
 20
253.9842858451792
 30
0.0
 10
161.234123930511
 20
253.9593865871205
 30
0.0
 10
161.4384055373785
 20
253.980034879624
 30
0.0
 10
161.540546339642
 20
253.9903590212027
 30
0.0
 11
161.540546339642
 21
253.9903590212027
 31
0.0
 11
161.8481074434982
 21
254.054980606881
 31
0.0
 11
162.1439955825721
 21
254.1601803113222
 31
0.0
 11
162.4412599042771
 21
254.3100731190621
 31
0.0
 11
162.7184478280508
 21
254.4938470900914
 31
0.0
 11
162.9948210371969
 21
254.7239030238919
 31
0.0
 11
163.2465469876005
 21
254.9802642260683
 31
0.0
 11
163.4929705425318
 21
255.282428792913
 31
0.0
 11
163.7128195053562
 21
255.6041690333086
 31
0.0
 11
163.9217728881747
 21
255.9683260563235
 31
0.0
 11
164.1036284951164
 21
256.3465721566849
 31
0.0
 11
164.2690365607208
 21
256.7609850261623
 31
0.0
 11
164.4074330821514
 21
257.1850783590582
 31
0.0
 11
164.5246804714013
 21
257.6367201999786
 31
0.0
 11
164.6151790778072
 21
258.094412480197
 31
0.0
 11
164.6811718333587
 21
258.5693194141483
 31
0.0
 11
164.720637965782
 21
259.047135094219
 31
0.0
 11
164.733859596339
 21
259.5308029873484
 31
0.0
 11
164.720637965782
 21
260.0144708804779
 31
0.0
 11
164.6811718333587
 21
260.4922865605485
 31
0.0
 11
164.6151790778072
 21
260.9671934944997
 31
0.0
 11
164.5246804714014
 21
261.424885774718
 31
0.0
 11
164.4074330821516
 21
261.8765276156385
 31
0.0
 11
164.269036560721
 21
262.3006209485343
 31
0.0
 11
164.1036284951166
 21
262.7150338180118
 31
0.0
 11
163.9217728881749
 21
263.0932799183734
 31
0.0
 11
163.7128195053563
 21
263.4574369413884
 31
0.0
 11
163.492970542532
 21
263.7791771817841
 31
0.0
 11
163.2465469876007
 21
264.0813417486286
 31
0.0
 11
162.9948210371972
 21
264.337702950805
 31
0.0
 11
162.7184478280511
 21
264.5677588846054
 31
0.0
 11
162.4412599042775
 21
264.7515328556346
 31
0.0
 11
162.1439955825725
 21
264.9014256633744
 31
0.0
 11
161.8481074434987
 21
265.0066253678157
 31
0.0
 11
161.5405463396424
 21
265.0712469534941
 31
0.0
 11
161.2338683463391
 21
265.092937947298
 31
0.0
 11
160.9271903530359
 21
265.0712469534944
 31
0.0
 11
160.6196292491797
 21
265.0066253678161
 31
0.0
 11
160.3237411101057
 21
264.9014256633747
 31
0.0
 11
160.0264767884007
 21
264.7515328556347
 31
0.0
 11
159.749288864627
 21
264.5677588846054
 31
0.0
 11
159.4729156554809
 21
264.337702950805
 31
0.0
 11
159.2211897050773
 21
264.0813417486287
 31
0.0
 11
158.9747661501461
 21
263.7791771817842
 31
0.0
 11
158.7549171873217
 21
263.4574369413884
 31
0.0
 11
158.5459638045031
 21
263.0932799183735
 31
0.0
 11
158.3641081975614
 21
262.7150338180119
 31
0.0
 11
158.1987001319569
 21
262.3006209485347
 31
0.0
 11
158.0603036105263
 21
261.8765276156388
 31
0.0
 11
157.9430562212765
 21
261.4248857747185
 31
0.0
 11
157.8525576148706
 21
260.9671934945001
 31
0.0
 11
157.7865648593191
 21
260.4922865605488
 31
0.0
 11
157.7470987268959
 21
260.014470880478
 31
0.0
 11
157.7338770963389
 21
259.5308029873485
 31
0.0
 11
157.7470987268958
 21
259.0471350942191
 31
0.0
 11
157.7865648593191
 21
258.5693194141485
 31
0.0
 11
157.8525576148706
 21
258.0944124801971
 31
0.0
 11
157.9430562212765
 21
257.6367201999788
 31
0.0
 11
158.0603036105262
 21
257.1850783590585
 31
0.0
 11
158.1987001319567
 21
256.7609850261627
 31
0.0
 11
158.3641081975611
 21
256.3465721566853
 31
0.0
 11
158.5459638045028
 21
255.9683260563236
 31
0.0
 11
158.7549171873214
 21
255.6041690333087
 31
0.0
 11
158.9747661501457
 21
255.282428792913
 31
0.0
 11
159.2211897050771
 21
254.9802642260683
 31
0.0
 11
159.4729156554806
 21
254.7239030238919
 31
0.0
 11
159.7492888646268
 21
254.4938470900915
 31
0.0
 11
160.0264767884004
 21
254.3100731190623
 31
0.0
 11
160.3237411101053
 21
254.1601803113224
 31
0.0
 11
160.6196292491792
 21
254.0549806068811
 31
0.0
 11
160.9271903530354
 21
253.9903590212028
 31
0.0
 11
161.2338683463387
 21
253.9686680273991
 31
0.0
 11
161.540546339642
 21
253.9903590212027
 31
0.0
  0
SPLINE
  5
305
330
5F
100
AcDbEntity
  8
1
  6
Continuous
 62
     7
100
AcDbSpline
210
0.0
220
0.0
230
1.0
 70
    11
 71
     3
 72
    79
 73
    75
 74
    73
 42
0.000000001
 43
0.0000000001
 44
0.00000001
 40
0.0
 40
0.0
 40
0.0
 40
0.0
 40
0.3142765934721297
 40
0.6283096647541624
 40
0.9612269685415874
 40
1.293801798800969
 40
1.653395852644895
 40
2.012682674258481
 40
2.402590347889568
 40
2.792270150795724
 40
3.212117567886167
 40
3.631809805407613
 40
4.078013631667361
 40
4.524117601788311
 40
4.990730184944116
 40
5.457283741499223
 40
5.936753907099417
 40
6.41619670841125
 40
6.900045282200894
 40
7.383893855990001
 40
7.863336657299666
 40
8.342806822894836
 40
8.809360379440886
 40
9.275972962580976
 40
9.722076932677043
 40
10.16828075889728
 40
10.58797299636202
 40
11.00782041336802
 40
11.3975002161608
 40
11.78740788962991
 40
12.14669471103242
 40
12.50628876457611
 40
12.83886359442036
 40
13.17178089750312
 40
13.48581396674881
 40
13.80009056761859
 40
14.10753469376484
 40
14.41497881990987
 40
14.7292554207761
 40
15.0432884900166
 40
15.37620579309215
 40
15.70878062292818
 40
16.06837467646239
 40
16.42766149785513
 40
16.81756917131361
 40
17.20724897409622
 40
17.62709639109167
 40
18.04678862854633
 40
18.49299245475659
 40
18.93909642484313
 40
19.40570900797409
 40
19.87226256451193
 40
20.35173273009959
 40
20.83117553140227
 40
21.31502410518521
 40
21.79887267896976
 40
22.27831548027758
 40
22.75778564587446
 40
23.22433920242734
 40
23.69095178558177
 40
24.13705575570208
 40
24.58325958196162
 40
25.00295181948277
 40
25.42279923657171
 40
25.81247903947395
 40
26.20238671309529
 40
26.56167353468877
 40
26.92126758848824
 40
27.25384241864598
 40
27.5867597221399
 40
27.90079279191801
 40
28.21506939358241
 40
28.52251352185605
 40
28.82995764083068
 40
28.82995764083068
 40
28.82995764083068
 40
28.82995764083068
 10
161.540546339642
 20
252.0712794534944
 30
0.0
 10
161.6438176336872
 20
252.0526870278226
 30
0.0
 10
161.8502802020624
 20
252.0155165916347
 30
0.0
 10
162.1523642781081
 20
251.9045706058117
 30
0.0
 10
162.4445584417666
 20
251.7575061311725
 30
0.0
 10
162.7294120961263
 20
251.5673520542636
 30
0.0
 10
162.9988523456128
 20
251.3422178886635
 30
0.0
 10
163.2576490556268
 20
251.0775824801707
 30
0.0
 10
163.497326120946
 20
250.7825229921679
 30
0.0
 10
163.7226637994279
 20
250.4517577715375
 30
0.0
 10
163.9262268115573
 20
250.0956913397526
 30
0.0
 10
164.1117186156192
 20
249.7089592344092
 30
0.0
 10
164.27348832397
 20
249.3022867934276
 30
0.0
 10
164.413855533756
 20
248.8713116751121
 30
0.0
 10
164.5290983040586
 20
248.4259391041983
 30
0.0
 10
164.6203514141584
 20
247.963727309842
 30
0.0
 10
164.6855587928804
 20
247.4928098944407
 30
0.0
 10
164.725149161342
 20
247.0132795289865
 30
0.0
 10
164.7382347316053
 20
246.5308354972992
 30
0.0
 10
164.725149161358
 20
246.0483914655972
 30
0.0
 10
164.6855587929095
 20
245.5688611001891
 30
0.0
 10
164.6203514142387
 20
245.0979436846261
 30
0.0
 10
164.5290983040962
 20
244.6357318908658
 30
0.0
 10
164.4138555341607
 20
244.1903593177833
 30
0.0
 10
164.2734883233567
 20
243.7593842072307
 30
0.0
 10
164.1117186191027
 20
243.3527117381233
 30
0.0
 10
163.9262268011479
 20
242.9659797318094
 30
0.0
 10
163.722663839681
 20
242.6099129438732
 30
0.0
 10
163.4973259858845
 20
242.2791489617301
 30
0.0
 10
163.2576495489928
 20
241.9840850420597
 30
0.0
 10
162.9988506693257
 20
241.7194649432698
 30
0.0
 10
162.7294181835805
 20
241.4942760064637
 30
0.0
 10
162.4445376119434
 20
241.3043118391563
 30
0.0
 10
162.1524404528602
 20
241.1565629918284
 30
0.0
 10
161.8500136950019
 20
241.0480346664741
 30
0.0
 10
161.5437797687834
 20
240.9838232996252
 30
0.0
 10
161.2338683467279
 20
240.961222252985
 30
0.0
 10
160.9239569246728
 20
240.9838232996137
 30
0.0
 10
160.6177229984553
 20
241.0480346664512
 30
0.0
 10
160.3152962405985
 20
241.1565629917945
 30
0.0
 10
160.0231990815178
 20
241.3043118391119
 30
0.0
 10
159.7383185098839
 20
241.4942760064095
 30
0.0
 10
159.4688860241429
 20
241.7194649432061
 30
0.0
 10
159.2100871444807
 20
241.9840850419871
 30
0.0
 10
158.9704107075949
 20
242.2791489616492
 30
0.0
 10
158.7450728538053
 20
242.6099129437845
 30
0.0
 10
158.5415098923463
 20
242.9659797317134
 30
0.0
 10
158.3560180744008
 20
243.3527117380204
 30
0.0
 10
158.1942483701574
 20
243.7593842071216
 30
0.0
 10
158.0538811593656
 20
244.1903593176681
 30
0.0
 10
157.938638389444
 20
244.6357318907448
 30
0.0
 10
157.8473852793173
 20
245.0979436845
 30
0.0
 10
157.7821779006646
 20
245.5688611000577
 30
0.0
 10
157.7425875322364
 20
246.0483914654613
 30
0.0
 10
157.7295019620125
 20
246.530835497155
 30
0.0
 10
157.7425875322999
 20
247.0132795288477
 30
0.0
 10
157.7821779007969
 20
247.4928098942543
 30
0.0
 10
157.8473852795256
 20
247.9637273097998
 30
0.0
 10
157.9386383897499
 20
248.4259391035955
 30
0.0
 10
158.0538811597598
 20
248.8713116765151
 30
0.0
 10
158.1942483707634
 20
249.302286787607
 30
0.0
 10
158.3560180748848
 20
249.7089592547015
 30
0.0
 10
158.5415098940217
 20
250.0956912680251
 30
0.0
 10
158.7450728521262
 20
250.4517580306436
 30
0.0
 10
158.9704107186539
 20
250.7825221006826
 30
0.0
 10
159.2100871112556
 20
251.0775857056373
 30
0.0
 10
159.4688861453661
 20
251.3422068913874
 30
0.0
 10
159.7383180803099
 20
251.5673919391801
 30
0.0
 10
160.0232005636882
 20
251.7573695904972
 30
0.0
 10
160.3152908358006
 20
251.9050698451665
 30
0.0
 10
160.6177419257465
 20
252.0137698314243
 30
0.0
 10
160.9238867595128
 20
252.0773526295179
 30
0.0
 10
161.234123930511
 20
252.1022518875767
 30
0.0
 10
161.4384055373784
 20
252.0816035950733
 30
0.0
 10
161.540546339642
 20
252.0712794534944
 30
0.0
 11
161.540546339642
 21
252.0712794534944
 31
0.0
 11
161.8481074434982
 21
252.006657867816
 31
0.0
 11
162.1439955825721
 21
251.9014581633748
 31
0.0
 11
162.4412599042771
 21
251.7515653556349
 31
0.0
 11
162.7184478280508
 21
251.5677913846058
 31
0.0
 11
162.9948210371969
 21
251.3377354508054
 31
0.0
 11
163.2465469876005
 21
251.0813742486289
 31
0.0
 11
163.4929705425318
 21
250.7792096817843
 31
0.0
 11
163.7128195053562
 21
250.4574694413886
 31
0.0
 11
163.9217728881747
 21
250.0933124183736
 31
0.0
 11
164.1036284951164
 21
249.7150663180121
 31
0.0
 11
164.2690365607208
 21
249.3006534485348
 31
0.0
 11
164.4074330821514
 21
248.876560115639
 31
0.0
 11
164.5246804714013
 21
248.4249182747186
 31
0.0
 11
164.6151790778072
 21
247.9672259945002
 31
0.0
 11
164.6811718333587
 21
247.4923190605489
 31
0.0
 11
164.720637965782
 21
247.0145033804782
 31
0.0
 11
164.733859596339
 21
246.5308354873488
 31
0.0
 11
164.720637965782
 21
246.0471675942194
 31
0.0
 11
164.6811718333587
 21
245.5693519141486
 31
0.0
 11
164.6151790778072
 21
245.0944449801975
 31
0.0
 11
164.5246804714014
 21
244.6367526999792
 31
0.0
 11
164.4074330821516
 21
244.1851108590588
 31
0.0
 11
164.269036560721
 21
243.7610175261629
 31
0.0
 11
164.1036284951166
 21
243.3466046566855
 31
0.0
 11
163.9217728881749
 21
242.9683585563238
 31
0.0
 11
163.7128195053563
 21
242.6042015333089
 31
0.0
 11
163.492970542532
 21
242.2824612929132
 31
0.0
 11
163.2465469876007
 21
241.9802967260686
 31
0.0
 11
162.9948210371972
 21
241.7239355238922
 31
0.0
 11
162.7184478280511
 21
241.493879590092
 31
0.0
 11
162.4412599042775
 21
241.3101056190629
 31
0.0
 11
162.1439955825725
 21
241.1602128113229
 31
0.0
 11
161.8481074434987
 21
241.0550131068815
 31
0.0
 11
161.5405463396424
 21
240.990391521203
 31
0.0
 11
161.2338683463391
 21
240.9687005273991
 31
0.0
 11
160.9271903530359
 21
240.9903915212028
 31
0.0
 11
160.6196292491797
 21
241.0550131068811
 31
0.0
 11
160.3237411101057
 21
241.1602128113224
 31
0.0
 11
160.0264767884007
 21
241.3101056190623
 31
0.0
 11
159.749288864627
 21
241.4938795900915
 31
0.0
 11
159.4729156554809
 21
241.7239355238919
 31
0.0
 11
159.2211897050773
 21
241.9802967260682
 31
0.0
 11
158.9747661501461
 21
242.2824612929129
 31
0.0
 11
158.7549171873217
 21
242.6042015333088
 31
0.0
 11
158.5459638045031
 21
242.9683585563238
 31
0.0
 11
158.3641081975614
 21
243.3466046566854
 31
0.0
 11
158.1987001319569
 21
243.7610175261629
 31
0.0
 11
158.0603036105263
 21
244.1851108590586
 31
0.0
 11
157.9430562212765
 21
244.6367526999789
 31
0.0
 11
157.8525576148706
 21
245.0944449801972
 31
0.0
 11
157.7865648593191
 21
245.5693519141485
 31
0.0
 11
157.7470987268959
 21
246.0471675942192
 31
0.0
 11
157.7338770963389
 21
246.5308354873485
 31
0.0
 11
157.7470987268958
 21
247.0145033804779
 31
0.0
 11
157.7865648593191
 21
247.4923190605488
 31
0.0
 11
157.8525576148706
 21
247.9672259945001
 31
0.0
 11
157.9430562212765
 21
248.4249182747185
 31
0.0
 11
158.0603036105262
 21
248.8765601156389
 31
0.0
 11
158.1987001319567
 21
249.3006534485346
 31
0.0
 11
158.3641081975611
 21
249.715066318012
 31
0.0
 11
158.5459638045028
 21
250.0933124183736
 31
0.0
 11
158.7549171873214
 21
250.4574694413885
 31
0.0
 11
158.9747661501457
 21
250.7792096817843
 31
0.0
 11
159.2211897050771
 21
251.0813742486289
 31
0.0
 11
159.4729156554806
 21
251.3377354508053
 31
0.0
 11
159.7492888646268
 21
251.5677913846058
 31
0.0
 11
160.0264767884004
 21
251.7515653556349
 31
0.0
 11
160.3237411101053
 21
251.9014581633748
 31
0.0
 11
160.6196292491792
 21
252.0066578678161
 31
0.0
 11
160.9271903530354
 21
252.0712794534944
 31
0.0
 11
161.2338683463387
 21
252.0929704472982
 31
0.0
 11
161.540546339642
 21
252.0712794534944
 31
0.0
  0
ENDBLK
  5
61
330
5F
100
AcDbEntity
  8
0
100
AcDbBlockEnd
  0
BLOCK
  5
63
330
62
100
AcDbEntity
  8
0
100
AcDbBlockBegin
  2
開示A4
 70
     0
 10
0.0
 20
0.0
 30
0.0
  3
開示A4
  1

  0
POINT
  5
306
330
62
100
AcDbEntity
  8
1
 62
     4
100
AcDbPoint
 10
93.75
 20
17.0
 30
0.0
  0
POINT
  5
307
330
62
100
AcDbEntity
  8
1
 62
     4
100
AcDbPoint
 10
85.25
 20
17.0
 30
0.0
  0
POINT
  5
308
330
62
100
AcDbEntity
  8
1
 62
     4
100
AcDbPoint
 10
106.5
 20
19.0
 30
0.0
  0
POINT
  5
309
330
62
100
AcDbEntity
  8
1
 62
     4
100
AcDbPoint
 10
106.5
 20
12.5
 30
0.0
  0
POINT
  5
30A
330
62
100
AcDbEntity
  8
1
 62
     4
100
AcDbPoint
 10
112.25
 20
12.5
 30
0.0
  0
POINT
  5
30B
330
62
100
AcDbEntity
  8
1
 62
     4
100
AcDbPoint
 10
100.75
 20
12.5
 30
0.0
  0
POINT
  5
30C
330
62
100
AcDbEntity
  8
1
 62
     4
100
AcDbPoint
 10
123.5
 20
19.0
 30
0.0
  0
POINT
  5
30D
330
62
100
AcDbEntity
  8
1
 62
     4
100
AcDbPoint
 10
123.5
 20
12.5
 30
0.0
  0
POINT
  5
30E
330
62
100
AcDbEntity
  8
1
 62
     4
100
AcDbPoint
 10
129.25
 20
12.5
 30
0.0
  0
POINT
  5
30F
330
62
100
AcDbEntity
  8
1
 62
     4
100
AcDbPoint
 10
117.75
 20
12.5
 30
0.0
  0
POINT
  5
310
330
62
100
AcDbEntity
  8
1
 62
     4
100
AcDbPoint
 10
140.5
 20
19.0
 30
0.0
  0
POINT
  5
311
330
62
100
AcDbEntity
  8
1
 62
     4
100
AcDbPoint
 10
140.5
 20
12.5
 30
0.0
  0
POINT
  5
312
330
62
100
AcDbEntity
  8
1
 62
     4
100
AcDbPoint
 10
146.25
 20
12.5
 30
0.0
  0
POINT
  5
313
330
62
100
AcDbEntity
  8
1
 62
     4
100
AcDbPoint
 10
134.75
 20
12.5
 30
0.0
  0
POINT
  5
314
330
62
100
AcDbEntity
  8
1
 62
     4
100
AcDbPoint
 10
151.75
 20
12.5
 30
0.0
  0
POINT
  5
315
330
62
100
AcDbEntity
  8
1
 62
     4
100
AcDbPoint
 10
163.25
 20
12.5
 30
0.0
  0
POINT
  5
316
330
62
100
AcDbEntity
  8
1
 62
     4
100
AcDbPoint
 10
157.5
 20
12.5
 30
0.0
  0
POINT
  5
317
330
62
100
AcDbEntity
  8
1
 62
     4
100
AcDbPoint
 10
57.0
 20
14.25
 30
0.0
  0
POINT
  5
318
330
62
100
AcDbEntity
  8
1
 62
     4
100
AcDbPoint
 10
57.0
 20
22.75
 30
0.0
  0
POINT
  5
319
330
62
100
AcDbEntity
  8
1
 62
     4
100
AcDbPoint
 10
47.5
 20
282.0000000000002
 30
0.0
  0
POINT
  5
31A
330
62
100
AcDbEntity
  8
1
 62
     4
100
AcDbPoint
 10
157.5
 20
19.0
 30
0.0
  0
POINT
  5
31B
330
62
100
AcDbEntity
  8
1
 62
     4
100
AcDbPoint
 10
57.0
 20
16.25
 30
0.0
  0
POINT
  5
31C
330
62
100
AcDbEntity
  8
1
 62
     4
100
AcDbPoint
 10
57.0
 20
24.75
 30
0.0
  0
POINT
  5
31D
330
62
100
AcDbEntity
  8
1
 62
     4
100
AcDbPoint
 10
57.0
 20
20.75
 30
0.0
  0
POINT
  5
31E
330
62
100
AcDbEntity
  8
1
 62
     4
100
AcDbPoint
 10
57.0
 20
12.25
 30
0.0
  0
POINT
  5
31F
330
62
100
AcDbEntity
  8
1
 62
     4
100
AcDbPoint
 10
34.0
 20
34.0
 30
0.0
  0
LINE
  5
320
330
62
100
AcDbEntity
  8
1
  6
Continuous
 62
     7
100
AcDbLine
 10
105.0
 20
10.0
 30
0.0
 11
200.0
 21
10.0
 31
0.0
  0
LINE
  5
321
330
62
100
AcDbEntity
  8
1
  6
Continuous
 62
     2
100
AcDbLine
 10
105.0
 20
10.0
 30
0.0
 11
105.0
 21
5.0
 31
0.0
  0
LINE
  5
322
330
62
100
AcDbEntity
  8
1
  6
Continuous
 62
     7
100
AcDbLine
 10
200.0
 20
148.5
 30
0.0
 11
200.0
 21
287.0000000000002
 31
0.0
  0
LINE
  5
323
330
62
100
AcDbEntity
  8
1
  6
Continuous
 62
     2
100
AcDbLine
 10
200.0
 20
148.5
 30
0.0
 11
205.0
 21
148.5
 31
0.0
  0
LINE
  5
324
330
62
100
AcDbEntity
  8
1
  6
Continuous
 62
     7
100
AcDbLine
 10
25.0
 20
148.5
 30
0.0
 11
25.0
 21
287.0000000000002
 31
0.0
  0
LINE
  5
325
330
62
100
AcDbEntity
  8
1
  6
Continuous
 62
     7
100
AcDbLine
 10
105.0
 20
287.0000000000002
 30
0.0
 11
25.0
 21
287.0000000000002
 31
0.0
  0
LINE
  5
326
330
62
100
AcDbEntity
  8
1
  6
Continuous
 62
     2
100
AcDbLine
 10
105.0
 20
287.0000000000002
 30
0.0
 11
105.0
 21
292.0000000000002
 31
0.0
  0
LINE
  5
327
330
62
100
AcDbEntity
  8
1
  6
Continuous
 62
     2
100
AcDbLine
 10
166.0
 20
20.0
 30
0.0
 11
200.0
 21
20.0
 31
0.0
  0
LINE
  5
328
330
62
100
AcDbEntity
  8
1
  6
Continuous
 62
     2
100
AcDbLine
 10
98.0
 20
27.0
 30
0.0
 11
98.0
 21
10.0
 31
0.0
  0
LINE
  5
329
330
62
100
AcDbEntity
  8
1
  6
Continuous
 62
     2
100
AcDbLine
 10
115.0
 20
27.0
 30
0.0
 11
115.0
 21
10.0
 31
0.0
  0
LINE
  5
32A
330
62
100
AcDbEntity
  8
1
  6
Continuous
 62
     2
100
AcDbLine
 10
149.0
 20
27.0
 30
0.0
 11
149.0
 21
10.0
 31
0.0
  0
LINE
  5
32B
330
62
100
AcDbEntity
  8
1
  6
Continuous
 62
     2
100
AcDbLine
 10
132.0
 20
27.0
 30
0.0
 11
132.0
 21
10.0
 31
0.0
  0
LINE
  5
32C
330
62
100
AcDbEntity
  8
1
  6
Continuous
 62
     2
100
AcDbLine
 10
166.0
 20
27.0
 30
0.0
 11
166.0
 21
10.0
 31
0.0
  0
LINE
  5
32D
330
62
100
AcDbEntity
  8
1
  6
Continuous
 62
     2
100
AcDbLine
 10
55.0
 20
277.0000000000002
 30
0.0
 11
25.0
 21
277.0000000000002
 31
0.0
  0
LINE
  5
32E
330
62
100
AcDbEntity
  8
1
  6
Continuous
 62
     7
100
AcDbLine
 10
25.0
 20
10.0
 30
0.0
 11
25.0
 21
148.5
 31
0.0
  0
LINE
  5
32F
330
62
100
AcDbEntity
  8
1
  6
Continuous
 62
     2
100
AcDbLine
 10
40.0
 20
287.0000000000002
 30
0.0
 11
40.0
 21
277.0000000000002
 31
0.0
  0
LINE
  5
330
330
62
100
AcDbEntity
  8
1
  6
Continuous
 62
     2
100
AcDbLine
 10
55.0
 20
287.0000000000002
 30
0.0
 11
55.0
 21
277.0000000000002
 31
0.0
  0
LINE
  5
331
330
62
100
AcDbEntity
  8
1
  6
Continuous
 62
     2
100
AcDbLine
 10
33.0
 20
41.0
 30
0.0
 11
33.0
 21
27.0
 31
0.0
  0
LINE
  5
332
330
62
100
AcDbEntity
  8
1
  6
Continuous
 62
     7
100
AcDbLine
 10
200.0
 20
27.0
 30
0.0
 11
25.0
 21
27.0
 31
0.0
  0
LINE
  5
333
330
62
100
AcDbEntity
  8
1
  6
Continuous
 62
     7
100
AcDbLine
 10
25.0
 20
41.0
 30
0.0
 11
200.0
 21
41.0
 31
0.0
  0
LINE
  5
334
330
62
100
AcDbEntity
  8
1
  6
PHANTOM
 62
     4
100
AcDbLine
 10
0.0
 20
0.0
 30
0.0
 11
210.0
 21
0.0
 31
0.0
  0
LINE
  5
335
330
62
100
AcDbEntity
  8
1
  6
PHANTOM
 62
     4
100
AcDbLine
 10
210.0
 20
0.0
 30
0.0
 11
210.0
 21
297.0
 31
0.0
  0
LINE
  5
336
330
62
100
AcDbEntity
  8
1
  6
PHANTOM
 62
     4
100
AcDbLine
 10
210.0
 20
297.0
 30
0.0
 11
0.0
 21
297.0
 31
0.0
  0
LINE
  5
337
330
62
100
AcDbEntity
  8
1
  6
PHANTOM
 62
     4
100
AcDbLine
 10
0.0
 20
297.0
 30
0.0
 11
0.0
 21
0.0
 31
0.0
  0
LINE
  5
338
330
62
100
AcDbEntity
  8
1
  6
Continuous
 62
     7
100
AcDbLine
 10
25.0
 20
10.0
 30
0.0
 11
105.0
 21
10.0
 31
0.0
  0
LINE
  5
339
330
62
100
AcDbEntity
  8
1
  6
Continuous
 62
     7
100
AcDbLine
 10
200.0
 20
10.0
 30
0.0
 11
200.0
 21
148.5
 31
0.0
  0
LINE
  5
33A
330
62
100
AcDbEntity
  8
1
  6
Continuous
 62
     7
100
AcDbLine
 10
200.0
 20
287.0000000000002
 30
0.0
 11
105.0
 21
287.0000000000002
 31
0.0
  0
LINE
  5
33B
330
62
100
AcDbEntity
  8
1
  6
Continuous
 62
     2
100
AcDbLine
 10
25.0
 20
18.5
 30
0.0
 11
81.0
 21
18.5
 31
0.0
  0
LINE
  5
33C
330
62
100
AcDbEntity
  8
1
  6
Continuous
 62
     2
100
AcDbLine
 10
33.0
 20
27.0
 30
0.0
 11
33.0
 21
10.0
 31
0.0
  0
LINE
  5
33D
330
62
100
AcDbEntity
  8
1
  6
Continuous
 62
     7
100
AcDbLine
 10
191.0
 20
24.69999999999999
 30
0.0
 11
191.0
 21
22.30000000000001
 31
0.0
  0
LINE
  5
33E
330
62
100
AcDbEntity
  8
1
  6
Continuous
 62
     7
100
AcDbLine
 10
191.0
 20
24.69999999999999
 30
0.0
 11
196.0
 21
25.5
 31
0.0
  0
LINE
  5
33F
330
62
100
AcDbEntity
  8
1
  6
Continuous
 62
     7
100
AcDbLine
 10
196.0
 20
25.5
 30
0.0
 11
196.0
 21
21.5
 31
0.0
  0
LINE
  5
340
330
62
100
AcDbEntity
  8
1
  6
Continuous
 62
     7
100
AcDbLine
 10
196.0
 20
21.5
 30
0.0
 11
191.0
 21
22.30000000000001
 31
0.0
  0
LINE
  5
341
330
62
100
AcDbEntity
  8
1
  6
DOT_CENTER
 62
     2
100
AcDbLine
 10
184.0
 20
23.5
 30
0.0
 11
197.0
 21
23.5
 31
0.0
  0
LINE
  5
342
330
62
100
AcDbEntity
  8
1
  6
DOT_CENTER
 62
     2
100
AcDbLine
 10
187.0
 20
26.5
 30
0.0
 11
187.0
 21
20.5
 31
0.0
  0
LINE
  5
343
330
62
100
AcDbEntity
  8
1
  6
Continuous
 62
     2
100
AcDbLine
 10
81.0
 20
27.0
 30
0.0
 11
81.0
 21
10.0
 31
0.0
  0
LINE
  5
344
330
62
100
AcDbEntity
  8
1
  6
Continuous
 62
     2
100
AcDbLine
 10
25.0
 20
148.5
 30
0.0
 11
20.0
 21
148.5
 31
0.0
  0
CIRCLE
  5
345
330
62
100
AcDbEntity
  8
1
  6
Continuous
 62
     7
100
AcDbCircle
 10
103.5
 20
12.5
 30
0.0
 40
0.2999999999999972
  0
CIRCLE
  5
346
330
62
100
AcDbEntity
  8
1
  6
Continuous
 62
     7
100
AcDbCircle
 10
109.5
 20
12.5
 30
0.0
 40
0.2999999999999972
  0
CIRCLE
  5
347
330
62
100
AcDbEntity
  8
1
  6
Continuous
 62
     7
100
AcDbCircle
 10
120.5
 20
12.5
 30
0.0
 40
0.2999999999999972
  0
CIRCLE
  5
348
330
62
100
AcDbEntity
  8
1
  6
Continuous
 62
     7
100
AcDbCircle
 10
126.5
 20
12.5
 30
0.0
 40
0.2999999999999972
  0
CIRCLE
  5
349
330
62
100
AcDbEntity
  8
1
  6
Continuous
 62
     7
100
AcDbCircle
 10
137.5
 20
12.5
 30
0.0
 40
0.3000000000000114
  0
CIRCLE
  5
34A
330
62
100
AcDbEntity
  8
1
  6
Continuous
 62
     7
100
AcDbCircle
 10
143.5
 20
12.5
 30
0.0
 40
0.3000000000000114
  0
CIRCLE
  5
34B
330
62
100
AcDbEntity
  8
1
  6
Continuous
 62
     7
100
AcDbCircle
 10
160.5
 20
12.5
 30
0.0
 40
0.3000000000000114
  0
CIRCLE
  5
34C
330
62
100
AcDbEntity
  8
1
  6
Continuous
 62
     7
100
AcDbCircle
 10
154.5
 20
12.5
 30
0.0
 40
0.3000000000000114
  0
CIRCLE
  5
34D
330
62
100
AcDbEntity
  8
1
  6
Continuous
 62
     7
100
AcDbCircle
 10
187.0
 20
23.5
 30
0.0
 40
1.200000000000102
  0
CIRCLE
  5
34E
330
62
100
AcDbEntity
  8
1
  6
Continuous
 62
     7
100
AcDbCircle
 10
187.0
 20
23.5
 30
0.0
 40
2.0
  0
CIRCLE
  5
34F
330
62
100
AcDbEntity
  8
1
  6
DOT_CENTER
 62
     7
100
AcDbCircle
 10
89.5
 20
16.0
 30
0.0
 40
0.1000000000000227
  0
CIRCLE
  5
350
330
62
100
AcDbEntity
  8
1
  6
DOT_CENTER
 62
     7
100
AcDbCircle
 10
89.5
 20
18.0
 30
0.0
 40
0.1000000000000227
  0
MTEXT
  5
352
330
62
100
AcDbEntity
  8
1
 62
     7
100
AcDbMText
 10
188.5
 20
15.0
 30
0.0
 40
3.0
 41
0.0
 71
     5
 72
     1
  1
三栄水栓製作所
  7
CONVERTER_11
 73
     1
 44
1.0
  0
MTEXT
  5
353
330
62
100
AcDbEntity
  8
1
 62
     7
100
AcDbMText
 10
171.5
 20
15.0
 30
0.0
 40
2.5
 41
0.0
 71
     5
 72
     1
  1
株式会社
  7
CONVERTER_11
 73
     1
 44
1.0
  0
MTEXT
  5
354
330
62
100
AcDbEntity
  8
1
 62
     2
100
AcDbMText
 10
32.5
 20
282.0000000000002
 30
0.0
 40
5.0
 41
0.0
 71
     5
 72
     1
  1
図番
  7
CONVERTER_11
 73
     1
 44
0.45454545454545
  0
MTEXT
  5
355
330
62
100
AcDbEntity
  8
1
 62
     2
100
AcDbMText
 10
29.0
 20
34.0
 30
0.0
 40
3.5
 41
0.0
 71
     5
 72
     1
  1
備考
  7
CONVERTER_11
 73
     1
 44
0.45454545454545
  0
MTEXT
  5
356
330
62
100
AcDbEntity
  8
1
 62
     2
100
AcDbMText
 10
29.0
 20
22.75
 30
0.0
 40
3.5
 41
0.0
 71
     5
 72
     1
  1
品名
  7
CONVERTER_11
 73
     1
 44
0.72727272727273
  0
MTEXT
  5
357
330
62
100
AcDbEntity
  8
1
 62
     2
100
AcDbMText
 10
29.0
 20
14.25
 30
0.0
 40
3.5
 41
0.0
 71
     5
 72
     1
  1
品番
  7
CONVERTER_11
 73
     1
 44
0.72727272727273
  0
MTEXT
  5
358
330
62
100
AcDbEntity
  8
1
 62
     2
100
AcDbMText
 10
101.5
 20
25.0
 30
0.0
 40
3.0
 41
0.0
 71
     5
 72
     1
  1
承認
  7
CONVERTER_11
 73
     1
 44
0.59090909090909
  0
MTEXT
  5
359
330
62
100
AcDbEntity
  8
1
 62
     2
100
AcDbMText
 10
175.0
 20
23.5
 30
0.0
 40
3.5
 41
0.0
 71
     5
 72
     1
  1
第三角法
  7
CONVERTER_11
 73
     1
 44
0.54545454545455
  0
MTEXT
  5
35A
330
62
100
AcDbEntity
  8
1
 62
     2
100
AcDbMText
 10
118.5
 20
25.0
 30
0.0
 40
3.0
 41
0.0
 71
     5
 72
     1
  1
検図
  7
CONVERTER_11
 73
     1
 44
0.59090909090909
  0
MTEXT
  5
35B
330
62
100
AcDbEntity
  8
1
 62
     2
100
AcDbMText
 10
152.5
 20
25.0
 30
0.0
 40
3.0
 41
0.0
 71
     5
 72
     1
  1
設計
  7
CONVERTER_11
 73
     1
 44
0.59090909090909
  0
MTEXT
  5
35C
330
62
100
AcDbEntity
  8
1
 62
     2
100
AcDbMText
 10
135.5
 20
25.0
 30
0.0
 40
3.0
 41
0.0
 71
     5
 72
     1
  1
製図
  7
CONVERTER_11
 73
     1
 44
0.59090909090909
  0
MTEXT
  5
35D
330
62
100
AcDbEntity
  8
1
 62
     2
100
AcDbMText
 10
89.5
 20
24.0
 30
0.0
 40
3.5
 41
0.0
 71
     5
 72
     1
  1
尺度
  7
CONVERTER_11
 73
     1
 44
0.54545454545455
  0
MTEXT
  5
35E
330
62
100
AcDbEntity
  8
1
 62
   250
100
AcDbMText
 10
25.0
 20
5.0
 30
0.0
 40
3.5
 41
0.0
 71
     4
 72
     1
  1
備考欄の文字列 原点位置=4
  7
CONVERTER_11
 73
     1
 44
0.54545454545455
  0
ENDBLK
  5
64
330
62
100
AcDbEntity
  8
0
100
AcDbBlockEnd
  0
BLOCK
  5
38F
330
388
100
AcDbEntity
  8
0
100
AcDbBlockBegin
  2
*D11
 70
     1
 10
0.0
 20
0.0
 30
0.0
  3
*D11
  1

  0
LINE
  5
389
330
388
100
AcDbEntity
  8
1
  6
Continuous
 62
     2
100
AcDbLine
 10
132.3059994369065
 20
226.7589760741147
 30
0.0
 11
174.3059994369065
 21
226.7589760741147
 31
0.0
  0
LINE
  5
38A
330
388
100
AcDbEntity
  8
1
  6
Continuous
 62
     2
100
AcDbLine
 10
174.3059994369065
 20
182.5089760741149
 30
0.0
 11
174.3059994369065
 21
227.7589760741147
 31
0.0
  0
LINE
  5
38B
330
388
100
AcDbEntity
  8
1
  6
Continuous
 62
     2
100
AcDbLine
 10
132.3059994369065
 20
211.7589760741147
 30
0.0
 11
132.3059994369065
 21
227.7589760741147
 31
0.0
  0
SOLID
  5
38C
330
388
100
AcDbEntity
  8
1
 62
     2
100
AcDbTrace
 10
135.8059994369065
 20
227.2197598156706
 30
0.0
 11
135.8059994369065
 21
226.2981923325588
 31
0.0
 12
132.3059994369065
 22
226.7589760741147
 32
0.0
 13
132.3059994369065
 23
226.7589760741147
 33
0.0
  0
SOLID
  5
38D
330
388
100
AcDbEntity
  8
1
 62
     2
100
AcDbTrace
 10
170.8059994369065
 20
226.2981923325588
 30
0.0
 11
170.8059994369065
 21
227.2197598156706
 31
0.0
 12
174.3059994369065
 22
226.7589760741147
 32
0.0
 13
174.3059994369065
 23
226.7589760741147
 33
0.0
  0
MTEXT
  5
38E
330
388
100
AcDbEntity
  8
1
 62
     7
100
AcDbMText
 10
143.8559994369065
 20
227.7589760741147
 30
0.0
 40
3.5
 41
0.0
 71
     7
 72
     1
  1
42リフト5
  7
CONVERTER_11
 11
0.9999999999970619
 21
2.424068405545306E-6
 31
0.0
 73
     1
 44
0.45454545454545
  0
ENDBLK
  5
390
330
388
100
AcDbEntity
  8
0
100
AcDbBlockEnd
  0
BLOCK
  5
39A
330
393
100
AcDbEntity
  8
0
100
AcDbBlockBegin
  2
*D12
 70
     1
 10
0.0
 20
0.0
 30
0.0
  3
*D12
  1

  0
LINE
  5
394
330
393
100
AcDbEntity
  8
1
  6
Continuous
 62
     2
100
AcDbLine
 10
35.1531213919335
 20
274.5302817373487
 30
0.0
 11
35.1531213919335
 21
231.5313567373487
 31
0.0
  0
LINE
  5
395
330
393
100
AcDbEntity
  8
1
  6
Continuous
 62
     2
100
AcDbLine
 10
62.61899943690671
 20
231.5313567373487
 30
0.0
 11
34.1531213919335
 21
231.5313567373487
 31
0.0
  0
LINE
  5
396
330
393
100
AcDbEntity
  8
1
  6
Continuous
 62
     2
100
AcDbLine
 10
62.61899943690671
 20
274.5302817373487
 30
0.0
 11
34.1531213919335
 21
274.5302817373487
 31
0.0
  0
SOLID
  5
397
330
393
100
AcDbEntity
  8
1
 62
     2
100
AcDbTrace
 10
35.61390513348939
 20
271.0302817373487
 30
0.0
 11
34.69233765037762
 21
271.0302817373487
 31
0.0
 12
35.1531213919335
 22
274.5302817373487
 32
0.0
 13
35.1531213919335
 23
274.5302817373487
 33
0.0
  0
SOLID
  5
398
330
393
100
AcDbEntity
  8
1
 62
     2
100
AcDbTrace
 10
34.69233765037762
 20
235.0313567373487
 30
0.0
 11
35.61390513348939
 21
235.0313567373487
 31
0.0
 12
35.1531213919335
 22
231.5313567373487
 32
0.0
 13
35.1531213919335
 23
231.5313567373487
 33
0.0
  0
MTEXT
  5
399
330
393
100
AcDbEntity
  8
1
 62
     7
100
AcDbMText
 10
34.1531213919335
 20
249.6358192373487
 30
0.0
 40
3.5
 41
0.0
 71
     7
 72
     1
  1
\C7;{\Fgdt;n}\C7;43
  7
CONVERTER_12
 11
0.0
 21
1.0
 31
0.0
 73
     1
 44
0.60024009603842
  0
ENDBLK
  5
39B
330
393
100
AcDbEntity
  8
0
100
AcDbBlockEnd
  0
BLOCK
  5
3A5
330
39E
100
AcDbEntity
  8
0
100
AcDbBlockBegin
  2
*D13
 70
     1
 10
0.0
 20
0.0
 30
0.0
  3
*D13
  1

  0
LINE
  5
39F
330
39E
100
AcDbEntity
  8
1
  6
Continuous
 62
     2
100
AcDbLine
 10
65.6189244369067
 20
226.7589760741147
 30
0.0
 11
132.3059994369065
 21
226.7589760741147
 31
0.0
  0
LINE
  5
3A0
330
39E
100
AcDbEntity
  8
1
  6
Continuous
 62
     2
100
AcDbLine
 10
132.3059994369065
 20
211.7589760741147
 30
0.0
 11
132.3059994369065
 21
227.7589760741147
 31
0.0
  0
LINE
  5
3A1
330
39E
100
AcDbEntity
  8
1
  6
Continuous
 62
     2
100
AcDbLine
 10
65.6189244369067
 20
199.2584635741154
 30
0.0
 11
65.6189244369067
 21
227.7589760741147
 31
0.0
  0
SOLID
  5
3A2
330
39E
100
AcDbEntity
  8
1
 62
     2
100
AcDbTrace
 10
69.1189244369067
 20
227.2197598156706
 30
0.0
 11
69.1189244369067
 21
226.2981923325588
 31
0.0
 12
65.6189244369067
 22
226.7589760741147
 32
0.0
 13
65.6189244369067
 23
226.7589760741147
 33
0.0
  0
SOLID
  5
3A3
330
39E
100
AcDbEntity
  8
1
 62
     2
100
AcDbTrace
 10
128.8059994369065
 20
226.2981923325588
 30
0.0
 11
128.8059994369065
 21
227.2197598156706
 31
0.0
 12
132.3059994369065
 22
226.7589760741147
 32
0.0
 13
132.3059994369065
 23
226.7589760741147
 33
0.0
  0
MTEXT
  5
3A4
330
39E
100
AcDbEntity
  8
1
 62
     7
100
AcDbMText
 10
86.18746193690659
 20
227.7589760741147
 30
0.0
 40
3.5
 41
0.0
 71
     7
 72
     1
  1
最大70最小65
  7
CONVERTER_11
 11
0.9999999999970619
 21
2.424068405545306E-6
 31
0.0
 73
     1
 44
0.45454545454545
  0
ENDBLK
  5
3A6
330
39E
100
AcDbEntity
  8
0
100
AcDbBlockEnd
  0
BLOCK
  5
3B0
330
3A9
100
AcDbEntity
  8
0
100
AcDbBlockBegin
  2
*D14
 70
     1
 10
0.0
 20
0.0
 30
0.0
  3
*D14
  1

  0
LINE
  5
3AA
330
3A9
100
AcDbEntity
  8
1
  6
Continuous
 62
     2
100
AcDbLine
 10
81.60252215766411
 20
122.4998375
 30
0.0
 11
81.60252215766411
 21
57.5
 31
0.0
  0
LINE
  5
3AB
330
3A9
100
AcDbEntity
  8
1
  6
Continuous
 62
     2
100
AcDbLine
 10
100.102017157664
 20
57.5
 30
0.0
 11
80.60252215766411
 21
57.5
 31
0.0
  0
LINE
  5
3AC
330
3A9
100
AcDbEntity
  8
1
  6
Continuous
 62
     2
100
AcDbLine
 10
103.7639846576638
 20
122.4998375
 30
0.0
 11
80.60252215766411
 21
122.4998375
 31
0.0
  0
SOLID
  5
3AD
330
3A9
100
AcDbEntity
  8
1
 62
     2
100
AcDbTrace
 10
82.06330589922
 20
118.9998375
 30
0.0
 11
81.14173841610823
 21
118.9998375
 31
0.0
 12
81.60252215766411
 22
122.4998375
 32
0.0
 13
81.60252215766411
 23
122.4998375
 33
0.0
  0
SOLID
  5
3AE
330
3A9
100
AcDbEntity
  8
1
 62
     2
100
AcDbTrace
 10
81.14173841610823
 20
61.0
 30
0.0
 11
82.06330589922
 21
61.0
 31
0.0
 12
81.60252215766411
 22
57.5
 32
0.0
 13
81.60252215766411
 23
57.5
 33
0.0
  0
MTEXT
  5
3AF
330
3A9
100
AcDbEntity
  8
1
 62
     7
100
AcDbMText
 10
80.60252215766411
 20
89.875
 30
0.0
 40
3.5
 41
0.0
 71
     7
 72
     1
  1
65
  7
CONVERTER_12
 11
0.0
 21
1.0
 31
0.0
 73
     1
 44
0.60024009603842
  0
ENDBLK
  5
3B1
330
3A9
100
AcDbEntity
  8
0
100
AcDbBlockEnd
  0
ENDSEC
  0
SECTION
  2
ENTITIES
  0
INSERT
  5
65
330
1F
100
AcDbEntity
  8
1
100
AcDbBlockReference
  2
V2110-2-0-13
 10
128.7875562229416
 20
163.0028880496275
 30
0.0
  0
INSERT
  5
66
330
1F
100
AcDbEntity
  8
0
100
AcDbBlockReference
  2
72-206
 10
102.3111885737401
 20
178.7589760741153
 30
0.0
  0
INSERT
  5
67
330
1F
100
AcDbEntity
  8
0
100
AcDbBlockReference
  2
72-207__1
 10
128.4579123059643
 20
273.4058909552161
 30
0.0
  0
INSERT
  5
68
330
1F
100
AcDbEntity
  8
1
100
AcDbBlockReference
  2
72-207__2
 10
77.3809994369064
 20
173.043208409138
 30
0.0
  0
INSERT
  5
69
330
1F
100
AcDbEntity
  8
1
100
AcDbBlockReference
  2
H86F-A
 10
10.63099943690654
 20
223.2589760741153
 30
0.0
  0
INSERT
  5
6A
330
1F
100
AcDbEntity
  8
1
100
AcDbBlockReference
  2
H86F-B__3
 10
6.55073835762695
 20
169.6847624019178
 30
0.0
  0
INSERT
  5
6B
330
1F
100
AcDbEntity
  8
1
100
AcDbBlockReference
  2
H86F-B__4
 10
6.55073835762695
 20
187.8331897463129
 30
0.0
  0
INSERT
  5
6C
330
1F
100
AcDbEntity
  8
1
100
AcDbBlockReference
  2
36-45
 10
316.6139198316107
 20
383.9768765832272
 30
0.0
  0
INSERT
  5
6D
330
1F
100
AcDbEntity
  8
1
100
AcDbBlockReference
  2
37-1-13
 10
130.3920403300564
 20
-14.60953667132793
 30
0.0
  0
INSERT
  5
6E
330
1F
100
AcDbEntity
  8
1
100
AcDbBlockReference
  2
開示A4
 10
0.0
 20
0.0
 30
0.0
  0
LINE
  5
35F
330
1F
100
AcDbEntity
  8
1
  6
DASH_CENTER
 62
     2
100
AcDbLine
 10
88.60252215766411
 20
92.5
 30
0.0
 11
137.6014471576639
 21
92.5
 31
0.0
  0
LINE
  5
360
330
1F
100
AcDbEntity
  8
1
  6
DASH_CENTER
 62
     2
100
AcDbLine
 10
113.101984657664
 20
125.4998375
 30
0.0
 11
113.101984657664
 21
54.5
 31
0.0
  0
LINE
  5
361
330
1F
100
AcDbEntity
  8
1
  6
DASH_CENTER
 62
     2
100
AcDbLine
 10
132.3059994369065
 20
236.7808192373482
 30
0.0
 11
132.3059994369065
 21
269.2808192373483
 31
0.0
  0
LINE
  5
362
330
1F
100
AcDbEntity
  8
1
  6
DASH_CENTER
 62
     2
100
AcDbLine
 10
132.3059994369065
 20
140.7589760741147
 30
0.0
 11
132.3059994369065
 21
211.7589760741147
 31
0.0
  0
LINE
  5
363
330
1F
100
AcDbEntity
  8
1
  6
DASH_CENTER
 62
     2
100
AcDbLine
 10
69.36899943690668
 20
163.7589760741153
 30
0.0
 11
38.36899943690668
 21
163.7589760741153
 31
0.0
  0
LINE
  5
364
330
1F
100
AcDbEntity
  8
1
  6
DASH_CENTER
 62
     2
100
AcDbLine
 10
38.36899943690668
 20
193.7589760741153
 30
0.0
 11
68.86899943690668
 21
193.7589760741153
 31
0.0
  0
LINE
  5
365
330
1F
100
AcDbEntity
  8
1
  6
DASH_CENTER
 62
     2
100
AcDbLine
 10
177.3059994369065
 20
178.7589760741152
 30
0.0
 11
59.61899943690676
 21
178.7589760741154
 31
0.0
  0
LINE
  5
366
330
1F
100
AcDbEntity
  8
1
  6
DASH_CENTER
 62
     2
100
AcDbLine
 10
38.36899943690676
 20
253.0308192373486
 30
0.0
 11
177.3059994369065
 21
253.0308192373486
 31
0.0
  0
LINE
  5
367
330
1F
100
AcDbEntity
  8
0
  6
Continuous
 62
     7
100
AcDbLine
 10
168.421294246158
 20
140.4132442667098
 30
0.0
 11
167.421294246158
 21
140.4132442667098
 31
0.0
  0
LINE
  5
368
330
1F
100
AcDbEntity
  8
0
  6
Continuous
 62
     7
100
AcDbLine
 10
167.421294246158
 20
140.4132442667098
 30
0.0
 11
167.421294246158
 21
143.165656968602
 31
0.0
  0
LINE
  5
369
330
1F
100
AcDbEntity
  8
0
  6
Continuous
 62
     7
100
AcDbLine
 10
168.421294246158
 20
140.4132442667098
 30
0.0
 11
168.421294246158
 21
143.165656968602
 31
0.0
  0
LINE
  5
36A
330
1F
100
AcDbEntity
  8
0
  6
Continuous
 62
     7
100
AcDbLine
 10
167.921294246158
 20
145.4132442667098
 30
0.0
 11
166.6713157185724
 21
142.732656663814
 31
0.0
  0
LINE
  5
36B
330
1F
100
AcDbEntity
  8
0
  6
Continuous
 62
     7
100
AcDbLine
 10
166.6713157185724
 20
142.732656663814
 30
0.0
 11
167.421294246158
 21
143.165656968602
 31
0.0
  0
LINE
  5
36C
330
1F
100
AcDbEntity
  8
0
  6
Continuous
 62
     7
100
AcDbLine
 10
169.1712727737436
 20
142.732656663814
 30
0.0
 11
167.921294246158
 21
145.4132442667098
 31
0.0
  0
LINE
  5
36D
330
1F
100
AcDbEntity
  8
0
  6
Continuous
 62
     7
100
AcDbLine
 10
168.421294246158
 20
143.165656968602
 30
0.0
 11
169.1712727737436
 21
142.732656663814
 31
0.0
  0
LINE
  5
36E
330
1F
100
AcDbEntity
  8
1
  6
Continuous
 62
     2
100
AcDbLine
 10
105.6587524340935
 20
44.75381595202072
 30
0.0
 11
121.1587524340935
 21
44.75381595202072
 31
0.0
  0
SOLID
  5
36F
330
1F
100
AcDbEntity
  8
1
 62
     2
100
AcDbTrace
 10
79.96993651106854
 20
185.3834568581387
 30
0.0
 11
80.76803736274502
 21
184.9226731165828
 31
0.0
 12
78.6189869369068
 22
182.1219760741152
 32
0.0
 13
78.6189869369068
 23
182.1219760741152
 33
0.0
  0
LEADER
  5
370
330
1F
100
AcDbEntity
  8
1
  6
Continuous
 62
     2
100
AcDbLeader
  3
Standard
 71
     0
 76
     3
 10
78.6189869369068
 20
182.1219760741152
 30
0.0
 10
83.95768321894828
 20
191.3688692807901
 30
0.0
 10
105.660176371454
 20
191.3688692807901
 30
0.0
  0
CIRCLE
  5
371
102
{ACAD_REACTORS
330
372
102
}
330
1F
100
AcDbEntity
  8
1
 62
     2
100
AcDbCircle
 10
142.3059994369065
 20
178.7589760741153
 30
0.0
 40
0.875
  0
HATCH
  5
372
330
1F
100
AcDbEntity
  8
1
 62
     2
100
AcDbHatch
 10
0.0
 20
0.0
 30
0.0
210
0.0
220
0.0
230
1.0
  2
SOLID
 70
     1
 71
     1
 91
        1
 92
        1
 93
        1
 72
     2
 10
142.3059994369065
 20
178.7589760741153
 40
0.875
 50
0.0
 51
360.0
 73
     1
 97
        1
330
371
 75
     0
 76
     1
 98
        0
  0
LEADER
  5
373
330
1F
100
AcDbEntity
  8
1
  6
Continuous
 62
     2
100
AcDbLeader
  3
Standard
 71
     0
 76
     3
 10
142.3059994369065
 20
178.7589760741153
 30
0.0
 10
165.3109434219697
 20
138.9132442667098
 30
0.0
 10
170.574445189124
 20
138.9132442667098
 30
0.0
  0
SOLID
  5
374
330
1F
100
AcDbEntity
  8
1
 62
     2
100
AcDbTrace
 10
120.4550498627449
 20
140.4974952900912
 30
0.0
 11
119.6569490110684
 21
140.9582790316471
 31
0.0
 12
121.8059994369066
 22
143.7589760741147
 32
0.0
 13
121.8059994369066
 23
143.7589760741147
 33
0.0
  0
LEADER
  5
375
330
1F
100
AcDbEntity
  8
1
  6
Continuous
 62
     2
100
AcDbLeader
  3
Standard
 71
     0
 76
     3
 10
121.8059994369066
 20
143.7589760741147
 30
0.0
 10
115.1978621720322
 20
132.3133465879631
 30
0.0
 10
99.6230571435937
 20
132.3133465879631
 30
0.0
  0
SOLID
  5
376
330
1F
100
AcDbEntity
  8
1
 62
     2
100
AcDbTrace
 10
119.6569490110684
 20
204.2862452383483
 30
0.0
 11
120.4550498627449
 21
204.7470289799042
 31
0.0
 12
121.8059994369066
 22
201.4855481958807
 32
0.0
 13
121.8059994369066
 23
201.4855481958807
 33
0.0
  0
LEADER
  5
377
330
1F
100
AcDbEntity
  8
1
  6
Continuous
 62
     2
100
AcDbLeader
  3
Standard
 71
     0
 76
     3
 10
121.8059994369066
 20
201.4855481958807
 30
0.0
 10
112.5363682575317
 20
217.5410203659828
 30
0.0
 10
97.53649228312955
 20
217.5410203659828
 30
0.0
  0
SOLID
  5
378
330
1F
100
AcDbEntity
  8
1
 62
     2
100
AcDbTrace
 10
158.3407507886549
 20
194.0013813240159
 30
0.0
 11
159.1323756426067
 21
193.5295585643541
 31
0.0
 12
156.9446383820416
 22
190.7589760741153
 32
0.0
 13
156.9446383820416
 23
190.7589760741153
 33
0.0
  0
LEADER
  5
379
330
1F
100
AcDbEntity
  8
1
  6
Continuous
 62
     2
100
AcDbLeader
  3
Standard
 71
     0
 76
     3
 10
156.9446383820416
 20
190.7589760741153
 30
0.0
 10
164.6928739825087
 20
203.7589760741153
 30
0.0
 10
145.9931853001575
 20
203.7589760741153
 30
0.0
  0
SOLID
  5
37A
330
1F
100
AcDbEntity
  8
1
 62
     2
100
AcDbTrace
 10
187.8059994369065
 20
179.2197598156708
 30
0.0
 11
187.8059994369065
 21
178.298192332559
 31
0.0
 12
184.3059994369065
 22
178.7589760741149
 32
0.0
 13
184.3059994369065
 23
178.7589760741149
 33
0.0
  0
LEADER
  5
37B
330
1F
100
AcDbEntity
  8
1
  6
Continuous
 62
     2
100
AcDbLeader
  3
Standard
 71
     0
 76
     2
 10
184.3059994369065
 20
178.7589760741149
 30
0.0
 10
190.3059994369065
 20
178.7589760741149
 30
0.0
  0
MTEXT
  5
37C
330
1F
100
AcDbEntity
  8
1
 62
     7
100
AcDbMText
 10
57.1012108983688
 20
22.61825614182251
 30
0.0
 40
3.5
 41
0.0
 71
     5
 72
     1
  1
D式止水栓本体
  7
CONVERTER_11
 73
     1
 44
0.54545454545455
  0
MTEXT
  5
37D
330
1F
100
AcDbEntity
  8
1
 62
     7
100
AcDbMText
 10
56.73233721758801
 20
13.9230319752246
 30
0.0
 40
3.5
 41
0.0
 71
     5
 72
     1
  1
V2110D-13×48
  7
CONVERTER_11
 73
     1
 44
0.54545454545455
  0
MTEXT
  5
37E
330
1F
100
AcDbEntity
  8
1
 62
     7
100
AcDbMText
 10
94.80892979520114
 20
194.3688692807901
 30
0.0
 40
3.5
 41
0.0
 71
     5
 72
     1
  1
W1/4山20
  7
CONVERTER_11
 73
     1
 44
0.54545454545455
  0
MTEXT
  5
380
330
1F
100
AcDbEntity
  8
1
 62
     7
100
AcDbMText
 10
107.410459657813
 20
135.3133465879631
 30
0.0
 40
3.5
 41
0.0
 71
     5
 72
     1
  1
Rc1/2
  7
CONVERTER_12
 73
     1
 44
0.7202881152461
  0
MTEXT
  5
381
330
1F
100
AcDbEntity
  8
1
 62
     7
100
AcDbMText
 10
155.9626723205908
 20
206.7589760741153
 30
0.0
 40
3.5
 41
0.0
 71
     5
 72
     1
  1
W24山20
  7
CONVERTER_11
 73
     1
 44
0.54545454545455
  0
MTEXT
  5
382
330
1F
100
AcDbEntity
  8
1
 62
     7
100
AcDbMText
 10
105.0364302703306
 20
220.5410203659828
 30
0.0
 40
3.5
 41
0.0
 71
     5
 72
     1
  1
PJ1/2
  7
CONVERTER_12
 73
     1
 44
0.7202881152461
  0
MTEXT
  5
383
330
1F
100
AcDbEntity
  8
1
 62
     7
100
AcDbMText
 10
85.25
 20
17.0
 30
0.0
 40
3.5
 41
0.0
 71
     5
 72
     1
  1
1
  7
CONVERTER_12
 73
     1
 44
0.7202881152461
  0
MTEXT
  5
384
330
1F
100
AcDbEntity
  8
1
 62
     7
100
AcDbMText
 10
93.75
 20
17.0
 30
0.0
 40
3.5
 41
0.0
 71
     5
 72
     1
  1
1
  7
CONVERTER_12
 73
     1
 44
0.7202881152461
  0
MTEXT
  5
385
330
1F
100
AcDbEntity
  8
1
 62
     7
100
AcDbMText
 10
193.3059994369065
 20
178.7589760741149
 30
0.0
 40
5.0
 41
0.0
 71
     5
 72
     1
  1
A
  7
CONVERTER_12
 73
     1
 44
0.7202881152461
  0
MTEXT
  5
386
330
1F
100
AcDbEntity
  8
1
 62
     7
100
AcDbMText
 10
113.1587524340934
 20
48.25381595202072
 30
0.0
 40
5.0
 41
0.0
 71
     5
 72
     1
  1
矢視A
  7
CONVERTER_11
 73
     1
 44
0.54545454545455
  0
MTEXT
  5
387
330
1F
100
AcDbEntity
  8
1
 62
     7
100
AcDbMText
 10
34.0
 20
34.0
 30
0.0
 40
3.5
 41
0.0
 71
     4
 72
     1
  1
共用形
  7
CONVERTER_11
 73
     1
 44
0.54545454545455
  0
DIMENSION
  5
392
330
1F
100
AcDbEntity
  8
1
100
AcDbDimension
  2
*D11
 10
132.3059994369065
 20
226.7589760741147
 30
0.0
 11
153.3059994369065
 21
229.5089760741147
 31
0.0
 70
    32
  1
42リフト5
 71
     5
 42
-1.0
 53
0.00013888888889
  3
ME10_DIM_10
100
AcDbAlignedDimension
 13
174.3059994369065
 23
182.5089760741149
 33
0.0
 14
132.3059994369065
 24
211.7589760741147
 34
0.0
100
AcDbRotatedDimension
  0
DIMENSION
  5
39D
330
1F
100
AcDbEntity
  8
1
100
AcDbDimension
  2
*D12
 10
35.1531213919335
 20
274.5302817373487
 30
0.0
 11
32.4031213919335
 21
253.0308192373487
 31
0.0
 70
    32
  1
<>
 71
     5
 42
-1.0
 53
90.0
  3
ME10_DIM_11
100
AcDbAlignedDimension
 13
62.61899943690671
 23
231.5313567373487
 33
0.0
 14
62.61899943690671
 24
274.5302817373486
 34
0.0
 50
90.0
100
AcDbRotatedDimension
  0
DIMENSION
  5
3A8
330
1F
100
AcDbEntity
  8
1
100
AcDbDimension
  2
*D13
 10
65.6189244369067
 20
226.7589760741147
 30
0.0
 11
98.96246193690659
 21
229.5089760741147
 31
0.0
 70
    32
  1
最大70最小65
 71
     5
 42
-1.0
 53
0.00013888888889
  3
ME10_DIM_12
100
AcDbAlignedDimension
 13
132.3059994369065
 23
211.7589760741147
 33
0.0
 14
65.6189244369067
 24
199.2584635741154
 34
0.0
100
AcDbRotatedDimension
  0
DIMENSION
  5
3B3
330
1F
100
AcDbEntity
  8
1
100
AcDbDimension
  2
*D14
 10
81.60252215766411
 20
122.4998375
 30
0.0
 11
78.85252215766411
 21
92.5
 31
0.0
 70
    32
  1
<>
 71
     5
 42
-1.0
 53
90.0
  3
ME10_DIM_13
100
AcDbAlignedDimension
 13
100.102017157664
 23
57.5
 33
0.0
 14
103.7639846576638
 24
122.4998375
 34
0.0
 50
90.0
100
AcDbRotatedDimension
  0
ENDSEC
  0
SECTION
  2
OBJECTS
  0
DICTIONARY
  5
C
330
0
100
AcDbDictionary
281
     1
  3
ACAD_GROUP
350
D
  3
ACAD_LAYOUT
350
1A
  3
ACAD_MATERIAL
350
3B
  3
ACAD_MLEADERSTYLE
350
3B6
  3
ACAD_MLINESTYLE
350
17
  3
ACAD_PLOTSETTINGS
350
19
  3
ACAD_PLOTSTYLENAME
350
E
  3
ACAD_VISUALSTYLE
350
2A
  3
AcDbVariableDictionary
350
3B4
  0
DICTIONARY
  5
D
102
{ACAD_REACTORS
330
C
102
}
330
C
100
AcDbDictionary
281
     1
  0
DICTIONARY
  5
1A
102
{ACAD_REACTORS
330
C
102
}
330
C
100
AcDbDictionary
281
     1
  3
Layout1
350
1E
  3
Layout2
350
26
  3
Model
350
22
  0
DICTIONARY
  5
3B
102
{ACAD_REACTORS
330
C
102
}
330
C
100
AcDbDictionary
281
     1
  3
ByBlock
350
3D
  3
ByLayer
350
3C
  3
Global
350
3E
  0
DICTIONARY
  5
3B6
102
{ACAD_REACTORS
330
C
102
}
330
C
100
AcDbDictionary
281
     1
  0
DICTIONARY
  5
17
102
{ACAD_REACTORS
330
C
102
}
330
C
100
AcDbDictionary
281
     1
  3
Standard
350
18
  0
DICTIONARY
  5
19
102
{ACAD_REACTORS
330
C
102
}
330
C
100
AcDbDictionary
281
     1
  0
ACDBDICTIONARYWDFLT
  5
E
102
{ACAD_REACTORS
330
C
102
}
330
C
100
AcDbDictionary
281
     1
  3
Normal
350
F
100
AcDbDictionaryWithDefault
340
F
  0
DICTIONARY
  5
2A
102
{ACAD_REACTORS
330
C
102
}
330
C
100
AcDbDictionary
281
     1
  3
2dWireframe
350
2F
  3
3D Hidden
350
31
  3
3dWireframe
350
30
  3
Basic
350
32
  3
Brighten
350
36
  3
ColorChange
350
3A
  3
Conceptual
350
34
  3
Dim
350
35
  3
Facepattern
350
39
  3
Flat
350
2B
  3
FlatWithEdges
350
2C
  3
Gouraud
350
2D
  3
GouraudWithEdges
350
2E
  3
Linepattern
350
38
  3
Realistic
350
33
  3
Thicken
350
37
  0
DICTIONARY
  5
3B4
102
{ACAD_REACTORS
330
C
102
}
330
C
100
AcDbDictionary
281
     1
  3
DIMASSOC
350
3B7
  3
HIDETEXT
350
3B8
  0
LAYOUT
  5
1E
102
{ACAD_REACTORS
330
1A
102
}
330
1A
100
AcDbPlotSettings
  1

  2
none_device
  4

  6

 40
0.0
 41
0.0
 42
0.0
 43
0.0
 44
0.0
 45
0.0
 46
0.0
 47
0.0
 48
0.0
 49
0.0
140
0.0
141
0.0
142
1.0
143
1.0
 70
   688
 72
     0
 73
     0
 74
     5
  7

 75
    16
147
1.0
148
0.0
149
0.0
100
AcDbLayout
  1
Layout1
 70
     1
 71
     1
 10
0.0
 20
0.0
 11
12.0
 21
9.0
 12
0.0
 22
0.0
 32
0.0
 14
1.00000000000000E+20
 24
1.00000000000000E+20
 34
1.00000000000000E+20
 15
-1.00000000000000E+20
 25
-1.00000000000000E+20
 35
-1.00000000000000E+20
146
0.0
 13
0.0
 23
0.0
 33
0.0
 16
1.0
 26
0.0
 36
0.0
 17
0.0
 27
1.0
 37
0.0
 76
     0
330
1B
  0
LAYOUT
  5
26
102
{ACAD_REACTORS
330
1A
102
}
330
1A
100
AcDbPlotSettings
  1

  2
none_device
  4

  6

 40
0.0
 41
0.0
 42
0.0
 43
0.0
 44
0.0
 45
0.0
 46
0.0
 47
0.0
 48
0.0
 49
0.0
140
0.0
141
0.0
142
1.0
143
1.0
 70
   688
 72
     0
 73
     0
 74
     5
  7

 75
    16
147
1.0
148
0.0
149
0.0
100
AcDbLayout
  1
Layout2
 70
     1
 71
     2
 10
0.0
 20
0.0
 11
0.0
 21
0.0
 12
0.0
 22
0.0
 32
0.0
 14
0.0
 24
0.0
 34
0.0
 15
0.0
 25
0.0
 35
0.0
146
0.0
 13
0.0
 23
0.0
 33
0.0
 16
1.0
 26
0.0
 36
0.0
 17
0.0
 27
1.0
 37
0.0
 76
     0
330
23
  0
LAYOUT
  5
22
102
{ACAD_REACTORS
330
1A
102
}
330
1A
100
AcDbPlotSettings
  1

  2
none_device
  4

  6

 40
0.0
 41
0.0
 42
0.0
 43
0.0
 44
0.0
 45
0.0
 46
0.0
 47
0.0
 48
0.0
 49
0.0
140
0.0
141
0.0
142
1.0
143
1.0
 70
  1712
 72
     0
 73
     0
 74
     0
  7

 75
     0
147
1.0
148
0.0
149
0.0
100
AcDbLayout
  1
Model
 70
     1
 71
     0
 10
0.0
 20
0.0
 11
12.0
 21
9.0
 12
0.0
 22
0.0
 32
0.0
 14
0.0
 24
0.0
 34
0.0
 15
210.0
 25
297.0
 35
0.0
146
0.0
 13
0.0
 23
0.0
 33
0.0
 16
1.0
 26
0.0
 36
0.0
 17
0.0
 27
1.0
 37
0.0
 76
     0
330
1F
331
29
  0
MATERIAL
  5
3D
102
{ACAD_REACTORS
330
3B
102
}
102
{ACAD_XDICTIONARY
360
3DB
102
}
330
3B
100
AcDbMaterial
  1
ByBlock
  0
MATERIAL
  5
3C
102
{ACAD_REACTORS
330
3B
102
}
102
{ACAD_XDICTIONARY
360
3D9
102
}
330
3B
100
AcDbMaterial
  1
ByLayer
  0
MATERIAL
  5
3E
102
{ACAD_REACTORS
330
3B
102
}
102
{ACAD_XDICTIONARY
360
3DD
102
}
330
3B
100
AcDbMaterial
  1
Global
  0
MLINESTYLE
  5
18
102
{ACAD_REACTORS
330
17
102
}
330
17
100
AcDbMlineStyle
  2
Standard
 70
     0
  3

 62
   256
 51
90.0
 52
90.0
 71
     2
 49
0.5
 62
   256
  6
BYLAYER
 49
-0.5
 62
   256
  6
BYLAYER
  0
ACDBPLACEHOLDER
  5
F
102
{ACAD_REACTORS
330
E
102
}
330
E
  0
VISUALSTYLE
  5
2F
102
{ACAD_REACTORS
330
2A
102
}
102
{ACAD_XDICTIONARY
360
3C1
102
}
330
2A
100
AcDbVisualStyle
  2
2dWireframe
 70
     4
 71
     0
 72
     2
 73
     0
 90
        0
 40
-0.6
 41
-30.0
 62
     5
 63
     7
 74
     1
 91
        4
 64
     7
 65
   257
 75
     1
175
     1
 42
1.0
 92
        0
 66
   257
 43
1.0
 76
     1
 77
     6
 78
     2
 67
     7
 79
     5
170
     0
171
     0
290
     0
174
     0
 93
        1
 44
0.0
173
     0
291
     0
 45
0.0
1001
ACAD
1000
AcDbSavedByObjectVersion
1070
     0
  0
VISUALSTYLE
  5
31
102
{ACAD_REACTORS
330
2A
102
}
102
{ACAD_XDICTIONARY
360
3C5
102
}
330
2A
100
AcDbVisualStyle
  2
3D Hidden
 70
     6
 71
     1
 72
     2
 73
     2
 90
        0
 40
-0.6
 41
-30.0
 62
     5
 63
     7
 74
     2
 91
        2
 64
     7
 65
   257
 75
     2
175
     1
 42
40.0
 92
        0
 66
   257
 43
1.0
 76
     1
 77
     6
 78
     2
 67
     7
 79
     3
170
     0
171
     0
290
     0
174
     0
 93
        1
 44
0.0
173
     0
291
     0
 45
0.0
1001
ACAD
1000
AcDbSavedByObjectVersion
1070
     0
  0
VISUALSTYLE
  5
30
102
{ACAD_REACTORS
330
2A
102
}
102
{ACAD_XDICTIONARY
360
3C3
102
}
330
2A
100
AcDbVisualStyle
  2
3dWireframe
 70
     5
 71
     0
 72
     2
 73
     0
 90
        0
 40
-0.6
 41
-30.0
 62
     5
 63
     7
 74
     1
 91
        4
 64
     7
 65
   257
 75
     1
175
     1
 42
1.0
 92
        0
 66
   257
 43
1.0
 76
     1
 77
     6
 78
     2
 67
     7
 79
     5
170
     0
171
     0
290
     0
174
     0
 93
        1
 44
0.0
173
     0
291
     0
 45
0.0
1001
ACAD
1000
AcDbSavedByObjectVersion
1070
     0
  0
VISUALSTYLE
  5
32
102
{ACAD_REACTORS
330
2A
102
}
102
{ACAD_XDICTIONARY
360
3C7
102
}
330
2A
100
AcDbVisualStyle
  2
Basic
 70
     7
 71
     1
 72
     0
 73
     1
 90
        0
 40
-0.6
 41
-30.0
 62
     5
 63
     7
 74
     0
 91
        4
 64
     7
 65
   257
 75
     1
175
     1
 42
1.0
 92
        8
 66
     7
 43
1.0
 76
     1
 77
     6
 78
     2
 67
     7
 79
     5
170
     0
171
     0
290
     0
174
     0
 93
        1
 44
0.0
173
     0
291
     1
 45
0.0
1001
ACAD
1000
AcDbSavedByObjectVersion
1070
     0
  0
VISUALSTYLE
  5
36
102
{ACAD_REACTORS
330
2A
102
}
102
{ACAD_XDICTIONARY
360
3CF
102
}
330
2A
100
AcDbVisualStyle
  2
Brighten
 70
    12
 71
     2
 72
     2
 73
     0
 90
        0
 40
-0.6
 41
-30.0
 62
     5
 63
     7
 74
     1
 91
        4
 64
     7
 65
   257
 75
     1
175
     1
 42
1.0
 92
        8
 66
     7
 43
1.0
 76
     1
 77
     6
 78
     2
 67
     7
 79
     5
170
     0
171
     0
290
     0
174
     0
 93
        1
 44
50.0
173
     0
291
     1
 45
0.0
1001
ACAD
1000
AcDbSavedByObjectVersion
1070
     0
  0
VISUALSTYLE
  5
3A
102
{ACAD_REACTORS
330
2A
102
}
102
{ACAD_XDICTIONARY
360
3D7
102
}
330
2A
100
AcDbVisualStyle
  2
ColorChange
 70
    16
 71
     2
 72
     2
 73
     3
 90
        0
 40
-0.6
 41
-30.0
 62
     5
 63
     8
 74
     1
 91
        4
 64
     7
 65
   257
 75
     1
175
     1
 42
1.0
 92
        8
 66
     8
 43
1.0
 76
     1
 77
     6
 78
     2
 67
     7
 79
     5
170
     0
171
     0
290
     0
174
     0
 93
        1
 44
0.0
173
     0
291
     1
 45
0.0
1001
ACAD
1000
AcDbSavedByObjectVersion
1070
     0
  0
VISUALSTYLE
  5
34
102
{ACAD_REACTORS
330
2A
102
}
102
{ACAD_XDICTIONARY
360
3CB
102
}
330
2A
100
AcDbVisualStyle
  2
Conceptual
 70
     9
 71
     3
 72
     2
 73
     0
 90
        0
 40
-0.6
 41
-30.0
 62
     5
 63
     7
 74
     2
 91
        2
 64
     7
 65
   257
 75
     1
175
     1
 42
40.0
 92
        8
 66
     7
 43
1.0
 76
     1
 77
     6
 78
     2
 67
     7
 79
     3
170
     0
171
     0
290
     0
174
     0
 93
        1
 44
0.0
173
     0
291
     0
 45
0.0
1001
ACAD
1000
AcDbSavedByObjectVersion
1070
     0
  0
VISUALSTYLE
  5
35
102
{ACAD_REACTORS
330
2A
102
}
102
{ACAD_XDICTIONARY
360
3CD
102
}
330
2A
100
AcDbVisualStyle
  2
Dim
 70
    11
 71
     2
 72
     2
 73
     0
 90
        0
 40
-0.6
 41
-30.0
 62
     5
 63
     7
 74
     1
 91
        4
 64
     7
 65
   257
 75
     1
175
     1
 42
1.0
 92
        8
 66
     7
 43
1.0
 76
     1
 77
     6
 78
     2
 67
     7
 79
     5
170
     0
171
     0
290
     0
174
     0
 93
        1
 44
-50.0
173
     0
291
     1
 45
0.0
1001
ACAD
1000
AcDbSavedByObjectVersion
1070
     0
  0
VISUALSTYLE
  5
39
102
{ACAD_REACTORS
330
2A
102
}
102
{ACAD_XDICTIONARY
360
3D5
102
}
330
2A
100
AcDbVisualStyle
  2
Facepattern
 70
    15
 71
     2
 72
     2
 73
     0
 90
        0
 40
-0.6
 41
-30.0
 62
     5
 63
     7
 74
     1
 91
        4
 64
     7
 65
   257
 75
     1
175
     1
 42
1.0
 92
        8
 66
     7
 43
1.0
 76
     1
 77
     6
 78
     2
 67
     7
 79
     5
170
     0
171
     0
290
     0
174
     0
 93
        1
 44
0.0
173
     0
291
     1
 45
0.0
1001
ACAD
1000
AcDbSavedByObjectVersion
1070
     0
  0
VISUALSTYLE
  5
2B
102
{ACAD_REACTORS
330
2A
102
}
102
{ACAD_XDICTIONARY
360
3B9
102
}
330
2A
100
AcDbVisualStyle
  2
Flat
 70
     0
 71
     2
 72
     1
 73
     1
 90
        2
 40
-0.6
 41
30.0
 62
     5
 63
     7
 74
     0
 91
        4
 64
     7
 65
   257
 75
     1
175
     1
 42
1.0
 92
        8
 66
     7
 43
1.0
 76
     1
 77
     6
 78
     2
 67
     7
 79
     5
170
     0
171
     0
290
     0
174
     0
 93
       13
 44
0.0
173
     0
291
     1
 45
0.0
1001
ACAD
1000
AcDbSavedByObjectVersion
1070
     0
  0
VISUALSTYLE
  5
2C
102
{ACAD_REACTORS
330
2A
102
}
102
{ACAD_XDICTIONARY
360
3BB
102
}
330
2A
100
AcDbVisualStyle
  2
FlatWithEdges
 70
     1
 71
     2
 72
     1
 73
     1
 90
        2
 40
-0.6
 41
30.0
 62
     5
 63
     7
 74
     1
 91
        4
 64
     7
 65
   257
 75
     1
175
     1
 42
1.0
 92
        0
 66
   257
 43
1.0
 76
     1
 77
     6
 78
     2
 67
     7
 79
     5
170
     0
171
     0
290
     0
174
     0
 93
       13
 44
0.0
173
     0
291
     1
 45
0.0
1001
ACAD
1000
AcDbSavedByObjectVersion
1070
     0
  0
VISUALSTYLE
  5
2D
102
{ACAD_REACTORS
330
2A
102
}
102
{ACAD_XDICTIONARY
360
3BD
102
}
330
2A
100
AcDbVisualStyle
  2
Gouraud
 70
     2
 71
     2
 72
     2
 73
     1
 90
        2
 40
-0.6
 41
30.0
 62
     5
 63
     7
 74
     0
 91
        4
 64
     7
 65
   257
 75
     1
175
     1
 42
1.0
 92
        0
 66
     7
 43
1.0
 76
     1
 77
     6
 78
     2
 67
     7
 79
     5
170
     0
171
     0
290
     0
174
     0
 93
       13
 44
0.0
173
     0
291
     1
 45
0.0
1001
ACAD
1000
AcDbSavedByObjectVersion
1070
     0
  0
VISUALSTYLE
  5
2E
102
{ACAD_REACTORS
330
2A
102
}
102
{ACAD_XDICTIONARY
360
3BF
102
}
330
2A
100
AcDbVisualStyle
  2
GouraudWithEdges
 70
     3
 71
     2
 72
     2
 73
     1
 90
        2
 40
-0.6
 41
30.0
 62
     5
 63
     7
 74
     1
 91
        4
 64
     7
 65
   257
 75
     1
175
     1
 42
1.0
 92
        0
 66
   257
 43
1.0
 76
     1
 77
     6
 78
     2
 67
     7
 79
     5
170
     0
171
     0
290
     0
174
     0
 93
       13
 44
0.0
173
     0
291
     1
 45
0.0
1001
ACAD
1000
AcDbSavedByObjectVersion
1070
     0
  0
VISUALSTYLE
  5
38
102
{ACAD_REACTORS
330
2A
102
}
102
{ACAD_XDICTIONARY
360
3D3
102
}
330
2A
100
AcDbVisualStyle
  2
Linepattern
 70
    14
 71
     2
 72
     2
 73
     0
 90
        0
 40
-0.6
 41
-30.0
 62
     5
 63
     7
 74
     1
 91
        4
 64
     7
 65
   257
 75
     7
175
     7
 42
1.0
 92
        8
 66
     7
 43
1.0
 76
     1
 77
     6
 78
     2
 67
     7
 79
     5
170
     0
171
     0
290
     0
174
     0
 93
        1
 44
0.0
173
     0
291
     1
 45
0.0
1001
ACAD
1000
AcDbSavedByObjectVersion
1070
     0
  0
VISUALSTYLE
  5
33
102
{ACAD_REACTORS
330
2A
102
}
102
{ACAD_XDICTIONARY
360
3C9
102
}
330
2A
100
AcDbVisualStyle
  2
Realistic
 70
     8
 71
     2
 72
     2
 73
     0
 90
        0
 40
-0.6
 41
-30.0
 62
     5
 63
     7
 74
     1
 91
        0
 64
     7
 65
   257
 75
     1
175
     1
 42
1.0
 92
        8
 66
     8
 43
1.0
 76
     1
 77
     6
 78
     2
 67
     7
 79
     5
170
     0
171
     0
290
     0
174
     0
 93
       13
 44
0.0
173
     0
291
     0
 45
0.0
1001
ACAD
1000
AcDbSavedByObjectVersion
1070
     0
  0
VISUALSTYLE
  5
37
102
{ACAD_REACTORS
330
2A
102
}
102
{ACAD_XDICTIONARY
360
3D1
102
}
330
2A
100
AcDbVisualStyle
  2
Thicken
 70
    13
 71
     2
 72
     2
 73
     0
 90
        0
 40
-0.6
 41
-30.0
 62
     5
 63
     7
 74
     1
 91
        4
 64
     7
 65
   257
 75
     1
175
     1
 42
1.0
 92
       12
 66
     7
 43
1.0
 76
     1
 77
     6
 78
     2
 67
     7
 79
     5
170
     0
171
     0
290
     0
174
     0
 93
        1
 44
0.0
173
     0
291
     1
 45
0.0
1001
ACAD
1000
AcDbSavedByObjectVersion
1070
     0
  0
DICTIONARYVAR
  5
3B7
102
{ACAD_REACTORS
330
3B4
102
}
330
3B4
100
DictionaryVariables
280
     0
  1
2
  0
DICTIONARYVAR
  5
3B8
102
{ACAD_REACTORS
330
3B4
102
}
330
3B4
100
DictionaryVariables
280
     0
  1
1
  0
DICTIONARY
  5
3DB
330
3D
100
AcDbDictionary
280
     1
281
     1
  3
ACAD_XREC_ROUNDTRIP
360
3DC
  0
DICTIONARY
  5
3D9
330
3C
100
AcDbDictionary
280
     1
281
     1
  3
ACAD_XREC_ROUNDTRIP
360
3DA
  0
DICTIONARY
  5
3DD
330
3E
100
AcDbDictionary
280
     1
281
     1
  3
ACAD_XREC_ROUNDTRIP
360
3DE
  0
DICTIONARY
  5
3C1
330
2F
100
AcDbDictionary
280
     1
281
     1
  3
ACAD_XREC_ROUNDTRIP
360
3C2
  0
DICTIONARY
  5
3C5
330
31
100
AcDbDictionary
280
     1
281
     1
  3
ACAD_XREC_ROUNDTRIP
360
3C6
  0
DICTIONARY
  5
3C3
330
30
100
AcDbDictionary
280
     1
281
     1
  3
ACAD_XREC_ROUNDTRIP
360
3C4
  0
DICTIONARY
  5
3C7
330
32
100
AcDbDictionary
280
     1
281
     1
  3
ACAD_XREC_ROUNDTRIP
360
3C8
  0
DICTIONARY
  5
3CF
330
36
100
AcDbDictionary
280
     1
281
     1
  3
ACAD_XREC_ROUNDTRIP
360
3D0
  0
DICTIONARY
  5
3D7
330
3A
100
AcDbDictionary
280
     1
281
     1
  3
ACAD_XREC_ROUNDTRIP
360
3D8
  0
DICTIONARY
  5
3CB
330
34
100
AcDbDictionary
280
     1
281
     1
  3
ACAD_XREC_ROUNDTRIP
360
3CC
  0
DICTIONARY
  5
3CD
330
35
100
AcDbDictionary
280
     1
281
     1
  3
ACAD_XREC_ROUNDTRIP
360
3CE
  0
DICTIONARY
  5
3D5
330
39
100
AcDbDictionary
280
     1
281
     1
  3
ACAD_XREC_ROUNDTRIP
360
3D6
  0
DICTIONARY
  5
3B9
330
2B
100
AcDbDictionary
280
     1
281
     1
  3
ACAD_XREC_ROUNDTRIP
360
3BA
  0
DICTIONARY
  5
3BB
330
2C
100
AcDbDictionary
280
     1
281
     1
  3
ACAD_XREC_ROUNDTRIP
360
3BC
  0
DICTIONARY
  5
3BD
330
2D
100
AcDbDictionary
280
     1
281
     1
  3
ACAD_XREC_ROUNDTRIP
360
3BE
  0
DICTIONARY
  5
3BF
330
2E
100
AcDbDictionary
280
     1
281
     1
  3
ACAD_XREC_ROUNDTRIP
360
3C0
  0
DICTIONARY
  5
3D3
330
38
100
AcDbDictionary
280
     1
281
     1
  3
ACAD_XREC_ROUNDTRIP
360
3D4
  0
DICTIONARY
  5
3C9
330
33
100
AcDbDictionary
280
     1
281
     1
  3
ACAD_XREC_ROUNDTRIP
360
3CA
  0
DICTIONARY
  5
3D1
330
37
100
AcDbDictionary
280
     1
281
     1
  3
ACAD_XREC_ROUNDTRIP
360
3D2
  0
XRECORD
  5
3DC
102
{ACAD_REACTORS
330
3DB
102
}
330
3DB
100
AcDbXrecord
280
     1
102
MATERIAL
148
0.0
149
0.0
149
0.0
 93
        0
 94
      127
282
     0
 72
     1
 77
     1
171
     1
175
     1
179
     1
273
     0
  0
XRECORD
  5
3DA
102
{ACAD_REACTORS
330
3D9
102
}
330
3D9
100
AcDbXrecord
280
     1
102
MATERIAL
148
0.0
149
0.0
149
0.0
 93
        0
 94
      127
282
     0
 72
     1
 77
     1
171
     1
175
     1
179
     1
273
     0
  0
XRECORD
  5
3DE
102
{ACAD_REACTORS
330
3DD
102
}
330
3DD
100
AcDbXrecord
280
     1
102
MATERIAL
148
0.0
149
0.0
149
0.0
 93
        0
 94
      127
282
     0
 72
     1
 77
     1
171
     1
175
     1
179
     1
273
     0
  0
XRECORD
  5
3C2
102
{ACAD_REACTORS
330
3C1
102
}
330
3C1
100
AcDbXrecord
280
     1
102
RTVSPropertyOp0
 70
     1
102
RTVSPropertyOp1
 70
     1
102
RTVSPropertyOp2
 70
     1
102
RTVSPropertyOp3
 70
     1
102
RTVSPropertyOp4
 70
     1
102
RTVSPropertyOp5
 70
     1
102
RTVSPropertyOp6
 70
     1
102
RTVSPropertyOp7
 70
     1
102
RTVSPropertyOp8
 70
     1
102
RTVSPropertyOp9
 70
     1
102
RTVSPropertyOp10
 70
     1
102
RTVSPropertyOp11
 70
     1
102
RTVSPropertyOp12
 70
     1
102
RTVSPropertyOp13
 70
     1
102
RTVSPropertyOp14
 70
     1
102
RTVSPropertyOp15
 70
     1
102
RTVSPropertyOp16
 70
     1
102
RTVSPropertyOp17
 70
     1
102
RTVSPropertyOp18
 70
     1
102
RTVSPropertyOp19
 70
     1
102
RTVSPropertyOp20
 70
     1
102
RTVSPropertyOp21
 70
     1
102
RTVSPropertyOp22
 70
     1
102
RTVSPropertyOp23
 70
     1
102
RTVSPropertyOp24
 70
     1
102
RTVSPropertyOp25
 70
     1
102
RTVSPropertyOp26
 70
     1
102
RTVSPropertyOp27
 70
     1
102
RTVSPropertyOp28
 70
     1
102
RTVSPropertyOp29
 70
     1
102
RTVSPropertyOp30
 70
     1
102
RTVSPropertyOp31
 70
     1
102
RTVSPropertyOp32
 70
     1
  0
XRECORD
  5
3C6
102
{ACAD_REACTORS
330
3C5
102
}
330
3C5
100
AcDbXrecord
280
     1
102
RTVSPropertyOp0
 70
     1
102
RTVSPropertyOp1
 70
     1
102
RTVSPropertyOp2
 70
     1
102
RTVSPropertyOp3
 70
     1
102
RTVSPropertyOp4
 70
     1
102
RTVSPropertyOp5
 70
     1
102
RTVSPropertyOp6
 70
     1
102
RTVSPropertyOp7
 70
     1
102
RTVSPropertyOp8
 70
     1
102
RTVSPropertyOp9
 70
     1
102
RTVSPropertyOp10
 70
     1
102
RTVSPropertyOp11
 70
     1
102
RTVSPropertyOp12
 70
     1
102
RTVSPropertyOp13
 70
     1
102
RTVSPropertyOp14
 70
     1
102
RTVSPropertyOp15
 70
     1
102
RTVSPropertyOp16
 70
     1
102
RTVSPropertyOp17
 70
     1
102
RTVSPropertyOp18
 70
     1
102
RTVSPropertyOp19
 70
     1
102
RTVSPropertyOp20
 70
     1
102
RTVSPropertyOp21
 70
     1
102
RTVSPropertyOp22
 70
     1
102
RTVSPropertyOp23
 70
     1
102
RTVSPropertyOp24
 70
     1
102
RTVSPropertyOp25
 70
     1
102
RTVSPropertyOp26
 70
     1
102
RTVSPropertyOp27
 70
     1
102
RTVSPropertyOp28
 70
     1
102
RTVSPropertyOp29
 70
     1
102
RTVSPropertyOp30
 70
     1
102
RTVSPropertyOp31
 70
     1
102
RTVSPropertyOp32
 70
     1
  0
XRECORD
  5
3C4
102
{ACAD_REACTORS
330
3C3
102
}
330
3C3
100
AcDbXrecord
280
     1
102
RTVSPropertyOp0
 70
     1
102
RTVSPropertyOp1
 70
     1
102
RTVSPropertyOp2
 70
     1
102
RTVSPropertyOp3
 70
     1
102
RTVSPropertyOp4
 70
     1
102
RTVSPropertyOp5
 70
     1
102
RTVSPropertyOp6
 70
     1
102
RTVSPropertyOp7
 70
     1
102
RTVSPropertyOp8
 70
     1
102
RTVSPropertyOp9
 70
     1
102
RTVSPropertyOp10
 70
     1
102
RTVSPropertyOp11
 70
     1
102
RTVSPropertyOp12
 70
     1
102
RTVSPropertyOp13
 70
     1
102
RTVSPropertyOp14
 70
     1
102
RTVSPropertyOp15
 70
     1
102
RTVSPropertyOp16
 70
     1
102
RTVSPropertyOp17
 70
     1
102
RTVSPropertyOp18
 70
     1
102
RTVSPropertyOp19
 70
     1
102
RTVSPropertyOp20
 70
     1
102
RTVSPropertyOp21
 70
     1
102
RTVSPropertyOp22
 70
     1
102
RTVSPropertyOp23
 70
     1
102
RTVSPropertyOp24
 70
     1
102
RTVSPropertyOp25
 70
     1
102
RTVSPropertyOp26
 70
     1
102
RTVSPropertyOp27
 70
     1
102
RTVSPropertyOp28
 70
     1
102
RTVSPropertyOp29
 70
     1
102
RTVSPropertyOp30
 70
     1
102
RTVSPropertyOp31
 70
     1
102
RTVSPropertyOp32
 70
     1
  0
XRECORD
  5
3C8
102
{ACAD_REACTORS
330
3C7
102
}
330
3C7
100
AcDbXrecord
280
     1
102
RTVSPropertyOp0
 70
     1
102
RTVSPropertyOp1
 70
     1
102
RTVSPropertyOp2
 70
     1
102
RTVSPropertyOp3
 70
     1
102
RTVSPropertyOp4
 70
     1
102
RTVSPropertyOp5
 70
     1
102
RTVSPropertyOp6
 70
     1
102
RTVSPropertyOp7
 70
     1
102
RTVSPropertyOp8
 70
     1
102
RTVSPropertyOp9
 70
     1
102
RTVSPropertyOp10
 70
     1
102
RTVSPropertyOp11
 70
     1
102
RTVSPropertyOp12
 70
     1
102
RTVSPropertyOp13
 70
     1
102
RTVSPropertyOp14
 70
     1
102
RTVSPropertyOp15
 70
     1
102
RTVSPropertyOp16
 70
     1
102
RTVSPropertyOp17
 70
     1
102
RTVSPropertyOp18
 70
     1
102
RTVSPropertyOp19
 70
     1
102
RTVSPropertyOp20
 70
     1
102
RTVSPropertyOp21
 70
     1
102
RTVSPropertyOp22
 70
     1
102
RTVSPropertyOp23
 70
     1
102
RTVSPropertyOp24
 70
     1
102
RTVSPropertyOp25
 70
     1
102
RTVSPropertyOp26
 70
     1
102
RTVSPropertyOp27
 70
     1
102
RTVSPropertyOp28
 70
     1
102
RTVSPropertyOp29
 70
     1
102
RTVSPropertyOp30
 70
     1
102
RTVSPropertyOp31
 70
     1
102
RTVSPropertyOp32
 70
     1
  0
XRECORD
  5
3D0
102
{ACAD_REACTORS
330
3CF
102
}
330
3CF
100
AcDbXrecord
280
     1
102
RTVSPropertyOp0
 70
     1
102
RTVSPropertyOp1
 70
     1
102
RTVSPropertyOp2
 70
     1
102
RTVSPropertyOp3
 70
     1
102
RTVSPropertyOp4
 70
     1
102
RTVSPropertyOp5
 70
     1
102
RTVSPropertyOp6
 70
     1
102
RTVSPropertyOp7
 70
     1
102
RTVSPropertyOp8
 70
     1
102
RTVSPropertyOp9
 70
     1
102
RTVSPropertyOp10
 70
     1
102
RTVSPropertyOp11
 70
     1
102
RTVSPropertyOp12
 70
     1
102
RTVSPropertyOp13
 70
     1
102
RTVSPropertyOp14
 70
     1
102
RTVSPropertyOp15
 70
     1
102
RTVSPropertyOp16
 70
     1
102
RTVSPropertyOp17
 70
     1
102
RTVSPropertyOp18
 70
     1
102
RTVSPropertyOp19
 70
     1
102
RTVSPropertyOp20
 70
     1
102
RTVSPropertyOp21
 70
     1
102
RTVSPropertyOp22
 70
     1
102
RTVSPropertyOp23
 70
     1
102
RTVSPropertyOp24
 70
     1
102
RTVSPropertyOp25
 70
     1
102
RTVSPropertyOp26
 70
     1
102
RTVSPropertyOp27
 70
     1
102
RTVSPropertyOp28
 70
     1
102
RTVSPropertyOp29
 70
     1
102
RTVSPropertyOp30
 70
     1
102
RTVSPropertyOp31
 70
     1
102
RTVSPropertyOp32
 70
     1
  0
XRECORD
  5
3D8
102
{ACAD_REACTORS
330
3D7
102
}
330
3D7
100
AcDbXrecord
280
     1
102
RTVSPropertyOp0
 70
     1
102
RTVSPropertyOp1
 70
     1
102
RTVSPropertyOp2
 70
     1
102
RTVSPropertyOp3
 70
     1
102
RTVSPropertyOp4
 70
     1
102
RTVSPropertyOp5
 70
     1
102
RTVSPropertyOp6
 70
     1
102
RTVSPropertyOp7
 70
     1
102
RTVSPropertyOp8
 70
     1
102
RTVSPropertyOp9
 70
     1
102
RTVSPropertyOp10
 70
     1
102
RTVSPropertyOp11
 70
     1
102
RTVSPropertyOp12
 70
     1
102
RTVSPropertyOp13
 70
     1
102
RTVSPropertyOp14
 70
     1
102
RTVSPropertyOp15
 70
     1
102
RTVSPropertyOp16
 70
     1
102
RTVSPropertyOp17
 70
     1
102
RTVSPropertyOp18
 70
     1
102
RTVSPropertyOp19
 70
     1
102
RTVSPropertyOp20
 70
     1
102
RTVSPropertyOp21
 70
     1
102
RTVSPropertyOp22
 70
     1
102
RTVSPropertyOp23
 70
     1
102
RTVSPropertyOp24
 70
     1
102
RTVSPropertyOp25
 70
     1
102
RTVSPropertyOp26
 70
     1
102
RTVSPropertyOp27
 70
     1
102
RTVSPropertyOp28
 70
     1
102
RTVSPropertyOp29
 70
     1
102
RTVSPropertyOp30
 70
     1
102
RTVSPropertyOp31
 70
     1
102
RTVSPropertyOp32
 70
     1
  0
XRECORD
  5
3CC
102
{ACAD_REACTORS
330
3CB
102
}
330
3CB
100
AcDbXrecord
280
     1
102
RTVSPropertyOp0
 70
     1
102
RTVSPropertyOp1
 70
     1
102
RTVSPropertyOp2
 70
     1
102
RTVSPropertyOp3
 70
     1
102
RTVSPropertyOp4
 70
     1
102
RTVSPropertyOp5
 70
     1
102
RTVSPropertyOp6
 70
     1
102
RTVSPropertyOp7
 70
     1
102
RTVSPropertyOp8
 70
     1
102
RTVSPropertyOp9
 70
     1
102
RTVSPropertyOp10
 70
     1
102
RTVSPropertyOp11
 70
     1
102
RTVSPropertyOp12
 70
     1
102
RTVSPropertyOp13
 70
     1
102
RTVSPropertyOp14
 70
     1
102
RTVSPropertyOp15
 70
     1
102
RTVSPropertyOp16
 70
     1
102
RTVSPropertyOp17
 70
     1
102
RTVSPropertyOp18
 70
     1
102
RTVSPropertyOp19
 70
     1
102
RTVSPropertyOp20
 70
     1
102
RTVSPropertyOp21
 70
     1
102
RTVSPropertyOp22
 70
     1
102
RTVSPropertyOp23
 70
     1
102
RTVSPropertyOp24
 70
     1
102
RTVSPropertyOp25
 70
     1
102
RTVSPropertyOp26
 70
     1
102
RTVSPropertyOp27
 70
     1
102
RTVSPropertyOp28
 70
     1
102
RTVSPropertyOp29
 70
     1
102
RTVSPropertyOp30
 70
     1
102
RTVSPropertyOp31
 70
     1
102
RTVSPropertyOp32
 70
     1
  0
XRECORD
  5
3CE
102
{ACAD_REACTORS
330
3CD
102
}
330
3CD
100
AcDbXrecord
280
     1
102
RTVSPropertyOp0
 70
     1
102
RTVSPropertyOp1
 70
     1
102
RTVSPropertyOp2
 70
     1
102
RTVSPropertyOp3
 70
     1
102
RTVSPropertyOp4
 70
     1
102
RTVSPropertyOp5
 70
     1
102
RTVSPropertyOp6
 70
     1
102
RTVSPropertyOp7
 70
     1
102
RTVSPropertyOp8
 70
     1
102
RTVSPropertyOp9
 70
     1
102
RTVSPropertyOp10
 70
     1
102
RTVSPropertyOp11
 70
     1
102
RTVSPropertyOp12
 70
     1
102
RTVSPropertyOp13
 70
     1
102
RTVSPropertyOp14
 70
     1
102
RTVSPropertyOp15
 70
     1
102
RTVSPropertyOp16
 70
     1
102
RTVSPropertyOp17
 70
     1
102
RTVSPropertyOp18
 70
     1
102
RTVSPropertyOp19
 70
     1
102
RTVSPropertyOp20
 70
     1
102
RTVSPropertyOp21
 70
     1
102
RTVSPropertyOp22
 70
     1
102
RTVSPropertyOp23
 70
     1
102
RTVSPropertyOp24
 70
     1
102
RTVSPropertyOp25
 70
     1
102
RTVSPropertyOp26
 70
     1
102
RTVSPropertyOp27
 70
     1
102
RTVSPropertyOp28
 70
     1
102
RTVSPropertyOp29
 70
     1
102
RTVSPropertyOp30
 70
     1
102
RTVSPropertyOp31
 70
     1
102
RTVSPropertyOp32
 70
     1
  0
XRECORD
  5
3D6
102
{ACAD_REACTORS
330
3D5
102
}
330
3D5
100
AcDbXrecord
280
     1
102
RTVSPropertyOp0
 70
     1
102
RTVSPropertyOp1
 70
     1
102
RTVSPropertyOp2
 70
     1
102
RTVSPropertyOp3
 70
     1
102
RTVSPropertyOp4
 70
     1
102
RTVSPropertyOp5
 70
     1
102
RTVSPropertyOp6
 70
     1
102
RTVSPropertyOp7
 70
     1
102
RTVSPropertyOp8
 70
     1
102
RTVSPropertyOp9
 70
     1
102
RTVSPropertyOp10
 70
     1
102
RTVSPropertyOp11
 70
     1
102
RTVSPropertyOp12
 70
     1
102
RTVSPropertyOp13
 70
     1
102
RTVSPropertyOp14
 70
     1
102
RTVSPropertyOp15
 70
     1
102
RTVSPropertyOp16
 70
     1
102
RTVSPropertyOp17
 70
     1
102
RTVSPropertyOp18
 70
     1
102
RTVSPropertyOp19
 70
     1
102
RTVSPropertyOp20
 70
     1
102
RTVSPropertyOp21
 70
     1
102
RTVSPropertyOp22
 70
     1
102
RTVSPropertyOp23
 70
     1
102
RTVSPropertyOp24
 70
     1
102
RTVSPropertyOp25
 70
     1
102
RTVSPropertyOp26
 70
     1
102
RTVSPropertyOp27
 70
     1
102
RTVSPropertyOp28
 70
     1
102
RTVSPropertyOp29
 70
     1
102
RTVSPropertyOp30
 70
     1
102
RTVSPropertyOp31
 70
     1
102
RTVSPropertyOp32
 70
     1
  0
XRECORD
  5
3BA
102
{ACAD_REACTORS
330
3B9
102
}
330
3B9
100
AcDbXrecord
280
     1
102
RTVSPropertyOp0
 70
     1
102
RTVSPropertyOp1
 70
     1
102
RTVSPropertyOp2
 70
     1
102
RTVSPropertyOp3
 70
     1
102
RTVSPropertyOp4
 70
     1
102
RTVSPropertyOp5
 70
     1
102
RTVSPropertyOp6
 70
     1
102
RTVSPropertyOp7
 70
     1
102
RTVSPropertyOp8
 70
     1
102
RTVSPropertyOp9
 70
     1
102
RTVSPropertyOp10
 70
     1
102
RTVSPropertyOp11
 70
     1
102
RTVSPropertyOp12
 70
     1
102
RTVSPropertyOp13
 70
     1
102
RTVSPropertyOp14
 70
     1
102
RTVSPropertyOp15
 70
     1
102
RTVSPropertyOp16
 70
     1
102
RTVSPropertyOp17
 70
     1
102
RTVSPropertyOp18
 70
     1
102
RTVSPropertyOp19
 70
     1
102
RTVSPropertyOp20
 70
     1
102
RTVSPropertyOp21
 70
     1
102
RTVSPropertyOp22
 70
     1
102
RTVSPropertyOp23
 70
     1
102
RTVSPropertyOp24
 70
     1
102
RTVSPropertyOp25
 70
     1
102
RTVSPropertyOp26
 70
     1
102
RTVSPropertyOp27
 70
     1
102
RTVSPropertyOp28
 70
     1
102
RTVSPropertyOp29
 70
     1
102
RTVSPropertyOp30
 70
     1
102
RTVSPropertyOp31
 70
     1
102
RTVSPropertyOp32
 70
     1
  0
XRECORD
  5
3BC
102
{ACAD_REACTORS
330
3BB
102
}
330
3BB
100
AcDbXrecord
280
     1
102
RTVSPropertyOp0
 70
     1
102
RTVSPropertyOp1
 70
     1
102
RTVSPropertyOp2
 70
     1
102
RTVSPropertyOp3
 70
     1
102
RTVSPropertyOp4
 70
     1
102
RTVSPropertyOp5
 70
     1
102
RTVSPropertyOp6
 70
     1
102
RTVSPropertyOp7
 70
     1
102
RTVSPropertyOp8
 70
     1
102
RTVSPropertyOp9
 70
     1
102
RTVSPropertyOp10
 70
     1
102
RTVSPropertyOp11
 70
     1
102
RTVSPropertyOp12
 70
     1
102
RTVSPropertyOp13
 70
     1
102
RTVSPropertyOp14
 70
     1
102
RTVSPropertyOp15
 70
     1
102
RTVSPropertyOp16
 70
     1
102
RTVSPropertyOp17
 70
     1
102
RTVSPropertyOp18
 70
     1
102
RTVSPropertyOp19
 70
     1
102
RTVSPropertyOp20
 70
     1
102
RTVSPropertyOp21
 70
     1
102
RTVSPropertyOp22
 70
     1
102
RTVSPropertyOp23
 70
     1
102
RTVSPropertyOp24
 70
     1
102
RTVSPropertyOp25
 70
     1
102
RTVSPropertyOp26
 70
     1
102
RTVSPropertyOp27
 70
     1
102
RTVSPropertyOp28
 70
     1
102
RTVSPropertyOp29
 70
     1
102
RTVSPropertyOp30
 70
     1
102
RTVSPropertyOp31
 70
     1
102
RTVSPropertyOp32
 70
     1
  0
XRECORD
  5
3BE
102
{ACAD_REACTORS
330
3BD
102
}
330
3BD
100
AcDbXrecord
280
     1
102
RTVSPropertyOp0
 70
     1
102
RTVSPropertyOp1
 70
     1
102
RTVSPropertyOp2
 70
     1
102
RTVSPropertyOp3
 70
     1
102
RTVSPropertyOp4
 70
     1
102
RTVSPropertyOp5
 70
     1
102
RTVSPropertyOp6
 70
     1
102
RTVSPropertyOp7
 70
     1
102
RTVSPropertyOp8
 70
     1
102
RTVSPropertyOp9
 70
     1
102
RTVSPropertyOp10
 70
     1
102
RTVSPropertyOp11
 70
     1
102
RTVSPropertyOp12
 70
     1
102
RTVSPropertyOp13
 70
     1
102
RTVSPropertyOp14
 70
     1
102
RTVSPropertyOp15
 70
     1
102
RTVSPropertyOp16
 70
     1
102
RTVSPropertyOp17
 70
     1
102
RTVSPropertyOp18
 70
     1
102
RTVSPropertyOp19
 70
     1
102
RTVSPropertyOp20
 70
     1
102
RTVSPropertyOp21
 70
     1
102
RTVSPropertyOp22
 70
     1
102
RTVSPropertyOp23
 70
     1
102
RTVSPropertyOp24
 70
     1
102
RTVSPropertyOp25
 70
     1
102
RTVSPropertyOp26
 70
     1
102
RTVSPropertyOp27
 70
     1
102
RTVSPropertyOp28
 70
     1
102
RTVSPropertyOp29
 70
     1
102
RTVSPropertyOp30
 70
     1
102
RTVSPropertyOp31
 70
     1
102
RTVSPropertyOp32
 70
     1
  0
XRECORD
  5
3C0
102
{ACAD_REACTORS
330
3BF
102
}
330
3BF
100
AcDbXrecord
280
     1
102
RTVSPropertyOp0
 70
     1
102
RTVSPropertyOp1
 70
     1
102
RTVSPropertyOp2
 70
     1
102
RTVSPropertyOp3
 70
     1
102
RTVSPropertyOp4
 70
     1
102
RTVSPropertyOp5
 70
     1
102
RTVSPropertyOp6
 70
     1
102
RTVSPropertyOp7
 70
     1
102
RTVSPropertyOp8
 70
     1
102
RTVSPropertyOp9
 70
     1
102
RTVSPropertyOp10
 70
     1
102
RTVSPropertyOp11
 70
     1
102
RTVSPropertyOp12
 70
     1
102
RTVSPropertyOp13
 70
     1
102
RTVSPropertyOp14
 70
     1
102
RTVSPropertyOp15
 70
     1
102
RTVSPropertyOp16
 70
     1
102
RTVSPropertyOp17
 70
     1
102
RTVSPropertyOp18
 70
     1
102
RTVSPropertyOp19
 70
     1
102
RTVSPropertyOp20
 70
     1
102
RTVSPropertyOp21
 70
     1
102
RTVSPropertyOp22
 70
     1
102
RTVSPropertyOp23
 70
     1
102
RTVSPropertyOp24
 70
     1
102
RTVSPropertyOp25
 70
     1
102
RTVSPropertyOp26
 70
     1
102
RTVSPropertyOp27
 70
     1
102
RTVSPropertyOp28
 70
     1
102
RTVSPropertyOp29
 70
     1
102
RTVSPropertyOp30
 70
     1
102
RTVSPropertyOp31
 70
     1
102
RTVSPropertyOp32
 70
     1
  0
XRECORD
  5
3D4
102
{ACAD_REACTORS
330
3D3
102
}
330
3D3
100
AcDbXrecord
280
     1
102
RTVSPropertyOp0
 70
     1
102
RTVSPropertyOp1
 70
     1
102
RTVSPropertyOp2
 70
     1
102
RTVSPropertyOp3
 70
     1
102
RTVSPropertyOp4
 70
     1
102
RTVSPropertyOp5
 70
     1
102
RTVSPropertyOp6
 70
     1
102
RTVSPropertyOp7
 70
     1
102
RTVSPropertyOp8
 70
     1
102
RTVSPropertyOp9
 70
     1
102
RTVSPropertyOp10
 70
     1
102
RTVSPropertyOp11
 70
     1
102
RTVSPropertyOp12
 70
     1
102
RTVSPropertyOp13
 70
     1
102
RTVSPropertyOp14
 70
     1
102
RTVSPropertyOp15
 70
     1
102
RTVSPropertyOp16
 70
     1
102
RTVSPropertyOp17
 70
     1
102
RTVSPropertyOp18
 70
     1
102
RTVSPropertyOp19
 70
     1
102
RTVSPropertyOp20
 70
     1
102
RTVSPropertyOp21
 70
     1
102
RTVSPropertyOp22
 70
     1
102
RTVSPropertyOp23
 70
     1
102
RTVSPropertyOp24
 70
     1
102
RTVSPropertyOp25
 70
     1
102
RTVSPropertyOp26
 70
     1
102
RTVSPropertyOp27
 70
     1
102
RTVSPropertyOp28
 70
     1
102
RTVSPropertyOp29
 70
     1
102
RTVSPropertyOp30
 70
     1
102
RTVSPropertyOp31
 70
     1
102
RTVSPropertyOp32
 70
     1
  0
XRECORD
  5
3CA
102
{ACAD_REACTORS
330
3C9
102
}
330
3C9
100
AcDbXrecord
280
     1
102
RTVSPropertyOp0
 70
     1
102
RTVSPropertyOp1
 70
     1
102
RTVSPropertyOp2
 70
     1
102
RTVSPropertyOp3
 70
     1
102
RTVSPropertyOp4
 70
     1
102
RTVSPropertyOp5
 70
     1
102
RTVSPropertyOp6
 70
     1
102
RTVSPropertyOp7
 70
     1
102
RTVSPropertyOp8
 70
     1
102
RTVSPropertyOp9
 70
     1
102
RTVSPropertyOp10
 70
     1
102
RTVSPropertyOp11
 70
     1
102
RTVSPropertyOp12
 70
     1
102
RTVSPropertyOp13
 70
     1
102
RTVSPropertyOp14
 70
     1
102
RTVSPropertyOp15
 70
     1
102
RTVSPropertyOp16
 70
     1
102
RTVSPropertyOp17
 70
     1
102
RTVSPropertyOp18
 70
     1
102
RTVSPropertyOp19
 70
     1
102
RTVSPropertyOp20
 70
     1
102
RTVSPropertyOp21
 70
     1
102
RTVSPropertyOp22
 70
     1
102
RTVSPropertyOp23
 70
     1
102
RTVSPropertyOp24
 70
     1
102
RTVSPropertyOp25
 70
     1
102
RTVSPropertyOp26
 70
     1
102
RTVSPropertyOp27
 70
     1
102
RTVSPropertyOp28
 70
     1
102
RTVSPropertyOp29
 70
     1
102
RTVSPropertyOp30
 70
     1
102
RTVSPropertyOp31
 70
     1
102
RTVSPropertyOp32
 70
     1
  0
XRECORD
  5
3D2
102
{ACAD_REACTORS
330
3D1
102
}
330
3D1
100
AcDbXrecord
280
     1
102
RTVSPropertyOp0
 70
     1
102
RTVSPropertyOp1
 70
     1
102
RTVSPropertyOp2
 70
     1
102
RTVSPropertyOp3
 70
     1
102
RTVSPropertyOp4
 70
     1
102
RTVSPropertyOp5
 70
     1
102
RTVSPropertyOp6
 70
     1
102
RTVSPropertyOp7
 70
     1
102
RTVSPropertyOp8
 70
     1
102
RTVSPropertyOp9
 70
     1
102
RTVSPropertyOp10
 70
     1
102
RTVSPropertyOp11
 70
     1
102
RTVSPropertyOp12
 70
     1
102
RTVSPropertyOp13
 70
     1
102
RTVSPropertyOp14
 70
     1
102
RTVSPropertyOp15
 70
     1
102
RTVSPropertyOp16
 70
     1
102
RTVSPropertyOp17
 70
     1
102
RTVSPropertyOp18
 70
     1
102
RTVSPropertyOp19
 70
     1
102
RTVSPropertyOp20
 70
     1
102
RTVSPropertyOp21
 70
     1
102
RTVSPropertyOp22
 70
     1
102
RTVSPropertyOp23
 70
     1
102
RTVSPropertyOp24
 70
     1
102
RTVSPropertyOp25
 70
     1
102
RTVSPropertyOp26
 70
     1
102
RTVSPropertyOp27
 70
     1
102
RTVSPropertyOp28
 70
     1
102
RTVSPropertyOp29
 70
     1
102
RTVSPropertyOp30
 70
     1
102
RTVSPropertyOp31
 70
     1
102
RTVSPropertyOp32
 70
     1
  0
ENDSEC
  0
EOF
