  0
SECTION
  2
HEADER
  9
$ACADVER
  1
AC1015
  9
$ACADMAINTVER
 70
     6
  9
$DWGCODEPAGE
  3
ANSI_932
  9
$INSBASE
 10
0.0
 20
0.0
 30
0.0
  9
$EXTMIN
 10
0.0
 20
0.0
 30
0.0
  9
$EXTMAX
 10
420.0
 20
594.0
 30
0.0
  9
$LIMMIN
 10
0.0
 20
0.0
  9
$LIMMAX
 10
12.0
 20
9.0
  9
$ORTHOMODE
 70
     0
  9
$REGENMODE
 70
     1
  9
$FILLMODE
 70
     1
  9
$QTEXTMODE
 70
     0
  9
$MIRRTEXT
 70
     1
  9
$LTSCALE
 40
1.0
  9
$ATTMODE
 70
     1
  9
$TEXTSIZE
 40
0.2
  9
$TRACEWID
 40
0.05
  9
$TEXTSTYLE
  7
Standard
  9
$CLAYER
  8
0
  9
$CELTYPE
  6
ByLayer
  9
$CECOLOR
 62
   256
  9
$CELTSCALE
 40
1.0
  9
$DISPSILH
 70
     0
  9
$DIMSCALE
 40
1.0
  9
$DIMASZ
 40
0.18
  9
$DIMEXO
 40
0.0625
  9
$DIMDLI
 40
0.38
  9
$DIMRND
 40
0.0
  9
$DIMDLE
 40
0.0
  9
$DIMEXE
 40
0.18
  9
$DIMTP
 40
0.0
  9
$DIMTM
 40
0.0
  9
$DIMTXT
 40
0.18
  9
$DIMCEN
 40
0.09
  9
$DIMTSZ
 40
0.0
  9
$DIMTOL
 70
     0
  9
$DIMLIM
 70
     0
  9
$DIMTIH
 70
     1
  9
$DIMTOH
 70
     1
  9
$DIMSE1
 70
     0
  9
$DIMSE2
 70
     0
  9
$DIMTAD
 70
     0
  9
$DIMZIN
 70
     0
  9
$DIMBLK
  1

  9
$DIMASO
 70
     1
  9
$DIMSHO
 70
     1
  9
$DIMPOST
  1

  9
$DIMAPOST
  1

  9
$DIMALT
 70
     0
  9
$DIMALTD
 70
     2
  9
$DIMALTF
 40
25.4
  9
$DIMLFAC
 40
1.0
  9
$DIMTOFL
 70
     0
  9
$DIMTVP
 40
0.0
  9
$DIMTIX
 70
     0
  9
$DIMSOXD
 70
     0
  9
$DIMSAH
 70
     0
  9
$DIMBLK1
  1

  9
$DIMBLK2
  1

  9
$DIMSTYLE
  2
Standard
  9
$DIMCLRD
 70
     0
  9
$DIMCLRE
 70
     0
  9
$DIMCLRT
 70
     0
  9
$DIMTFAC
 40
1.0
  9
$DIMGAP
 40
0.09
  9
$DIMJUST
 70
     0
  9
$DIMSD1
 70
     0
  9
$DIMSD2
 70
     0
  9
$DIMTOLJ
 70
     1
  9
$DIMTZIN
 70
     0
  9
$DIMALTZ
 70
     0
  9
$DIMALTTZ
 70
     0
  9
$DIMUPT
 70
     0
  9
$DIMDEC
 70
     4
  9
$DIMTDEC
 70
     4
  9
$DIMALTU
 70
     2
  9
$DIMALTTD
 70
     2
  9
$DIMTXSTY
  7
Standard
  9
$DIMAUNIT
 70
     0
  9
$DIMADEC
 70
     0
  9
$DIMALTRND
 40
0.0
  9
$DIMAZIN
 70
     0
  9
$DIMDSEP
 70
    46
  9
$DIMATFIT
 70
     3
  9
$DIMFRAC
 70
     0
  9
$DIMLDRBLK
  1

  9
$DIMLUNIT
 70
     2
  9
$DIMLWD
 70
    -2
  9
$DIMLWE
 70
    -2
  9
$DIMTMOVE
 70
     0
  9
$LUNITS
 70
     2
  9
$LUPREC
 70
     4
  9
$SKETCHINC
 40
0.1
  9
$FILLETRAD
 40
0.5
  9
$AUNITS
 70
     0
  9
$AUPREC
 70
     0
  9
$MENU
  1
.
  9
$ELEVATION
 40
0.0
  9
$PELEVATION
 40
0.0
  9
$THICKNESS
 40
0.0
  9
$LIMCHECK
 70
     0
  9
$CHAMFERA
 40
0.5
  9
$CHAMFERB
 40
0.5
  9
$CHAMFERC
 40
1.0
  9
$CHAMFERD
 40
0.0
  9
$SKPOLY
 70
     0
  9
$TDCREATE
 40
2456563.498300822
  9
$TDUCREATE
 40
2456563.123300822
  9
$TDUPDATE
 40
2456563.49830191
  9
$TDUUPDATE
 40
2456563.12330191
  9
$TDINDWG
 40
0.0000000116
  9
$TDUSRTIMER
 40
0.0000000116
  9
$USRTIMER
 70
     1
  9
$ANGBASE
 50
0.0
  9
$ANGDIR
 70
     0
  9
$PDMODE
 70
     0
  9
$PDSIZE
 40
0.0
  9
$PLINEWID
 40
0.0
  9
$SPLFRAME
 70
     0
  9
$SPLINETYPE
 70
     6
  9
$SPLINESEGS
 70
     8
  9
$HANDSEED
  5
4A4
  9
$SURFTAB1
 70
     6
  9
$SURFTAB2
 70
     6
  9
$SURFTYPE
 70
     6
  9
$SURFU
 70
     6
  9
$SURFV
 70
     6
  9
$UCSBASE
  2

  9
$UCSNAME
  2

  9
$UCSORG
 10
0.0
 20
0.0
 30
0.0
  9
$UCSXDIR
 10
1.0
 20
0.0
 30
0.0
  9
$UCSYDIR
 10
0.0
 20
1.0
 30
0.0
  9
$UCSORTHOREF
  2

  9
$UCSORTHOVIEW
 70
     0
  9
$UCSORGTOP
 10
0.0
 20
0.0
 30
0.0
  9
$UCSORGBOTTOM
 10
0.0
 20
0.0
 30
0.0
  9
$UCSORGLEFT
 10
0.0
 20
0.0
 30
0.0
  9
$UCSORGRIGHT
 10
0.0
 20
0.0
 30
0.0
  9
$UCSORGFRONT
 10
0.0
 20
0.0
 30
0.0
  9
$UCSORGBACK
 10
0.0
 20
0.0
 30
0.0
  9
$PUCSBASE
  2

  9
$PUCSNAME
  2

  9
$PUCSORG
 10
0.0
 20
0.0
 30
0.0
  9
$PUCSXDIR
 10
1.0
 20
0.0
 30
0.0
  9
$PUCSYDIR
 10
0.0
 20
1.0
 30
0.0
  9
$PUCSORTHOREF
  2

  9
$PUCSORTHOVIEW
 70
     0
  9
$PUCSORGTOP
 10
0.0
 20
0.0
 30
0.0
  9
$PUCSORGBOTTOM
 10
0.0
 20
0.0
 30
0.0
  9
$PUCSORGLEFT
 10
0.0
 20
0.0
 30
0.0
  9
$PUCSORGRIGHT
 10
0.0
 20
0.0
 30
0.0
  9
$PUCSORGFRONT
 10
0.0
 20
0.0
 30
0.0
  9
$PUCSORGBACK
 10
0.0
 20
0.0
 30
0.0
  9
$USERI1
 70
     0
  9
$USERI2
 70
     0
  9
$USERI3
 70
     0
  9
$USERI4
 70
     0
  9
$USERI5
 70
     0
  9
$USERR1
 40
18.1
  9
$USERR2
 40
0.0
  9
$USERR3
 40
0.0
  9
$USERR4
 40
0.0
  9
$USERR5
 40
0.0
  9
$WORLDVIEW
 70
     1
  9
$SHADEDGE
 70
     3
  9
$SHADEDIF
 70
    70
  9
$TILEMODE
 70
     1
  9
$MAXACTVP
 70
    64
  9
$PINSBASE
 10
0.0
 20
0.0
 30
0.0
  9
$PLIMCHECK
 70
     0
  9
$PEXTMIN
 10
1.00000000000000E+20
 20
1.00000000000000E+20
 30
1.00000000000000E+20
  9
$PEXTMAX
 10
-1.00000000000000E+20
 20
-1.00000000000000E+20
 30
-1.00000000000000E+20
  9
$PLIMMIN
 10
0.0
 20
0.0
  9
$PLIMMAX
 10
12.0
 20
9.0
  9
$UNITMODE
 70
     0
  9
$VISRETAIN
 70
     1
  9
$PLINEGEN
 70
     0
  9
$PSLTSCALE
 70
     1
  9
$TREEDEPTH
 70
  3020
  9
$CMLSTYLE
  2
Standard
  9
$CMLJUST
 70
     0
  9
$CMLSCALE
 40
1.0
  9
$PROXYGRAPHICS
 70
     1
  9
$MEASUREMENT
 70
     1
  9
$CELWEIGHT
370
    -1
  9
$ENDCAPS
280
     0
  9
$JOINSTYLE
280
     0
  9
$LWDISPLAY
290
     0
  9
$INSUNITS
 70
     4
  9
$HYPERLINKBASE
  1

  9
$STYLESHEET
  1

  9
$XEDIT
290
     1
  9
$CEPSNTYPE
380
     0
  9
$PSTYLEMODE
290
     1
  9
$FINGERPRINTGUID
  2
{8BCCA28A-F038-4E18-A898-B1386C2498A4}
  9
$VERSIONGUID
  2
{FAEB1C32-E019-11D5-929B-00C0DF256EC4}
  9
$EXTNAMES
290
     1
  9
$PSVPSCALE
 40
0.0
  9
$OLESTARTUP
290
     0
  0
ENDSEC
  0
SECTION
  2
CLASSES
  0
CLASS
  1
ACDBDICTIONARYWDFLT
  2
AcDbDictionaryWithDefault
  3
ObjectDBX Classes
 90
        0
280
     0
281
     0
  0
CLASS
  1
VISUALSTYLE
  2
AcDbVisualStyle
  3
ObjectDBX Classes
 90
     4095
280
     0
281
     0
  0
CLASS
  1
MATERIAL
  2
AcDbMaterial
  3
ObjectDBX Classes
 90
     1153
280
     0
281
     0
  0
CLASS
  1
DICTIONARYVAR
  2
AcDbDictionaryVar
  3
ObjectDBX Classes
 90
        0
280
     0
281
     0
  0
CLASS
  1
ACDBPLACEHOLDER
  2
AcDbPlaceHolder
  3
ObjectDBX Classes
 90
        0
280
     0
281
     0
  0
CLASS
  1
LAYOUT
  2
AcDbLayout
  3
ObjectDBX Classes
 90
        0
280
     0
281
     0
  0
ENDSEC
  0
SECTION
  2
TABLES
  0
TABLE
  2
VPORT
  5
8
330
0
100
AcDbSymbolTable
 70
     1
  0
VPORT
  5
29
330
8
100
AcDbSymbolTableRecord
100
AcDbViewportTableRecord
  2
*Active
 70
     0
 10
0.0
 20
0.0
 11
1.0
 21
1.0
 12
210.0
 22
297.0
 13
0.0
 23
0.0
 14
0.5
 24
0.5
 15
0.5
 25
0.5
 16
0.0
 26
0.0
 36
1.0
 17
0.0
 27
0.0
 37
0.0
 40
653.4000000000001
 41
1.60267857142857
 42
50.0
 43
0.0
 44
0.0
 50
0.0
 51
0.0
 71
     0
 72
   100
 73
     1
 74
     3
 75
     0
 76
     0
 77
     0
 78
     0
281
     0
 65
     1
110
0.0
120
0.0
130
0.0
111
1.0
121
0.0
131
0.0
112
0.0
122
1.0
132
0.0
 79
     0
146
0.0
  0
ENDTAB
  0
TABLE
  2
LTYPE
  5
5
330
0
100
AcDbSymbolTable
 70
     8
  0
LTYPE
  5
14
330
5
100
AcDbSymbolTableRecord
100
AcDbLinetypeTableRecord
  2
ByBlock
 70
     0
  3

 72
    65
 73
     0
 40
0.0
  0
LTYPE
  5
15
330
5
100
AcDbSymbolTableRecord
100
AcDbLinetypeTableRecord
  2
ByLayer
 70
     0
  3

 72
    65
 73
     0
 40
0.0
  0
LTYPE
  5
16
330
5
100
AcDbSymbolTableRecord
100
AcDbLinetypeTableRecord
  2
Continuous
 70
     0
  3
Solid line
 72
    65
 73
     0
 40
0.0
  0
LTYPE
  5
3F
330
5
100
AcDbSymbolTableRecord
100
AcDbLinetypeTableRecord
  2
DASHED
 70
     0
  3
Dashed
 72
    65
 73
     2
 40
15.0
 49
7.0
 74
     0
 49
-8.0
 74
     0
  0
LTYPE
  5
40
330
5
100
AcDbSymbolTableRecord
100
AcDbLinetypeTableRecord
  2
DOTTED
 70
     0
  3
Dotted
 72
    65
 73
     2
 40
1.0
 49
0.0
 74
     0
 49
-1.0
 74
     0
  0
LTYPE
  5
41
330
5
100
AcDbSymbolTableRecord
100
AcDbLinetypeTableRecord
  2
DOT_CENTER
 70
     0
  3
Dot_Center
 72
    65
 73
     4
 40
14.0
 49
12.0
 74
     0
 49
-1.0
 74
     0
 49
0.0
 74
     0
 49
-1.0
 74
     0
  0
LTYPE
  5
42
330
5
100
AcDbSymbolTableRecord
100
AcDbLinetypeTableRecord
  2
LONG_DASHED
 70
     0
  3
Long_Dashed
 72
    65
 73
     2
 40
15.0
 49
10.0
 74
     0
 49
-5.0
 74
     0
  0
LTYPE
  5
43
330
5
100
AcDbSymbolTableRecord
100
AcDbLinetypeTableRecord
  2
DASH_CENTER
 70
     0
  3
Dash_Center
 72
    65
 73
     4
 40
14.0
 49
11.0
 74
     0
 49
-1.0
 74
     0
 49
1.0
 74
     0
 49
-1.0
 74
     0
  0
LTYPE
  5
44
330
5
100
AcDbSymbolTableRecord
100
AcDbLinetypeTableRecord
  2
PHANTOM
 70
     0
  3
Phantom
 72
    65
 73
     6
 40
13.0
 49
10.0
 74
     0
 49
-1.0
 74
     0
 49
0.0
 74
     0
 49
-1.0
 74
     0
 49
0.0
 74
     0
 49
-1.0
 74
     0
  0
LTYPE
  5
45
330
5
100
AcDbSymbolTableRecord
100
AcDbLinetypeTableRecord
  2
CENTER_DASH_DASH
 70
     0
  3
Center_Dash_Dash
 72
    65
 73
     6
 40
14.0
 49
9.0
 74
     0
 49
-1.0
 74
     0
 49
1.0
 74
     0
 49
-1.0
 74
     0
 49
1.0
 74
     0
 49
-1.0
 74
     0
  0
ENDTAB
  0
TABLE
  2
LAYER
  5
2
330
0
100
AcDbSymbolTable
 70
     2
  0
LAYER
  5
10
330
2
100
AcDbSymbolTableRecord
100
AcDbLayerTableRecord
  2
0
 70
     0
 62
     7
  6
Continuous
370
    -3
390
F
  0
LAYER
  5
46
330
2
100
AcDbSymbolTableRecord
100
AcDbLayerTableRecord
  2
1
 70
     0
 62
     7
  6
Continuous
370
    -3
390
F
  0
ENDTAB
  0
TABLE
  2
STYLE
  5
3
330
0
100
AcDbSymbolTable
 70
     3
  0
STYLE
  5
11
330
3
100
AcDbSymbolTableRecord
100
AcDbTextStyleTableRecord
  2
Standard
 70
     0
 40
0.0
 41
1.0
 50
0.0
 71
     0
 42
0.2
  3
txt
  4

  0
STYLE
  5
35F
330
3
100
AcDbSymbolTableRecord
100
AcDbTextStyleTableRecord
  2
CONVERTER_11
 70
     0
 40
0.0
 41
0.89
 50
0.0
 71
     0
 42
0.2
  3
MS Mincho.ttf
  4

1001
ACAD
1000
MS Mincho
1071
    32785
  0
STYLE
  5
42F
330
3
100
AcDbSymbolTableRecord
100
AcDbTextStyleTableRecord
  2
CONVERTER_12
 70
     0
 40
0.0
 41
0.9
 50
0.0
 71
     0
 42
0.2
  3
txt.shx
  4

  0
ENDTAB
  0
TABLE
  2
VIEW
  5
6
330
0
100
AcDbSymbolTable
 70
     0
  0
ENDTAB
  0
TABLE
  2
UCS
  5
7
330
0
100
AcDbSymbolTable
 70
     0
  0
ENDTAB
  0
TABLE
  2
APPID
  5
9
330
0
100
AcDbSymbolTable
 70
     1
  0
APPID
  5
12
330
9
100
AcDbSymbolTableRecord
100
AcDbRegAppTableRecord
  2
ACAD
 70
     0
  0
ENDTAB
  0
TABLE
  2
DIMSTYLE
  5
A
330
0
100
AcDbSymbolTable
 70
     7
100
AcDbDimStyleTable
  0
DIMSTYLE
105
27
330
A
100
AcDbSymbolTableRecord
100
AcDbDimStyleTableRecord
  2
Standard
 70
     0
178
     0
340
11
  0
DIMSTYLE
105
440
102
{ACAD_REACTORS
330
441
102
}
330
A
100
AcDbSymbolTableRecord
100
AcDbDimStyleTableRecord
  2
ME10_DIM_10
 70
     0
 41
7.0
 42
0.0
 44
2.0
 73
     0
 74
     0
 77
     1
 78
     8
140
7.0
147
2.0
172
     1
173
     1
174
     1
175
     1
176
     2
177
     2
271
     2
178
     7
271
     2
340
42F
  0
DIMSTYLE
105
44B
102
{ACAD_REACTORS
330
44C
102
}
330
A
100
AcDbSymbolTableRecord
100
AcDbDimStyleTableRecord
  2
ME10_DIM_11
 70
     0
 41
7.0
 42
0.0
 44
2.0
 73
     0
 74
     0
 77
     1
 78
     8
140
7.0
147
2.0
172
     1
173
     1
174
     1
175
     1
176
     2
177
     2
271
     2
178
     7
271
     2
340
42F
  0
DIMSTYLE
105
456
102
{ACAD_REACTORS
330
457
102
}
330
A
100
AcDbSymbolTableRecord
100
AcDbDimStyleTableRecord
  2
ME10_DIM_12
 70
     0
 41
7.0
 42
0.0
 44
2.0
 73
     0
 74
     0
 77
     1
 78
     8
140
7.0
147
2.0
172
     1
173
     1
174
     1
175
     1
176
     2
177
     2
271
     2
178
     7
271
     2
340
35F
  0
DIMSTYLE
105
461
102
{ACAD_REACTORS
330
462
102
}
330
A
100
AcDbSymbolTableRecord
100
AcDbDimStyleTableRecord
  2
ME10_DIM_13
 70
     0
  3
{\Fgdt;n}<>
 41
7.0
 42
0.0
 44
2.0
 73
     0
 74
     0
 77
     1
 78
     8
140
7.0
147
2.0
172
     1
173
     1
174
     1
175
     1
176
     2
177
     2
271
     2
178
     7
271
     2
340
42F
  0
DIMSTYLE
105
46C
102
{ACAD_REACTORS
330
46D
102
}
330
A
100
AcDbSymbolTableRecord
100
AcDbDimStyleTableRecord
  2
ME10_DIM_14
 70
     0
 41
7.0
 42
0.0
 44
2.0
 73
     0
 74
     0
 77
     1
 78
     8
140
7.0
147
2.0
172
     1
173
     1
174
     1
175
     1
176
     2
177
     2
271
     2
178
     7
271
     2
340
42F
  0
DIMSTYLE
105
477
102
{ACAD_REACTORS
330
478
102
}
330
A
100
AcDbSymbolTableRecord
100
AcDbDimStyleTableRecord
  2
ME10_DIM_15
 70
     0
 41
7.0
 42
0.0
 44
2.0
 73
     0
 74
     0
 77
     1
 78
     8
140
7.0
147
2.0
172
     1
173
     1
174
     1
175
     1
176
     2
177
     2
271
     2
178
     7
271
     2
340
42F
  0
ENDTAB
  0
TABLE
  2
BLOCK_RECORD
  5
1
330
0
100
AcDbSymbolTable
 70
    22
  0
BLOCK_RECORD
  5
1F
330
1
100
AcDbSymbolTableRecord
100
AcDbBlockTableRecord
  2
*Model_Space
340
22
  0
BLOCK_RECORD
  5
1B
330
1
100
AcDbSymbolTableRecord
100
AcDbBlockTableRecord
  2
*Paper_Space
340
1E
  0
BLOCK_RECORD
  5
23
330
1
100
AcDbSymbolTableRecord
100
AcDbBlockTableRecord
  2
*Paper_Space0
340
26
  0
BLOCK_RECORD
  5
47
330
1
100
AcDbSymbolTableRecord
100
AcDbBlockTableRecord
  2
V2110-1-0
340
0
102
{BLKREFS
331
7E
102
}
  0
BLOCK_RECORD
  5
4A
330
1
100
AcDbSymbolTableRecord
100
AcDbBlockTableRecord
  2
H862-A
340
0
102
{BLKREFS
331
57
102
}
  0
BLOCK_RECORD
  5
4D
330
1
100
AcDbSymbolTableRecord
100
AcDbBlockTableRecord
  2
H862-L
340
0
102
{BLKREFS
331
58
102
}
  0
BLOCK_RECORD
  5
50
330
1
100
AcDbSymbolTableRecord
100
AcDbBlockTableRecord
  2
H86F-A
340
0
102
{BLKREFS
331
59
102
}
  0
BLOCK_RECORD
  5
53
330
1
100
AcDbSymbolTableRecord
100
AcDbBlockTableRecord
  2
H86F-B
340
0
102
{BLKREFS
331
5A
102
}
  0
BLOCK_RECORD
  5
56
330
1
100
AcDbSymbolTableRecord
100
AcDbBlockTableRecord
  2
H862S
340
0
102
{BLKREFS
331
7F
102
}
  0
BLOCK_RECORD
  5
5D
330
1
100
AcDbSymbolTableRecord
100
AcDbBlockTableRecord
  2
T601-3-2
340
0
102
{BLKREFS
331
64
102
}
  0
BLOCK_RECORD
  5
60
330
1
100
AcDbSymbolTableRecord
100
AcDbBlockTableRecord
  2
T601-3-1
340
0
102
{BLKREFS
331
65
102
}
  0
BLOCK_RECORD
  5
63
330
1
100
AcDbSymbolTableRecord
100
AcDbBlockTableRecord
  2
T601-3
340
0
102
{BLKREFS
331
80
102
}
  0
BLOCK_RECORD
  5
68
330
1
100
AcDbSymbolTableRecord
100
AcDbBlockTableRecord
  2
開示A4
340
0
102
{BLKREFS
331
81
102
}
  0
BLOCK_RECORD
  5
6B
330
1
100
AcDbSymbolTableRecord
100
AcDbBlockTableRecord
  2
42-15-M2
340
0
102
{BLKREFS
331
78
102
}
  0
BLOCK_RECORD
  5
6E
330
1
100
AcDbSymbolTableRecord
100
AcDbBlockTableRecord
  2
37-1-13
340
0
102
{BLKREFS
331
79
102
}
  0
BLOCK_RECORD
  5
71
330
1
100
AcDbSymbolTableRecord
100
AcDbBlockTableRecord
  2
36-1A-13-M4
340
0
102
{BLKREFS
331
7A
102
}
  0
BLOCK_RECORD
  5
74
330
1
100
AcDbSymbolTableRecord
100
AcDbBlockTableRecord
  2
21-1C
340
0
102
{BLKREFS
331
7B
102
}
  0
BLOCK_RECORD
  5
77
330
1
100
AcDbSymbolTableRecord
100
AcDbBlockTableRecord
  2
R10A-13-C
340
0
102
{BLKREFS
331
82
102
}
  0
BLOCK_RECORD
  5
437
330
1
100
AcDbSymbolTableRecord
100
AcDbBlockTableRecord
  2
*D16
340
0
  0
BLOCK_RECORD
  5
442
330
1
100
AcDbSymbolTableRecord
100
AcDbBlockTableRecord
  2
*D17
340
0
  0
BLOCK_RECORD
  5
44D
330
1
100
AcDbSymbolTableRecord
100
AcDbBlockTableRecord
  2
*D18
340
0
  0
BLOCK_RECORD
  5
458
330
1
100
AcDbSymbolTableRecord
100
AcDbBlockTableRecord
  2
*D19
340
0
  0
BLOCK_RECORD
  5
463
330
1
100
AcDbSymbolTableRecord
100
AcDbBlockTableRecord
  2
*D20
340
0
  0
BLOCK_RECORD
  5
46E
330
1
100
AcDbSymbolTableRecord
100
AcDbBlockTableRecord
  2
*D21
340
0
  0
ENDTAB
  0
ENDSEC
  0
SECTION
  2
BLOCKS
  0
BLOCK
  5
20
330
1F
100
AcDbEntity
  8
0
100
AcDbBlockBegin
  2
*Model_Space
 70
     0
 10
0.0
 20
0.0
 30
0.0
  3
*Model_Space
  1

  0
ENDBLK
  5
21
330
1F
100
AcDbEntity
  8
0
100
AcDbBlockEnd
  0
BLOCK
  5
1C
330
1B
100
AcDbEntity
 67
     1
  8
0
100
AcDbBlockBegin
  2
*Paper_Space
 70
     0
 10
0.0
 20
0.0
 30
0.0
  3
*Paper_Space
  1

  0
ENDBLK
  5
1D
330
1B
100
AcDbEntity
 67
     1
  8
0
100
AcDbBlockEnd
  0
BLOCK
  5
24
330
23
100
AcDbEntity
  8
0
100
AcDbBlockBegin
  2
*Paper_Space0
 70
     0
 10
0.0
 20
0.0
 30
0.0
  3
*Paper_Space0
  1

  0
ENDBLK
  5
25
330
23
100
AcDbEntity
  8
0
100
AcDbBlockEnd
  0
BLOCK
  5
48
330
47
100
AcDbEntity
  8
0
100
AcDbBlockBegin
  2
V2110-1-0
 70
     0
 10
476.7767402376899
 20
803.9446519524621
 30
0.0
  3
V2110-1-0
  1

  0
LINE
  5
83
330
47
100
AcDbEntity
  8
1
  6
Continuous
 62
     7
100
AcDbLine
 10
200.5032079851874
 20
346.1760336289301
 30
0.0
 11
200.5032079851874
 21
345.730763060873
 31
0.0
  0
LINE
  5
84
330
47
100
AcDbEntity
  8
1
  6
Continuous
 62
     7
100
AcDbLine
 10
201.5032079851874
 20
346.9260336289301
 30
0.0
 11
201.5032079851874
 21
357.4260336289301
 31
0.0
  0
LINE
  5
85
330
47
100
AcDbEntity
  8
1
  6
Continuous
 62
     7
100
AcDbLine
 10
200.5032079851874
 20
346.1760336289301
 30
0.0
 11
200.7532079851874
 21
346.1760336289301
 31
0.0
  0
LINE
  5
86
330
47
100
AcDbEntity
  8
1
  6
Continuous
 62
     7
100
AcDbLine
 10
200.5032079851874
 20
358.1760336289301
 30
0.0
 11
200.5032079851874
 21
346.1760336289301
 31
0.0
  0
LINE
  5
87
330
47
100
AcDbEntity
  8
1
  6
Continuous
 62
     7
100
AcDbLine
 10
200.5032079851874
 20
358.1760336289301
 30
0.0
 11
200.7532079851874
 21
358.1760336289301
 31
0.0
  0
LINE
  5
88
330
47
100
AcDbEntity
  8
1
  6
Continuous
 62
     7
100
AcDbLine
 10
200.5032079851874
 20
358.6213041969874
 30
0.0
 11
200.5032079851874
 21
358.1760336289301
 31
0.0
  0
LINE
  5
89
330
47
100
AcDbEntity
  8
1
  6
Continuous
 62
     7
100
AcDbLine
 10
225.2494655152035
 20
364.1760336289301
 30
0.0
 11
223.6614911061029
 21
364.1760336289301
 31
0.0
  0
LINE
  5
8A
330
47
100
AcDbEntity
  8
1
  6
Continuous
 62
     2
100
AcDbLine
 10
223.6614911061029
 20
363.3630336289301
 30
0.0
 11
225.2494655152035
 21
363.3630336289301
 31
0.0
  0
LINE
  5
8B
330
47
100
AcDbEntity
  8
1
  6
Continuous
 62
     7
100
AcDbLine
 10
223.6614911061029
 20
364.1760336289301
 30
0.0
 11
223.6614911061029
 21
363.3630336289301
 31
0.0
  0
LINE
  5
8C
330
47
100
AcDbEntity
  8
1
  6
Continuous
 62
     2
100
AcDbLine
 10
223.6614911061029
 20
363.3630336289301
 30
0.0
 11
222.2533337995494
 21
364.1760336289301
 31
0.0
  0
LINE
  5
8D
330
47
100
AcDbEntity
  8
1
  6
Continuous
 62
     7
100
AcDbLine
 10
223.6614911061029
 20
364.1760336289301
 30
0.0
 11
222.2533337995494
 21
364.1760336289301
 31
0.0
  0
LINE
  5
8E
330
47
100
AcDbEntity
  8
1
  6
Continuous
 62
     2
100
AcDbLine
 10
222.2533337995494
 20
340.1760336289301
 30
0.0
 11
223.6614911061029
 21
340.9890336289301
 31
0.0
  0
LINE
  5
8F
330
47
100
AcDbEntity
  8
1
  6
Continuous
 62
     7
100
AcDbLine
 10
223.6614911061029
 20
340.9890336289301
 30
0.0
 11
223.6614911061029
 21
363.3630336289301
 31
0.0
  0
LINE
  5
90
330
47
100
AcDbEntity
  8
1
  6
Continuous
 62
     2
100
AcDbLine
 10
225.2494655152035
 20
340.9890336289301
 30
0.0
 11
223.6614911061029
 21
340.9890336289301
 31
0.0
  0
LINE
  5
91
330
47
100
AcDbEntity
  8
1
  6
Continuous
 62
     7
100
AcDbLine
 10
223.6614911061029
 20
340.1760336289301
 30
0.0
 11
225.2494655152035
 21
340.1760336289301
 31
0.0
  0
LINE
  5
92
330
47
100
AcDbEntity
  8
1
  6
Continuous
 62
     7
100
AcDbLine
 10
223.6614911061029
 20
340.9890336289301
 30
0.0
 11
223.6614911061029
 21
340.1760336289301
 31
0.0
  0
LINE
  5
93
330
47
100
AcDbEntity
  8
1
  6
Continuous
 62
     7
100
AcDbLine
 10
222.2533337995494
 20
340.1760336289301
 30
0.0
 11
223.6614911061029
 21
340.1760336289301
 31
0.0
  0
LINE
  5
94
330
47
100
AcDbEntity
  8
1
  6
Continuous
 62
     7
100
AcDbLine
 10
222.2533337995494
 20
364.1760336289301
 30
0.0
 11
205.8461495445294
 21
364.1760336289301
 31
0.0
  0
LINE
  5
95
330
47
100
AcDbEntity
  8
1
  6
Continuous
 62
     7
100
AcDbLine
 10
222.2533337995494
 20
340.1760336289301
 30
0.0
 11
218.1614911061029
 21
340.1760336289301
 31
0.0
  0
LINE
  5
96
330
47
100
AcDbEntity
  8
1
  6
PHANTOM
 62
     4
100
AcDbLine
 10
199.6614911061029
 20
367.6510291783253
 30
0.0
 11
199.6614911061029
 21
337.1760336289301
 31
0.0
  0
LINE
  5
97
330
47
100
AcDbEntity
  8
1
  6
Continuous
 62
     7
100
AcDbLine
 10
218.1614911061029
 20
340.1760336289301
 30
0.0
 11
205.8461495445294
 21
340.1760336289301
 31
0.0
  0
LINE
  5
98
330
47
100
AcDbEntity
  8
1
  6
Continuous
 62
     7
100
AcDbLine
 10
178.8197742270184
 20
358.3760336289303
 30
0.0
 11
178.8197742270184
 21
345.9760336289302
 31
0.0
  0
LINE
  5
99
330
47
100
AcDbEntity
  8
1
  6
Continuous
 62
     7
100
AcDbLine
 10
178.3197742270184
 20
355.5390336289303
 30
0.0
 11
178.3197742270184
 21
357.8760336289303
 31
0.0
  0
LINE
  5
9A
330
47
100
AcDbEntity
  8
1
  6
Continuous
 62
     7
100
AcDbLine
 10
178.3197742270184
 20
346.4760336289302
 30
0.0
 11
178.3197742270184
 21
355.5390336289303
 31
0.0
  0
LINE
  5
9B
330
47
100
AcDbEntity
  8
1
  6
Continuous
 62
     7
100
AcDbLine
 10
178.8197742270184
 20
345.9760336289302
 30
0.0
 11
183.5197742270184
 21
345.9760336289302
 31
0.0
  0
LINE
  5
9C
330
47
100
AcDbEntity
  8
1
  6
Continuous
 62
     7
100
AcDbLine
 10
178.8197742270184
 20
358.3760336289303
 30
0.0
 11
183.6215595399824
 21
358.3760336289303
 31
0.0
  0
LINE
  5
9D
330
47
100
AcDbEntity
  8
1
  6
Continuous
 62
     7
100
AcDbLine
 10
178.8197742270184
 20
358.3760336289303
 30
0.0
 11
178.3197742270184
 21
357.8760336289303
 31
0.0
  0
LINE
  5
9E
330
47
100
AcDbEntity
  8
1
  6
Continuous
 62
     7
100
AcDbLine
 10
178.8197742270184
 20
345.9760336289302
 30
0.0
 11
178.3197742270184
 21
346.4760336289302
 31
0.0
  0
LINE
  5
9F
330
47
100
AcDbEntity
  8
1
  6
Continuous
 62
     7
100
AcDbLine
 10
362.9781158964582
 20
270.9059476238788
 30
0.0
 11
366.1614911061027
 21
270.9059476238788
 31
0.0
  0
LINE
  5
A0
330
47
100
AcDbEntity
  8
1
  6
Continuous
 62
     7
100
AcDbLine
 10
364.2734056759967
 20
269.7439476238789
 30
0.0
 11
368.9994911061028
 21
269.7439476238789
 31
0.0
  0
LINE
  5
A1
330
47
100
AcDbEntity
  8
1
  6
Continuous
 62
     7
100
AcDbLine
 10
352.3780372539178
 20
261.9059476238788
 30
0.0
 11
350.3234911061027
 21
261.9059476238788
 31
0.0
  0
LINE
  5
A2
330
47
100
AcDbEntity
  8
1
  6
Continuous
 62
     7
100
AcDbLine
 10
370.3614911061027
 20
250.261478502037
 30
0.0
 11
370.3614911061028
 21
259.54689442397
 31
0.0
  0
LINE
  5
A3
330
47
100
AcDbEntity
  8
1
  6
Continuous
 62
     7
100
AcDbLine
 10
348.9614911061028
 20
259.54689442397
 30
0.0
 11
348.9614911061029
 21
250.261478502037
 31
0.0
  0
LINE
  5
A4
330
47
100
AcDbEntity
  8
1
  6
Continuous
 62
     7
100
AcDbLine
 10
349.1614911061027
 20
269.7439476238789
 30
0.0
 11
349.1614911061027
 21
261.9059476238788
 31
0.0
  0
LINE
  5
A5
330
47
100
AcDbEntity
  8
1
  6
Continuous
 62
     7
100
AcDbLine
 10
346.1614911061027
 20
218.9059476238781
 30
0.0
 11
373.161491106103
 21
218.9059476238789
 31
0.0
  0
LINE
  5
A6
330
47
100
AcDbEntity
  8
1
  6
Continuous
 62
     7
100
AcDbLine
 10
372.1614911061027
 20
205.9059476238789
 30
0.0
 11
347.2614911061027
 21
205.9059476238788
 31
0.0
  0
LINE
  5
A7
330
47
100
AcDbEntity
  8
1
  6
Continuous
 62
     7
100
AcDbLine
 10
346.1614911061027
 20
206.9059476238788
 30
0.0
 11
346.1614911061027
 21
218.9059476238781
 31
0.0
  0
LINE
  5
A8
330
47
100
AcDbEntity
  8
1
  6
Continuous
 62
     7
100
AcDbLine
 10
373.161491106103
 20
218.9059476238789
 30
0.0
 11
373.1614911061027
 21
206.9059476238789
 31
0.0
  0
LINE
  5
A9
330
47
100
AcDbEntity
  8
1
  6
Continuous
 62
     7
100
AcDbLine
 10
368.9994911061028
 20
261.9059476238788
 30
0.0
 11
366.9449449582879
 21
261.9059476238788
 31
0.0
  0
LINE
  5
AA
330
47
100
AcDbEntity
  8
1
  6
Continuous
 62
     7
100
AcDbLine
 10
350.3234911061027
 20
269.7439476238789
 30
0.0
 11
355.0495765362088
 21
269.7439476238789
 31
0.0
  0
LINE
  5
AB
330
47
100
AcDbEntity
  8
1
  6
Continuous
 62
     7
100
AcDbLine
 10
350.3234911061027
 20
270.9059476238788
 30
0.0
 11
356.3448663157474
 21
270.9059476238788
 31
0.0
  0
LINE
  5
AC
330
47
100
AcDbEntity
  8
1
  6
Continuous
 62
     7
100
AcDbLine
 10
349.1614911061027
 20
261.9059476238788
 30
0.0
 11
349.1614911061027
 21
259.8933045854838
 31
0.0
  0
LINE
  5
AD
330
47
100
AcDbEntity
  8
1
  6
Continuous
 62
     2
100
AcDbLine
 10
350.3234911061027
 20
269.7439476238789
 30
0.0
 11
350.3234911061027
 21
270.9059476238788
 31
0.0
  0
LINE
  5
AE
330
47
100
AcDbEntity
  8
1
  6
Continuous
 62
     2
100
AcDbLine
 10
350.3234911061027
 20
269.7439476238789
 30
0.0
 11
350.3234911061027
 21
270.9059476238788
 31
0.0
  0
LINE
  5
AF
330
47
100
AcDbEntity
  8
1
  6
Continuous
 62
     7
100
AcDbLine
 10
349.1614911061027
 20
269.7439476238789
 30
0.0
 11
350.3234911061027
 21
269.7439476238789
 31
0.0
  0
LINE
  5
B0
330
47
100
AcDbEntity
  8
1
  6
Continuous
 62
     2
100
AcDbLine
 10
368.9994911061028
 20
269.7439476238789
 30
0.0
 11
368.9994911061028
 21
261.9059476238788
 31
0.0
  0
LINE
  5
B1
330
47
100
AcDbEntity
  8
1
  6
Continuous
 62
     7
100
AcDbLine
 10
370.1614911061027
 20
269.7439476238789
 30
0.0
 11
368.9994911061028
 21
269.7439476238789
 31
0.0
  0
LINE
  5
B2
330
47
100
AcDbEntity
  8
1
  6
Continuous
 62
     7
100
AcDbLine
 10
370.1614911061027
 20
269.7439476238789
 30
0.0
 11
370.1614911061027
 21
261.9059476238788
 31
0.0
  0
LINE
  5
B3
330
47
100
AcDbEntity
  8
1
  6
Continuous
 62
     7
100
AcDbLine
 10
368.9994911061028
 20
270.9059476238788
 30
0.0
 11
370.1614911061027
 21
269.7439476238789
 31
0.0
  0
LINE
  5
B4
330
47
100
AcDbEntity
  8
1
  6
Continuous
 62
     7
100
AcDbLine
 10
350.3234911061027
 20
270.9059476238788
 30
0.0
 11
349.1614911061027
 21
269.7439476238789
 31
0.0
  0
LINE
  5
B5
330
47
100
AcDbEntity
  8
1
  6
Continuous
 62
     2
100
AcDbLine
 10
368.9994911061028
 20
270.9059476238788
 30
0.0
 11
368.9994911061028
 21
269.7439476238789
 31
0.0
  0
LINE
  5
B6
330
47
100
AcDbEntity
  8
1
  6
Continuous
 62
     7
100
AcDbLine
 10
368.9994911061028
 20
261.9059476238788
 30
0.0
 11
370.1614911061027
 21
261.9059476238788
 31
0.0
  0
LINE
  5
B7
330
47
100
AcDbEntity
  8
1
  6
Continuous
 62
     7
100
AcDbLine
 10
370.1614911061027
 20
261.9059476238788
 30
0.0
 11
370.1614911061027
 21
259.8933045854838
 31
0.0
  0
LINE
  5
B8
330
47
100
AcDbEntity
  8
1
  6
Continuous
 62
     2
100
AcDbLine
 10
368.9994911061028
 20
261.9059476238788
 30
0.0
 11
370.1614911061027
 21
259.8933045854838
 31
0.0
  0
LINE
  5
B9
330
47
100
AcDbEntity
  8
1
  6
Continuous
 62
     2
100
AcDbLine
 10
350.3234911061027
 20
261.9059476238788
 30
0.0
 11
350.3234911061027
 21
269.7439476238789
 31
0.0
  0
LINE
  5
BA
330
47
100
AcDbEntity
  8
1
  6
Continuous
 62
     2
100
AcDbLine
 10
349.1614911061027
 20
259.8933045854838
 30
0.0
 11
350.3234911061027
 21
261.9059476238788
 31
0.0
  0
LINE
  5
BB
330
47
100
AcDbEntity
  8
1
  6
Continuous
 62
     7
100
AcDbLine
 10
349.1614911061027
 20
261.9059476238788
 30
0.0
 11
350.3234911061027
 21
261.9059476238788
 31
0.0
  0
LINE
  5
BC
330
47
100
AcDbEntity
  8
1
  6
Continuous
 62
     2
100
AcDbLine
 10
350.3234911061027
 20
261.9059476238788
 30
0.0
 11
350.3234911061027
 21
269.7439476238789
 31
0.0
  0
LINE
  5
BD
330
47
100
AcDbEntity
  8
1
  6
Continuous
 62
     7
100
AcDbLine
 10
366.1614911061027
 20
270.9059476238788
 30
0.0
 11
368.9994911061028
 21
270.9059476238788
 31
0.0
  0
LINE
  5
BE
330
47
100
AcDbEntity
  8
1
  6
Continuous
 62
     7
100
AcDbLine
 10
370.3630096604055
 20
259.5442642107636
 30
0.0
 11
370.1614911061027
 21
259.8933045854838
 31
0.0
  0
LINE
  5
BF
330
47
100
AcDbEntity
  8
1
  6
Continuous
 62
     7
100
AcDbLine
 10
349.1614911061027
 20
259.8933045854838
 30
0.0
 11
348.9614911061028
 21
259.54689442397
 31
0.0
  0
LINE
  5
C0
330
47
100
AcDbEntity
  8
1
  6
Continuous
 62
     7
100
AcDbLine
 10
186.3197742270184
 20
218.9059476238781
 30
0.0
 11
213.3197742270187
 21
218.9059476238789
 31
0.0
  0
LINE
  5
C1
330
47
100
AcDbEntity
  8
1
  6
Continuous
 62
     7
100
AcDbLine
 10
209.1577742270185
 20
261.9059476238788
 30
0.0
 11
190.4817742270184
 21
261.9059476238788
 31
0.0
  0
LINE
  5
C2
330
47
100
AcDbEntity
  8
1
  6
Continuous
 62
     7
100
AcDbLine
 10
189.3197742270184
 20
269.7439476238789
 30
0.0
 11
210.3197742270184
 21
269.7439476238789
 31
0.0
  0
LINE
  5
C3
330
47
100
AcDbEntity
  8
1
  6
Continuous
 62
     7
100
AcDbLine
 10
223.8197742270184
 20
252.0929476238788
 30
0.0
 11
223.8197742270184
 21
229.7189476238788
 31
0.0
  0
LINE
  5
C4
330
47
100
AcDbEntity
  8
1
  6
Continuous
 62
     7
100
AcDbLine
 10
178.8197742270184
 20
247.1059476238788
 30
0.0
 11
178.8197742270184
 21
234.7059476238787
 31
0.0
  0
LINE
  5
C5
330
47
100
AcDbEntity
  8
1
  6
Continuous
 62
     7
100
AcDbLine
 10
212.3197742270184
 20
205.9059476238789
 30
0.0
 11
187.4197742269963
 21
205.9059476238777
 31
0.0
  0
LINE
  5
C6
330
47
100
AcDbEntity
  8
1
  6
Continuous
 62
     7
100
AcDbLine
 10
186.3197742270184
 20
206.9059476238788
 30
0.0
 11
186.3197742270184
 21
218.9059476238781
 31
0.0
  0
LINE
  5
C7
330
47
100
AcDbEntity
  8
1
  6
Continuous
 62
     7
100
AcDbLine
 10
178.3197742270184
 20
244.2689476238788
 30
0.0
 11
178.3197742270184
 21
246.6059476238788
 31
0.0
  0
LINE
  5
C8
330
47
100
AcDbEntity
  8
1
  6
Continuous
 62
     7
100
AcDbLine
 10
178.3197742270184
 20
235.2059476238787
 30
0.0
 11
178.3197742270184
 21
244.2689476238788
 31
0.0
  0
LINE
  5
C9
330
47
100
AcDbEntity
  8
1
  6
Continuous
 62
     7
100
AcDbLine
 10
190.4817742270184
 20
270.9059476238788
 30
0.0
 11
209.1577742270185
 21
270.9059476238788
 31
0.0
  0
LINE
  5
CA
330
47
100
AcDbEntity
  8
1
  6
Continuous
 62
     7
100
AcDbLine
 10
189.3197742270184
 20
261.9059476238788
 30
0.0
 11
189.3197742270184
 21
259.8933045854838
 31
0.0
  0
LINE
  5
CB
330
47
100
AcDbEntity
  8
1
  6
Continuous
 62
     2
100
AcDbLine
 10
225.2494655152035
 20
229.7189476238788
 30
0.0
 11
223.8197742270184
 21
229.7189476238788
 31
0.0
  0
LINE
  5
CC
330
47
100
AcDbEntity
  8
1
  6
Continuous
 62
     2
100
AcDbLine
 10
209.1577742270185
 20
270.9059476238788
 30
0.0
 11
209.1577742270185
 21
261.9059476238788
 31
0.0
  0
LINE
  5
CD
330
47
100
AcDbEntity
  8
1
  6
Continuous
 62
     7
100
AcDbLine
 10
210.3197742270184
 20
269.7439476238789
 30
0.0
 11
210.3197742270184
 21
261.9059476238788
 31
0.0
  0
LINE
  5
CE
330
47
100
AcDbEntity
  8
1
  6
Continuous
 62
     7
100
AcDbLine
 10
209.1577742270185
 20
270.9059476238788
 30
0.0
 11
210.3197742270184
 21
269.7439476238789
 31
0.0
  0
LINE
  5
CF
330
47
100
AcDbEntity
  8
1
  6
Continuous
 62
     7
100
AcDbLine
 10
189.3197742270184
 20
269.7439476238789
 30
0.0
 11
189.3197742270184
 21
261.9059476238788
 31
0.0
  0
LINE
  5
D0
330
47
100
AcDbEntity
  8
1
  6
Continuous
 62
     7
100
AcDbLine
 10
190.4817742270184
 20
270.9059476238788
 30
0.0
 11
189.3197742270184
 21
269.7439476238789
 31
0.0
  0
LINE
  5
D1
330
47
100
AcDbEntity
  8
1
  6
Continuous
 62
     7
100
AcDbLine
 10
225.2494655152035
 20
252.9059476238788
 30
0.0
 11
223.8197742270184
 21
252.9059476238788
 31
0.0
  0
LINE
  5
D2
330
47
100
AcDbEntity
  8
1
  6
Continuous
 62
     2
100
AcDbLine
 10
223.8197742270184
 20
252.0929476238788
 30
0.0
 11
225.2494655152035
 21
252.0929476238788
 31
0.0
  0
LINE
  5
D3
330
47
100
AcDbEntity
  8
1
  6
Continuous
 62
     7
100
AcDbLine
 10
223.8197742270184
 20
252.9059476238788
 30
0.0
 11
223.8197742270184
 21
252.0929476238788
 31
0.0
  0
LINE
  5
D4
330
47
100
AcDbEntity
  8
1
  6
Continuous
 62
     7
100
AcDbLine
 10
223.8197742270184
 20
252.9059476238788
 30
0.0
 11
222.4116169204649
 21
252.9059476238788
 31
0.0
  0
LINE
  5
D5
330
47
100
AcDbEntity
  8
1
  6
Continuous
 62
     2
100
AcDbLine
 10
223.8197742270184
 20
252.0929476238788
 30
0.0
 11
222.4116169204649
 21
252.9059476238788
 31
0.0
  0
LINE
  5
D6
330
47
100
AcDbEntity
  8
1
  6
Continuous
 62
     7
100
AcDbLine
 10
209.1577742270185
 20
261.9059476238788
 30
0.0
 11
210.3197742270184
 21
261.9059476238788
 31
0.0
  0
LINE
  5
D7
330
47
100
AcDbEntity
  8
1
  6
Continuous
 62
     7
100
AcDbLine
 10
210.3197742270184
 20
261.9059476238788
 30
0.0
 11
210.3197742270184
 21
259.8933045854838
 31
0.0
  0
LINE
  5
D8
330
47
100
AcDbEntity
  8
1
  6
Continuous
 62
     2
100
AcDbLine
 10
209.1577742270185
 20
261.9059476238788
 30
0.0
 11
210.3197742270184
 21
259.8933045854838
 31
0.0
  0
LINE
  5
D9
330
47
100
AcDbEntity
  8
1
  6
Continuous
 62
     2
100
AcDbLine
 10
189.3197742270184
 20
259.8933045854838
 30
0.0
 11
190.4817742270184
 21
261.9059476238788
 31
0.0
  0
LINE
  5
DA
330
47
100
AcDbEntity
  8
1
  6
Continuous
 62
     7
100
AcDbLine
 10
189.3197742270184
 20
261.9059476238788
 30
0.0
 11
190.4817742270184
 21
261.9059476238788
 31
0.0
  0
LINE
  5
DB
330
47
100
AcDbEntity
  8
1
  6
Continuous
 62
     2
100
AcDbLine
 10
190.4817742270184
 20
261.9059476238788
 30
0.0
 11
190.4817742270184
 21
270.9059476238788
 31
0.0
  0
LINE
  5
DC
330
47
100
AcDbEntity
  8
1
  6
Continuous
 62
     2
100
AcDbLine
 10
222.4116169204649
 20
228.9059476238789
 30
0.0
 11
223.8197742270184
 21
229.7189476238788
 31
0.0
  0
LINE
  5
DD
330
47
100
AcDbEntity
  8
1
  6
Continuous
 62
     7
100
AcDbLine
 10
222.4116169204649
 20
228.9059476238789
 30
0.0
 11
223.8197742270184
 21
228.9059476238789
 31
0.0
  0
LINE
  5
DE
330
47
100
AcDbEntity
  8
1
  6
Continuous
 62
     7
100
AcDbLine
 10
223.8197742270184
 20
229.7189476238788
 30
0.0
 11
223.8197742270184
 21
228.9059476238789
 31
0.0
  0
LINE
  5
DF
330
47
100
AcDbEntity
  8
1
  6
Continuous
 62
     7
100
AcDbLine
 10
223.8197742270184
 20
228.9059476238789
 30
0.0
 11
225.2494655152035
 21
228.9059476238789
 31
0.0
  0
LINE
  5
E0
330
47
100
AcDbEntity
  8
1
  6
Continuous
 62
     7
100
AcDbLine
 10
222.4116169204649
 20
228.9059476238789
 30
0.0
 11
222.0652067589511
 21
228.7059476238787
 31
0.0
  0
LINE
  5
E1
330
47
100
AcDbEntity
  8
1
  6
Continuous
 62
     7
100
AcDbLine
 10
222.0652067589511
 20
228.7059476238787
 30
0.0
 11
219.8763475715573
 21
228.7059476238787
 31
0.0
  0
LINE
  5
E2
330
47
100
AcDbEntity
  8
1
  6
Continuous
 62
     7
100
AcDbLine
 10
222.4116169204649
 20
252.9059476238788
 30
0.0
 11
222.0652067589512
 21
253.1059476238788
 31
0.0
  0
LINE
  5
E3
330
47
100
AcDbEntity
  8
1
  6
Continuous
 62
     7
100
AcDbLine
 10
222.0652067589512
 20
253.1059476238788
 30
0.0
 11
216.8197742270184
 21
253.1059476238788
 31
0.0
  0
LINE
  5
E4
330
47
100
AcDbEntity
  8
1
  6
Continuous
 62
     7
100
AcDbLine
 10
210.5212927813212
 20
259.5442642107636
 30
0.0
 11
210.3197742270184
 21
259.8933045854838
 31
0.0
  0
LINE
  5
E5
330
47
100
AcDbEntity
  8
1
  6
Continuous
 62
     7
100
AcDbLine
 10
189.3197742270184
 20
259.8933045854838
 30
0.0
 11
189.1197742270185
 21
259.54689442397
 31
0.0
  0
LINE
  5
E6
330
47
100
AcDbEntity
  8
1
  6
Continuous
 62
     7
100
AcDbLine
 10
189.1197742270185
 20
259.54689442397
 30
0.0
 11
189.1197742270185
 21
256.2695617794024
 31
0.0
  0
LINE
  5
E7
330
47
100
AcDbEntity
  8
1
  6
Continuous
 62
     7
100
AcDbLine
 10
213.3197742270187
 20
218.9059476238789
 30
0.0
 11
213.3197742270184
 21
206.9059476238789
 31
0.0
  0
LINE
  5
E8
330
47
100
AcDbEntity
  8
1
  6
Continuous
 62
     7
100
AcDbLine
 10
178.8197742270184
 20
234.7059476238787
 30
0.0
 11
183.5197742270184
 21
234.7059476238787
 31
0.0
  0
LINE
  5
E9
330
47
100
AcDbEntity
  8
1
  6
Continuous
 62
     7
100
AcDbLine
 10
178.8197742270184
 20
247.1059476238788
 30
0.0
 11
183.6215595399824
 21
247.1059476238788
 31
0.0
  0
LINE
  5
EA
330
47
100
AcDbEntity
  8
1
  6
Continuous
 62
     7
100
AcDbLine
 10
186.5197742270184
 20
230.3808622082713
 30
0.0
 11
186.5197742270184
 21
231.7059476238787
 31
0.0
  0
LINE
  5
EB
330
47
100
AcDbEntity
  8
1
  6
Continuous
 62
     7
100
AcDbLine
 10
178.8197742270184
 20
247.1059476238788
 30
0.0
 11
178.3197742270184
 21
246.6059476238788
 31
0.0
  0
LINE
  5
EC
330
47
100
AcDbEntity
  8
1
  6
Continuous
 62
     7
100
AcDbLine
 10
178.8197742270184
 20
234.7059476238787
 30
0.0
 11
178.3197742270184
 21
235.2059476238787
 31
0.0
  0
ARC
  5
ED
330
47
100
AcDbEntity
  8
0
  6
Continuous
 62
     7
100
AcDbCircle
 10
183.7889980865816
 20
366.3715022526843
 30
0.0
 40
7.999999999999884
100
AcDbArc
 50
268.0714620019625
 51
307.8726180486447
  0
ARC
  5
EE
330
47
100
AcDbEntity
  8
1
  6
Continuous
 62
     7
100
AcDbCircle
 10
199.6614911061029
 20
352.1760336289301
 30
0.0
 40
13.50000000000001
100
AcDbArc
 50
297.2660444507329
 51
215.7138075877938
  0
ARC
  5
EF
330
47
100
AcDbEntity
  8
0
  6
Continuous
 62
     7
100
AcDbCircle
 10
183.7889980865816
 20
337.9805650051758
 30
0.0
 40
7.999999999999909
100
AcDbArc
 50
52.12738195135586
 51
91.92853799803748
  0
ARC
  5
F0
330
47
100
AcDbEntity
  8
1
  6
Continuous
 62
     7
100
AcDbCircle
 10
199.6614911061029
 20
352.1760336289301
 30
0.0
 40
13.49999999999996
100
AcDbArc
 50
215.7138075877938
 51
297.2660444507329
  0
ARC
  5
F1
330
47
100
AcDbEntity
  8
1
  6
Continuous
 62
     7
100
AcDbCircle
 10
199.6614911061029
 20
352.1760336289301
 30
0.0
 40
6.499999999999896
100
AcDbArc
 50
277.4404057624278
 51
82.55959423757244
  0
ARC
  5
F2
330
47
100
AcDbEntity
  8
1
  6
Continuous
 62
     7
100
AcDbCircle
 10
199.6614911061029
 20
352.1760336289301
 30
0.0
 40
6.500000000000122
100
AcDbArc
 50
82.55959423757244
 51
277.4404057624278
  0
ARC
  5
F3
330
47
100
AcDbEntity
  8
1
  6
Continuous
 62
     7
100
AcDbCircle
 10
375.4444387486773
 20
221.5588988223103
 30
0.0
 40
3.500000000000102
100
AcDbArc
 50
177.3209898544478
 51
229.2869733355722
  0
ARC
  5
F4
330
47
100
AcDbEntity
  8
1
  6
Continuous
 62
     7
100
AcDbCircle
 10
185.2622439530221
 20
230.4578379751849
 30
0.0
 40
186.8902789938054
100
AcDbArc
 50
357.3209898544479
 51
358.2261097874136
  0
ARC
  5
F5
330
47
100
AcDbEntity
  8
1
  6
Continuous
 62
     7
100
AcDbCircle
 10
534.0607382591834
 20
230.4578379751849
 30
0.0
 40
186.8902789938054
100
AcDbArc
 50
181.7738902125863
 51
182.679010145552
  0
ARC
  5
F6
330
47
100
AcDbEntity
  8
1
  6
Continuous
 62
     7
100
AcDbCircle
 10
343.8785434635283
 20
221.5588988223103
 30
0.0
 40
3.499999999999861
100
AcDbArc
 50
310.7130266644207
 51
2.67901014555218
  0
ARC
  5
F7
330
47
100
AcDbEntity
  8
1
  6
Continuous
 62
     7
100
AcDbCircle
 10
219.8763475715573
 20
220.9059476238789
 30
0.0
 40
7.799999999999812
100
AcDbArc
 50
90.0
 51
171.5085972117336
  0
ARC
  5
F8
330
47
100
AcDbEntity
  8
1
  6
Continuous
 62
     7
100
AcDbCircle
 10
216.8197742270184
 20
259.4059476238788
 30
0.0
 40
6.299999999999955
100
AcDbArc
 50
178.7419692902588
 51
270.0
  0
ARC
  5
F9
330
47
100
AcDbEntity
  8
1
  6
Continuous
 62
     7
100
AcDbCircle
 10
374.219021380099
 20
230.4578379751849
 30
0.0
 40
186.8902789938054
100
AcDbArc
 50
181.0736818274308
 51
182.679010145552
  0
ARC
  5
FA
330
47
100
AcDbEntity
  8
1
  6
Continuous
 62
     7
100
AcDbCircle
 10
215.6234840383492
 20
221.5408899581964
 30
0.0
 40
3.499999999999804
100
AcDbArc
 50
171.508597211732
 51
228.8370480400133
  0
ARC
  5
FB
330
47
100
AcDbEntity
  8
1
  6
Continuous
 62
     7
100
AcDbCircle
 10
184.036826584444
 20
221.5588988223103
 30
0.0
 40
3.499999999999861
100
AcDbArc
 50
310.7130266644207
 51
2.6790101455522
  0
ARC
  5
FC
330
47
100
AcDbEntity
  8
1
  6
Continuous
 62
     7
100
AcDbCircle
 10
180.880946601852
 20
255.0059476238788
 30
0.0
 40
8.000000000000062
100
AcDbArc
 50
314.8177059683114
 51
352.7638820443959
  0
ARC
  5
FD
330
47
100
AcDbEntity
  8
1
  6
Continuous
 62
     7
100
AcDbCircle
 10
374.219021380099
 20
230.4578379751849
 30
0.0
 40
186.8902789938053
100
AcDbArc
 50
172.0614100354163
 51
172.7638820443953
  0
ARC
  5
FE
330
47
100
AcDbEntity
  8
1
  6
Continuous
 62
     7
100
AcDbCircle
 10
179.3629602910342
 20
226.8059476238788
 30
0.0
 40
8.000000000000002
100
AcDbArc
 50
1.07368182743016
 51
26.54267944600862
  0
ARC
  5
FF
330
47
100
AcDbEntity
  8
1
  6
Continuous
 62
     7
100
AcDbCircle
 10
183.6215595399824
 20
250.1059476238788
 30
0.0
 40
3.0
100
AcDbArc
 50
270.0
 51
345.0322961298144
  0
CIRCLE
  5
100
330
47
100
AcDbEntity
  8
1
  6
Continuous
 62
     7
100
AcDbCircle
 10
199.6614911061029
 20
352.1760336289301
 30
0.0
 40
10.65828312091551
  0
CIRCLE
  5
101
330
47
100
AcDbEntity
  8
1
  6
Continuous
 62
     2
100
AcDbCircle
 10
199.6614911061029
 20
352.1760336289301
 30
0.0
 40
9.49628312091562
  0
CIRCLE
  5
102
330
47
100
AcDbEntity
  8
1
  6
Continuous
 62
     7
100
AcDbCircle
 10
199.6614911061029
 20
352.1760336289301
 30
0.0
 40
12.5
  0
ARC
  5
103
330
47
100
AcDbEntity
  8
1
  6
Continuous
 62
     7
100
AcDbCircle
 10
200.7532079851874
 20
357.4260336289301
 30
0.0
 40
0.75
100
AcDbArc
 50
0.0
 51
90.0
  0
ARC
  5
104
330
47
100
AcDbEntity
  8
1
  6
Continuous
 62
     7
100
AcDbCircle
 10
200.7532079851874
 20
346.9260336289301
 30
0.0
 40
0.75
100
AcDbArc
 50
270.0
 51
0.0
  0
ARC
  5
105
330
47
100
AcDbEntity
  8
1
  6
Continuous
 62
     7
100
AcDbCircle
 10
372.1614911061027
 20
206.9059476238789
 30
0.0
 40
1.0
100
AcDbArc
 50
270.0
 51
0.0
  0
ARC
  5
106
330
47
100
AcDbEntity
  8
1
  6
Continuous
 62
     7
100
AcDbCircle
 10
347.2114911061028
 20
206.9559476238787
 30
0.0
 40
1.051189802081552
100
AcDbArc
 50
182.7263109939003
 51
272.7263109939009
  0
ARC
  5
107
330
47
100
AcDbEntity
  8
1
  6
Continuous
 62
     7
100
AcDbCircle
 10
212.3197742270184
 20
206.9059476238789
 30
0.0
 40
1.0
100
AcDbArc
 50
270.0
 51
0.0
  0
ARC
  5
108
330
47
100
AcDbEntity
  8
1
  6
Continuous
 62
     7
100
AcDbCircle
 10
187.3697742270185
 20
206.9559476238787
 30
0.0
 40
1.051189802081524
100
AcDbArc
 50
182.7263109939004
 51
272.7263109926957
  0
ARC
  5
109
330
47
100
AcDbEntity
  8
1
  6
Continuous
 62
     7
100
AcDbCircle
 10
183.5197742270184
 20
231.7059476238787
 30
0.0
 40
3.0
100
AcDbArc
 50
0.0
 51
90.0
  0
ENDBLK
  5
49
330
47
100
AcDbEntity
  8
0
100
AcDbBlockEnd
  0
BLOCK
  5
4B
330
4A
100
AcDbEntity
  8
0
100
AcDbBlockBegin
  2
H862-A
 70
     0
 10
198.9716870960762
 20
335.5528625049797
 30
0.0
  3
H862-A
  1

  0
LINE
  5
10A
330
4A
100
AcDbEntity
  8
1
  6
Continuous
 62
     7
100
AcDbLine
 10
173.422974608361
 20
357.1253688115583
 30
0.0
 11
178.3197742270184
 21
357.1253688115583
 31
0.0
  0
LINE
  5
10B
330
4A
100
AcDbEntity
  8
1
  6
Continuous
 62
     7
100
AcDbLine
 10
173.422974608361
 20
357.1253688115583
 30
0.0
 11
173.3197742270184
 21
356.9260336289301
 31
0.0
  0
LINE
  5
10C
330
4A
100
AcDbEntity
  8
1
  6
Continuous
 62
     7
100
AcDbLine
 10
178.3197742270184
 20
347.2266984463021
 30
0.0
 11
173.422974608361
 21
347.2266984463021
 31
0.0
  0
LINE
  5
10D
330
4A
100
AcDbEntity
  8
1
  6
Continuous
 62
     7
100
AcDbLine
 10
173.3197742270184
 20
356.9260336289301
 30
0.0
 11
173.3197742270184
 21
352.1760336289301
 31
0.0
  0
LINE
  5
10E
330
4A
100
AcDbEntity
  8
1
  6
Continuous
 62
     7
100
AcDbLine
 10
173.8197742270184
 20
352.1760336289301
 30
0.0
 11
178.3197742270184
 21
352.1760336289301
 31
0.0
  0
LINE
  5
10F
330
4A
100
AcDbEntity
  8
1
  6
Continuous
 62
     7
100
AcDbLine
 10
173.3197742270184
 20
352.1760336289301
 30
0.0
 11
173.3197742270184
 21
347.4260336289301
 31
0.0
  0
LINE
  5
110
330
4A
100
AcDbEntity
  8
1
  6
Continuous
 62
     7
100
AcDbLine
 10
173.3197742270184
 20
347.4260336289301
 30
0.0
 11
173.422974608361
 21
347.2266984463021
 31
0.0
  0
LINE
  5
111
330
4A
100
AcDbEntity
  8
1
  6
Continuous
 62
     7
100
AcDbLine
 10
178.3197742270184
 20
243.7638314563675
 30
0.0
 11
173.8197742270184
 21
243.7638314563675
 31
0.0
  0
LINE
  5
112
330
4A
100
AcDbEntity
  8
1
  6
Continuous
 62
     7
100
AcDbLine
 10
173.3197742270184
 20
245.6559476238788
 30
0.0
 11
173.3197742270184
 21
240.9059476238788
 31
0.0
  0
LINE
  5
113
330
4A
100
AcDbEntity
  8
1
  6
Continuous
 62
     7
100
AcDbLine
 10
173.8197742270184
 20
246.6217152888562
 30
0.0
 11
173.3197742270184
 21
245.6559476238788
 31
0.0
  0
LINE
  5
114
330
4A
100
AcDbEntity
  8
1
  6
Continuous
 62
     7
100
AcDbLine
 10
178.3197742270184
 20
246.6217152888562
 30
0.0
 11
173.8197742270184
 21
246.6217152888562
 31
0.0
  0
LINE
  5
115
330
4A
100
AcDbEntity
  8
1
  6
Continuous
 62
     7
100
AcDbLine
 10
173.8197742270184
 20
238.0480637913901
 30
0.0
 11
178.3197742270184
 21
238.0480637913901
 31
0.0
  0
LINE
  5
116
330
4A
100
AcDbEntity
  8
1
  6
Continuous
 62
     7
100
AcDbLine
 10
173.3197742270184
 20
240.9059476238788
 30
0.0
 11
173.3197742270184
 21
236.1559476238788
 31
0.0
  0
LINE
  5
117
330
4A
100
AcDbEntity
  8
1
  6
Continuous
 62
     7
100
AcDbLine
 10
173.3197742270184
 20
236.1559476238788
 30
0.0
 11
173.8197742270184
 21
235.1901799589015
 31
0.0
  0
LINE
  5
118
330
4A
100
AcDbEntity
  8
1
  6
Continuous
 62
     7
100
AcDbLine
 10
173.8197742270184
 20
235.1901799589015
 30
0.0
 11
178.3197742270184
 21
235.1901799589015
 31
0.0
  0
ARC
  5
119
330
4A
100
AcDbEntity
  8
1
  6
Continuous
 62
     7
100
AcDbCircle
 10
183.8764070395188
 20
354.6507012202441
 30
0.0
 40
10.35663281250042
100
AcDbArc
 50
166.1757070278545
 51
193.8242929721445
  0
ARC
  5
11A
330
4A
100
AcDbEntity
  8
1
  6
Continuous
 62
     7
100
AcDbCircle
 10
183.8764070395188
 20
349.701366037616
 30
0.0
 40
10.35663281250039
100
AcDbArc
 50
166.1757070278551
 51
193.824292972144
  0
ARC
  5
11B
330
4A
100
AcDbEntity
  8
1
  6
Continuous
 62
     7
100
AcDbCircle
 10
187.2822742270185
 20
240.9059476238788
 30
0.0
 40
13.7625000000001
100
AcDbArc
 50
168.0148997076153
 51
180.0
  0
ARC
  5
11C
330
4A
100
AcDbEntity
  8
1
  6
Continuous
 62
     7
100
AcDbCircle
 10
177.0728992270184
 20
245.1927733726119
 30
0.0
 40
3.553125
100
AcDbArc
 50
156.2864175266667
 51
203.7135824733346
  0
ARC
  5
11D
330
4A
100
AcDbEntity
  8
1
  6
Continuous
 62
     7
100
AcDbCircle
 10
187.2822742270185
 20
240.9059476238788
 30
0.0
 40
13.7625000000001
100
AcDbArc
 50
180.0
 51
191.9851002923847
  0
ARC
  5
11E
330
4A
100
AcDbEntity
  8
1
  6
Continuous
 62
     7
100
AcDbCircle
 10
177.0728992270184
 20
236.6191218751458
 30
0.0
 40
3.553125
100
AcDbArc
 50
156.2864175266667
 51
203.7135824733333
  0
ENDBLK
  5
4C
330
4A
100
AcDbEntity
  8
0
100
AcDbBlockEnd
  0
BLOCK
  5
4E
330
4D
100
AcDbEntity
  8
0
100
AcDbBlockBegin
  2
H862-L
 70
     0
 10
172.824963363852
 20
240.9059476238788
 30
0.0
  3
H862-L
  1

  0
LINE
  5
11F
330
4D
100
AcDbEntity
  8
1
  6
Continuous
 62
     2
100
AcDbLine
 10
110.0697742270186
 20
349.524997331822
 30
0.0
 11
111.3029315335721
 21
348.8130336289302
 31
0.0
  0
LINE
  5
120
330
4D
100
AcDbEntity
  8
1
  6
Continuous
 62
     7
100
AcDbLine
 10
173.3197742270184
 20
355.5390336289302
 30
0.0
 11
162.1447742270185
 21
355.5390336289302
 31
0.0
  0
LINE
  5
121
330
4D
100
AcDbEntity
  8
1
  6
Continuous
 62
     2
100
AcDbLine
 10
173.3197742270184
 20
354.7260336289302
 30
0.0
 11
162.1447742270185
 21
354.7260336289302
 31
0.0
  0
LINE
  5
122
330
4D
100
AcDbEntity
  8
1
  6
Continuous
 62
     7
100
AcDbLine
 10
162.1447742270185
 20
348.8130336289302
 30
0.0
 11
173.3197742270184
 21
348.8130336289302
 31
0.0
  0
LINE
  5
123
330
4D
100
AcDbEntity
  8
1
  6
Continuous
 62
     7
100
AcDbLine
 10
162.1447742270185
 20
349.6260336289303
 30
0.0
 11
162.1447742270185
 21
352.1760336289301
 31
0.0
  0
LINE
  5
124
330
4D
100
AcDbEntity
  8
1
  6
Continuous
 62
     2
100
AcDbLine
 10
162.1447742270185
 20
349.6260336289303
 30
0.0
 11
173.3197742270184
 21
349.6260336289303
 31
0.0
  0
LINE
  5
125
330
4D
100
AcDbEntity
  8
1
  6
Continuous
 62
     7
100
AcDbLine
 10
160.7366169204649
 20
348.8130336289302
 30
0.0
 11
162.1447742270185
 21
348.8130336289302
 31
0.0
  0
LINE
  5
126
330
4D
100
AcDbEntity
  8
1
  6
Continuous
 62
     7
100
AcDbLine
 10
162.1447742270185
 20
348.8130336289302
 30
0.0
 11
162.1447742270185
 21
349.6260336289303
 31
0.0
  0
LINE
  5
127
330
4D
100
AcDbEntity
  8
1
  6
Continuous
 62
     2
100
AcDbLine
 10
160.7366169204649
 20
348.8130336289302
 30
0.0
 11
162.1447742270185
 21
349.6260336289303
 31
0.0
  0
LINE
  5
128
330
4D
100
AcDbEntity
  8
1
  6
Continuous
 62
     2
100
AcDbLine
 10
111.3029315335721
 20
355.5390336289302
 30
0.0
 11
110.0697742270186
 21
354.8270699260385
 31
0.0
  0
LINE
  5
129
330
4D
100
AcDbEntity
  8
1
  6
Continuous
 62
     7
100
AcDbLine
 10
162.1447742270185
 20
352.1760336289301
 30
0.0
 11
162.1447742270185
 21
354.7260336289302
 31
0.0
  0
LINE
  5
12A
330
4D
100
AcDbEntity
  8
1
  6
Continuous
 62
     7
100
AcDbLine
 10
162.1447742270185
 20
355.5390336289302
 30
0.0
 11
160.7366169204649
 21
355.5390336289302
 31
0.0
  0
LINE
  5
12B
330
4D
100
AcDbEntity
  8
1
  6
Continuous
 62
     7
100
AcDbLine
 10
162.1447742270185
 20
354.7260336289302
 30
0.0
 11
162.1447742270185
 21
355.5390336289302
 31
0.0
  0
LINE
  5
12C
330
4D
100
AcDbEntity
  8
1
  6
Continuous
 62
     7
100
AcDbLine
 10
160.7366169204649
 20
355.5390336289302
 30
0.0
 11
110.0697742270185
 21
355.5390336289306
 31
0.0
  0
LINE
  5
12D
330
4D
100
AcDbEntity
  8
1
  6
Continuous
 62
     2
100
AcDbLine
 10
162.1447742270185
 20
354.7260336289302
 30
0.0
 11
160.7366169204649
 21
355.5390336289302
 31
0.0
  0
LINE
  5
12E
330
4D
100
AcDbEntity
  8
1
  6
Continuous
 62
     7
100
AcDbLine
 10
110.0697742270185
 20
348.8130336289302
 30
0.0
 11
160.7366169204649
 21
348.8130336289302
 31
0.0
  0
LINE
  5
12F
330
4D
100
AcDbEntity
  8
1
  6
PHANTOM
 62
     4
100
AcDbLine
 10
183.8947742270186
 20
243.4559476238788
 30
0.0
 11
183.8947742270186
 21
240.9059476238788
 31
0.0
  0
LINE
  5
130
330
4D
100
AcDbEntity
  8
1
  6
PHANTOM
 62
     4
100
AcDbLine
 10
183.0817742270185
 20
240.9059476238788
 30
0.0
 11
183.0817742270185
 21
243.4559476238788
 31
0.0
  0
LINE
  5
131
330
4D
100
AcDbEntity
  8
1
  6
PHANTOM
 62
     4
100
AcDbLine
 10
183.0817742270185
 20
244.2689476238788
 30
0.0
 11
183.8947742270186
 21
243.4559476238788
 31
0.0
  0
LINE
  5
132
330
4D
100
AcDbEntity
  8
1
  6
PHANTOM
 62
     4
100
AcDbLine
 10
183.8947742270186
 20
240.9059476238788
 30
0.0
 11
183.8947742270186
 21
238.3559476238788
 31
0.0
  0
LINE
  5
133
330
4D
100
AcDbEntity
  8
1
  6
PHANTOM
 62
     4
100
AcDbLine
 10
183.0817742270185
 20
237.5429476238788
 30
0.0
 11
183.0817742270185
 21
238.3559476238788
 31
0.0
  0
LINE
  5
134
330
4D
100
AcDbEntity
  8
1
  6
PHANTOM
 62
     4
100
AcDbLine
 10
183.8947742270186
 20
238.3559476238788
 30
0.0
 11
183.0817742270185
 21
237.5429476238788
 31
0.0
  0
LINE
  5
135
330
4D
100
AcDbEntity
  8
1
  6
PHANTOM
 62
     4
100
AcDbLine
 10
103.8947742270186
 20
243.4559476238788
 30
0.0
 11
103.8947742270186
 21
240.9059476238788
 31
0.0
  0
LINE
  5
136
330
4D
100
AcDbEntity
  8
1
  6
PHANTOM
 62
     4
100
AcDbLine
 10
106.8947742270186
 20
243.4559476238788
 30
0.0
 11
103.8947742270186
 21
243.4559476238788
 31
0.0
  0
LINE
  5
137
330
4D
100
AcDbEntity
  8
1
  6
PHANTOM
 62
     4
100
AcDbLine
 10
106.8947742270186
 20
244.2689476238789
 30
0.0
 11
104.7077742270186
 21
244.2689476238788
 31
0.0
  0
LINE
  5
138
330
4D
100
AcDbEntity
  8
1
  6
PHANTOM
 62
     4
100
AcDbLine
 10
103.8947742270186
 20
243.4559476238788
 30
0.0
 11
104.7077742270186
 21
244.2689476238788
 31
0.0
  0
LINE
  5
139
330
4D
100
AcDbEntity
  8
1
  6
PHANTOM
 62
     4
100
AcDbLine
 10
104.7077742270186
 20
244.2689476238788
 30
0.0
 11
104.7077742270186
 21
240.9059476238788
 31
0.0
  0
LINE
  5
13A
330
4D
100
AcDbEntity
  8
1
  6
PHANTOM
 62
     4
100
AcDbLine
 10
103.8947742270186
 20
240.9059476238788
 30
0.0
 11
103.8947742270186
 21
238.3559476238788
 31
0.0
  0
LINE
  5
13B
330
4D
100
AcDbEntity
  8
1
  6
PHANTOM
 62
     4
100
AcDbLine
 10
103.8947742270186
 20
238.3559476238788
 30
0.0
 11
106.8947742270186
 21
238.3559476238788
 31
0.0
  0
LINE
  5
13C
330
4D
100
AcDbEntity
  8
1
  6
PHANTOM
 62
     4
100
AcDbLine
 10
104.7077742270186
 20
237.5429476238788
 30
0.0
 11
106.8947742270186
 21
237.5429476238787
 31
0.0
  0
LINE
  5
13D
330
4D
100
AcDbEntity
  8
1
  6
PHANTOM
 62
     4
100
AcDbLine
 10
104.7077742270186
 20
237.5429476238788
 30
0.0
 11
103.8947742270186
 21
238.3559476238788
 31
0.0
  0
LINE
  5
13E
330
4D
100
AcDbEntity
  8
1
  6
PHANTOM
 62
     4
100
AcDbLine
 10
104.7077742270186
 20
240.9059476238788
 30
0.0
 11
104.7077742270186
 21
237.5429476238788
 31
0.0
  0
LINE
  5
13F
330
4D
100
AcDbEntity
  8
1
  6
Continuous
 62
     2
100
AcDbLine
 10
110.0697742270186
 20
238.2549113267706
 30
0.0
 11
111.3029315335721
 21
237.5429476238788
 31
0.0
  0
LINE
  5
140
330
4D
100
AcDbEntity
  8
1
  6
Continuous
 62
     7
100
AcDbLine
 10
173.3197742270184
 20
244.2689476238788
 30
0.0
 11
162.1447742270185
 21
244.2689476238788
 31
0.0
  0
LINE
  5
141
330
4D
100
AcDbEntity
  8
1
  6
Continuous
 62
     2
100
AcDbLine
 10
173.3197742270184
 20
243.4559476238788
 30
0.0
 11
162.1447742270185
 21
243.4559476238788
 31
0.0
  0
LINE
  5
142
330
4D
100
AcDbEntity
  8
1
  6
Continuous
 62
     7
100
AcDbLine
 10
162.1447742270185
 20
237.5429476238788
 30
0.0
 11
173.3197742270184
 21
237.5429476238788
 31
0.0
  0
LINE
  5
143
330
4D
100
AcDbEntity
  8
1
  6
Continuous
 62
     7
100
AcDbLine
 10
162.1447742270185
 20
238.3559476238788
 30
0.0
 11
162.1447742270185
 21
240.9059476238788
 31
0.0
  0
LINE
  5
144
330
4D
100
AcDbEntity
  8
1
  6
Continuous
 62
     2
100
AcDbLine
 10
162.1447742270185
 20
238.3559476238788
 30
0.0
 11
173.3197742270184
 21
238.3559476238788
 31
0.0
  0
LINE
  5
145
330
4D
100
AcDbEntity
  8
1
  6
Continuous
 62
     7
100
AcDbLine
 10
160.7366169204649
 20
237.5429476238788
 30
0.0
 11
162.1447742270185
 21
237.5429476238788
 31
0.0
  0
LINE
  5
146
330
4D
100
AcDbEntity
  8
1
  6
Continuous
 62
     7
100
AcDbLine
 10
162.1447742270185
 20
237.5429476238788
 30
0.0
 11
162.1447742270185
 21
238.3559476238788
 31
0.0
  0
LINE
  5
147
330
4D
100
AcDbEntity
  8
1
  6
Continuous
 62
     2
100
AcDbLine
 10
160.7366169204649
 20
237.5429476238788
 30
0.0
 11
162.1447742270185
 21
238.3559476238788
 31
0.0
  0
LINE
  5
148
330
4D
100
AcDbEntity
  8
1
  6
Continuous
 62
     2
100
AcDbLine
 10
111.3029315335721
 20
244.2689476238788
 30
0.0
 11
110.0697742270186
 21
243.556983920987
 31
0.0
  0
LINE
  5
149
330
4D
100
AcDbEntity
  8
1
  6
Continuous
 62
     7
100
AcDbLine
 10
162.1447742270185
 20
240.9059476238788
 30
0.0
 11
162.1447742270185
 21
243.4559476238788
 31
0.0
  0
LINE
  5
14A
330
4D
100
AcDbEntity
  8
1
  6
Continuous
 62
     7
100
AcDbLine
 10
162.1447742270185
 20
244.2689476238788
 30
0.0
 11
160.7366169204649
 21
244.2689476238788
 31
0.0
  0
LINE
  5
14B
330
4D
100
AcDbEntity
  8
1
  6
Continuous
 62
     7
100
AcDbLine
 10
162.1447742270185
 20
243.4559476238788
 30
0.0
 11
162.1447742270185
 21
244.2689476238788
 31
0.0
  0
LINE
  5
14C
330
4D
100
AcDbEntity
  8
1
  6
Continuous
 62
     7
100
AcDbLine
 10
160.7366169204649
 20
244.2689476238788
 30
0.0
 11
110.0697742270186
 21
244.2689476238789
 31
0.0
  0
LINE
  5
14D
330
4D
100
AcDbEntity
  8
1
  6
Continuous
 62
     2
100
AcDbLine
 10
162.1447742270185
 20
243.4559476238788
 30
0.0
 11
160.7366169204649
 21
244.2689476238788
 31
0.0
  0
LINE
  5
14E
330
4D
100
AcDbEntity
  8
1
  6
Continuous
 62
     7
100
AcDbLine
 10
110.0697742270186
 20
237.5429476238785
 30
0.0
 11
160.7366169204649
 21
237.5429476238788
 31
0.0
  0
LINE
  5
14F
330
4D
100
AcDbEntity
  8
1
  6
PHANTOM
 62
     4
100
AcDbLine
 10
180.8947742270186
 20
243.4559476238788
 30
0.0
 11
183.8947742270186
 21
243.4559476238788
 31
0.0
  0
LINE
  5
150
330
4D
100
AcDbEntity
  8
1
  6
PHANTOM
 62
     4
100
AcDbLine
 10
183.0817742270185
 20
243.4559476238788
 30
0.0
 11
183.0817742270185
 21
244.2689476238788
 31
0.0
  0
LINE
  5
151
330
4D
100
AcDbEntity
  8
1
  6
PHANTOM
 62
     4
100
AcDbLine
 10
183.8947742270186
 20
238.3559476238788
 30
0.0
 11
180.8947742270186
 21
238.3559476238788
 31
0.0
  0
LINE
  5
152
330
4D
100
AcDbEntity
  8
1
  6
PHANTOM
 62
     4
100
AcDbLine
 10
183.0817742270185
 20
238.3559476238788
 30
0.0
 11
183.0817742270185
 21
240.9059476238788
 31
0.0
  0
LINE
  5
153
330
4D
100
AcDbEntity
  8
1
  6
PHANTOM
 62
     4
100
AcDbLine
 10
183.0817742270185
 20
244.2689476238788
 30
0.0
 11
180.8947742270186
 21
244.2689476238788
 31
0.0
  0
LINE
  5
154
330
4D
100
AcDbEntity
  8
1
  6
PHANTOM
 62
     4
100
AcDbLine
 10
180.8947742270186
 20
237.5429476238788
 30
0.0
 11
183.0817742270185
 21
237.5429476238788
 31
0.0
  0
ENDBLK
  5
4F
330
4D
100
AcDbEntity
  8
0
100
AcDbBlockEnd
  0
BLOCK
  5
51
330
50
100
AcDbEntity
  8
0
100
AcDbBlockBegin
  2
H86F-A
 70
     0
 10
86.31977422701841
 20
285.4059476238788
 30
0.0
  3
H86F-A
  1

  0
LINE
  5
155
330
50
100
AcDbEntity
  8
1
  6
Continuous
 62
     7
100
AcDbLine
 10
99.06977422701856
 20
359.9260336289303
 30
0.0
 11
99.06977422701856
 21
363.4260336289303
 31
0.0
  0
LINE
  5
156
330
50
100
AcDbEntity
  8
1
  6
Continuous
 62
     7
100
AcDbLine
 10
96.06977422701856
 20
373.6760336289303
 30
0.0
 11
96.06977422701856
 21
368.8957245717044
 31
0.0
  0
LINE
  5
157
330
50
100
AcDbEntity
  8
1
  6
Continuous
 62
     7
100
AcDbLine
 10
99.06977422701856
 20
372.6760336289303
 30
0.0
 11
99.06977422701856
 21
370.9260336289303
 31
0.0
  0
LINE
  5
158
330
50
100
AcDbEntity
  8
1
  6
Continuous
 62
     7
100
AcDbLine
 10
96.06977422701856
 20
352.1760336289303
 30
0.0
 11
96.06977422701856
 21
365.6760336289303
 31
0.0
  0
LINE
  5
159
330
50
100
AcDbEntity
  8
1
  6
Continuous
 62
     7
100
AcDbLine
 10
96.06977422701856
 20
373.6760336289303
 30
0.0
 11
98.06977422701856
 21
373.6760336289303
 31
0.0
  0
LINE
  5
15A
330
50
100
AcDbEntity
  8
1
  6
Continuous
 62
     7
100
AcDbLine
 10
108.0697742270186
 20
357.9260336289303
 30
0.0
 11
101.0697742270186
 21
357.9260336289303
 31
0.0
  0
LINE
  5
15B
330
50
100
AcDbEntity
  8
1
  6
Continuous
 62
     7
100
AcDbLine
 10
110.0697742270186
 20
354.8270699260386
 30
0.0
 11
110.0697742270186
 21
355.9260336289303
 31
0.0
  0
LINE
  5
15C
330
50
100
AcDbEntity
  8
1
  6
Continuous
 62
     7
100
AcDbLine
 10
99.06977422701856
 20
340.9260336289303
 30
0.0
 11
99.06977422701856
 21
344.4260336289303
 31
0.0
  0
LINE
  5
15D
330
50
100
AcDbEntity
  8
1
  6
Continuous
 62
     7
100
AcDbLine
 10
96.06977422701856
 20
335.4563426861564
 30
0.0
 11
96.06977422701856
 21
330.6760336289303
 31
0.0
  0
LINE
  5
15E
330
50
100
AcDbEntity
  8
1
  6
Continuous
 62
     7
100
AcDbLine
 10
99.06977422701856
 20
333.4260336289303
 30
0.0
 11
99.06977422701856
 21
331.6760336289303
 31
0.0
  0
LINE
  5
15F
330
50
100
AcDbEntity
  8
1
  6
Continuous
 62
     7
100
AcDbLine
 10
96.06977422701856
 20
338.6760336289303
 30
0.0
 11
96.06977422701856
 21
352.1760336289303
 31
0.0
  0
LINE
  5
160
330
50
100
AcDbEntity
  8
1
  6
Continuous
 62
     7
100
AcDbLine
 10
98.06977422701856
 20
330.6760336289303
 30
0.0
 11
96.06977422701856
 21
330.6760336289303
 31
0.0
  0
LINE
  5
161
330
50
100
AcDbEntity
  8
1
  6
Continuous
 62
     7
100
AcDbLine
 10
101.0697742270186
 20
346.4260336289303
 30
0.0
 11
108.0697742270186
 21
346.4260336289303
 31
0.0
  0
LINE
  5
162
330
50
100
AcDbEntity
  8
1
  6
Continuous
 62
     7
100
AcDbLine
 10
110.0697742270186
 20
348.4260336289303
 30
0.0
 11
110.0697742270186
 21
354.8270699260386
 31
0.0
  0
LINE
  5
163
330
50
100
AcDbEntity
  8
1
  6
Continuous
 62
     7
100
AcDbLine
 10
96.06977422701856
 20
338.6760336289303
 30
0.0
 11
96.06977422701856
 21
335.4563426861564
 31
0.0
  0
LINE
  5
164
330
50
100
AcDbEntity
  8
1
  6
Continuous
 62
     7
100
AcDbLine
 10
99.06977422701856
 20
340.9260336289303
 30
0.0
 11
99.06977422701856
 21
333.4260336289303
 31
0.0
  0
LINE
  5
165
330
50
100
AcDbEntity
  8
1
  6
Continuous
 62
     7
100
AcDbLine
 10
99.06977422701856
 20
359.9260336289303
 30
0.0
 11
99.06977422701856
 21
344.4260336289303
 31
0.0
  0
LINE
  5
166
330
50
100
AcDbEntity
  8
1
  6
Continuous
 62
     7
100
AcDbLine
 10
96.06977422701856
 20
365.6760336289303
 30
0.0
 11
96.06977422701856
 21
368.8957245717044
 31
0.0
  0
LINE
  5
167
330
50
100
AcDbEntity
  8
1
  6
Continuous
 62
     7
100
AcDbLine
 10
99.06977422701856
 20
370.9260336289303
 30
0.0
 11
99.06977422701856
 21
363.4260336289303
 31
0.0
  0
LINE
  5
168
330
50
100
AcDbEntity
  8
1
  6
Continuous
 62
     7
100
AcDbLine
 10
99.06977422701856
 20
248.6559476238788
 30
0.0
 11
99.06977422701856
 21
252.1559476238788
 31
0.0
  0
LINE
  5
169
330
50
100
AcDbEntity
  8
1
  6
Continuous
 62
     7
100
AcDbLine
 10
96.06977422701856
 20
262.4059476238788
 30
0.0
 11
96.06977422701856
 21
257.6256385666527
 31
0.0
  0
LINE
  5
16A
330
50
100
AcDbEntity
  8
1
  6
Continuous
 62
     7
100
AcDbLine
 10
99.06977422701856
 20
261.4059476238788
 30
0.0
 11
99.06977422701856
 21
259.6559476238788
 31
0.0
  0
LINE
  5
16B
330
50
100
AcDbEntity
  8
1
  6
Continuous
 62
     7
100
AcDbLine
 10
96.06977422701856
 20
240.9059476238788
 30
0.0
 11
96.06977422701856
 21
254.4059476238788
 31
0.0
  0
LINE
  5
16C
330
50
100
AcDbEntity
  8
1
  6
Continuous
 62
     7
100
AcDbLine
 10
96.06977422701856
 20
262.4059476238788
 30
0.0
 11
98.06977422701856
 21
262.4059476238788
 31
0.0
  0
LINE
  5
16D
330
50
100
AcDbEntity
  8
1
  6
Continuous
 62
     7
100
AcDbLine
 10
110.0697742270186
 20
243.556983920987
 30
0.0
 11
110.0697742270186
 21
244.6559476238788
 31
0.0
  0
LINE
  5
16E
330
50
100
AcDbEntity
  8
1
  6
Continuous
 62
     7
100
AcDbLine
 10
99.06977422701856
 20
229.6559476238788
 30
0.0
 11
99.06977422701856
 21
233.1559476238788
 31
0.0
  0
LINE
  5
16F
330
50
100
AcDbEntity
  8
1
  6
Continuous
 62
     7
100
AcDbLine
 10
96.06977422701856
 20
224.1862566811049
 30
0.0
 11
96.06977422701856
 21
219.4059476238788
 31
0.0
  0
LINE
  5
170
330
50
100
AcDbEntity
  8
1
  6
Continuous
 62
     7
100
AcDbLine
 10
99.06977422701856
 20
222.1559476238788
 30
0.0
 11
99.06977422701856
 21
220.4059476238788
 31
0.0
  0
LINE
  5
171
330
50
100
AcDbEntity
  8
1
  6
Continuous
 62
     7
100
AcDbLine
 10
96.06977422701856
 20
227.4059476238788
 30
0.0
 11
96.06977422701856
 21
240.9059476238788
 31
0.0
  0
LINE
  5
172
330
50
100
AcDbEntity
  8
1
  6
Continuous
 62
     7
100
AcDbLine
 10
98.06977422701856
 20
219.4059476238788
 30
0.0
 11
96.06977422701856
 21
219.4059476238788
 31
0.0
  0
LINE
  5
173
330
50
100
AcDbEntity
  8
1
  6
Continuous
 62
     7
100
AcDbLine
 10
101.0697742270186
 20
235.1559476238788
 30
0.0
 11
108.0697742270186
 21
235.1559476238788
 31
0.0
  0
LINE
  5
174
330
50
100
AcDbEntity
  8
1
  6
Continuous
 62
     7
100
AcDbLine
 10
110.0697742270186
 20
237.1559476238788
 30
0.0
 11
110.0697742270186
 21
243.556983920987
 31
0.0
  0
LINE
  5
175
330
50
100
AcDbEntity
  8
1
  6
Continuous
 62
     7
100
AcDbLine
 10
96.06977422701856
 20
227.4059476238788
 30
0.0
 11
96.06977422701856
 21
224.1862566811049
 31
0.0
  0
LINE
  5
176
330
50
100
AcDbEntity
  8
1
  6
Continuous
 62
     7
100
AcDbLine
 10
99.06977422701856
 20
229.6559476238788
 30
0.0
 11
99.06977422701856
 21
222.1559476238788
 31
0.0
  0
LINE
  5
177
330
50
100
AcDbEntity
  8
1
  6
Continuous
 62
     7
100
AcDbLine
 10
99.06977422701856
 20
248.6559476238788
 30
0.0
 11
99.06977422701856
 21
233.1559476238788
 31
0.0
  0
LINE
  5
178
330
50
100
AcDbEntity
  8
1
  6
Continuous
 62
     7
100
AcDbLine
 10
96.06977422701856
 20
254.4059476238788
 30
0.0
 11
96.06977422701856
 21
257.6256385666527
 31
0.0
  0
LINE
  5
179
330
50
100
AcDbEntity
  8
1
  6
Continuous
 62
     7
100
AcDbLine
 10
99.06977422701856
 20
259.6559476238788
 30
0.0
 11
99.06977422701856
 21
252.1559476238788
 31
0.0
  0
LINE
  5
17A
330
50
100
AcDbEntity
  8
1
  6
Continuous
 62
     7
100
AcDbLine
 10
108.0697742270186
 20
246.6559476238788
 30
0.0
 11
101.0697742270186
 21
246.6559476238788
 31
0.0
  0
ARC
  5
17B
330
50
100
AcDbEntity
  8
1
  6
Continuous
 62
     7
100
AcDbCircle
 10
98.06977422701856
 20
372.6760336289303
 30
0.0
 40
1.0
100
AcDbArc
 50
0.0
 51
90.0
  0
ARC
  5
17C
330
50
100
AcDbEntity
  8
1
  6
Continuous
 62
     7
100
AcDbCircle
 10
108.0697742270186
 20
355.9260336289303
 30
0.0
 40
2.0
100
AcDbArc
 50
0.0
 51
90.0
  0
ARC
  5
17D
330
50
100
AcDbEntity
  8
1
  6
Continuous
 62
     7
100
AcDbCircle
 10
101.0697742270186
 20
359.9260336289303
 30
0.0
 40
2.000000000000043
100
AcDbArc
 50
180.0
 51
270.0
  0
ARC
  5
17E
330
50
100
AcDbEntity
  8
1
  6
Continuous
 62
     7
100
AcDbCircle
 10
98.06977422701856
 20
331.6760336289303
 30
0.0
 40
1.0
100
AcDbArc
 50
270.0
 51
0.0
  0
ARC
  5
17F
330
50
100
AcDbEntity
  8
1
  6
Continuous
 62
     7
100
AcDbCircle
 10
108.0697742270186
 20
348.4260336289303
 30
0.0
 40
2.0
100
AcDbArc
 50
270.0
 51
0.0
  0
ARC
  5
180
330
50
100
AcDbEntity
  8
1
  6
Continuous
 62
     7
100
AcDbCircle
 10
101.0697742270186
 20
344.4260336289303
 30
0.0
 40
2.0
100
AcDbArc
 50
90.0
 51
180.0
  0
ARC
  5
181
330
50
100
AcDbEntity
  8
1
  6
Continuous
 62
     7
100
AcDbCircle
 10
98.06977422701856
 20
261.4059476238788
 30
0.0
 40
1.0
100
AcDbArc
 50
0.0
 51
90.0
  0
ARC
  5
182
330
50
100
AcDbEntity
  8
1
  6
Continuous
 62
     7
100
AcDbCircle
 10
108.0697742270186
 20
244.6559476238788
 30
0.0
 40
2.0
100
AcDbArc
 50
0.0
 51
90.0
  0
ARC
  5
183
330
50
100
AcDbEntity
  8
1
  6
Continuous
 62
     7
100
AcDbCircle
 10
101.0697742270186
 20
248.6559476238788
 30
0.0
 40
2.000000000000043
100
AcDbArc
 50
180.0
 51
270.0
  0
ARC
  5
184
330
50
100
AcDbEntity
  8
1
  6
Continuous
 62
     7
100
AcDbCircle
 10
98.06977422701856
 20
220.4059476238788
 30
0.0
 40
1.0
100
AcDbArc
 50
270.0
 51
0.0
  0
ARC
  5
185
330
50
100
AcDbEntity
  8
1
  6
Continuous
 62
     7
100
AcDbCircle
 10
108.0697742270186
 20
237.1559476238788
 30
0.0
 40
2.0
100
AcDbArc
 50
270.0
 51
0.0
  0
ARC
  5
186
330
50
100
AcDbEntity
  8
1
  6
Continuous
 62
     7
100
AcDbCircle
 10
101.0697742270186
 20
233.1559476238788
 30
0.0
 40
2.0
100
AcDbArc
 50
90.0
 51
180.0
  0
ENDBLK
  5
52
330
50
100
AcDbEntity
  8
0
100
AcDbBlockEnd
  0
BLOCK
  5
54
330
53
100
AcDbEntity
  8
0
100
AcDbBlockBegin
  2
H86F-B
 70
     0
 10
79.23951314773883
 20
249.9801612960764
 30
0.0
  3
H86F-B
  1

  0
LINE
  5
187
330
53
100
AcDbEntity
  8
1
  6
Continuous
 62
     7
100
AcDbLine
 10
99.81977422701866
 20
356.1760336289306
 30
0.0
 11
99.81977422701866
 21
348.1760336289306
 31
0.0
  0
LINE
  5
188
330
53
100
AcDbEntity
  8
1
  6
Continuous
 62
     7
100
AcDbLine
 10
99.81977422701866
 20
348.1760336289306
 30
0.0
 11
99.31977422701856
 21
348.1760336289306
 31
0.0
  0
LINE
  5
189
330
53
100
AcDbEntity
  8
1
  6
Continuous
 62
     7
100
AcDbLine
 10
99.81977422701866
 20
356.1760336289306
 30
0.0
 11
99.31977422701856
 21
356.1760336289306
 31
0.0
  0
LINE
  5
18A
330
53
100
AcDbEntity
  8
1
  6
Continuous
 62
     7
100
AcDbLine
 10
99.31977422701856
 20
356.1760336289306
 30
0.0
 11
99.06977422701856
 21
355.9260336289306
 31
0.0
  0
LINE
  5
18B
330
53
100
AcDbEntity
  8
1
  6
Continuous
 62
     7
100
AcDbLine
 10
99.31977422701856
 20
356.1760336289306
 30
0.0
 11
99.31977422701856
 21
348.1760336289306
 31
0.0
  0
LINE
  5
18C
330
53
100
AcDbEntity
  8
1
  6
Continuous
 62
     7
100
AcDbLine
 10
95.20262979453885
 20
354.1760336289306
 30
0.0
 11
95.90793771737276
 21
350.1760336289306
 31
0.0
  0
LINE
  5
18D
330
53
100
AcDbEntity
  8
1
  6
Continuous
 62
     7
100
AcDbLine
 10
95.20262979453885
 20
354.1760336289306
 30
0.0
 11
95.49130492913376
 21
353.6760336289306
 31
0.0
  0
LINE
  5
18E
330
53
100
AcDbEntity
  8
1
  6
Continuous
 62
     7
100
AcDbLine
 10
95.49130492913376
 20
353.6760336289306
 30
0.0
 11
96.06977422701856
 21
351.2155368197043
 31
0.0
  0
LINE
  5
18F
330
53
100
AcDbEntity
  8
1
  6
Continuous
 62
     7
100
AcDbLine
 10
95.90793771737276
 20
350.1760336289306
 30
0.0
 11
95.61926258277795
 21
350.6760336289306
 31
0.0
  0
LINE
  5
190
330
53
100
AcDbEntity
  8
1
  6
Continuous
 62
     7
100
AcDbLine
 10
95.61926258277795
 20
350.6760336289306
 30
0.0
 11
94.91395465994415
 21
353.6760336289306
 31
0.0
  0
LINE
  5
191
330
53
100
AcDbEntity
  8
1
  6
Continuous
 62
     7
100
AcDbLine
 10
94.91395465994415
 20
353.6760336289306
 30
0.0
 11
95.20262979453885
 21
354.1760336289306
 31
0.0
  0
LINE
  5
192
330
53
100
AcDbEntity
  8
1
  6
Continuous
 62
     7
100
AcDbLine
 10
95.61926258277795
 20
350.6760336289306
 30
0.0
 11
94.61926258277795
 21
350.6760336289306
 31
0.0
  0
LINE
  5
193
330
53
100
AcDbEntity
  8
1
  6
Continuous
 62
     7
100
AcDbLine
 10
93.91395465994415
 20
353.6760336289306
 30
0.0
 11
94.61926258277795
 21
350.6760336289306
 31
0.0
  0
LINE
  5
194
330
53
100
AcDbEntity
  8
1
  6
Continuous
 62
     7
100
AcDbLine
 10
94.61926258277795
 20
350.6760336289306
 30
0.0
 11
94.33058744818315
 21
350.1760336289306
 31
0.0
  0
LINE
  5
195
330
53
100
AcDbEntity
  8
1
  6
Continuous
 62
     7
100
AcDbLine
 10
93.62527952534926
 20
354.1760336289306
 30
0.0
 11
93.91395465994415
 21
353.6760336289306
 31
0.0
  0
LINE
  5
196
330
53
100
AcDbEntity
  8
1
  6
Continuous
 62
     7
100
AcDbLine
 10
93.62527952534926
 20
354.1760336289306
 30
0.0
 11
94.33058744818315
 21
350.1760336289306
 31
0.0
  0
LINE
  5
197
330
53
100
AcDbEntity
  8
1
  6
Continuous
 62
     7
100
AcDbLine
 10
93.33660439075446
 20
353.6760336289306
 30
0.0
 11
93.62527952534926
 21
354.1760336289306
 31
0.0
  0
LINE
  5
198
330
53
100
AcDbEntity
  8
1
  6
Continuous
 62
     7
100
AcDbLine
 10
94.04191231358836
 20
350.6760336289306
 30
0.0
 11
93.33660439075446
 21
353.6760336289306
 31
0.0
  0
LINE
  5
199
330
53
100
AcDbEntity
  8
1
  6
Continuous
 62
     7
100
AcDbLine
 10
94.33058744818315
 20
350.1760336289306
 30
0.0
 11
94.04191231358836
 21
350.6760336289306
 31
0.0
  0
LINE
  5
19A
330
53
100
AcDbEntity
  8
1
  6
Continuous
 62
     7
100
AcDbLine
 10
94.91395465994415
 20
353.6760336289306
 30
0.0
 11
93.91395465994415
 21
353.6760336289306
 31
0.0
  0
LINE
  5
19B
330
53
100
AcDbEntity
  8
1
  6
Continuous
 62
     7
100
AcDbLine
 10
91.47057898697005
 20
354.1760336289306
 30
0.0
 11
91.75925412156485
 21
353.6760336289306
 31
0.0
  0
LINE
  5
19C
330
53
100
AcDbEntity
  8
1
  6
Continuous
 62
     7
100
AcDbLine
 10
91.47057898697005
 20
354.1760336289306
 30
0.0
 11
92.17588690980385
 21
350.1760336289306
 31
0.0
  0
LINE
  5
19D
330
53
100
AcDbEntity
  8
1
  6
Continuous
 62
     7
100
AcDbLine
 10
91.18190385237526
 20
353.6760336289306
 30
0.0
 11
91.47057898697005
 21
354.1760336289306
 31
0.0
  0
LINE
  5
19E
330
53
100
AcDbEntity
  8
1
  6
Continuous
 62
     7
100
AcDbLine
 10
91.88721177520905
 20
350.6760336289306
 30
0.0
 11
91.18190385237526
 21
353.6760336289306
 31
0.0
  0
LINE
  5
19F
330
53
100
AcDbEntity
  8
1
  6
Continuous
 62
     7
100
AcDbLine
 10
92.17588690980385
 20
350.1760336289306
 30
0.0
 11
91.88721177520905
 21
350.6760336289306
 31
0.0
  0
LINE
  5
1A0
330
53
100
AcDbEntity
  8
1
  6
Continuous
 62
     7
100
AcDbLine
 10
91.75925412156485
 20
353.6760336289306
 30
0.0
 11
92.46456204439876
 21
350.6760336289306
 31
0.0
  0
LINE
  5
1A1
330
53
100
AcDbEntity
  8
1
  6
Continuous
 62
     7
100
AcDbLine
 10
92.46456204439876
 20
350.6760336289306
 30
0.0
 11
92.17588690980385
 21
350.1760336289306
 31
0.0
  0
LINE
  5
1A2
330
53
100
AcDbEntity
  8
1
  6
Continuous
 62
     7
100
AcDbLine
 10
89.31587844859075
 20
354.1760336289306
 30
0.0
 11
89.60455358318566
 21
353.6760336289306
 31
0.0
  0
LINE
  5
1A3
330
53
100
AcDbEntity
  8
1
  6
Continuous
 62
     7
100
AcDbLine
 10
89.31587844859075
 20
354.1760336289306
 30
0.0
 11
90.02118637142466
 21
350.1760336289306
 31
0.0
  0
LINE
  5
1A4
330
53
100
AcDbEntity
  8
1
  6
Continuous
 62
     7
100
AcDbLine
 10
89.02720331399595
 20
353.6760336289306
 30
0.0
 11
89.31587844859075
 21
354.1760336289306
 31
0.0
  0
LINE
  5
1A5
330
53
100
AcDbEntity
  8
1
  6
Continuous
 62
     7
100
AcDbLine
 10
89.73251123682985
 20
350.6760336289306
 30
0.0
 11
89.02720331399595
 21
353.6760336289306
 31
0.0
  0
LINE
  5
1A6
330
53
100
AcDbEntity
  8
1
  6
Continuous
 62
     7
100
AcDbLine
 10
90.02118637142466
 20
350.1760336289306
 30
0.0
 11
89.73251123682985
 21
350.6760336289306
 31
0.0
  0
LINE
  5
1A7
330
53
100
AcDbEntity
  8
1
  6
Continuous
 62
     7
100
AcDbLine
 10
89.60455358318566
 20
353.6760336289306
 30
0.0
 11
90.30986150601946
 21
350.6760336289306
 31
0.0
  0
LINE
  5
1A8
330
53
100
AcDbEntity
  8
1
  6
Continuous
 62
     7
100
AcDbLine
 10
90.30986150601946
 20
350.6760336289306
 30
0.0
 11
90.02118637142466
 21
350.1760336289306
 31
0.0
  0
LINE
  5
1A9
330
53
100
AcDbEntity
  8
1
  6
Continuous
 62
     7
100
AcDbLine
 10
87.16117791021156
 20
354.1760336289306
 30
0.0
 11
87.44985304480636
 21
353.6760336289306
 31
0.0
  0
LINE
  5
1AA
330
53
100
AcDbEntity
  8
1
  6
Continuous
 62
     7
100
AcDbLine
 10
87.16117791021156
 20
354.1760336289306
 30
0.0
 11
87.86648583304546
 21
350.1760336289306
 31
0.0
  0
LINE
  5
1AB
330
53
100
AcDbEntity
  8
1
  6
Continuous
 62
     7
100
AcDbLine
 10
86.87250277561675
 20
353.6760336289306
 30
0.0
 11
87.16117791021156
 21
354.1760336289306
 31
0.0
  0
LINE
  5
1AC
330
53
100
AcDbEntity
  8
1
  6
Continuous
 62
     7
100
AcDbLine
 10
87.57781069845056
 20
350.6760336289306
 30
0.0
 11
86.87250277561675
 21
353.6760336289306
 31
0.0
  0
LINE
  5
1AD
330
53
100
AcDbEntity
  8
1
  6
Continuous
 62
     7
100
AcDbLine
 10
87.86648583304546
 20
350.1760336289306
 30
0.0
 11
87.57781069845056
 21
350.6760336289306
 31
0.0
  0
LINE
  5
1AE
330
53
100
AcDbEntity
  8
1
  6
Continuous
 62
     7
100
AcDbLine
 10
87.44985304480636
 20
353.6760336289306
 30
0.0
 11
88.15516096764026
 21
350.6760336289306
 31
0.0
  0
LINE
  5
1AF
330
53
100
AcDbEntity
  8
1
  6
Continuous
 62
     7
100
AcDbLine
 10
88.15516096764026
 20
350.6760336289306
 30
0.0
 11
87.86648583304546
 21
350.1760336289306
 31
0.0
  0
LINE
  5
1B0
330
53
100
AcDbEntity
  8
1
  6
Continuous
 62
     7
100
AcDbLine
 10
85.00647737183226
 20
354.1760336289306
 30
0.0
 11
85.29515250642716
 21
353.6760336289306
 31
0.0
  0
LINE
  5
1B1
330
53
100
AcDbEntity
  8
1
  6
Continuous
 62
     7
100
AcDbLine
 10
85.00647737183226
 20
354.1760336289306
 30
0.0
 11
85.71178529466616
 21
350.1760336289306
 31
0.0
  0
LINE
  5
1B2
330
53
100
AcDbEntity
  8
1
  6
Continuous
 62
     7
100
AcDbLine
 10
84.71780223723745
 20
353.6760336289306
 30
0.0
 11
85.00647737183226
 21
354.1760336289306
 31
0.0
  0
LINE
  5
1B3
330
53
100
AcDbEntity
  8
1
  6
Continuous
 62
     7
100
AcDbLine
 10
85.42311016007136
 20
350.6760336289306
 30
0.0
 11
84.71780223723745
 21
353.6760336289306
 31
0.0
  0
LINE
  5
1B4
330
53
100
AcDbEntity
  8
1
  6
Continuous
 62
     7
100
AcDbLine
 10
85.71178529466616
 20
350.1760336289306
 30
0.0
 11
85.42311016007136
 21
350.6760336289306
 31
0.0
  0
LINE
  5
1B5
330
53
100
AcDbEntity
  8
1
  6
Continuous
 62
     7
100
AcDbLine
 10
85.29515250642716
 20
353.6760336289306
 30
0.0
 11
86.00046042926095
 21
350.6760336289306
 31
0.0
  0
LINE
  5
1B6
330
53
100
AcDbEntity
  8
1
  6
Continuous
 62
     7
100
AcDbLine
 10
86.00046042926095
 20
350.6760336289306
 30
0.0
 11
85.71178529466616
 21
350.1760336289306
 31
0.0
  0
LINE
  5
1B7
330
53
100
AcDbEntity
  8
1
  6
Continuous
 62
     7
100
AcDbLine
 10
82.85177683345306
 20
354.1760336289306
 30
0.0
 11
83.14045196804786
 21
353.6760336289306
 31
0.0
  0
LINE
  5
1B8
330
53
100
AcDbEntity
  8
1
  6
Continuous
 62
     7
100
AcDbLine
 10
82.85177683345306
 20
354.1760336289306
 30
0.0
 11
83.55708475628695
 21
350.1760336289306
 31
0.0
  0
LINE
  5
1B9
330
53
100
AcDbEntity
  8
1
  6
Continuous
 62
     7
100
AcDbLine
 10
82.56310169885826
 20
353.6760336289306
 30
0.0
 11
82.85177683345306
 21
354.1760336289306
 31
0.0
  0
LINE
  5
1BA
330
53
100
AcDbEntity
  8
1
  6
Continuous
 62
     7
100
AcDbLine
 10
83.26840962169206
 20
350.6760336289306
 30
0.0
 11
82.56310169885826
 21
353.6760336289306
 31
0.0
  0
LINE
  5
1BB
330
53
100
AcDbEntity
  8
1
  6
Continuous
 62
     7
100
AcDbLine
 10
83.55708475628695
 20
350.1760336289306
 30
0.0
 11
83.26840962169206
 21
350.6760336289306
 31
0.0
  0
LINE
  5
1BC
330
53
100
AcDbEntity
  8
1
  6
Continuous
 62
     7
100
AcDbLine
 10
83.14045196804786
 20
353.6760336289306
 30
0.0
 11
83.84575989088165
 21
350.6760336289306
 31
0.0
  0
LINE
  5
1BD
330
53
100
AcDbEntity
  8
1
  6
Continuous
 62
     7
100
AcDbLine
 10
83.84575989088165
 20
350.6760336289306
 30
0.0
 11
83.55708475628695
 21
350.1760336289306
 31
0.0
  0
LINE
  5
1BE
330
53
100
AcDbEntity
  8
1
  6
Continuous
 62
     7
100
AcDbLine
 10
80.69707629507386
 20
354.1760336289306
 30
0.0
 11
80.98575142966865
 21
353.6760336289306
 31
0.0
  0
LINE
  5
1BF
330
53
100
AcDbEntity
  8
1
  6
Continuous
 62
     7
100
AcDbLine
 10
80.69707629507386
 20
354.1760336289306
 30
0.0
 11
81.40238421790765
 21
350.1760336289306
 31
0.0
  0
LINE
  5
1C0
330
53
100
AcDbEntity
  8
1
  6
Continuous
 62
     7
100
AcDbLine
 10
80.40840116047906
 20
353.6760336289306
 30
0.0
 11
80.69707629507386
 21
354.1760336289306
 31
0.0
  0
LINE
  5
1C1
330
53
100
AcDbEntity
  8
1
  6
Continuous
 62
     7
100
AcDbLine
 10
81.11370908331286
 20
350.6760336289306
 30
0.0
 11
80.40840116047906
 21
353.6760336289306
 31
0.0
  0
LINE
  5
1C2
330
53
100
AcDbEntity
  8
1
  6
Continuous
 62
     7
100
AcDbLine
 10
81.40238421790765
 20
350.1760336289306
 30
0.0
 11
81.11370908331286
 21
350.6760336289306
 31
0.0
  0
LINE
  5
1C3
330
53
100
AcDbEntity
  8
1
  6
Continuous
 62
     7
100
AcDbLine
 10
80.98575142966865
 20
353.6760336289306
 30
0.0
 11
81.69105935250245
 21
350.6760336289306
 31
0.0
  0
LINE
  5
1C4
330
53
100
AcDbEntity
  8
1
  6
Continuous
 62
     7
100
AcDbLine
 10
81.69105935250245
 20
350.6760336289306
 30
0.0
 11
81.40238421790765
 21
350.1760336289306
 31
0.0
  0
LINE
  5
1C5
330
53
100
AcDbEntity
  8
1
  6
Continuous
 62
     7
100
AcDbLine
 10
94.04191231358836
 20
350.6760336289306
 30
0.0
 11
92.46456204439876
 21
350.6760336289306
 31
0.0
  0
LINE
  5
1C6
330
53
100
AcDbEntity
  8
1
  6
Continuous
 62
     7
100
AcDbLine
 10
93.33660439075446
 20
353.6760336289306
 30
0.0
 11
91.75925412156485
 21
353.6760336289306
 31
0.0
  0
LINE
  5
1C7
330
53
100
AcDbEntity
  8
1
  6
Continuous
 62
     7
100
AcDbLine
 10
91.18190385237526
 20
353.6760336289306
 30
0.0
 11
89.60455358318566
 21
353.6760336289306
 31
0.0
  0
LINE
  5
1C8
330
53
100
AcDbEntity
  8
1
  6
Continuous
 62
     7
100
AcDbLine
 10
91.88721177520905
 20
350.6760336289306
 30
0.0
 11
90.30986150601946
 21
350.6760336289306
 31
0.0
  0
LINE
  5
1C9
330
53
100
AcDbEntity
  8
1
  6
Continuous
 62
     7
100
AcDbLine
 10
89.73251123682985
 20
350.6760336289306
 30
0.0
 11
88.15516096764026
 21
350.6760336289306
 31
0.0
  0
LINE
  5
1CA
330
53
100
AcDbEntity
  8
1
  6
Continuous
 62
     7
100
AcDbLine
 10
89.02720331399595
 20
353.6760336289306
 30
0.0
 11
87.44985304480636
 21
353.6760336289306
 31
0.0
  0
LINE
  5
1CB
330
53
100
AcDbEntity
  8
1
  6
Continuous
 62
     7
100
AcDbLine
 10
86.87250277561675
 20
353.6760336289306
 30
0.0
 11
85.29515250642716
 21
353.6760336289306
 31
0.0
  0
LINE
  5
1CC
330
53
100
AcDbEntity
  8
1
  6
Continuous
 62
     7
100
AcDbLine
 10
87.57781069845056
 20
350.6760336289306
 30
0.0
 11
86.00046042926095
 21
350.6760336289306
 31
0.0
  0
LINE
  5
1CD
330
53
100
AcDbEntity
  8
1
  6
Continuous
 62
     7
100
AcDbLine
 10
85.42311016007136
 20
350.6760336289306
 30
0.0
 11
83.84575989088165
 21
350.6760336289306
 31
0.0
  0
LINE
  5
1CE
330
53
100
AcDbEntity
  8
1
  6
Continuous
 62
     7
100
AcDbLine
 10
84.71780223723745
 20
353.6760336289306
 30
0.0
 11
83.14045196804786
 21
353.6760336289306
 31
0.0
  0
LINE
  5
1CF
330
53
100
AcDbEntity
  8
1
  6
Continuous
 62
     7
100
AcDbLine
 10
82.56310169885826
 20
353.6760336289306
 30
0.0
 11
80.98575142966865
 21
353.6760336289306
 31
0.0
  0
LINE
  5
1D0
330
53
100
AcDbEntity
  8
1
  6
Continuous
 62
     7
100
AcDbLine
 10
83.26840962169206
 20
350.6760336289306
 30
0.0
 11
81.69105935250245
 21
350.6760336289306
 31
0.0
  0
LINE
  5
1D1
330
53
100
AcDbEntity
  8
1
  6
Continuous
 62
     7
100
AcDbLine
 10
79.48507776662426
 20
353.4260979448137
 30
0.0
 11
80.11370908331286
 21
350.7575280594035
 31
0.0
  0
LINE
  5
1D2
330
53
100
AcDbEntity
  8
1
  6
Continuous
 62
     7
100
AcDbLine
 10
79.22625872152176
 20
353.8743856808977
 30
0.0
 11
79.85489003821036
 21
350.3092403233194
 31
0.0
  0
LINE
  5
1D3
330
53
100
AcDbEntity
  8
1
  6
Continuous
 62
     7
100
AcDbLine
 10
79.22625872152176
 20
353.8743856808977
 30
0.0
 11
79.48507776662426
 21
353.4260979448137
 31
0.0
  0
LINE
  5
1D4
330
53
100
AcDbEntity
  8
1
  6
Continuous
 62
     7
100
AcDbLine
 10
79.22625872152176
 20
353.8743856808977
 30
0.0
 11
78.87270533092845
 21
353.2620132452021
 31
0.0
  0
LINE
  5
1D5
330
53
100
AcDbEntity
  8
1
  6
Continuous
 62
     7
100
AcDbLine
 10
78.87270533092845
 20
353.2620132452021
 30
0.0
 11
79.50133664761705
 21
350.9216127590153
 31
0.0
  0
LINE
  5
1D6
330
53
100
AcDbEntity
  8
1
  6
Continuous
 62
     7
100
AcDbLine
 10
80.11370908331286
 20
350.7575280594035
 30
0.0
 11
79.85489003821036
 21
350.3092403233194
 31
0.0
  0
LINE
  5
1D7
330
53
100
AcDbEntity
  8
1
  6
Continuous
 62
     7
100
AcDbLine
 10
79.85489003821036
 20
350.3092403233194
 30
0.0
 11
79.50133664761705
 21
350.9216127590153
 31
0.0
  0
LINE
  5
1D8
330
53
100
AcDbEntity
  8
1
  6
Continuous
 62
     7
100
AcDbLine
 10
77.75937107709487
 20
353.4813343211864
 30
0.0
 11
78.01819012219737
 21
353.0330465851025
 31
0.0
  0
LINE
  5
1D9
330
53
100
AcDbEntity
  8
1
  6
Continuous
 62
     7
100
AcDbLine
 10
78.01819012219737
 20
353.0330465851025
 30
0.0
 11
78.50133664761707
 21
351.1895619514462
 31
0.0
  0
LINE
  5
1DA
330
53
100
AcDbEntity
  8
1
  6
Continuous
 62
     7
100
AcDbLine
 10
78.50133664761707
 20
351.1895619514462
 30
0.0
 11
78.24251760251457
 21
350.7412742153623
 31
0.0
  0
LINE
  5
1DB
330
53
100
AcDbEntity
  8
1
  6
Continuous
 62
     7
100
AcDbLine
 10
78.24251760251457
 20
350.7412742153623
 30
0.0
 11
77.88896421192128
 21
351.3536466510582
 31
0.0
  0
LINE
  5
1DC
330
53
100
AcDbEntity
  8
1
  6
Continuous
 62
     7
100
AcDbLine
 10
77.88896421192128
 20
351.3536466510582
 30
0.0
 11
77.40581768650155
 21
352.8689618854908
 31
0.0
  0
LINE
  5
1DD
330
53
100
AcDbEntity
  8
1
  6
Continuous
 62
     7
100
AcDbLine
 10
77.75937107709487
 20
353.4813343211864
 30
0.0
 11
78.24251760251457
 21
350.7412742153623
 31
0.0
  0
LINE
  5
1DE
330
53
100
AcDbEntity
  8
1
  6
Continuous
 62
     7
100
AcDbLine
 10
77.75937107709487
 20
353.4813343211864
 30
0.0
 11
77.40581768650155
 21
352.8689618854908
 31
0.0
  0
LINE
  5
1DF
330
53
100
AcDbEntity
  8
1
  6
Continuous
 62
     7
100
AcDbLine
 10
76.29248343266795
 20
353.0882829614752
 30
0.0
 11
76.55130247777048
 21
352.6399952253911
 31
0.0
  0
LINE
  5
1E0
330
53
100
AcDbEntity
  8
1
  6
Continuous
 62
     7
100
AcDbLine
 10
76.55130247777048
 20
352.6399952253911
 30
0.0
 11
76.88896421192128
 21
351.6215958434891
 31
0.0
  0
LINE
  5
1E1
330
53
100
AcDbEntity
  8
1
  6
Continuous
 62
     7
100
AcDbLine
 10
76.88896421192128
 20
351.6215958434891
 30
0.0
 11
76.63014516681875
 21
351.1733081074051
 31
0.0
  0
LINE
  5
1E2
330
53
100
AcDbEntity
  8
1
  6
Continuous
 62
     7
100
AcDbLine
 10
76.63014516681875
 20
351.1733081074051
 30
0.0
 11
76.27659177622547
 21
351.785680543101
 31
0.0
  0
LINE
  5
1E3
330
53
100
AcDbEntity
  8
1
  6
Continuous
 62
     7
100
AcDbLine
 10
76.27659177622547
 20
351.785680543101
 30
0.0
 11
75.93893004207477
 21
352.4759105257795
 31
0.0
  0
LINE
  5
1E4
330
53
100
AcDbEntity
  8
1
  6
Continuous
 62
     7
100
AcDbLine
 10
76.29248343266795
 20
353.0882829614752
 30
0.0
 11
75.93893004207477
 21
352.4759105257795
 31
0.0
  0
LINE
  5
1E5
330
53
100
AcDbEntity
  8
1
  6
Continuous
 62
     7
100
AcDbLine
 10
76.29248343266795
 20
353.0882829614752
 30
0.0
 11
76.63014516681875
 21
351.1733081074051
 31
0.0
  0
LINE
  5
1E6
330
53
100
AcDbEntity
  8
1
  6
Continuous
 62
     7
100
AcDbLine
 10
80.40840116047906
 20
353.6760336289306
 30
0.0
 11
79.48507776662426
 21
353.4260979448137
 31
0.0
  0
LINE
  5
1E7
330
53
100
AcDbEntity
  8
1
  6
Continuous
 62
     7
100
AcDbLine
 10
81.11370908331286
 20
350.6760336289306
 30
0.0
 11
80.41785043837186
 21
350.6760336289306
 31
0.0
  0
LINE
  5
1E8
330
53
100
AcDbEntity
  8
1
  6
Continuous
 62
     7
100
AcDbLine
 10
80.41785043837186
 20
350.6760336289306
 30
0.0
 11
80.11370908331286
 21
350.7575280594035
 31
0.0
  0
LINE
  5
1E9
330
53
100
AcDbEntity
  8
1
  6
Continuous
 62
     7
100
AcDbLine
 10
79.50133664761705
 20
350.9216127590153
 30
0.0
 11
78.50133664761707
 21
351.1895619514462
 31
0.0
  0
LINE
  5
1EA
330
53
100
AcDbEntity
  8
1
  6
Continuous
 62
     7
100
AcDbLine
 10
77.88896421192128
 20
351.3536466510582
 30
0.0
 11
76.88896421192128
 21
351.6215958434891
 31
0.0
  0
LINE
  5
1EB
330
53
100
AcDbEntity
  8
1
  6
Continuous
 62
     7
100
AcDbLine
 10
76.27659177622547
 20
351.785680543101
 30
0.0
 11
74.81977422701858
 21
352.1760336289306
 31
0.0
  0
LINE
  5
1EC
330
53
100
AcDbEntity
  8
1
  6
Continuous
 62
     7
100
AcDbLine
 10
75.93893004207477
 20
352.4759105257795
 30
0.0
 11
74.81977422701858
 21
352.1760336289306
 31
0.0
  0
LINE
  5
1ED
330
53
100
AcDbEntity
  8
1
  6
Continuous
 62
     7
100
AcDbLine
 10
77.40581768650155
 20
352.8689618854908
 30
0.0
 11
76.55130247777048
 21
352.6399952253911
 31
0.0
  0
LINE
  5
1EE
330
53
100
AcDbEntity
  8
1
  6
Continuous
 62
     7
100
AcDbLine
 10
78.87270533092845
 20
353.2620132452021
 30
0.0
 11
78.01819012219737
 21
353.0330465851025
 31
0.0
  0
LINE
  5
1EF
330
53
100
AcDbEntity
  8
1
  6
Continuous
 62
     7
100
AcDbLine
 10
99.06977422701856
 20
348.4260336289306
 30
0.0
 11
99.31977422701856
 21
348.1760336289306
 31
0.0
  0
LINE
  5
1F0
330
53
100
AcDbEntity
  8
1
  6
Continuous
 62
     7
100
AcDbLine
 10
96.06977422701856
 20
353.6760336289306
 30
0.0
 11
95.49130492913376
 21
353.6760336289306
 31
0.0
  0
LINE
  5
1F1
330
53
100
AcDbEntity
  8
1
  6
Continuous
 62
     7
100
AcDbLine
 10
96.06977422701856
 20
350.4563426861564
 30
0.0
 11
95.90793771737276
 21
350.1760336289306
 31
0.0
  0
LINE
  5
1F2
330
53
100
AcDbEntity
  8
1
  6
Continuous
 62
     7
100
AcDbLine
 10
99.81977422701866
 20
229.9059476238788
 30
0.0
 11
99.81977422701866
 21
221.9059476238788
 31
0.0
  0
LINE
  5
1F3
330
53
100
AcDbEntity
  8
1
  6
Continuous
 62
     7
100
AcDbLine
 10
99.81977422701866
 20
221.9059476238788
 30
0.0
 11
99.31977422701856
 21
221.9059476238788
 31
0.0
  0
LINE
  5
1F4
330
53
100
AcDbEntity
  8
1
  6
Continuous
 62
     7
100
AcDbLine
 10
99.81977422701866
 20
229.9059476238788
 30
0.0
 11
99.31977422701856
 21
229.9059476238788
 31
0.0
  0
LINE
  5
1F5
330
53
100
AcDbEntity
  8
1
  6
Continuous
 62
     7
100
AcDbLine
 10
99.31977422701856
 20
229.9059476238788
 30
0.0
 11
99.06977422701856
 21
229.6559476238788
 31
0.0
  0
LINE
  5
1F6
330
53
100
AcDbEntity
  8
1
  6
Continuous
 62
     7
100
AcDbLine
 10
99.31977422701856
 20
229.9059476238788
 30
0.0
 11
99.31977422701856
 21
221.9059476238788
 31
0.0
  0
LINE
  5
1F7
330
53
100
AcDbEntity
  8
1
  6
Continuous
 62
     7
100
AcDbLine
 10
95.20262979453885
 20
227.9059476238788
 30
0.0
 11
95.90793771737276
 21
223.9059476238788
 31
0.0
  0
LINE
  5
1F8
330
53
100
AcDbEntity
  8
1
  6
Continuous
 62
     7
100
AcDbLine
 10
95.20262979453885
 20
227.9059476238788
 30
0.0
 11
95.49130492913376
 21
227.4059476238788
 31
0.0
  0
LINE
  5
1F9
330
53
100
AcDbEntity
  8
1
  6
Continuous
 62
     7
100
AcDbLine
 10
95.49130492913376
 20
227.4059476238788
 30
0.0
 11
96.06977422701856
 21
224.9454508146528
 31
0.0
  0
LINE
  5
1FA
330
53
100
AcDbEntity
  8
1
  6
Continuous
 62
     7
100
AcDbLine
 10
95.90793771737276
 20
223.9059476238788
 30
0.0
 11
95.61926258277795
 21
224.4059476238788
 31
0.0
  0
LINE
  5
1FB
330
53
100
AcDbEntity
  8
1
  6
Continuous
 62
     7
100
AcDbLine
 10
95.61926258277795
 20
224.4059476238788
 30
0.0
 11
94.91395465994415
 21
227.4059476238788
 31
0.0
  0
LINE
  5
1FC
330
53
100
AcDbEntity
  8
1
  6
Continuous
 62
     7
100
AcDbLine
 10
94.91395465994415
 20
227.4059476238788
 30
0.0
 11
95.20262979453885
 21
227.9059476238788
 31
0.0
  0
LINE
  5
1FD
330
53
100
AcDbEntity
  8
1
  6
Continuous
 62
     7
100
AcDbLine
 10
95.61926258277795
 20
224.4059476238788
 30
0.0
 11
94.61926258277795
 21
224.4059476238788
 31
0.0
  0
LINE
  5
1FE
330
53
100
AcDbEntity
  8
1
  6
Continuous
 62
     7
100
AcDbLine
 10
93.91395465994415
 20
227.4059476238788
 30
0.0
 11
94.61926258277795
 21
224.4059476238788
 31
0.0
  0
LINE
  5
1FF
330
53
100
AcDbEntity
  8
1
  6
Continuous
 62
     7
100
AcDbLine
 10
94.61926258277795
 20
224.4059476238788
 30
0.0
 11
94.33058744818315
 21
223.9059476238788
 31
0.0
  0
LINE
  5
200
330
53
100
AcDbEntity
  8
1
  6
Continuous
 62
     7
100
AcDbLine
 10
93.62527952534926
 20
227.9059476238788
 30
0.0
 11
93.91395465994415
 21
227.4059476238788
 31
0.0
  0
LINE
  5
201
330
53
100
AcDbEntity
  8
1
  6
Continuous
 62
     7
100
AcDbLine
 10
93.62527952534926
 20
227.9059476238788
 30
0.0
 11
94.33058744818315
 21
223.9059476238788
 31
0.0
  0
LINE
  5
202
330
53
100
AcDbEntity
  8
1
  6
Continuous
 62
     7
100
AcDbLine
 10
93.33660439075446
 20
227.4059476238788
 30
0.0
 11
93.62527952534926
 21
227.9059476238788
 31
0.0
  0
LINE
  5
203
330
53
100
AcDbEntity
  8
1
  6
Continuous
 62
     7
100
AcDbLine
 10
94.04191231358836
 20
224.4059476238788
 30
0.0
 11
93.33660439075446
 21
227.4059476238788
 31
0.0
  0
LINE
  5
204
330
53
100
AcDbEntity
  8
1
  6
Continuous
 62
     7
100
AcDbLine
 10
94.33058744818315
 20
223.9059476238788
 30
0.0
 11
94.04191231358836
 21
224.4059476238788
 31
0.0
  0
LINE
  5
205
330
53
100
AcDbEntity
  8
1
  6
Continuous
 62
     7
100
AcDbLine
 10
94.91395465994415
 20
227.4059476238788
 30
0.0
 11
93.91395465994415
 21
227.4059476238788
 31
0.0
  0
LINE
  5
206
330
53
100
AcDbEntity
  8
1
  6
Continuous
 62
     7
100
AcDbLine
 10
91.47057898697005
 20
227.9059476238788
 30
0.0
 11
91.75925412156485
 21
227.4059476238788
 31
0.0
  0
LINE
  5
207
330
53
100
AcDbEntity
  8
1
  6
Continuous
 62
     7
100
AcDbLine
 10
91.47057898697005
 20
227.9059476238788
 30
0.0
 11
92.17588690980385
 21
223.9059476238788
 31
0.0
  0
LINE
  5
208
330
53
100
AcDbEntity
  8
1
  6
Continuous
 62
     7
100
AcDbLine
 10
91.18190385237526
 20
227.4059476238788
 30
0.0
 11
91.47057898697005
 21
227.9059476238788
 31
0.0
  0
LINE
  5
209
330
53
100
AcDbEntity
  8
1
  6
Continuous
 62
     7
100
AcDbLine
 10
91.88721177520905
 20
224.4059476238788
 30
0.0
 11
91.18190385237526
 21
227.4059476238788
 31
0.0
  0
LINE
  5
20A
330
53
100
AcDbEntity
  8
1
  6
Continuous
 62
     7
100
AcDbLine
 10
92.17588690980385
 20
223.9059476238788
 30
0.0
 11
91.88721177520905
 21
224.4059476238788
 31
0.0
  0
LINE
  5
20B
330
53
100
AcDbEntity
  8
1
  6
Continuous
 62
     7
100
AcDbLine
 10
91.75925412156485
 20
227.4059476238788
 30
0.0
 11
92.46456204439876
 21
224.4059476238788
 31
0.0
  0
LINE
  5
20C
330
53
100
AcDbEntity
  8
1
  6
Continuous
 62
     7
100
AcDbLine
 10
92.46456204439876
 20
224.4059476238788
 30
0.0
 11
92.17588690980385
 21
223.9059476238788
 31
0.0
  0
LINE
  5
20D
330
53
100
AcDbEntity
  8
1
  6
Continuous
 62
     7
100
AcDbLine
 10
89.31587844859075
 20
227.9059476238788
 30
0.0
 11
89.60455358318566
 21
227.4059476238788
 31
0.0
  0
LINE
  5
20E
330
53
100
AcDbEntity
  8
1
  6
Continuous
 62
     7
100
AcDbLine
 10
89.31587844859075
 20
227.9059476238788
 30
0.0
 11
90.02118637142466
 21
223.9059476238788
 31
0.0
  0
LINE
  5
20F
330
53
100
AcDbEntity
  8
1
  6
Continuous
 62
     7
100
AcDbLine
 10
89.02720331399595
 20
227.4059476238788
 30
0.0
 11
89.31587844859075
 21
227.9059476238788
 31
0.0
  0
LINE
  5
210
330
53
100
AcDbEntity
  8
1
  6
Continuous
 62
     7
100
AcDbLine
 10
89.73251123682985
 20
224.4059476238788
 30
0.0
 11
89.02720331399595
 21
227.4059476238788
 31
0.0
  0
LINE
  5
211
330
53
100
AcDbEntity
  8
1
  6
Continuous
 62
     7
100
AcDbLine
 10
90.02118637142466
 20
223.9059476238788
 30
0.0
 11
89.73251123682985
 21
224.4059476238788
 31
0.0
  0
LINE
  5
212
330
53
100
AcDbEntity
  8
1
  6
Continuous
 62
     7
100
AcDbLine
 10
89.60455358318566
 20
227.4059476238788
 30
0.0
 11
90.30986150601946
 21
224.4059476238788
 31
0.0
  0
LINE
  5
213
330
53
100
AcDbEntity
  8
1
  6
Continuous
 62
     7
100
AcDbLine
 10
90.30986150601946
 20
224.4059476238788
 30
0.0
 11
90.02118637142466
 21
223.9059476238788
 31
0.0
  0
LINE
  5
214
330
53
100
AcDbEntity
  8
1
  6
Continuous
 62
     7
100
AcDbLine
 10
87.16117791021156
 20
227.9059476238788
 30
0.0
 11
87.44985304480636
 21
227.4059476238788
 31
0.0
  0
LINE
  5
215
330
53
100
AcDbEntity
  8
1
  6
Continuous
 62
     7
100
AcDbLine
 10
87.16117791021156
 20
227.9059476238788
 30
0.0
 11
87.86648583304546
 21
223.9059476238788
 31
0.0
  0
LINE
  5
216
330
53
100
AcDbEntity
  8
1
  6
Continuous
 62
     7
100
AcDbLine
 10
86.87250277561675
 20
227.4059476238788
 30
0.0
 11
87.16117791021156
 21
227.9059476238788
 31
0.0
  0
LINE
  5
217
330
53
100
AcDbEntity
  8
1
  6
Continuous
 62
     7
100
AcDbLine
 10
87.57781069845056
 20
224.4059476238788
 30
0.0
 11
86.87250277561675
 21
227.4059476238788
 31
0.0
  0
LINE
  5
218
330
53
100
AcDbEntity
  8
1
  6
Continuous
 62
     7
100
AcDbLine
 10
87.86648583304546
 20
223.9059476238788
 30
0.0
 11
87.57781069845056
 21
224.4059476238788
 31
0.0
  0
LINE
  5
219
330
53
100
AcDbEntity
  8
1
  6
Continuous
 62
     7
100
AcDbLine
 10
87.44985304480636
 20
227.4059476238788
 30
0.0
 11
88.15516096764026
 21
224.4059476238788
 31
0.0
  0
LINE
  5
21A
330
53
100
AcDbEntity
  8
1
  6
Continuous
 62
     7
100
AcDbLine
 10
88.15516096764026
 20
224.4059476238788
 30
0.0
 11
87.86648583304546
 21
223.9059476238788
 31
0.0
  0
LINE
  5
21B
330
53
100
AcDbEntity
  8
1
  6
Continuous
 62
     7
100
AcDbLine
 10
85.00647737183226
 20
227.9059476238788
 30
0.0
 11
85.29515250642716
 21
227.4059476238788
 31
0.0
  0
LINE
  5
21C
330
53
100
AcDbEntity
  8
1
  6
Continuous
 62
     7
100
AcDbLine
 10
85.00647737183226
 20
227.9059476238788
 30
0.0
 11
85.71178529466616
 21
223.9059476238788
 31
0.0
  0
LINE
  5
21D
330
53
100
AcDbEntity
  8
1
  6
Continuous
 62
     7
100
AcDbLine
 10
84.71780223723745
 20
227.4059476238788
 30
0.0
 11
85.00647737183226
 21
227.9059476238788
 31
0.0
  0
LINE
  5
21E
330
53
100
AcDbEntity
  8
1
  6
Continuous
 62
     7
100
AcDbLine
 10
85.42311016007136
 20
224.4059476238788
 30
0.0
 11
84.71780223723745
 21
227.4059476238788
 31
0.0
  0
LINE
  5
21F
330
53
100
AcDbEntity
  8
1
  6
Continuous
 62
     7
100
AcDbLine
 10
85.71178529466616
 20
223.9059476238788
 30
0.0
 11
85.42311016007136
 21
224.4059476238788
 31
0.0
  0
LINE
  5
220
330
53
100
AcDbEntity
  8
1
  6
Continuous
 62
     7
100
AcDbLine
 10
85.29515250642716
 20
227.4059476238788
 30
0.0
 11
86.00046042926095
 21
224.4059476238788
 31
0.0
  0
LINE
  5
221
330
53
100
AcDbEntity
  8
1
  6
Continuous
 62
     7
100
AcDbLine
 10
86.00046042926095
 20
224.4059476238788
 30
0.0
 11
85.71178529466616
 21
223.9059476238788
 31
0.0
  0
LINE
  5
222
330
53
100
AcDbEntity
  8
1
  6
Continuous
 62
     7
100
AcDbLine
 10
82.85177683345306
 20
227.9059476238788
 30
0.0
 11
83.14045196804786
 21
227.4059476238788
 31
0.0
  0
LINE
  5
223
330
53
100
AcDbEntity
  8
1
  6
Continuous
 62
     7
100
AcDbLine
 10
82.85177683345306
 20
227.9059476238788
 30
0.0
 11
83.55708475628695
 21
223.9059476238788
 31
0.0
  0
LINE
  5
224
330
53
100
AcDbEntity
  8
1
  6
Continuous
 62
     7
100
AcDbLine
 10
82.56310169885826
 20
227.4059476238788
 30
0.0
 11
82.85177683345306
 21
227.9059476238788
 31
0.0
  0
LINE
  5
225
330
53
100
AcDbEntity
  8
1
  6
Continuous
 62
     7
100
AcDbLine
 10
83.26840962169206
 20
224.4059476238788
 30
0.0
 11
82.56310169885826
 21
227.4059476238788
 31
0.0
  0
LINE
  5
226
330
53
100
AcDbEntity
  8
1
  6
Continuous
 62
     7
100
AcDbLine
 10
83.55708475628695
 20
223.9059476238788
 30
0.0
 11
83.26840962169206
 21
224.4059476238788
 31
0.0
  0
LINE
  5
227
330
53
100
AcDbEntity
  8
1
  6
Continuous
 62
     7
100
AcDbLine
 10
83.14045196804786
 20
227.4059476238788
 30
0.0
 11
83.84575989088165
 21
224.4059476238788
 31
0.0
  0
LINE
  5
228
330
53
100
AcDbEntity
  8
1
  6
Continuous
 62
     7
100
AcDbLine
 10
83.84575989088165
 20
224.4059476238788
 30
0.0
 11
83.55708475628695
 21
223.9059476238788
 31
0.0
  0
LINE
  5
229
330
53
100
AcDbEntity
  8
1
  6
Continuous
 62
     7
100
AcDbLine
 10
80.69707629507386
 20
227.9059476238788
 30
0.0
 11
80.98575142966865
 21
227.4059476238788
 31
0.0
  0
LINE
  5
22A
330
53
100
AcDbEntity
  8
1
  6
Continuous
 62
     7
100
AcDbLine
 10
80.69707629507386
 20
227.9059476238788
 30
0.0
 11
81.40238421790765
 21
223.9059476238788
 31
0.0
  0
LINE
  5
22B
330
53
100
AcDbEntity
  8
1
  6
Continuous
 62
     7
100
AcDbLine
 10
80.40840116047906
 20
227.4059476238788
 30
0.0
 11
80.69707629507386
 21
227.9059476238788
 31
0.0
  0
LINE
  5
22C
330
53
100
AcDbEntity
  8
1
  6
Continuous
 62
     7
100
AcDbLine
 10
81.11370908331286
 20
224.4059476238788
 30
0.0
 11
80.40840116047906
 21
227.4059476238788
 31
0.0
  0
LINE
  5
22D
330
53
100
AcDbEntity
  8
1
  6
Continuous
 62
     7
100
AcDbLine
 10
81.40238421790765
 20
223.9059476238788
 30
0.0
 11
81.11370908331286
 21
224.4059476238788
 31
0.0
  0
LINE
  5
22E
330
53
100
AcDbEntity
  8
1
  6
Continuous
 62
     7
100
AcDbLine
 10
80.98575142966865
 20
227.4059476238788
 30
0.0
 11
81.69105935250245
 21
224.4059476238788
 31
0.0
  0
LINE
  5
22F
330
53
100
AcDbEntity
  8
1
  6
Continuous
 62
     7
100
AcDbLine
 10
81.69105935250245
 20
224.4059476238788
 30
0.0
 11
81.40238421790765
 21
223.9059476238788
 31
0.0
  0
LINE
  5
230
330
53
100
AcDbEntity
  8
1
  6
Continuous
 62
     7
100
AcDbLine
 10
94.04191231358836
 20
224.4059476238788
 30
0.0
 11
92.46456204439876
 21
224.4059476238788
 31
0.0
  0
LINE
  5
231
330
53
100
AcDbEntity
  8
1
  6
Continuous
 62
     7
100
AcDbLine
 10
93.33660439075446
 20
227.4059476238788
 30
0.0
 11
91.75925412156485
 21
227.4059476238788
 31
0.0
  0
LINE
  5
232
330
53
100
AcDbEntity
  8
1
  6
Continuous
 62
     7
100
AcDbLine
 10
91.18190385237526
 20
227.4059476238788
 30
0.0
 11
89.60455358318566
 21
227.4059476238788
 31
0.0
  0
LINE
  5
233
330
53
100
AcDbEntity
  8
1
  6
Continuous
 62
     7
100
AcDbLine
 10
91.88721177520905
 20
224.4059476238788
 30
0.0
 11
90.30986150601946
 21
224.4059476238788
 31
0.0
  0
LINE
  5
234
330
53
100
AcDbEntity
  8
1
  6
Continuous
 62
     7
100
AcDbLine
 10
89.73251123682985
 20
224.4059476238788
 30
0.0
 11
88.15516096764026
 21
224.4059476238788
 31
0.0
  0
LINE
  5
235
330
53
100
AcDbEntity
  8
1
  6
Continuous
 62
     7
100
AcDbLine
 10
89.02720331399595
 20
227.4059476238788
 30
0.0
 11
87.44985304480636
 21
227.4059476238788
 31
0.0
  0
LINE
  5
236
330
53
100
AcDbEntity
  8
1
  6
Continuous
 62
     7
100
AcDbLine
 10
86.87250277561675
 20
227.4059476238788
 30
0.0
 11
85.29515250642716
 21
227.4059476238788
 31
0.0
  0
LINE
  5
237
330
53
100
AcDbEntity
  8
1
  6
Continuous
 62
     7
100
AcDbLine
 10
87.57781069845056
 20
224.4059476238788
 30
0.0
 11
86.00046042926095
 21
224.4059476238788
 31
0.0
  0
LINE
  5
238
330
53
100
AcDbEntity
  8
1
  6
Continuous
 62
     7
100
AcDbLine
 10
85.42311016007136
 20
224.4059476238788
 30
0.0
 11
83.84575989088165
 21
224.4059476238788
 31
0.0
  0
LINE
  5
239
330
53
100
AcDbEntity
  8
1
  6
Continuous
 62
     7
100
AcDbLine
 10
84.71780223723745
 20
227.4059476238788
 30
0.0
 11
83.14045196804786
 21
227.4059476238788
 31
0.0
  0
LINE
  5
23A
330
53
100
AcDbEntity
  8
1
  6
Continuous
 62
     7
100
AcDbLine
 10
82.56310169885826
 20
227.4059476238788
 30
0.0
 11
80.98575142966865
 21
227.4059476238788
 31
0.0
  0
LINE
  5
23B
330
53
100
AcDbEntity
  8
1
  6
Continuous
 62
     7
100
AcDbLine
 10
83.26840962169206
 20
224.4059476238788
 30
0.0
 11
81.69105935250245
 21
224.4059476238788
 31
0.0
  0
LINE
  5
23C
330
53
100
AcDbEntity
  8
1
  6
Continuous
 62
     7
100
AcDbLine
 10
79.48507776662426
 20
227.1560119397622
 30
0.0
 11
80.11370908331286
 21
224.4874420543518
 31
0.0
  0
LINE
  5
23D
330
53
100
AcDbEntity
  8
1
  6
Continuous
 62
     7
100
AcDbLine
 10
79.22625872152176
 20
227.6042996758462
 30
0.0
 11
79.85489003821036
 21
224.0391543182677
 31
0.0
  0
LINE
  5
23E
330
53
100
AcDbEntity
  8
1
  6
Continuous
 62
     7
100
AcDbLine
 10
79.22625872152176
 20
227.6042996758462
 30
0.0
 11
79.48507776662426
 21
227.1560119397622
 31
0.0
  0
LINE
  5
23F
330
53
100
AcDbEntity
  8
1
  6
Continuous
 62
     7
100
AcDbLine
 10
79.22625872152176
 20
227.6042996758462
 30
0.0
 11
78.87270533092845
 21
226.9919272401504
 31
0.0
  0
LINE
  5
240
330
53
100
AcDbEntity
  8
1
  6
Continuous
 62
     7
100
AcDbLine
 10
78.87270533092845
 20
226.9919272401504
 30
0.0
 11
79.50133664761705
 21
224.6515267539635
 31
0.0
  0
LINE
  5
241
330
53
100
AcDbEntity
  8
1
  6
Continuous
 62
     7
100
AcDbLine
 10
80.11370908331286
 20
224.4874420543518
 30
0.0
 11
79.85489003821036
 21
224.0391543182677
 31
0.0
  0
LINE
  5
242
330
53
100
AcDbEntity
  8
1
  6
Continuous
 62
     7
100
AcDbLine
 10
79.85489003821036
 20
224.0391543182677
 30
0.0
 11
79.50133664761705
 21
224.6515267539635
 31
0.0
  0
LINE
  5
243
330
53
100
AcDbEntity
  8
1
  6
Continuous
 62
     7
100
AcDbLine
 10
77.75937107709487
 20
227.2112483161349
 30
0.0
 11
78.01819012219737
 21
226.7629605800508
 31
0.0
  0
LINE
  5
244
330
53
100
AcDbEntity
  8
1
  6
Continuous
 62
     7
100
AcDbLine
 10
78.01819012219737
 20
226.7629605800508
 30
0.0
 11
78.50133664761707
 21
224.9194759463945
 31
0.0
  0
LINE
  5
245
330
53
100
AcDbEntity
  8
1
  6
Continuous
 62
     7
100
AcDbLine
 10
78.50133664761707
 20
224.9194759463945
 30
0.0
 11
78.24251760251457
 21
224.4711882103106
 31
0.0
  0
LINE
  5
246
330
53
100
AcDbEntity
  8
1
  6
Continuous
 62
     7
100
AcDbLine
 10
78.24251760251457
 20
224.4711882103106
 30
0.0
 11
77.88896421192128
 21
225.0835606460064
 31
0.0
  0
LINE
  5
247
330
53
100
AcDbEntity
  8
1
  6
Continuous
 62
     7
100
AcDbLine
 10
77.88896421192128
 20
225.0835606460064
 30
0.0
 11
77.40581768650155
 21
226.5988758804391
 31
0.0
  0
LINE
  5
248
330
53
100
AcDbEntity
  8
1
  6
Continuous
 62
     7
100
AcDbLine
 10
77.75937107709487
 20
227.2112483161349
 30
0.0
 11
78.24251760251457
 21
224.4711882103106
 31
0.0
  0
LINE
  5
249
330
53
100
AcDbEntity
  8
1
  6
Continuous
 62
     7
100
AcDbLine
 10
77.75937107709487
 20
227.2112483161349
 30
0.0
 11
77.40581768650155
 21
226.5988758804391
 31
0.0
  0
LINE
  5
24A
330
53
100
AcDbEntity
  8
1
  6
Continuous
 62
     7
100
AcDbLine
 10
76.29248343266795
 20
226.8181969564235
 30
0.0
 11
76.55130247777048
 21
226.3699092203394
 31
0.0
  0
LINE
  5
24B
330
53
100
AcDbEntity
  8
1
  6
Continuous
 62
     7
100
AcDbLine
 10
76.55130247777048
 20
226.3699092203394
 30
0.0
 11
76.88896421192128
 21
225.3515098384375
 31
0.0
  0
LINE
  5
24C
330
53
100
AcDbEntity
  8
1
  6
Continuous
 62
     7
100
AcDbLine
 10
76.88896421192128
 20
225.3515098384375
 30
0.0
 11
76.63014516681875
 21
224.9032221023534
 31
0.0
  0
LINE
  5
24D
330
53
100
AcDbEntity
  8
1
  6
Continuous
 62
     7
100
AcDbLine
 10
76.63014516681875
 20
224.9032221023534
 30
0.0
 11
76.27659177622547
 21
225.5155945380493
 31
0.0
  0
LINE
  5
24E
330
53
100
AcDbEntity
  8
1
  6
Continuous
 62
     7
100
AcDbLine
 10
76.27659177622547
 20
225.5155945380493
 30
0.0
 11
75.93893004207477
 21
226.2058245207277
 31
0.0
  0
LINE
  5
24F
330
53
100
AcDbEntity
  8
1
  6
Continuous
 62
     7
100
AcDbLine
 10
76.29248343266795
 20
226.8181969564235
 30
0.0
 11
75.93893004207477
 21
226.2058245207277
 31
0.0
  0
LINE
  5
250
330
53
100
AcDbEntity
  8
1
  6
Continuous
 62
     7
100
AcDbLine
 10
76.29248343266795
 20
226.8181969564235
 30
0.0
 11
76.63014516681875
 21
224.9032221023534
 31
0.0
  0
LINE
  5
251
330
53
100
AcDbEntity
  8
1
  6
Continuous
 62
     7
100
AcDbLine
 10
80.40840116047906
 20
227.4059476238788
 30
0.0
 11
79.48507776662426
 21
227.1560119397622
 31
0.0
  0
LINE
  5
252
330
53
100
AcDbEntity
  8
1
  6
Continuous
 62
     7
100
AcDbLine
 10
81.11370908331286
 20
224.4059476238788
 30
0.0
 11
80.41785043837186
 21
224.4059476238788
 31
0.0
  0
LINE
  5
253
330
53
100
AcDbEntity
  8
1
  6
Continuous
 62
     7
100
AcDbLine
 10
80.41785043837186
 20
224.4059476238788
 30
0.0
 11
80.11370908331286
 21
224.4874420543518
 31
0.0
  0
LINE
  5
254
330
53
100
AcDbEntity
  8
1
  6
Continuous
 62
     7
100
AcDbLine
 10
79.50133664761705
 20
224.6515267539635
 30
0.0
 11
78.50133664761707
 21
224.9194759463945
 31
0.0
  0
LINE
  5
255
330
53
100
AcDbEntity
  8
1
  6
Continuous
 62
     7
100
AcDbLine
 10
77.88896421192128
 20
225.0835606460064
 30
0.0
 11
76.88896421192128
 21
225.3515098384375
 31
0.0
  0
LINE
  5
256
330
53
100
AcDbEntity
  8
1
  6
Continuous
 62
     7
100
AcDbLine
 10
76.27659177622547
 20
225.5155945380493
 30
0.0
 11
74.81977422701858
 21
225.9059476238788
 31
0.0
  0
LINE
  5
257
330
53
100
AcDbEntity
  8
1
  6
Continuous
 62
     7
100
AcDbLine
 10
75.93893004207477
 20
226.2058245207277
 30
0.0
 11
74.81977422701858
 21
225.9059476238788
 31
0.0
  0
LINE
  5
258
330
53
100
AcDbEntity
  8
1
  6
Continuous
 62
     7
100
AcDbLine
 10
77.40581768650155
 20
226.5988758804391
 30
0.0
 11
76.55130247777048
 21
226.3699092203394
 31
0.0
  0
LINE
  5
259
330
53
100
AcDbEntity
  8
1
  6
Continuous
 62
     7
100
AcDbLine
 10
78.87270533092845
 20
226.9919272401504
 30
0.0
 11
78.01819012219737
 21
226.7629605800508
 31
0.0
  0
LINE
  5
25A
330
53
100
AcDbEntity
  8
1
  6
Continuous
 62
     7
100
AcDbLine
 10
99.06977422701856
 20
222.1559476238788
 30
0.0
 11
99.31977422701856
 21
221.9059476238788
 31
0.0
  0
LINE
  5
25B
330
53
100
AcDbEntity
  8
1
  6
Continuous
 62
     7
100
AcDbLine
 10
96.06977422701856
 20
227.4059476238788
 30
0.0
 11
95.49130492913376
 21
227.4059476238788
 31
0.0
  0
LINE
  5
25C
330
53
100
AcDbEntity
  8
1
  6
Continuous
 62
     7
100
AcDbLine
 10
96.06977422701856
 20
224.1862566811049
 30
0.0
 11
95.90793771737276
 21
223.9059476238788
 31
0.0
  0
LINE
  5
25D
330
53
100
AcDbEntity
  8
1
  6
Continuous
 62
     7
100
AcDbLine
 10
99.81977422701866
 20
259.9059476238788
 30
0.0
 11
99.81977422701866
 21
251.9059476238788
 31
0.0
  0
LINE
  5
25E
330
53
100
AcDbEntity
  8
1
  6
Continuous
 62
     7
100
AcDbLine
 10
99.81977422701866
 20
251.9059476238788
 30
0.0
 11
99.31977422701856
 21
251.9059476238788
 31
0.0
  0
LINE
  5
25F
330
53
100
AcDbEntity
  8
1
  6
Continuous
 62
     7
100
AcDbLine
 10
99.81977422701866
 20
259.9059476238788
 30
0.0
 11
99.31977422701856
 21
259.9059476238788
 31
0.0
  0
LINE
  5
260
330
53
100
AcDbEntity
  8
1
  6
Continuous
 62
     7
100
AcDbLine
 10
99.31977422701856
 20
259.9059476238788
 30
0.0
 11
99.06977422701856
 21
259.6559476238788
 31
0.0
  0
LINE
  5
261
330
53
100
AcDbEntity
  8
1
  6
Continuous
 62
     7
100
AcDbLine
 10
99.31977422701856
 20
259.9059476238788
 30
0.0
 11
99.31977422701856
 21
251.9059476238788
 31
0.0
  0
LINE
  5
262
330
53
100
AcDbEntity
  8
1
  6
Continuous
 62
     7
100
AcDbLine
 10
95.20262979453885
 20
257.9059476238788
 30
0.0
 11
95.90793771737276
 21
253.9059476238788
 31
0.0
  0
LINE
  5
263
330
53
100
AcDbEntity
  8
1
  6
Continuous
 62
     7
100
AcDbLine
 10
95.20262979453885
 20
257.9059476238788
 30
0.0
 11
95.49130492913376
 21
257.4059476238788
 31
0.0
  0
LINE
  5
264
330
53
100
AcDbEntity
  8
1
  6
Continuous
 62
     7
100
AcDbLine
 10
95.49130492913376
 20
257.4059476238788
 30
0.0
 11
96.06977422701856
 21
254.9454508146528
 31
0.0
  0
LINE
  5
265
330
53
100
AcDbEntity
  8
1
  6
Continuous
 62
     7
100
AcDbLine
 10
95.90793771737276
 20
253.9059476238788
 30
0.0
 11
95.61926258277795
 21
254.4059476238788
 31
0.0
  0
LINE
  5
266
330
53
100
AcDbEntity
  8
1
  6
Continuous
 62
     7
100
AcDbLine
 10
95.61926258277795
 20
254.4059476238788
 30
0.0
 11
94.91395465994415
 21
257.4059476238788
 31
0.0
  0
LINE
  5
267
330
53
100
AcDbEntity
  8
1
  6
Continuous
 62
     7
100
AcDbLine
 10
94.91395465994415
 20
257.4059476238788
 30
0.0
 11
95.20262979453885
 21
257.9059476238788
 31
0.0
  0
LINE
  5
268
330
53
100
AcDbEntity
  8
1
  6
Continuous
 62
     7
100
AcDbLine
 10
95.61926258277795
 20
254.4059476238788
 30
0.0
 11
94.61926258277795
 21
254.4059476238788
 31
0.0
  0
LINE
  5
269
330
53
100
AcDbEntity
  8
1
  6
Continuous
 62
     7
100
AcDbLine
 10
93.91395465994415
 20
257.4059476238788
 30
0.0
 11
94.61926258277795
 21
254.4059476238788
 31
0.0
  0
LINE
  5
26A
330
53
100
AcDbEntity
  8
1
  6
Continuous
 62
     7
100
AcDbLine
 10
94.61926258277795
 20
254.4059476238788
 30
0.0
 11
94.33058744818315
 21
253.9059476238788
 31
0.0
  0
LINE
  5
26B
330
53
100
AcDbEntity
  8
1
  6
Continuous
 62
     7
100
AcDbLine
 10
93.62527952534926
 20
257.9059476238788
 30
0.0
 11
93.91395465994415
 21
257.4059476238788
 31
0.0
  0
LINE
  5
26C
330
53
100
AcDbEntity
  8
1
  6
Continuous
 62
     7
100
AcDbLine
 10
93.62527952534926
 20
257.9059476238788
 30
0.0
 11
94.33058744818315
 21
253.9059476238788
 31
0.0
  0
LINE
  5
26D
330
53
100
AcDbEntity
  8
1
  6
Continuous
 62
     7
100
AcDbLine
 10
93.33660439075446
 20
257.4059476238788
 30
0.0
 11
93.62527952534926
 21
257.9059476238788
 31
0.0
  0
LINE
  5
26E
330
53
100
AcDbEntity
  8
1
  6
Continuous
 62
     7
100
AcDbLine
 10
94.04191231358836
 20
254.4059476238788
 30
0.0
 11
93.33660439075446
 21
257.4059476238788
 31
0.0
  0
LINE
  5
26F
330
53
100
AcDbEntity
  8
1
  6
Continuous
 62
     7
100
AcDbLine
 10
94.33058744818315
 20
253.9059476238788
 30
0.0
 11
94.04191231358836
 21
254.4059476238788
 31
0.0
  0
LINE
  5
270
330
53
100
AcDbEntity
  8
1
  6
Continuous
 62
     7
100
AcDbLine
 10
94.91395465994415
 20
257.4059476238788
 30
0.0
 11
93.91395465994415
 21
257.4059476238788
 31
0.0
  0
LINE
  5
271
330
53
100
AcDbEntity
  8
1
  6
Continuous
 62
     7
100
AcDbLine
 10
91.47057898697005
 20
257.9059476238788
 30
0.0
 11
91.75925412156485
 21
257.4059476238788
 31
0.0
  0
LINE
  5
272
330
53
100
AcDbEntity
  8
1
  6
Continuous
 62
     7
100
AcDbLine
 10
91.47057898697005
 20
257.9059476238788
 30
0.0
 11
92.17588690980385
 21
253.9059476238788
 31
0.0
  0
LINE
  5
273
330
53
100
AcDbEntity
  8
1
  6
Continuous
 62
     7
100
AcDbLine
 10
91.18190385237526
 20
257.4059476238788
 30
0.0
 11
91.47057898697005
 21
257.9059476238788
 31
0.0
  0
LINE
  5
274
330
53
100
AcDbEntity
  8
1
  6
Continuous
 62
     7
100
AcDbLine
 10
91.88721177520905
 20
254.4059476238788
 30
0.0
 11
91.18190385237526
 21
257.4059476238788
 31
0.0
  0
LINE
  5
275
330
53
100
AcDbEntity
  8
1
  6
Continuous
 62
     7
100
AcDbLine
 10
92.17588690980385
 20
253.9059476238788
 30
0.0
 11
91.88721177520905
 21
254.4059476238788
 31
0.0
  0
LINE
  5
276
330
53
100
AcDbEntity
  8
1
  6
Continuous
 62
     7
100
AcDbLine
 10
91.75925412156485
 20
257.4059476238788
 30
0.0
 11
92.46456204439876
 21
254.4059476238788
 31
0.0
  0
LINE
  5
277
330
53
100
AcDbEntity
  8
1
  6
Continuous
 62
     7
100
AcDbLine
 10
92.46456204439876
 20
254.4059476238788
 30
0.0
 11
92.17588690980385
 21
253.9059476238788
 31
0.0
  0
LINE
  5
278
330
53
100
AcDbEntity
  8
1
  6
Continuous
 62
     7
100
AcDbLine
 10
89.31587844859075
 20
257.9059476238788
 30
0.0
 11
89.60455358318566
 21
257.4059476238788
 31
0.0
  0
LINE
  5
279
330
53
100
AcDbEntity
  8
1
  6
Continuous
 62
     7
100
AcDbLine
 10
89.31587844859075
 20
257.9059476238788
 30
0.0
 11
90.02118637142466
 21
253.9059476238788
 31
0.0
  0
LINE
  5
27A
330
53
100
AcDbEntity
  8
1
  6
Continuous
 62
     7
100
AcDbLine
 10
89.02720331399595
 20
257.4059476238788
 30
0.0
 11
89.31587844859075
 21
257.9059476238788
 31
0.0
  0
LINE
  5
27B
330
53
100
AcDbEntity
  8
1
  6
Continuous
 62
     7
100
AcDbLine
 10
89.73251123682985
 20
254.4059476238788
 30
0.0
 11
89.02720331399595
 21
257.4059476238788
 31
0.0
  0
LINE
  5
27C
330
53
100
AcDbEntity
  8
1
  6
Continuous
 62
     7
100
AcDbLine
 10
90.02118637142466
 20
253.9059476238788
 30
0.0
 11
89.73251123682985
 21
254.4059476238788
 31
0.0
  0
LINE
  5
27D
330
53
100
AcDbEntity
  8
1
  6
Continuous
 62
     7
100
AcDbLine
 10
89.60455358318566
 20
257.4059476238788
 30
0.0
 11
90.30986150601946
 21
254.4059476238788
 31
0.0
  0
LINE
  5
27E
330
53
100
AcDbEntity
  8
1
  6
Continuous
 62
     7
100
AcDbLine
 10
90.30986150601946
 20
254.4059476238788
 30
0.0
 11
90.02118637142466
 21
253.9059476238788
 31
0.0
  0
LINE
  5
27F
330
53
100
AcDbEntity
  8
1
  6
Continuous
 62
     7
100
AcDbLine
 10
87.16117791021156
 20
257.9059476238788
 30
0.0
 11
87.44985304480636
 21
257.4059476238788
 31
0.0
  0
LINE
  5
280
330
53
100
AcDbEntity
  8
1
  6
Continuous
 62
     7
100
AcDbLine
 10
87.16117791021156
 20
257.9059476238788
 30
0.0
 11
87.86648583304546
 21
253.9059476238788
 31
0.0
  0
LINE
  5
281
330
53
100
AcDbEntity
  8
1
  6
Continuous
 62
     7
100
AcDbLine
 10
86.87250277561675
 20
257.4059476238788
 30
0.0
 11
87.16117791021156
 21
257.9059476238788
 31
0.0
  0
LINE
  5
282
330
53
100
AcDbEntity
  8
1
  6
Continuous
 62
     7
100
AcDbLine
 10
87.57781069845056
 20
254.4059476238788
 30
0.0
 11
86.87250277561675
 21
257.4059476238788
 31
0.0
  0
LINE
  5
283
330
53
100
AcDbEntity
  8
1
  6
Continuous
 62
     7
100
AcDbLine
 10
87.86648583304546
 20
253.9059476238788
 30
0.0
 11
87.57781069845056
 21
254.4059476238788
 31
0.0
  0
LINE
  5
284
330
53
100
AcDbEntity
  8
1
  6
Continuous
 62
     7
100
AcDbLine
 10
87.44985304480636
 20
257.4059476238788
 30
0.0
 11
88.15516096764026
 21
254.4059476238788
 31
0.0
  0
LINE
  5
285
330
53
100
AcDbEntity
  8
1
  6
Continuous
 62
     7
100
AcDbLine
 10
88.15516096764026
 20
254.4059476238788
 30
0.0
 11
87.86648583304546
 21
253.9059476238788
 31
0.0
  0
LINE
  5
286
330
53
100
AcDbEntity
  8
1
  6
Continuous
 62
     7
100
AcDbLine
 10
85.00647737183226
 20
257.9059476238788
 30
0.0
 11
85.29515250642716
 21
257.4059476238788
 31
0.0
  0
LINE
  5
287
330
53
100
AcDbEntity
  8
1
  6
Continuous
 62
     7
100
AcDbLine
 10
85.00647737183226
 20
257.9059476238788
 30
0.0
 11
85.71178529466616
 21
253.9059476238788
 31
0.0
  0
LINE
  5
288
330
53
100
AcDbEntity
  8
1
  6
Continuous
 62
     7
100
AcDbLine
 10
84.71780223723745
 20
257.4059476238788
 30
0.0
 11
85.00647737183226
 21
257.9059476238788
 31
0.0
  0
LINE
  5
289
330
53
100
AcDbEntity
  8
1
  6
Continuous
 62
     7
100
AcDbLine
 10
85.42311016007136
 20
254.4059476238788
 30
0.0
 11
84.71780223723745
 21
257.4059476238788
 31
0.0
  0
LINE
  5
28A
330
53
100
AcDbEntity
  8
1
  6
Continuous
 62
     7
100
AcDbLine
 10
85.71178529466616
 20
253.9059476238788
 30
0.0
 11
85.42311016007136
 21
254.4059476238788
 31
0.0
  0
LINE
  5
28B
330
53
100
AcDbEntity
  8
1
  6
Continuous
 62
     7
100
AcDbLine
 10
85.29515250642716
 20
257.4059476238788
 30
0.0
 11
86.00046042926095
 21
254.4059476238788
 31
0.0
  0
LINE
  5
28C
330
53
100
AcDbEntity
  8
1
  6
Continuous
 62
     7
100
AcDbLine
 10
86.00046042926095
 20
254.4059476238788
 30
0.0
 11
85.71178529466616
 21
253.9059476238788
 31
0.0
  0
LINE
  5
28D
330
53
100
AcDbEntity
  8
1
  6
Continuous
 62
     7
100
AcDbLine
 10
82.85177683345306
 20
257.9059476238788
 30
0.0
 11
83.14045196804786
 21
257.4059476238788
 31
0.0
  0
LINE
  5
28E
330
53
100
AcDbEntity
  8
1
  6
Continuous
 62
     7
100
AcDbLine
 10
82.85177683345306
 20
257.9059476238788
 30
0.0
 11
83.55708475628695
 21
253.9059476238788
 31
0.0
  0
LINE
  5
28F
330
53
100
AcDbEntity
  8
1
  6
Continuous
 62
     7
100
AcDbLine
 10
82.56310169885826
 20
257.4059476238788
 30
0.0
 11
82.85177683345306
 21
257.9059476238788
 31
0.0
  0
LINE
  5
290
330
53
100
AcDbEntity
  8
1
  6
Continuous
 62
     7
100
AcDbLine
 10
83.26840962169206
 20
254.4059476238788
 30
0.0
 11
82.56310169885826
 21
257.4059476238788
 31
0.0
  0
LINE
  5
291
330
53
100
AcDbEntity
  8
1
  6
Continuous
 62
     7
100
AcDbLine
 10
83.55708475628695
 20
253.9059476238788
 30
0.0
 11
83.26840962169206
 21
254.4059476238788
 31
0.0
  0
LINE
  5
292
330
53
100
AcDbEntity
  8
1
  6
Continuous
 62
     7
100
AcDbLine
 10
83.14045196804786
 20
257.4059476238788
 30
0.0
 11
83.84575989088165
 21
254.4059476238788
 31
0.0
  0
LINE
  5
293
330
53
100
AcDbEntity
  8
1
  6
Continuous
 62
     7
100
AcDbLine
 10
83.84575989088165
 20
254.4059476238788
 30
0.0
 11
83.55708475628695
 21
253.9059476238788
 31
0.0
  0
LINE
  5
294
330
53
100
AcDbEntity
  8
1
  6
Continuous
 62
     7
100
AcDbLine
 10
80.69707629507386
 20
257.9059476238788
 30
0.0
 11
80.98575142966865
 21
257.4059476238788
 31
0.0
  0
LINE
  5
295
330
53
100
AcDbEntity
  8
1
  6
Continuous
 62
     7
100
AcDbLine
 10
80.69707629507386
 20
257.9059476238788
 30
0.0
 11
81.40238421790765
 21
253.9059476238788
 31
0.0
  0
LINE
  5
296
330
53
100
AcDbEntity
  8
1
  6
Continuous
 62
     7
100
AcDbLine
 10
80.40840116047906
 20
257.4059476238788
 30
0.0
 11
80.69707629507386
 21
257.9059476238788
 31
0.0
  0
LINE
  5
297
330
53
100
AcDbEntity
  8
1
  6
Continuous
 62
     7
100
AcDbLine
 10
81.11370908331286
 20
254.4059476238788
 30
0.0
 11
80.40840116047906
 21
257.4059476238788
 31
0.0
  0
LINE
  5
298
330
53
100
AcDbEntity
  8
1
  6
Continuous
 62
     7
100
AcDbLine
 10
81.40238421790765
 20
253.9059476238788
 30
0.0
 11
81.11370908331286
 21
254.4059476238788
 31
0.0
  0
LINE
  5
299
330
53
100
AcDbEntity
  8
1
  6
Continuous
 62
     7
100
AcDbLine
 10
80.98575142966865
 20
257.4059476238788
 30
0.0
 11
81.69105935250245
 21
254.4059476238788
 31
0.0
  0
LINE
  5
29A
330
53
100
AcDbEntity
  8
1
  6
Continuous
 62
     7
100
AcDbLine
 10
81.69105935250245
 20
254.4059476238788
 30
0.0
 11
81.40238421790765
 21
253.9059476238788
 31
0.0
  0
LINE
  5
29B
330
53
100
AcDbEntity
  8
1
  6
Continuous
 62
     7
100
AcDbLine
 10
94.04191231358836
 20
254.4059476238788
 30
0.0
 11
92.46456204439876
 21
254.4059476238788
 31
0.0
  0
LINE
  5
29C
330
53
100
AcDbEntity
  8
1
  6
Continuous
 62
     7
100
AcDbLine
 10
93.33660439075446
 20
257.4059476238788
 30
0.0
 11
91.75925412156485
 21
257.4059476238788
 31
0.0
  0
LINE
  5
29D
330
53
100
AcDbEntity
  8
1
  6
Continuous
 62
     7
100
AcDbLine
 10
91.18190385237526
 20
257.4059476238788
 30
0.0
 11
89.60455358318566
 21
257.4059476238788
 31
0.0
  0
LINE
  5
29E
330
53
100
AcDbEntity
  8
1
  6
Continuous
 62
     7
100
AcDbLine
 10
91.88721177520905
 20
254.4059476238788
 30
0.0
 11
90.30986150601946
 21
254.4059476238788
 31
0.0
  0
LINE
  5
29F
330
53
100
AcDbEntity
  8
1
  6
Continuous
 62
     7
100
AcDbLine
 10
89.73251123682985
 20
254.4059476238788
 30
0.0
 11
88.15516096764026
 21
254.4059476238788
 31
0.0
  0
LINE
  5
2A0
330
53
100
AcDbEntity
  8
1
  6
Continuous
 62
     7
100
AcDbLine
 10
89.02720331399595
 20
257.4059476238788
 30
0.0
 11
87.44985304480636
 21
257.4059476238788
 31
0.0
  0
LINE
  5
2A1
330
53
100
AcDbEntity
  8
1
  6
Continuous
 62
     7
100
AcDbLine
 10
86.87250277561675
 20
257.4059476238788
 30
0.0
 11
85.29515250642716
 21
257.4059476238788
 31
0.0
  0
LINE
  5
2A2
330
53
100
AcDbEntity
  8
1
  6
Continuous
 62
     7
100
AcDbLine
 10
87.57781069845056
 20
254.4059476238788
 30
0.0
 11
86.00046042926095
 21
254.4059476238788
 31
0.0
  0
LINE
  5
2A3
330
53
100
AcDbEntity
  8
1
  6
Continuous
 62
     7
100
AcDbLine
 10
85.42311016007136
 20
254.4059476238788
 30
0.0
 11
83.84575989088165
 21
254.4059476238788
 31
0.0
  0
LINE
  5
2A4
330
53
100
AcDbEntity
  8
1
  6
Continuous
 62
     7
100
AcDbLine
 10
84.71780223723745
 20
257.4059476238788
 30
0.0
 11
83.14045196804786
 21
257.4059476238788
 31
0.0
  0
LINE
  5
2A5
330
53
100
AcDbEntity
  8
1
  6
Continuous
 62
     7
100
AcDbLine
 10
82.56310169885826
 20
257.4059476238788
 30
0.0
 11
80.98575142966865
 21
257.4059476238788
 31
0.0
  0
LINE
  5
2A6
330
53
100
AcDbEntity
  8
1
  6
Continuous
 62
     7
100
AcDbLine
 10
83.26840962169206
 20
254.4059476238788
 30
0.0
 11
81.69105935250245
 21
254.4059476238788
 31
0.0
  0
LINE
  5
2A7
330
53
100
AcDbEntity
  8
1
  6
Continuous
 62
     7
100
AcDbLine
 10
79.48507776662426
 20
257.1560119397622
 30
0.0
 11
80.11370908331286
 21
254.4874420543518
 31
0.0
  0
LINE
  5
2A8
330
53
100
AcDbEntity
  8
1
  6
Continuous
 62
     7
100
AcDbLine
 10
79.22625872152176
 20
257.6042996758462
 30
0.0
 11
79.85489003821036
 21
254.0391543182677
 31
0.0
  0
LINE
  5
2A9
330
53
100
AcDbEntity
  8
1
  6
Continuous
 62
     7
100
AcDbLine
 10
79.22625872152176
 20
257.6042996758462
 30
0.0
 11
79.48507776662426
 21
257.1560119397622
 31
0.0
  0
LINE
  5
2AA
330
53
100
AcDbEntity
  8
1
  6
Continuous
 62
     7
100
AcDbLine
 10
79.22625872152176
 20
257.6042996758462
 30
0.0
 11
78.87270533092845
 21
256.9919272401504
 31
0.0
  0
LINE
  5
2AB
330
53
100
AcDbEntity
  8
1
  6
Continuous
 62
     7
100
AcDbLine
 10
78.87270533092845
 20
256.9919272401504
 30
0.0
 11
79.50133664761705
 21
254.6515267539635
 31
0.0
  0
LINE
  5
2AC
330
53
100
AcDbEntity
  8
1
  6
Continuous
 62
     7
100
AcDbLine
 10
80.11370908331286
 20
254.4874420543518
 30
0.0
 11
79.85489003821036
 21
254.0391543182677
 31
0.0
  0
LINE
  5
2AD
330
53
100
AcDbEntity
  8
1
  6
Continuous
 62
     7
100
AcDbLine
 10
79.85489003821036
 20
254.0391543182677
 30
0.0
 11
79.50133664761705
 21
254.6515267539635
 31
0.0
  0
LINE
  5
2AE
330
53
100
AcDbEntity
  8
1
  6
Continuous
 62
     7
100
AcDbLine
 10
77.75937107709487
 20
257.2112483161349
 30
0.0
 11
78.01819012219737
 21
256.7629605800508
 31
0.0
  0
LINE
  5
2AF
330
53
100
AcDbEntity
  8
1
  6
Continuous
 62
     7
100
AcDbLine
 10
78.01819012219737
 20
256.7629605800508
 30
0.0
 11
78.50133664761707
 21
254.9194759463945
 31
0.0
  0
LINE
  5
2B0
330
53
100
AcDbEntity
  8
1
  6
Continuous
 62
     7
100
AcDbLine
 10
78.50133664761707
 20
254.9194759463945
 30
0.0
 11
78.24251760251457
 21
254.4711882103106
 31
0.0
  0
LINE
  5
2B1
330
53
100
AcDbEntity
  8
1
  6
Continuous
 62
     7
100
AcDbLine
 10
78.24251760251457
 20
254.4711882103106
 30
0.0
 11
77.88896421192128
 21
255.0835606460064
 31
0.0
  0
LINE
  5
2B2
330
53
100
AcDbEntity
  8
1
  6
Continuous
 62
     7
100
AcDbLine
 10
77.88896421192128
 20
255.0835606460064
 30
0.0
 11
77.40581768650155
 21
256.5988758804391
 31
0.0
  0
LINE
  5
2B3
330
53
100
AcDbEntity
  8
1
  6
Continuous
 62
     7
100
AcDbLine
 10
77.75937107709487
 20
257.2112483161349
 30
0.0
 11
78.24251760251457
 21
254.4711882103106
 31
0.0
  0
LINE
  5
2B4
330
53
100
AcDbEntity
  8
1
  6
Continuous
 62
     7
100
AcDbLine
 10
77.75937107709487
 20
257.2112483161349
 30
0.0
 11
77.40581768650155
 21
256.5988758804391
 31
0.0
  0
LINE
  5
2B5
330
53
100
AcDbEntity
  8
1
  6
Continuous
 62
     7
100
AcDbLine
 10
76.29248343266795
 20
256.8181969564236
 30
0.0
 11
76.55130247777048
 21
256.3699092203394
 31
0.0
  0
LINE
  5
2B6
330
53
100
AcDbEntity
  8
1
  6
Continuous
 62
     7
100
AcDbLine
 10
76.55130247777048
 20
256.3699092203394
 30
0.0
 11
76.88896421192128
 21
255.3515098384375
 31
0.0
  0
LINE
  5
2B7
330
53
100
AcDbEntity
  8
1
  6
Continuous
 62
     7
100
AcDbLine
 10
76.88896421192128
 20
255.3515098384375
 30
0.0
 11
76.63014516681875
 21
254.9032221023534
 31
0.0
  0
LINE
  5
2B8
330
53
100
AcDbEntity
  8
1
  6
Continuous
 62
     7
100
AcDbLine
 10
76.63014516681875
 20
254.9032221023534
 30
0.0
 11
76.27659177622547
 21
255.5155945380493
 31
0.0
  0
LINE
  5
2B9
330
53
100
AcDbEntity
  8
1
  6
Continuous
 62
     7
100
AcDbLine
 10
76.27659177622547
 20
255.5155945380493
 30
0.0
 11
75.93893004207477
 21
256.2058245207277
 31
0.0
  0
LINE
  5
2BA
330
53
100
AcDbEntity
  8
1
  6
Continuous
 62
     7
100
AcDbLine
 10
76.29248343266795
 20
256.8181969564236
 30
0.0
 11
75.93893004207477
 21
256.2058245207277
 31
0.0
  0
LINE
  5
2BB
330
53
100
AcDbEntity
  8
1
  6
Continuous
 62
     7
100
AcDbLine
 10
76.29248343266795
 20
256.8181969564236
 30
0.0
 11
76.63014516681875
 21
254.9032221023534
 31
0.0
  0
LINE
  5
2BC
330
53
100
AcDbEntity
  8
1
  6
Continuous
 62
     7
100
AcDbLine
 10
80.40840116047906
 20
257.4059476238788
 30
0.0
 11
79.48507776662426
 21
257.1560119397622
 31
0.0
  0
LINE
  5
2BD
330
53
100
AcDbEntity
  8
1
  6
Continuous
 62
     7
100
AcDbLine
 10
81.11370908331286
 20
254.4059476238788
 30
0.0
 11
80.41785043837186
 21
254.4059476238788
 31
0.0
  0
LINE
  5
2BE
330
53
100
AcDbEntity
  8
1
  6
Continuous
 62
     7
100
AcDbLine
 10
80.41785043837186
 20
254.4059476238788
 30
0.0
 11
80.11370908331286
 21
254.4874420543518
 31
0.0
  0
LINE
  5
2BF
330
53
100
AcDbEntity
  8
1
  6
Continuous
 62
     7
100
AcDbLine
 10
79.50133664761705
 20
254.6515267539635
 30
0.0
 11
78.50133664761707
 21
254.9194759463945
 31
0.0
  0
LINE
  5
2C0
330
53
100
AcDbEntity
  8
1
  6
Continuous
 62
     7
100
AcDbLine
 10
77.88896421192128
 20
255.0835606460064
 30
0.0
 11
76.88896421192128
 21
255.3515098384375
 31
0.0
  0
LINE
  5
2C1
330
53
100
AcDbEntity
  8
1
  6
Continuous
 62
     7
100
AcDbLine
 10
76.27659177622547
 20
255.5155945380493
 30
0.0
 11
74.81977422701858
 21
255.9059476238788
 31
0.0
  0
LINE
  5
2C2
330
53
100
AcDbEntity
  8
1
  6
Continuous
 62
     7
100
AcDbLine
 10
75.93893004207477
 20
256.2058245207277
 30
0.0
 11
74.81977422701858
 21
255.9059476238788
 31
0.0
  0
LINE
  5
2C3
330
53
100
AcDbEntity
  8
1
  6
Continuous
 62
     7
100
AcDbLine
 10
77.40581768650155
 20
256.5988758804391
 30
0.0
 11
76.55130247777048
 21
256.3699092203394
 31
0.0
  0
LINE
  5
2C4
330
53
100
AcDbEntity
  8
1
  6
Continuous
 62
     7
100
AcDbLine
 10
78.87270533092845
 20
256.9919272401504
 30
0.0
 11
78.01819012219737
 21
256.7629605800508
 31
0.0
  0
LINE
  5
2C5
330
53
100
AcDbEntity
  8
1
  6
Continuous
 62
     7
100
AcDbLine
 10
99.06977422701856
 20
252.1559476238788
 30
0.0
 11
99.31977422701856
 21
251.9059476238788
 31
0.0
  0
LINE
  5
2C6
330
53
100
AcDbEntity
  8
1
  6
Continuous
 62
     7
100
AcDbLine
 10
96.06977422701856
 20
257.4059476238788
 30
0.0
 11
95.49130492913376
 21
257.4059476238788
 31
0.0
  0
LINE
  5
2C7
330
53
100
AcDbEntity
  8
1
  6
Continuous
 62
     7
100
AcDbLine
 10
96.06977422701856
 20
254.1862566811049
 30
0.0
 11
95.90793771737276
 21
253.9059476238788
 31
0.0
  0
ENDBLK
  5
55
330
53
100
AcDbEntity
  8
0
100
AcDbBlockEnd
  0
BLOCK
  5
5B
330
56
100
AcDbEntity
  8
0
100
AcDbBlockBegin
  2
H862S
 70
     0
 10
105.0697742270184
 20
219.4059476238788
 30
0.0
  3
H862S
  1

  0
INSERT
  5
57
330
56
100
AcDbEntity
  8
0
100
AcDbBlockReference
  2
H862-A
 10
198.9716870960762
 20
335.5528625049797
 30
0.0
  0
INSERT
  5
58
330
56
100
AcDbEntity
  8
0
100
AcDbBlockReference
  2
H862-L
 10
172.824963363852
 20
240.9059476238788
 30
0.0
  0
INSERT
  5
59
330
56
100
AcDbEntity
  8
1
100
AcDbBlockReference
  2
H86F-A
 10
86.31977422701841
 20
285.4059476238788
 30
0.0
  0
INSERT
  5
5A
330
56
100
AcDbEntity
  8
1
100
AcDbBlockReference
  2
H86F-B
 10
79.23951314773883
 20
249.9801612960764
 30
0.0
  0
ENDBLK
  5
5C
330
56
100
AcDbEntity
  8
0
100
AcDbBlockEnd
  0
BLOCK
  5
5E
330
5D
100
AcDbEntity
  8
0
100
AcDbBlockBegin
  2
T601-3-2
 70
     0
 10
215.4082314951384
 20
177.7043121156047
 30
0.0
  3
T601-3-2
  1

  0
LINE
  5
2C8
330
5D
100
AcDbEntity
  8
1
  6
Continuous
 62
     7
100
AcDbLine
 10
373.1614911061027
 20
171.7512470854995
 30
0.0
 11
373.1614911061027
 21
191.8556836068076
 31
0.0
  0
LINE
  5
2C9
330
5D
100
AcDbEntity
  8
1
  6
Continuous
 62
     7
100
AcDbLine
 10
373.1614911061027
 20
191.8556836068076
 30
0.0
 11
373.1614911061028
 21
193.0614549727476
 31
0.0
  0
LINE
  5
2CA
330
5D
100
AcDbEntity
  8
1
  6
Continuous
 62
     7
100
AcDbLine
 10
372.9114911061027
 20
171.606909518202
 30
0.0
 11
368.4114911061028
 21
171.606909518202
 31
0.0
  0
LINE
  5
2CB
330
5D
100
AcDbEntity
  8
1
  6
Continuous
 62
     7
100
AcDbLine
 10
373.1614911061027
 20
171.7512470854995
 30
0.0
 11
372.9114911061027
 21
171.606909518202
 31
0.0
  0
LINE
  5
2CC
330
5D
100
AcDbEntity
  8
1
  6
Continuous
 62
     7
100
AcDbLine
 10
346.1614911061028
 20
191.8556836068076
 30
0.0
 11
346.1614911061028
 21
171.7512470854995
 31
0.0
  0
LINE
  5
2CD
330
5D
100
AcDbEntity
  8
1
  6
Continuous
 62
     7
100
AcDbLine
 10
346.1614911061028
 20
193.0614549727476
 30
0.0
 11
346.1614911061028
 21
191.8556836068076
 31
0.0
  0
LINE
  5
2CE
330
5D
100
AcDbEntity
  8
1
  6
Continuous
 62
     7
100
AcDbLine
 10
359.6614911061028
 20
191.8556836068076
 30
0.0
 11
359.6614911061028
 21
172.9570184514396
 31
0.0
  0
LINE
  5
2CF
330
5D
100
AcDbEntity
  8
1
  6
Continuous
 62
     7
100
AcDbLine
 10
350.9114911061028
 20
171.606909518202
 30
0.0
 11
359.6614911061028
 21
171.606909518202
 31
0.0
  0
LINE
  5
2D0
330
5D
100
AcDbEntity
  8
1
  6
Continuous
 62
     7
100
AcDbLine
 10
350.9114911061028
 20
171.606909518202
 30
0.0
 11
346.4114911061028
 21
171.606909518202
 31
0.0
  0
LINE
  5
2D1
330
5D
100
AcDbEntity
  8
1
  6
Continuous
 62
     7
100
AcDbLine
 10
359.6614911061028
 20
171.606909518202
 30
0.0
 11
368.4114911061028
 21
171.606909518202
 31
0.0
  0
LINE
  5
2D2
330
5D
100
AcDbEntity
  8
1
  6
Continuous
 62
     7
100
AcDbLine
 10
346.1614911061028
 20
193.0614549727476
 30
0.0
 11
373.1614911061028
 21
193.0614549727476
 31
0.0
  0
LINE
  5
2D3
330
5D
100
AcDbEntity
  8
1
  6
Continuous
 62
     7
100
AcDbLine
 10
346.4114911061028
 20
171.606909518202
 30
0.0
 11
346.1614911061028
 21
171.7512470854995
 31
0.0
  0
LINE
  5
2D4
330
5D
100
AcDbEntity
  8
1
  6
Continuous
 62
     7
100
AcDbLine
 10
207.6140028610785
 20
172.9570184514396
 30
0.0
 11
207.6140028610785
 21
191.8556836068076
 31
0.0
  0
LINE
  5
2D5
330
5D
100
AcDbEntity
  8
1
  6
Continuous
 62
     7
100
AcDbLine
 10
192.0255455929586
 20
191.8556836068076
 30
0.0
 11
192.0255455929586
 21
172.9570184514396
 31
0.0
  0
LINE
  5
2D6
330
5D
100
AcDbEntity
  8
1
  6
Continuous
 62
     7
100
AcDbLine
 10
191.0697742270185
 20
171.606909518202
 30
0.0
 11
199.8197742270185
 21
171.606909518202
 31
0.0
  0
LINE
  5
2D7
330
5D
100
AcDbEntity
  8
1
  6
Continuous
 62
     7
100
AcDbLine
 10
184.2313169588986
 20
172.9570184514396
 30
0.0
 11
184.2313169588986
 21
186.5614549727476
 31
0.0
  0
LINE
  5
2D8
330
5D
100
AcDbEntity
  8
1
  6
Continuous
 62
     7
100
AcDbLine
 10
186.5697742270185
 20
171.606909518202
 30
0.0
 11
184.2313169588986
 21
172.9570184514396
 31
0.0
  0
LINE
  5
2D9
330
5D
100
AcDbEntity
  8
1
  6
Continuous
 62
     7
100
AcDbLine
 10
186.3197742270185
 20
193.0614549727476
 30
0.0
 11
184.2313169588986
 21
191.8556836068076
 31
0.0
  0
LINE
  5
2DA
330
5D
100
AcDbEntity
  8
1
  6
Continuous
 62
     7
100
AcDbLine
 10
191.0697742270185
 20
171.606909518202
 30
0.0
 11
186.5697742270185
 21
171.606909518202
 31
0.0
  0
LINE
  5
2DB
330
5D
100
AcDbEntity
  8
1
  6
Continuous
 62
     7
100
AcDbLine
 10
184.2313169588986
 20
186.5614549727476
 30
0.0
 11
184.2313169588986
 21
191.8556836068076
 31
0.0
  0
LINE
  5
2DC
330
5D
100
AcDbEntity
  8
1
  6
Continuous
 62
     7
100
AcDbLine
 10
199.8197742270185
 20
171.606909518202
 30
0.0
 11
208.5697742270185
 21
171.606909518202
 31
0.0
  0
LINE
  5
2DD
330
5D
100
AcDbEntity
  8
1
  6
Continuous
 62
     7
100
AcDbLine
 10
186.3197742270185
 20
193.0614549727476
 30
0.0
 11
213.3197742270185
 21
193.0614549727476
 31
0.0
  0
LINE
  5
2DE
330
5D
100
AcDbEntity
  8
1
  6
Continuous
 62
     7
100
AcDbLine
 10
215.4082314951384
 20
186.5614549727476
 30
0.0
 11
215.4082314951384
 21
172.9570184514396
 31
0.0
  0
LINE
  5
2DF
330
5D
100
AcDbEntity
  8
1
  6
Continuous
 62
     7
100
AcDbLine
 10
215.4082314951384
 20
172.9570184514396
 30
0.0
 11
213.0697742270185
 21
171.606909518202
 31
0.0
  0
LINE
  5
2E0
330
5D
100
AcDbEntity
  8
1
  6
Continuous
 62
     7
100
AcDbLine
 10
215.4082314951384
 20
191.8556836068076
 30
0.0
 11
213.3197742270185
 21
193.0614549727476
 31
0.0
  0
LINE
  5
2E1
330
5D
100
AcDbEntity
  8
1
  6
Continuous
 62
     7
100
AcDbLine
 10
213.0697742270185
 20
171.606909518202
 30
0.0
 11
208.5697742270185
 21
171.606909518202
 31
0.0
  0
LINE
  5
2E2
330
5D
100
AcDbEntity
  8
1
  6
Continuous
 62
     7
100
AcDbLine
 10
215.4082314951384
 20
191.8556836068076
 30
0.0
 11
215.4082314951384
 21
186.5614549727476
 31
0.0
  0
ARC
  5
2E3
330
5D
100
AcDbEntity
  8
1
  6
Continuous
 62
     7
100
AcDbCircle
 10
366.4114911061027
 20
173.565062076459
 30
0.0
 40
19.49639289628858
100
AcDbArc
 50
69.74384199958484
 51
110.2561580004148
  0
ARC
  5
2E4
330
5D
100
AcDbEntity
  8
1
  6
Continuous
 62
     7
100
AcDbCircle
 10
366.4121591286024
 20
189.1589422722198
 30
0.0
 40
17.55203276673
100
AcDbArc
 50
247.3805375283226
 51
292.6194624716776
  0
ARC
  5
2E5
330
5D
100
AcDbEntity
  8
1
  6
Continuous
 62
     7
100
AcDbCircle
 10
352.9108230836031
 20
189.1589422722198
 30
0.0
 40
17.55203276673006
100
AcDbArc
 50
247.3805375283221
 51
292.6194624716777
  0
ARC
  5
2E6
330
5D
100
AcDbEntity
  8
1
  6
Continuous
 62
     7
100
AcDbCircle
 10
352.9114911061028
 20
173.565062076459
 30
0.0
 40
19.49639289628858
100
AcDbArc
 50
69.74384199958484
 51
110.2561580004152
  0
ARC
  5
2E7
330
5D
100
AcDbEntity
  8
1
  6
Continuous
 62
     7
100
AcDbCircle
 10
211.5111171781084
 20
177.906510132953
 30
0.0
 40
6.299600614750894
100
AcDbArc
 50
231.7839294162486
 51
308.216070583752
  0
ARC
  5
2E8
330
5D
100
AcDbEntity
  8
1
  6
Continuous
 62
     7
100
AcDbCircle
 10
199.8197742270185
 20
194.7801485773496
 30
0.0
 40
23.17323905914751
100
AcDbArc
 50
250.3455854712386
 51
289.6544145287615
  0
ARC
  5
2E9
330
5D
100
AcDbEntity
  8
1
  6
Continuous
 62
     7
100
AcDbCircle
 10
188.1284312759286
 20
177.9065101329532
 30
0.0
 40
6.299600614751102
100
AcDbArc
 50
231.7839294162491
 51
308.2160705837508
  0
ARC
  5
2EA
330
5D
100
AcDbEntity
  8
1
  6
Continuous
 62
     7
100
AcDbCircle
 10
211.5111171781085
 20
186.1607335520047
 30
0.0
 40
6.900721420742832
100
AcDbArc
 50
55.61575253196046
 51
124.3842474680401
  0
ARC
  5
2EB
330
5D
100
AcDbEntity
  8
1
  6
Continuous
 62
     7
100
AcDbCircle
 10
188.1284312759286
 20
186.1607335520047
 30
0.0
 40
6.90072142074288
100
AcDbArc
 50
55.61575253195988
 51
124.3842474680401
  0
ARC
  5
2EC
330
5D
100
AcDbEntity
  8
1
  6
Continuous
 62
     7
100
AcDbCircle
 10
199.8197742270186
 20
167.2672263386864
 30
0.0
 40
25.79422863406115
100
AcDbArc
 50
72.4120462260072
 51
107.587953773993
  0
ENDBLK
  5
5F
330
5D
100
AcDbEntity
  8
0
100
AcDbBlockEnd
  0
BLOCK
  5
61
330
60
100
AcDbEntity
  8
0
100
AcDbBlockBegin
  2
T601-3-1
 70
     0
 10
103.7332172798185
 20
177.1059476238788
 30
0.0
  3
T601-3-1
  1

  0
LINE
  5
2ED
330
60
100
AcDbEntity
  8
0
  6
PHANTOM
 62
     4
100
AcDbLine
 10
363.6614911061028
 20
200.4059476238788
 30
0.0
 11
355.6614911061028
 21
200.4059476238788
 31
0.0
  0
LINE
  5
2EE
330
60
100
AcDbEntity
  8
1
  6
Continuous
 62
     7
100
AcDbLine
 10
371.6614911061028
 20
193.0614549727476
 30
0.0
 11
371.6614911061028
 21
193.1559476238788
 31
0.0
  0
LINE
  5
2EF
330
60
100
AcDbEntity
  8
1
  6
Continuous
 62
     2
100
AcDbLine
 10
348.7414911061027
 20
193.0614549727476
 30
0.0
 11
348.7414911061027
 21
194.2359476238788
 31
0.0
  0
LINE
  5
2F0
330
60
100
AcDbEntity
  8
1
  6
Continuous
 62
     7
100
AcDbLine
 10
348.9114911061028
 20
194.4059476238788
 30
0.0
 11
370.4114911061028
 21
194.4059476238788
 31
0.0
  0
LINE
  5
2F1
330
60
100
AcDbEntity
  8
0
  6
Continuous
 62
     7
100
AcDbLine
 10
371.5614911061028
 20
198.9059476238788
 30
0.0
 11
371.5614911061028
 21
205.9059476238788
 31
0.0
  0
LINE
  5
2F2
330
60
100
AcDbEntity
  8
1
  6
Continuous
 62
     7
100
AcDbLine
 10
371.5614911061028
 20
196.9059476238788
 30
0.0
 11
347.7536418040668
 21
196.9059476238788
 31
0.0
  0
LINE
  5
2F3
330
60
100
AcDbEntity
  8
0
  6
Continuous
 62
     7
100
AcDbLine
 10
371.5614911061028
 20
196.9059476238788
 30
0.0
 11
371.5614911061028
 21
198.9059476238788
 31
0.0
  0
LINE
  5
2F4
330
60
100
AcDbEntity
  8
1
  6
Continuous
 62
     7
100
AcDbLine
 10
371.6614911061028
 20
193.1559476238788
 30
0.0
 11
370.5814911061029
 21
194.2359476238788
 31
0.0
  0
LINE
  5
2F5
330
60
100
AcDbEntity
  8
1
  6
Continuous
 62
     2
100
AcDbLine
 10
370.5814911061029
 20
194.2359476238788
 30
0.0
 11
370.5814911061029
 21
193.0614549727476
 31
0.0
  0
LINE
  5
2F6
330
60
100
AcDbEntity
  8
1
  6
Continuous
 62
     7
100
AcDbLine
 10
370.5814911061029
 20
194.2359476238788
 30
0.0
 11
370.4114911061028
 21
194.4059476238788
 31
0.0
  0
LINE
  5
2F7
330
60
100
AcDbEntity
  8
1
  6
Continuous
 62
     7
100
AcDbLine
 10
370.4114911061028
 20
194.4059476238788
 30
0.0
 11
370.4114911061028
 21
196.9059476238788
 31
0.0
  0
LINE
  5
2F8
330
60
100
AcDbEntity
  8
1
  6
Continuous
 62
     7
100
AcDbLine
 10
348.7414911061027
 20
194.2359476238788
 30
0.0
 11
347.6614911061028
 21
193.1559476238788
 31
0.0
  0
LINE
  5
2F9
330
60
100
AcDbEntity
  8
1
  6
Continuous
 62
     7
100
AcDbLine
 10
347.6614911061028
 20
193.1559476238788
 30
0.0
 11
347.6614911061028
 21
193.0614549727476
 31
0.0
  0
LINE
  5
2FA
330
60
100
AcDbEntity
  8
1
  6
Continuous
 62
     7
100
AcDbLine
 10
348.9114911061028
 20
194.4059476238788
 30
0.0
 11
348.7414911061027
 21
194.2359476238788
 31
0.0
  0
LINE
  5
2FB
330
60
100
AcDbEntity
  8
1
  6
Continuous
 62
     7
100
AcDbLine
 10
348.9114911061028
 20
196.9059476238788
 30
0.0
 11
348.9114911061028
 21
194.4059476238788
 31
0.0
  0
LINE
  5
2FC
330
60
100
AcDbEntity
  8
0
  6
Continuous
 62
     7
100
AcDbLine
 10
347.7536418040668
 20
196.9059476238788
 30
0.0
 11
347.7536418040668
 21
205.9059476238788
 31
0.0
  0
LINE
  5
2FD
330
60
100
AcDbEntity
  8
1
  6
Continuous
 62
     7
100
AcDbLine
 10
211.8197742270185
 20
193.0614549727476
 30
0.0
 11
211.8197742270185
 21
193.1559476238788
 31
0.0
  0
LINE
  5
2FE
330
60
100
AcDbEntity
  8
1
  6
Continuous
 62
     2
100
AcDbLine
 10
188.8997742270184
 20
193.0614549727476
 30
0.0
 11
188.8997742270184
 21
194.2359476238788
 31
0.0
  0
LINE
  5
2FF
330
60
100
AcDbEntity
  8
1
  6
Continuous
 62
     7
100
AcDbLine
 10
189.0697742270185
 20
194.4059476238788
 30
0.0
 11
210.5697742270185
 21
194.4059476238788
 31
0.0
  0
LINE
  5
300
330
60
100
AcDbEntity
  8
0
  6
DASH_CENTER
 62
     2
100
AcDbLine
 10
214.4658343076294
 20
200.4059476238788
 30
0.0
 11
207.4658343076294
 21
200.4059476238788
 31
0.0
  0
LINE
  5
301
330
60
100
AcDbEntity
  8
0
  6
Continuous
 62
     7
100
AcDbLine
 10
211.7197742270185
 20
198.9059476238788
 30
0.0
 11
211.7197742270185
 21
205.9059476238788
 31
0.0
  0
LINE
  5
302
330
60
100
AcDbEntity
  8
1
  6
Continuous
 62
     7
100
AcDbLine
 10
211.7197742270185
 20
196.9059476238788
 30
0.0
 11
187.9119249249825
 21
196.9059476238788
 31
0.0
  0
LINE
  5
303
330
60
100
AcDbEntity
  8
0
  6
Continuous
 62
     7
100
AcDbLine
 10
211.7197742270185
 20
196.9059476238788
 30
0.0
 11
211.7197742270185
 21
198.9059476238788
 31
0.0
  0
LINE
  5
304
330
60
100
AcDbEntity
  8
1
  6
Continuous
 62
     7
100
AcDbLine
 10
211.8197742270185
 20
193.1559476238788
 30
0.0
 11
210.7397742270186
 21
194.2359476238788
 31
0.0
  0
LINE
  5
305
330
60
100
AcDbEntity
  8
1
  6
Continuous
 62
     2
100
AcDbLine
 10
210.7397742270186
 20
194.2359476238788
 30
0.0
 11
210.7397742270186
 21
193.0614549727476
 31
0.0
  0
LINE
  5
306
330
60
100
AcDbEntity
  8
1
  6
Continuous
 62
     7
100
AcDbLine
 10
210.7397742270186
 20
194.2359476238788
 30
0.0
 11
210.5697742270185
 21
194.4059476238788
 31
0.0
  0
LINE
  5
307
330
60
100
AcDbEntity
  8
1
  6
Continuous
 62
     7
100
AcDbLine
 10
210.5697742270185
 20
194.4059476238788
 30
0.0
 11
210.5697742270185
 21
196.9059476238788
 31
0.0
  0
LINE
  5
308
330
60
100
AcDbEntity
  8
1
  6
Continuous
 62
     7
100
AcDbLine
 10
188.8997742270184
 20
194.2359476238788
 30
0.0
 11
187.8197742270185
 21
193.1559476238788
 31
0.0
  0
LINE
  5
309
330
60
100
AcDbEntity
  8
1
  6
Continuous
 62
     7
100
AcDbLine
 10
187.8197742270185
 20
193.1559476238788
 30
0.0
 11
187.8197742270185
 21
193.0614549727476
 31
0.0
  0
LINE
  5
30A
330
60
100
AcDbEntity
  8
1
  6
Continuous
 62
     7
100
AcDbLine
 10
189.0697742270185
 20
194.4059476238788
 30
0.0
 11
188.8997742270184
 21
194.2359476238788
 31
0.0
  0
LINE
  5
30B
330
60
100
AcDbEntity
  8
1
  6
Continuous
 62
     7
100
AcDbLine
 10
189.0697742270185
 20
196.9059476238788
 30
0.0
 11
189.0697742270185
 21
194.4059476238788
 31
0.0
  0
LINE
  5
30C
330
60
100
AcDbEntity
  8
0
  6
Continuous
 62
     7
100
AcDbLine
 10
187.9119249249825
 20
196.9059476238788
 30
0.0
 11
187.9119249249825
 21
205.9059476238788
 31
0.0
  0
CIRCLE
  5
30D
330
60
100
AcDbEntity
  8
0
  6
Continuous
 62
     7
100
AcDbCircle
 10
359.6614911061028
 20
200.4059476238788
 30
0.0
 40
2.0
  0
LWPOLYLINE
  5
30E
330
60
100
AcDbEntity
  8
0
  6
Continuous
 62
     7
 60
     1
100
AcDbPolyline
 90
        2
 70
     0
 43
0.0
 10
188.8997742270184
 20
184.9059476238788
 10
188.8997742270184
 20
194.2359476238788
  0
LWPOLYLINE
  5
30F
330
60
100
AcDbEntity
  8
0
  6
Continuous
 62
     7
 60
     1
100
AcDbPolyline
 90
        2
 70
     0
 43
0.0
 10
191.0697742270185
 20
189.7140331079244
 10
189.3197742270185
 20
184.9059476238788
  0
LWPOLYLINE
  5
310
330
60
100
AcDbEntity
  8
1
  6
Continuous
 62
     7
 60
     1
100
AcDbPolyline
 90
        2
 70
     0
 43
0.0
 10
188.8997742270184
 20
184.9059476238788
 10
188.8997742270184
 20
194.2359476238788
  0
LWPOLYLINE
  5
311
330
60
100
AcDbEntity
  8
1
  6
Continuous
 62
     7
 60
     1
100
AcDbPolyline
 90
        6
 70
     0
 43
0.0
 10
193.4697742270184
 20
189.7140331079244
 10
193.4697742270184
 20
201.9059476238788
 10
192.8924239578286
 20
202.9059476238788
 10
191.0697742270185
 20
202.9059476238788
 10
191.0697742270185
 20
189.7140331079244
 10
189.3197742270185
 20
184.9059476238788
  0
LWPOLYLINE
  5
312
330
60
100
AcDbEntity
  8
1
  6
Continuous
 62
     7
 60
     1
100
AcDbPolyline
 90
       11
 70
     0
 43
0.0
 10
217.0460562158568
 20
225.4374133319432
 10
217.0403257150773
 20
225.4352648632123
 10
216.7442018896783
 20
225.2841803358429
 10
216.4277270598126
 20
225.0042960692656
 10
216.1794813164069
 20
224.5949140191731
 10
216.0759240982763
 20
224.1675005184261
 10
216.0697742270185
 20
223.9125740517775
 10
216.0697742270185
 20
223.2868579106939
 10
216.0697742270185
 20
222.6059476238788
 10
212.8197742270185
 20
222.6059476238788
 10
212.8197742270185
 20
197.4059476238788
  0
LWPOLYLINE
  5
313
330
60
100
AcDbEntity
  8
0
  6
Continuous
 62
     7
 60
     1
100
AcDbPolyline
 90
        5
 70
     0
 43
0.0
 10
189.3197742270185
 20
184.9059476238788
 10
188.8997742270184
 20
184.9059476238788
 10
188.8997742270184
 20
194.2359476238788
 10
189.0697742270185
 20
194.4059476238788
 10
189.0697742270185
 20
196.9059476238788
  0
ENDBLK
  5
62
330
60
100
AcDbEntity
  8
0
100
AcDbBlockEnd
  0
BLOCK
  5
66
330
63
100
AcDbEntity
  8
0
100
AcDbBlockBegin
  2
T601-3
 70
     0
 10
284.0227814286839
 20
90.97787726013749
 30
0.0
  3
T601-3
  1

  0
INSERT
  5
64
330
63
100
AcDbEntity
  8
1
100
AcDbBlockReference
  2
T601-3-2
 10
215.4082314951384
 20
177.7043121156047
 30
0.0
  0
INSERT
  5
65
330
63
100
AcDbEntity
  8
1
100
AcDbBlockReference
  2
T601-3-1
 10
103.7332172798185
 20
177.1059476238788
 30
0.0
  0
ENDBLK
  5
67
330
63
100
AcDbEntity
  8
0
100
AcDbBlockEnd
  0
BLOCK
  5
69
330
68
100
AcDbEntity
  8
0
100
AcDbBlockBegin
  2
開示A4
 70
     0
 10
0.0
 20
0.0
 30
0.0
  3
開示A4
  1

  0
POINT
  5
314
330
68
100
AcDbEntity
  8
1
 62
     4
100
AcDbPoint
 10
93.75
 20
17.0
 30
0.0
  0
POINT
  5
315
330
68
100
AcDbEntity
  8
1
 62
     4
100
AcDbPoint
 10
85.25
 20
17.0
 30
0.0
  0
POINT
  5
316
330
68
100
AcDbEntity
  8
1
 62
     4
100
AcDbPoint
 10
106.5
 20
19.00000000000001
 30
0.0
  0
POINT
  5
317
330
68
100
AcDbEntity
  8
1
 62
     4
100
AcDbPoint
 10
106.5
 20
12.5
 30
0.0
  0
POINT
  5
318
330
68
100
AcDbEntity
  8
1
 62
     4
100
AcDbPoint
 10
112.25
 20
12.5
 30
0.0
  0
POINT
  5
319
330
68
100
AcDbEntity
  8
1
 62
     4
100
AcDbPoint
 10
100.75
 20
12.5
 30
0.0
  0
POINT
  5
31A
330
68
100
AcDbEntity
  8
1
 62
     4
100
AcDbPoint
 10
123.5
 20
19.00000000000001
 30
0.0
  0
POINT
  5
31B
330
68
100
AcDbEntity
  8
1
 62
     4
100
AcDbPoint
 10
123.5
 20
12.5
 30
0.0
  0
POINT
  5
31C
330
68
100
AcDbEntity
  8
1
 62
     4
100
AcDbPoint
 10
129.25
 20
12.5
 30
0.0
  0
POINT
  5
31D
330
68
100
AcDbEntity
  8
1
 62
     4
100
AcDbPoint
 10
117.75
 20
12.5
 30
0.0
  0
POINT
  5
31E
330
68
100
AcDbEntity
  8
1
 62
     4
100
AcDbPoint
 10
140.5
 20
19.00000000000001
 30
0.0
  0
POINT
  5
31F
330
68
100
AcDbEntity
  8
1
 62
     4
100
AcDbPoint
 10
140.5
 20
12.5
 30
0.0
  0
POINT
  5
320
330
68
100
AcDbEntity
  8
1
 62
     4
100
AcDbPoint
 10
146.25
 20
12.5
 30
0.0
  0
POINT
  5
321
330
68
100
AcDbEntity
  8
1
 62
     4
100
AcDbPoint
 10
134.75
 20
12.5
 30
0.0
  0
POINT
  5
322
330
68
100
AcDbEntity
  8
1
 62
     4
100
AcDbPoint
 10
151.75
 20
12.5
 30
0.0
  0
POINT
  5
323
330
68
100
AcDbEntity
  8
1
 62
     4
100
AcDbPoint
 10
163.25
 20
12.5
 30
0.0
  0
POINT
  5
324
330
68
100
AcDbEntity
  8
1
 62
     4
100
AcDbPoint
 10
157.5
 20
12.5
 30
0.0
  0
POINT
  5
325
330
68
100
AcDbEntity
  8
1
 62
     4
100
AcDbPoint
 10
57.0
 20
14.25
 30
0.0
  0
POINT
  5
326
330
68
100
AcDbEntity
  8
1
 62
     4
100
AcDbPoint
 10
57.0
 20
22.75000000000001
 30
0.0
  0
POINT
  5
327
330
68
100
AcDbEntity
  8
1
 62
     4
100
AcDbPoint
 10
47.5
 20
282.0000000000003
 30
0.0
  0
POINT
  5
328
330
68
100
AcDbEntity
  8
1
 62
     4
100
AcDbPoint
 10
157.5
 20
19.00000000000001
 30
0.0
  0
POINT
  5
329
330
68
100
AcDbEntity
  8
1
 62
     4
100
AcDbPoint
 10
57.0
 20
16.25
 30
0.0
  0
POINT
  5
32A
330
68
100
AcDbEntity
  8
1
 62
     4
100
AcDbPoint
 10
57.0
 20
24.75000000000001
 30
0.0
  0
POINT
  5
32B
330
68
100
AcDbEntity
  8
1
 62
     4
100
AcDbPoint
 10
57.0
 20
20.75000000000001
 30
0.0
  0
POINT
  5
32C
330
68
100
AcDbEntity
  8
1
 62
     4
100
AcDbPoint
 10
57.0
 20
12.25
 30
0.0
  0
POINT
  5
32D
330
68
100
AcDbEntity
  8
1
 62
     4
100
AcDbPoint
 10
34.0
 20
34.00000000000001
 30
0.0
  0
LINE
  5
32E
330
68
100
AcDbEntity
  8
1
  6
Continuous
 62
     7
100
AcDbLine
 10
105.0
 20
10.0
 30
0.0
 11
200.0
 21
10.0
 31
0.0
  0
LINE
  5
32F
330
68
100
AcDbEntity
  8
1
  6
Continuous
 62
     2
100
AcDbLine
 10
105.0
 20
10.0
 30
0.0
 11
105.0
 21
5.0
 31
0.0
  0
LINE
  5
330
330
68
100
AcDbEntity
  8
1
  6
Continuous
 62
     7
100
AcDbLine
 10
200.0
 20
148.5
 30
0.0
 11
200.0
 21
287.0000000000003
 31
0.0
  0
LINE
  5
331
330
68
100
AcDbEntity
  8
1
  6
Continuous
 62
     2
100
AcDbLine
 10
200.0
 20
148.5
 30
0.0
 11
205.0
 21
148.5
 31
0.0
  0
LINE
  5
332
330
68
100
AcDbEntity
  8
1
  6
Continuous
 62
     7
100
AcDbLine
 10
25.0
 20
148.5
 30
0.0
 11
25.0
 21
287.0000000000003
 31
0.0
  0
LINE
  5
333
330
68
100
AcDbEntity
  8
1
  6
Continuous
 62
     2
100
AcDbLine
 10
25.0
 20
148.5
 30
0.0
 11
20.0
 21
148.5
 31
0.0
  0
LINE
  5
334
330
68
100
AcDbEntity
  8
1
  6
Continuous
 62
     7
100
AcDbLine
 10
105.0
 20
287.0000000000003
 30
0.0
 11
25.0
 21
287.0000000000003
 31
0.0
  0
LINE
  5
335
330
68
100
AcDbEntity
  8
1
  6
Continuous
 62
     2
100
AcDbLine
 10
105.0
 20
287.0000000000003
 30
0.0
 11
105.0
 21
292.0000000000003
 31
0.0
  0
LINE
  5
336
330
68
100
AcDbEntity
  8
1
  6
Continuous
 62
     2
100
AcDbLine
 10
166.0
 20
20.00000000000001
 30
0.0
 11
200.0
 21
20.00000000000001
 31
0.0
  0
LINE
  5
337
330
68
100
AcDbEntity
  8
1
  6
Continuous
 62
     2
100
AcDbLine
 10
98.0
 20
27.00000000000001
 30
0.0
 11
98.0
 21
9.99999999999999
 31
0.0
  0
LINE
  5
338
330
68
100
AcDbEntity
  8
1
  6
Continuous
 62
     2
100
AcDbLine
 10
115.0
 20
27.00000000000001
 30
0.0
 11
115.0
 21
9.99999999999999
 31
0.0
  0
LINE
  5
339
330
68
100
AcDbEntity
  8
1
  6
Continuous
 62
     2
100
AcDbLine
 10
149.0
 20
27.00000000000001
 30
0.0
 11
149.0
 21
10.0
 31
0.0
  0
LINE
  5
33A
330
68
100
AcDbEntity
  8
1
  6
Continuous
 62
     2
100
AcDbLine
 10
132.0
 20
27.00000000000001
 30
0.0
 11
132.0
 21
9.99999999999999
 31
0.0
  0
LINE
  5
33B
330
68
100
AcDbEntity
  8
1
  6
Continuous
 62
     2
100
AcDbLine
 10
166.0
 20
27.00000000000001
 30
0.0
 11
166.0
 21
10.0
 31
0.0
  0
LINE
  5
33C
330
68
100
AcDbEntity
  8
1
  6
Continuous
 62
     2
100
AcDbLine
 10
55.0
 20
277.0000000000003
 30
0.0
 11
25.0
 21
277.0000000000003
 31
0.0
  0
LINE
  5
33D
330
68
100
AcDbEntity
  8
1
  6
Continuous
 62
     7
100
AcDbLine
 10
25.0
 20
10.0
 30
0.0
 11
25.0
 21
148.5
 31
0.0
  0
LINE
  5
33E
330
68
100
AcDbEntity
  8
1
  6
Continuous
 62
     2
100
AcDbLine
 10
40.0
 20
287.0000000000003
 30
0.0
 11
40.0
 21
277.0000000000003
 31
0.0
  0
LINE
  5
33F
330
68
100
AcDbEntity
  8
1
  6
Continuous
 62
     2
100
AcDbLine
 10
55.0
 20
287.0000000000003
 30
0.0
 11
55.0
 21
277.0000000000003
 31
0.0
  0
LINE
  5
340
330
68
100
AcDbEntity
  8
1
  6
Continuous
 62
     2
100
AcDbLine
 10
33.0
 20
41.00000000000001
 30
0.0
 11
33.0
 21
27.0
 31
0.0
  0
LINE
  5
341
330
68
100
AcDbEntity
  8
1
  6
Continuous
 62
     7
100
AcDbLine
 10
200.0
 20
27.00000000000001
 30
0.0
 11
25.0
 21
27.00000000000001
 31
0.0
  0
LINE
  5
342
330
68
100
AcDbEntity
  8
1
  6
Continuous
 62
     7
100
AcDbLine
 10
25.0
 20
41.0
 30
0.0
 11
200.0
 21
41.0
 31
0.0
  0
LINE
  5
343
330
68
100
AcDbEntity
  8
1
  6
PHANTOM
 62
     4
100
AcDbLine
 10
0.0
 20
0.0
 30
0.0
 11
210.0
 21
0.0
 31
0.0
  0
LINE
  5
344
330
68
100
AcDbEntity
  8
1
  6
PHANTOM
 62
     4
100
AcDbLine
 10
210.0
 20
0.0
 30
0.0
 11
210.0
 21
297.0
 31
0.0
  0
LINE
  5
345
330
68
100
AcDbEntity
  8
1
  6
PHANTOM
 62
     4
100
AcDbLine
 10
210.0
 20
297.0
 30
0.0
 11
0.0
 21
297.0
 31
0.0
  0
LINE
  5
346
330
68
100
AcDbEntity
  8
1
  6
PHANTOM
 62
     4
100
AcDbLine
 10
0.0
 20
297.0
 30
0.0
 11
0.0
 21
0.0
 31
0.0
  0
LINE
  5
347
330
68
100
AcDbEntity
  8
1
  6
Continuous
 62
     7
100
AcDbLine
 10
25.0
 20
10.0
 30
0.0
 11
105.0
 21
10.0
 31
0.0
  0
LINE
  5
348
330
68
100
AcDbEntity
  8
1
  6
Continuous
 62
     7
100
AcDbLine
 10
200.0
 20
10.0
 30
0.0
 11
200.0
 21
148.5
 31
0.0
  0
LINE
  5
349
330
68
100
AcDbEntity
  8
1
  6
Continuous
 62
     7
100
AcDbLine
 10
200.0
 20
287.0000000000003
 30
0.0
 11
105.0
 21
287.0000000000003
 31
0.0
  0
LINE
  5
34A
330
68
100
AcDbEntity
  8
1
  6
Continuous
 62
     2
100
AcDbLine
 10
25.0
 20
18.50000000000001
 30
0.0
 11
81.0
 21
18.50000000000001
 31
0.0
  0
LINE
  5
34B
330
68
100
AcDbEntity
  8
1
  6
Continuous
 62
     2
100
AcDbLine
 10
33.0
 20
27.0
 30
0.0
 11
33.0
 21
10.0
 31
0.0
  0
LINE
  5
34C
330
68
100
AcDbEntity
  8
1
  6
Continuous
 62
     7
100
AcDbLine
 10
191.0
 20
24.70000000000001
 30
0.0
 11
191.0
 21
22.30000000000001
 31
0.0
  0
LINE
  5
34D
330
68
100
AcDbEntity
  8
1
  6
Continuous
 62
     7
100
AcDbLine
 10
191.0
 20
24.70000000000001
 30
0.0
 11
196.0
 21
25.50000000000001
 31
0.0
  0
LINE
  5
34E
330
68
100
AcDbEntity
  8
1
  6
Continuous
 62
     7
100
AcDbLine
 10
196.0
 20
25.50000000000001
 30
0.0
 11
196.0
 21
21.50000000000001
 31
0.0
  0
LINE
  5
34F
330
68
100
AcDbEntity
  8
1
  6
Continuous
 62
     7
100
AcDbLine
 10
196.0
 20
21.50000000000001
 30
0.0
 11
191.0
 21
22.30000000000001
 31
0.0
  0
LINE
  5
350
330
68
100
AcDbEntity
  8
1
  6
DOT_CENTER
 62
     2
100
AcDbLine
 10
184.0
 20
23.50000000000001
 30
0.0
 11
197.0
 21
23.50000000000001
 31
0.0
  0
LINE
  5
351
330
68
100
AcDbEntity
  8
1
  6
DOT_CENTER
 62
     2
100
AcDbLine
 10
187.0
 20
26.50000000000001
 30
0.0
 11
187.0
 21
20.50000000000001
 31
0.0
  0
LINE
  5
352
330
68
100
AcDbEntity
  8
1
  6
Continuous
 62
     2
100
AcDbLine
 10
81.0
 20
27.00000000000001
 30
0.0
 11
81.0
 21
10.0
 31
0.0
  0
CIRCLE
  5
353
330
68
100
AcDbEntity
  8
1
  6
Continuous
 62
     7
100
AcDbCircle
 10
103.5
 20
12.5
 30
0.0
 40
0.2999999999999972
  0
CIRCLE
  5
354
330
68
100
AcDbEntity
  8
1
  6
Continuous
 62
     7
100
AcDbCircle
 10
109.5
 20
12.5
 30
0.0
 40
0.2999999999999972
  0
CIRCLE
  5
355
330
68
100
AcDbEntity
  8
1
  6
Continuous
 62
     7
100
AcDbCircle
 10
120.5
 20
12.5
 30
0.0
 40
0.2999999999999972
  0
CIRCLE
  5
356
330
68
100
AcDbEntity
  8
1
  6
Continuous
 62
     7
100
AcDbCircle
 10
126.5
 20
12.5
 30
0.0
 40
0.2999999999999972
  0
CIRCLE
  5
357
330
68
100
AcDbEntity
  8
1
  6
Continuous
 62
     7
100
AcDbCircle
 10
137.5
 20
12.5
 30
0.0
 40
0.3000000000000114
  0
CIRCLE
  5
358
330
68
100
AcDbEntity
  8
1
  6
Continuous
 62
     7
100
AcDbCircle
 10
143.5
 20
12.5
 30
0.0
 40
0.3000000000000114
  0
CIRCLE
  5
359
330
68
100
AcDbEntity
  8
1
  6
Continuous
 62
     7
100
AcDbCircle
 10
160.5
 20
12.5
 30
0.0
 40
0.3000000000000114
  0
CIRCLE
  5
35A
330
68
100
AcDbEntity
  8
1
  6
Continuous
 62
     7
100
AcDbCircle
 10
154.5
 20
12.5
 30
0.0
 40
0.3000000000000114
  0
CIRCLE
  5
35B
330
68
100
AcDbEntity
  8
1
  6
Continuous
 62
     7
100
AcDbCircle
 10
187.0
 20
23.50000000000001
 30
0.0
 40
1.200000000000102
  0
CIRCLE
  5
35C
330
68
100
AcDbEntity
  8
1
  6
Continuous
 62
     7
100
AcDbCircle
 10
187.0
 20
23.50000000000001
 30
0.0
 40
2.0
  0
CIRCLE
  5
35D
330
68
100
AcDbEntity
  8
1
  6
DOT_CENTER
 62
     7
100
AcDbCircle
 10
89.5
 20
16.0
 30
0.0
 40
0.1000000000000227
  0
CIRCLE
  5
35E
330
68
100
AcDbEntity
  8
1
  6
DOT_CENTER
 62
     7
100
AcDbCircle
 10
89.5
 20
18.0
 30
0.0
 40
0.1000000000000227
  0
MTEXT
  5
360
330
68
100
AcDbEntity
  8
1
 62
     7
100
AcDbMText
 10
188.5
 20
15.0
 30
0.0
 40
3.0
 41
0.0
 71
     5
 72
     1
  1
三栄水栓製作所
  7
CONVERTER_11
 73
     1
 44
1.0
  0
MTEXT
  5
361
330
68
100
AcDbEntity
  8
1
 62
     7
100
AcDbMText
 10
171.5
 20
15.0
 30
0.0
 40
2.5
 41
0.0
 71
     5
 72
     1
  1
株式会社
  7
CONVERTER_11
 73
     1
 44
1.0
  0
MTEXT
  5
362
330
68
100
AcDbEntity
  8
1
 62
     2
100
AcDbMText
 10
32.5
 20
282.0000000000003
 30
0.0
 40
5.0
 41
0.0
 71
     5
 72
     1
  1
図番
  7
CONVERTER_11
 73
     1
 44
0.45454545454545
  0
MTEXT
  5
363
330
68
100
AcDbEntity
  8
1
 62
     2
100
AcDbMText
 10
29.0
 20
34.00000000000001
 30
0.0
 40
3.5
 41
0.0
 71
     5
 72
     1
  1
備考
  7
CONVERTER_11
 73
     1
 44
0.45454545454545
  0
MTEXT
  5
364
330
68
100
AcDbEntity
  8
1
 62
     2
100
AcDbMText
 10
29.0
 20
22.75
 30
0.0
 40
3.5
 41
0.0
 71
     5
 72
     1
  1
品名
  7
CONVERTER_11
 73
     1
 44
0.72727272727273
  0
MTEXT
  5
365
330
68
100
AcDbEntity
  8
1
 62
     2
100
AcDbMText
 10
29.0
 20
14.25
 30
0.0
 40
3.5
 41
0.0
 71
     5
 72
     1
  1
品番
  7
CONVERTER_11
 73
     1
 44
0.72727272727273
  0
MTEXT
  5
366
330
68
100
AcDbEntity
  8
1
 62
     2
100
AcDbMText
 10
101.5
 20
25.00000000000001
 30
0.0
 40
3.0
 41
0.0
 71
     5
 72
     1
  1
承認
  7
CONVERTER_11
 73
     1
 44
0.59090909090909
  0
MTEXT
  5
367
330
68
100
AcDbEntity
  8
1
 62
     2
100
AcDbMText
 10
175.0
 20
23.50000000000001
 30
0.0
 40
3.5
 41
0.0
 71
     5
 72
     1
  1
第三角法
  7
CONVERTER_11
 73
     1
 44
0.54545454545455
  0
MTEXT
  5
368
330
68
100
AcDbEntity
  8
1
 62
     2
100
AcDbMText
 10
118.5
 20
25.00000000000001
 30
0.0
 40
3.0
 41
0.0
 71
     5
 72
     1
  1
検図
  7
CONVERTER_11
 73
     1
 44
0.59090909090909
  0
MTEXT
  5
369
330
68
100
AcDbEntity
  8
1
 62
     2
100
AcDbMText
 10
152.5
 20
25.00000000000001
 30
0.0
 40
3.0
 41
0.0
 71
     5
 72
     1
  1
設計
  7
CONVERTER_11
 73
     1
 44
0.59090909090909
  0
MTEXT
  5
36A
330
68
100
AcDbEntity
  8
1
 62
     2
100
AcDbMText
 10
135.5
 20
25.00000000000001
 30
0.0
 40
3.0
 41
0.0
 71
     5
 72
     1
  1
製図
  7
CONVERTER_11
 73
     1
 44
0.59090909090909
  0
MTEXT
  5
36B
330
68
100
AcDbEntity
  8
1
 62
     2
100
AcDbMText
 10
89.5
 20
24.00000000000001
 30
0.0
 40
3.5
 41
0.0
 71
     5
 72
     1
  1
尺度
  7
CONVERTER_11
 73
     1
 44
0.54545454545455
  0
MTEXT
  5
36C
330
68
100
AcDbEntity
  8
1
 62
   250
100
AcDbMText
 10
25.0
 20
5.0
 30
0.0
 40
3.5
 41
0.0
 71
     4
 72
     1
  1
備考欄の文字列 原点位置=4
  7
CONVERTER_11
 73
     1
 44
0.54545454545455
  0
ENDBLK
  5
6A
330
68
100
AcDbEntity
  8
0
100
AcDbBlockEnd
  0
BLOCK
  5
6C
330
6B
100
AcDbEntity
  8
0
100
AcDbBlockBegin
  2
42-15-M2
 70
     0
 10
204.7972052480403
 20
130.6005087866106
 30
0.0
  3
42-15-M2
  1

  0
LINE
  5
36D
330
6B
100
AcDbEntity
  8
1
  6
Continuous
 62
     7
100
AcDbLine
 10
256.6495399472222
 20
352.1760336289301
 30
0.0
 11
256.6495399472222
 21
346.4260336289301
 31
0.0
  0
LINE
  5
36E
330
6B
100
AcDbEntity
  8
1
  6
Continuous
 62
     7
100
AcDbLine
 10
256.3197742270185
 20
346.6760336289301
 30
0.0
 11
256.3197742270185
 21
346.1760336289301
 31
0.0
  0
LINE
  5
36F
330
6B
100
AcDbEntity
  8
1
  6
Continuous
 62
     2
100
AcDbLine
 10
253.3197742270185
 20
346.1760336289301
 30
0.0
 11
256.3197742270185
 21
346.1760336289301
 31
0.0
  0
LINE
  5
370
330
6B
100
AcDbEntity
  8
1
  6
Continuous
 62
     7
100
AcDbLine
 10
256.3197742270185
 20
345.6760336289301
 30
0.0
 11
256.3197742270185
 21
345.1760336289301
 31
0.0
  0
LINE
  5
371
330
6B
100
AcDbEntity
  8
1
  6
Continuous
 62
     7
100
AcDbLine
 10
256.5890964260417
 20
346.17603362893
 30
0.0
 11
256.3197742270185
 21
345.1760336289301
 31
0.0
  0
LINE
  5
372
330
6B
100
AcDbEntity
  8
1
  6
Continuous
 62
     7
100
AcDbLine
 10
256.3197742270185
 20
345.1760336289301
 30
0.0
 11
253.3197742270185
 21
345.1760336289301
 31
0.0
  0
LINE
  5
373
330
6B
100
AcDbEntity
  8
1
  6
Continuous
 62
     2
100
AcDbLine
 10
253.3197742270185
 20
345.6760336289301
 30
0.0
 11
256.3197742270185
 21
345.6760336289301
 31
0.0
  0
LINE
  5
374
330
6B
100
AcDbEntity
  8
1
  6
Continuous
 62
     7
100
AcDbLine
 10
256.3197742270185
 20
346.1760336289301
 30
0.0
 11
256.3197742270185
 21
345.6760336289301
 31
0.0
  0
LINE
  5
375
330
6B
100
AcDbEntity
  8
1
  6
Continuous
 62
     2
100
AcDbLine
 10
253.3197742270185
 20
346.6760336289301
 30
0.0
 11
256.3197742270185
 21
346.6760336289301
 31
0.0
  0
LINE
  5
376
330
6B
100
AcDbEntity
  8
1
  6
Continuous
 62
     7
100
AcDbLine
 10
256.3197742270185
 20
347.1760336289301
 30
0.0
 11
256.3197742270185
 21
346.6760336289301
 31
0.0
  0
LINE
  5
377
330
6B
100
AcDbEntity
  8
1
  6
Continuous
 62
     7
100
AcDbLine
 10
256.6495399472222
 20
357.9260336289301
 30
0.0
 11
256.6495399472222
 21
352.1760336289301
 31
0.0
  0
LINE
  5
378
330
6B
100
AcDbEntity
  8
1
  6
Continuous
 62
     2
100
AcDbLine
 10
255.5621123291897
 20
353.1760336289301
 30
0.0
 11
254.2968732385793
 21
353.1760336289301
 31
0.0
  0
LINE
  5
379
330
6B
100
AcDbEntity
  8
1
  6
Continuous
 62
     2
100
AcDbLine
 10
255.8054275389225
 20
354.1760336289301
 30
0.0
 11
254.0373370148643
 21
354.1760336289301
 31
0.0
  0
LINE
  5
37A
330
6B
100
AcDbEntity
  8
1
  6
Continuous
 62
     7
100
AcDbLine
 10
256.3197742270185
 20
358.1760336289301
 30
0.0
 11
256.3197742270185
 21
357.6760336289301
 31
0.0
  0
LINE
  5
37B
330
6B
100
AcDbEntity
  8
1
  6
Continuous
 62
     7
100
AcDbLine
 10
256.3197742270185
 20
359.1760336289301
 30
0.0
 11
256.3197742270185
 21
358.6760336289301
 31
0.0
  0
LINE
  5
37C
330
6B
100
AcDbEntity
  8
1
  6
Continuous
 62
     7
100
AcDbLine
 10
256.3197742270185
 20
359.1760336289301
 30
0.0
 11
256.5890964260417
 21
358.1760336289302
 31
0.0
  0
LINE
  5
37D
330
6B
100
AcDbEntity
  8
1
  6
Continuous
 62
     7
100
AcDbLine
 10
256.3197742270185
 20
358.6760336289301
 30
0.0
 11
256.3197742270185
 21
358.1760336289301
 31
0.0
  0
LINE
  5
37E
330
6B
100
AcDbEntity
  8
1
  6
Continuous
 62
     7
100
AcDbLine
 10
256.3197742270185
 20
357.6760336289301
 30
0.0
 11
256.3197742270185
 21
357.1760336289301
 31
0.0
  0
LINE
  5
37F
330
6B
100
AcDbEntity
  8
1
  6
Continuous
 62
     2
100
AcDbLine
 10
255.8513173543044
 20
354.6760336289301
 30
0.0
 11
253.9333234176959
 21
354.6760336289301
 31
0.0
  0
LINE
  5
380
330
6B
100
AcDbEntity
  8
1
  6
Continuous
 62
     2
100
AcDbLine
 10
255.6060943852403
 20
353.6760336289301
 30
0.0
 11
254.2573680553877
 21
353.6760336289301
 31
0.0
  0
LINE
  5
381
330
6B
100
AcDbEntity
  8
1
  6
Continuous
 62
     7
100
AcDbLine
 10
256.3197742270185
 20
357.1760336289301
 30
0.0
 11
256.3197742270185
 21
347.1760336289301
 31
0.0
  0
LINE
  5
382
330
6B
100
AcDbEntity
  8
1
  6
Continuous
 62
     2
100
AcDbLine
 10
254.2968732385793
 20
351.1760336289301
 30
0.0
 11
255.5621123291897
 21
351.1760336289301
 31
0.0
  0
LINE
  5
383
330
6B
100
AcDbEntity
  8
1
  6
Continuous
 62
     2
100
AcDbLine
 10
254.0373370148643
 20
350.1760336289301
 30
0.0
 11
255.8054275389225
 21
350.1760336289301
 31
0.0
  0
LINE
  5
384
330
6B
100
AcDbEntity
  8
1
  6
Continuous
 62
     2
100
AcDbLine
 10
253.9333234176959
 20
349.6760336289301
 30
0.0
 11
255.8513173543044
 21
349.6760336289301
 31
0.0
  0
LINE
  5
385
330
6B
100
AcDbEntity
  8
1
  6
Continuous
 62
     2
100
AcDbLine
 10
254.2573680553877
 20
350.6760336289301
 30
0.0
 11
255.6060943852403
 21
350.6760336289301
 31
0.0
  0
LINE
  5
386
330
6B
100
AcDbEntity
  8
1
  6
Continuous
 62
     2
100
AcDbLine
 10
253.6804747072563
 20
349.1760336289301
 30
0.0
 11
256.0163007206909
 21
349.1760336289301
 31
0.0
  0
LINE
  5
387
330
6B
100
AcDbEntity
  8
1
  6
Continuous
 62
     2
100
AcDbLine
 10
253.5742469272806
 20
348.6760336289301
 30
0.0
 11
256.0439925442833
 21
348.6760336289301
 31
0.0
  0
LINE
  5
388
330
6B
100
AcDbEntity
  8
1
  6
Continuous
 62
     2
100
AcDbLine
 10
253.4858225394701
 20
348.1760336289301
 30
0.0
 11
256.1298478185662
 21
348.1760336289301
 31
0.0
  0
LINE
  5
389
330
6B
100
AcDbEntity
  8
1
  6
Continuous
 62
     2
100
AcDbLine
 10
253.4253615532059
 20
347.6760336289301
 30
0.0
 11
256.1753619919963
 21
347.6760336289301
 31
0.0
  0
LINE
  5
38A
330
6B
100
AcDbEntity
  8
1
  6
Continuous
 62
     2
100
AcDbLine
 10
253.3197742270185
 20
347.1760336289301
 30
0.0
 11
256.3197742270185
 21
347.1760336289301
 31
0.0
  0
LINE
  5
38B
330
6B
100
AcDbEntity
  8
1
  6
Continuous
 62
     7
100
AcDbLine
 10
253.3197742270185
 20
345.1760336289301
 30
0.0
 11
253.3197742270185
 21
354.4760336289302
 31
0.0
  0
LINE
  5
38C
330
6B
100
AcDbEntity
  8
1
  6
Continuous
 62
     7
100
AcDbLine
 10
253.3197742270185
 20
354.4760336289302
 30
0.0
 11
253.3197742270185
 21
359.1760336289301
 31
0.0
  0
LINE
  5
38D
330
6B
100
AcDbEntity
  8
1
  6
Continuous
 62
     2
100
AcDbLine
 10
256.0163007206909
 20
355.1760336289301
 30
0.0
 11
253.6804747072563
 21
355.1760336289301
 31
0.0
  0
LINE
  5
38E
330
6B
100
AcDbEntity
  8
1
  6
Continuous
 62
     2
100
AcDbLine
 10
256.0439925442833
 20
355.6760336289301
 30
0.0
 11
253.5742469272806
 21
355.6760336289301
 31
0.0
  0
LINE
  5
38F
330
6B
100
AcDbEntity
  8
1
  6
Continuous
 62
     2
100
AcDbLine
 10
256.1298478185662
 20
356.1760336289301
 30
0.0
 11
253.4858225394701
 21
356.1760336289301
 31
0.0
  0
LINE
  5
390
330
6B
100
AcDbEntity
  8
1
  6
Continuous
 62
     2
100
AcDbLine
 10
256.1753619919963
 20
356.6760336289301
 30
0.0
 11
253.4253615532059
 21
356.6760336289301
 31
0.0
  0
LINE
  5
391
330
6B
100
AcDbEntity
  8
1
  6
Continuous
 62
     2
100
AcDbLine
 10
256.3197742270185
 20
357.1760336289301
 30
0.0
 11
253.3197742270185
 21
357.1760336289301
 31
0.0
  0
LINE
  5
392
330
6B
100
AcDbEntity
  8
1
  6
Continuous
 62
     2
100
AcDbLine
 10
256.3197742270185
 20
357.6760336289301
 30
0.0
 11
253.3197742270185
 21
357.6760336289301
 31
0.0
  0
LINE
  5
393
330
6B
100
AcDbEntity
  8
1
  6
Continuous
 62
     2
100
AcDbLine
 10
256.3197742270185
 20
358.1760336289301
 30
0.0
 11
253.3197742270185
 21
358.1760336289301
 31
0.0
  0
LINE
  5
394
330
6B
100
AcDbEntity
  8
1
  6
Continuous
 62
     2
100
AcDbLine
 10
256.3197742270185
 20
358.6760336289301
 30
0.0
 11
253.3197742270185
 21
358.6760336289301
 31
0.0
  0
LINE
  5
395
330
6B
100
AcDbEntity
  8
1
  6
Continuous
 62
     7
100
AcDbLine
 10
253.3197742270185
 20
359.1760336289301
 30
0.0
 11
256.3197742270185
 21
359.1760336289301
 31
0.0
  0
LINE
  5
396
330
6B
100
AcDbEntity
  8
1
  6
Continuous
 62
     7
100
AcDbLine
 10
256.6495399472222
 20
240.9059476238788
 30
0.0
 11
256.6495399472222
 21
235.1559476238788
 31
0.0
  0
LINE
  5
397
330
6B
100
AcDbEntity
  8
1
  6
Continuous
 62
     7
100
AcDbLine
 10
256.3197742270185
 20
235.4059476238788
 30
0.0
 11
256.3197742270185
 21
234.9059476238788
 31
0.0
  0
LINE
  5
398
330
6B
100
AcDbEntity
  8
1
  6
Continuous
 62
     2
100
AcDbLine
 10
253.3197742270185
 20
234.9059476238788
 30
0.0
 11
256.3197742270185
 21
234.9059476238788
 31
0.0
  0
LINE
  5
399
330
6B
100
AcDbEntity
  8
1
  6
Continuous
 62
     7
100
AcDbLine
 10
256.3197742270185
 20
234.4059476238788
 30
0.0
 11
256.3197742270185
 21
233.9059476238788
 31
0.0
  0
LINE
  5
39A
330
6B
100
AcDbEntity
  8
1
  6
Continuous
 62
     7
100
AcDbLine
 10
256.5890964260417
 20
234.9059476238787
 30
0.0
 11
256.3197742270185
 21
233.9059476238788
 31
0.0
  0
LINE
  5
39B
330
6B
100
AcDbEntity
  8
1
  6
Continuous
 62
     7
100
AcDbLine
 10
256.3197742270185
 20
233.9059476238788
 30
0.0
 11
253.3197742270185
 21
233.9059476238788
 31
0.0
  0
LINE
  5
39C
330
6B
100
AcDbEntity
  8
1
  6
Continuous
 62
     2
100
AcDbLine
 10
253.3197742270185
 20
234.4059476238788
 30
0.0
 11
256.3197742270185
 21
234.4059476238788
 31
0.0
  0
LINE
  5
39D
330
6B
100
AcDbEntity
  8
1
  6
Continuous
 62
     7
100
AcDbLine
 10
256.3197742270185
 20
234.9059476238788
 30
0.0
 11
256.3197742270185
 21
234.4059476238788
 31
0.0
  0
LINE
  5
39E
330
6B
100
AcDbEntity
  8
1
  6
Continuous
 62
     2
100
AcDbLine
 10
253.3197742270185
 20
235.4059476238788
 30
0.0
 11
256.3197742270185
 21
235.4059476238788
 31
0.0
  0
LINE
  5
39F
330
6B
100
AcDbEntity
  8
1
  6
Continuous
 62
     7
100
AcDbLine
 10
256.3197742270185
 20
235.9059476238788
 30
0.0
 11
256.3197742270185
 21
235.4059476238788
 31
0.0
  0
LINE
  5
3A0
330
6B
100
AcDbEntity
  8
1
  6
Continuous
 62
     7
100
AcDbLine
 10
256.6495399472222
 20
246.6559476238788
 30
0.0
 11
256.6495399472222
 21
240.9059476238788
 31
0.0
  0
LINE
  5
3A1
330
6B
100
AcDbEntity
  8
1
  6
Continuous
 62
     2
100
AcDbLine
 10
255.5621123291897
 20
241.9059476238788
 30
0.0
 11
254.2968732385793
 21
241.9059476238788
 31
0.0
  0
LINE
  5
3A2
330
6B
100
AcDbEntity
  8
1
  6
Continuous
 62
     2
100
AcDbLine
 10
255.8054275389225
 20
242.9059476238788
 30
0.0
 11
254.0373370148643
 21
242.9059476238788
 31
0.0
  0
LINE
  5
3A3
330
6B
100
AcDbEntity
  8
1
  6
Continuous
 62
     7
100
AcDbLine
 10
256.3197742270185
 20
246.9059476238788
 30
0.0
 11
256.3197742270185
 21
246.4059476238788
 31
0.0
  0
LINE
  5
3A4
330
6B
100
AcDbEntity
  8
1
  6
Continuous
 62
     7
100
AcDbLine
 10
256.3197742270185
 20
247.9059476238788
 30
0.0
 11
256.3197742270185
 21
247.4059476238788
 31
0.0
  0
LINE
  5
3A5
330
6B
100
AcDbEntity
  8
1
  6
Continuous
 62
     7
100
AcDbLine
 10
256.3197742270185
 20
247.9059476238788
 30
0.0
 11
256.5890964260417
 21
246.9059476238789
 31
0.0
  0
LINE
  5
3A6
330
6B
100
AcDbEntity
  8
1
  6
Continuous
 62
     7
100
AcDbLine
 10
256.3197742270185
 20
247.4059476238788
 30
0.0
 11
256.3197742270185
 21
246.9059476238788
 31
0.0
  0
LINE
  5
3A7
330
6B
100
AcDbEntity
  8
1
  6
Continuous
 62
     7
100
AcDbLine
 10
256.3197742270185
 20
246.4059476238788
 30
0.0
 11
256.3197742270185
 21
245.9059476238788
 31
0.0
  0
LINE
  5
3A8
330
6B
100
AcDbEntity
  8
1
  6
Continuous
 62
     2
100
AcDbLine
 10
255.8513173543044
 20
243.4059476238788
 30
0.0
 11
253.9333234176959
 21
243.4059476238788
 31
0.0
  0
LINE
  5
3A9
330
6B
100
AcDbEntity
  8
1
  6
Continuous
 62
     2
100
AcDbLine
 10
255.6060943852403
 20
242.4059476238788
 30
0.0
 11
254.2573680553877
 21
242.4059476238788
 31
0.0
  0
LINE
  5
3AA
330
6B
100
AcDbEntity
  8
1
  6
Continuous
 62
     7
100
AcDbLine
 10
256.3197742270185
 20
245.9059476238788
 30
0.0
 11
256.3197742270185
 21
235.9059476238788
 31
0.0
  0
LINE
  5
3AB
330
6B
100
AcDbEntity
  8
1
  6
Continuous
 62
     2
100
AcDbLine
 10
254.2968732385793
 20
239.9059476238788
 30
0.0
 11
255.5621123291897
 21
239.9059476238788
 31
0.0
  0
LINE
  5
3AC
330
6B
100
AcDbEntity
  8
1
  6
Continuous
 62
     2
100
AcDbLine
 10
254.0373370148643
 20
238.9059476238788
 30
0.0
 11
255.8054275389225
 21
238.9059476238788
 31
0.0
  0
LINE
  5
3AD
330
6B
100
AcDbEntity
  8
1
  6
Continuous
 62
     2
100
AcDbLine
 10
253.9333234176959
 20
238.4059476238788
 30
0.0
 11
255.8513173543044
 21
238.4059476238788
 31
0.0
  0
LINE
  5
3AE
330
6B
100
AcDbEntity
  8
1
  6
Continuous
 62
     2
100
AcDbLine
 10
254.2573680553877
 20
239.4059476238788
 30
0.0
 11
255.6060943852403
 21
239.4059476238788
 31
0.0
  0
LINE
  5
3AF
330
6B
100
AcDbEntity
  8
1
  6
Continuous
 62
     2
100
AcDbLine
 10
253.6804747072563
 20
237.9059476238788
 30
0.0
 11
256.0163007206909
 21
237.9059476238788
 31
0.0
  0
LINE
  5
3B0
330
6B
100
AcDbEntity
  8
1
  6
Continuous
 62
     2
100
AcDbLine
 10
253.5742469272806
 20
237.4059476238788
 30
0.0
 11
256.0439925442833
 21
237.4059476238788
 31
0.0
  0
LINE
  5
3B1
330
6B
100
AcDbEntity
  8
1
  6
Continuous
 62
     2
100
AcDbLine
 10
253.4858225394701
 20
236.9059476238788
 30
0.0
 11
256.1298478185662
 21
236.9059476238788
 31
0.0
  0
LINE
  5
3B2
330
6B
100
AcDbEntity
  8
1
  6
Continuous
 62
     2
100
AcDbLine
 10
253.4253615532059
 20
236.4059476238788
 30
0.0
 11
256.1753619919963
 21
236.4059476238788
 31
0.0
  0
LINE
  5
3B3
330
6B
100
AcDbEntity
  8
1
  6
Continuous
 62
     2
100
AcDbLine
 10
253.3197742270185
 20
235.9059476238788
 30
0.0
 11
256.3197742270185
 21
235.9059476238788
 31
0.0
  0
LINE
  5
3B4
330
6B
100
AcDbEntity
  8
1
  6
Continuous
 62
     7
100
AcDbLine
 10
253.3197742270185
 20
233.9059476238788
 30
0.0
 11
253.3197742270185
 21
243.2059476238787
 31
0.0
  0
LINE
  5
3B5
330
6B
100
AcDbEntity
  8
1
  6
Continuous
 62
     7
100
AcDbLine
 10
253.3197742270185
 20
243.2059476238787
 30
0.0
 11
253.3197742270185
 21
247.9059476238788
 31
0.0
  0
LINE
  5
3B6
330
6B
100
AcDbEntity
  8
1
  6
Continuous
 62
     2
100
AcDbLine
 10
256.0163007206909
 20
243.9059476238788
 30
0.0
 11
253.6804747072563
 21
243.9059476238788
 31
0.0
  0
LINE
  5
3B7
330
6B
100
AcDbEntity
  8
1
  6
Continuous
 62
     2
100
AcDbLine
 10
256.0439925442833
 20
244.4059476238788
 30
0.0
 11
253.5742469272806
 21
244.4059476238788
 31
0.0
  0
LINE
  5
3B8
330
6B
100
AcDbEntity
  8
1
  6
Continuous
 62
     2
100
AcDbLine
 10
256.1298478185662
 20
244.9059476238788
 30
0.0
 11
253.4858225394701
 21
244.9059476238788
 31
0.0
  0
LINE
  5
3B9
330
6B
100
AcDbEntity
  8
1
  6
Continuous
 62
     2
100
AcDbLine
 10
256.1753619919963
 20
245.4059476238788
 30
0.0
 11
253.4253615532059
 21
245.4059476238788
 31
0.0
  0
LINE
  5
3BA
330
6B
100
AcDbEntity
  8
1
  6
Continuous
 62
     2
100
AcDbLine
 10
256.3197742270185
 20
245.9059476238788
 30
0.0
 11
253.3197742270185
 21
245.9059476238788
 31
0.0
  0
LINE
  5
3BB
330
6B
100
AcDbEntity
  8
1
  6
Continuous
 62
     2
100
AcDbLine
 10
256.3197742270185
 20
246.4059476238788
 30
0.0
 11
253.3197742270185
 21
246.4059476238788
 31
0.0
  0
LINE
  5
3BC
330
6B
100
AcDbEntity
  8
1
  6
Continuous
 62
     2
100
AcDbLine
 10
256.3197742270185
 20
246.9059476238788
 30
0.0
 11
253.3197742270185
 21
246.9059476238788
 31
0.0
  0
LINE
  5
3BD
330
6B
100
AcDbEntity
  8
1
  6
Continuous
 62
     2
100
AcDbLine
 10
256.3197742270185
 20
247.4059476238788
 30
0.0
 11
253.3197742270185
 21
247.4059476238788
 31
0.0
  0
LINE
  5
3BE
330
6B
100
AcDbEntity
  8
1
  6
Continuous
 62
     7
100
AcDbLine
 10
253.3197742270185
 20
247.9059476238788
 30
0.0
 11
256.3197742270185
 21
247.9059476238788
 31
0.0
  0
ARC
  5
3BF
330
6B
100
AcDbEntity
  8
1
  6
Continuous
 62
     7
100
AcDbCircle
 10
232.3197742270185
 20
352.1760336289301
 30
0.0
 40
24.99999999999996
100
AcDbArc
 50
346.7029282527909
 51
0.0
  0
ARC
  5
3C0
330
6B
100
AcDbEntity
  8
1
  6
Continuous
 62
     7
100
AcDbCircle
 10
232.3197742270185
 20
352.1760336289301
 30
0.0
 40
25.0
100
AcDbArc
 50
0.0
 51
13.29707174720908
  0
ARC
  5
3C1
330
6B
100
AcDbEntity
  8
1
  6
Continuous
 62
     7
100
AcDbCircle
 10
232.3197742270185
 20
352.1760336289301
 30
0.0
 40
25.00000000000001
100
AcDbArc
 50
346.1134596373707
 51
346.7029282527909
  0
ARC
  5
3C2
330
6B
100
AcDbEntity
  8
1
  6
Continuous
 62
     7
100
AcDbCircle
 10
232.3197742270185
 20
352.1760336289301
 30
0.0
 40
24.99999999999996
100
AcDbArc
 50
13.29707174720908
 51
13.88654036262925
  0
ARC
  5
3C3
330
6B
100
AcDbEntity
  8
1
  6
Continuous
 62
     7
100
AcDbCircle
 10
232.3197742270185
 20
240.9059476238788
 30
0.0
 40
24.99999999999996
100
AcDbArc
 50
346.7029282527909
 51
0.0
  0
ARC
  5
3C4
330
6B
100
AcDbEntity
  8
1
  6
Continuous
 62
     7
100
AcDbCircle
 10
232.3197742270185
 20
240.9059476238788
 30
0.0
 40
25.0
100
AcDbArc
 50
0.0
 51
13.29707174720908
  0
ARC
  5
3C5
330
6B
100
AcDbEntity
  8
1
  6
Continuous
 62
     7
100
AcDbCircle
 10
232.3197742270185
 20
240.9059476238788
 30
0.0
 40
25.00000000000001
100
AcDbArc
 50
346.1134596373707
 51
346.7029282527909
  0
ARC
  5
3C6
330
6B
100
AcDbEntity
  8
1
  6
Continuous
 62
     7
100
AcDbCircle
 10
232.3197742270185
 20
240.9059476238788
 30
0.0
 40
24.99999999999996
100
AcDbArc
 50
13.29707174720908
 51
13.88654036262919
  0
CIRCLE
  5
3C7
330
6B
100
AcDbEntity
  8
1
  6
Continuous
 62
     7
100
AcDbCircle
 10
359.6614911061029
 20
240.9059476238788
 30
0.0
 40
7.0
  0
CIRCLE
  5
3C8
330
6B
100
AcDbEntity
  8
1
  6
Continuous
 62
     7
100
AcDbCircle
 10
359.6614911061029
 20
240.9059476238788
 30
0.0
 40
5.75
  0
ENDBLK
  5
6D
330
6B
100
AcDbEntity
  8
0
100
AcDbBlockEnd
  0
BLOCK
  5
6F
330
6E
100
AcDbEntity
  8
0
100
AcDbBlockBegin
  2
37-1-13
 70
     0
 10
197.9058151201684
 20
47.53743487843558
 30
0.0
  3
37-1-13
  1

  0
LINE
  5
3C9
330
6E
100
AcDbEntity
  8
1
  6
Continuous
 62
     7
100
AcDbLine
 10
232.3201797294749
 20
365.1760336289301
 30
0.0
 11
225.2494655152035
 21
365.1760336289301
 31
0.0
  0
LINE
  5
3CA
330
6E
100
AcDbEntity
  8
1
  6
Continuous
 62
     7
100
AcDbLine
 10
232.3201797294749
 20
365.1760336289301
 30
0.0
 11
225.2494655152035
 21
365.1760336289301
 31
0.0
  0
LINE
  5
3CB
330
6E
100
AcDbEntity
  8
1
  6
Continuous
 62
     7
100
AcDbLine
 10
225.2494655152035
 20
339.1760336289301
 30
0.0
 11
232.3201797294749
 21
339.1760336289301
 31
0.0
  0
LINE
  5
3CC
330
6E
100
AcDbEntity
  8
1
  6
Continuous
 62
     7
100
AcDbLine
 10
232.7494655152035
 20
352.1760336289302
 30
0.0
 11
232.7494655152036
 21
339.6760336289302
 31
0.0
  0
LINE
  5
3CD
330
6E
100
AcDbEntity
  8
1
  6
Continuous
 62
     7
100
AcDbLine
 10
225.2494655152035
 20
339.1760336289301
 30
0.0
 11
225.2494655152035
 21
365.2467478432016
 31
0.0
  0
LINE
  5
3CE
330
6E
100
AcDbEntity
  8
1
  6
Continuous
 62
     7
100
AcDbLine
 10
239.2494655152035
 20
346.1760336289301
 30
0.0
 11
239.2494655152035
 21
358.17603362893
 31
0.0
  0
LINE
  5
3CF
330
6E
100
AcDbEntity
  8
1
  6
Continuous
 62
     7
100
AcDbLine
 10
232.7494655152036
 20
364.6760336289299
 30
0.0
 11
232.7494655152035
 21
352.1760336289302
 31
0.0
  0
LINE
  5
3D0
330
6E
100
AcDbEntity
  8
1
  6
Continuous
 62
     7
100
AcDbLine
 10
370.6858602703816
 20
249.5521321181669
 30
0.0
 11
371.7236399714245
 21
248.9529697284102
 31
0.0
  0
LINE
  5
3D1
330
6E
100
AcDbEntity
  8
1
  6
Continuous
 62
     7
100
AcDbLine
 10
346.6614911061028
 20
246.1302391336977
 30
0.0
 11
346.6614911061028
 21
247.3285639132114
 31
0.0
  0
LINE
  5
3D2
330
6E
100
AcDbEntity
  8
1
  6
Continuous
 62
     7
100
AcDbLine
 10
361.6371219418243
 20
227.0354716197717
 30
0.0
 11
360.599342240781
 21
226.4363092300148
 31
0.0
  0
LINE
  5
3D3
330
6E
100
AcDbEntity
  8
1
  6
Continuous
 62
     7
100
AcDbLine
 10
358.7236399714245
 20
226.4363092300148
 30
0.0
 11
357.6858602703812
 21
227.0354716197717
 31
0.0
  0
LINE
  5
3D4
330
6E
100
AcDbEntity
  8
1
  6
Continuous
 62
     7
100
AcDbLine
 10
347.599342240781
 20
248.9529697284102
 30
0.0
 11
348.6371219418243
 21
249.5521321181671
 31
0.0
  0
LINE
  5
3D5
330
6E
100
AcDbEntity
  8
1
  6
Continuous
 62
     7
100
AcDbLine
 10
372.6614911061028
 20
247.3285639132114
 30
0.0
 11
372.6614911061028
 21
246.1302391336979
 31
0.0
  0
LINE
  5
3D6
330
6E
100
AcDbEntity
  8
1
  6
Continuous
 62
     7
100
AcDbLine
 10
232.7494655152035
 20
240.9059476238789
 30
0.0
 11
232.7494655152036
 21
228.4059476238789
 31
0.0
  0
LINE
  5
3D7
330
6E
100
AcDbEntity
  8
1
  6
Continuous
 62
     7
100
AcDbLine
 10
225.2494655152035
 20
227.8352334096073
 30
0.0
 11
225.2494655152035
 21
253.9766618381501
 31
0.0
  0
LINE
  5
3D8
330
6E
100
AcDbEntity
  8
1
  6
Continuous
 62
     7
100
AcDbLine
 10
239.2494655152035
 20
234.9059476238788
 30
0.0
 11
239.2494655152035
 21
246.9059476238787
 31
0.0
  0
LINE
  5
3D9
330
6E
100
AcDbEntity
  8
1
  6
Continuous
 62
     7
100
AcDbLine
 10
232.7494655152036
 20
253.4059476238786
 30
0.0
 11
232.7494655152035
 21
240.9059476238789
 31
0.0
  0
ARC
  5
3DA
330
6E
100
AcDbEntity
  8
1
  6
Continuous
 62
     7
100
AcDbCircle
 10
228.7494655152035
 20
361.6760336289301
 30
0.0
 40
4.999999999999955
100
AcDbArc
 50
36.86989764584116
 51
44.42700400080598
  0
ARC
  5
3DB
330
6E
100
AcDbEntity
  8
1
  6
Continuous
 62
     7
100
AcDbCircle
 10
252.6559207203184
 20
326.2695784238151
 30
0.0
 40
24.00000000000003
100
AcDbArc
 50
123.9591925000974
 51
146.040807499902
  0
ARC
  5
3DC
330
6E
100
AcDbEntity
  8
1
  6
Continuous
 62
     7
100
AcDbCircle
 10
228.7494655152035
 20
342.6760336289301
 30
0.0
 40
4.999999999999975
100
AcDbArc
 50
315.572995999194
 51
323.1301023541578
  0
ARC
  5
3DD
330
6E
100
AcDbEntity
  8
1
  6
Continuous
 62
     7
100
AcDbCircle
 10
252.6559207203184
 20
378.082488834045
 30
0.0
 40
24.00000000000001
100
AcDbArc
 50
213.9591925000981
 51
236.0408074999027
  0
ARC
  5
3DE
330
6E
100
AcDbEntity
  8
1
  6
Continuous
 62
     7
100
AcDbCircle
 10
359.6614911061028
 20
240.9059476238788
 30
0.0
 40
14.50000000000001
100
AcDbArc
 50
146.2915552747295
 51
153.7084447252705
  0
ARC
  5
3DF
330
6E
100
AcDbEntity
  8
1
  6
Continuous
 62
     7
100
AcDbCircle
 10
359.6614911061028
 20
240.9059476238788
 30
0.0
 40
14.50000000000002
100
AcDbArc
 50
26.29155527472953
 51
33.70844472527066
  0
ARC
  5
3E0
330
6E
100
AcDbEntity
  8
1
  6
Continuous
 62
     7
100
AcDbCircle
 10
359.6614911061028
 20
240.9059476238788
 30
0.0
 40
14.5
100
AcDbArc
 50
270.0
 51
273.7084447252705
  0
ARC
  5
3E1
330
6E
100
AcDbEntity
  8
1
  6
Continuous
 62
     7
100
AcDbCircle
 10
359.6614911061028
 20
240.9059476238788
 30
0.0
 40
14.50000000000001
100
AcDbArc
 50
266.2915552747293
 51
270.0
  0
ARC
  5
3E2
330
6E
100
AcDbEntity
  8
1
  6
Continuous
 62
     7
100
AcDbCircle
 10
252.6559207203184
 20
214.9994924187639
 30
0.0
 40
23.99999999999996
100
AcDbArc
 50
123.9591925000975
 51
146.0408074999022
  0
ARC
  5
3E3
330
6E
100
AcDbEntity
  8
1
  6
Continuous
 62
     7
100
AcDbCircle
 10
228.7494655152035
 20
231.4059476238788
 30
0.0
 40
5.000000000000057
100
AcDbArc
 50
225.5729959991949
 51
323.1301023541576
  0
ARC
  5
3E4
330
6E
100
AcDbEntity
  8
1
  6
Continuous
 62
     7
100
AcDbCircle
 10
228.7494655152035
 20
250.4059476238787
 30
0.0
 40
5.00000000000004
100
AcDbArc
 50
36.86989764584246
 51
134.4270040008057
  0
ARC
  5
3E5
330
6E
100
AcDbEntity
  8
1
  6
Continuous
 62
     7
100
AcDbCircle
 10
252.6559207203184
 20
266.8124028289938
 30
0.0
 40
24.00000000000004
100
AcDbArc
 50
213.9591925000982
 51
236.0408074999029
  0
SPLINE
  5
3E6
330
6E
100
AcDbEntity
  8
1
  6
Continuous
 62
     7
100
AcDbSpline
210
0.0
220
0.0
230
1.0
 70
    11
 71
     3
 72
    79
 73
    75
 74
    73
 42
0.000000001
 43
0.0000000001
 44
0.00000001
 40
0.0
 40
0.0
 40
0.0
 40
0.0
 40
0.2803981055170401
 40
0.5607977780793629
 40
0.842745476781469
 40
1.124697465942875
 40
1.409536444711958
 40
1.694381494092183
 40
1.983071303433834
 40
2.271767836809133
 40
2.564776135645467
 40
2.857790848031718
 40
3.15505569206345
 40
3.452325972452629
 40
3.753284820909531
 40
4.054247736388306
 40
4.357919800455285
 40
4.661594361771499
 40
4.966700742338097
 40
5.271807963175658
 40
5.576915184002925
 40
5.882021564538488
 40
6.185696125802663
 40
6.489368189796102
 40
6.790331105179862
 40
7.091289953518722
 40
7.388560233767509
 40
7.685825077633728
 40
7.978839789830488
 40
8.27184808844915
 40
8.560544621579727
 40
8.849234430642513
 40
9.134079479707337
 40
9.418918458106276
 40
9.700870446812866
 40
9.982818144856106
 40
10.26321781600884
 40
10.54361593035235
 40
10.82401404469592
 40
11.10441371584872
 40
11.38636141389199
 40
11.66831340259852
 40
11.95315238099745
 40
12.23799743006231
 40
12.52668723912505
 40
12.81538377225565
 40
13.10839207087435
 40
13.40140678307109
 40
13.69867162693728
 40
13.99594190718608
 40
14.29690075552492
 40
14.59786367090871
 40
14.90153573490216
 40
15.2052102961663
 40
15.51031667670183
 40
15.81542389752913
 40
16.12053111836667
 40
16.42563749893331
 40
16.72931206024952
 40
17.03298412431647
 40
17.33394703979527
 40
17.63490588825216
 40
17.9321761686413
 40
18.22944101267305
 40
18.52245572505932
 40
18.81546402389566
 40
19.10416055727096
 40
19.39285036661258
 40
19.67769541599284
 40
19.96253439476191
 40
20.24448638392332
 40
20.52643408262539
 40
20.8068337551878
 40
21.08723186070487
 40
21.08723186070487
 40
21.08723186070487
 40
21.08723186070487
 10
232.2494655152035
 20
252.1642778730766
 30
0.0
 10
232.2468841293974
 20
252.2577784131188
 30
0.0
 10
232.2417213486929
 20
252.4447800159207
 30
0.0
 10
232.2002490001293
 20
252.7232644271139
 30
0.0
 10
232.1343488402877
 20
252.9972066242664
 30
0.0
 10
232.0421167313305
 20
253.2651347900353
 30
0.0
 10
231.9250345422016
 20
253.524180577906
 30
0.0
 10
231.7835582608023
 20
253.7733398723227
 30
0.0
 10
231.6192759149662
 20
254.0096498927369
 30
0.0
 10
231.4328157668874
 20
254.2324248868746
 30
0.0
 10
231.2263912920745
 20
254.4388809193807
 30
0.0
 10
231.000673597751
 20
254.6284936632208
 30
0.0
 10
230.758382799506
 20
254.7988928393392
 30
0.0
 10
230.5003253067621
 20
254.9496056471349
 30
0.0
 10
230.2294981033695
 20
255.078828783844
 30
0.0
 10
229.9469812499562
 20
255.1861084572091
 30
0.0
 10
229.6557932794413
 20
255.2702629609426
 30
0.0
 10
229.3574145065999
 20
255.3309062349502
 30
0.0
 10
229.054653534789
 20
255.3674399973969
 30
0.0
 10
228.7494655246064
 20
255.3796590283084
 30
0.0
 10
228.4442775144216
 20
255.367439997747
 30
0.0
 10
228.1415165425952
 20
255.3309062356514
 30
0.0
 10
227.8431377697522
 20
255.2702629619969
 30
0.0
 10
227.5519497991484
 20
255.1861084586197
 30
0.0
 10
227.2694329459323
 20
255.0788287856154
 30
0.0
 10
226.9986057416361
 20
254.9496056492717
 30
0.0
 10
226.7405482520095
 20
254.7988928418483
 30
0.0
 10
226.4982574419532
 20
254.6284936661093
 30
0.0
 10
226.2725397907913
 20
254.4388809226581
 30
0.0
 10
226.0661151557974
 20
254.2324248905515
 30
0.0
 10
225.8796555966492
 20
254.0096498968276
 30
0.0
 10
225.7153710689637
 20
253.7733398768458
 30
0.0
 10
225.5739028259153
 20
253.5241805828914
 30
0.0
 10
225.4567908223317
 20
253.2651347955311
 30
0.0
 10
225.3646689038727
 20
252.997206630397
 30
0.0
 10
225.2983591383151
 20
252.7232644341974
 30
0.0
 10
225.2584074732251
 20
252.4447800211607
 30
0.0
 10
225.2449945636045
 20
252.1642778730766
 30
0.0
 10
225.2584074732251
 20
251.8837757249923
 30
0.0
 10
225.2983591383151
 20
251.6052913119557
 30
0.0
 10
225.3646689038727
 20
251.3313491157559
 30
0.0
 10
225.4567908223316
 20
251.0634209506221
 30
0.0
 10
225.5739028259154
 20
250.8043751632617
 30
0.0
 10
225.7153710689636
 20
250.5552158693073
 30
0.0
 10
225.8796555966493
 20
250.3189058493255
 30
0.0
 10
226.0661151557974
 20
250.0961308556016
 30
0.0
 10
226.2725397907914
 20
249.8896748234951
 30
0.0
 10
226.4982574419531
 20
249.7000620800437
 30
0.0
 10
226.7405482520096
 20
249.5296629043049
 30
0.0
 10
226.9986057416362
 20
249.3789500968814
 30
0.0
 10
227.2694329459322
 20
249.2497269605378
 30
0.0
 10
227.5519497991483
 20
249.1424472875333
 30
0.0
 10
227.8431377697523
 20
249.0582927841562
 30
0.0
 10
228.1415165425951
 20
248.9976495105019
 30
0.0
 10
228.4442775144217
 20
248.9611157484062
 30
0.0
 10
228.7494655246063
 20
248.9488967178446
 30
0.0
 10
229.054653534789
 20
248.9611157487562
 30
0.0
 10
229.3574145065999
 20
248.9976495112029
 30
0.0
 10
229.6557932794413
 20
249.0582927852107
 30
0.0
 10
229.9469812499563
 20
249.142447288944
 30
0.0
 10
230.2294981033694
 20
249.249726962309
 30
0.0
 10
230.5003253067622
 20
249.3789500990182
 30
0.0
 10
230.758382799506
 20
249.529662906814
 30
0.0
 10
231.000673597751
 20
249.7000620829323
 30
0.0
 10
231.2263912920745
 20
249.8896748267724
 30
0.0
 10
231.4328157668874
 20
250.0961308592784
 30
0.0
 10
231.6192759149662
 20
250.3189058534163
 30
0.0
 10
231.7835582608024
 20
250.5552158738303
 30
0.0
 10
231.9250345422016
 20
250.8043751682473
 30
0.0
 10
232.0421167313305
 20
251.0634209561179
 30
0.0
 10
232.1343488402878
 20
251.3313491218866
 30
0.0
 10
232.2002490001293
 20
251.6052913190392
 30
0.0
 10
232.2417213486929
 20
251.8837757302323
 30
0.0
 10
232.2468841293974
 20
252.0707773330344
 30
0.0
 10
232.2494655152035
 20
252.1642778730766
 30
0.0
 11
232.2494655152035
 21
252.1642778730766
 31
0.0
 11
232.2361127299054
 21
252.4443578719462
 31
0.0
 11
232.1962926507462
 21
252.7219156803248
 31
0.0
 11
232.1300330680223
 21
252.9959670847037
 31
0.0
 11
232.0383896879542
 21
253.2626099449782
 31
0.0
 11
231.9211416876691
 21
253.5221983695143
 31
0.0
 11
231.780554428449
 21
253.7699319454097
 31
0.0
 11
231.615857233097
 21
254.0070324300187
 31
0.0
 11
231.4306210661199
 21
254.2284669593535
 31
0.0
 11
231.2235281892047
 21
254.4357503486633
 31
0.0
 11
230.9992221491064
 21
254.6242826324409
 31
0.0
 11
230.7561273184056
 21
254.7953711790145
 31
0.0
 11
230.4994655152035
 21
254.9453523057374
 31
0.0
 11
230.2278772952323
 21
255.0750290856117
 31
0.0
 11
229.9465360168433
 21
255.1819204396891
 31
0.0
 11
229.6548185332979
 21
255.2662865010194
 31
0.0
 11
229.3572341370377
 21
255.3267990312552
 31
0.0
 11
229.0543284025035
 21
255.3633779798181
 31
0.0
 11
228.7494655152035
 21
255.3755860177428
 31
0.0
 11
228.4446026279035
 21
255.3633779798182
 31
0.0
 11
228.1416968933692
 21
255.3267990312552
 31
0.0
 11
227.844112497109
 21
255.2662865010194
 31
0.0
 11
227.5523950135636
 21
255.1819204396891
 31
0.0
 11
227.2710537351746
 21
255.0750290856117
 31
0.0
 11
226.9994655152035
 21
254.9453523057374
 31
0.0
 11
226.7428037120014
 21
254.7953711790145
 31
0.0
 11
226.4997088813006
 21
254.6242826324409
 31
0.0
 11
226.2754028412023
 21
254.4357503486633
 31
0.0
 11
226.0683099642871
 21
254.2284669593535
 31
0.0
 11
225.88307379731
 21
254.0070324300187
 31
0.0
 11
225.718376601958
 21
253.7699319454097
 31
0.0
 11
225.577789342738
 21
253.5221983695142
 31
0.0
 11
225.4605413424528
 21
253.2626099449782
 31
0.0
 11
225.3688979623848
 21
252.9959670847037
 31
0.0
 11
225.3026383796608
 21
252.7219156803248
 31
0.0
 11
225.2628183005016
 21
252.4443578719462
 31
0.0
 11
225.2494655152035
 21
252.1642778730766
 31
0.0
 11
225.2628183005016
 21
251.884197874207
 31
0.0
 11
225.3026383796608
 21
251.6066400658283
 31
0.0
 11
225.3688979623848
 21
251.3325886614494
 31
0.0
 11
225.4605413424528
 21
251.0659458011749
 31
0.0
 11
225.577789342738
 21
250.8063573766389
 31
0.0
 11
225.718376601958
 21
250.5586238007434
 31
0.0
 11
225.88307379731
 21
250.3215233161344
 31
0.0
 11
226.0683099642871
 21
250.1000887867996
 31
0.0
 11
226.2754028412023
 21
249.8928053974898
 31
0.0
 11
226.4997088813006
 21
249.7042731137122
 31
0.0
 11
226.7428037120014
 21
249.5331845671387
 31
0.0
 11
226.9994655152035
 21
249.3832034404157
 31
0.0
 11
227.2710537351746
 21
249.2535266605414
 31
0.0
 11
227.5523950135636
 21
249.146635306464
 31
0.0
 11
227.8441124971091
 21
249.0622692451337
 31
0.0
 11
228.1416968933692
 21
249.001756714898
 31
0.0
 11
228.4446026279035
 21
248.965177766335
 31
0.0
 11
228.7494655152035
 21
248.9529697284103
 31
0.0
 11
229.0543284025034
 21
248.965177766335
 31
0.0
 11
229.3572341370377
 21
249.001756714898
 31
0.0
 11
229.6548185332979
 21
249.0622692451338
 31
0.0
 11
229.9465360168433
 21
249.146635306464
 31
0.0
 11
230.2278772952324
 21
249.2535266605414
 31
0.0
 11
230.4994655152035
 21
249.3832034404157
 31
0.0
 11
230.7561273184056
 21
249.5331845671386
 31
0.0
 11
230.9992221491064
 21
249.7042731137122
 31
0.0
 11
231.2235281892047
 21
249.8928053974898
 31
0.0
 11
231.4306210661199
 21
250.1000887867996
 31
0.0
 11
231.6158572330969
 21
250.3215233161344
 31
0.0
 11
231.780554428449
 21
250.5586238007434
 31
0.0
 11
231.921141687669
 21
250.8063573766389
 31
0.0
 11
232.0383896879542
 21
251.0659458011749
 31
0.0
 11
232.1300330680223
 21
251.3325886614494
 31
0.0
 11
232.1962926507462
 21
251.6066400658283
 31
0.0
 11
232.2361127299054
 21
251.884197874207
 31
0.0
 11
232.2494655152035
 21
252.1642778730766
 31
0.0
  0
SPLINE
  5
3E7
330
6E
100
AcDbEntity
  8
1
  6
Continuous
 62
     7
100
AcDbSpline
210
0.0
220
0.0
230
1.0
 70
     8
 71
     3
 72
    29
 73
    25
 74
    23
 42
0.000000001
 43
0.0000000001
 44
0.00000001
 40
0.0
 40
0.0
 40
0.0
 40
0.0
 40
0.6069077071334942
 40
1.212222618922076
 40
1.842666699981026
 40
2.474631891987778
 40
3.10242016313503
 40
3.729333881624567
 40
4.271042929453162
 40
4.812985317241337
 40
5.340107969104101
 40
5.866248914948815
 40
6.263874824440362
 40
6.661485222726697
 40
7.280966483141103
 40
7.902596723210118
 40
8.549168899022643
 40
9.195896755584803
 40
9.722415956711952
 40
10.24911839923917
 40
11.07897535377085
 40
11.90732205839651
 40
12.67331707894443
 40
13.44191268485658
 40
13.44191268485658
 40
13.44191268485658
 40
13.44191268485658
 10
232.2494655152035
 20
240.9059476238789
 30
0.0
 10
232.2395901418395
 20
241.1080074514246
 30
0.0
 10
232.2198653006267
 20
241.5115968111018
 30
0.0
 10
232.1560749524055
 20
242.1233023591856
 30
0.0
 10
232.021891654665
 20
242.7327194203278
 30
0.0
 10
231.8214360351384
 20
243.3311255953059
 30
0.0
 10
231.5628749189083
 20
243.9056881267798
 30
0.0
 10
231.2539455298038
 20
244.4205859241483
 30
0.0
 10
230.9001286058594
 20
244.8696047979043
 30
0.0
 10
230.5121039383425
 20
245.2435464002021
 30
0.0
 10
230.0751735352673
 20
245.550512301509
 30
0.0
 10
229.634959568831
 20
245.7578209589483
 30
0.0
 10
229.2082504487786
 20
245.8737235471687
 30
0.0
 10
228.7373350069763
 20
245.9244267520462
 30
0.0
 10
228.1883604147357
 20
245.8639704288051
 30
0.0
 10
227.5906143494138
 20
245.6510231971759
 30
0.0
 10
227.0490121042734
 20
245.3037862600235
 30
0.0
 10
226.6084041368833
 20
244.8824285344433
 30
0.0
 10
226.2585302139136
 20
244.435015044463
 30
0.0
 10
225.9296198315722
 20
243.8991786589179
 30
0.0
 10
225.6258812111702
 20
243.2342876095321
 30
0.0
 10
225.401111345454
 20
242.4546265488954
 30
0.0
 10
225.2967245460631
 20
241.6722209327912
 30
0.0
 10
225.2653020555572
 20
241.1616604666174
 30
0.0
 10
225.2495641912905
 20
240.9059476238789
 30
0.0
 11
232.2494655152035
 21
240.9059476238789
 31
0.0
 11
232.2142646494411
 21
241.5118336456371
 31
0.0
 11
232.145907657357
 21
242.1132764651185
 31
0.0
 11
232.0112311715326
 21
242.7291676768597
 31
0.0
 11
231.8111662795875
 21
243.3286291384083
 31
0.0
 11
231.5517850413372
 21
243.9003279117284
 31
0.0
 11
231.2275650865592
 21
244.4368931287415
 31
0.0
 11
230.8909559465782
 21
244.8613256675205
 31
0.0
 11
230.4994655152035
 21
245.236074642801
 31
0.0
 11
230.0671203539849
 21
245.537630528761
 31
0.0
 11
229.5901179683687
 21
245.7596508425948
 31
0.0
 11
229.206268938239
 21
245.8634115597378
 31
0.0
 11
228.8108573924248
 21
245.9051696575586
 31
0.0
 11
228.1947529382149
 21
245.8405760459372
 31
0.0
 11
227.6088187679382
 21
245.6329578757859
 31
0.0
 11
227.0622171340242
 21
245.2875852749309
 31
0.0
 11
226.5922411539438
 21
244.843311148328
 31
0.0
 11
226.2667665063726
 21
244.4294407295533
 31
0.0
 11
225.9898610081929
 21
243.9814018823291
 31
0.0
 11
225.6448989200154
 21
243.2266411756916
 31
0.0
 11
225.4162214302692
 21
242.4304848653035
 31
0.0
 11
225.3059013012546
 21
241.6724757347039
 31
0.0
 11
225.2495641912905
 21
240.9059476238789
 31
0.0
  0
SPLINE
  5
3E8
330
6E
100
AcDbEntity
  8
1
  6
Continuous
 62
     7
100
AcDbSpline
210
0.0
220
0.0
230
1.0
 70
    11
 71
     3
 72
    79
 73
    75
 74
    73
 42
0.000000001
 43
0.0000000001
 44
0.00000001
 40
0.0
 40
0.0
 40
0.0
 40
0.0
 40
0.2803981055170401
 40
0.5607977780794755
 40
0.8427454767815398
 40
1.124697465942873
 40
1.409536444711982
 40
1.694381494092281
 40
1.983071303433871
 40
2.271767836809134
 40
2.564776135645448
 40
2.857790848031717
 40
3.155055692063465
 40
3.452325972452686
 40
3.753284820909576
 40
4.054247736388361
 40
4.357919800455301
 40
4.66159436177152
 40
4.966700742338125
 40
5.271807963175688
 40
5.57691518400293
 40
5.882021564538527
 40
6.185696125802702
 40
6.489368189796109
 40
6.790331105179869
 40
7.091289953518729
 40
7.38856023376756
 40
7.685825077633796
 40
7.978839789830555
 40
8.271848088449218
 40
8.560544621579794
 40
8.849234430642486
 40
9.134079479707324
 40
9.418918458106278
 40
9.700870446812841
 40
9.98281814485608
 40
10.2632178160089
 40
10.54361593035244
 40
10.82401404469598
 40
11.10441371584878
 40
11.38636141389204
 40
11.66831340259861
 40
11.95315238099752
 40
12.2379974300623
 40
12.52668723912502
 40
12.81538377225563
 40
13.10839207087431
 40
13.40140678307107
 40
13.6986716269373
 40
13.99594190718612
 40
14.29690075552495
 40
14.59786367090875
 40
14.90153573490219
 40
15.20521029616633
 40
15.51031667670187
 40
15.81542389752917
 40
16.1205311183667
 40
16.42563749893334
 40
16.72931206024955
 40
17.0329841243165
 40
17.33394703979531
 40
17.6349058882522
 40
17.93217616864135
 40
18.22944101267315
 40
18.52245572505942
 40
18.81546402389576
 40
19.1041605572711
 40
19.39285036661268
 40
19.67769541599288
 40
19.9625343947619
 40
20.24448638392332
 40
20.52643408262541
 40
20.80683375518781
 40
21.08723186070486
 40
21.08723186070486
 40
21.08723186070486
 40
21.08723186070486
 10
232.2494655152035
 20
229.6476173746812
 30
0.0
 10
232.2468841293974
 20
229.5541168346391
 30
0.0
 10
232.2417213486929
 20
229.367115231837
 30
0.0
 10
232.2002490001294
 20
229.0886308206439
 30
0.0
 10
232.1343488402877
 20
228.8146886234912
 30
0.0
 10
232.0421167313305
 20
228.5467604577225
 30
0.0
 10
231.9250345422016
 20
228.2877146698519
 30
0.0
 10
231.7835582608024
 20
228.038555375435
 30
0.0
 10
231.6192759149661
 20
227.8022453550209
 30
0.0
 10
231.4328157668875
 20
227.5794703608831
 30
0.0
 10
231.2263912920744
 20
227.3730143283772
 30
0.0
 10
231.000673597751
 20
227.183401584537
 30
0.0
 10
230.758382799506
 20
227.0130024084187
 30
0.0
 10
230.5003253067622
 20
226.8622896006227
 30
0.0
 10
230.2294981033695
 20
226.7330664639137
 30
0.0
 10
229.9469812499562
 20
226.6257867905485
 30
0.0
 10
229.6557932794412
 20
226.5416322868153
 30
0.0
 10
229.3574145066
 20
226.4809890128075
 30
0.0
 10
229.054653534789
 20
226.444455250361
 30
0.0
 10
228.7494655246064
 20
226.4322362194493
 30
0.0
 10
228.4442775144217
 20
226.4444552500108
 30
0.0
 10
228.1415165425951
 20
226.4809890121064
 30
0.0
 10
227.8431377697523
 20
226.5416322857608
 30
0.0
 10
227.5519497991483
 20
226.625786789138
 30
0.0
 10
227.2694329459323
 20
226.7330664621424
 30
0.0
 10
226.998605741636
 20
226.8622895984859
 30
0.0
 10
226.7405482520097
 20
227.0130024059095
 30
0.0
 10
226.4982574419532
 20
227.1834015816486
 30
0.0
 10
226.2725397907914
 20
227.3730143250997
 30
0.0
 10
226.0661151557974
 20
227.5794703572064
 30
0.0
 10
225.8796555966492
 20
227.8022453509301
 30
0.0
 10
225.7153710689636
 20
228.0385553709119
 30
0.0
 10
225.5739028259154
 20
228.2877146648662
 30
0.0
 10
225.4567908223316
 20
228.5467604522267
 30
0.0
 10
225.3646689038727
 20
228.8146886173606
 30
0.0
 10
225.298359138315
 20
229.0886308135604
 30
0.0
 10
225.2584074732252
 20
229.3671152265969
 30
0.0
 10
225.2449945636044
 20
229.6476173746812
 30
0.0
 10
225.2584074732251
 20
229.9281195227654
 30
0.0
 10
225.2983591383151
 20
230.2066039358021
 30
0.0
 10
225.3646689038727
 20
230.4805461320018
 30
0.0
 10
225.4567908223316
 20
230.7484742971356
 30
0.0
 10
225.5739028259154
 20
231.0075200844962
 30
0.0
 10
225.7153710689636
 20
231.2566793784503
 30
0.0
 10
225.8796555966494
 20
231.4929893984322
 30
0.0
 10
226.0661151557973
 20
231.715764392156
 30
0.0
 10
226.2725397907914
 20
231.9222204242627
 30
0.0
 10
226.4982574419531
 20
232.1118331677138
 30
0.0
 10
226.7405482520097
 20
232.282232343453
 30
0.0
 10
226.9986057416361
 20
232.4329451508764
 30
0.0
 10
227.2694329459323
 20
232.56216828722
 30
0.0
 10
227.5519497991483
 20
232.6694479602245
 30
0.0
 10
227.8431377697523
 20
232.7536024636015
 30
0.0
 10
228.1415165425951
 20
232.814245737256
 30
0.0
 10
228.4442775144217
 20
232.8507794993516
 30
0.0
 10
228.7494655246063
 20
232.8629985299131
 30
0.0
 10
229.054653534789
 20
232.8507794990016
 30
0.0
 10
229.3574145065999
 20
232.8142457365548
 30
0.0
 10
229.6557932794413
 20
232.7536024625472
 30
0.0
 10
229.9469812499563
 20
232.6694479588138
 30
0.0
 10
230.2294981033694
 20
232.5621682854488
 30
0.0
 10
230.5003253067621
 20
232.4329451487396
 30
0.0
 10
230.7583827995061
 20
232.2822323409439
 30
0.0
 10
231.0006735977509
 20
232.1118331648253
 30
0.0
 10
231.2263912920745
 20
231.9222204209853
 30
0.0
 10
231.4328157668874
 20
231.7157643884792
 30
0.0
 10
231.6192759149661
 20
231.4929893943415
 30
0.0
 10
231.7835582608024
 20
231.2566793739273
 30
0.0
 10
231.9250345422014
 20
231.0075200795105
 30
0.0
 10
232.0421167313305
 20
230.74847429164
 30
0.0
 10
232.1343488402878
 20
230.4805461258712
 30
0.0
 10
232.2002490001294
 20
230.2066039287186
 30
0.0
 10
232.2417213486928
 20
229.9281195175254
 30
0.0
 10
232.2468841293975
 20
229.7411179147234
 30
0.0
 10
232.2494655152035
 20
229.6476173746812
 30
0.0
 11
232.2494655152035
 21
229.6476173746812
 31
0.0
 11
232.2361127299054
 21
229.3675373758116
 31
0.0
 11
232.1962926507462
 21
229.0899795674329
 31
0.0
 11
232.1300330680222
 21
228.815928163054
 31
0.0
 11
232.0383896879542
 21
228.5492853027796
 31
0.0
 11
231.9211416876691
 21
228.2896968782435
 31
0.0
 11
231.780554428449
 21
228.041963302348
 31
0.0
 11
231.6158572330969
 21
227.8048628177391
 31
0.0
 11
231.4306210661199
 21
227.5834282884043
 31
0.0
 11
231.2235281892047
 21
227.3761448990945
 31
0.0
 11
230.9992221491064
 21
227.1876126153169
 31
0.0
 11
230.7561273184056
 21
227.0165240687433
 31
0.0
 11
230.4994655152035
 21
226.8665429420203
 31
0.0
 11
230.2278772952323
 21
226.736866162146
 31
0.0
 11
229.9465360168433
 21
226.6299748080686
 31
0.0
 11
229.6548185332979
 21
226.5456087467384
 31
0.0
 11
229.3572341370377
 21
226.4850962165026
 31
0.0
 11
229.0543284025035
 21
226.4485172679396
 31
0.0
 11
228.7494655152035
 21
226.4363092300149
 31
0.0
 11
228.4446026279035
 21
226.4485172679396
 31
0.0
 11
228.1416968933692
 21
226.4850962165026
 31
0.0
 11
227.844112497109
 21
226.5456087467384
 31
0.0
 11
227.5523950135636
 21
226.6299748080686
 31
0.0
 11
227.2710537351746
 21
226.736866162146
 31
0.0
 11
226.9994655152035
 21
226.8665429420203
 31
0.0
 11
226.7428037120014
 21
227.0165240687433
 31
0.0
 11
226.4997088813006
 21
227.1876126153169
 31
0.0
 11
226.2754028412023
 21
227.3761448990945
 31
0.0
 11
226.0683099642871
 21
227.5834282884043
 31
0.0
 11
225.88307379731
 21
227.8048628177391
 31
0.0
 11
225.718376601958
 21
228.041963302348
 31
0.0
 11
225.577789342738
 21
228.2896968782435
 31
0.0
 11
225.4605413424528
 21
228.5492853027795
 31
0.0
 11
225.3688979623848
 21
228.815928163054
 31
0.0
 11
225.3026383796608
 21
229.0899795674329
 31
0.0
 11
225.2628183005016
 21
229.3675373758116
 31
0.0
 11
225.2494655152035
 21
229.6476173746812
 31
0.0
 11
225.2628183005016
 21
229.9276973735508
 31
0.0
 11
225.3026383796608
 21
230.2052551819295
 31
0.0
 11
225.3688979623847
 21
230.4793065863084
 31
0.0
 11
225.4605413424528
 21
230.7459494465829
 31
0.0
 11
225.577789342738
 21
231.0055378711189
 31
0.0
 11
225.718376601958
 21
231.2532714470143
 31
0.0
 11
225.8830737973101
 21
231.4903719316232
 31
0.0
 11
226.0683099642871
 21
231.7118064609581
 31
0.0
 11
226.2754028412023
 21
231.9190898502679
 31
0.0
 11
226.4997088813006
 21
232.1076221340455
 31
0.0
 11
226.7428037120014
 21
232.2787106806191
 31
0.0
 11
226.9994655152035
 21
232.4286918073421
 31
0.0
 11
227.2710537351746
 21
232.5583685872164
 31
0.0
 11
227.5523950135636
 21
232.6652599412938
 31
0.0
 11
227.8441124971091
 21
232.7496260026241
 31
0.0
 11
228.1416968933692
 21
232.8101385328598
 31
0.0
 11
228.4446026279035
 21
232.8467174814228
 31
0.0
 11
228.7494655152035
 21
232.8589255193475
 31
0.0
 11
229.0543284025034
 21
232.8467174814228
 31
0.0
 11
229.3572341370377
 21
232.8101385328598
 31
0.0
 11
229.6548185332979
 21
232.749626002624
 31
0.0
 11
229.9465360168433
 21
232.6652599412938
 31
0.0
 11
230.2278772952324
 21
232.5583685872164
 31
0.0
 11
230.4994655152035
 21
232.4286918073421
 31
0.0
 11
230.7561273184056
 21
232.2787106806192
 31
0.0
 11
230.9992221491064
 21
232.1076221340455
 31
0.0
 11
231.2235281892047
 21
231.9190898502679
 31
0.0
 11
231.4306210661199
 21
231.7118064609581
 31
0.0
 11
231.6158572330969
 21
231.4903719316232
 31
0.0
 11
231.780554428449
 21
231.2532714470143
 31
0.0
 11
231.921141687669
 21
231.0055378711189
 31
0.0
 11
232.0383896879542
 21
230.7459494465829
 31
0.0
 11
232.1300330680223
 21
230.4793065863084
 31
0.0
 11
232.1962926507462
 21
230.2052551819295
 31
0.0
 11
232.2361127299054
 21
229.9276973735508
 31
0.0
 11
232.2494655152035
 21
229.6476173746812
 31
0.0
  0
SPLINE
  5
3E9
330
6E
100
AcDbEntity
  8
1
  6
Continuous
 62
     7
100
AcDbSpline
210
0.0
220
0.0
230
1.0
 70
     8
 71
     3
 72
    29
 73
    25
 74
    23
 42
0.000000001
 43
0.0000000001
 44
0.00000001
 40
0.0
 40
0.0
 40
0.0
 40
0.0
 40
0.6069077071335225
 40
1.212222618922161
 40
1.842666699981012
 40
2.474631891987746
 40
3.102420163134996
 40
3.729333881624528
 40
4.27104292945319
 40
4.812985317241385
 40
5.340107969104165
 40
5.866248914948867
 40
6.263874824440413
 40
6.661485222726748
 40
7.280966483141101
 40
7.902596723210198
 40
8.549168899022717
 40
9.195896755584837
 40
9.722415956711941
 40
10.24911839923919
 40
11.07897535377089
 40
11.90732205839663
 40
12.67331707894458
 40
13.44191268485667
 40
13.44191268485667
 40
13.44191268485667
 40
13.44191268485667
 10
232.2494655152035
 20
240.9059476238789
 30
0.0
 10
232.2395901418394
 20
240.7038877963331
 30
0.0
 10
232.2198653006267
 20
240.300298436656
 30
0.0
 10
232.1560749524055
 20
239.6885928885721
 30
0.0
 10
232.021891654665
 20
239.0791758274301
 30
0.0
 10
231.8214360351384
 20
238.4807696524518
 30
0.0
 10
231.5628749189082
 20
237.9062071209781
 30
0.0
 10
231.2539455298039
 20
237.3913093236095
 30
0.0
 10
230.9001286058594
 20
236.9422904498534
 30
0.0
 10
230.5121039383425
 20
236.5683488475557
 30
0.0
 10
230.0751735352673
 20
236.2613829462485
 30
0.0
 10
229.6349595688311
 20
236.0540742888094
 30
0.0
 10
229.2082504487785
 20
235.938171700589
 30
0.0
 10
228.7373350069765
 20
235.8874684957115
 30
0.0
 10
228.1883604147357
 20
235.9479248189525
 30
0.0
 10
227.5906143494138
 20
236.1608720505819
 30
0.0
 10
227.0490121042734
 20
236.5081089877342
 30
0.0
 10
226.6084041368833
 20
236.9294667133144
 30
0.0
 10
226.2585302139137
 20
237.3768802032947
 30
0.0
 10
225.9296198315721
 20
237.9127165888398
 30
0.0
 10
225.6258812111702
 20
238.5776076382257
 30
0.0
 10
225.4011113454539
 20
239.3572686988624
 30
0.0
 10
225.2967245460632
 20
240.1396743149667
 30
0.0
 10
225.2653020555572
 20
240.6502347811403
 30
0.0
 10
225.2495641912905
 20
240.9059476238789
 30
0.0
 11
232.2494655152035
 21
240.9059476238789
 31
0.0
 11
232.2142646494411
 21
240.3000616021206
 31
0.0
 11
232.145907657357
 21
239.6986187826392
 31
0.0
 11
232.0112311715326
 21
239.0827275708981
 31
0.0
 11
231.8111662795875
 21
238.4832661093495
 31
0.0
 11
231.5517850413372
 21
237.9115673360294
 31
0.0
 11
231.2275650865592
 21
237.3750021190163
 31
0.0
 11
230.8909559465782
 21
236.9505695802372
 31
0.0
 11
230.4994655152035
 21
236.5758206049567
 31
0.0
 11
230.0671203539849
 21
236.2742647189966
 31
0.0
 11
229.5901179683687
 21
236.0522444051629
 31
0.0
 11
229.206268938239
 21
235.9484836880198
 31
0.0
 11
228.8108573924248
 21
235.9067255901991
 31
0.0
 11
228.194752938215
 21
235.9713192018205
 31
0.0
 11
227.6088187679382
 21
236.1789373719719
 31
0.0
 11
227.0622171340242
 21
236.5243099728268
 31
0.0
 11
226.5922411539438
 21
236.9685840994297
 31
0.0
 11
226.2667665063726
 21
237.3824545182044
 31
0.0
 11
225.9898610081929
 21
237.8304933654286
 31
0.0
 11
225.6448989200154
 21
238.5852540720662
 31
0.0
 11
225.4162214302692
 21
239.3814103824543
 31
0.0
 11
225.3059013012546
 21
240.1394195130539
 31
0.0
 11
225.2495641912905
 21
240.9059476238789
 31
0.0
  0
SPLINE
  5
3EA
330
6E
100
AcDbEntity
  8
1
  6
Continuous
 62
     7
100
AcDbSpline
210
0.0
220
0.0
230
1.0
 70
    11
 71
     3
 72
    79
 73
    75
 74
    73
 42
0.000000001
 43
0.0000000001
 44
0.00000001
 40
0.0
 40
0.0
 40
0.0
 40
0.0
 40
0.314277379165589
 40
0.6283112355322589
 40
0.9612293716149839
 40
1.293805033313634
 40
1.653399986144997
 40
2.012687705977734
 40
2.402596354380366
 40
2.792277131488465
 40
3.212125598199992
 40
3.631818884954752
 40
4.078023826727015
 40
4.524128912110722
 40
4.990742661800914
 40
5.457297384742725
 40
5.93676874902122
 40
6.41621274894317
 40
6.900062532357383
 40
7.383912315770775
 40
7.863356315690301
 40
8.342827679963964
 40
8.809382402896981
 40
9.275996152571452
 40
9.722101237930131
 40
10.16830617966263
 40
10.58799946636058
 40
11.00784793298785
 40
11.39752870998273
 40
11.78743735822338
 40
12.14672507784525
 40
12.50632003037633
 40
12.83889569165983
 40
13.17181382703794
 40
13.48584768136836
 40
13.80012506793151
 40
14.10756996268999
 40
14.41501485744723
 40
14.72929224400697
 40
15.04332609833204
 40
15.37624423370288
 40
15.70881989497815
 40
16.0684148474996
 40
16.42770256711164
 40
16.81761121534178
 40
17.20729199232625
 40
17.62714045894296
 40
18.04683374563077
 40
18.49303868735309
 40
18.93914377270261
 40
19.405757522368
 40
19.8723122452926
 40
20.35178360955864
 40
20.83122760947144
 40
21.31507739287885
 40
21.7989271762878
 40
22.27837117620542
 40
22.75784254048074
 40
23.22439726342059
 40
23.69101101310938
 40
24.1371160984924
 40
24.58332104026431
 40
25.00301432701871
 40
25.42286279372876
 40
25.81254357083296
 40
26.20245221922584
 40
26.56173993903865
 40
26.92133489182545
 40
27.25391055342241
 40
27.58682868921168
 40
27.90086254407442
 40
28.21513993143229
 40
28.52258482831811
 40
28.83002971590502
 40
28.83002971590502
 40
28.83002971590502
 40
28.83002971590502
 10
229.0561442752035
 20
353.1355758116397
 30
0.0
 10
229.1594158274276
 20
353.1541682837926
 30
0.0
 10
229.3658789119605
 20
353.1913388129069
 30
0.0
 10
229.6679637432181
 20
353.3022850760956
 30
0.0
 10
229.9601586373641
 20
353.4493499183967
 30
0.0
 10
230.2450130038595
 20
353.6395044706924
 30
0.0
 10
230.5144539269484
 20
353.8646391991292
 30
0.0
 10
230.7732512839556
 20
354.1292752692121
 30
0.0
 10
231.0129289484694
 20
354.4243354948653
 30
0.0
 10
231.2382671902965
 20
354.755101542411
 30
0.0
 10
231.441830711335
 20
355.1111688643639
 30
0.0
 10
231.6273229791275
 20
355.4979019365402
 30
0.0
 10
231.7890930919034
 20
355.9045753942055
 30
0.0
 10
231.9294606526085
 20
356.3355515899615
 30
0.0
 10
232.0447037110187
 20
356.7809252743098
 30
0.0
 10
232.1359570492518
 20
357.2431382241981
 30
0.0
 10
232.2011645909928
 20
357.7140568168961
 30
0.0
 10
232.2407550584304
 20
358.1935883811791
 30
0.0
 10
232.2538406614078
 20
358.6760336189795
 30
0.0
 10
232.2407550584463
 20
359.1584788567947
 30
0.0
 10
232.2011645910218
 20
359.6380104210315
 30
0.0
 10
232.1359570493321
 20
360.108929013891
 30
0.0
 10
232.0447037110562
 20
360.5711419631837
 30
0.0
 10
231.9294606530131
 20
361.0165156497005
 30
0.0
 10
231.7890930912903
 20
361.4474918376934
 30
0.0
 10
231.627322982611
 20
361.8541653234847
 30
0.0
 10
231.4418307009255
 20
362.2408982966309
 30
0.0
 10
231.23826723055
 20
362.5969659747364
 30
0.0
 10
231.0129288134073
 20
362.9277307837916
 30
0.0
 10
230.7732517773231
 20
363.2227954411238
 30
0.0
 10
230.5144522506569
 20
363.4874162014654
 30
0.0
 10
230.2450190913291
 20
363.7126057012455
 30
0.0
 10
229.9601378074886
 20
363.9025703434644
 30
0.0
 10
229.6680399181608
 20
364.0503195601655
 30
0.0
 10
229.3656124042337
 20
364.1588481568412
 30
0.0
 10
229.0593777124283
 20
364.2230596842186
 30
0.0
 10
228.7494655155925
 20
364.2456607873616
 30
0.0
 10
228.4395533187568
 20
364.2230596842301
 30
0.0
 10
228.1333186269526
 20
364.1588481568638
 30
0.0
 10
227.8308911130271
 20
364.0503195601989
 30
0.0
 10
227.5387932237016
 20
363.9025703435084
 30
0.0
 10
227.2539119398645
 20
363.7126057012993
 30
0.0
 10
226.9844787805407
 20
363.487416201529
 30
0.0
 10
226.7256792538796
 20
363.2227954411962
 30
0.0
 10
226.4860022178013
 20
362.9277307838724
 30
0.0
 10
226.2606638006654
 20
362.5969659748251
 30
0.0
 10
226.057100330298
 20
362.2408982967269
 30
0.0
 10
225.8716080486217
 20
361.8541653235878
 30
0.0
 10
225.7098379399529
 20
361.4474918378027
 30
0.0
 10
225.5694703782423
 20
361.0165156498159
 30
0.0
 10
225.454227320213
 20
360.5711419633048
 30
0.0
 10
225.362973981953
 20
360.1089290140172
 30
0.0
 10
225.2977664402814
 20
359.6380104211631
 30
0.0
 10
225.2581759728771
 20
359.1584788569305
 30
0.0
 10
225.2450903699394
 20
358.6760336191237
 30
0.0
 10
225.2581759729406
 20
358.193588381318
 30
0.0
 10
225.2977664404137
 20
357.7140568170824
 30
0.0
 10
225.3629739821613
 20
357.2431382242405
 30
0.0
 10
225.4542273205189
 20
356.7809252749124
 30
0.0
 10
225.5694703786366
 20
356.3355515885585
 30
0.0
 10
225.709837940559
 20
355.9045754000262
 30
0.0
 10
225.8716080491058
 20
355.497901916248
 30
0.0
 10
226.0571003319733
 20
355.1111689360921
 30
0.0
 10
226.2606637989865
 20
354.7551012833042
 30
0.0
 10
226.4860022288603
 20
354.4243363863532
 30
0.0
 10
226.7256792206544
 20
354.1292720437376
 30
0.0
 10
226.984478901764
 20
353.8646501964329
 30
0.0
 10
227.2539115102896
 20
353.6394645856763
 30
0.0
 10
227.5387947058758
 20
353.4494864594137
 30
0.0
 10
227.8308857082157
 20
353.3017858354928
 30
0.0
 10
228.1333375542912
 20
353.1930855774844
 30
0.0
 10
228.4394831534215
 20
353.1295026204331
 30
0.0
 10
228.7497211000146
 20
353.1046033001265
 30
0.0
 10
228.9540032175872
 20
353.1252516442505
 30
0.0
 10
229.0561442752035
 20
353.1355758116397
 30
0.0
 11
229.0561442752035
 21
353.1355758116397
 31
0.0
 11
229.3637061479644
 21
353.2001975588724
 31
0.0
 11
229.6595950267604
 21
353.3053975263136
 31
0.0
 11
229.9568600916282
 21
353.4552907087864
 31
0.0
 11
230.2340487083733
 21
353.6390651392518
 31
0.0
 11
230.5104226084542
 21
353.8691216481935
 31
0.0
 11
230.7621491881742
 21
354.1254834912744
 31
0.0
 11
231.008573359166
 21
354.4276488135322
 31
0.0
 11
231.2284228716141
 21
354.7493898582806
 31
0.0
 11
231.4373767768174
 21
355.1135477916902
 31
0.0
 11
231.6192328383993
 21
355.4917948376695
 31
0.0
 11
231.7846413175249
 21
355.9062087431818
 31
0.0
 11
231.9230381849477
 21
356.3303031363136
 31
0.0
 11
232.0402858673168
 21
356.7819461063414
 31
0.0
 11
232.1307846999697
 21
357.2396395307932
 31
0.0
 11
232.1967776205036
 21
357.7145476520148
 31
0.0
 11
232.2362438515924
 21
358.1923645266278
 31
0.0
 11
232.2494655152036
 21
358.67603362893
 31
0.0
 11
232.2362438515924
 21
359.159702731232
 31
0.0
 11
232.1967776205036
 21
359.6375196058448
 31
0.0
 11
232.1307846999698
 21
360.1124277270663
 31
0.0
 11
232.0402858673168
 21
360.5701211515184
 31
0.0
 11
231.9230381849479
 21
361.0217641215462
 31
0.0
 11
231.7846413175251
 21
361.445858514678
 31
0.0
 11
231.6192328383995
 21
361.8602724201901
 31
0.0
 11
231.4373767768177
 21
362.2385194661694
 31
0.0
 11
231.2284228716144
 21
362.6026773995792
 31
0.0
 11
231.0085733591662
 21
362.9244184443277
 31
0.0
 11
230.7621491881745
 21
363.2265837665856
 31
0.0
 11
230.5104226084545
 21
363.4829456096666
 31
0.0
 11
230.2340487083737
 21
363.7130021186081
 31
0.0
 11
229.9568600916285
 21
363.8967765490734
 31
0.0
 11
229.6595950267608
 21
364.0466697315463
 31
0.0
 11
229.3637061479647
 21
364.1518696989876
 31
0.0
 11
229.0561442752038
 21
364.2164914462203
 31
0.0
 11
228.7494655152036
 21
364.2381824942516
 31
0.0
 11
228.4427867552035
 21
364.2164914462203
 31
0.0
 11
228.1352248824426
 21
364.1518696989876
 31
0.0
 11
227.8393360036465
 21
364.0466697315464
 31
0.0
 11
227.5420709387788
 21
363.8967765490736
 31
0.0
 11
227.2648823220336
 21
363.7130021186083
 31
0.0
 11
226.9885084219528
 21
363.4829456096667
 31
0.0
 11
226.7367818422327
 21
363.2265837665858
 31
0.0
 11
226.490357671241
 21
362.9244184443278
 31
0.0
 11
226.2705081587928
 21
362.6026773995794
 31
0.0
 11
226.0615542535895
 21
362.2385194661695
 31
0.0
 11
225.8796981920076
 21
361.8602724201903
 31
0.0
 11
225.714289712882
 21
361.4458585146783
 31
0.0
 11
225.5758928454592
 21
361.0217641215464
 31
0.0
 11
225.4586451630902
 21
360.5701211515187
 31
0.0
 11
225.3681463304372
 21
360.1124277270668
 31
0.0
 11
225.3021534099034
 21
359.6375196058452
 31
0.0
 11
225.2626871788146
 21
359.1597027312323
 31
0.0
 11
225.2494655152036
 21
358.6760336289302
 31
0.0
 11
225.2626871788146
 21
358.192364526628
 31
0.0
 11
225.3021534099034
 21
357.7145476520151
 31
0.0
 11
225.3681463304372
 21
357.2396395307935
 31
0.0
 11
225.4586451630901
 21
356.7819461063414
 31
0.0
 11
225.5758928454591
 21
356.3303031363137
 31
0.0
 11
225.7142897128818
 21
355.9062087431819
 31
0.0
 11
225.8796981920074
 21
355.4917948376698
 31
0.0
 11
226.0615542535893
 21
355.1135477916906
 31
0.0
 11
226.2705081587926
 21
354.7493898582808
 31
0.0
 11
226.4903576712407
 21
354.4276488135324
 31
0.0
 11
226.7367818422324
 21
354.1254834912745
 31
0.0
 11
226.9885084219524
 21
353.8691216481935
 31
0.0
 11
227.2648823220334
 21
353.6390651392519
 31
0.0
 11
227.5420709387786
 21
353.4552907087866
 31
0.0
 11
227.8393360036462
 21
353.3053975263138
 31
0.0
 11
228.1352248824422
 21
353.2001975588726
 31
0.0
 11
228.4427867552031
 21
353.1355758116398
 31
0.0
 11
228.7494655152033
 21
353.1138847636084
 31
0.0
 11
229.0561442752035
 21
353.1355758116397
 31
0.0
  0
SPLINE
  5
3EB
330
6E
100
AcDbEntity
  8
1
  6
Continuous
 62
     7
100
AcDbSpline
210
0.0
220
0.0
230
1.0
 70
    11
 71
     3
 72
    79
 73
    75
 74
    73
 42
0.000000001
 43
0.0000000001
 44
0.00000001
 40
0.0
 40
0.0
 40
0.0
 40
0.0
 40
0.314277379165589
 40
0.6283112355322399
 40
0.9612293716150417
 40
1.293805033313597
 40
1.653399986144852
 40
2.01268770597767
 40
2.402596354380302
 40
2.792277131488494
 40
3.21212559820007
 40
3.631818884954831
 40
4.078023826726935
 40
4.524128912110535
 40
4.99074266180078
 40
5.457297384742648
 40
5.936768749021255
 40
6.416212748943204
 40
6.900062532357361
 40
7.383912315770867
 40
7.863356315690449
 40
8.342827679964056
 40
8.809382402897016
 40
9.275996152571542
 40
9.722101237930222
 40
10.16830617966283
 40
10.58799946636062
 40
11.00784793298775
 40
11.39752870998253
 40
11.78743735822327
 40
12.14672507784518
 40
12.5063200303763
 40
12.83889569165983
 40
13.17181382703786
 40
13.48584768136828
 40
13.80012506793144
 40
14.10756996268993
 40
14.41501485744717
 40
14.72929224400692
 40
15.04332609833197
 40
15.37624423370281
 40
15.70881989497808
 40
16.06841484749961
 40
16.4277025671116
 40
16.8176112153417
 40
17.20729199232612
 40
17.62714045894278
 40
18.04683374563059
 40
18.49303868735306
 40
18.93914377270238
 40
19.40575752236776
 40
19.87231224529253
 40
20.35178360955863
 40
20.83122760947142
 40
21.31507739287884
 40
21.79892717628779
 40
22.27837117620552
 40
22.75784254048073
 40
23.22439726342029
 40
23.69101101310914
 40
24.13711609849221
 40
24.58332104026423
 40
25.00301432701873
 40
25.42286279372873
 40
25.81254357083294
 40
26.20245221922585
 40
26.56173993903858
 40
26.92133489182546
 40
27.25391055342236
 40
27.5868286892116
 40
27.90086254407437
 40
28.2151399314322
 40
28.52258482831802
 40
28.83002971590494
 40
28.83002971590494
 40
28.83002971590494
 40
28.83002971590494
 10
229.0561442752035
 20
351.2164914462204
 30
0.0
 10
229.1594158274276
 20
351.1978989740675
 30
0.0
 10
229.3658789119605
 20
351.1607284449532
 30
0.0
 10
229.6679637432183
 20
351.0497821817647
 30
0.0
 10
229.960158637364
 20
350.9027173394632
 30
0.0
 10
230.2450130038595
 20
350.7125627871679
 30
0.0
 10
230.5144539269484
 20
350.487428058731
 30
0.0
 10
230.7732512839557
 20
350.2227919886481
 30
0.0
 10
231.0129289484693
 20
349.9277317629949
 30
0.0
 10
231.2382671902965
 20
349.5969657154491
 30
0.0
 10
231.441830711335
 20
349.2408983934961
 30
0.0
 10
231.6273229791275
 20
348.85416532132
 30
0.0
 10
231.7890930919035
 20
348.4474918636547
 30
0.0
 10
231.9294606526084
 20
348.0165156678988
 30
0.0
 10
232.0447037110187
 20
347.5711419835506
 30
0.0
 10
232.1359570492518
 20
347.1089290336622
 30
0.0
 10
232.2011645909927
 20
346.6380104409642
 30
0.0
 10
232.2407550584303
 20
346.158478876681
 30
0.0
 10
232.2538406614079
 20
345.6760336388807
 30
0.0
 10
232.2407550584464
 20
345.1935884010654
 30
0.0
 10
232.2011645910218
 20
344.7140568368287
 30
0.0
 10
232.135957049332
 20
344.2431382439689
 30
0.0
 10
232.0447037110562
 20
343.7809252946763
 30
0.0
 10
231.9294606530131
 20
343.3355516081596
 30
0.0
 10
231.7890930912903
 20
342.9045754201666
 30
0.0
 10
231.6273229826109
 20
342.4979019343754
 30
0.0
 10
231.4418307009255
 20
342.1111689612292
 30
0.0
 10
231.2382672305499
 20
341.755101283124
 30
0.0
 10
231.0129288134073
 20
341.4243364740687
 30
0.0
 10
230.7732517773231
 20
341.1292718167367
 30
0.0
 10
230.514452250657
 20
340.8646510563947
 30
0.0
 10
230.2450190913291
 20
340.6394615566148
 30
0.0
 10
229.9601378074887
 20
340.4494969143957
 30
0.0
 10
229.6680399181608
 20
340.3017476976949
 30
0.0
 10
229.3656124042336
 20
340.1932191010191
 30
0.0
 10
229.0593777124284
 20
340.1290075736417
 30
0.0
 10
228.7494655155924
 20
340.1064064704986
 30
0.0
 10
228.4395533187568
 20
340.1290075736302
 30
0.0
 10
228.1333186269525
 20
340.1932191009965
 30
0.0
 10
227.8308911130271
 20
340.3017476976614
 30
0.0
 10
227.5387932237016
 20
340.4494969143518
 30
0.0
 10
227.2539119398646
 20
340.6394615565609
 30
0.0
 10
226.9844787805407
 20
340.8646510563314
 30
0.0
 10
226.7256792538795
 20
341.1292718166642
 30
0.0
 10
226.4860022178013
 20
341.4243364739879
 30
0.0
 10
226.2606638006654
 20
341.7551012830349
 30
0.0
 10
226.057100330298
 20
342.1111689611332
 30
0.0
 10
225.8716080486217
 20
342.4979019342724
 30
0.0
 10
225.709837939953
 20
342.9045754200574
 30
0.0
 10
225.5694703782423
 20
343.3355516080443
 30
0.0
 10
225.454227320213
 20
343.7809252945553
 30
0.0
 10
225.362973981953
 20
344.243138243843
 30
0.0
 10
225.2977664402814
 20
344.7140568366972
 30
0.0
 10
225.2581759728771
 20
345.1935884009299
 30
0.0
 10
225.2450903699394
 20
345.6760336387367
 30
0.0
 10
225.2581759729406
 20
346.1584788765424
 30
0.0
 10
225.2977664404137
 20
346.6380104407779
 30
0.0
 10
225.3629739821613
 20
347.1089290336197
 30
0.0
 10
225.454227320519
 20
347.5711419829478
 30
0.0
 10
225.5694703786365
 20
348.0165156693014
 30
0.0
 10
225.7098379405591
 20
348.447491857834
 30
0.0
 10
225.8716080491058
 20
348.8541653416123
 30
0.0
 10
226.0571003319733
 20
349.2408983217683
 30
0.0
 10
226.2606637989865
 20
349.5969659745561
 30
0.0
 10
226.4860022288602
 20
349.9277308715071
 30
0.0
 10
226.7256792206543
 20
350.2227952141229
 30
0.0
 10
226.9844789017642
 20
350.4874170614274
 30
0.0
 10
227.2539115102895
 20
350.7126026721842
 30
0.0
 10
227.5387947058758
 20
350.9025807984466
 30
0.0
 10
227.8308857082157
 20
351.0502814223674
 30
0.0
 10
228.1333375542913
 20
351.158981680376
 30
0.0
 10
228.4394831534215
 20
351.2225646374268
 30
0.0
 10
228.7497211000146
 20
351.2474639577337
 30
0.0
 10
228.9540032175873
 20
351.2268156136097
 30
0.0
 10
229.0561442752035
 20
351.2164914462204
 30
0.0
 11
229.0561442752035
 21
351.2164914462204
 31
0.0
 11
229.3637061479644
 21
351.1518696989878
 31
0.0
 11
229.6595950267604
 21
351.0466697315466
 31
0.0
 11
229.9568600916282
 21
350.8967765490736
 31
0.0
 11
230.2340487083733
 21
350.7130021186084
 31
0.0
 11
230.5104226084542
 21
350.4829456096668
 31
0.0
 11
230.7621491881742
 21
350.2265837665859
 31
0.0
 11
231.008573359166
 21
349.924418444328
 31
0.0
 11
231.2284228716141
 21
349.6026773995796
 31
0.0
 11
231.4373767768174
 21
349.2385194661699
 31
0.0
 11
231.6192328383993
 21
348.8602724201906
 31
0.0
 11
231.7846413175249
 21
348.4458585146785
 31
0.0
 11
231.9230381849477
 21
348.0217641215468
 31
0.0
 11
232.0402858673168
 21
347.5701211515189
 31
0.0
 11
232.1307846999697
 21
347.112427727067
 31
0.0
 11
232.1967776205036
 21
346.6375196058453
 31
0.0
 11
232.2362438515924
 21
346.1597027312324
 31
0.0
 11
232.2494655152036
 21
345.6760336289302
 31
0.0
 11
232.2362438515924
 21
345.1923645266281
 31
0.0
 11
232.1967776205036
 21
344.7145476520152
 31
0.0
 11
232.1307846999698
 21
344.2396395307937
 31
0.0
 11
232.0402858673168
 21
343.7819461063418
 31
0.0
 11
231.9230381849479
 21
343.3303031363139
 31
0.0
 11
231.7846413175251
 21
342.9062087431821
 31
0.0
 11
231.6192328383995
 21
342.4917948376699
 31
0.0
 11
231.4373767768177
 21
342.1135477916908
 31
0.0
 11
231.2284228716144
 21
341.7493898582811
 31
0.0
 11
231.0085733591662
 21
341.4276488135327
 31
0.0
 11
230.7621491881745
 21
341.1254834912747
 31
0.0
 11
230.5104226084545
 21
340.8691216481937
 31
0.0
 11
230.2340487083737
 21
340.6390651392521
 31
0.0
 11
229.9568600916285
 21
340.4552907087868
 31
0.0
 11
229.6595950267608
 21
340.305397526314
 31
0.0
 11
229.3637061479647
 21
340.2001975588727
 31
0.0
 11
229.0561442752038
 21
340.13557581164
 31
0.0
 11
228.7494655152036
 21
340.1138847636086
 31
0.0
 11
228.4427867552035
 21
340.1355758116399
 31
0.0
 11
228.1352248824426
 21
340.2001975588727
 31
0.0
 11
227.8393360036465
 21
340.3053975263139
 31
0.0
 11
227.5420709387788
 21
340.4552907087867
 31
0.0
 11
227.2648823220336
 21
340.639065139252
 31
0.0
 11
226.9885084219528
 21
340.8691216481936
 31
0.0
 11
226.7367818422327
 21
341.1254834912745
 31
0.0
 11
226.490357671241
 21
341.4276488135324
 31
0.0
 11
226.2705081587928
 21
341.7493898582808
 31
0.0
 11
226.0615542535895
 21
342.1135477916907
 31
0.0
 11
225.8796981920076
 21
342.4917948376698
 31
0.0
 11
225.714289712882
 21
342.906208743182
 31
0.0
 11
225.5758928454592
 21
343.3303031363137
 31
0.0
 11
225.4586451630902
 21
343.7819461063414
 31
0.0
 11
225.3681463304372
 21
344.2396395307935
 31
0.0
 11
225.3021534099034
 21
344.7145476520151
 31
0.0
 11
225.2626871788146
 21
345.192364526628
 31
0.0
 11
225.2494655152036
 21
345.6760336289302
 31
0.0
 11
225.2626871788146
 21
346.1597027312323
 31
0.0
 11
225.3021534099034
 21
346.6375196058453
 31
0.0
 11
225.3681463304372
 21
347.1124277270668
 31
0.0
 11
225.4586451630901
 21
347.5701211515186
 31
0.0
 11
225.5758928454591
 21
348.0217641215464
 31
0.0
 11
225.7142897128818
 21
348.4458585146783
 31
0.0
 11
225.8796981920074
 21
348.8602724201905
 31
0.0
 11
226.0615542535893
 21
349.2385194661698
 31
0.0
 11
226.2705081587926
 21
349.6026773995795
 31
0.0
 11
226.4903576712407
 21
349.9244184443279
 31
0.0
 11
226.7367818422324
 21
350.2265837665859
 31
0.0
 11
226.9885084219524
 21
350.4829456096668
 31
0.0
 11
227.2648823220334
 21
350.7130021186085
 31
0.0
 11
227.5420709387786
 21
350.8967765490736
 31
0.0
 11
227.8393360036462
 21
351.0466697315464
 31
0.0
 11
228.1352248824422
 21
351.1518696989877
 31
0.0
 11
228.4427867552031
 21
351.2164914462203
 31
0.0
 11
228.7494655152033
 21
351.2381824942517
 31
0.0
 11
229.0561442752035
 21
351.2164914462204
 31
0.0
  0
ENDBLK
  5
70
330
6E
100
AcDbEntity
  8
0
100
AcDbBlockEnd
  0
BLOCK
  5
72
330
71
100
AcDbEntity
  8
0
100
AcDbBlockBegin
  2
36-1A-13-M4
 70
     0
 10
149.4001339392487
 20
303.7843648900669
 30
0.0
  3
36-1A-13-M4
  1

  0
LINE
  5
3EC
330
71
100
AcDbEntity
  8
1
  6
Continuous
 62
     7
100
AcDbLine
 10
242.3197742270185
 20
347.4260336289301
 30
0.0
 11
239.2494655152035
 21
347.42603362893
 31
0.0
  0
LINE
  5
3ED
330
71
100
AcDbEntity
  8
1
  6
Continuous
 62
     7
100
AcDbLine
 10
239.2494655152035
 20
356.9260336289301
 30
0.0
 11
242.3197742270185
 21
356.9260336289301
 31
0.0
  0
LINE
  5
3EE
330
71
100
AcDbEntity
  8
1
  6
Continuous
 62
     7
100
AcDbLine
 10
242.3197742270185
 20
236.1559476238788
 30
0.0
 11
239.2494655152035
 21
236.1559476238787
 31
0.0
  0
LINE
  5
3EF
330
71
100
AcDbEntity
  8
1
  6
Continuous
 62
     7
100
AcDbLine
 10
239.2494655152035
 20
245.6559476238788
 30
0.0
 11
242.3197742270185
 21
245.6559476238788
 31
0.0
  0
ENDBLK
  5
73
330
71
100
AcDbEntity
  8
0
100
AcDbBlockEnd
  0
BLOCK
  5
75
330
74
100
AcDbEntity
  8
0
100
AcDbBlockBegin
  2
21-1C
 70
     0
 10
188.7596785020272
 20
125.4635267037435
 30
0.0
  3
21-1C
  1

  0
LINE
  5
3F0
330
74
100
AcDbEntity
  8
1
  6
Continuous
 62
     7
100
AcDbLine
 10
246.1048539823692
 20
379.3698946589194
 30
0.0
 11
242.8893607774987
 21
379.8218027579118
 31
0.0
  0
LINE
  5
3F1
330
74
100
AcDbEntity
  8
1
  6
Continuous
 62
     7
100
AcDbLine
 10
242.3197742270185
 20
379.3266687235412
 30
0.0
 11
242.3197742270185
 21
325.0253985343192
 31
0.0
  0
LINE
  5
3F2
330
74
100
AcDbEntity
  8
1
  6
Continuous
 62
     7
100
AcDbLine
 10
242.8893607774987
 20
324.5302644999483
 30
0.0
 11
246.1048539823692
 21
324.9821725989406
 31
0.0
  0
LINE
  5
3F3
330
74
100
AcDbEntity
  8
1
  6
Continuous
 62
     7
100
AcDbLine
 10
369.1084552753077
 20
253.8316171980611
 30
0.0
 11
365.4570460638373
 21
267.458861894494
 31
0.0
  0
LINE
  5
3F4
330
74
100
AcDbEntity
  8
1
  6
Continuous
 62
     7
100
AcDbLine
 10
375.5789314028708
 20
242.6244237959605
 30
0.0
 11
385.5547668878331
 21
232.6485883109981
 31
0.0
  0
LINE
  5
3F5
330
74
100
AcDbEntity
  8
1
  6
Continuous
 62
     7
100
AcDbLine
 10
366.1319672336659
 20
226.2618018776149
 30
0.0
 11
380.5197168327191
 21
222.4066159916473
 31
0.0
  0
LINE
  5
3F6
330
74
100
AcDbEntity
  8
1
  6
Continuous
 62
     7
100
AcDbLine
 10
353.1910149785398
 20
226.2618018776149
 30
0.0
 11
339.563770282107
 21
222.6103926661444
 31
0.0
  0
LINE
  5
3F7
330
74
100
AcDbEntity
  8
1
  6
Continuous
 62
     7
100
AcDbLine
 10
343.7440508093349
 20
242.6244237959605
 30
0.0
 11
333.7682153243726
 21
232.6485883109981
 31
0.0
  0
LINE
  5
3F8
330
74
100
AcDbEntity
  8
1
  6
Continuous
 62
     7
100
AcDbLine
 10
350.214526936898
 20
253.8316171980611
 30
0.0
 11
353.8659361483684
 21
267.458861894494
 31
0.0
  0
LINE
  5
3F9
330
74
100
AcDbEntity
  8
1
  6
Continuous
 62
     7
100
AcDbLine
 10
242.3197742270185
 20
227.1136562203881
 30
0.0
 11
242.3197742270185
 21
222.9811733359531
 31
0.0
  0
LINE
  5
3FA
330
74
100
AcDbEntity
  8
1
  6
Continuous
 62
     7
100
AcDbLine
 10
246.1048539823691
 20
271.3739893556467
 30
0.0
 11
242.8893607774985
 21
271.8258974546391
 31
0.0
  0
LINE
  5
3FB
330
74
100
AcDbEntity
  8
1
  6
Continuous
 62
     7
100
AcDbLine
 10
247.2788508327621
 20
223.1032617695276
 30
0.0
 11
242.8893961597311
 21
222.48604427552
 31
0.0
  0
LINE
  5
3FC
330
74
100
AcDbEntity
  8
1
  6
Continuous
 62
     7
100
AcDbLine
 10
242.3197742270185
 20
227.1136562203881
 30
0.0
 11
242.3197742270185
 21
228.67901285148
 31
0.0
  0
LINE
  5
3FD
330
74
100
AcDbEntity
  8
1
  6
Continuous
 62
     7
100
AcDbLine
 10
242.3197742270185
 20
245.6559476238788
 30
0.0
 11
242.3197742270185
 21
227.1136562203881
 31
0.0
  0
LINE
  5
3FE
330
74
100
AcDbEntity
  8
1
  6
Continuous
 62
     7
100
AcDbLine
 10
242.3197742270185
 20
245.6559476238788
 30
0.0
 11
242.3197742270185
 21
246.6559476238788
 31
0.0
  0
LINE
  5
3FF
330
74
100
AcDbEntity
  8
1
  6
Continuous
 62
     7
100
AcDbLine
 10
242.3197742270185
 20
271.3307634202685
 30
0.0
 11
242.3197742270185
 21
245.6559476238788
 31
0.0
  0
ARC
  5
400
330
74
100
AcDbEntity
  8
1
  6
Continuous
 62
     7
100
AcDbCircle
 10
125.9496216866941
 20
350.538943278041
 30
0.0
 40
127.4948334081409
100
AcDbArc
 50
2.53411689479724
 51
10.80949324635213
  0
ARC
  5
401
330
74
100
AcDbEntity
  8
1
  6
Continuous
 62
     7
100
AcDbCircle
 10
125.9496216866941
 20
353.8131239798194
 30
0.0
 40
127.494833408141
100
AcDbArc
 50
349.1905067536478
 51
357.4658831052026
  0
ARC
  5
402
330
74
100
AcDbEntity
  8
1
  6
Continuous
 62
     7
100
AcDbCircle
 10
359.6614911061028
 20
265.9059476238788
 30
0.0
 40
6.000000000000129
100
AcDbArc
 50
15.00000000000088
 51
90.0
  0
ARC
  5
403
330
74
100
AcDbEntity
  8
1
  6
Continuous
 62
     7
100
AcDbCircle
 10
381.3121262007138
 20
228.4059476238788
 30
0.0
 40
5.999999999999956
100
AcDbArc
 50
262.4757589210585
 51
44.99999999999981
  0
ARC
  5
404
330
74
100
AcDbEntity
  8
1
  6
Continuous
 62
     7
100
AcDbCircle
 10
338.0108560114919
 20
228.4059476238788
 30
0.0
 40
6.000000000000028
100
AcDbArc
 50
135.0000000000002
 51
284.9999999999996
  0
ARC
  5
405
330
74
100
AcDbEntity
  8
1
  6
Continuous
 62
     7
100
AcDbCircle
 10
359.6614911061028
 20
265.9059476238788
 30
0.0
 40
6.0
100
AcDbArc
 50
90.0
 51
164.9999999999989
  0
ARC
  5
406
330
74
100
AcDbEntity
  8
1
  6
Continuous
 62
     7
100
AcDbCircle
 10
103.3197742270185
 20
240.9059476238788
 30
0.0
 40
150.0533238552215
100
AcDbArc
 50
1.52752544221293
 51
9.80290179376779
  0
ARC
  5
407
330
74
100
AcDbEntity
  8
1
  6
Continuous
 62
     7
100
AcDbCircle
 10
178.4079532183193
 20
240.541751958632
 30
0.0
 40
74.99999999999997
100
AcDbArc
 50
350.4085075173349
 51
357.2213610340374
  0
ARC
  5
408
330
74
100
AcDbEntity
  8
1
  6
Continuous
 62
     7
100
AcDbCircle
 10
245.2698153766088
 20
373.4282862464701
 30
0.0
 40
6.000000000000125
100
AcDbArc
 50
9.80290179376734
 51
81.9999999999996
  0
ARC
  5
409
330
74
100
AcDbEntity
  8
1
  6
Continuous
 62
     7
100
AcDbCircle
 10
242.8197742270185
 20
379.3266687235412
 30
0.0
 40
0.4999999999998452
100
AcDbArc
 50
81.99999999998029
 51
180.0
  0
ARC
  5
40A
330
74
100
AcDbEntity
  8
1
  6
Continuous
 62
     7
100
AcDbCircle
 10
242.8197742270185
 20
325.0253985343192
 30
0.0
 40
0.5
100
AcDbArc
 50
180.0
 51
278.0000000000152
  0
ARC
  5
40B
330
74
100
AcDbEntity
  8
1
  6
Continuous
 62
     7
100
AcDbCircle
 10
245.2698153766088
 20
330.92378101139
 30
0.0
 40
5.99999999999998
100
AcDbArc
 50
278.0000000000002
 51
350.1970982062332
  0
ARC
  5
40C
330
74
100
AcDbEntity
  8
1
  6
Continuous
 62
     7
100
AcDbCircle
 10
393.2566009325344
 20
260.3020933256241
 30
0.0
 40
25.00000000000002
100
AcDbArc
 50
195.0
 51
225.0
  0
ARC
  5
40D
330
74
100
AcDbEntity
  8
1
  6
Continuous
 62
     7
100
AcDbCircle
 10
359.6614911061028
 20
202.1136562203882
 30
0.0
 40
24.99999999999999
100
AcDbArc
 50
74.99999999999986
 51
105.0
  0
ARC
  5
40E
330
74
100
AcDbEntity
  8
1
  6
Continuous
 62
     7
100
AcDbCircle
 10
326.0663812796713
 20
260.3020933256241
 30
0.0
 40
24.9999999999999
100
AcDbArc
 50
314.9999999999999
 51
345.0
  0
ARC
  5
40F
330
74
100
AcDbEntity
  8
1
  6
Continuous
 62
     7
100
AcDbCircle
 10
245.2698153766088
 20
265.4323809431974
 30
0.0
 40
6.000000000000004
100
AcDbArc
 50
9.80290179376699
 51
82.00000000000067
  0
ARC
  5
410
330
74
100
AcDbEntity
  8
1
  6
Continuous
 62
     7
100
AcDbCircle
 10
246.4433876402107
 20
229.0448104947247
 30
0.0
 40
5.99999999999995
100
AcDbArc
 50
278.0040943717011
 51
350.4085075173349
  0
ARC
  5
411
330
74
100
AcDbEntity
  8
1
  6
Continuous
 62
     7
100
AcDbCircle
 10
242.8197742270185
 20
271.3307634202685
 30
0.0
 40
0.4999999999998175
100
AcDbArc
 50
82.00000000000287
 51
180.0
  0
ARC
  5
412
330
74
100
AcDbEntity
  8
1
  6
Continuous
 62
     7
100
AcDbCircle
 10
242.8197742270185
 20
222.9811733359531
 30
0.0
 40
0.5
100
AcDbArc
 50
180.0
 51
278.0040943716966
  0
ENDBLK
  5
76
330
74
100
AcDbEntity
  8
0
100
AcDbBlockEnd
  0
BLOCK
  5
7C
330
77
100
AcDbEntity
  8
0
100
AcDbBlockBegin
  2
R10A-13-C
 70
     0
 10
225.1834943134292
 20
222.4059476238788
 30
0.0
  3
R10A-13-C
  1

  0
INSERT
  5
78
330
77
100
AcDbEntity
  8
1
100
AcDbBlockReference
  2
42-15-M2
 10
204.7972052480403
 20
130.6005087866106
 30
0.0
  0
INSERT
  5
79
330
77
100
AcDbEntity
  8
1
100
AcDbBlockReference
  2
37-1-13
 10
197.9058151201684
 20
47.53743487843558
 30
0.0
  0
INSERT
  5
7A
330
77
100
AcDbEntity
  8
1
100
AcDbBlockReference
  2
36-1A-13-M4
 10
149.4001339392487
 20
303.7843648900669
 30
0.0
  0
INSERT
  5
7B
330
77
100
AcDbEntity
  8
0
100
AcDbBlockReference
  2
21-1C
 10
188.7596785020272
 20
125.4635267037435
 30
0.0
  0
ENDBLK
  5
7D
330
77
100
AcDbEntity
  8
0
100
AcDbBlockEnd
  0
BLOCK
  5
43E
330
437
100
AcDbEntity
  8
0
100
AcDbBlockBegin
  2
*D16
 70
     1
 10
0.0
 20
0.0
 30
0.0
  3
*D16
  1

  0
LINE
  5
438
330
437
100
AcDbEntity
  8
1
  6
Continuous
 62
     2
100
AcDbLine
 10
346.1614911061027
 20
151.606909518202
 30
0.0
 11
373.1614911061026
 21
151.606909518202
 31
0.0
  0
LINE
  5
439
330
437
100
AcDbEntity
  8
1
  6
Continuous
 62
     2
100
AcDbLine
 10
373.1614911061027
 20
171.7512470854995
 30
0.0
 11
373.1614911061027
 21
149.606909518202
 31
0.0
  0
LINE
  5
43A
330
437
100
AcDbEntity
  8
1
  6
Continuous
 62
     2
100
AcDbLine
 10
346.1614911061028
 20
171.7512470854995
 30
0.0
 11
346.1614911061028
 21
149.606909518202
 31
0.0
  0
SOLID
  5
43B
330
437
100
AcDbEntity
  8
1
 62
     2
100
AcDbTrace
 10
353.1614911061027
 20
152.5284770013138
 30
0.0
 11
353.1614911061027
 21
150.6853420350902
 31
0.0
 12
346.1614911061027
 22
151.606909518202
 32
0.0
 13
346.1614911061027
 23
151.606909518202
 33
0.0
  0
SOLID
  5
43C
330
437
100
AcDbEntity
  8
1
 62
     2
100
AcDbTrace
 10
366.1614911061026
 20
150.6853420350902
 30
0.0
 11
366.1614911061026
 21
152.5284770013138
 31
0.0
 12
373.1614911061026
 22
151.606909518202
 32
0.0
 13
373.1614911061026
 23
151.606909518202
 33
0.0
  0
MTEXT
  5
43D
330
437
100
AcDbEntity
  8
1
 62
     7
100
AcDbMText
 10
354.4114911061028
 20
153.606909518202
 30
0.0
 40
7.0
 41
0.0
 71
     7
 72
     1
  1
27
  7
CONVERTER_12
 11
0.9999999999970619
 21
2.424068405545306E-6
 31
0.0
 73
     1
 44
0.60024009603842
  0
ENDBLK
  5
43F
330
437
100
AcDbEntity
  8
0
100
AcDbBlockEnd
  0
BLOCK
  5
449
330
442
100
AcDbEntity
  8
0
100
AcDbBlockBegin
  2
*D17
 70
     1
 10
0.0
 20
0.0
 30
0.0
  3
*D17
  1

  0
LINE
  5
443
330
442
100
AcDbEntity
  8
0
  6
Continuous
 62
     2
100
AcDbLine
 10
277.3197742270185
 20
240.9059476238788
 30
0.0
 11
277.3197742270185
 21
270.9059476238788
 31
0.0
  0
LINE
  5
444
330
442
100
AcDbEntity
  8
0
  6
Continuous
 62
     2
100
AcDbLine
 10
209.1577742270185
 20
270.9059476238788
 30
0.0
 11
279.3197742270185
 21
270.9059476238788
 31
0.0
  0
LINE
  5
445
330
442
100
AcDbEntity
  8
0
  6
Continuous
 62
     2
100
AcDbLine
 10
260.3197402454803
 20
240.9059476238788
 30
0.0
 11
279.3197742270185
 21
240.9059476238788
 31
0.0
  0
SOLID
  5
446
330
442
100
AcDbEntity
  8
0
 62
     2
100
AcDbTrace
 10
276.3982067439068
 20
247.9059476238788
 30
0.0
 11
278.2413417101303
 21
247.9059476238788
 31
0.0
 12
277.3197742270185
 22
240.9059476238788
 32
0.0
 13
277.3197742270185
 23
240.9059476238788
 33
0.0
  0
SOLID
  5
447
330
442
100
AcDbEntity
  8
0
 62
     2
100
AcDbTrace
 10
278.2413417101303
 20
263.9059476238788
 30
0.0
 11
276.3982067439068
 21
263.9059476238788
 31
0.0
 12
277.3197742270185
 22
270.9059476238788
 32
0.0
 13
277.3197742270185
 23
270.9059476238788
 33
0.0
  0
MTEXT
  5
448
330
442
100
AcDbEntity
  8
0
 62
     7
100
AcDbMText
 10
275.3197742270185
 20
250.6559476238788
 30
0.0
 40
7.0
 41
0.0
 71
     7
 72
     1
  1
30
  7
CONVERTER_12
 11
0.0
 21
1.0
 31
0.0
 73
     1
 44
0.60024009603842
  0
ENDBLK
  5
44A
330
442
100
AcDbEntity
  8
0
100
AcDbBlockEnd
  0
BLOCK
  5
454
330
44D
100
AcDbEntity
  8
0
100
AcDbBlockBegin
  2
*D18
 70
     1
 10
0.0
 20
0.0
 30
0.0
  3
*D18
  1

  0
LINE
  5
44E
330
44D
100
AcDbEntity
  8
0
  6
Continuous
 62
     2
100
AcDbLine
 10
199.8197742270185
 20
290.9059476238788
 30
0.0
 11
257.3197742270186
 21
290.9059476238788
 31
0.0
  0
LINE
  5
44F
330
44D
100
AcDbEntity
  8
0
  6
Continuous
 62
     2
100
AcDbLine
 10
257.3197742270186
 20
240.9059476238788
 30
0.0
 11
257.3197742270186
 21
292.9059476238788
 31
0.0
  0
LINE
  5
450
330
44D
100
AcDbEntity
  8
0
  6
Continuous
 62
     2
100
AcDbLine
 10
199.8197742270185
 20
276.9059476238788
 30
0.0
 11
199.8197742270185
 21
292.9059476238788
 31
0.0
  0
SOLID
  5
451
330
44D
100
AcDbEntity
  8
0
 62
     2
100
AcDbTrace
 10
206.8197742270185
 20
291.8275151069905
 30
0.0
 11
206.8197742270185
 21
289.984380140767
 31
0.0
 12
199.8197742270185
 22
290.9059476238788
 32
0.0
 13
199.8197742270185
 23
290.9059476238788
 33
0.0
  0
SOLID
  5
452
330
44D
100
AcDbEntity
  8
0
 62
     2
100
AcDbTrace
 10
250.3197742270186
 20
289.984380140767
 30
0.0
 11
250.3197742270186
 21
291.8275151069905
 31
0.0
 12
257.3197742270186
 22
290.9059476238788
 32
0.0
 13
257.3197742270186
 23
290.9059476238788
 33
0.0
  0
MTEXT
  5
453
330
44D
100
AcDbEntity
  8
0
 62
     7
100
AcDbMText
 10
209.6697742270185
 20
292.9059476238788
 30
0.0
 40
7.0
 41
0.0
 71
     7
 72
     1
  1
58リフト5
  7
CONVERTER_11
 11
0.9999999999970619
 21
2.424068405545306E-6
 31
0.0
 73
     1
 44
0.45454545454545
  0
ENDBLK
  5
455
330
44D
100
AcDbEntity
  8
0
100
AcDbBlockEnd
  0
BLOCK
  5
45F
330
458
100
AcDbEntity
  8
0
100
AcDbBlockBegin
  2
*D19
 70
     1
 10
0.0
 20
0.0
 30
0.0
  3
*D19
  1

  0
LINE
  5
459
330
458
100
AcDbEntity
  8
0
  6
Continuous
 62
     2
100
AcDbLine
 10
64.81977422701857
 20
373.6760336289304
 30
0.0
 11
64.81977422701857
 21
330.6760336289304
 31
0.0
  0
LINE
  5
45A
330
458
100
AcDbEntity
  8
0
  6
Continuous
 62
     2
100
AcDbLine
 10
96.06977422701854
 20
330.6760336289304
 30
0.0
 11
62.81977422701858
 21
330.6760336289304
 31
0.0
  0
LINE
  5
45B
330
458
100
AcDbEntity
  8
0
  6
Continuous
 62
     2
100
AcDbLine
 10
98.06977422701854
 20
373.6760336289304
 30
0.0
 11
62.81977422701858
 21
373.6760336289304
 31
0.0
  0
SOLID
  5
45C
330
458
100
AcDbEntity
  8
0
 62
     2
100
AcDbTrace
 10
65.74134171013034
 20
366.6760336289304
 30
0.0
 11
63.8982067439068
 21
366.6760336289304
 31
0.0
 12
64.81977422701857
 22
373.6760336289304
 32
0.0
 13
64.81977422701857
 23
373.6760336289304
 33
0.0
  0
SOLID
  5
45D
330
458
100
AcDbEntity
  8
0
 62
     2
100
AcDbTrace
 10
63.8982067439068
 20
337.6760336289304
 30
0.0
 11
65.74134171013034
 21
337.6760336289304
 31
0.0
 12
64.81977422701857
 22
330.6760336289304
 32
0.0
 13
64.81977422701857
 23
330.6760336289304
 33
0.0
  0
MTEXT
  5
45E
330
458
100
AcDbEntity
  8
0
 62
     7
100
AcDbMText
 10
62.81977422701858
 20
345.386033628931
 30
0.0
 40
7.0
 41
0.0
 71
     7
 72
     1
  1
\C7;{\Fgdt;n}\C7;43
  7
CONVERTER_12
 11
0.0
 21
1.0
 31
0.0
 73
     1
 44
0.60024009603842
  0
ENDBLK
  5
460
330
458
100
AcDbEntity
  8
0
100
AcDbBlockEnd
  0
BLOCK
  5
46A
330
463
100
AcDbEntity
  8
0
100
AcDbBlockBegin
  2
*D20
 70
     1
 10
0.0
 20
0.0
 30
0.0
  3
*D20
  1

  0
LINE
  5
464
330
463
100
AcDbEntity
  8
1
  6
Continuous
 62
     2
100
AcDbLine
 10
183.8947742270186
 20
215.1559476238788
 30
0.0
 11
103.8947742270186
 21
215.1559476238788
 31
0.0
  0
LINE
  5
465
330
463
100
AcDbEntity
  8
1
  6
Continuous
 62
     2
100
AcDbLine
 10
103.8947742270186
 20
238.3559476238788
 30
0.0
 11
103.8947742270186
 21
213.1559476238788
 31
0.0
  0
LINE
  5
466
330
463
100
AcDbEntity
  8
1
  6
Continuous
 62
     2
100
AcDbLine
 10
183.8947742270186
 20
238.3559476238788
 30
0.0
 11
183.8947742270186
 21
213.1559476238788
 31
0.0
  0
SOLID
  5
467
330
463
100
AcDbEntity
  8
1
 62
     2
100
AcDbTrace
 10
176.8947742270186
 20
214.234380140767
 30
0.0
 11
176.8947742270186
 21
216.0775151069906
 31
0.0
 12
183.8947742270186
 22
215.1559476238788
 32
0.0
 13
183.8947742270186
 23
215.1559476238788
 33
0.0
  0
SOLID
  5
468
330
463
100
AcDbEntity
  8
1
 62
     2
100
AcDbTrace
 10
110.8947742270186
 20
216.0775151069906
 30
0.0
 11
110.8947742270186
 21
214.234380140767
 31
0.0
 12
103.8947742270186
 22
215.1559476238788
 32
0.0
 13
103.8947742270186
 23
215.1559476238788
 33
0.0
  0
MTEXT
  5
469
330
463
100
AcDbEntity
  8
1
 62
     7
100
AcDbMText
 10
138.6447742270186
 20
217.1559476238788
 30
0.0
 40
7.0
 41
0.0
 71
     7
 72
     1
  1
80
  7
CONVERTER_12
 11
0.9999999999970619
 21
2.424068405545306E-6
 31
0.0
 73
     1
 44
0.60024009603842
  0
ENDBLK
  5
46B
330
463
100
AcDbEntity
  8
0
100
AcDbBlockEnd
  0
BLOCK
  5
475
330
46E
100
AcDbEntity
  8
0
100
AcDbBlockBegin
  2
*D21
 70
     1
 10
0.0
 20
0.0
 30
0.0
  3
*D21
  1

  0
LINE
  5
46F
330
46E
100
AcDbEntity
  8
0
  6
Continuous
 62
     2
100
AcDbLine
 10
277.3197742270185
 20
240.9059476238788
 30
0.0
 11
277.3197742270185
 21
171.6069095182021
 31
0.0
  0
LINE
  5
470
330
46E
100
AcDbEntity
  8
0
  6
Continuous
 62
     2
100
AcDbLine
 10
213.0697742270185
 20
171.606909518202
 30
0.0
 11
279.3197742270185
 21
171.606909518202
 31
0.0
  0
LINE
  5
471
330
46E
100
AcDbEntity
  8
0
  6
Continuous
 62
     2
100
AcDbLine
 10
260.3197402454803
 20
240.9059476238788
 30
0.0
 11
279.3197742270185
 21
240.9059476238788
 31
0.0
  0
SOLID
  5
472
330
46E
100
AcDbEntity
  8
0
 62
     2
100
AcDbTrace
 10
278.2413417101303
 20
233.9059476238788
 30
0.0
 11
276.3982067439068
 21
233.9059476238788
 31
0.0
 12
277.3197742270185
 22
240.9059476238788
 32
0.0
 13
277.3197742270185
 23
240.9059476238788
 33
0.0
  0
SOLID
  5
473
330
46E
100
AcDbEntity
  8
0
 62
     2
100
AcDbTrace
 10
276.3982067439068
 20
178.6069095182021
 30
0.0
 11
278.2413417101303
 21
178.6069095182021
 31
0.0
 12
277.3197742270185
 22
171.6069095182021
 32
0.0
 13
277.3197742270185
 23
171.6069095182021
 33
0.0
  0
MTEXT
  5
474
330
46E
100
AcDbEntity
  8
0
 62
     7
100
AcDbMText
 10
275.3197742270185
 20
201.0064285710404
 30
0.0
 40
7.0
 41
0.0
 71
     7
 72
     1
  1
69
  7
CONVERTER_12
 11
0.0
 21
1.0
 31
0.0
 73
     1
 44
0.60024009603842
  0
ENDBLK
  5
476
330
46E
100
AcDbEntity
  8
0
100
AcDbBlockEnd
  0
ENDSEC
  0
SECTION
  2
ENTITIES
  0
INSERT
  5
7E
330
1F
100
AcDbEntity
  8
1
100
AcDbBlockReference
  2
V2110-1-0
 10
476.7767402376899
 20
803.9446519524621
 30
0.0
  0
INSERT
  5
7F
330
1F
100
AcDbEntity
  8
0
100
AcDbBlockReference
  2
H862S
 10
105.0697742270184
 20
219.4059476238788
 30
0.0
  0
INSERT
  5
80
330
1F
100
AcDbEntity
  8
1
100
AcDbBlockReference
  2
T601-3
 10
284.0227814286839
 20
90.97787726013749
 30
0.0
  0
INSERT
  5
81
330
1F
100
AcDbEntity
  8
1
100
AcDbBlockReference
  2
開示A4
 10
0.0
 20
0.0
 30
0.0
 41
2.0
 42
2.0
 43
2.0
  0
INSERT
  5
82
330
1F
100
AcDbEntity
  8
1
100
AcDbBlockReference
  2
R10A-13-C
 10
225.1834943134292
 20
222.4059476238788
 30
0.0
  0
LINE
  5
413
330
1F
100
AcDbEntity
  8
1
  6
DASH_CENTER
 62
     2
100
AcDbLine
 10
257.3197742270185
 20
240.9059476238788
 30
0.0
 11
260.3197402454803
 21
240.9059476238788
 31
0.0
  0
LINE
  5
414
330
1F
100
AcDbEntity
  8
1
  6
DASH_CENTER
 62
     2
100
AcDbLine
 10
359.6614911061028
 20
276.9059476238788
 30
0.0
 11
359.6614911061028
 21
165.606909518202
 31
0.0
  0
LINE
  5
415
330
1F
100
AcDbEntity
  8
1
  6
DASH_CENTER
 62
     2
100
AcDbLine
 10
378.8075222355088
 20
251.9599138503543
 30
0.0
 11
327.6197088130118
 21
222.4066159916473
 31
0.0
  0
LINE
  5
416
330
1F
100
AcDbEntity
  8
1
  6
DASH_CENTER
 62
     2
100
AcDbLine
 10
387.6614911061029
 20
240.9059476238788
 30
0.0
 11
331.6614911061028
 21
240.9059476238788
 31
0.0
  0
LINE
  5
417
330
1F
100
AcDbEntity
  8
1
  6
DASH_CENTER
 62
     2
100
AcDbLine
 10
341.1501344941832
 20
251.5934843468358
 30
0.0
 11
391.7032733991939
 21
222.4066159916473
 31
0.0
  0
LINE
  5
418
330
1F
100
AcDbEntity
  8
1
  6
DASH_CENTER
 62
     2
100
AcDbLine
 10
238.9941046745502
 20
240.9059476238788
 30
0.0
 11
257.3197742270185
 21
240.9059476238788
 31
0.0
  0
LINE
  5
419
330
1F
100
AcDbEntity
  8
1
  6
DASH_CENTER
 62
     2
100
AcDbLine
 10
224.8197742270185
 20
240.9059476238788
 30
0.0
 11
238.9941046745502
 21
240.9059476238788
 31
0.0
  0
LINE
  5
41A
330
1F
100
AcDbEntity
  8
1
  6
DASH_CENTER
 62
     2
100
AcDbLine
 10
184.3947742270186
 20
240.9059476238788
 30
0.0
 11
199.8197742270185
 21
240.9059476238788
 31
0.0
  0
LINE
  5
41B
330
1F
100
AcDbEntity
  8
1
  6
DASH_CENTER
 62
     2
100
AcDbLine
 10
90.06977422701856
 20
240.9059476238788
 30
0.0
 11
184.3947742270186
 21
240.9059476238788
 31
0.0
  0
LINE
  5
41C
330
1F
100
AcDbEntity
  8
1
  6
DASH_CENTER
 62
     2
100
AcDbLine
 10
199.8197742270185
 20
219.9059476238788
 30
0.0
 11
199.8197742270185
 21
240.9059476238788
 31
0.0
  0
LINE
  5
41D
330
1F
100
AcDbEntity
  8
0
  6
DASH_CENTER
 62
     2
100
AcDbLine
 10
199.8197742270185
 20
165.606909518202
 30
0.0
 11
199.8197742270185
 21
219.9059476238788
 31
0.0
  0
LINE
  5
41E
330
1F
100
AcDbEntity
  8
1
  6
DASH_CENTER
 62
     2
100
AcDbLine
 10
199.8197742270185
 20
240.9059476238788
 30
0.0
 11
224.8197742270185
 21
240.9059476238788
 31
0.0
  0
LINE
  5
41F
330
1F
100
AcDbEntity
  8
1
  6
DASH_CENTER
 62
     2
100
AcDbLine
 10
103.3467900191285
 20
225.9059476238788
 30
0.0
 11
105.8197742270187
 21
225.9059476238788
 31
0.0
  0
LINE
  5
420
330
1F
100
AcDbEntity
  8
1
  6
DASH_CENTER
 62
     2
100
AcDbLine
 10
199.8197742270185
 20
240.9059476238788
 30
0.0
 11
199.8197742270184
 21
276.9059476238788
 31
0.0
  0
LINE
  5
421
330
1F
100
AcDbEntity
  8
1
  6
DASH_CENTER
 62
     2
100
AcDbLine
 10
105.8197742270187
 20
255.9059476238788
 30
0.0
 11
68.81977422701858
 21
255.9059476238788
 31
0.0
  0
LINE
  5
422
330
1F
100
AcDbEntity
  8
1
  6
DASH_CENTER
 62
     2
100
AcDbLine
 10
105.8197742270187
 20
255.9059476238788
 30
0.0
 11
103.3467900191285
 21
255.9059476238788
 31
0.0
  0
LINE
  5
423
330
1F
100
AcDbEntity
  8
1
  6
DASH_CENTER
 62
     2
100
AcDbLine
 10
105.8197742270187
 20
225.9059476238788
 30
0.0
 11
68.81977422701858
 21
225.9059476238788
 31
0.0
  0
LINE
  5
424
330
1F
100
AcDbEntity
  8
1
  6
DASH_CENTER
 62
     2
100
AcDbLine
 10
68.81977422702049
 20
352.1760336289301
 30
0.0
 11
263.3197742270185
 21
352.1760336289301
 31
0.0
  0
LINE
  5
425
330
1F
100
AcDbEntity
  8
1
  6
DASH_CENTER
 62
     2
100
AcDbLine
 10
199.6614911061029
 20
371.67603362893
 30
0.0
 11
199.6614911061029
 21
332.6760336289301
 31
0.0
  0
LINE
  5
426
330
1F
100
AcDbEntity
  8
1
  6
DASH_CENTER
 62
     2
100
AcDbLine
 10
363.6614911061028
 20
200.4059476238788
 30
0.0
 11
355.6614911061028
 21
200.4059476238788
 31
0.0
  0
SOLID
  5
427
330
1F
100
AcDbEntity
  8
0
 62
     2
100
AcDbTrace
 10
165.7891693830277
 20
250.6758419339227
 30
0.0
 11
167.5484816813045
 21
251.2253569390389
 31
0.0
 12
168.7558159622239
 22
244.2689476238788
 32
0.0
 13
168.7558159622239
 23
244.2689476238788
 33
0.0
  0
LEADER
  5
428
330
1F
100
AcDbEntity
  8
0
  6
Continuous
 62
     2
100
AcDbLeader
  3
Standard
 71
     0
 76
     2
 10
168.7558159622239
 20
244.2689476238788
 30
0.0
 10
158.9565031000347
 20
275.6421612260541
 30
0.0
  0
SOLID
  5
429
330
1F
100
AcDbEntity
  8
1
 62
     2
100
AcDbTrace
 10
344.8633902544262
 20
271.8657695204232
 30
0.0
 11
346.4595919577791
 21
272.787337003535
 31
0.0
 12
349.1614911061027
 22
266.2643754354881
 32
0.0
 13
349.1614911061027
 23
266.2643754354881
 33
0.0
  0
LEADER
  5
42A
330
1F
100
AcDbEntity
  8
1
  6
Continuous
 62
     2
100
AcDbLeader
  3
Standard
 71
     0
 76
     3
 10
349.1614911061027
 20
266.2643754354881
 30
0.0
 10
336.4973891817451
 20
288.1992434007062
 30
0.0
 10
309.7728393032729
 20
288.1992434007062
 30
0.0
  0
SOLID
  5
42B
330
1F
100
AcDbEntity
  8
0
 62
     2
100
AcDbTrace
 10
143.5450689297988
 20
250.7919091919261
 30
0.0
 11
145.1412706331517
 21
249.8703417088143
 31
0.0
 12
140.8431697814753
 22
244.2689476238791
 32
0.0
 13
140.8431697814753
 23
244.2689476238791
 33
0.0
  0
LEADER
  5
42C
330
1F
100
AcDbEntity
  8
0
  6
Continuous
 62
     2
100
AcDbLeader
  3
Standard
 71
     0
 76
     3
 10
140.8431697814753
 20
244.2689476238791
 30
0.0
 10
158.9565031000347
 20
275.6421612260541
 30
0.0
 10
115.8752726496049
 20
275.6421612260541
 30
0.0
  0
SOLID
  5
42D
330
1F
100
AcDbEntity
  8
0
 62
     2
100
AcDbTrace
 10
227.160312320477
 20
259.4289091919258
 30
0.0
 11
228.75651402383
 21
258.507341708814
 31
0.0
 12
224.4584131721535
 22
252.9059476238788
 32
0.0
 13
224.4584131721535
 23
252.9059476238788
 33
0.0
  0
LEADER
  5
42E
330
1F
100
AcDbEntity
  8
0
  6
Continuous
 62
     2
100
AcDbLeader
  3
Standard
 71
     0
 76
     3
 10
224.4584131721535
 20
252.9059476238788
 30
0.0
 10
237.5851722157222
 20
275.6421612260541
 30
0.0
 10
300.9428134299275
 20
275.6421612260541
 30
0.0
  0
MTEXT
  5
430
330
1F
100
AcDbEntity
  8
1
 62
     7
100
AcDbMText
 10
323.2856139394249
 20
294.3374188135512
 30
0.0
 40
7.0
 41
0.0
 71
     5
 72
     1
  1
G1/2
  7
CONVERTER_12
 73
     1
 44
0.7202881152461
  0
MTEXT
  5
431
330
1F
100
AcDbEntity
  8
1
 62
     7
100
AcDbMText
 10
137.6127238241729
 20
281.6421612260541
 30
0.0
 40
7.0
 41
0.0
 71
     5
 72
     1
  1
W1/4山20
  7
CONVERTER_11
 73
     1
 44
0.54545454545455
  0
MTEXT
  5
432
330
1F
100
AcDbEntity
  8
1
 62
     7
100
AcDbMText
 10
280.5404042730333
 20
281.6421612260541
 30
0.0
 40
7.0
 41
0.0
 71
     5
 72
     1
  1
W24山20
  7
CONVERTER_11
 73
     1
 44
0.54545454545455
  0
MTEXT
  5
433
330
1F
100
AcDbEntity
  8
0
 62
     7
100
AcDbMText
 10
114.0
 20
45.50000000000003
 30
0.0
 40
7.0
 41
0.0
 71
     5
 72
     1
  1
止水栓
  7
CONVERTER_11
 73
     1
 44
1.0
  0
MTEXT
  5
434
330
1F
100
AcDbEntity
  8
1
 62
     7
100
AcDbMText
 10
170.5
 20
34.0
 30
0.0
 40
7.0
 41
0.0
 71
     5
 72
     1
  1
1
  7
CONVERTER_12
 73
     1
 44
0.7202881152461
  0
MTEXT
  5
435
330
1F
100
AcDbEntity
  8
1
 62
     7
100
AcDbMText
 10
187.5
 20
34.0
 30
0.0
 40
7.0
 41
0.0
 71
     5
 72
     1
  1
2
  7
CONVERTER_12
 73
     1
 44
0.7202881152461
  0
MTEXT
  5
436
330
1F
100
AcDbEntity
  8
0
 62
     7
100
AcDbMText
 10
114.0
 20
28.49999999999999
 30
0.0
 40
7.0
 41
0.0
 71
     5
 72
     1
  1
V2110V-1-13X80
  7
CONVERTER_12
 73
     1
 44
0.7202881152461
  0
DIMENSION
  5
441
330
1F
100
AcDbEntity
  8
1
100
AcDbDimension
  2
*D16
 10
346.1614911061027
 20
151.606909518202
 30
0.0
 11
359.6614911061028
 21
157.106909518202
 31
0.0
 70
    33
  1
<>
 71
     5
 42
-1.0
 53
0.00013888888889
  3
ME10_DIM_10
100
AcDbAlignedDimension
 13
373.1614911061027
 23
171.7512470854995
 33
0.0
 14
346.1614911061028
 24
171.7512470854995
 34
0.0
  0
DIMENSION
  5
44C
330
1F
100
AcDbEntity
  8
0
100
AcDbDimension
  2
*D17
 10
277.3197742270185
 20
240.9059476238788
 30
0.0
 11
271.8197742270185
 21
255.9059476238788
 31
0.0
 70
    32
  1
<>
 71
     5
 42
-1.0
 53
90.0
  3
ME10_DIM_11
100
AcDbAlignedDimension
 13
209.1577742270185
 23
270.9059476238788
 33
0.0
 14
260.3197402454803
 24
240.9059476238788
 34
0.0
 50
90.0
100
AcDbRotatedDimension
  0
DIMENSION
  5
457
330
1F
100
AcDbEntity
  8
0
100
AcDbDimension
  2
*D18
 10
199.8197742270185
 20
290.9059476238788
 30
0.0
 11
228.5697742270185
 21
296.4059476238788
 31
0.0
 70
    32
  1
58リフト5
 71
     5
 42
-1.0
 53
0.00013888888889
  3
ME10_DIM_12
100
AcDbAlignedDimension
 13
257.3197742270185
 23
240.9059476238788
 33
0.0
 14
199.8197742270184
 24
276.9059476238788
 34
0.0
100
AcDbRotatedDimension
  0
DIMENSION
  5
462
330
1F
100
AcDbEntity
  8
0
100
AcDbDimension
  2
*D19
 10
64.81977422701857
 20
373.6760336289304
 30
0.0
 11
59.31977422701858
 21
352.176033628931
 31
0.0
 70
    32
  1
<>
 71
     5
 42
-1.0
 53
90.0
  3
ME10_DIM_13
100
AcDbAlignedDimension
 13
96.06977422701856
 23
330.6760336289303
 33
0.0
 14
98.06977422701856
 24
373.6760336289303
 34
0.0
 50
90.0
100
AcDbRotatedDimension
  0
DIMENSION
  5
46D
330
1F
100
AcDbEntity
  8
1
100
AcDbDimension
  2
*D20
 10
183.8947742270186
 20
215.1559476238788
 30
0.0
 11
143.8947742270186
 21
220.6559476238788
 31
0.0
 70
    32
  1
<>
 71
     5
 42
-1.0
 53
0.00013888888889
  3
ME10_DIM_14
100
AcDbAlignedDimension
 13
103.8947742270186
 23
238.3559476238788
 33
0.0
 14
183.8947742270186
 24
238.3559476238788
 34
0.0
100
AcDbRotatedDimension
  0
DIMENSION
  5
478
330
1F
100
AcDbEntity
  8
0
100
AcDbDimension
  2
*D21
 10
277.3197742270185
 20
240.9059476238788
 30
0.0
 11
271.8197742270185
 21
206.2564285710404
 31
0.0
 70
    32
  1
69
 71
     5
 42
-1.0
 53
90.0
  3
ME10_DIM_15
100
AcDbAlignedDimension
 13
213.0697742270185
 23
171.606909518202
 33
0.0
 14
260.3197402454803
 24
240.9059476238788
 34
0.0
 50
90.0
100
AcDbRotatedDimension
  0
ENDSEC
  0
SECTION
  2
OBJECTS
  0
DICTIONARY
  5
C
330
0
100
AcDbDictionary
281
     1
  3
ACAD_GROUP
350
D
  3
ACAD_LAYOUT
350
1A
  3
ACAD_MATERIAL
350
3B
  3
ACAD_MLEADERSTYLE
350
47B
  3
ACAD_MLINESTYLE
350
17
  3
ACAD_PLOTSETTINGS
350
19
  3
ACAD_PLOTSTYLENAME
350
E
  3
ACAD_VISUALSTYLE
350
2A
  3
AcDbVariableDictionary
350
479
  0
DICTIONARY
  5
D
102
{ACAD_REACTORS
330
C
102
}
330
C
100
AcDbDictionary
281
     1
  0
DICTIONARY
  5
1A
102
{ACAD_REACTORS
330
C
102
}
330
C
100
AcDbDictionary
281
     1
  3
Layout1
350
1E
  3
Layout2
350
26
  3
Model
350
22
  0
DICTIONARY
  5
3B
102
{ACAD_REACTORS
330
C
102
}
330
C
100
AcDbDictionary
281
     1
  3
ByBlock
350
3D
  3
ByLayer
350
3C
  3
Global
350
3E
  0
DICTIONARY
  5
47B
102
{ACAD_REACTORS
330
C
102
}
330
C
100
AcDbDictionary
281
     1
  0
DICTIONARY
  5
17
102
{ACAD_REACTORS
330
C
102
}
330
C
100
AcDbDictionary
281
     1
  3
Standard
350
18
  0
DICTIONARY
  5
19
102
{ACAD_REACTORS
330
C
102
}
330
C
100
AcDbDictionary
281
     1
  0
ACDBDICTIONARYWDFLT
  5
E
102
{ACAD_REACTORS
330
C
102
}
330
C
100
AcDbDictionary
281
     1
  3
Normal
350
F
100
AcDbDictionaryWithDefault
340
F
  0
DICTIONARY
  5
2A
102
{ACAD_REACTORS
330
C
102
}
330
C
100
AcDbDictionary
281
     1
  3
2dWireframe
350
2F
  3
3D Hidden
350
31
  3
3dWireframe
350
30
  3
Basic
350
32
  3
Brighten
350
36
  3
ColorChange
350
3A
  3
Conceptual
350
34
  3
Dim
350
35
  3
Facepattern
350
39
  3
Flat
350
2B
  3
FlatWithEdges
350
2C
  3
Gouraud
350
2D
  3
GouraudWithEdges
350
2E
  3
Linepattern
350
38
  3
Realistic
350
33
  3
Thicken
350
37
  0
DICTIONARY
  5
479
102
{ACAD_REACTORS
330
C
102
}
330
C
100
AcDbDictionary
281
     1
  3
DIMASSOC
350
47C
  3
HIDETEXT
350
47D
  0
LAYOUT
  5
1E
102
{ACAD_REACTORS
330
1A
102
}
330
1A
100
AcDbPlotSettings
  1

  2
none_device
  4

  6

 40
0.0
 41
0.0
 42
0.0
 43
0.0
 44
0.0
 45
0.0
 46
0.0
 47
0.0
 48
0.0
 49
0.0
140
0.0
141
0.0
142
1.0
143
1.0
 70
   688
 72
     0
 73
     0
 74
     5
  7

 75
    16
147
1.0
148
0.0
149
0.0
100
AcDbLayout
  1
Layout1
 70
     1
 71
     1
 10
0.0
 20
0.0
 11
12.0
 21
9.0
 12
0.0
 22
0.0
 32
0.0
 14
1.00000000000000E+20
 24
1.00000000000000E+20
 34
1.00000000000000E+20
 15
-1.00000000000000E+20
 25
-1.00000000000000E+20
 35
-1.00000000000000E+20
146
0.0
 13
0.0
 23
0.0
 33
0.0
 16
1.0
 26
0.0
 36
0.0
 17
0.0
 27
1.0
 37
0.0
 76
     0
330
1B
  0
LAYOUT
  5
26
102
{ACAD_REACTORS
330
1A
102
}
330
1A
100
AcDbPlotSettings
  1

  2
none_device
  4

  6

 40
0.0
 41
0.0
 42
0.0
 43
0.0
 44
0.0
 45
0.0
 46
0.0
 47
0.0
 48
0.0
 49
0.0
140
0.0
141
0.0
142
1.0
143
1.0
 70
   688
 72
     0
 73
     0
 74
     5
  7

 75
    16
147
1.0
148
0.0
149
0.0
100
AcDbLayout
  1
Layout2
 70
     1
 71
     2
 10
0.0
 20
0.0
 11
0.0
 21
0.0
 12
0.0
 22
0.0
 32
0.0
 14
0.0
 24
0.0
 34
0.0
 15
0.0
 25
0.0
 35
0.0
146
0.0
 13
0.0
 23
0.0
 33
0.0
 16
1.0
 26
0.0
 36
0.0
 17
0.0
 27
1.0
 37
0.0
 76
     0
330
23
  0
LAYOUT
  5
22
102
{ACAD_REACTORS
330
1A
102
}
330
1A
100
AcDbPlotSettings
  1

  2
none_device
  4

  6

 40
0.0
 41
0.0
 42
0.0
 43
0.0
 44
0.0
 45
0.0
 46
0.0
 47
0.0
 48
0.0
 49
0.0
140
0.0
141
0.0
142
1.0
143
1.0
 70
  1712
 72
     0
 73
     0
 74
     0
  7

 75
     0
147
1.0
148
0.0
149
0.0
100
AcDbLayout
  1
Model
 70
     1
 71
     0
 10
0.0
 20
0.0
 11
12.0
 21
9.0
 12
0.0
 22
0.0
 32
0.0
 14
0.0
 24
0.0
 34
0.0
 15
420.0
 25
594.0
 35
0.0
146
0.0
 13
0.0
 23
0.0
 33
0.0
 16
1.0
 26
0.0
 36
0.0
 17
0.0
 27
1.0
 37
0.0
 76
     0
330
1F
331
29
  0
MATERIAL
  5
3D
102
{ACAD_REACTORS
330
3B
102
}
102
{ACAD_XDICTIONARY
360
4A0
102
}
330
3B
100
AcDbMaterial
  1
ByBlock
  0
MATERIAL
  5
3C
102
{ACAD_REACTORS
330
3B
102
}
102
{ACAD_XDICTIONARY
360
49E
102
}
330
3B
100
AcDbMaterial
  1
ByLayer
  0
MATERIAL
  5
3E
102
{ACAD_REACTORS
330
3B
102
}
102
{ACAD_XDICTIONARY
360
4A2
102
}
330
3B
100
AcDbMaterial
  1
Global
  0
MLINESTYLE
  5
18
102
{ACAD_REACTORS
330
17
102
}
330
17
100
AcDbMlineStyle
  2
Standard
 70
     0
  3

 62
   256
 51
90.0
 52
90.0
 71
     2
 49
0.5
 62
   256
  6
BYLAYER
 49
-0.5
 62
   256
  6
BYLAYER
  0
ACDBPLACEHOLDER
  5
F
102
{ACAD_REACTORS
330
E
102
}
330
E
  0
VISUALSTYLE
  5
2F
102
{ACAD_REACTORS
330
2A
102
}
102
{ACAD_XDICTIONARY
360
486
102
}
330
2A
100
AcDbVisualStyle
  2
2dWireframe
 70
     4
 71
     0
 72
     2
 73
     0
 90
        0
 40
-0.6
 41
-30.0
 62
     5
 63
     7
 74
     1
 91
        4
 64
     7
 65
   257
 75
     1
175
     1
 42
1.0
 92
        0
 66
   257
 43
1.0
 76
     1
 77
     6
 78
     2
 67
     7
 79
     5
170
     0
171
     0
290
     0
174
     0
 93
        1
 44
0.0
173
     0
291
     0
 45
0.0
1001
ACAD
1000
AcDbSavedByObjectVersion
1070
     0
  0
VISUALSTYLE
  5
31
102
{ACAD_REACTORS
330
2A
102
}
102
{ACAD_XDICTIONARY
360
48A
102
}
330
2A
100
AcDbVisualStyle
  2
3D Hidden
 70
     6
 71
     1
 72
     2
 73
     2
 90
        0
 40
-0.6
 41
-30.0
 62
     5
 63
     7
 74
     2
 91
        2
 64
     7
 65
   257
 75
     2
175
     1
 42
40.0
 92
        0
 66
   257
 43
1.0
 76
     1
 77
     6
 78
     2
 67
     7
 79
     3
170
     0
171
     0
290
     0
174
     0
 93
        1
 44
0.0
173
     0
291
     0
 45
0.0
1001
ACAD
1000
AcDbSavedByObjectVersion
1070
     0
  0
VISUALSTYLE
  5
30
102
{ACAD_REACTORS
330
2A
102
}
102
{ACAD_XDICTIONARY
360
488
102
}
330
2A
100
AcDbVisualStyle
  2
3dWireframe
 70
     5
 71
     0
 72
     2
 73
     0
 90
        0
 40
-0.6
 41
-30.0
 62
     5
 63
     7
 74
     1
 91
        4
 64
     7
 65
   257
 75
     1
175
     1
 42
1.0
 92
        0
 66
   257
 43
1.0
 76
     1
 77
     6
 78
     2
 67
     7
 79
     5
170
     0
171
     0
290
     0
174
     0
 93
        1
 44
0.0
173
     0
291
     0
 45
0.0
1001
ACAD
1000
AcDbSavedByObjectVersion
1070
     0
  0
VISUALSTYLE
  5
32
102
{ACAD_REACTORS
330
2A
102
}
102
{ACAD_XDICTIONARY
360
48C
102
}
330
2A
100
AcDbVisualStyle
  2
Basic
 70
     7
 71
     1
 72
     0
 73
     1
 90
        0
 40
-0.6
 41
-30.0
 62
     5
 63
     7
 74
     0
 91
        4
 64
     7
 65
   257
 75
     1
175
     1
 42
1.0
 92
        8
 66
     7
 43
1.0
 76
     1
 77
     6
 78
     2
 67
     7
 79
     5
170
     0
171
     0
290
     0
174
     0
 93
        1
 44
0.0
173
     0
291
     1
 45
0.0
1001
ACAD
1000
AcDbSavedByObjectVersion
1070
     0
  0
VISUALSTYLE
  5
36
102
{ACAD_REACTORS
330
2A
102
}
102
{ACAD_XDICTIONARY
360
494
102
}
330
2A
100
AcDbVisualStyle
  2
Brighten
 70
    12
 71
     2
 72
     2
 73
     0
 90
        0
 40
-0.6
 41
-30.0
 62
     5
 63
     7
 74
     1
 91
        4
 64
     7
 65
   257
 75
     1
175
     1
 42
1.0
 92
        8
 66
     7
 43
1.0
 76
     1
 77
     6
 78
     2
 67
     7
 79
     5
170
     0
171
     0
290
     0
174
     0
 93
        1
 44
50.0
173
     0
291
     1
 45
0.0
1001
ACAD
1000
AcDbSavedByObjectVersion
1070
     0
  0
VISUALSTYLE
  5
3A
102
{ACAD_REACTORS
330
2A
102
}
102
{ACAD_XDICTIONARY
360
49C
102
}
330
2A
100
AcDbVisualStyle
  2
ColorChange
 70
    16
 71
     2
 72
     2
 73
     3
 90
        0
 40
-0.6
 41
-30.0
 62
     5
 63
     8
 74
     1
 91
        4
 64
     7
 65
   257
 75
     1
175
     1
 42
1.0
 92
        8
 66
     8
 43
1.0
 76
     1
 77
     6
 78
     2
 67
     7
 79
     5
170
     0
171
     0
290
     0
174
     0
 93
        1
 44
0.0
173
     0
291
     1
 45
0.0
1001
ACAD
1000
AcDbSavedByObjectVersion
1070
     0
  0
VISUALSTYLE
  5
34
102
{ACAD_REACTORS
330
2A
102
}
102
{ACAD_XDICTIONARY
360
490
102
}
330
2A
100
AcDbVisualStyle
  2
Conceptual
 70
     9
 71
     3
 72
     2
 73
     0
 90
        0
 40
-0.6
 41
-30.0
 62
     5
 63
     7
 74
     2
 91
        2
 64
     7
 65
   257
 75
     1
175
     1
 42
40.0
 92
        8
 66
     7
 43
1.0
 76
     1
 77
     6
 78
     2
 67
     7
 79
     3
170
     0
171
     0
290
     0
174
     0
 93
        1
 44
0.0
173
     0
291
     0
 45
0.0
1001
ACAD
1000
AcDbSavedByObjectVersion
1070
     0
  0
VISUALSTYLE
  5
35
102
{ACAD_REACTORS
330
2A
102
}
102
{ACAD_XDICTIONARY
360
492
102
}
330
2A
100
AcDbVisualStyle
  2
Dim
 70
    11
 71
     2
 72
     2
 73
     0
 90
        0
 40
-0.6
 41
-30.0
 62
     5
 63
     7
 74
     1
 91
        4
 64
     7
 65
   257
 75
     1
175
     1
 42
1.0
 92
        8
 66
     7
 43
1.0
 76
     1
 77
     6
 78
     2
 67
     7
 79
     5
170
     0
171
     0
290
     0
174
     0
 93
        1
 44
-50.0
173
     0
291
     1
 45
0.0
1001
ACAD
1000
AcDbSavedByObjectVersion
1070
     0
  0
VISUALSTYLE
  5
39
102
{ACAD_REACTORS
330
2A
102
}
102
{ACAD_XDICTIONARY
360
49A
102
}
330
2A
100
AcDbVisualStyle
  2
Facepattern
 70
    15
 71
     2
 72
     2
 73
     0
 90
        0
 40
-0.6
 41
-30.0
 62
     5
 63
     7
 74
     1
 91
        4
 64
     7
 65
   257
 75
     1
175
     1
 42
1.0
 92
        8
 66
     7
 43
1.0
 76
     1
 77
     6
 78
     2
 67
     7
 79
     5
170
     0
171
     0
290
     0
174
     0
 93
        1
 44
0.0
173
     0
291
     1
 45
0.0
1001
ACAD
1000
AcDbSavedByObjectVersion
1070
     0
  0
VISUALSTYLE
  5
2B
102
{ACAD_REACTORS
330
2A
102
}
102
{ACAD_XDICTIONARY
360
47E
102
}
330
2A
100
AcDbVisualStyle
  2
Flat
 70
     0
 71
     2
 72
     1
 73
     1
 90
        2
 40
-0.6
 41
30.0
 62
     5
 63
     7
 74
     0
 91
        4
 64
     7
 65
   257
 75
     1
175
     1
 42
1.0
 92
        8
 66
     7
 43
1.0
 76
     1
 77
     6
 78
     2
 67
     7
 79
     5
170
     0
171
     0
290
     0
174
     0
 93
       13
 44
0.0
173
     0
291
     1
 45
0.0
1001
ACAD
1000
AcDbSavedByObjectVersion
1070
     0
  0
VISUALSTYLE
  5
2C
102
{ACAD_REACTORS
330
2A
102
}
102
{ACAD_XDICTIONARY
360
480
102
}
330
2A
100
AcDbVisualStyle
  2
FlatWithEdges
 70
     1
 71
     2
 72
     1
 73
     1
 90
        2
 40
-0.6
 41
30.0
 62
     5
 63
     7
 74
     1
 91
        4
 64
     7
 65
   257
 75
     1
175
     1
 42
1.0
 92
        0
 66
   257
 43
1.0
 76
     1
 77
     6
 78
     2
 67
     7
 79
     5
170
     0
171
     0
290
     0
174
     0
 93
       13
 44
0.0
173
     0
291
     1
 45
0.0
1001
ACAD
1000
AcDbSavedByObjectVersion
1070
     0
  0
VISUALSTYLE
  5
2D
102
{ACAD_REACTORS
330
2A
102
}
102
{ACAD_XDICTIONARY
360
482
102
}
330
2A
100
AcDbVisualStyle
  2
Gouraud
 70
     2
 71
     2
 72
     2
 73
     1
 90
        2
 40
-0.6
 41
30.0
 62
     5
 63
     7
 74
     0
 91
        4
 64
     7
 65
   257
 75
     1
175
     1
 42
1.0
 92
        0
 66
     7
 43
1.0
 76
     1
 77
     6
 78
     2
 67
     7
 79
     5
170
     0
171
     0
290
     0
174
     0
 93
       13
 44
0.0
173
     0
291
     1
 45
0.0
1001
ACAD
1000
AcDbSavedByObjectVersion
1070
     0
  0
VISUALSTYLE
  5
2E
102
{ACAD_REACTORS
330
2A
102
}
102
{ACAD_XDICTIONARY
360
484
102
}
330
2A
100
AcDbVisualStyle
  2
GouraudWithEdges
 70
     3
 71
     2
 72
     2
 73
     1
 90
        2
 40
-0.6
 41
30.0
 62
     5
 63
     7
 74
     1
 91
        4
 64
     7
 65
   257
 75
     1
175
     1
 42
1.0
 92
        0
 66
   257
 43
1.0
 76
     1
 77
     6
 78
     2
 67
     7
 79
     5
170
     0
171
     0
290
     0
174
     0
 93
       13
 44
0.0
173
     0
291
     1
 45
0.0
1001
ACAD
1000
AcDbSavedByObjectVersion
1070
     0
  0
VISUALSTYLE
  5
38
102
{ACAD_REACTORS
330
2A
102
}
102
{ACAD_XDICTIONARY
360
498
102
}
330
2A
100
AcDbVisualStyle
  2
Linepattern
 70
    14
 71
     2
 72
     2
 73
     0
 90
        0
 40
-0.6
 41
-30.0
 62
     5
 63
     7
 74
     1
 91
        4
 64
     7
 65
   257
 75
     7
175
     7
 42
1.0
 92
        8
 66
     7
 43
1.0
 76
     1
 77
     6
 78
     2
 67
     7
 79
     5
170
     0
171
     0
290
     0
174
     0
 93
        1
 44
0.0
173
     0
291
     1
 45
0.0
1001
ACAD
1000
AcDbSavedByObjectVersion
1070
     0
  0
VISUALSTYLE
  5
33
102
{ACAD_REACTORS
330
2A
102
}
102
{ACAD_XDICTIONARY
360
48E
102
}
330
2A
100
AcDbVisualStyle
  2
Realistic
 70
     8
 71
     2
 72
     2
 73
     0
 90
        0
 40
-0.6
 41
-30.0
 62
     5
 63
     7
 74
     1
 91
        0
 64
     7
 65
   257
 75
     1
175
     1
 42
1.0
 92
        8
 66
     8
 43
1.0
 76
     1
 77
     6
 78
     2
 67
     7
 79
     5
170
     0
171
     0
290
     0
174
     0
 93
       13
 44
0.0
173
     0
291
     0
 45
0.0
1001
ACAD
1000
AcDbSavedByObjectVersion
1070
     0
  0
VISUALSTYLE
  5
37
102
{ACAD_REACTORS
330
2A
102
}
102
{ACAD_XDICTIONARY
360
496
102
}
330
2A
100
AcDbVisualStyle
  2
Thicken
 70
    13
 71
     2
 72
     2
 73
     0
 90
        0
 40
-0.6
 41
-30.0
 62
     5
 63
     7
 74
     1
 91
        4
 64
     7
 65
   257
 75
     1
175
     1
 42
1.0
 92
       12
 66
     7
 43
1.0
 76
     1
 77
     6
 78
     2
 67
     7
 79
     5
170
     0
171
     0
290
     0
174
     0
 93
        1
 44
0.0
173
     0
291
     1
 45
0.0
1001
ACAD
1000
AcDbSavedByObjectVersion
1070
     0
  0
DICTIONARYVAR
  5
47C
102
{ACAD_REACTORS
330
479
102
}
330
479
100
DictionaryVariables
280
     0
  1
2
  0
DICTIONARYVAR
  5
47D
102
{ACAD_REACTORS
330
479
102
}
330
479
100
DictionaryVariables
280
     0
  1
1
  0
DICTIONARY
  5
4A0
330
3D
100
AcDbDictionary
280
     1
281
     1
  3
ACAD_XREC_ROUNDTRIP
360
4A1
  0
DICTIONARY
  5
49E
330
3C
100
AcDbDictionary
280
     1
281
     1
  3
ACAD_XREC_ROUNDTRIP
360
49F
  0
DICTIONARY
  5
4A2
330
3E
100
AcDbDictionary
280
     1
281
     1
  3
ACAD_XREC_ROUNDTRIP
360
4A3
  0
DICTIONARY
  5
486
330
2F
100
AcDbDictionary
280
     1
281
     1
  3
ACAD_XREC_ROUNDTRIP
360
487
  0
DICTIONARY
  5
48A
330
31
100
AcDbDictionary
280
     1
281
     1
  3
ACAD_XREC_ROUNDTRIP
360
48B
  0
DICTIONARY
  5
488
330
30
100
AcDbDictionary
280
     1
281
     1
  3
ACAD_XREC_ROUNDTRIP
360
489
  0
DICTIONARY
  5
48C
330
32
100
AcDbDictionary
280
     1
281
     1
  3
ACAD_XREC_ROUNDTRIP
360
48D
  0
DICTIONARY
  5
494
330
36
100
AcDbDictionary
280
     1
281
     1
  3
ACAD_XREC_ROUNDTRIP
360
495
  0
DICTIONARY
  5
49C
330
3A
100
AcDbDictionary
280
     1
281
     1
  3
ACAD_XREC_ROUNDTRIP
360
49D
  0
DICTIONARY
  5
490
330
34
100
AcDbDictionary
280
     1
281
     1
  3
ACAD_XREC_ROUNDTRIP
360
491
  0
DICTIONARY
  5
492
330
35
100
AcDbDictionary
280
     1
281
     1
  3
ACAD_XREC_ROUNDTRIP
360
493
  0
DICTIONARY
  5
49A
330
39
100
AcDbDictionary
280
     1
281
     1
  3
ACAD_XREC_ROUNDTRIP
360
49B
  0
DICTIONARY
  5
47E
330
2B
100
AcDbDictionary
280
     1
281
     1
  3
ACAD_XREC_ROUNDTRIP
360
47F
  0
DICTIONARY
  5
480
330
2C
100
AcDbDictionary
280
     1
281
     1
  3
ACAD_XREC_ROUNDTRIP
360
481
  0
DICTIONARY
  5
482
330
2D
100
AcDbDictionary
280
     1
281
     1
  3
ACAD_XREC_ROUNDTRIP
360
483
  0
DICTIONARY
  5
484
330
2E
100
AcDbDictionary
280
     1
281
     1
  3
ACAD_XREC_ROUNDTRIP
360
485
  0
DICTIONARY
  5
498
330
38
100
AcDbDictionary
280
     1
281
     1
  3
ACAD_XREC_ROUNDTRIP
360
499
  0
DICTIONARY
  5
48E
330
33
100
AcDbDictionary
280
     1
281
     1
  3
ACAD_XREC_ROUNDTRIP
360
48F
  0
DICTIONARY
  5
496
330
37
100
AcDbDictionary
280
     1
281
     1
  3
ACAD_XREC_ROUNDTRIP
360
497
  0
XRECORD
  5
4A1
102
{ACAD_REACTORS
330
4A0
102
}
330
4A0
100
AcDbXrecord
280
     1
102
MATERIAL
148
0.0
149
0.0
149
0.0
 93
        0
 94
      127
282
     0
 72
     1
 77
     1
171
     1
175
     1
179
     1
273
     0
  0
XRECORD
  5
49F
102
{ACAD_REACTORS
330
49E
102
}
330
49E
100
AcDbXrecord
280
     1
102
MATERIAL
148
0.0
149
0.0
149
0.0
 93
        0
 94
      127
282
     0
 72
     1
 77
     1
171
     1
175
     1
179
     1
273
     0
  0
XRECORD
  5
4A3
102
{ACAD_REACTORS
330
4A2
102
}
330
4A2
100
AcDbXrecord
280
     1
102
MATERIAL
148
0.0
149
0.0
149
0.0
 93
        0
 94
      127
282
     0
 72
     1
 77
     1
171
     1
175
     1
179
     1
273
     0
  0
XRECORD
  5
487
102
{ACAD_REACTORS
330
486
102
}
330
486
100
AcDbXrecord
280
     1
102
RTVSPropertyOp0
 70
     1
102
RTVSPropertyOp1
 70
     1
102
RTVSPropertyOp2
 70
     1
102
RTVSPropertyOp3
 70
     1
102
RTVSPropertyOp4
 70
     1
102
RTVSPropertyOp5
 70
     1
102
RTVSPropertyOp6
 70
     1
102
RTVSPropertyOp7
 70
     1
102
RTVSPropertyOp8
 70
     1
102
RTVSPropertyOp9
 70
     1
102
RTVSPropertyOp10
 70
     1
102
RTVSPropertyOp11
 70
     1
102
RTVSPropertyOp12
 70
     1
102
RTVSPropertyOp13
 70
     1
102
RTVSPropertyOp14
 70
     1
102
RTVSPropertyOp15
 70
     1
102
RTVSPropertyOp16
 70
     1
102
RTVSPropertyOp17
 70
     1
102
RTVSPropertyOp18
 70
     1
102
RTVSPropertyOp19
 70
     1
102
RTVSPropertyOp20
 70
     1
102
RTVSPropertyOp21
 70
     1
102
RTVSPropertyOp22
 70
     1
102
RTVSPropertyOp23
 70
     1
102
RTVSPropertyOp24
 70
     1
102
RTVSPropertyOp25
 70
     1
102
RTVSPropertyOp26
 70
     1
102
RTVSPropertyOp27
 70
     1
102
RTVSPropertyOp28
 70
     1
102
RTVSPropertyOp29
 70
     1
102
RTVSPropertyOp30
 70
     1
102
RTVSPropertyOp31
 70
     1
102
RTVSPropertyOp32
 70
     1
  0
XRECORD
  5
48B
102
{ACAD_REACTORS
330
48A
102
}
330
48A
100
AcDbXrecord
280
     1
102
RTVSPropertyOp0
 70
     1
102
RTVSPropertyOp1
 70
     1
102
RTVSPropertyOp2
 70
     1
102
RTVSPropertyOp3
 70
     1
102
RTVSPropertyOp4
 70
     1
102
RTVSPropertyOp5
 70
     1
102
RTVSPropertyOp6
 70
     1
102
RTVSPropertyOp7
 70
     1
102
RTVSPropertyOp8
 70
     1
102
RTVSPropertyOp9
 70
     1
102
RTVSPropertyOp10
 70
     1
102
RTVSPropertyOp11
 70
     1
102
RTVSPropertyOp12
 70
     1
102
RTVSPropertyOp13
 70
     1
102
RTVSPropertyOp14
 70
     1
102
RTVSPropertyOp15
 70
     1
102
RTVSPropertyOp16
 70
     1
102
RTVSPropertyOp17
 70
     1
102
RTVSPropertyOp18
 70
     1
102
RTVSPropertyOp19
 70
     1
102
RTVSPropertyOp20
 70
     1
102
RTVSPropertyOp21
 70
     1
102
RTVSPropertyOp22
 70
     1
102
RTVSPropertyOp23
 70
     1
102
RTVSPropertyOp24
 70
     1
102
RTVSPropertyOp25
 70
     1
102
RTVSPropertyOp26
 70
     1
102
RTVSPropertyOp27
 70
     1
102
RTVSPropertyOp28
 70
     1
102
RTVSPropertyOp29
 70
     1
102
RTVSPropertyOp30
 70
     1
102
RTVSPropertyOp31
 70
     1
102
RTVSPropertyOp32
 70
     1
  0
XRECORD
  5
489
102
{ACAD_REACTORS
330
488
102
}
330
488
100
AcDbXrecord
280
     1
102
RTVSPropertyOp0
 70
     1
102
RTVSPropertyOp1
 70
     1
102
RTVSPropertyOp2
 70
     1
102
RTVSPropertyOp3
 70
     1
102
RTVSPropertyOp4
 70
     1
102
RTVSPropertyOp5
 70
     1
102
RTVSPropertyOp6
 70
     1
102
RTVSPropertyOp7
 70
     1
102
RTVSPropertyOp8
 70
     1
102
RTVSPropertyOp9
 70
     1
102
RTVSPropertyOp10
 70
     1
102
RTVSPropertyOp11
 70
     1
102
RTVSPropertyOp12
 70
     1
102
RTVSPropertyOp13
 70
     1
102
RTVSPropertyOp14
 70
     1
102
RTVSPropertyOp15
 70
     1
102
RTVSPropertyOp16
 70
     1
102
RTVSPropertyOp17
 70
     1
102
RTVSPropertyOp18
 70
     1
102
RTVSPropertyOp19
 70
     1
102
RTVSPropertyOp20
 70
     1
102
RTVSPropertyOp21
 70
     1
102
RTVSPropertyOp22
 70
     1
102
RTVSPropertyOp23
 70
     1
102
RTVSPropertyOp24
 70
     1
102
RTVSPropertyOp25
 70
     1
102
RTVSPropertyOp26
 70
     1
102
RTVSPropertyOp27
 70
     1
102
RTVSPropertyOp28
 70
     1
102
RTVSPropertyOp29
 70
     1
102
RTVSPropertyOp30
 70
     1
102
RTVSPropertyOp31
 70
     1
102
RTVSPropertyOp32
 70
     1
  0
XRECORD
  5
48D
102
{ACAD_REACTORS
330
48C
102
}
330
48C
100
AcDbXrecord
280
     1
102
RTVSPropertyOp0
 70
     1
102
RTVSPropertyOp1
 70
     1
102
RTVSPropertyOp2
 70
     1
102
RTVSPropertyOp3
 70
     1
102
RTVSPropertyOp4
 70
     1
102
RTVSPropertyOp5
 70
     1
102
RTVSPropertyOp6
 70
     1
102
RTVSPropertyOp7
 70
     1
102
RTVSPropertyOp8
 70
     1
102
RTVSPropertyOp9
 70
     1
102
RTVSPropertyOp10
 70
     1
102
RTVSPropertyOp11
 70
     1
102
RTVSPropertyOp12
 70
     1
102
RTVSPropertyOp13
 70
     1
102
RTVSPropertyOp14
 70
     1
102
RTVSPropertyOp15
 70
     1
102
RTVSPropertyOp16
 70
     1
102
RTVSPropertyOp17
 70
     1
102
RTVSPropertyOp18
 70
     1
102
RTVSPropertyOp19
 70
     1
102
RTVSPropertyOp20
 70
     1
102
RTVSPropertyOp21
 70
     1
102
RTVSPropertyOp22
 70
     1
102
RTVSPropertyOp23
 70
     1
102
RTVSPropertyOp24
 70
     1
102
RTVSPropertyOp25
 70
     1
102
RTVSPropertyOp26
 70
     1
102
RTVSPropertyOp27
 70
     1
102
RTVSPropertyOp28
 70
     1
102
RTVSPropertyOp29
 70
     1
102
RTVSPropertyOp30
 70
     1
102
RTVSPropertyOp31
 70
     1
102
RTVSPropertyOp32
 70
     1
  0
XRECORD
  5
495
102
{ACAD_REACTORS
330
494
102
}
330
494
100
AcDbXrecord
280
     1
102
RTVSPropertyOp0
 70
     1
102
RTVSPropertyOp1
 70
     1
102
RTVSPropertyOp2
 70
     1
102
RTVSPropertyOp3
 70
     1
102
RTVSPropertyOp4
 70
     1
102
RTVSPropertyOp5
 70
     1
102
RTVSPropertyOp6
 70
     1
102
RTVSPropertyOp7
 70
     1
102
RTVSPropertyOp8
 70
     1
102
RTVSPropertyOp9
 70
     1
102
RTVSPropertyOp10
 70
     1
102
RTVSPropertyOp11
 70
     1
102
RTVSPropertyOp12
 70
     1
102
RTVSPropertyOp13
 70
     1
102
RTVSPropertyOp14
 70
     1
102
RTVSPropertyOp15
 70
     1
102
RTVSPropertyOp16
 70
     1
102
RTVSPropertyOp17
 70
     1
102
RTVSPropertyOp18
 70
     1
102
RTVSPropertyOp19
 70
     1
102
RTVSPropertyOp20
 70
     1
102
RTVSPropertyOp21
 70
     1
102
RTVSPropertyOp22
 70
     1
102
RTVSPropertyOp23
 70
     1
102
RTVSPropertyOp24
 70
     1
102
RTVSPropertyOp25
 70
     1
102
RTVSPropertyOp26
 70
     1
102
RTVSPropertyOp27
 70
     1
102
RTVSPropertyOp28
 70
     1
102
RTVSPropertyOp29
 70
     1
102
RTVSPropertyOp30
 70
     1
102
RTVSPropertyOp31
 70
     1
102
RTVSPropertyOp32
 70
     1
  0
XRECORD
  5
49D
102
{ACAD_REACTORS
330
49C
102
}
330
49C
100
AcDbXrecord
280
     1
102
RTVSPropertyOp0
 70
     1
102
RTVSPropertyOp1
 70
     1
102
RTVSPropertyOp2
 70
     1
102
RTVSPropertyOp3
 70
     1
102
RTVSPropertyOp4
 70
     1
102
RTVSPropertyOp5
 70
     1
102
RTVSPropertyOp6
 70
     1
102
RTVSPropertyOp7
 70
     1
102
RTVSPropertyOp8
 70
     1
102
RTVSPropertyOp9
 70
     1
102
RTVSPropertyOp10
 70
     1
102
RTVSPropertyOp11
 70
     1
102
RTVSPropertyOp12
 70
     1
102
RTVSPropertyOp13
 70
     1
102
RTVSPropertyOp14
 70
     1
102
RTVSPropertyOp15
 70
     1
102
RTVSPropertyOp16
 70
     1
102
RTVSPropertyOp17
 70
     1
102
RTVSPropertyOp18
 70
     1
102
RTVSPropertyOp19
 70
     1
102
RTVSPropertyOp20
 70
     1
102
RTVSPropertyOp21
 70
     1
102
RTVSPropertyOp22
 70
     1
102
RTVSPropertyOp23
 70
     1
102
RTVSPropertyOp24
 70
     1
102
RTVSPropertyOp25
 70
     1
102
RTVSPropertyOp26
 70
     1
102
RTVSPropertyOp27
 70
     1
102
RTVSPropertyOp28
 70
     1
102
RTVSPropertyOp29
 70
     1
102
RTVSPropertyOp30
 70
     1
102
RTVSPropertyOp31
 70
     1
102
RTVSPropertyOp32
 70
     1
  0
XRECORD
  5
491
102
{ACAD_REACTORS
330
490
102
}
330
490
100
AcDbXrecord
280
     1
102
RTVSPropertyOp0
 70
     1
102
RTVSPropertyOp1
 70
     1
102
RTVSPropertyOp2
 70
     1
102
RTVSPropertyOp3
 70
     1
102
RTVSPropertyOp4
 70
     1
102
RTVSPropertyOp5
 70
     1
102
RTVSPropertyOp6
 70
     1
102
RTVSPropertyOp7
 70
     1
102
RTVSPropertyOp8
 70
     1
102
RTVSPropertyOp9
 70
     1
102
RTVSPropertyOp10
 70
     1
102
RTVSPropertyOp11
 70
     1
102
RTVSPropertyOp12
 70
     1
102
RTVSPropertyOp13
 70
     1
102
RTVSPropertyOp14
 70
     1
102
RTVSPropertyOp15
 70
     1
102
RTVSPropertyOp16
 70
     1
102
RTVSPropertyOp17
 70
     1
102
RTVSPropertyOp18
 70
     1
102
RTVSPropertyOp19
 70
     1
102
RTVSPropertyOp20
 70
     1
102
RTVSPropertyOp21
 70
     1
102
RTVSPropertyOp22
 70
     1
102
RTVSPropertyOp23
 70
     1
102
RTVSPropertyOp24
 70
     1
102
RTVSPropertyOp25
 70
     1
102
RTVSPropertyOp26
 70
     1
102
RTVSPropertyOp27
 70
     1
102
RTVSPropertyOp28
 70
     1
102
RTVSPropertyOp29
 70
     1
102
RTVSPropertyOp30
 70
     1
102
RTVSPropertyOp31
 70
     1
102
RTVSPropertyOp32
 70
     1
  0
XRECORD
  5
493
102
{ACAD_REACTORS
330
492
102
}
330
492
100
AcDbXrecord
280
     1
102
RTVSPropertyOp0
 70
     1
102
RTVSPropertyOp1
 70
     1
102
RTVSPropertyOp2
 70
     1
102
RTVSPropertyOp3
 70
     1
102
RTVSPropertyOp4
 70
     1
102
RTVSPropertyOp5
 70
     1
102
RTVSPropertyOp6
 70
     1
102
RTVSPropertyOp7
 70
     1
102
RTVSPropertyOp8
 70
     1
102
RTVSPropertyOp9
 70
     1
102
RTVSPropertyOp10
 70
     1
102
RTVSPropertyOp11
 70
     1
102
RTVSPropertyOp12
 70
     1
102
RTVSPropertyOp13
 70
     1
102
RTVSPropertyOp14
 70
     1
102
RTVSPropertyOp15
 70
     1
102
RTVSPropertyOp16
 70
     1
102
RTVSPropertyOp17
 70
     1
102
RTVSPropertyOp18
 70
     1
102
RTVSPropertyOp19
 70
     1
102
RTVSPropertyOp20
 70
     1
102
RTVSPropertyOp21
 70
     1
102
RTVSPropertyOp22
 70
     1
102
RTVSPropertyOp23
 70
     1
102
RTVSPropertyOp24
 70
     1
102
RTVSPropertyOp25
 70
     1
102
RTVSPropertyOp26
 70
     1
102
RTVSPropertyOp27
 70
     1
102
RTVSPropertyOp28
 70
     1
102
RTVSPropertyOp29
 70
     1
102
RTVSPropertyOp30
 70
     1
102
RTVSPropertyOp31
 70
     1
102
RTVSPropertyOp32
 70
     1
  0
XRECORD
  5
49B
102
{ACAD_REACTORS
330
49A
102
}
330
49A
100
AcDbXrecord
280
     1
102
RTVSPropertyOp0
 70
     1
102
RTVSPropertyOp1
 70
     1
102
RTVSPropertyOp2
 70
     1
102
RTVSPropertyOp3
 70
     1
102
RTVSPropertyOp4
 70
     1
102
RTVSPropertyOp5
 70
     1
102
RTVSPropertyOp6
 70
     1
102
RTVSPropertyOp7
 70
     1
102
RTVSPropertyOp8
 70
     1
102
RTVSPropertyOp9
 70
     1
102
RTVSPropertyOp10
 70
     1
102
RTVSPropertyOp11
 70
     1
102
RTVSPropertyOp12
 70
     1
102
RTVSPropertyOp13
 70
     1
102
RTVSPropertyOp14
 70
     1
102
RTVSPropertyOp15
 70
     1
102
RTVSPropertyOp16
 70
     1
102
RTVSPropertyOp17
 70
     1
102
RTVSPropertyOp18
 70
     1
102
RTVSPropertyOp19
 70
     1
102
RTVSPropertyOp20
 70
     1
102
RTVSPropertyOp21
 70
     1
102
RTVSPropertyOp22
 70
     1
102
RTVSPropertyOp23
 70
     1
102
RTVSPropertyOp24
 70
     1
102
RTVSPropertyOp25
 70
     1
102
RTVSPropertyOp26
 70
     1
102
RTVSPropertyOp27
 70
     1
102
RTVSPropertyOp28
 70
     1
102
RTVSPropertyOp29
 70
     1
102
RTVSPropertyOp30
 70
     1
102
RTVSPropertyOp31
 70
     1
102
RTVSPropertyOp32
 70
     1
  0
XRECORD
  5
47F
102
{ACAD_REACTORS
330
47E
102
}
330
47E
100
AcDbXrecord
280
     1
102
RTVSPropertyOp0
 70
     1
102
RTVSPropertyOp1
 70
     1
102
RTVSPropertyOp2
 70
     1
102
RTVSPropertyOp3
 70
     1
102
RTVSPropertyOp4
 70
     1
102
RTVSPropertyOp5
 70
     1
102
RTVSPropertyOp6
 70
     1
102
RTVSPropertyOp7
 70
     1
102
RTVSPropertyOp8
 70
     1
102
RTVSPropertyOp9
 70
     1
102
RTVSPropertyOp10
 70
     1
102
RTVSPropertyOp11
 70
     1
102
RTVSPropertyOp12
 70
     1
102
RTVSPropertyOp13
 70
     1
102
RTVSPropertyOp14
 70
     1
102
RTVSPropertyOp15
 70
     1
102
RTVSPropertyOp16
 70
     1
102
RTVSPropertyOp17
 70
     1
102
RTVSPropertyOp18
 70
     1
102
RTVSPropertyOp19
 70
     1
102
RTVSPropertyOp20
 70
     1
102
RTVSPropertyOp21
 70
     1
102
RTVSPropertyOp22
 70
     1
102
RTVSPropertyOp23
 70
     1
102
RTVSPropertyOp24
 70
     1
102
RTVSPropertyOp25
 70
     1
102
RTVSPropertyOp26
 70
     1
102
RTVSPropertyOp27
 70
     1
102
RTVSPropertyOp28
 70
     1
102
RTVSPropertyOp29
 70
     1
102
RTVSPropertyOp30
 70
     1
102
RTVSPropertyOp31
 70
     1
102
RTVSPropertyOp32
 70
     1
  0
XRECORD
  5
481
102
{ACAD_REACTORS
330
480
102
}
330
480
100
AcDbXrecord
280
     1
102
RTVSPropertyOp0
 70
     1
102
RTVSPropertyOp1
 70
     1
102
RTVSPropertyOp2
 70
     1
102
RTVSPropertyOp3
 70
     1
102
RTVSPropertyOp4
 70
     1
102
RTVSPropertyOp5
 70
     1
102
RTVSPropertyOp6
 70
     1
102
RTVSPropertyOp7
 70
     1
102
RTVSPropertyOp8
 70
     1
102
RTVSPropertyOp9
 70
     1
102
RTVSPropertyOp10
 70
     1
102
RTVSPropertyOp11
 70
     1
102
RTVSPropertyOp12
 70
     1
102
RTVSPropertyOp13
 70
     1
102
RTVSPropertyOp14
 70
     1
102
RTVSPropertyOp15
 70
     1
102
RTVSPropertyOp16
 70
     1
102
RTVSPropertyOp17
 70
     1
102
RTVSPropertyOp18
 70
     1
102
RTVSPropertyOp19
 70
     1
102
RTVSPropertyOp20
 70
     1
102
RTVSPropertyOp21
 70
     1
102
RTVSPropertyOp22
 70
     1
102
RTVSPropertyOp23
 70
     1
102
RTVSPropertyOp24
 70
     1
102
RTVSPropertyOp25
 70
     1
102
RTVSPropertyOp26
 70
     1
102
RTVSPropertyOp27
 70
     1
102
RTVSPropertyOp28
 70
     1
102
RTVSPropertyOp29
 70
     1
102
RTVSPropertyOp30
 70
     1
102
RTVSPropertyOp31
 70
     1
102
RTVSPropertyOp32
 70
     1
  0
XRECORD
  5
483
102
{ACAD_REACTORS
330
482
102
}
330
482
100
AcDbXrecord
280
     1
102
RTVSPropertyOp0
 70
     1
102
RTVSPropertyOp1
 70
     1
102
RTVSPropertyOp2
 70
     1
102
RTVSPropertyOp3
 70
     1
102
RTVSPropertyOp4
 70
     1
102
RTVSPropertyOp5
 70
     1
102
RTVSPropertyOp6
 70
     1
102
RTVSPropertyOp7
 70
     1
102
RTVSPropertyOp8
 70
     1
102
RTVSPropertyOp9
 70
     1
102
RTVSPropertyOp10
 70
     1
102
RTVSPropertyOp11
 70
     1
102
RTVSPropertyOp12
 70
     1
102
RTVSPropertyOp13
 70
     1
102
RTVSPropertyOp14
 70
     1
102
RTVSPropertyOp15
 70
     1
102
RTVSPropertyOp16
 70
     1
102
RTVSPropertyOp17
 70
     1
102
RTVSPropertyOp18
 70
     1
102
RTVSPropertyOp19
 70
     1
102
RTVSPropertyOp20
 70
     1
102
RTVSPropertyOp21
 70
     1
102
RTVSPropertyOp22
 70
     1
102
RTVSPropertyOp23
 70
     1
102
RTVSPropertyOp24
 70
     1
102
RTVSPropertyOp25
 70
     1
102
RTVSPropertyOp26
 70
     1
102
RTVSPropertyOp27
 70
     1
102
RTVSPropertyOp28
 70
     1
102
RTVSPropertyOp29
 70
     1
102
RTVSPropertyOp30
 70
     1
102
RTVSPropertyOp31
 70
     1
102
RTVSPropertyOp32
 70
     1
  0
XRECORD
  5
485
102
{ACAD_REACTORS
330
484
102
}
330
484
100
AcDbXrecord
280
     1
102
RTVSPropertyOp0
 70
     1
102
RTVSPropertyOp1
 70
     1
102
RTVSPropertyOp2
 70
     1
102
RTVSPropertyOp3
 70
     1
102
RTVSPropertyOp4
 70
     1
102
RTVSPropertyOp5
 70
     1
102
RTVSPropertyOp6
 70
     1
102
RTVSPropertyOp7
 70
     1
102
RTVSPropertyOp8
 70
     1
102
RTVSPropertyOp9
 70
     1
102
RTVSPropertyOp10
 70
     1
102
RTVSPropertyOp11
 70
     1
102
RTVSPropertyOp12
 70
     1
102
RTVSPropertyOp13
 70
     1
102
RTVSPropertyOp14
 70
     1
102
RTVSPropertyOp15
 70
     1
102
RTVSPropertyOp16
 70
     1
102
RTVSPropertyOp17
 70
     1
102
RTVSPropertyOp18
 70
     1
102
RTVSPropertyOp19
 70
     1
102
RTVSPropertyOp20
 70
     1
102
RTVSPropertyOp21
 70
     1
102
RTVSPropertyOp22
 70
     1
102
RTVSPropertyOp23
 70
     1
102
RTVSPropertyOp24
 70
     1
102
RTVSPropertyOp25
 70
     1
102
RTVSPropertyOp26
 70
     1
102
RTVSPropertyOp27
 70
     1
102
RTVSPropertyOp28
 70
     1
102
RTVSPropertyOp29
 70
     1
102
RTVSPropertyOp30
 70
     1
102
RTVSPropertyOp31
 70
     1
102
RTVSPropertyOp32
 70
     1
  0
XRECORD
  5
499
102
{ACAD_REACTORS
330
498
102
}
330
498
100
AcDbXrecord
280
     1
102
RTVSPropertyOp0
 70
     1
102
RTVSPropertyOp1
 70
     1
102
RTVSPropertyOp2
 70
     1
102
RTVSPropertyOp3
 70
     1
102
RTVSPropertyOp4
 70
     1
102
RTVSPropertyOp5
 70
     1
102
RTVSPropertyOp6
 70
     1
102
RTVSPropertyOp7
 70
     1
102
RTVSPropertyOp8
 70
     1
102
RTVSPropertyOp9
 70
     1
102
RTVSPropertyOp10
 70
     1
102
RTVSPropertyOp11
 70
     1
102
RTVSPropertyOp12
 70
     1
102
RTVSPropertyOp13
 70
     1
102
RTVSPropertyOp14
 70
     1
102
RTVSPropertyOp15
 70
     1
102
RTVSPropertyOp16
 70
     1
102
RTVSPropertyOp17
 70
     1
102
RTVSPropertyOp18
 70
     1
102
RTVSPropertyOp19
 70
     1
102
RTVSPropertyOp20
 70
     1
102
RTVSPropertyOp21
 70
     1
102
RTVSPropertyOp22
 70
     1
102
RTVSPropertyOp23
 70
     1
102
RTVSPropertyOp24
 70
     1
102
RTVSPropertyOp25
 70
     1
102
RTVSPropertyOp26
 70
     1
102
RTVSPropertyOp27
 70
     1
102
RTVSPropertyOp28
 70
     1
102
RTVSPropertyOp29
 70
     1
102
RTVSPropertyOp30
 70
     1
102
RTVSPropertyOp31
 70
     1
102
RTVSPropertyOp32
 70
     1
  0
XRECORD
  5
48F
102
{ACAD_REACTORS
330
48E
102
}
330
48E
100
AcDbXrecord
280
     1
102
RTVSPropertyOp0
 70
     1
102
RTVSPropertyOp1
 70
     1
102
RTVSPropertyOp2
 70
     1
102
RTVSPropertyOp3
 70
     1
102
RTVSPropertyOp4
 70
     1
102
RTVSPropertyOp5
 70
     1
102
RTVSPropertyOp6
 70
     1
102
RTVSPropertyOp7
 70
     1
102
RTVSPropertyOp8
 70
     1
102
RTVSPropertyOp9
 70
     1
102
RTVSPropertyOp10
 70
     1
102
RTVSPropertyOp11
 70
     1
102
RTVSPropertyOp12
 70
     1
102
RTVSPropertyOp13
 70
     1
102
RTVSPropertyOp14
 70
     1
102
RTVSPropertyOp15
 70
     1
102
RTVSPropertyOp16
 70
     1
102
RTVSPropertyOp17
 70
     1
102
RTVSPropertyOp18
 70
     1
102
RTVSPropertyOp19
 70
     1
102
RTVSPropertyOp20
 70
     1
102
RTVSPropertyOp21
 70
     1
102
RTVSPropertyOp22
 70
     1
102
RTVSPropertyOp23
 70
     1
102
RTVSPropertyOp24
 70
     1
102
RTVSPropertyOp25
 70
     1
102
RTVSPropertyOp26
 70
     1
102
RTVSPropertyOp27
 70
     1
102
RTVSPropertyOp28
 70
     1
102
RTVSPropertyOp29
 70
     1
102
RTVSPropertyOp30
 70
     1
102
RTVSPropertyOp31
 70
     1
102
RTVSPropertyOp32
 70
     1
  0
XRECORD
  5
497
102
{ACAD_REACTORS
330
496
102
}
330
496
100
AcDbXrecord
280
     1
102
RTVSPropertyOp0
 70
     1
102
RTVSPropertyOp1
 70
     1
102
RTVSPropertyOp2
 70
     1
102
RTVSPropertyOp3
 70
     1
102
RTVSPropertyOp4
 70
     1
102
RTVSPropertyOp5
 70
     1
102
RTVSPropertyOp6
 70
     1
102
RTVSPropertyOp7
 70
     1
102
RTVSPropertyOp8
 70
     1
102
RTVSPropertyOp9
 70
     1
102
RTVSPropertyOp10
 70
     1
102
RTVSPropertyOp11
 70
     1
102
RTVSPropertyOp12
 70
     1
102
RTVSPropertyOp13
 70
     1
102
RTVSPropertyOp14
 70
     1
102
RTVSPropertyOp15
 70
     1
102
RTVSPropertyOp16
 70
     1
102
RTVSPropertyOp17
 70
     1
102
RTVSPropertyOp18
 70
     1
102
RTVSPropertyOp19
 70
     1
102
RTVSPropertyOp20
 70
     1
102
RTVSPropertyOp21
 70
     1
102
RTVSPropertyOp22
 70
     1
102
RTVSPropertyOp23
 70
     1
102
RTVSPropertyOp24
 70
     1
102
RTVSPropertyOp25
 70
     1
102
RTVSPropertyOp26
 70
     1
102
RTVSPropertyOp27
 70
     1
102
RTVSPropertyOp28
 70
     1
102
RTVSPropertyOp29
 70
     1
102
RTVSPropertyOp30
 70
     1
102
RTVSPropertyOp31
 70
     1
102
RTVSPropertyOp32
 70
     1
  0
ENDSEC
  0
EOF
