  0
SECTION
  2
HEADER
  9
$ACADVER
  1
AC1015
  9
$ACADMAINTVER
 70
     6
  9
$DWGCODEPAGE
  3
DOS932
  9
$INSBASE
 10
0.0
 20
0.0
 30
0.0
  9
$EXTMIN
 10
0.0
 20
0.0
 30
0.0
  9
$EXTMAX
 10
420.0
 20
594.0
 30
0.0
  9
$LIMMIN
 10
0.0
 20
0.0
  9
$LIMMAX
 10
12.0
 20
9.0
  9
$ORTHOMODE
 70
     0
  9
$REGENMODE
 70
     1
  9
$FILLMODE
 70
     1
  9
$QTEXTMODE
 70
     0
  9
$MIRRTEXT
 70
     1
  9
$LTSCALE
 40
1.0
  9
$ATTMODE
 70
     1
  9
$TEXTSIZE
 40
0.2
  9
$TRACEWID
 40
0.05
  9
$TEXTSTYLE
  7
Standard
  9
$CLAYER
  8
0
  9
$CELTYPE
  6
ByLayer
  9
$CECOLOR
 62
   256
  9
$CELTSCALE
 40
1.0
  9
$DISPSILH
 70
     0
  9
$DIMSCALE
 40
1.0
  9
$DIMASZ
 40
0.18
  9
$DIMEXO
 40
0.0625
  9
$DIMDLI
 40
0.38
  9
$DIMRND
 40
0.0
  9
$DIMDLE
 40
0.0
  9
$DIMEXE
 40
0.18
  9
$DIMTP
 40
0.0
  9
$DIMTM
 40
0.0
  9
$DIMTXT
 40
0.18
  9
$DIMCEN
 40
0.09
  9
$DIMTSZ
 40
0.0
  9
$DIMTOL
 70
     0
  9
$DIMLIM
 70
     0
  9
$DIMTIH
 70
     1
  9
$DIMTOH
 70
     1
  9
$DIMSE1
 70
     0
  9
$DIMSE2
 70
     0
  9
$DIMTAD
 70
     0
  9
$DIMZIN
 70
     0
  9
$DIMBLK
  1

  9
$DIMASO
 70
     1
  9
$DIMSHO
 70
     1
  9
$DIMPOST
  1

  9
$DIMAPOST
  1

  9
$DIMALT
 70
     0
  9
$DIMALTD
 70
     2
  9
$DIMALTF
 40
25.4
  9
$DIMLFAC
 40
1.0
  9
$DIMTOFL
 70
     0
  9
$DIMTVP
 40
0.0
  9
$DIMTIX
 70
     0
  9
$DIMSOXD
 70
     0
  9
$DIMSAH
 70
     0
  9
$DIMBLK1
  1

  9
$DIMBLK2
  1

  9
$DIMSTYLE
  2
Standard
  9
$DIMCLRD
 70
     0
  9
$DIMCLRE
 70
     0
  9
$DIMCLRT
 70
     0
  9
$DIMTFAC
 40
1.0
  9
$DIMGAP
 40
0.09
  9
$DIMJUST
 70
     0
  9
$DIMSD1
 70
     0
  9
$DIMSD2
 70
     0
  9
$DIMTOLJ
 70
     1
  9
$DIMTZIN
 70
     0
  9
$DIMALTZ
 70
     0
  9
$DIMALTTZ
 70
     0
  9
$DIMUPT
 70
     0
  9
$DIMDEC
 70
     4
  9
$DIMTDEC
 70
     4
  9
$DIMALTU
 70
     2
  9
$DIMALTTD
 70
     2
  9
$DIMTXSTY
  7
Standard
  9
$DIMAUNIT
 70
     0
  9
$DIMADEC
 70
     0
  9
$DIMALTRND
 40
0.0
  9
$DIMAZIN
 70
     0
  9
$DIMDSEP
 70
    46
  9
$DIMATFIT
 70
     3
  9
$DIMFRAC
 70
     0
  9
$DIMLDRBLK
  1

  9
$DIMLUNIT
 70
     2
  9
$DIMLWD
 70
    -2
  9
$DIMLWE
 70
    -2
  9
$DIMTMOVE
 70
     0
  9
$LUNITS
 70
     2
  9
$LUPREC
 70
     4
  9
$SKETCHINC
 40
0.1
  9
$FILLETRAD
 40
0.5
  9
$AUNITS
 70
     0
  9
$AUPREC
 70
     0
  9
$MENU
  1
.
  9
$ELEVATION
 40
0.0
  9
$PELEVATION
 40
0.0
  9
$THICKNESS
 40
0.0
  9
$LIMCHECK
 70
     0
  9
$CHAMFERA
 40
0.5
  9
$CHAMFERB
 40
0.5
  9
$CHAMFERC
 40
1.0
  9
$CHAMFERD
 40
0.0
  9
$SKPOLY
 70
     0
  9
$TDCREATE
 40
2456135.67182978
  9
$TDUCREATE
 40
2456135.29682978
  9
$TDUPDATE
 40
2456135.671829792
  9
$TDUUPDATE
 40
2456135.296829792
  9
$TDINDWG
 40
0.0000000116
  9
$TDUSRTIMER
 40
0.0000000116
  9
$USRTIMER
 70
     1
  9
$ANGBASE
 50
0.0
  9
$ANGDIR
 70
     0
  9
$PDMODE
 70
     0
  9
$PDSIZE
 40
0.0
  9
$PLINEWID
 40
0.0
  9
$SPLFRAME
 70
     0
  9
$SPLINETYPE
 70
     6
  9
$SPLINESEGS
 70
     8
  9
$HANDSEED
  5
4F0
  9
$SURFTAB1
 70
     6
  9
$SURFTAB2
 70
     6
  9
$SURFTYPE
 70
     6
  9
$SURFU
 70
     6
  9
$SURFV
 70
     6
  9
$UCSBASE
  2

  9
$UCSNAME
  2

  9
$UCSORG
 10
0.0
 20
0.0
 30
0.0
  9
$UCSXDIR
 10
1.0
 20
0.0
 30
0.0
  9
$UCSYDIR
 10
0.0
 20
1.0
 30
0.0
  9
$UCSORTHOREF
  2

  9
$UCSORTHOVIEW
 70
     0
  9
$UCSORGTOP
 10
0.0
 20
0.0
 30
0.0
  9
$UCSORGBOTTOM
 10
0.0
 20
0.0
 30
0.0
  9
$UCSORGLEFT
 10
0.0
 20
0.0
 30
0.0
  9
$UCSORGRIGHT
 10
0.0
 20
0.0
 30
0.0
  9
$UCSORGFRONT
 10
0.0
 20
0.0
 30
0.0
  9
$UCSORGBACK
 10
0.0
 20
0.0
 30
0.0
  9
$PUCSBASE
  2

  9
$PUCSNAME
  2

  9
$PUCSORG
 10
0.0
 20
0.0
 30
0.0
  9
$PUCSXDIR
 10
1.0
 20
0.0
 30
0.0
  9
$PUCSYDIR
 10
0.0
 20
1.0
 30
0.0
  9
$PUCSORTHOREF
  2

  9
$PUCSORTHOVIEW
 70
     0
  9
$PUCSORGTOP
 10
0.0
 20
0.0
 30
0.0
  9
$PUCSORGBOTTOM
 10
0.0
 20
0.0
 30
0.0
  9
$PUCSORGLEFT
 10
0.0
 20
0.0
 30
0.0
  9
$PUCSORGRIGHT
 10
0.0
 20
0.0
 30
0.0
  9
$PUCSORGFRONT
 10
0.0
 20
0.0
 30
0.0
  9
$PUCSORGBACK
 10
0.0
 20
0.0
 30
0.0
  9
$USERI1
 70
     0
  9
$USERI2
 70
     0
  9
$USERI3
 70
     0
  9
$USERI4
 70
     0
  9
$USERI5
 70
     0
  9
$USERR1
 40
13.2
  9
$USERR2
 40
0.0
  9
$USERR3
 40
0.0
  9
$USERR4
 40
0.0
  9
$USERR5
 40
0.0
  9
$WORLDVIEW
 70
     1
  9
$SHADEDGE
 70
     3
  9
$SHADEDIF
 70
    70
  9
$TILEMODE
 70
     1
  9
$MAXACTVP
 70
    64
  9
$PINSBASE
 10
0.0
 20
0.0
 30
0.0
  9
$PLIMCHECK
 70
     0
  9
$PEXTMIN
 10
1.00000000000000E+20
 20
1.00000000000000E+20
 30
1.00000000000000E+20
  9
$PEXTMAX
 10
-1.00000000000000E+20
 20
-1.00000000000000E+20
 30
-1.00000000000000E+20
  9
$PLIMMIN
 10
0.0
 20
0.0
  9
$PLIMMAX
 10
12.0
 20
9.0
  9
$UNITMODE
 70
     0
  9
$VISRETAIN
 70
     1
  9
$PLINEGEN
 70
     0
  9
$PSLTSCALE
 70
     1
  9
$TREEDEPTH
 70
  3020
  9
$CMLSTYLE
  2
Standard
  9
$CMLJUST
 70
     0
  9
$CMLSCALE
 40
1.0
  9
$PROXYGRAPHICS
 70
     1
  9
$MEASUREMENT
 70
     1
  9
$CELWEIGHT
370
    -1
  9
$ENDCAPS
280
     0
  9
$JOINSTYLE
280
     0
  9
$LWDISPLAY
290
     0
  9
$INSUNITS
 70
     1
  9
$HYPERLINKBASE
  1

  9
$STYLESHEET
  1

  9
$XEDIT
290
     1
  9
$CEPSNTYPE
380
     0
  9
$PSTYLEMODE
290
     0
  9
$FINGERPRINTGUID
  2
{FAEB1C30-E019-11D5-929B-00C0DF256EC4}
  9
$VERSIONGUID
  2
{FAEB1C32-E019-11D5-929B-00C0DF256EC4}
  9
$EXTNAMES
290
     1
  9
$PSVPSCALE
 40
0.0
  9
$OLESTARTUP
290
     0
  0
ENDSEC
  0
SECTION
  2
CLASSES
  0
CLASS
  1
ACDBDICTIONARYWDFLT
  2
AcDbDictionaryWithDefault
  3
ObjectDBX Classes
 90
        0
280
     0
281
     0
  0
CLASS
  1
TABLESTYLE
  2
AcDbTableStyle
  3
ObjectDBX Classes
 90
     2047
280
     0
281
     0
  0
CLASS
  1
DICTIONARYVAR
  2
AcDbDictionaryVar
  3
ObjectDBX Classes
 90
        0
280
     0
281
     0
  0
CLASS
  1

  2
exOdDbSpline
  3

 90
        0
280
     0
281
     1
  0
CLASS
  1

  2
exOdDbCircle
  3

 90
        0
280
     0
281
     1
  0
CLASS
  1
ACDBPLACEHOLDER
  2
AcDbPlaceHolder
  3
ObjectDBX Classes
 90
        0
280
     0
281
     0
  0
CLASS
  1
LAYOUT
  2
AcDbLayout
  3
ObjectDBX Classes
 90
        0
280
     0
281
     0
  0
ENDSEC
  0
SECTION
  2
TABLES
  0
TABLE
  2
VPORT
  5
8
330
0
100
AcDbSymbolTable
 70
     2
  0
VPORT
  5
29
330
8
100
AcDbSymbolTableRecord
100
AcDbViewportTableRecord
  2
*Active
 70
     0
 10
0.0
 20
0.0
 11
1.0
 21
1.0
 12
210.0
 22
297.0
 13
0.0
 23
0.0
 14
0.5
 24
0.5
 15
0.5
 25
0.5
 16
0.0
 26
0.0
 36
1.0
 17
0.0
 27
0.0
 37
0.0
 40
653.4000000000001
 41
1.60267857142857
 42
50.0
 43
0.0
 44
0.0
 50
0.0
 51
0.0
 71
     0
 72
   100
 73
     1
 74
     3
 75
     0
 76
     0
 77
     0
 78
     0
281
     0
 65
     1
110
0.0
120
0.0
130
0.0
111
1.0
121
0.0
131
0.0
112
0.0
122
1.0
132
0.0
 79
     0
146
0.0
  0
ENDTAB
  0
TABLE
  2
LTYPE
  5
5
330
0
100
AcDbSymbolTable
 70
     8
  0
LTYPE
  5
14
330
5
100
AcDbSymbolTableRecord
100
AcDbLinetypeTableRecord
  2
ByBlock
 70
     0
  3

 72
    65
 73
     0
 40
0.0
  0
LTYPE
  5
15
330
5
100
AcDbSymbolTableRecord
100
AcDbLinetypeTableRecord
  2
ByLayer
 70
     0
  3

 72
    65
 73
     0
 40
0.0
  0
LTYPE
  5
16
330
5
100
AcDbSymbolTableRecord
100
AcDbLinetypeTableRecord
  2
Continuous
 70
     0
  3
Solid line
 72
    65
 73
     0
 40
0.0
  0
LTYPE
  5
2E
330
5
100
AcDbSymbolTableRecord
100
AcDbLinetypeTableRecord
  2
DASHED
 70
     0
  3
Dashed
 72
    65
 73
     2
 40
15.0
 49
7.0
 74
     0
 49
-8.0
 74
     0
  0
LTYPE
  5
2F
330
5
100
AcDbSymbolTableRecord
100
AcDbLinetypeTableRecord
  2
DOTTED
 70
     0
  3
Dotted
 72
    65
 73
     2
 40
1.0
 49
0.0
 74
     0
 49
-1.0
 74
     0
  0
LTYPE
  5
30
330
5
100
AcDbSymbolTableRecord
100
AcDbLinetypeTableRecord
  2
DOT_CENTER
 70
     0
  3
Dot_Center
 72
    65
 73
     4
 40
14.0
 49
12.0
 74
     0
 49
-1.0
 74
     0
 49
0.0
 74
     0
 49
-1.0
 74
     0
  0
LTYPE
  5
31
330
5
100
AcDbSymbolTableRecord
100
AcDbLinetypeTableRecord
  2
LONG_DASHED
 70
     0
  3
Long_Dashed
 72
    65
 73
     2
 40
15.0
 49
10.0
 74
     0
 49
-5.0
 74
     0
  0
LTYPE
  5
32
330
5
100
AcDbSymbolTableRecord
100
AcDbLinetypeTableRecord
  2
DASH_CENTER
 70
     0
  3
Dash_Center
 72
    65
 73
     4
 40
14.0
 49
11.0
 74
     0
 49
-1.0
 74
     0
 49
1.0
 74
     0
 49
-1.0
 74
     0
  0
LTYPE
  5
33
330
5
100
AcDbSymbolTableRecord
100
AcDbLinetypeTableRecord
  2
PHANTOM
 70
     0
  3
Phantom
 72
    65
 73
     6
 40
13.0
 49
10.0
 74
     0
 49
-1.0
 74
     0
 49
0.0
 74
     0
 49
-1.0
 74
     0
 49
0.0
 74
     0
 49
-1.0
 74
     0
  0
LTYPE
  5
34
330
5
100
AcDbSymbolTableRecord
100
AcDbLinetypeTableRecord
  2
CENTER_DASH_DASH
 70
     0
  3
Center_Dash_Dash
 72
    65
 73
     6
 40
14.0
 49
9.0
 74
     0
 49
-1.0
 74
     0
 49
1.0
 74
     0
 49
-1.0
 74
     0
 49
1.0
 74
     0
 49
-1.0
 74
     0
  0
ENDTAB
  0
TABLE
  2
LAYER
  5
2
330
0
100
AcDbSymbolTable
 70
     2
  0
LAYER
  5
10
330
2
100
AcDbSymbolTableRecord
100
AcDbLayerTableRecord
  2
0
 70
     0
 62
     7
  6
Continuous
370
    -3
390
F
  0
LAYER
  5
35
330
2
100
AcDbSymbolTableRecord
100
AcDbLayerTableRecord
  2
1
 70
     0
 62
     7
  6
Continuous
370
    -3
390
F
  0
ENDTAB
  0
TABLE
  2
STYLE
  5
3
330
0
100
AcDbSymbolTable
 70
     3
  0
STYLE
  5
11
330
3
100
AcDbSymbolTableRecord
100
AcDbTextStyleTableRecord
  2
Standard
 70
     0
 40
0.0
 41
1.0
 50
0.0
 71
     0
 42
0.2
  3
txt
  4

  0
STYLE
  5
45A
330
3
100
AcDbSymbolTableRecord
100
AcDbTextStyleTableRecord
  2
CONVERTER_1
 70
     0
 40
0.0
 41
0.89
 50
0.0
 71
     0
 42
0.2
  3
msmincho.ttc
  4

1001
ACAD
1000
MS Mincho
1071
    32785
  0
STYLE
  5
485
330
3
100
AcDbSymbolTableRecord
100
AcDbTextStyleTableRecord
  2
CONVERTER_2
 70
     0
 40
0.0
 41
0.9
 50
0.0
 71
     0
 42
0.2
  3
txt.shx
  4

  0
ENDTAB
  0
TABLE
  2
VIEW
  5
6
330
0
100
AcDbSymbolTable
 70
     0
  0
ENDTAB
  0
TABLE
  2
UCS
  5
7
330
0
100
AcDbSymbolTable
 70
     0
  0
ENDTAB
  0
TABLE
  2
APPID
  5
9
330
0
100
AcDbSymbolTable
 70
     1
  0
APPID
  5
12
330
9
100
AcDbSymbolTableRecord
100
AcDbRegAppTableRecord
  2
ACAD
 70
     0
  0
ENDTAB
  0
TABLE
  2
DIMSTYLE
  5
A
330
0
100
AcDbSymbolTable
 70
     9
100
AcDbDimStyleTable
  0
DIMSTYLE
105
27
330
A
100
AcDbSymbolTableRecord
100
AcDbDimStyleTableRecord
  2
Standard
 70
     0
340
11
  0
DIMSTYLE
105
49E
102
{ACAD_REACTORS
330
49F
102
}
330
A
100
AcDbSymbolTableRecord
100
AcDbDimStyleTableRecord
  2
ME10_DIM_0
 70
     0
 41
7.0
 42
0.0
 44
2.0
 73
     0
 74
     0
 77
     1
 78
     8
140
7.0
147
0.625
172
     1
173
     1
176
     2
177
     2
178
     7
271
     2
340
485
  0
DIMSTYLE
105
4AB
102
{ACAD_REACTORS
330
4AC
102
}
330
A
100
AcDbSymbolTableRecord
100
AcDbDimStyleTableRecord
  2
ME10_DIM_1
 70
     0
  3
{\Fgdt;n}<>
 41
7.0
 42
0.0
 44
2.0
 73
     0
 74
     0
 77
     1
 78
     8
140
7.0
147
0.625
172
     1
173
     1
176
     2
177
     2
178
     7
271
     2
340
485
  0
DIMSTYLE
105
4B6
102
{ACAD_REACTORS
330
4B7
102
}
330
A
100
AcDbSymbolTableRecord
100
AcDbDimStyleTableRecord
  2
ME10_DIM_2
 70
     0
 41
7.0
 42
0.0
 44
2.0
 73
     0
 74
     0
 77
     1
 78
     8
140
7.0
147
0.625
172
     1
173
     1
176
     2
177
     2
178
     7
271
     2
340
485
  0
DIMSTYLE
105
4C1
102
{ACAD_REACTORS
330
4C2
102
}
330
A
100
AcDbSymbolTableRecord
100
AcDbDimStyleTableRecord
  2
ME10_DIM_3
 70
     0
  3
{\Fgdt;n}<>
 41
7.0
 42
0.0
 44
2.0
 73
     0
 74
     0
 77
     1
 78
     8
140
7.0
147
0.625
172
     1
173
     1
176
     2
177
     2
178
     7
271
     2
340
485
  0
DIMSTYLE
105
4CC
102
{ACAD_REACTORS
330
4CD
102
}
330
A
100
AcDbSymbolTableRecord
100
AcDbDimStyleTableRecord
  2
ME10_DIM_4
 70
     0
 41
7.0
 42
0.0
 44
2.0
 73
     0
 74
     0
 77
     1
 78
     8
140
7.0
147
0.625
172
     1
173
     1
176
     2
177
     2
178
     7
271
     2
340
485
  0
DIMSTYLE
105
4D7
102
{ACAD_REACTORS
330
4D8
102
}
330
A
100
AcDbSymbolTableRecord
100
AcDbDimStyleTableRecord
  2
ME10_DIM_5
 70
     0
 41
7.0
 42
0.0
 44
2.0
 73
     0
 74
     0
 77
     1
 78
     8
140
7.0
147
0.625
172
     1
173
     1
176
     2
177
     2
178
     7
271
     2
340
485
  0
DIMSTYLE
105
4E3
102
{ACAD_REACTORS
330
4E4
102
}
330
A
100
AcDbSymbolTableRecord
100
AcDbDimStyleTableRecord
  2
ME10_DIM_6
 70
     0
 41
7.0
 42
0.0
 44
2.0
 73
     0
 74
     0
 77
     1
 78
     8
140
7.0
147
0.625
172
     1
173
     1
176
     2
177
     2
178
     7
271
     2
340
45A
  0
DIMSTYLE
105
4EE
102
{ACAD_REACTORS
330
4EF
102
}
330
A
100
AcDbSymbolTableRecord
100
AcDbDimStyleTableRecord
  2
ME10_DIM_7
 70
     0
 41
7.0
 42
0.0
 44
2.0
 73
     0
 74
     0
 77
     1
 78
     8
140
7.0
147
0.625
172
     1
173
     1
176
     2
177
     2
178
     7
271
     2
340
485
  0
ENDTAB
  0
TABLE
  2
BLOCK_RECORD
  5
1
330
0
100
AcDbSymbolTable
 70
    38
  0
BLOCK_RECORD
  5
1F
330
1
100
AcDbSymbolTableRecord
100
AcDbBlockTableRecord
  2
*Model_Space
340
22
  0
BLOCK_RECORD
  5
1B
330
1
100
AcDbSymbolTableRecord
100
AcDbBlockTableRecord
  2
*Paper_Space
340
1E
  0
BLOCK_RECORD
  5
23
330
1
100
AcDbSymbolTableRecord
100
AcDbBlockTableRecord
  2
*Paper_Space0
340
26
  0
BLOCK_RECORD
  5
36
330
1
100
AcDbSymbolTableRecord
100
AcDbBlockTableRecord
  2
1__1
340
0
102
{BLKREFS
331
9F
102
}
  0
BLOCK_RECORD
  5
39
330
1
100
AcDbSymbolTableRecord
100
AcDbBlockTableRecord
  2
1__2
340
0
102
{BLKREFS
331
A0
102
}
  0
BLOCK_RECORD
  5
3C
330
1
100
AcDbSymbolTableRecord
100
AcDbBlockTableRecord
  2
V2110-1-0__3
340
0
102
{BLKREFS
331
A1
102
}
  0
BLOCK_RECORD
  5
3F
330
1
100
AcDbSymbolTableRecord
100
AcDbBlockTableRecord
  2
36-1A-13-M4__4
340
0
102
{BLKREFS
331
51
102
}
  0
BLOCK_RECORD
  5
42
330
1
100
AcDbSymbolTableRecord
100
AcDbBlockTableRecord
  2
37-1-13__5
340
0
102
{BLKREFS
331
52
102
}
  0
BLOCK_RECORD
  5
45
330
1
100
AcDbSymbolTableRecord
100
AcDbBlockTableRecord
  2
42-1__6
340
0
102
{BLKREFS
331
4C
102
}
  0
BLOCK_RECORD
  5
48
330
1
100
AcDbSymbolTableRecord
100
AcDbBlockTableRecord
  2
21-1A__7
340
0
102
{BLKREFS
331
4D
102
}
  0
BLOCK_RECORD
  5
4B
330
1
100
AcDbSymbolTableRecord
100
AcDbBlockTableRecord
  2
R20F__8
340
0
102
{BLKREFS
331
53
102
}
  0
BLOCK_RECORD
  5
50
330
1
100
AcDbSymbolTableRecord
100
AcDbBlockTableRecord
  2
R10A-13__9
340
0
102
{BLKREFS
331
A2
102
}
  0
BLOCK_RECORD
  5
56
330
1
100
AcDbSymbolTableRecord
100
AcDbBlockTableRecord
  2
H86F-B__10
340
0
102
{BLKREFS
331
63
102
}
  0
BLOCK_RECORD
  5
59
330
1
100
AcDbSymbolTableRecord
100
AcDbBlockTableRecord
  2
H86F-A__11
340
0
102
{BLKREFS
331
64
102
}
  0
BLOCK_RECORD
  5
5C
330
1
100
AcDbSymbolTableRecord
100
AcDbBlockTableRecord
  2
H862-L__12
340
0
102
{BLKREFS
331
65
102
}
  0
BLOCK_RECORD
  5
5F
330
1
100
AcDbSymbolTableRecord
100
AcDbBlockTableRecord
  2
H862-A__13
340
0
102
{BLKREFS
331
66
102
}
  0
BLOCK_RECORD
  5
62
330
1
100
AcDbSymbolTableRecord
100
AcDbBlockTableRecord
  2
H862S__14
340
0
102
{BLKREFS
331
A3
102
}
  0
BLOCK_RECORD
  5
69
330
1
100
AcDbSymbolTableRecord
100
AcDbBlockTableRecord
  2
TOP__15
340
0
102
{BLKREFS
331
A4
102
}
  0
BLOCK_RECORD
  5
6C
330
1
100
AcDbSymbolTableRecord
100
AcDbBlockTableRecord
  2
V2110-1-0__16
340
0
102
{BLKREFS
331
A5
102
}
  0
BLOCK_RECORD
  5
6F
330
1
100
AcDbSymbolTableRecord
100
AcDbBlockTableRecord
  2
21-1A__17
340
0
102
{BLKREFS
331
76
102
}
  0
BLOCK_RECORD
  5
72
330
1
100
AcDbSymbolTableRecord
100
AcDbBlockTableRecord
  2
42-1__18
340
0
102
{BLKREFS
331
77
102
}
  0
BLOCK_RECORD
  5
75
330
1
100
AcDbSymbolTableRecord
100
AcDbBlockTableRecord
  2
R20F__19
340
0
102
{BLKREFS
331
81
102
}
  0
BLOCK_RECORD
  5
7A
330
1
100
AcDbSymbolTableRecord
100
AcDbBlockTableRecord
  2
37-1-13__20
340
0
102
{BLKREFS
331
82
102
}
  0
BLOCK_RECORD
  5
7D
330
1
100
AcDbSymbolTableRecord
100
AcDbBlockTableRecord
  2
36-1A-13-M4__21
340
0
102
{BLKREFS
331
83
102
}
  0
BLOCK_RECORD
  5
80
330
1
100
AcDbSymbolTableRecord
100
AcDbBlockTableRecord
  2
R10A-13__22
340
0
102
{BLKREFS
331
A6
102
}
  0
BLOCK_RECORD
  5
86
330
1
100
AcDbSymbolTableRecord
100
AcDbBlockTableRecord
  2
H862-A__23
340
0
102
{BLKREFS
331
93
102
}
  0
BLOCK_RECORD
  5
89
330
1
100
AcDbSymbolTableRecord
100
AcDbBlockTableRecord
  2
H862-L__24
340
0
102
{BLKREFS
331
94
102
}
  0
BLOCK_RECORD
  5
8C
330
1
100
AcDbSymbolTableRecord
100
AcDbBlockTableRecord
  2
H86F-A__25
340
0
102
{BLKREFS
331
95
102
}
  0
BLOCK_RECORD
  5
8F
330
1
100
AcDbSymbolTableRecord
100
AcDbBlockTableRecord
  2
H86F-B__26
340
0
102
{BLKREFS
331
96
102
}
  0
BLOCK_RECORD
  5
92
330
1
100
AcDbSymbolTableRecord
100
AcDbBlockTableRecord
  2
H862S__27
340
0
102
{BLKREFS
331
A7
102
}
  0
BLOCK_RECORD
  5
99
330
1
100
AcDbSymbolTableRecord
100
AcDbBlockTableRecord
  2
TOP__28
340
0
102
{BLKREFS
331
A8
102
}
  0
BLOCK_RECORD
  5
9C
330
1
100
AcDbSymbolTableRecord
100
AcDbBlockTableRecord
  2
_J__A4
340
0
102
{BLKREFS
331
A9
102
}
  0
BLOCK_RECORD
  5
493
330
1
100
AcDbSymbolTableRecord
100
AcDbBlockTableRecord
  2
*D030
340
0
  0
BLOCK_RECORD
  5
4A0
330
1
100
AcDbSymbolTableRecord
100
AcDbBlockTableRecord
  2
*D131
340
0
  0
BLOCK_RECORD
  5
4AD
330
1
100
AcDbSymbolTableRecord
100
AcDbBlockTableRecord
  2
*D232
340
0
  0
BLOCK_RECORD
  5
4B8
330
1
100
AcDbSymbolTableRecord
100
AcDbBlockTableRecord
  2
*D333
340
0
  0
BLOCK_RECORD
  5
4C3
330
1
100
AcDbSymbolTableRecord
100
AcDbBlockTableRecord
  2
*D434
340
0
  0
BLOCK_RECORD
  5
4CE
330
1
100
AcDbSymbolTableRecord
100
AcDbBlockTableRecord
  2
*D535
340
0
  0
BLOCK_RECORD
  5
4D9
330
1
100
AcDbSymbolTableRecord
100
AcDbBlockTableRecord
  2
*D636
340
0
  0
BLOCK_RECORD
  5
4E5
330
1
100
AcDbSymbolTableRecord
100
AcDbBlockTableRecord
  2
*D737
340
0
  0
ENDTAB
  0
ENDSEC
  0
SECTION
  2
BLOCKS
  0
BLOCK
  5
20
330
1F
100
AcDbEntity
  8
0
100
AcDbBlockBegin
  2
*Model_Space
 70
     0
 71
     0
 10
0.0
 20
0.0
 30
0.0
  3
*Model_Space
  1

  0
ENDBLK
  5
21
330
1F
100
AcDbEntity
  8
0
100
AcDbBlockEnd
  0
BLOCK
  5
1C
330
1B
100
AcDbEntity
 67
     1
  8
0
100
AcDbBlockBegin
  2
*Paper_Space
 70
     0
 71
     0
 10
0.0
 20
0.0
 30
0.0
  3
*Paper_Space
  1

  0
ENDBLK
  5
1D
330
1B
100
AcDbEntity
 67
     1
  8
0
100
AcDbBlockEnd
  0
BLOCK
  5
24
330
23
100
AcDbEntity
  8
0
100
AcDbBlockBegin
  2
*Paper_Space0
 70
     0
 71
     0
 10
0.0
 20
0.0
 30
0.0
  3
*Paper_Space0
  1

  0
ENDBLK
  5
25
330
23
100
AcDbEntity
  8
0
100
AcDbBlockEnd
  0
BLOCK
  5
37
330
36
100
AcDbEntity
  8
0
100
AcDbBlockBegin
  2
1__1
 70
     0
 71
     0
 10
350.2284784042108
 20
211.5850168360741
 30
0.0
  3
1__1
  1

  0
LINE
  5
AA
330
36
100
AcDbEntity
  8
1
  6
Continuous
 62
     7
100
AcDbLine
 10
350.2284784042107
 20
211.8350168360741
 30
0.0
 11
350.9614911061029
 21
213.1046320783449
 31
0.0
  0
LINE
  5
AB
330
36
100
AcDbEntity
  8
1
  6
Continuous
 62
     7
100
AcDbLine
 10
359.6614911061027
 20
232.7850168360741
 30
0.0
 11
351.9614911061024
 21
232.7850168360741
 31
0.0
  0
LINE
  5
AC
330
36
100
AcDbEntity
  8
1
  6
Continuous
 62
     7
100
AcDbLine
 10
368.3614911061026
 20
213.1046320783449
 30
0.0
 11
368.3614911061031
 21
231.7850168360741
 31
0.0
  0
LINE
  5
AD
330
36
100
AcDbEntity
  8
1
  6
Continuous
 62
     7
100
AcDbLine
 10
367.3614911061026
 20
232.7850168360741
 30
0.0
 11
359.6614911061027
 21
232.7850168360741
 31
0.0
  0
LINE
  5
AE
330
36
100
AcDbEntity
  8
1
  6
Continuous
 62
     7
100
AcDbLine
 10
359.6614911061029
 20
211.5850168360741
 30
0.0
 11
368.6614911061029
 21
211.5850168360741
 31
0.0
  0
LINE
  5
AF
330
36
100
AcDbEntity
  8
1
  6
Continuous
 62
     7
100
AcDbLine
 10
369.0945038079952
 20
211.8350168360741
 30
0.0
 11
368.6614911061029
 21
211.5850168360741
 31
0.0
  0
LINE
  5
B0
330
36
100
AcDbEntity
  8
1
  6
Continuous
 62
     7
100
AcDbLine
 10
368.3614911061026
 20
213.1046320783449
 30
0.0
 11
369.0945038079952
 21
211.8350168360741
 31
0.0
  0
LINE
  5
B1
330
36
100
AcDbEntity
  8
1
  6
Continuous
 62
     7
100
AcDbLine
 10
350.6614911061027
 20
211.5850168360741
 30
0.0
 11
350.2284784042107
 21
211.8350168360741
 31
0.0
  0
LINE
  5
B2
330
36
100
AcDbEntity
  8
1
  6
Continuous
 62
     7
100
AcDbLine
 10
350.6614911061027
 20
211.5850168360741
 30
0.0
 11
359.6614911061029
 21
211.5850168360741
 31
0.0
  0
LINE
  5
B3
330
36
100
AcDbEntity
  8
1
  6
Continuous
 62
     7
100
AcDbLine
 10
350.9614911061028
 20
231.7850168360741
 30
0.0
 11
350.9614911061029
 21
213.1046320783449
 31
0.0
  0
LINE
  5
B4
330
36
100
AcDbEntity
  8
1
  6
Continuous
 62
     7
100
AcDbLine
 10
366.6614911061027
 20
212.9706574821293
 30
0.0
 11
359.6614911061027
 21
212.9706574821293
 31
0.0
  0
LINE
  5
B5
330
36
100
AcDbEntity
  8
1
  6
Continuous
 62
     7
100
AcDbLine
 10
359.6614911061027
 20
212.9706574821293
 30
0.0
 11
352.6614911061027
 21
212.9706574821293
 31
0.0
  0
LINE
  5
B6
330
36
100
AcDbEntity
  8
1
  6
DASH_CENTER
 62
     2
100
AcDbLine
 10
355.1614911061033
 20
227.7850168360741
 30
0.0
 11
364.1614911061033
 21
227.7850168360741
 31
0.0
  0
ARC
  5
B7
330
36
100
AcDbEntity
  8
1
  6
Continuous
 62
     7
100
AcDbCircle
 10
359.6614911061033
 20
227.7850168360741
 30
0.0
 40
1.500000000000022
100
AcDbArc
 50
68.96053021868119
 51
111.0394697813188
  0
ARC
  5
B8
330
36
100
AcDbEntity
  8
1
  6
Continuous
 62
     7
100
AcDbCircle
 10
359.6614911061033
 20
227.7850168360741
 30
0.0
 40
1.500000000000022
100
AcDbArc
 50
111.0394697813188
 51
172.3377443392342
  0
ARC
  5
B9
330
36
100
AcDbEntity
  8
1
  6
Continuous
 62
     7
100
AcDbCircle
 10
359.6614911061033
 20
227.7850168360741
 30
0.0
 40
1.499999999999855
100
AcDbArc
 50
7.66225566076637
 51
68.96053021868119
  0
ARC
  5
BA
330
36
100
AcDbEntity
  8
1
  6
Continuous
 62
     7
100
AcDbCircle
 10
359.6614911061033
 20
227.7850168360741
 30
0.0
 40
1.499999999999968
100
AcDbArc
 50
172.3377443392342
 51
-147.769047364494
  0
ARC
  5
BB
330
36
100
AcDbEntity
  8
1
  6
Continuous
 62
     7
100
AcDbCircle
 10
359.6614911061033
 20
227.7850168360741
 30
0.0
 40
1.500000000000021
100
AcDbArc
 50
-147.769047364494
 51
-32.23095263550828
  0
ARC
  5
BC
330
36
100
AcDbEntity
  8
1
  6
Continuous
 62
     7
100
AcDbCircle
 10
359.6614911061033
 20
227.7850168360741
 30
0.0
 40
1.499999999999925
100
AcDbArc
 50
-32.23095263550828
 51
7.66225566076637
  0
ARC
  5
BD
330
36
100
AcDbEntity
  8
1
  6
Continuous
 62
     7
100
AcDbCircle
 10
351.9614911061027
 20
231.7850168360741
 30
0.0
 40
1.0
100
AcDbArc
 50
90.00000000001629
 51
180.0
  0
ARC
  5
BE
330
36
100
AcDbEntity
  8
1
  6
Continuous
 62
     7
100
AcDbCircle
 10
367.3614911061031
 20
231.7850168360741
 30
0.0
 40
1.0
100
AcDbArc
 50
0.0
 51
90.00000000002605
  0
ENDBLK
  5
38
330
36
100
AcDbEntity
  8
0
100
AcDbBlockEnd
  0
BLOCK
  5
3A
330
39
100
AcDbEntity
  8
0
100
AcDbBlockBegin
  2
1__2
 70
     0
 71
     0
 10
190.3867615251264
 20
211.5850168360741
 30
0.0
  3
1__2
  1

  0
LINE
  5
BF
330
39
100
AcDbEntity
  8
1
  6
DASH_CENTER
 62
     2
100
AcDbLine
 10
192.5197742270187
 20
227.7850168360741
 30
0.0
 11
199.0197742270187
 21
227.7850168360741
 31
0.0
  0
LINE
  5
C0
330
39
100
AcDbEntity
  8
1
  6
Continuous
 62
     7
100
AcDbLine
 10
206.8197742270185
 20
212.9706574821293
 30
0.0
 11
199.8197742270185
 21
212.9706574821293
 31
0.0
  0
LINE
  5
C1
330
39
100
AcDbEntity
  8
1
  6
Continuous
 62
     7
100
AcDbLine
 10
207.5197742270183
 20
232.7850168360741
 30
0.0
 11
199.8197742270185
 21
232.7850168360741
 31
0.0
  0
LINE
  5
C2
330
39
100
AcDbEntity
  8
1
  6
Continuous
 62
     7
100
AcDbLine
 10
199.8197742270185
 20
232.7850168360741
 30
0.0
 11
192.1197742270181
 21
232.7850168360741
 31
0.0
  0
LINE
  5
C3
330
39
100
AcDbEntity
  8
1
  6
Continuous
 62
     7
100
AcDbLine
 10
208.519774227019
 20
229.2849815180854
 30
0.0
 11
208.5197742270187
 21
231.7850168360741
 31
0.0
  0
LINE
  5
C4
330
39
100
AcDbEntity
  8
1
  6
Continuous
 62
     7
100
AcDbLine
 10
209.2527869289109
 20
211.8350168360741
 30
0.0
 11
208.8197742270185
 21
211.5850168360741
 31
0.0
  0
LINE
  5
C5
330
39
100
AcDbEntity
  8
1
  6
Continuous
 62
     7
100
AcDbLine
 10
208.5197742270183
 20
213.1046320783449
 30
0.0
 11
209.2527869289109
 21
211.8350168360741
 31
0.0
  0
LINE
  5
C6
330
39
100
AcDbEntity
  8
1
  6
Continuous
 62
     7
100
AcDbLine
 10
199.8197742270185
 20
211.5850168360741
 30
0.0
 11
208.8197742270185
 21
211.5850168360741
 31
0.0
  0
LINE
  5
C7
330
39
100
AcDbEntity
  8
1
  6
Continuous
 62
     7
100
AcDbLine
 10
199.8197742270185
 20
212.9706574821293
 30
0.0
 11
192.8197742270185
 21
212.9706574821293
 31
0.0
  0
LINE
  5
C8
330
39
100
AcDbEntity
  8
1
  6
Continuous
 62
     7
100
AcDbLine
 10
191.1197742270184
 20
231.7850168360741
 30
0.0
 11
191.1197742270186
 21
213.1046320783449
 31
0.0
  0
LINE
  5
C9
330
39
100
AcDbEntity
  8
1
  6
Continuous
 62
     7
100
AcDbLine
 10
190.8197742270185
 20
211.5850168360741
 30
0.0
 11
190.3867615251264
 21
211.8350168360741
 31
0.0
  0
LINE
  5
CA
330
39
100
AcDbEntity
  8
1
  6
Continuous
 62
     7
100
AcDbLine
 10
190.3867615251264
 20
211.8350168360741
 30
0.0
 11
191.1197742270186
 21
213.1046320783449
 31
0.0
  0
LINE
  5
CB
330
39
100
AcDbEntity
  8
1
  6
Continuous
 62
     7
100
AcDbLine
 10
190.8197742270185
 20
211.5850168360741
 30
0.0
 11
199.8197742270185
 21
211.5850168360741
 31
0.0
  0
LINE
  5
CC
330
39
100
AcDbEntity
  8
1
  6
Continuous
 62
     7
100
AcDbLine
 10
208.5197742270183
 20
213.1046320783449
 30
0.0
 11
208.519774227019
 21
226.2922325406513
 31
0.0
  0
LINE
  5
CD
330
39
100
AcDbEntity
  8
1
  6
DASH_CENTER
 62
     2
100
AcDbLine
 10
205.0197742270187
 20
227.7850168360741
 30
0.0
 11
211.5197742270187
 21
227.7850168360741
 31
0.0
  0
ARC
  5
CE
330
39
100
AcDbEntity
  8
1
  6
Continuous
 62
     7
100
AcDbCircle
 10
217.047797756481
 20
227.7886070293684
 30
0.0
 40
8.658309415211518
100
AcDbArc
 50
170.0478741337952
 51
-170.0478741337946
  0
SPLINE
  5
CF
330
39
100
AcDbEntity
  8
1
  6
Continuous
 62
     7
100
AcDbSpline
210
0.0
220
0.0
230
1.0
 70
     8
 71
     3
 72
    41
 73
    37
 74
    35
 42
0.0000000001
 43
0.0000000001
 44
0.00000001
 40
0.0
 40
0.0
 40
0.0
 40
0.0
 40
0.1071683779104311
 40
0.214387541916468
 40
0.3300386950524413
 40
0.4456700198123385
 40
0.5637111442784188
 40
0.6817282489872257
 40
0.8026364706465069
 40
0.9235205842767307
 40
1.047408025749729
 40
1.171274224025241
 40
1.297898382853048
 40
1.424505862065004
 40
1.553318407175123
 40
1.682119622785634
 40
1.812340153949902
 40
1.94255498624458
 40
2.073259171065935
 40
2.20396335588729
 40
2.334178188181917
 40
2.464398719346258
 40
2.593199934956762
 40
2.722012480066855
 40
2.848619959278836
 40
2.975244118106632
 40
3.099110316382097
 40
3.222997757855135
 40
3.343881871485378
 40
3.464790093144593
 40
3.582807197853462
 40
3.700848322319509
 40
3.816479647079444
 40
3.932130800215461
 40
4.039349964251988
 40
4.146518342193131
 40
4.146518342193131
 40
4.146518342193131
 40
4.146518342193131
 10
195.6619363106897
 20
229.2778011314885
 30
0.0
 10
195.6265356330854
 20
229.2728144010133
 30
0.0
 10
195.5557175018258
 20
229.262838576898
 30
0.0
 10
195.4491724317341
 20
229.2344828669646
 30
0.0
 10
195.342971406569
 20
229.1959393344146
 30
0.0
 10
195.2378539392246
 20
229.1454042670312
 30
0.0
 10
195.1372811015293
 20
229.0848412081705
 30
0.0
 10
195.041419117723
 20
229.0140692344933
 30
0.0
 10
194.9516170415012
 20
228.9343235838516
 30
0.0
 10
194.8679256467439
 20
228.8454917233211
 30
0.0
 10
194.7915566485907
 20
228.7490333617015
 30
0.0
 10
194.722547337468
 20
228.6448874877535
 30
0.0
 10
194.6618653875533
 20
228.5346452390993
 30
0.0
 10
194.6095883813608
 20
228.4183757460378
 30
0.0
 10
194.5663871443761
 20
228.2976676443341
 30
0.0
 10
194.5323811461967
 20
228.1728103440696
 30
0.0
 10
194.5079467940431
 20
228.0452572992947
 30
0.0
 10
194.4932004478415
 20
227.9155890262935
 30
0.0
 10
194.4882727162924
 20
227.7850168360742
 30
0.0
 10
194.4932004478414
 20
227.6544446458549
 30
0.0
 10
194.5079467940431
 20
227.5247763728536
 30
0.0
 10
194.5323811461966
 20
227.3972233280788
 30
0.0
 10
194.5663871443761
 20
227.2723660278141
 30
0.0
 10
194.6095883813607
 20
227.1516579261104
 30
0.0
 10
194.6618653875533
 20
227.035388433049
 30
0.0
 10
194.722547337468
 20
226.9251461843948
 30
0.0
 10
194.7915566485908
 20
226.8210003104467
 30
0.0
 10
194.8679256467439
 20
226.7245419488273
 30
0.0
 10
194.9516170415013
 20
226.6357100882967
 30
0.0
 10
195.0414191177229
 20
226.5559644376549
 30
0.0
 10
195.1372811015293
 20
226.4851924639779
 30
0.0
 10
195.2378539392245
 20
226.424629405117
 30
0.0
 10
195.342971406569
 20
226.3740943377335
 30
0.0
 10
195.4491724317437
 20
226.3355508051803
 30
0.0
 10
195.5557175018557
 20
226.3071950952427
 30
0.0
 10
195.626535633136
 20
226.2972192711278
 30
0.0
 10
195.6619363107506
 20
226.2922325406528
 30
0.0
 11
195.6619363106897
 21
229.2778011314885
 31
0.0
 11
195.5561361523455
 21
229.2607310489373
 31
0.0
 11
195.4523632379256
 21
229.233765675531
 31
0.0
 11
195.3437066551639
 21
229.1941558756801
 31
0.0
 11
195.2394343287571
 21
229.1441770280398
 31
0.0
 11
195.1383027292464
 21
229.0832992271135
 31
0.0
 11
195.0433010062114
 21
229.0132798753296
 31
0.0
 11
194.9528635815206
 21
228.9330310729704
 31
0.0
 11
194.8699084931673
 21
228.8451025665321
 31
0.0
 11
194.7929668388095
 21
228.7480042659321
 31
0.0
 11
194.7244897489052
 21
228.6447873911806
 31
0.0
 11
194.6633875705263
 21
228.533881118156
 31
0.0
 11
194.6114211704768
 21
228.4184300590084
 31
0.0
 11
194.567980425323
 21
228.2971635201849
 31
0.0
 11
194.5341008121143
 21
228.1728979780923
 31
0.0
 11
194.509579052136
 21
228.0450071260963
 31
0.0
 11
194.4948512073723
 21
227.9156278652461
 31
0.0
 11
194.4899173459567
 21
227.7850168360741
 31
0.0
 11
194.4948512073723
 21
227.6544058069022
 31
0.0
 11
194.509579052136
 21
227.5250265460521
 31
0.0
 11
194.5341008121143
 21
227.397135694056
 31
0.0
 11
194.567980425323
 21
227.2728701519633
 31
0.0
 11
194.6114211704768
 21
227.1516036131399
 31
0.0
 11
194.6633875705262
 21
227.0361525539922
 31
0.0
 11
194.7244897489052
 21
226.9252462809677
 31
0.0
 11
194.7929668388095
 21
226.8220294062163
 31
0.0
 11
194.8699084931673
 21
226.7249311056162
 31
0.0
 11
194.9528635815206
 21
226.6370025991779
 31
0.0
 11
195.0433010062114
 21
226.5567537968187
 31
0.0
 11
195.1383027292464
 21
226.4867344450347
 31
0.0
 11
195.2394343287571
 21
226.4258566441084
 31
0.0
 11
195.3437066551639
 21
226.3758777964681
 31
0.0
 11
195.4523632379256
 21
226.3362679966173
 31
0.0
 11
195.5561361523754
 21
226.3093026232046
 31
0.0
 11
195.6619363107506
 21
226.2922325406528
 31
0.0
  0
SPLINE
  5
D0
330
39
100
AcDbEntity
  8
1
  6
Continuous
 62
     7
100
AcDbSpline
210
0.0
220
0.0
230
1.0
 70
    11
 71
     3
 72
    79
 73
    75
 74
    73
 42
0.0000000001
 43
0.0000000001
 44
0.00000001
 40
0.0
 40
0.0
 40
0.0
 40
0.0
 40
0.1140623969877942
 40
0.2281134594081412
 40
0.3437646125440343
 40
0.4593959373039828
 40
0.5774370617700875
 40
0.6954541664789401
 40
0.8163623881381787
 40
0.9372465017684416
 40
1.061133943241475
 40
1.185000141516956
 40
1.311624300344721
 40
1.438231779556689
 40
1.567044324666808
 40
1.69584554027732
 40
1.826066071441577
 40
1.956280903736261
 40
2.086985088557619
 40
2.217689273378977
 40
2.347904105673602
 40
2.478124636837932
 40
2.60692585244842
 40
2.735738397558532
 40
2.862345876770561
 40
2.988970035598315
 40
3.112836233873748
 40
3.236723675346804
 40
3.357607788977067
 40
3.478516010636409
 40
3.596533115345256
 40
3.714574239811302
 40
3.830205564571172
 40
3.945856717707073
 40
4.059907780127537
 40
4.173970177115331
 40
4.287471636300865
 40
4.40097309548637
 40
4.515035492474164
 40
4.629086554894511
 40
4.744737708030367
 40
4.860369032790276
 40
4.978410157256371
 40
5.096427261965189
 40
5.217335483624448
 40
5.338219597254691
 40
5.462107038727702
 40
5.585973237003206
 40
5.712597395830949
 40
5.839204875042943
 40
5.968017420153089
 40
6.096818635763558
 40
6.22703916692786
 40
6.357253999222545
 40
6.487958184043872
 40
6.618662368865227
 40
6.748877201159883
 40
6.879097732324185
 40
7.007898947934654
 40
7.136711493044747
 40
7.263318972256703
 40
7.38994313108451
 40
7.51380932936003
 40
7.637696770833103
 40
7.758580884463346
 40
7.879489106122606
 40
7.997506210831436
 40
8.115547335297546
 40
8.231178660057481
 40
8.346829813193311
 40
8.460880875613617
 40
8.574943272601443
 40
8.688444731787005
 40
8.801946190972483
 40
8.801946190972483
 40
8.801946190972483
 40
8.801946190972483
 10
195.421561334375
 20
229.279269159047
 30
0.0
 10
195.3838270326363
 20
229.2743497782119
 30
0.0
 10
195.3083621788784
 20
229.264511505389
 30
0.0
 10
195.1972741285451
 20
229.2352579921232
 30
0.0
 10
195.0889340542932
 20
229.195940085679
 30
0.0
 10
194.983815402682
 20
229.1454040610803
 30
0.0
 10
194.8832428885859
 20
229.0848412637773
 30
0.0
 10
194.787380817048
 20
229.0140692191888
 30
0.0
 10
194.6975787648811
 20
228.9343235879899
 30
0.0
 10
194.6138873635938
 20
228.8454917221816
 30
0.0
 10
194.5375183672318
 20
228.7490333620098
 30
0.0
 10
194.468509055623
 20
228.6448874876688
 30
0.0
 10
194.4078271058415
 20
228.5346452391221
 30
0.0
 10
194.3555500996129
 20
228.4183757460315
 30
0.0
 10
194.312348862638
 20
228.2976676443358
 30
0.0
 10
194.2783428644559
 20
228.172810344069
 30
0.0
 10
194.2539085123031
 20
228.0452572992948
 30
0.0
 10
194.2391621661012
 20
227.9155890262934
 30
0.0
 10
194.2342344345522
 20
227.7850168360745
 30
0.0
 10
194.2391621661011
 20
227.6544446458533
 30
0.0
 10
194.2539085123037
 20
227.5247763728595
 30
0.0
 10
194.2783428644535
 20
227.3972233280567
 30
0.0
 10
194.3123488626463
 20
227.2723660278956
 30
0.0
 10
194.3555500995815
 20
227.1516579258083
 30
0.0
 10
194.4078271059559
 20
227.0353884341549
 30
0.0
 10
194.4685090551996
 20
226.9251461803026
 30
0.0
 10
194.5375183687741
 20
226.8210003253508
 30
0.0
 10
194.6138873578917
 20
226.7245418937233
 30
0.0
 10
194.6975787855908
 20
226.6357102884311
 30
0.0
 10
194.7873807404596
 20
226.5559636975189
 30
0.0
 10
194.883243166858
 20
226.4851951531471
 30
0.0
 10
194.9838143720478
 20
226.4246194452578
 30
0.0
 10
195.088937813824
 20
226.3741306691489
 30
0.0
 10
195.1972601675091
 20
226.3346379733159
 30
0.0
 10
195.3084134846985
 20
226.3060282291822
 30
0.0
 10
195.4211845755641
 20
226.2889028902721
 30
0.0
 10
195.5349171698933
 20
226.2830785984763
 30
0.0
 10
195.6486497642225
 20
226.2889028902721
 30
0.0
 10
195.761420855088
 20
226.3060282291822
 30
0.0
 10
195.8725741722774
 20
226.3346379733159
 30
0.0
 10
195.9808965259624
 20
226.3741306691489
 30
0.0
 10
196.0860199677387
 20
226.424619445258
 30
0.0
 10
196.1865911729284
 20
226.485195153147
 30
0.0
 10
196.2824535993269
 20
226.555963697519
 30
0.0
 10
196.3722555541955
 20
226.6357102884311
 30
0.0
 10
196.4559469818946
 20
226.7245418937234
 30
0.0
 10
196.5323159710124
 20
226.8210003253507
 30
0.0
 10
196.6013252845868
 20
226.9251461803026
 30
0.0
 10
196.6620072338306
 20
227.0353884341548
 30
0.0
 10
196.714284240205
 20
227.1516579258084
 30
0.0
 10
196.75748547714
 20
227.2723660278955
 30
0.0
 10
196.7914914753328
 20
227.3972233280567
 30
0.0
 10
196.8159258274826
 20
227.5247763728594
 30
0.0
 10
196.8306721736855
 20
227.6544446458534
 30
0.0
 10
196.8355999052339
 20
227.7850168360741
 30
0.0
 10
196.8306721736855
 20
227.9155890262948
 30
0.0
 10
196.8159258274826
 20
228.0452572992892
 30
0.0
 10
196.7914914753331
 20
228.17281034409
 30
0.0
 10
196.7574854771394
 20
228.2976676442585
 30
0.0
 10
196.7142842402071
 20
228.4183757463177
 30
0.0
 10
196.6620072338224
 20
228.5346452380743
 30
0.0
 10
196.6013252846172
 20
228.6448874915464
 30
0.0
 10
196.5323159709019
 20
228.749033347887
 30
0.0
 10
196.455946982303
 20
228.8454917743968
 30
0.0
 10
196.3722555527125
 20
228.934323398347
 30
0.0
 10
196.282453604812
 20
229.0140699205259
 30
0.0
 10
196.1865911529991
 20
229.0848387155777
 30
0.0
 10
196.086020041551
 20
229.1454134988315
 30
0.0
 10
195.9808962567109
 20
229.1959056588006
 30
0.0
 10
195.8725751721441
 20
229.2353858365015
 30
0.0
 10
195.7614171806485
 20
229.2640416863347
 30
0.0
 10
195.6486634568311
 20
229.280995722838
 30
0.0
 10
195.5348663465374
 20
229.2874563772388
 30
0.0
 10
195.4593296717625
 20
229.2819982317776
 30
0.0
 10
195.421561334375
 20
229.2792691590469
 30
0.0
 11
195.421561334375
 21
229.279269159047
 31
0.0
 11
195.3087958843998
 21
229.2621173749272
 31
0.0
 11
195.1983249561854
 21
229.233765675531
 31
0.0
 11
195.0896683734238
 21
229.1941558756801
 31
0.0
 11
194.985396047017
 21
229.1441770280398
 31
0.0
 11
194.8842644475062
 21
229.0832992271135
 31
0.0
 11
194.7892627244712
 21
229.0132798753296
 31
0.0
 11
194.6988252997804
 21
228.9330310729704
 31
0.0
 11
194.615870211427
 21
228.8451025665321
 31
0.0
 11
194.5389285570692
 21
228.7480042659321
 31
0.0
 11
194.470451467165
 21
228.6447873911806
 31
0.0
 11
194.4093492887861
 21
228.533881118156
 31
0.0
 11
194.3573828887366
 21
228.4184300590084
 31
0.0
 11
194.3139421435828
 21
228.2971635201849
 31
0.0
 11
194.2800625303741
 21
228.1728979780923
 31
0.0
 11
194.2555407703958
 21
228.0450071260963
 31
0.0
 11
194.2408129256321
 21
227.9156278652461
 31
0.0
 11
194.2358790642165
 21
227.7850168360741
 31
0.0
 11
194.2408129256321
 21
227.6544058069022
 31
0.0
 11
194.2555407703958
 21
227.5250265460521
 31
0.0
 11
194.280062530374
 21
227.397135694056
 31
0.0
 11
194.3139421435827
 21
227.2728701519633
 31
0.0
 11
194.3573828887365
 21
227.1516036131399
 31
0.0
 11
194.4093492887861
 21
227.0361525539922
 31
0.0
 11
194.470451467165
 21
226.9252462809677
 31
0.0
 11
194.5389285570692
 21
226.8220294062163
 31
0.0
 11
194.615870211427
 21
226.7249311056162
 31
0.0
 11
194.6988252997804
 21
226.6370025991779
 31
0.0
 11
194.7892627244713
 21
226.5567537968187
 31
0.0
 11
194.8842644475063
 21
226.4867344450347
 31
0.0
 11
194.985396047017
 21
226.4258566441084
 31
0.0
 11
195.0896683734237
 21
226.3758777964681
 31
0.0
 11
195.1983249561853
 21
226.3362679966173
 31
0.0
 11
195.3087958843999
 21
226.307916297221
 31
0.0
 11
195.4215613343751
 21
226.2907645131012
 31
0.0
 11
195.5349171698933
 21
226.2850168360741
 31
0.0
 11
195.6482730054115
 21
226.2907645131012
 31
0.0
 11
195.7610384553867
 21
226.307916297221
 31
0.0
 11
195.8715093836011
 21
226.3362679966172
 31
0.0
 11
195.9801659663627
 21
226.3758777964681
 31
0.0
 11
196.0844382927695
 21
226.4258566441085
 31
0.0
 11
196.1855698922802
 21
226.4867344450348
 31
0.0
 11
196.2805716153151
 21
226.5567537968187
 31
0.0
 11
196.371009040006
 21
226.637002599178
 31
0.0
 11
196.4539641283593
 21
226.7249311056162
 31
0.0
 11
196.5309057827172
 21
226.8220294062162
 31
0.0
 11
196.5993828726215
 21
226.9252462809677
 31
0.0
 11
196.6604850510004
 21
227.0361525539922
 31
0.0
 11
196.7124514510499
 21
227.1516036131398
 31
0.0
 11
196.7558921962037
 21
227.2728701519633
 31
0.0
 11
196.7897718094123
 21
227.3971356940559
 31
0.0
 11
196.8142935693905
 21
227.525026546052
 31
0.0
 11
196.8290214141543
 21
227.6544058069022
 31
0.0
 11
196.8339552755698
 21
227.7850168360741
 31
0.0
 11
196.8290214141543
 21
227.915627865246
 31
0.0
 11
196.8142935693905
 21
228.0450071260962
 31
0.0
 11
196.7897718094123
 21
228.1728979780923
 31
0.0
 11
196.7558921962037
 21
228.2971635201849
 31
0.0
 11
196.7124514510499
 21
228.4184300590084
 31
0.0
 11
196.6604850510004
 21
228.533881118156
 31
0.0
 11
196.5993828726215
 21
228.6447873911805
 31
0.0
 11
196.5309057827172
 21
228.7480042659321
 31
0.0
 11
196.4539641283594
 21
228.8451025665321
 31
0.0
 11
196.371009040006
 21
228.9330310729704
 31
0.0
 11
196.2805716153152
 21
229.0132798753296
 31
0.0
 11
196.1855698922802
 21
229.0832992271135
 31
0.0
 11
196.0844382927695
 21
229.1441770280399
 31
0.0
 11
195.9801659663627
 21
229.1941558756801
 31
0.0
 11
195.8715093836011
 21
229.233765675531
 31
0.0
 11
195.7610384553867
 21
229.2621173749272
 31
0.0
 11
195.6482730054115
 21
229.279269159047
 31
0.0
 11
195.5349171698932
 21
229.2850168360741
 31
0.0
 11
195.421561334375
 21
229.2792691590469
 31
0.0
  0
ARC
  5
D1
330
39
100
AcDbEntity
  8
1
  6
Continuous
 62
     7
100
AcDbCircle
 10
192.1197742270184
 20
231.7850168360741
 30
0.0
 40
1.0
100
AcDbArc
 50
90.00000000001791
 51
180.0
  0
ARC
  5
D2
330
39
100
AcDbEntity
  8
1
  6
Continuous
 62
     7
100
AcDbCircle
 10
207.5197742270187
 20
231.7850168360741
 30
0.0
 40
1.0
100
AcDbArc
 50
0.0
 51
90.00000000002279
  0
ENDBLK
  5
3B
330
39
100
AcDbEntity
  8
0
100
AcDbBlockEnd
  0
BLOCK
  5
3D
330
3C
100
AcDbEntity
  8
0
100
AcDbBlockBegin
  2
V2110-1-0__3
 70
     0
 71
     0
 10
476.7767402376899
 20
905.4446519524615
 30
0.0
  3
V2110-1-0__3
  1

  0
LINE
  5
D3
330
3C
100
AcDbEntity
  8
1
  6
Continuous
 62
     7
100
AcDbLine
 10
200.5032079851874
 20
447.6760336289295
 30
0.0
 11
200.5032079851874
 21
447.2307630608723
 31
0.0
  0
LINE
  5
D4
330
3C
100
AcDbEntity
  8
1
  6
Continuous
 62
     7
100
AcDbLine
 10
201.5032079851874
 20
448.4260336289295
 30
0.0
 11
201.5032079851874
 21
458.9260336289295
 31
0.0
  0
LINE
  5
D5
330
3C
100
AcDbEntity
  8
1
  6
Continuous
 62
     7
100
AcDbLine
 10
200.5032079851874
 20
447.6760336289295
 30
0.0
 11
200.7532079851874
 21
447.6760336289295
 31
0.0
  0
LINE
  5
D6
330
3C
100
AcDbEntity
  8
1
  6
Continuous
 62
     7
100
AcDbLine
 10
200.5032079851874
 20
459.6760336289295
 30
0.0
 11
200.5032079851874
 21
447.6760336289295
 31
0.0
  0
LINE
  5
D7
330
3C
100
AcDbEntity
  8
1
  6
Continuous
 62
     7
100
AcDbLine
 10
200.5032079851874
 20
459.6760336289295
 30
0.0
 11
200.7532079851874
 21
459.6760336289295
 31
0.0
  0
LINE
  5
D8
330
3C
100
AcDbEntity
  8
1
  6
Continuous
 62
     7
100
AcDbLine
 10
200.5032079851874
 20
460.1213041969868
 30
0.0
 11
200.5032079851874
 21
459.6760336289295
 31
0.0
  0
LINE
  5
D9
330
3C
100
AcDbEntity
  8
1
  6
Continuous
 62
     7
100
AcDbLine
 10
225.2494655152035
 20
465.6760336289295
 30
0.0
 11
223.6614911061029
 21
465.6760336289295
 31
0.0
  0
LINE
  5
DA
330
3C
100
AcDbEntity
  8
1
  6
Continuous
 62
     2
100
AcDbLine
 10
223.6614911061029
 20
464.8630336289295
 30
0.0
 11
225.2494655152035
 21
464.8630336289295
 31
0.0
  0
LINE
  5
DB
330
3C
100
AcDbEntity
  8
1
  6
Continuous
 62
     7
100
AcDbLine
 10
223.6614911061029
 20
465.6760336289295
 30
0.0
 11
223.6614911061029
 21
464.8630336289295
 31
0.0
  0
LINE
  5
DC
330
3C
100
AcDbEntity
  8
1
  6
Continuous
 62
     2
100
AcDbLine
 10
223.6614911061029
 20
464.8630336289295
 30
0.0
 11
222.2533337995494
 21
465.6760336289295
 31
0.0
  0
LINE
  5
DD
330
3C
100
AcDbEntity
  8
1
  6
Continuous
 62
     7
100
AcDbLine
 10
223.6614911061029
 20
465.6760336289295
 30
0.0
 11
222.2533337995494
 21
465.6760336289295
 31
0.0
  0
LINE
  5
DE
330
3C
100
AcDbEntity
  8
1
  6
Continuous
 62
     2
100
AcDbLine
 10
222.2533337995494
 20
441.6760336289295
 30
0.0
 11
223.6614911061029
 21
442.4890336289295
 31
0.0
  0
LINE
  5
DF
330
3C
100
AcDbEntity
  8
1
  6
Continuous
 62
     7
100
AcDbLine
 10
223.6614911061029
 20
442.4890336289295
 30
0.0
 11
223.6614911061029
 21
464.8630336289295
 31
0.0
  0
LINE
  5
E0
330
3C
100
AcDbEntity
  8
1
  6
Continuous
 62
     2
100
AcDbLine
 10
225.2494655152035
 20
442.4890336289295
 30
0.0
 11
223.6614911061029
 21
442.4890336289295
 31
0.0
  0
LINE
  5
E1
330
3C
100
AcDbEntity
  8
1
  6
Continuous
 62
     7
100
AcDbLine
 10
223.6614911061029
 20
441.6760336289295
 30
0.0
 11
225.2494655152035
 21
441.6760336289295
 31
0.0
  0
LINE
  5
E2
330
3C
100
AcDbEntity
  8
1
  6
Continuous
 62
     7
100
AcDbLine
 10
223.6614911061029
 20
442.4890336289295
 30
0.0
 11
223.6614911061029
 21
441.6760336289295
 31
0.0
  0
LINE
  5
E3
330
3C
100
AcDbEntity
  8
1
  6
Continuous
 62
     7
100
AcDbLine
 10
222.2533337995494
 20
441.6760336289295
 30
0.0
 11
223.6614911061029
 21
441.6760336289295
 31
0.0
  0
LINE
  5
E4
330
3C
100
AcDbEntity
  8
1
  6
Continuous
 62
     7
100
AcDbLine
 10
222.2533337995494
 20
465.6760336289295
 30
0.0
 11
205.8461495445293
 21
465.6760336289295
 31
0.0
  0
LINE
  5
E5
330
3C
100
AcDbEntity
  8
1
  6
Continuous
 62
     7
100
AcDbLine
 10
222.2533337995494
 20
441.6760336289295
 30
0.0
 11
218.1614911061029
 21
441.6760336289295
 31
0.0
  0
LINE
  5
E6
330
3C
100
AcDbEntity
  8
1
  6
DASH_CENTER
 62
     2
100
AcDbLine
 10
199.6614911061029
 20
469.1510291783247
 30
0.0
 11
199.6614911061029
 21
438.6760336289295
 31
0.0
  0
LINE
  5
E7
330
3C
100
AcDbEntity
  8
1
  6
Continuous
 62
     7
100
AcDbLine
 10
218.1614911061029
 20
441.6760336289295
 30
0.0
 11
205.8461495445293
 21
441.6760336289295
 31
0.0
  0
LINE
  5
E8
330
3C
100
AcDbEntity
  8
1
  6
Continuous
 62
     7
100
AcDbLine
 10
178.8197742270183
 20
459.8760336289297
 30
0.0
 11
178.8197742270183
 21
447.4760336289296
 31
0.0
  0
LINE
  5
E9
330
3C
100
AcDbEntity
  8
1
  6
Continuous
 62
     7
100
AcDbLine
 10
178.3197742270183
 20
457.0390336289297
 30
0.0
 11
178.3197742270183
 21
459.3760336289297
 31
0.0
  0
LINE
  5
EA
330
3C
100
AcDbEntity
  8
1
  6
Continuous
 62
     7
100
AcDbLine
 10
178.3197742270183
 20
447.9760336289296
 30
0.0
 11
178.3197742270183
 21
457.0390336289297
 31
0.0
  0
LINE
  5
EB
330
3C
100
AcDbEntity
  8
1
  6
Continuous
 62
     7
100
AcDbLine
 10
178.8197742270183
 20
447.4760336289296
 30
0.0
 11
183.5197742270184
 21
447.4760336289296
 31
0.0
  0
LINE
  5
EC
330
3C
100
AcDbEntity
  8
1
  6
Continuous
 62
     7
100
AcDbLine
 10
178.8197742270183
 20
459.8760336289297
 30
0.0
 11
183.6215595399824
 21
459.8760336289297
 31
0.0
  0
LINE
  5
ED
330
3C
100
AcDbEntity
  8
1
  6
Continuous
 62
     7
100
AcDbLine
 10
178.8197742270183
 20
459.8760336289297
 30
0.0
 11
178.3197742270183
 21
459.3760336289297
 31
0.0
  0
LINE
  5
EE
330
3C
100
AcDbEntity
  8
1
  6
Continuous
 62
     7
100
AcDbLine
 10
178.8197742270183
 20
447.4760336289296
 30
0.0
 11
178.3197742270183
 21
447.9760336289296
 31
0.0
  0
ARC
  5
EF
330
3C
100
AcDbEntity
  8
0
  6
Continuous
 62
     7
100
AcDbCircle
 10
183.7889980865816
 20
467.8715022526837
 30
0.0
 40
7.999999999999713
100
AcDbArc
 50
-91.92853799803754
 51
-52.12738195135511
  0
ARC
  5
F0
330
3C
100
AcDbEntity
  8
1
  6
Continuous
 62
     7
100
AcDbCircle
 10
199.6614911061029
 20
453.6760336289295
 30
0.0
 40
13.49999999999997
100
AcDbArc
 50
-62.73395554926744
 51
-144.2861924122062
  0
ARC
  5
F1
330
3C
100
AcDbEntity
  8
0
  6
Continuous
 62
     7
100
AcDbCircle
 10
183.7889980865816
 20
439.4805650051752
 30
0.0
 40
7.999999999999864
100
AcDbArc
 50
52.12738195135561
 51
91.92853799803748
  0
ARC
  5
F2
330
3C
100
AcDbEntity
  8
1
  6
Continuous
 62
     7
100
AcDbCircle
 10
199.6614911061029
 20
453.6760336289295
 30
0.0
 40
13.49999999999996
100
AcDbArc
 50
-144.2861924122062
 51
-62.73395554926744
  0
ARC
  5
F3
330
3C
100
AcDbEntity
  8
1
  6
Continuous
 62
     7
100
AcDbCircle
 10
199.6614911061029
 20
453.6760336289295
 30
0.0
 40
6.500000000000009
100
AcDbArc
 50
-82.5595942375723
 51
82.55959423757244
  0
ARC
  5
F4
330
3C
100
AcDbEntity
  8
1
  6
Continuous
 62
     7
100
AcDbCircle
 10
199.6614911061029
 20
453.6760336289295
 30
0.0
 40
6.500000000000122
100
AcDbArc
 50
82.55959423757244
 51
-82.5595942375723
  0
CIRCLE
  5
F5
330
3C
100
AcDbEntity
  8
1
  6
Continuous
 62
     7
100
AcDbCircle
 10
199.6614911061029
 20
453.6760336289295
 30
0.0
 40
10.65828312091543
  0
CIRCLE
  5
F6
330
3C
100
AcDbEntity
  8
1
  6
Continuous
 62
     2
100
AcDbCircle
 10
199.6614911061029
 20
453.6760336289295
 30
0.0
 40
9.496283120915507
  0
CIRCLE
  5
F7
330
3C
100
AcDbEntity
  8
1
  6
Continuous
 62
     7
100
AcDbCircle
 10
199.6614911061029
 20
453.6760336289295
 30
0.0
 40
12.5
  0
ARC
  5
F8
330
3C
100
AcDbEntity
  8
1
  6
Continuous
 62
     7
100
AcDbCircle
 10
200.7532079851874
 20
458.9260336289295
 30
0.0
 40
0.75
100
AcDbArc
 50
0.0
 51
90.0
  0
ARC
  5
F9
330
3C
100
AcDbEntity
  8
1
  6
Continuous
 62
     7
100
AcDbCircle
 10
200.7532079851874
 20
448.4260336289295
 30
0.0
 40
0.75
100
AcDbArc
 50
-90.0
 51
0.0
  0
ENDBLK
  5
3E
330
3C
100
AcDbEntity
  8
0
100
AcDbBlockEnd
  0
BLOCK
  5
40
330
3F
100
AcDbEntity
  8
0
100
AcDbBlockBegin
  2
36-1A-13-M4__4
 70
     0
 71
     0
 10
149.4001339392487
 20
405.2843648900662
 30
0.0
  3
36-1A-13-M4__4
  1

  0
LINE
  5
FA
330
3F
100
AcDbEntity
  8
1
  6
Continuous
 62
     7
100
AcDbLine
 10
242.3197742270185
 20
448.9260336289295
 30
0.0
 11
239.2494655152035
 21
448.9260336289294
 31
0.0
  0
LINE
  5
FB
330
3F
100
AcDbEntity
  8
1
  6
Continuous
 62
     7
100
AcDbLine
 10
239.2494655152035
 20
458.4260336289295
 30
0.0
 11
242.3197742270185
 21
458.4260336289295
 31
0.0
  0
ENDBLK
  5
41
330
3F
100
AcDbEntity
  8
0
100
AcDbBlockEnd
  0
BLOCK
  5
43
330
42
100
AcDbEntity
  8
0
100
AcDbBlockBegin
  2
37-1-13__5
 70
     0
 71
     0
 10
197.9058151201684
 20
149.037434878435
 30
0.0
  3
37-1-13__5
  1

  0
LINE
  5
FC
330
42
100
AcDbEntity
  8
1
  6
Continuous
 62
     7
100
AcDbLine
 10
232.3201797294748
 20
466.6760336289295
 30
0.0
 11
225.2494655152035
 21
466.6760336289295
 31
0.0
  0
LINE
  5
FD
330
42
100
AcDbEntity
  8
1
  6
Continuous
 62
     7
100
AcDbLine
 10
232.3201797294748
 20
466.6760336289295
 30
0.0
 11
225.2494655152035
 21
466.6760336289295
 31
0.0
  0
LINE
  5
FE
330
42
100
AcDbEntity
  8
1
  6
Continuous
 62
     7
100
AcDbLine
 10
225.2494655152035
 20
440.6760336289295
 30
0.0
 11
232.3201797294748
 21
440.6760336289295
 31
0.0
  0
LINE
  5
FF
330
42
100
AcDbEntity
  8
1
  6
Continuous
 62
     7
100
AcDbLine
 10
232.7494655152035
 20
453.6760336289296
 30
0.0
 11
232.7494655152036
 21
441.1760336289296
 31
0.0
  0
LINE
  5
100
330
42
100
AcDbEntity
  8
1
  6
Continuous
 62
     7
100
AcDbLine
 10
225.2494655152035
 20
440.6760336289295
 30
0.0
 11
225.2494655152035
 21
466.7467478432009
 31
0.0
  0
LINE
  5
101
330
42
100
AcDbEntity
  8
1
  6
Continuous
 62
     7
100
AcDbLine
 10
239.2494655152035
 20
447.6760336289295
 30
0.0
 11
239.2494655152035
 21
459.6760336289294
 31
0.0
  0
LINE
  5
102
330
42
100
AcDbEntity
  8
1
  6
Continuous
 62
     7
100
AcDbLine
 10
232.7494655152036
 20
466.1760336289293
 30
0.0
 11
232.7494655152035
 21
453.6760336289296
 31
0.0
  0
ARC
  5
103
330
42
100
AcDbEntity
  8
1
  6
Continuous
 62
     7
100
AcDbCircle
 10
228.7494655152035
 20
463.1760336289295
 30
0.0
 40
4.999999999999989
100
AcDbArc
 50
36.86989764584168
 51
44.42700400080667
  0
ARC
  5
104
330
42
100
AcDbEntity
  8
1
  6
Continuous
 62
     7
100
AcDbCircle
 10
252.6559207203184
 20
427.7695784238144
 30
0.0
 40
24.00000000000012
100
AcDbArc
 50
123.9591925000972
 51
146.0408074999018
  0
ARC
  5
105
330
42
100
AcDbEntity
  8
1
  6
Continuous
 62
     7
100
AcDbCircle
 10
228.7494655152035
 20
444.1760336289295
 30
0.0
 40
4.999999999999915
100
AcDbArc
 50
-44.42700400080667
 51
-36.86989764584219
  0
ARC
  5
106
330
42
100
AcDbEntity
  8
1
  6
Continuous
 62
     7
100
AcDbCircle
 10
252.6559207203184
 20
479.5824888340444
 30
0.0
 40
23.99999999999998
100
AcDbArc
 50
-146.040807499902
 51
-123.9591925000974
  0
SPLINE
  5
107
330
42
100
AcDbEntity
  8
1
  6
Continuous
 62
     7
100
AcDbSpline
210
0.0
220
0.0
230
1.0
 70
    11
 71
     3
 72
    79
 73
    75
 74
    73
 42
0.0000000001
 43
0.0000000001
 44
0.00000001
 40
0.0
 40
0.0
 40
0.0
 40
0.0
 40
0.3142773867009582
 40
0.6283112411574798
 40
0.9612293766542643
 40
1.293805038039689
 40
1.653399990663236
 40
2.012687710360695
 40
2.402596358667175
 40
2.792277135713477
 40
3.212125602383167
 40
3.631818889112997
 40
4.078023830870186
 40
4.52412891624622
 40
4.990742665932583
 40
5.457297388872958
 40
5.936768753151212
 40
6.416212753073341
 40
6.900062536488108
 40
7.383912319902592
 40
7.863356319824492
 40
8.342827684102684
 40
8.80938240704327
 40
9.275996156729715
 40
9.722101242105667
 40
10.16830618386272
 40
10.58799947059252
 40
11.00784793726243
 40
11.39752871430886
 40
11.78743736261527
 40
12.14672508231272
 40
12.50632003493629
 40
12.83889569632168
 40
13.17181383181842
 40
13.48584768627496
 40
13.8001250729759
 40
14.10756996787572
 40
14.41501486277548
 40
14.72929224947643
 40
15.04332610393305
 40
15.37624423942986
 40
15.70881990081528
 40
16.06841485343875
 40
16.42770257313619
 40
16.81761122144278
 40
17.20729199848909
 40
17.6271404651589
 40
18.04683375188877
 40
18.49303869364574
 40
18.93914377902185
 40
19.4057575287082
 40
19.87231225164874
 40
20.35178361592681
 40
20.83122761584883
 40
21.31507739926353
 40
21.79892718267813
 40
22.27837118260014
 40
22.75784254687839
 40
23.22439726981897
 40
23.69101101950538
 40
24.13711610488133
 40
24.58332104663847
 40
25.00301433336821
 40
25.42286280003803
 40
25.81254357708444
 40
26.2024522253909
 40
26.5617399450884
 40
26.92133489771199
 40
27.25391055909732
 40
27.58682869459398
 40
27.90086254905045
 40
28.21513993575143
 40
28.52258483065129
 40
28.83002972555114
 40
28.83002972555114
 40
28.83002972555114
 40
28.83002972555114
 10
229.0561442752035
 20
454.6355758116391
 30
0.0
 10
229.1594158299038
 20
454.6541682842378
 30
0.0
 10
229.3658789146046
 20
454.6913388222054
 30
0.0
 10
229.6679637470962
 20
454.8022850854177
 30
0.0
 10
229.9601586401419
 20
454.949349928201
 30
0.0
 10
230.2450130061398
 20
455.1395044804512
 30
0.0
 10
230.5144539288949
 20
455.3646392089755
 30
0.0
 10
230.7732512856525
 20
455.6292752790859
 30
0.0
 10
231.0129289499781
 20
455.9243355047667
 30
0.0
 10
231.2382671916615
 20
456.2551015523277
 30
0.0
 10
231.4418307125925
 20
456.6111688742921
 30
0.0
 10
231.6273229803061
 20
456.9979019464751
 30
0.0
 10
231.7890930930259
 20
457.4045754041454
 30
0.0
 10
231.929460653693
 20
457.8355515999041
 30
0.0
 10
232.0447037120785
 20
458.2809252842538
 30
0.0
 10
232.1359570502966
 20
458.7431382341433
 30
0.0
 10
232.201164592028
 20
459.2140568268416
 30
0.0
 10
232.2407550594595
 20
459.6935883911256
 30
0.0
 10
232.2538406624304
 20
460.1760336289267
 30
0.0
 10
232.2407550594607
 20
460.6584788667432
 30
0.0
 10
232.2011645920231
 20
461.1380104309816
 30
0.0
 10
232.1359570503149
 20
461.6089290238436
 30
0.0
 10
232.0447037120125
 20
462.0711419731393
 30
0.0
 10
231.9294606539351
 20
462.5165156596603
 30
0.0
 10
231.7890930921679
 20
462.9474918476577
 30
0.0
 10
231.6273229834346
 20
463.354165333454
 30
0.0
 10
231.4418307016842
 20
463.7408983066063
 30
0.0
 10
231.2382672312339
 20
464.0969659847174
 30
0.0
 10
231.0129288140049
 20
464.4277307937788
 30
0.0
 10
230.7732517778249
 20
464.7227954511161
 30
0.0
 10
230.5144522510519
 20
464.9874162114628
 30
0.0
 10
230.2450190916093
 20
465.2126057112461
 30
0.0
 10
229.9601378076447
 20
465.4025703534671
 30
0.0
 10
229.6680399181874
 20
465.550319570168
 30
0.0
 10
229.3656124041241
 20
465.6588481668417
 30
0.0
 10
229.0593777121806
 20
465.7230596942159
 30
0.0
 10
228.7494655152036
 20
465.7456607973534
 30
0.0
 10
228.4395533182269
 20
465.723059694216
 30
0.0
 10
228.133318626283
 20
465.6588481668419
 30
0.0
 10
227.8308911122199
 20
465.5503195701681
 30
0.0
 10
227.5387932227624
 20
465.4025703534672
 30
0.0
 10
227.2539119387979
 20
465.2126057112462
 30
0.0
 10
226.9844787793553
 20
464.987416211463
 30
0.0
 10
226.7256792525821
 20
464.7227954511162
 30
0.0
 10
226.4860022164025
 20
464.4277307937789
 30
0.0
 10
226.2606637991731
 20
464.0969659847177
 30
0.0
 10
226.0571003287229
 20
463.7408983066064
 30
0.0
 10
225.8716080469724
 20
463.3541653334544
 30
0.0
 10
225.7098379382392
 20
462.9474918476578
 30
0.0
 10
225.569470376472
 20
462.5165156596604
 30
0.0
 10
225.4542273183943
 20
462.0711419731399
 30
0.0
 10
225.362973980092
 20
461.6089290238438
 30
0.0
 10
225.2977664383839
 20
461.1380104309823
 30
0.0
 10
225.2581759709461
 20
460.6584788667427
 30
0.0
 10
225.245090367977
 20
460.1760336289295
 30
0.0
 10
225.2581759709461
 20
459.6935883911172
 30
0.0
 10
225.2977664383841
 20
459.2140568268743
 30
0.0
 10
225.3629739800908
 20
458.7431382340242
 30
0.0
 10
225.4542273183989
 20
458.2809252846861
 30
0.0
 10
225.5694703764547
 20
457.8355515983197
 30
0.0
 10
225.7098379383
 20
457.404575409771
 30
0.0
 10
225.8716080467501
 20
456.9979019259716
 30
0.0
 10
226.0571003294971
 20
456.6111689457881
 30
0.0
 10
226.2606637963632
 20
456.2551012929644
 30
0.0
 10
226.4860022260566
 20
455.9243363959661
 30
0.0
 10
226.7256792176364
 20
455.6292720532892
 30
0.0
 10
226.9844788984868
 20
455.3646502059041
 30
0.0
 10
227.2539115067114
 20
455.1394645950421
 30
0.0
 10
227.5387947019311
 20
454.9494864686482
 30
0.0
 10
227.8308857038472
 20
454.8017858445164
 30
0.0
 10
228.1333375493138
 20
454.6930855863791
 30
0.0
 10
228.4394831474243
 20
454.6295026284912
 30
0.0
 10
228.7497210950662
 20
454.6046033087347
 30
0.0
 10
228.9540032151577
 20
454.6252516440043
 30
0.0
 10
229.0561442752035
 20
454.6355758116391
 30
0.0
 11
229.0561442752035
 21
454.6355758116391
 31
0.0
 11
229.3637061479644
 21
454.7001975588718
 31
0.0
 11
229.6595950267604
 21
454.805397526313
 31
0.0
 11
229.9568600916282
 21
454.9552907087858
 31
0.0
 11
230.2340487083733
 21
455.1390651392512
 31
0.0
 11
230.5104226084542
 21
455.3691216481928
 31
0.0
 11
230.7621491881741
 21
455.6254834912738
 31
0.0
 11
231.0085733591659
 21
455.9276488135317
 31
0.0
 11
231.2284228716141
 21
456.24938985828
 31
0.0
 11
231.4373767768174
 21
456.6135477916896
 31
0.0
 11
231.6192328383992
 21
456.9917948376689
 31
0.0
 11
231.7846413175248
 21
457.4062087431811
 31
0.0
 11
231.9230381849476
 21
457.830303136313
 31
0.0
 11
232.0402858673167
 21
458.2819461063407
 31
0.0
 11
232.1307846999697
 21
458.7396395307925
 31
0.0
 11
232.1967776205036
 21
459.2145476520141
 31
0.0
 11
232.2362438515924
 21
459.6923645266272
 31
0.0
 11
232.2494655152035
 21
460.1760336289294
 31
0.0
 11
232.2362438515924
 21
460.6597027312314
 31
0.0
 11
232.1967776205036
 21
461.1375196058442
 31
0.0
 11
232.1307846999698
 21
461.6124277270658
 31
0.0
 11
232.0402858673168
 21
462.0701211515178
 31
0.0
 11
231.9230381849479
 21
462.5217641215456
 31
0.0
 11
231.7846413175251
 21
462.9458585146775
 31
0.0
 11
231.6192328383995
 21
463.3602724201895
 31
0.0
 11
231.4373767768176
 21
463.7385194661687
 31
0.0
 11
231.2284228716143
 21
464.1026773995786
 31
0.0
 11
231.0085733591662
 21
464.4244184443271
 31
0.0
 11
230.7621491881745
 21
464.7265837665849
 31
0.0
 11
230.5104226084544
 21
464.9829456096658
 31
0.0
 11
230.2340487083736
 21
465.2130021186075
 31
0.0
 11
229.9568600916284
 21
465.3967765490728
 31
0.0
 11
229.6595950267608
 21
465.5466697315457
 31
0.0
 11
229.3637061479647
 21
465.651869698987
 31
0.0
 11
229.0561442752039
 21
465.7164914462197
 31
0.0
 11
228.7494655152036
 21
465.738182494251
 31
0.0
 11
228.4427867552035
 21
465.7164914462197
 31
0.0
 11
228.1352248824426
 21
465.651869698987
 31
0.0
 11
227.8393360036465
 21
465.5466697315458
 31
0.0
 11
227.5420709387787
 21
465.3967765490729
 31
0.0
 11
227.2648823220335
 21
465.2130021186076
 31
0.0
 11
226.9885084219527
 21
464.9829456096661
 31
0.0
 11
226.7367818422327
 21
464.7265837665851
 31
0.0
 11
226.4903576712409
 21
464.4244184443271
 31
0.0
 11
226.2705081587928
 21
464.1026773995788
 31
0.0
 11
226.0615542535895
 21
463.738519466169
 31
0.0
 11
225.8796981920076
 21
463.3602724201897
 31
0.0
 11
225.714289712882
 21
462.9458585146778
 31
0.0
 11
225.5758928454591
 21
462.5217641215458
 31
0.0
 11
225.4586451630901
 21
462.0701211515181
 31
0.0
 11
225.3681463304371
 21
461.6124277270661
 31
0.0
 11
225.3021534099033
 21
461.1375196058447
 31
0.0
 11
225.2626871788146
 21
460.6597027312317
 31
0.0
 11
225.2494655152035
 21
460.1760336289295
 31
0.0
 11
225.2626871788145
 21
459.6923645266274
 31
0.0
 11
225.3021534099033
 21
459.2145476520145
 31
0.0
 11
225.3681463304371
 21
458.7396395307929
 31
0.0
 11
225.45864516309
 21
458.2819461063409
 31
0.0
 11
225.5758928454591
 21
457.8303031363131
 31
0.0
 11
225.7142897128818
 21
457.4062087431813
 31
0.0
 11
225.8796981920074
 21
456.9917948376691
 31
0.0
 11
226.0615542535892
 21
456.6135477916899
 31
0.0
 11
226.2705081587926
 21
456.2493898582802
 31
0.0
 11
226.4903576712407
 21
455.9276488135317
 31
0.0
 11
226.7367818422324
 21
455.6254834912738
 31
0.0
 11
226.9885084219525
 21
455.3691216481928
 31
0.0
 11
227.2648823220334
 21
455.1390651392513
 31
0.0
 11
227.5420709387786
 21
454.955290708786
 31
0.0
 11
227.8393360036461
 21
454.8053975263132
 31
0.0
 11
228.1352248824422
 21
454.700197558872
 31
0.0
 11
228.442786755203
 21
454.6355758116392
 31
0.0
 11
228.7494655152033
 21
454.6138847636079
 31
0.0
 11
229.0561442752035
 21
454.6355758116391
 31
0.0
  0
SPLINE
  5
108
330
42
100
AcDbEntity
  8
1
  6
Continuous
 62
     7
100
AcDbSpline
210
0.0
220
0.0
230
1.0
 70
    11
 71
     3
 72
    79
 73
    75
 74
    73
 42
0.0000000001
 43
0.0000000001
 44
0.00000001
 40
0.0
 40
0.0
 40
0.0
 40
0.0
 40
0.3142773867009699
 40
0.6283112411574724
 40
0.9612293766543081
 40
1.293805038039576
 40
1.653399990663087
 40
2.012687710360545
 40
2.402596358667025
 40
2.79227713571342
 40
3.212125602383209
 40
3.631818889112937
 40
4.078023830869967
 40
4.524128916245946
 40
4.990742665932475
 40
5.457297388873016
 40
5.936768753151328
 40
6.416212753073344
 40
6.900062536487884
 40
7.383912319902652
 40
7.863356319824551
 40
8.34282768410263
 40
8.809382407043161
 40
9.275996156729661
 40
9.722101242105669
 40
10.16830618386277
 40
10.58799947059253
 40
11.00784793726229
 40
11.39752871430857
 40
11.78743736261516
 40
12.1467250823127
 40
12.50632003493619
 40
12.83889569632156
 40
13.17181383181826
 40
13.48584768627479
 40
13.80012507297574
 40
14.10756996787558
 40
14.41501486277534
 40
14.72929224947627
 40
15.04332610393288
 40
15.37624423942969
 40
15.7088199008151
 40
16.06841485343862
 40
16.4277025731361
 40
16.81761122144255
 40
17.20729199848896
 40
17.62714046515882
 40
18.04683375188858
 40
18.49303869364572
 40
18.93914377902161
 40
19.40575752870807
 40
19.87231225164861
 40
20.3517836159268
 40
20.83122761584886
 40
21.3150773992634
 40
21.79892718267817
 40
22.27837118260012
 40
22.75784254687831
 40
23.22439726981873
 40
23.69101101950514
 40
24.13711610488109
 40
24.58332104663828
 40
25.00301433336817
 40
25.42286280003795
 40
25.81254357708426
 40
26.20245222539077
 40
26.56173994508823
 40
26.92133489771192
 40
27.25391055909723
 40
27.58682869459388
 40
27.90086254905035
 40
28.21513993575131
 40
28.52258483065117
 40
28.83002972555102
 40
28.83002972555102
 40
28.83002972555102
 40
28.83002972555102
 10
229.0561442752035
 20
452.7164914462197
 30
0.0
 10
229.1594158299038
 20
452.697898973621
 30
0.0
 10
229.3658789146046
 20
452.6607284356535
 30
0.0
 10
229.6679637470962
 20
452.5497821724411
 30
0.0
 10
229.9601586401419
 20
452.4027173296578
 30
0.0
 10
230.24501300614
 20
452.212562777408
 30
0.0
 10
230.5144539288949
 20
451.9874280488834
 30
0.0
 10
230.7732512856525
 20
451.7227919787731
 30
0.0
 10
231.0129289499782
 20
451.4277317530925
 30
0.0
 10
231.2382671916616
 20
451.0969657055313
 30
0.0
 10
231.4418307125924
 20
450.7408983835667
 30
0.0
 10
231.6273229803061
 20
450.3541653113839
 30
0.0
 10
231.7890930930259
 20
449.9474918537137
 30
0.0
 10
231.9294606536931
 20
449.5165156579551
 30
0.0
 10
232.0447037120784
 20
449.0711419736052
 30
0.0
 10
232.1359570502966
 20
448.6089290237156
 30
0.0
 10
232.2011645920281
 20
448.1380104310172
 30
0.0
 10
232.2407550594595
 20
447.6584788667333
 30
0.0
 10
232.2538406624305
 20
447.1760336289321
 30
0.0
 10
232.2407550594607
 20
446.6935883911159
 30
0.0
 10
232.2011645920232
 20
446.2140568268773
 30
0.0
 10
232.1359570503147
 20
445.7431382340153
 30
0.0
 10
232.0447037120126
 20
445.2809252847194
 30
0.0
 10
231.9294606539351
 20
444.8355515981989
 30
0.0
 10
231.7890930921679
 20
444.4045754102012
 30
0.0
 10
231.6273229834347
 20
443.9979019244047
 30
0.0
 10
231.4418307016842
 20
443.6111689512529
 30
0.0
 10
231.238267231234
 20
443.2551012731415
 30
0.0
 10
231.0129288140047
 20
442.9243364640804
 30
0.0
 10
230.773251777825
 20
442.629271806743
 30
0.0
 10
230.514452251052
 20
442.3646510463962
 30
0.0
 10
230.2450190916093
 20
442.139461546613
 30
0.0
 10
229.9601378076447
 20
441.9494969043919
 30
0.0
 10
229.6680399181874
 20
441.8017476876912
 30
0.0
 10
229.3656124041243
 20
441.6932190910173
 30
0.0
 10
229.0593777121805
 20
441.6290075636434
 30
0.0
 10
228.7494655152037
 20
441.6064064605054
 30
0.0
 10
228.4395533182268
 20
441.6290075636432
 30
0.0
 10
228.1333186262831
 20
441.6932190910171
 30
0.0
 10
227.8308911122198
 20
441.8017476876909
 30
0.0
 10
227.5387932227624
 20
441.9494969043917
 30
0.0
 10
227.2539119387978
 20
442.1394615466128
 30
0.0
 10
226.9844787793553
 20
442.3646510463961
 30
0.0
 10
226.7256792525822
 20
442.6292718067427
 30
0.0
 10
226.4860022164023
 20
442.9243364640799
 30
0.0
 10
226.2606637991732
 20
443.2551012731414
 30
0.0
 10
226.0571003287229
 20
443.6111689512528
 30
0.0
 10
225.8716080469723
 20
443.9979019244045
 30
0.0
 10
225.7098379382394
 20
444.4045754102012
 30
0.0
 10
225.5694703764719
 20
444.8355515981985
 30
0.0
 10
225.4542273183943
 20
445.2809252847193
 30
0.0
 10
225.362973980092
 20
445.743138234015
 30
0.0
 10
225.2977664383839
 20
446.214056826877
 30
0.0
 10
225.2581759709462
 20
446.6935883911164
 30
0.0
 10
225.245090367977
 20
447.1760336289296
 30
0.0
 10
225.2581759709461
 20
447.6584788667421
 30
0.0
 10
225.2977664383841
 20
448.1380104309845
 30
0.0
 10
225.3629739800907
 20
448.6089290238348
 30
0.0
 10
225.454227318399
 20
449.0711419731728
 30
0.0
 10
225.5694703764547
 20
449.5165156595392
 30
0.0
 10
225.7098379383
 20
449.9474918480877
 30
0.0
 10
225.8716080467501
 20
450.3541653318874
 30
0.0
 10
226.0571003294971
 20
450.7408983120707
 30
0.0
 10
226.2606637963633
 20
451.0969659648948
 30
0.0
 10
226.4860022260567
 20
451.4277308618929
 30
0.0
 10
226.7256792176363
 20
451.7227952045699
 30
0.0
 10
226.9844788984869
 20
451.9874170519547
 30
0.0
 10
227.2539115067114
 20
452.2126026628171
 30
0.0
 10
227.5387947019311
 20
452.4025807892108
 30
0.0
 10
227.8308857038472
 20
452.5502814133427
 30
0.0
 10
228.1333375493136
 20
452.6589816714798
 30
0.0
 10
228.4394831474243
 20
452.7225646293679
 30
0.0
 10
228.7497210950662
 20
452.7474639491242
 30
0.0
 10
228.9540032151577
 20
452.7268156138545
 30
0.0
 10
229.0561442752035
 20
452.7164914462197
 30
0.0
 11
229.0561442752035
 21
452.7164914462197
 31
0.0
 11
229.3637061479644
 21
452.651869698987
 31
0.0
 11
229.6595950267604
 21
452.5466697315459
 31
0.0
 11
229.9568600916282
 21
452.3967765490729
 31
0.0
 11
230.2340487083733
 21
452.2130021186079
 31
0.0
 11
230.5104226084542
 21
451.9829456096662
 31
0.0
 11
230.7621491881741
 21
451.7265837665852
 31
0.0
 11
231.0085733591659
 21
451.4244184443273
 31
0.0
 11
231.2284228716141
 21
451.102677399579
 31
0.0
 11
231.4373767768174
 21
450.7385194661692
 31
0.0
 11
231.6192328383992
 21
450.3602724201901
 31
0.0
 11
231.7846413175248
 21
449.945858514678
 31
0.0
 11
231.9230381849476
 21
449.5217641215462
 31
0.0
 11
232.0402858673167
 21
449.0701211515183
 31
0.0
 11
232.1307846999697
 21
448.6124277270664
 31
0.0
 11
232.1967776205036
 21
448.1375196058447
 31
0.0
 11
232.2362438515924
 21
447.6597027312317
 31
0.0
 11
232.2494655152035
 21
447.1760336289297
 31
0.0
 11
232.2362438515924
 21
446.6923645266274
 31
0.0
 11
232.1967776205036
 21
446.2145476520146
 31
0.0
 11
232.1307846999698
 21
445.7396395307932
 31
0.0
 11
232.0402858673168
 21
445.2819461063412
 31
0.0
 11
231.9230381849479
 21
444.8303031363133
 31
0.0
 11
231.7846413175251
 21
444.4062087431814
 31
0.0
 11
231.6192328383995
 21
443.9917948376693
 31
0.0
 11
231.4373767768176
 21
443.6135477916902
 31
0.0
 11
231.2284228716143
 21
443.2493898582804
 31
0.0
 11
231.0085733591662
 21
442.9276488135321
 31
0.0
 11
230.7621491881745
 21
442.6254834912741
 31
0.0
 11
230.5104226084544
 21
442.3691216481931
 31
0.0
 11
230.2340487083736
 21
442.1390651392515
 31
0.0
 11
229.9568600916284
 21
441.9552907087863
 31
0.0
 11
229.6595950267608
 21
441.8053975263134
 31
0.0
 11
229.3637061479647
 21
441.7001975588722
 31
0.0
 11
229.0561442752039
 21
441.6355758116395
 31
0.0
 11
228.7494655152036
 21
441.613884763608
 31
0.0
 11
228.4427867552035
 21
441.6355758116393
 31
0.0
 11
228.1352248824426
 21
441.700197558872
 31
0.0
 11
227.8393360036465
 21
441.8053975263132
 31
0.0
 11
227.5420709387787
 21
441.955290708786
 31
0.0
 11
227.2648823220335
 21
442.1390651392513
 31
0.0
 11
226.9885084219527
 21
442.369121648193
 31
0.0
 11
226.7367818422327
 21
442.6254834912739
 31
0.0
 11
226.4903576712409
 21
442.9276488135318
 31
0.0
 11
226.2705081587928
 21
443.2493898582802
 31
0.0
 11
226.0615542535895
 21
443.6135477916901
 31
0.0
 11
225.8796981920076
 21
443.9917948376692
 31
0.0
 11
225.714289712882
 21
444.4062087431814
 31
0.0
 11
225.5758928454591
 21
444.8303031363131
 31
0.0
 11
225.4586451630901
 21
445.2819461063409
 31
0.0
 11
225.3681463304371
 21
445.7396395307929
 31
0.0
 11
225.3021534099033
 21
446.2145476520145
 31
0.0
 11
225.2626871788146
 21
446.6923645266274
 31
0.0
 11
225.2494655152035
 21
447.1760336289295
 31
0.0
 11
225.2626871788145
 21
447.6597027312317
 31
0.0
 11
225.3021534099033
 21
448.1375196058446
 31
0.0
 11
225.3681463304371
 21
448.6124277270662
 31
0.0
 11
225.45864516309
 21
449.070121151518
 31
0.0
 11
225.5758928454591
 21
449.5217641215458
 31
0.0
 11
225.7142897128818
 21
449.9458585146776
 31
0.0
 11
225.8796981920074
 21
450.3602724201899
 31
0.0
 11
226.0615542535892
 21
450.7385194661692
 31
0.0
 11
226.2705081587926
 21
451.1026773995789
 31
0.0
 11
226.4903576712407
 21
451.4244184443272
 31
0.0
 11
226.7367818422324
 21
451.7265837665852
 31
0.0
 11
226.9885084219525
 21
451.9829456096661
 31
0.0
 11
227.2648823220334
 21
452.2130021186079
 31
0.0
 11
227.5420709387786
 21
452.396776549073
 31
0.0
 11
227.8393360036461
 21
452.5466697315459
 31
0.0
 11
228.1352248824422
 21
452.6518696989871
 31
0.0
 11
228.442786755203
 21
452.7164914462197
 31
0.0
 11
228.7494655152033
 21
452.7381824942511
 31
0.0
 11
229.0561442752035
 21
452.7164914462197
 31
0.0
  0
ENDBLK
  5
44
330
42
100
AcDbEntity
  8
0
100
AcDbBlockEnd
  0
BLOCK
  5
46
330
45
100
AcDbEntity
  8
0
100
AcDbBlockBegin
  2
42-1__6
 70
     0
 71
     0
 10
204.7972052480402
 20
232.10050878661
 30
0.0
  3
42-1__6
  1

  0
LINE
  5
109
330
45
100
AcDbEntity
  8
1
  6
Continuous
 62
     7
100
AcDbLine
 10
256.6495399472221
 20
453.6760336289295
 30
0.0
 11
256.6495399472221
 21
447.9260336289295
 31
0.0
  0
LINE
  5
10A
330
45
100
AcDbEntity
  8
1
  6
Continuous
 62
     7
100
AcDbLine
 10
256.3197742270185
 20
448.1760336289295
 30
0.0
 11
256.3197742270185
 21
447.6760336289295
 31
0.0
  0
LINE
  5
10B
330
45
100
AcDbEntity
  8
1
  6
Continuous
 62
     2
100
AcDbLine
 10
253.3197742270185
 20
447.6760336289295
 30
0.0
 11
256.3197742270185
 21
447.6760336289295
 31
0.0
  0
LINE
  5
10C
330
45
100
AcDbEntity
  8
1
  6
Continuous
 62
     7
100
AcDbLine
 10
256.3197742270185
 20
447.1760336289295
 30
0.0
 11
256.3197742270185
 21
446.6760336289295
 31
0.0
  0
LINE
  5
10D
330
45
100
AcDbEntity
  8
1
  6
Continuous
 62
     7
100
AcDbLine
 10
256.5890964260417
 20
447.6760336289294
 30
0.0
 11
256.3197742270185
 21
446.6760336289295
 31
0.0
  0
LINE
  5
10E
330
45
100
AcDbEntity
  8
1
  6
Continuous
 62
     7
100
AcDbLine
 10
256.3197742270185
 20
446.6760336289295
 30
0.0
 11
253.3197742270185
 21
446.6760336289295
 31
0.0
  0
LINE
  5
10F
330
45
100
AcDbEntity
  8
1
  6
Continuous
 62
     2
100
AcDbLine
 10
253.3197742270185
 20
447.1760336289295
 30
0.0
 11
256.3197742270185
 21
447.1760336289295
 31
0.0
  0
LINE
  5
110
330
45
100
AcDbEntity
  8
1
  6
Continuous
 62
     7
100
AcDbLine
 10
256.3197742270185
 20
447.6760336289295
 30
0.0
 11
256.3197742270185
 21
447.1760336289295
 31
0.0
  0
LINE
  5
111
330
45
100
AcDbEntity
  8
1
  6
Continuous
 62
     2
100
AcDbLine
 10
253.3197742270185
 20
448.1760336289295
 30
0.0
 11
256.3197742270185
 21
448.1760336289295
 31
0.0
  0
LINE
  5
112
330
45
100
AcDbEntity
  8
1
  6
Continuous
 62
     7
100
AcDbLine
 10
256.3197742270185
 20
448.6760336289295
 30
0.0
 11
256.3197742270185
 21
448.1760336289295
 31
0.0
  0
LINE
  5
113
330
45
100
AcDbEntity
  8
1
  6
Continuous
 62
     7
100
AcDbLine
 10
256.6495399472221
 20
459.4260336289295
 30
0.0
 11
256.6495399472221
 21
453.6760336289295
 31
0.0
  0
LINE
  5
114
330
45
100
AcDbEntity
  8
1
  6
Continuous
 62
     2
100
AcDbLine
 10
255.5621123291896
 20
454.6760336289295
 30
0.0
 11
254.2968732385792
 21
454.6760336289295
 31
0.0
  0
LINE
  5
115
330
45
100
AcDbEntity
  8
1
  6
Continuous
 62
     2
100
AcDbLine
 10
255.8054275389225
 20
455.6760336289295
 30
0.0
 11
254.0373370148643
 21
455.6760336289295
 31
0.0
  0
LINE
  5
116
330
45
100
AcDbEntity
  8
1
  6
Continuous
 62
     7
100
AcDbLine
 10
256.3197742270185
 20
459.6760336289295
 30
0.0
 11
256.3197742270185
 21
459.1760336289295
 31
0.0
  0
LINE
  5
117
330
45
100
AcDbEntity
  8
1
  6
Continuous
 62
     7
100
AcDbLine
 10
256.3197742270185
 20
460.6760336289295
 30
0.0
 11
256.3197742270185
 21
460.1760336289295
 31
0.0
  0
LINE
  5
118
330
45
100
AcDbEntity
  8
1
  6
Continuous
 62
     7
100
AcDbLine
 10
256.3197742270185
 20
460.6760336289295
 30
0.0
 11
256.5890964260417
 21
459.6760336289296
 31
0.0
  0
LINE
  5
119
330
45
100
AcDbEntity
  8
1
  6
Continuous
 62
     7
100
AcDbLine
 10
256.3197742270185
 20
460.1760336289295
 30
0.0
 11
256.3197742270185
 21
459.6760336289295
 31
0.0
  0
LINE
  5
11A
330
45
100
AcDbEntity
  8
1
  6
Continuous
 62
     7
100
AcDbLine
 10
256.3197742270185
 20
459.1760336289295
 30
0.0
 11
256.3197742270185
 21
458.6760336289295
 31
0.0
  0
LINE
  5
11B
330
45
100
AcDbEntity
  8
1
  6
Continuous
 62
     2
100
AcDbLine
 10
255.8513173543043
 20
456.1760336289295
 30
0.0
 11
253.9333234176959
 21
456.1760336289295
 31
0.0
  0
LINE
  5
11C
330
45
100
AcDbEntity
  8
1
  6
Continuous
 62
     2
100
AcDbLine
 10
255.6060943852402
 20
455.1760336289295
 30
0.0
 11
254.2573680553876
 21
455.1760336289295
 31
0.0
  0
LINE
  5
11D
330
45
100
AcDbEntity
  8
1
  6
Continuous
 62
     7
100
AcDbLine
 10
256.3197742270185
 20
458.6760336289295
 30
0.0
 11
256.3197742270185
 21
448.6760336289295
 31
0.0
  0
LINE
  5
11E
330
45
100
AcDbEntity
  8
1
  6
Continuous
 62
     2
100
AcDbLine
 10
254.2968732385792
 20
452.6760336289295
 30
0.0
 11
255.5621123291896
 21
452.6760336289295
 31
0.0
  0
LINE
  5
11F
330
45
100
AcDbEntity
  8
1
  6
Continuous
 62
     2
100
AcDbLine
 10
254.0373370148643
 20
451.6760336289295
 30
0.0
 11
255.8054275389225
 21
451.6760336289295
 31
0.0
  0
LINE
  5
120
330
45
100
AcDbEntity
  8
1
  6
Continuous
 62
     2
100
AcDbLine
 10
253.9333234176959
 20
451.1760336289295
 30
0.0
 11
255.8513173543043
 21
451.1760336289295
 31
0.0
  0
LINE
  5
121
330
45
100
AcDbEntity
  8
1
  6
Continuous
 62
     2
100
AcDbLine
 10
254.2573680553876
 20
452.1760336289295
 30
0.0
 11
255.6060943852402
 21
452.1760336289295
 31
0.0
  0
LINE
  5
122
330
45
100
AcDbEntity
  8
1
  6
Continuous
 62
     2
100
AcDbLine
 10
253.6804747072563
 20
450.6760336289295
 30
0.0
 11
256.0163007206909
 21
450.6760336289295
 31
0.0
  0
LINE
  5
123
330
45
100
AcDbEntity
  8
1
  6
Continuous
 62
     2
100
AcDbLine
 10
253.5742469272806
 20
450.1760336289295
 30
0.0
 11
256.0439925442832
 21
450.1760336289295
 31
0.0
  0
LINE
  5
124
330
45
100
AcDbEntity
  8
1
  6
Continuous
 62
     2
100
AcDbLine
 10
253.4858225394701
 20
449.6760336289295
 30
0.0
 11
256.1298478185662
 21
449.6760336289295
 31
0.0
  0
LINE
  5
125
330
45
100
AcDbEntity
  8
1
  6
Continuous
 62
     2
100
AcDbLine
 10
253.4253615532059
 20
449.1760336289295
 30
0.0
 11
256.1753619919963
 21
449.1760336289295
 31
0.0
  0
LINE
  5
126
330
45
100
AcDbEntity
  8
1
  6
Continuous
 62
     2
100
AcDbLine
 10
253.3197742270185
 20
448.6760336289295
 30
0.0
 11
256.3197742270185
 21
448.6760336289295
 31
0.0
  0
LINE
  5
127
330
45
100
AcDbEntity
  8
1
  6
Continuous
 62
     7
100
AcDbLine
 10
253.3197742270185
 20
446.6760336289295
 30
0.0
 11
253.3197742270185
 21
455.9760336289296
 31
0.0
  0
LINE
  5
128
330
45
100
AcDbEntity
  8
1
  6
Continuous
 62
     7
100
AcDbLine
 10
253.3197742270185
 20
455.9760336289296
 30
0.0
 11
253.3197742270185
 21
460.6760336289295
 31
0.0
  0
LINE
  5
129
330
45
100
AcDbEntity
  8
1
  6
Continuous
 62
     2
100
AcDbLine
 10
256.0163007206909
 20
456.6760336289295
 30
0.0
 11
253.6804747072563
 21
456.6760336289295
 31
0.0
  0
LINE
  5
12A
330
45
100
AcDbEntity
  8
1
  6
Continuous
 62
     2
100
AcDbLine
 10
256.0439925442832
 20
457.1760336289295
 30
0.0
 11
253.5742469272806
 21
457.1760336289295
 31
0.0
  0
LINE
  5
12B
330
45
100
AcDbEntity
  8
1
  6
Continuous
 62
     2
100
AcDbLine
 10
256.1298478185662
 20
457.6760336289295
 30
0.0
 11
253.4858225394701
 21
457.6760336289295
 31
0.0
  0
LINE
  5
12C
330
45
100
AcDbEntity
  8
1
  6
Continuous
 62
     2
100
AcDbLine
 10
256.1753619919963
 20
458.1760336289295
 30
0.0
 11
253.4253615532059
 21
458.1760336289295
 31
0.0
  0
LINE
  5
12D
330
45
100
AcDbEntity
  8
1
  6
Continuous
 62
     2
100
AcDbLine
 10
256.3197742270185
 20
458.6760336289295
 30
0.0
 11
253.3197742270185
 21
458.6760336289295
 31
0.0
  0
LINE
  5
12E
330
45
100
AcDbEntity
  8
1
  6
Continuous
 62
     2
100
AcDbLine
 10
256.3197742270185
 20
459.1760336289295
 30
0.0
 11
253.3197742270185
 21
459.1760336289295
 31
0.0
  0
LINE
  5
12F
330
45
100
AcDbEntity
  8
1
  6
Continuous
 62
     2
100
AcDbLine
 10
256.3197742270185
 20
459.6760336289295
 30
0.0
 11
253.3197742270185
 21
459.6760336289295
 31
0.0
  0
LINE
  5
130
330
45
100
AcDbEntity
  8
1
  6
Continuous
 62
     2
100
AcDbLine
 10
256.3197742270185
 20
460.1760336289295
 30
0.0
 11
253.3197742270185
 21
460.1760336289295
 31
0.0
  0
LINE
  5
131
330
45
100
AcDbEntity
  8
1
  6
Continuous
 62
     7
100
AcDbLine
 10
253.3197742270185
 20
460.6760336289295
 30
0.0
 11
256.3197742270185
 21
460.6760336289295
 31
0.0
  0
ARC
  5
132
330
45
100
AcDbEntity
  8
1
  6
Continuous
 62
     7
100
AcDbCircle
 10
232.3197742270185
 20
453.6760336289295
 30
0.0
 40
24.99999999999985
100
AcDbArc
 50
-13.29707174720914
 51
0.0
  0
ARC
  5
133
330
45
100
AcDbEntity
  8
1
  6
Continuous
 62
     7
100
AcDbCircle
 10
232.3197742270185
 20
453.6760336289295
 30
0.0
 40
25.0
100
AcDbArc
 50
0.0
 51
13.29707174720914
  0
ARC
  5
134
330
45
100
AcDbEntity
  8
1
  6
Continuous
 62
     7
100
AcDbCircle
 10
232.3197742270185
 20
453.6760336289295
 30
0.0
 40
25.0
100
AcDbArc
 50
-13.88654036262913
 51
-13.29707174720914
  0
ARC
  5
135
330
45
100
AcDbEntity
  8
1
  6
Continuous
 62
     7
100
AcDbCircle
 10
232.3197742270185
 20
453.6760336289295
 30
0.0
 40
24.99999999999985
100
AcDbArc
 50
13.29707174720914
 51
13.88654036262925
  0
ENDBLK
  5
47
330
45
100
AcDbEntity
  8
0
100
AcDbBlockEnd
  0
BLOCK
  5
49
330
48
100
AcDbEntity
  8
0
100
AcDbBlockBegin
  2
21-1A__7
 70
     0
 71
     0
 10
188.7596785020271
 20
226.9635267037429
 30
0.0
  3
21-1A__7
  1

  0
LINE
  5
136
330
48
100
AcDbEntity
  8
1
  6
Continuous
 62
     7
100
AcDbLine
 10
243.524219269284
 20
459.4715885866636
 30
0.0
 11
242.3197742270185
 21
459.4715885866636
 31
0.0
  0
LINE
  5
137
330
48
100
AcDbEntity
  8
1
  6
Continuous
 62
     7
100
AcDbLine
 10
243.524219269284
 20
447.8804786711952
 30
0.0
 11
242.3197742270185
 21
447.8804786711952
 31
0.0
  0
LINE
  5
138
330
48
100
AcDbEntity
  8
1
  6
Continuous
 62
     7
100
AcDbLine
 10
246.1048539823692
 20
480.8698946589188
 30
0.0
 11
242.8893607774987
 21
481.3218027579112
 31
0.0
  0
LINE
  5
139
330
48
100
AcDbEntity
  8
1
  6
Continuous
 62
     7
100
AcDbLine
 10
242.3197742270185
 20
480.8266687235405
 30
0.0
 11
242.3197742270185
 21
426.5253985343186
 31
0.0
  0
LINE
  5
13A
330
48
100
AcDbEntity
  8
1
  6
Continuous
 62
     7
100
AcDbLine
 10
242.8893607774987
 20
426.0302644999476
 30
0.0
 11
246.1048539823692
 21
426.48217259894
 31
0.0
  0
ARC
  5
13B
330
48
100
AcDbEntity
  8
1
  6
Continuous
 62
     7
100
AcDbCircle
 10
243.524219269284
 20
453.6760336289295
 30
0.0
 40
5.795554957734282
100
AcDbArc
 50
-90.0
 51
90.0
  0
ARC
  5
13C
330
48
100
AcDbEntity
  8
1
  6
Continuous
 62
     7
100
AcDbCircle
 10
125.9496216866941
 20
452.0389432780403
 30
0.0
 40
127.4948334081409
100
AcDbArc
 50
2.53411689479732
 51
10.80949324635221
  0
ARC
  5
13D
330
48
100
AcDbEntity
  8
1
  6
Continuous
 62
     7
100
AcDbCircle
 10
125.9496216866941
 20
455.3131239798188
 30
0.0
 40
127.4948334081411
100
AcDbArc
 50
-10.80949324635223
 51
-2.53411689479739
  0
ARC
  5
13E
330
48
100
AcDbEntity
  8
1
  6
Continuous
 62
     7
100
AcDbCircle
 10
245.2698153766088
 20
474.9282862464695
 30
0.0
 40
6.000000000000136
100
AcDbArc
 50
9.80290179376788
 51
81.99999999999959
  0
ARC
  5
13F
330
48
100
AcDbEntity
  8
1
  6
Continuous
 62
     7
100
AcDbCircle
 10
242.8197742270185
 20
480.8266687235405
 30
0.0
 40
0.4999999999999578
100
AcDbArc
 50
81.99999999998209
 51
180.0
  0
ARC
  5
140
330
48
100
AcDbEntity
  8
1
  6
Continuous
 62
     7
100
AcDbCircle
 10
242.8197742270185
 20
426.5253985343186
 30
0.0
 40
0.5
100
AcDbArc
 50
180.0
 51
-81.99999999998663
  0
ARC
  5
141
330
48
100
AcDbEntity
  8
1
  6
Continuous
 62
     7
100
AcDbCircle
 10
245.2698153766088
 20
432.4237810113893
 30
0.0
 40
5.999999999999867
100
AcDbArc
 50
-81.99999999999959
 51
-9.80290179376574
  0
ENDBLK
  5
4A
330
48
100
AcDbEntity
  8
0
100
AcDbBlockEnd
  0
BLOCK
  5
4E
330
4B
100
AcDbEntity
  8
0
100
AcDbBlockBegin
  2
R20F__8
 70
     0
 71
     0
 10
241.3197742270185
 20
349.4059476238782
 30
0.0
  3
R20F__8
  1

  0
INSERT
  5
4C
330
4B
100
AcDbEntity
  8
1
100
AcDbBlockReference
  2
42-1__6
 10
204.7972052480402
 20
232.10050878661
 30
0.0
  0
INSERT
  5
4D
330
4B
100
AcDbEntity
  8
0
100
AcDbBlockReference
  2
21-1A__7
 10
188.7596785020271
 20
226.9635267037429
 30
0.0
  0
ENDBLK
  5
4F
330
4B
100
AcDbEntity
  8
0
100
AcDbBlockEnd
  0
BLOCK
  5
54
330
50
100
AcDbEntity
  8
0
100
AcDbBlockBegin
  2
R10A-13__9
 70
     0
 71
     0
 10
207.8197742270185
 20
356.9059476238781
 30
0.0
  3
R10A-13__9
  1

  0
INSERT
  5
51
330
50
100
AcDbEntity
  8
1
100
AcDbBlockReference
  2
36-1A-13-M4__4
 10
149.4001339392487
 20
405.2843648900662
 30
0.0
  0
INSERT
  5
52
330
50
100
AcDbEntity
  8
1
100
AcDbBlockReference
  2
37-1-13__5
 10
197.9058151201684
 20
149.037434878435
 30
0.0
  0
INSERT
  5
53
330
50
100
AcDbEntity
  8
1
100
AcDbBlockReference
  2
R20F__8
 10
241.3197742270185
 20
349.4059476238782
 30
0.0
  0
ENDBLK
  5
55
330
50
100
AcDbEntity
  8
0
100
AcDbBlockEnd
  0
BLOCK
  5
57
330
56
100
AcDbEntity
  8
0
100
AcDbBlockBegin
  2
H86F-B__10
 70
     0
 71
     0
 10
49.48951314773875
 20
351.4801612960758
 30
0.0
  3
H86F-B__10
  1

  0
LINE
  5
142
330
56
100
AcDbEntity
  8
1
  6
Continuous
 62
     7
100
AcDbLine
 10
100.3197742270185
 20
457.6760336289299
 30
0.0
 11
100.3197742270185
 21
449.6760336289299
 31
0.0
  0
LINE
  5
143
330
56
100
AcDbEntity
  8
1
  6
Continuous
 62
     7
100
AcDbLine
 10
100.3197742270185
 20
449.6760336289299
 30
0.0
 11
99.81977422701829
 21
449.6760336289299
 31
0.0
  0
LINE
  5
144
330
56
100
AcDbEntity
  8
1
  6
Continuous
 62
     7
100
AcDbLine
 10
100.3197742270185
 20
457.6760336289299
 30
0.0
 11
99.81977422701829
 21
457.6760336289299
 31
0.0
  0
LINE
  5
145
330
56
100
AcDbEntity
  8
1
  6
Continuous
 62
     7
100
AcDbLine
 10
99.81977422701829
 20
457.6760336289299
 30
0.0
 11
99.56977422701829
 21
457.4260336289299
 31
0.0
  0
LINE
  5
146
330
56
100
AcDbEntity
  8
1
  6
Continuous
 62
     7
100
AcDbLine
 10
99.81977422701829
 20
457.6760336289299
 30
0.0
 11
99.81977422701829
 21
449.6760336289299
 31
0.0
  0
LINE
  5
147
330
56
100
AcDbEntity
  8
1
  6
Continuous
 62
     7
100
AcDbLine
 10
95.70262979453868
 20
455.6760336289299
 30
0.0
 11
96.40793771737249
 21
451.6760336289299
 31
0.0
  0
LINE
  5
148
330
56
100
AcDbEntity
  8
1
  6
Continuous
 62
     7
100
AcDbLine
 10
95.70262979453868
 20
455.6760336289299
 30
0.0
 11
95.99130492913359
 21
455.1760336289299
 31
0.0
  0
LINE
  5
149
330
56
100
AcDbEntity
  8
1
  6
Continuous
 62
     7
100
AcDbLine
 10
95.99130492913359
 20
455.1760336289299
 30
0.0
 11
96.56977422701829
 21
452.7155368197037
 31
0.0
  0
LINE
  5
14A
330
56
100
AcDbEntity
  8
1
  6
Continuous
 62
     7
100
AcDbLine
 10
96.40793771737249
 20
451.6760336289299
 30
0.0
 11
96.11926258277778
 21
452.1760336289299
 31
0.0
  0
LINE
  5
14B
330
56
100
AcDbEntity
  8
1
  6
Continuous
 62
     7
100
AcDbLine
 10
96.11926258277778
 20
452.1760336289299
 30
0.0
 11
95.41395465994398
 21
455.1760336289299
 31
0.0
  0
LINE
  5
14C
330
56
100
AcDbEntity
  8
1
  6
Continuous
 62
     7
100
AcDbLine
 10
95.41395465994398
 20
455.1760336289299
 30
0.0
 11
95.70262979453868
 21
455.6760336289299
 31
0.0
  0
LINE
  5
14D
330
56
100
AcDbEntity
  8
1
  6
Continuous
 62
     7
100
AcDbLine
 10
96.11926258277778
 20
452.1760336289299
 30
0.0
 11
95.11926258277778
 21
452.1760336289299
 31
0.0
  0
LINE
  5
14E
330
56
100
AcDbEntity
  8
1
  6
Continuous
 62
     7
100
AcDbLine
 10
94.41395465994398
 20
455.1760336289299
 30
0.0
 11
95.11926258277778
 21
452.1760336289299
 31
0.0
  0
LINE
  5
14F
330
56
100
AcDbEntity
  8
1
  6
Continuous
 62
     7
100
AcDbLine
 10
95.11926258277778
 20
452.1760336289299
 30
0.0
 11
94.83058744818298
 21
451.6760336289299
 31
0.0
  0
LINE
  5
150
330
56
100
AcDbEntity
  8
1
  6
Continuous
 62
     7
100
AcDbLine
 10
94.12527952534899
 20
455.6760336289299
 30
0.0
 11
94.41395465994398
 21
455.1760336289299
 31
0.0
  0
LINE
  5
151
330
56
100
AcDbEntity
  8
1
  6
Continuous
 62
     7
100
AcDbLine
 10
94.12527952534899
 20
455.6760336289299
 30
0.0
 11
94.83058744818298
 21
451.6760336289299
 31
0.0
  0
LINE
  5
152
330
56
100
AcDbEntity
  8
1
  6
Continuous
 62
     7
100
AcDbLine
 10
93.83660439075429
 20
455.1760336289299
 30
0.0
 11
94.12527952534899
 21
455.6760336289299
 31
0.0
  0
LINE
  5
153
330
56
100
AcDbEntity
  8
1
  6
Continuous
 62
     7
100
AcDbLine
 10
94.54191231358819
 20
452.1760336289299
 30
0.0
 11
93.83660439075429
 21
455.1760336289299
 31
0.0
  0
LINE
  5
154
330
56
100
AcDbEntity
  8
1
  6
Continuous
 62
     7
100
AcDbLine
 10
94.83058744818298
 20
451.6760336289299
 30
0.0
 11
94.54191231358819
 21
452.1760336289299
 31
0.0
  0
LINE
  5
155
330
56
100
AcDbEntity
  8
1
  6
Continuous
 62
     7
100
AcDbLine
 10
95.41395465994398
 20
455.1760336289299
 30
0.0
 11
94.41395465994398
 21
455.1760336289299
 31
0.0
  0
LINE
  5
156
330
56
100
AcDbEntity
  8
1
  6
Continuous
 62
     7
100
AcDbLine
 10
91.97057898696978
 20
455.6760336289299
 30
0.0
 11
92.25925412156468
 21
455.1760336289299
 31
0.0
  0
LINE
  5
157
330
56
100
AcDbEntity
  8
1
  6
Continuous
 62
     7
100
AcDbLine
 10
91.97057898696978
 20
455.6760336289299
 30
0.0
 11
92.67588690980368
 21
451.6760336289299
 31
0.0
  0
LINE
  5
158
330
56
100
AcDbEntity
  8
1
  6
Continuous
 62
     7
100
AcDbLine
 10
91.68190385237509
 20
455.1760336289299
 30
0.0
 11
91.97057898696978
 21
455.6760336289299
 31
0.0
  0
LINE
  5
159
330
56
100
AcDbEntity
  8
1
  6
Continuous
 62
     7
100
AcDbLine
 10
92.38721177520888
 20
452.1760336289299
 30
0.0
 11
91.68190385237509
 21
455.1760336289299
 31
0.0
  0
LINE
  5
15A
330
56
100
AcDbEntity
  8
1
  6
Continuous
 62
     7
100
AcDbLine
 10
92.67588690980368
 20
451.6760336289299
 30
0.0
 11
92.38721177520888
 21
452.1760336289299
 31
0.0
  0
LINE
  5
15B
330
56
100
AcDbEntity
  8
1
  6
Continuous
 62
     7
100
AcDbLine
 10
92.25925412156468
 20
455.1760336289299
 30
0.0
 11
92.96456204439859
 21
452.1760336289299
 31
0.0
  0
LINE
  5
15C
330
56
100
AcDbEntity
  8
1
  6
Continuous
 62
     7
100
AcDbLine
 10
92.96456204439859
 20
452.1760336289299
 30
0.0
 11
92.67588690980368
 21
451.6760336289299
 31
0.0
  0
LINE
  5
15D
330
56
100
AcDbEntity
  8
1
  6
Continuous
 62
     7
100
AcDbLine
 10
89.81587844859048
 20
455.6760336289299
 30
0.0
 11
90.10455358318539
 21
455.1760336289299
 31
0.0
  0
LINE
  5
15E
330
56
100
AcDbEntity
  8
1
  6
Continuous
 62
     7
100
AcDbLine
 10
89.81587844859048
 20
455.6760336289299
 30
0.0
 11
90.52118637142439
 21
451.6760336289299
 31
0.0
  0
LINE
  5
15F
330
56
100
AcDbEntity
  8
1
  6
Continuous
 62
     7
100
AcDbLine
 10
89.52720331399578
 20
455.1760336289299
 30
0.0
 11
89.81587844859048
 21
455.6760336289299
 31
0.0
  0
LINE
  5
160
330
56
100
AcDbEntity
  8
1
  6
Continuous
 62
     7
100
AcDbLine
 10
90.23251123682958
 20
452.1760336289299
 30
0.0
 11
89.52720331399578
 21
455.1760336289299
 31
0.0
  0
LINE
  5
161
330
56
100
AcDbEntity
  8
1
  6
Continuous
 62
     7
100
AcDbLine
 10
90.52118637142439
 20
451.6760336289299
 30
0.0
 11
90.23251123682958
 21
452.1760336289299
 31
0.0
  0
LINE
  5
162
330
56
100
AcDbEntity
  8
1
  6
Continuous
 62
     7
100
AcDbLine
 10
90.10455358318539
 20
455.1760336289299
 30
0.0
 11
90.80986150601929
 21
452.1760336289299
 31
0.0
  0
LINE
  5
163
330
56
100
AcDbEntity
  8
1
  6
Continuous
 62
     7
100
AcDbLine
 10
90.80986150601929
 20
452.1760336289299
 30
0.0
 11
90.52118637142439
 21
451.6760336289299
 31
0.0
  0
LINE
  5
164
330
56
100
AcDbEntity
  8
1
  6
Continuous
 62
     7
100
AcDbLine
 10
87.66117791021128
 20
455.6760336289299
 30
0.0
 11
87.94985304480609
 21
455.1760336289299
 31
0.0
  0
LINE
  5
165
330
56
100
AcDbEntity
  8
1
  6
Continuous
 62
     7
100
AcDbLine
 10
87.66117791021128
 20
455.6760336289299
 30
0.0
 11
88.36648583304529
 21
451.6760336289299
 31
0.0
  0
LINE
  5
166
330
56
100
AcDbEntity
  8
1
  6
Continuous
 62
     7
100
AcDbLine
 10
87.37250277561658
 20
455.1760336289299
 30
0.0
 11
87.66117791021128
 21
455.6760336289299
 31
0.0
  0
LINE
  5
167
330
56
100
AcDbEntity
  8
1
  6
Continuous
 62
     7
100
AcDbLine
 10
88.07781069845029
 20
452.1760336289299
 30
0.0
 11
87.37250277561658
 21
455.1760336289299
 31
0.0
  0
LINE
  5
168
330
56
100
AcDbEntity
  8
1
  6
Continuous
 62
     7
100
AcDbLine
 10
88.36648583304529
 20
451.6760336289299
 30
0.0
 11
88.07781069845029
 21
452.1760336289299
 31
0.0
  0
LINE
  5
169
330
56
100
AcDbEntity
  8
1
  6
Continuous
 62
     7
100
AcDbLine
 10
87.94985304480609
 20
455.1760336289299
 30
0.0
 11
88.65516096764009
 21
452.1760336289299
 31
0.0
  0
LINE
  5
16A
330
56
100
AcDbEntity
  8
1
  6
Continuous
 62
     7
100
AcDbLine
 10
88.65516096764009
 20
452.1760336289299
 30
0.0
 11
88.36648583304529
 21
451.6760336289299
 31
0.0
  0
LINE
  5
16B
330
56
100
AcDbEntity
  8
1
  6
Continuous
 62
     7
100
AcDbLine
 10
85.50647737183199
 20
455.6760336289299
 30
0.0
 11
85.79515250642699
 21
455.1760336289299
 31
0.0
  0
LINE
  5
16C
330
56
100
AcDbEntity
  8
1
  6
Continuous
 62
     7
100
AcDbLine
 10
85.50647737183199
 20
455.6760336289299
 30
0.0
 11
86.21178529466599
 21
451.6760336289299
 31
0.0
  0
LINE
  5
16D
330
56
100
AcDbEntity
  8
1
  6
Continuous
 62
     7
100
AcDbLine
 10
85.21780223723728
 20
455.1760336289299
 30
0.0
 11
85.50647737183199
 21
455.6760336289299
 31
0.0
  0
LINE
  5
16E
330
56
100
AcDbEntity
  8
1
  6
Continuous
 62
     7
100
AcDbLine
 10
85.92311016007109
 20
452.1760336289299
 30
0.0
 11
85.21780223723728
 21
455.1760336289299
 31
0.0
  0
LINE
  5
16F
330
56
100
AcDbEntity
  8
1
  6
Continuous
 62
     7
100
AcDbLine
 10
86.21178529466599
 20
451.6760336289299
 30
0.0
 11
85.92311016007109
 21
452.1760336289299
 31
0.0
  0
LINE
  5
170
330
56
100
AcDbEntity
  8
1
  6
Continuous
 62
     7
100
AcDbLine
 10
85.79515250642699
 20
455.1760336289299
 30
0.0
 11
86.50046042926078
 21
452.1760336289299
 31
0.0
  0
LINE
  5
171
330
56
100
AcDbEntity
  8
1
  6
Continuous
 62
     7
100
AcDbLine
 10
86.50046042926078
 20
452.1760336289299
 30
0.0
 11
86.21178529466599
 21
451.6760336289299
 31
0.0
  0
LINE
  5
172
330
56
100
AcDbEntity
  8
1
  6
Continuous
 62
     7
100
AcDbLine
 10
83.35177683345289
 20
455.6760336289299
 30
0.0
 11
83.64045196804769
 21
455.1760336289299
 31
0.0
  0
LINE
  5
173
330
56
100
AcDbEntity
  8
1
  6
Continuous
 62
     7
100
AcDbLine
 10
83.35177683345289
 20
455.6760336289299
 30
0.0
 11
84.05708475628669
 21
451.6760336289299
 31
0.0
  0
LINE
  5
174
330
56
100
AcDbEntity
  8
1
  6
Continuous
 62
     7
100
AcDbLine
 10
83.06310169885809
 20
455.1760336289299
 30
0.0
 11
83.35177683345289
 21
455.6760336289299
 31
0.0
  0
LINE
  5
175
330
56
100
AcDbEntity
  8
1
  6
Continuous
 62
     7
100
AcDbLine
 10
83.76840962169179
 20
452.1760336289299
 30
0.0
 11
83.06310169885809
 21
455.1760336289299
 31
0.0
  0
LINE
  5
176
330
56
100
AcDbEntity
  8
1
  6
Continuous
 62
     7
100
AcDbLine
 10
84.05708475628669
 20
451.6760336289299
 30
0.0
 11
83.76840962169179
 21
452.1760336289299
 31
0.0
  0
LINE
  5
177
330
56
100
AcDbEntity
  8
1
  6
Continuous
 62
     7
100
AcDbLine
 10
83.64045196804769
 20
455.1760336289299
 30
0.0
 11
84.34575989088148
 21
452.1760336289299
 31
0.0
  0
LINE
  5
178
330
56
100
AcDbEntity
  8
1
  6
Continuous
 62
     7
100
AcDbLine
 10
84.34575989088148
 20
452.1760336289299
 30
0.0
 11
84.05708475628669
 21
451.6760336289299
 31
0.0
  0
LINE
  5
179
330
56
100
AcDbEntity
  8
1
  6
Continuous
 62
     7
100
AcDbLine
 10
81.19707629507369
 20
455.6760336289299
 30
0.0
 11
81.48575142966838
 21
455.1760336289299
 31
0.0
  0
LINE
  5
17A
330
56
100
AcDbEntity
  8
1
  6
Continuous
 62
     7
100
AcDbLine
 10
81.19707629507369
 20
455.6760336289299
 30
0.0
 11
81.90238421790738
 21
451.6760336289299
 31
0.0
  0
LINE
  5
17B
330
56
100
AcDbEntity
  8
1
  6
Continuous
 62
     7
100
AcDbLine
 10
80.90840116047889
 20
455.1760336289299
 30
0.0
 11
81.19707629507369
 21
455.6760336289299
 31
0.0
  0
LINE
  5
17C
330
56
100
AcDbEntity
  8
1
  6
Continuous
 62
     7
100
AcDbLine
 10
81.61370908331259
 20
452.1760336289299
 30
0.0
 11
80.90840116047889
 21
455.1760336289299
 31
0.0
  0
LINE
  5
17D
330
56
100
AcDbEntity
  8
1
  6
Continuous
 62
     7
100
AcDbLine
 10
81.90238421790738
 20
451.6760336289299
 30
0.0
 11
81.61370908331259
 21
452.1760336289299
 31
0.0
  0
LINE
  5
17E
330
56
100
AcDbEntity
  8
1
  6
Continuous
 62
     7
100
AcDbLine
 10
81.48575142966838
 20
455.1760336289299
 30
0.0
 11
82.19105935250228
 21
452.1760336289299
 31
0.0
  0
LINE
  5
17F
330
56
100
AcDbEntity
  8
1
  6
Continuous
 62
     7
100
AcDbLine
 10
82.19105935250228
 20
452.1760336289299
 30
0.0
 11
81.90238421790738
 21
451.6760336289299
 31
0.0
  0
LINE
  5
180
330
56
100
AcDbEntity
  8
1
  6
Continuous
 62
     7
100
AcDbLine
 10
94.54191231358819
 20
452.1760336289299
 30
0.0
 11
92.96456204439859
 21
452.1760336289299
 31
0.0
  0
LINE
  5
181
330
56
100
AcDbEntity
  8
1
  6
Continuous
 62
     7
100
AcDbLine
 10
93.83660439075429
 20
455.1760336289299
 30
0.0
 11
92.25925412156468
 21
455.1760336289299
 31
0.0
  0
LINE
  5
182
330
56
100
AcDbEntity
  8
1
  6
Continuous
 62
     7
100
AcDbLine
 10
91.68190385237509
 20
455.1760336289299
 30
0.0
 11
90.10455358318539
 21
455.1760336289299
 31
0.0
  0
LINE
  5
183
330
56
100
AcDbEntity
  8
1
  6
Continuous
 62
     7
100
AcDbLine
 10
92.38721177520888
 20
452.1760336289299
 30
0.0
 11
90.80986150601929
 21
452.1760336289299
 31
0.0
  0
LINE
  5
184
330
56
100
AcDbEntity
  8
1
  6
Continuous
 62
     7
100
AcDbLine
 10
90.23251123682958
 20
452.1760336289299
 30
0.0
 11
88.65516096764009
 21
452.1760336289299
 31
0.0
  0
LINE
  5
185
330
56
100
AcDbEntity
  8
1
  6
Continuous
 62
     7
100
AcDbLine
 10
89.52720331399578
 20
455.1760336289299
 30
0.0
 11
87.94985304480609
 21
455.1760336289299
 31
0.0
  0
LINE
  5
186
330
56
100
AcDbEntity
  8
1
  6
Continuous
 62
     7
100
AcDbLine
 10
87.37250277561658
 20
455.1760336289299
 30
0.0
 11
85.79515250642699
 21
455.1760336289299
 31
0.0
  0
LINE
  5
187
330
56
100
AcDbEntity
  8
1
  6
Continuous
 62
     7
100
AcDbLine
 10
88.07781069845029
 20
452.1760336289299
 30
0.0
 11
86.50046042926078
 21
452.1760336289299
 31
0.0
  0
LINE
  5
188
330
56
100
AcDbEntity
  8
1
  6
Continuous
 62
     7
100
AcDbLine
 10
85.92311016007109
 20
452.1760336289299
 30
0.0
 11
84.34575989088148
 21
452.1760336289299
 31
0.0
  0
LINE
  5
189
330
56
100
AcDbEntity
  8
1
  6
Continuous
 62
     7
100
AcDbLine
 10
85.21780223723728
 20
455.1760336289299
 30
0.0
 11
83.64045196804769
 21
455.1760336289299
 31
0.0
  0
LINE
  5
18A
330
56
100
AcDbEntity
  8
1
  6
Continuous
 62
     7
100
AcDbLine
 10
83.06310169885809
 20
455.1760336289299
 30
0.0
 11
81.48575142966838
 21
455.1760336289299
 31
0.0
  0
LINE
  5
18B
330
56
100
AcDbEntity
  8
1
  6
Continuous
 62
     7
100
AcDbLine
 10
83.76840962169179
 20
452.1760336289299
 30
0.0
 11
82.19105935250228
 21
452.1760336289299
 31
0.0
  0
LINE
  5
18C
330
56
100
AcDbEntity
  8
1
  6
Continuous
 62
     7
100
AcDbLine
 10
79.98507776662399
 20
454.9260979448131
 30
0.0
 11
80.61370908331259
 21
452.2575280594029
 31
0.0
  0
LINE
  5
18D
330
56
100
AcDbEntity
  8
1
  6
Continuous
 62
     7
100
AcDbLine
 10
79.72625872152159
 20
455.3743856808972
 30
0.0
 11
80.35489003821019
 21
451.8092403233188
 31
0.0
  0
LINE
  5
18E
330
56
100
AcDbEntity
  8
1
  6
Continuous
 62
     7
100
AcDbLine
 10
79.72625872152159
 20
455.3743856808972
 30
0.0
 11
79.98507776662399
 21
454.9260979448131
 31
0.0
  0
LINE
  5
18F
330
56
100
AcDbEntity
  8
1
  6
Continuous
 62
     7
100
AcDbLine
 10
79.72625872152159
 20
455.3743856808972
 30
0.0
 11
79.37270533092828
 21
454.7620132452015
 31
0.0
  0
LINE
  5
190
330
56
100
AcDbEntity
  8
1
  6
Continuous
 62
     7
100
AcDbLine
 10
79.37270533092828
 20
454.7620132452015
 30
0.0
 11
80.00133664761688
 21
452.4216127590146
 31
0.0
  0
LINE
  5
191
330
56
100
AcDbEntity
  8
1
  6
Continuous
 62
     7
100
AcDbLine
 10
80.61370908331259
 20
452.2575280594029
 30
0.0
 11
80.35489003821019
 21
451.8092403233188
 31
0.0
  0
LINE
  5
192
330
56
100
AcDbEntity
  8
1
  6
Continuous
 62
     7
100
AcDbLine
 10
80.35489003821019
 20
451.8092403233188
 30
0.0
 11
80.00133664761688
 21
452.4216127590146
 31
0.0
  0
LINE
  5
193
330
56
100
AcDbEntity
  8
1
  6
Continuous
 62
     7
100
AcDbLine
 10
78.25937107709466
 20
454.9813343211858
 30
0.0
 11
78.5181901221972
 21
454.5330465851019
 31
0.0
  0
LINE
  5
194
330
56
100
AcDbEntity
  8
1
  6
Continuous
 62
     7
100
AcDbLine
 10
78.5181901221972
 20
454.5330465851019
 30
0.0
 11
79.00133664761687
 21
452.6895619514456
 31
0.0
  0
LINE
  5
195
330
56
100
AcDbEntity
  8
1
  6
Continuous
 62
     7
100
AcDbLine
 10
79.00133664761687
 20
452.6895619514456
 30
0.0
 11
78.74251760251433
 21
452.2412742153617
 31
0.0
  0
LINE
  5
196
330
56
100
AcDbEntity
  8
1
  6
Continuous
 62
     7
100
AcDbLine
 10
78.74251760251433
 20
452.2412742153617
 30
0.0
 11
78.38896421192111
 21
452.8536466510575
 31
0.0
  0
LINE
  5
197
330
56
100
AcDbEntity
  8
1
  6
Continuous
 62
     7
100
AcDbLine
 10
78.38896421192111
 20
452.8536466510575
 30
0.0
 11
77.90581768650132
 21
454.3689618854902
 31
0.0
  0
LINE
  5
198
330
56
100
AcDbEntity
  8
1
  6
Continuous
 62
     7
100
AcDbLine
 10
78.25937107709466
 20
454.9813343211858
 30
0.0
 11
78.74251760251433
 21
452.2412742153617
 31
0.0
  0
LINE
  5
199
330
56
100
AcDbEntity
  8
1
  6
Continuous
 62
     7
100
AcDbLine
 10
78.25937107709466
 20
454.9813343211858
 30
0.0
 11
77.90581768650132
 21
454.3689618854902
 31
0.0
  0
LINE
  5
19A
330
56
100
AcDbEntity
  8
1
  6
Continuous
 62
     7
100
AcDbLine
 10
76.79248343266771
 20
454.5882829614747
 30
0.0
 11
77.05130247777025
 21
454.1399952253905
 31
0.0
  0
LINE
  5
19B
330
56
100
AcDbEntity
  8
1
  6
Continuous
 62
     7
100
AcDbLine
 10
77.05130247777025
 20
454.1399952253905
 30
0.0
 11
77.38896421192111
 21
453.1215958434885
 31
0.0
  0
LINE
  5
19C
330
56
100
AcDbEntity
  8
1
  6
Continuous
 62
     7
100
AcDbLine
 10
77.38896421192111
 20
453.1215958434885
 30
0.0
 11
77.13014516681845
 21
452.6733081074045
 31
0.0
  0
LINE
  5
19D
330
56
100
AcDbEntity
  8
1
  6
Continuous
 62
     7
100
AcDbLine
 10
77.13014516681845
 20
452.6733081074045
 30
0.0
 11
76.77659177622523
 21
453.2856805431004
 31
0.0
  0
LINE
  5
19E
330
56
100
AcDbEntity
  8
1
  6
Continuous
 62
     7
100
AcDbLine
 10
76.77659177622523
 20
453.2856805431004
 30
0.0
 11
76.4389300420746
 21
453.9759105257788
 31
0.0
  0
LINE
  5
19F
330
56
100
AcDbEntity
  8
1
  6
Continuous
 62
     7
100
AcDbLine
 10
76.79248343266771
 20
454.5882829614747
 30
0.0
 11
76.4389300420746
 21
453.9759105257788
 31
0.0
  0
LINE
  5
1A0
330
56
100
AcDbEntity
  8
1
  6
Continuous
 62
     7
100
AcDbLine
 10
76.79248343266771
 20
454.5882829614747
 30
0.0
 11
77.13014516681845
 21
452.6733081074045
 31
0.0
  0
LINE
  5
1A1
330
56
100
AcDbEntity
  8
1
  6
Continuous
 62
     7
100
AcDbLine
 10
80.90840116047889
 20
455.1760336289299
 30
0.0
 11
79.98507776662399
 21
454.9260979448131
 31
0.0
  0
LINE
  5
1A2
330
56
100
AcDbEntity
  8
1
  6
Continuous
 62
     7
100
AcDbLine
 10
81.61370908331259
 20
452.1760336289299
 30
0.0
 11
80.91785043837169
 21
452.1760336289299
 31
0.0
  0
LINE
  5
1A3
330
56
100
AcDbEntity
  8
1
  6
Continuous
 62
     7
100
AcDbLine
 10
80.91785043837169
 20
452.1760336289299
 30
0.0
 11
80.61370908331259
 21
452.2575280594029
 31
0.0
  0
LINE
  5
1A4
330
56
100
AcDbEntity
  8
1
  6
Continuous
 62
     7
100
AcDbLine
 10
80.00133664761688
 20
452.4216127590146
 30
0.0
 11
79.00133664761687
 21
452.6895619514456
 31
0.0
  0
LINE
  5
1A5
330
56
100
AcDbEntity
  8
1
  6
Continuous
 62
     7
100
AcDbLine
 10
78.38896421192111
 20
452.8536466510575
 30
0.0
 11
77.38896421192111
 21
453.1215958434885
 31
0.0
  0
LINE
  5
1A6
330
56
100
AcDbEntity
  8
1
  6
Continuous
 62
     7
100
AcDbLine
 10
76.77659177622523
 20
453.2856805431004
 30
0.0
 11
75.31977422701833
 21
453.6760336289299
 31
0.0
  0
LINE
  5
1A7
330
56
100
AcDbEntity
  8
1
  6
Continuous
 62
     7
100
AcDbLine
 10
76.4389300420746
 20
453.9759105257788
 30
0.0
 11
75.31977422701833
 21
453.6760336289299
 31
0.0
  0
LINE
  5
1A8
330
56
100
AcDbEntity
  8
1
  6
Continuous
 62
     7
100
AcDbLine
 10
77.90581768650132
 20
454.3689618854902
 30
0.0
 11
77.05130247777025
 21
454.1399952253905
 31
0.0
  0
LINE
  5
1A9
330
56
100
AcDbEntity
  8
1
  6
Continuous
 62
     7
100
AcDbLine
 10
79.37270533092828
 20
454.7620132452015
 30
0.0
 11
78.5181901221972
 21
454.5330465851019
 31
0.0
  0
LINE
  5
1AA
330
56
100
AcDbEntity
  8
1
  6
Continuous
 62
     7
100
AcDbLine
 10
99.56977422701829
 20
449.9260336289299
 30
0.0
 11
99.81977422701829
 21
449.6760336289299
 31
0.0
  0
LINE
  5
1AB
330
56
100
AcDbEntity
  8
1
  6
Continuous
 62
     7
100
AcDbLine
 10
96.56977422701829
 20
455.1760336289299
 30
0.0
 11
95.99130492913359
 21
455.1760336289299
 31
0.0
  0
LINE
  5
1AC
330
56
100
AcDbEntity
  8
1
  6
Continuous
 62
     7
100
AcDbLine
 10
96.56977422701829
 20
451.9563426861558
 30
0.0
 11
96.40793771737249
 21
451.6760336289299
 31
0.0
  0
ENDBLK
  5
58
330
56
100
AcDbEntity
  8
0
100
AcDbBlockEnd
  0
BLOCK
  5
5A
330
59
100
AcDbEntity
  8
0
100
AcDbBlockBegin
  2
H86F-A__11
 70
     0
 71
     0
 10
56.56977422701833
 20
386.9059476238782
 30
0.0
  3
H86F-A__11
  1

  0
LINE
  5
1AD
330
59
100
AcDbEntity
  8
1
  6
Continuous
 62
     7
100
AcDbLine
 10
99.56977422701829
 20
461.4260336289296
 30
0.0
 11
99.56977422701829
 21
464.9260336289296
 31
0.0
  0
LINE
  5
1AE
330
59
100
AcDbEntity
  8
1
  6
Continuous
 62
     7
100
AcDbLine
 10
96.56977422701829
 20
475.1760336289296
 30
0.0
 11
96.56977422701829
 21
470.3957245717038
 31
0.0
  0
LINE
  5
1AF
330
59
100
AcDbEntity
  8
1
  6
Continuous
 62
     7
100
AcDbLine
 10
99.56977422701829
 20
474.1760336289296
 30
0.0
 11
99.56977422701829
 21
472.4260336289296
 31
0.0
  0
LINE
  5
1B0
330
59
100
AcDbEntity
  8
1
  6
Continuous
 62
     7
100
AcDbLine
 10
96.56977422701829
 20
453.6760336289296
 30
0.0
 11
96.56977422701829
 21
467.1760336289296
 31
0.0
  0
LINE
  5
1B1
330
59
100
AcDbEntity
  8
1
  6
Continuous
 62
     7
100
AcDbLine
 10
96.56977422701829
 20
475.1760336289296
 30
0.0
 11
98.56977422701829
 21
475.1760336289296
 31
0.0
  0
LINE
  5
1B2
330
59
100
AcDbEntity
  8
1
  6
Continuous
 62
     7
100
AcDbLine
 10
108.5697742270183
 20
459.4260336289296
 30
0.0
 11
101.5697742270183
 21
459.4260336289296
 31
0.0
  0
LINE
  5
1B3
330
59
100
AcDbEntity
  8
1
  6
Continuous
 62
     7
100
AcDbLine
 10
110.5697742270183
 20
456.327069926038
 30
0.0
 11
110.5697742270183
 21
457.4260336289296
 31
0.0
  0
LINE
  5
1B4
330
59
100
AcDbEntity
  8
1
  6
Continuous
 62
     7
100
AcDbLine
 10
99.56977422701829
 20
442.4260336289296
 30
0.0
 11
99.56977422701829
 21
445.9260336289296
 31
0.0
  0
LINE
  5
1B5
330
59
100
AcDbEntity
  8
1
  6
Continuous
 62
     7
100
AcDbLine
 10
96.56977422701829
 20
436.9563426861558
 30
0.0
 11
96.56977422701829
 21
432.1760336289296
 31
0.0
  0
LINE
  5
1B6
330
59
100
AcDbEntity
  8
1
  6
Continuous
 62
     7
100
AcDbLine
 10
99.56977422701829
 20
434.9260336289296
 30
0.0
 11
99.56977422701829
 21
433.1760336289296
 31
0.0
  0
LINE
  5
1B7
330
59
100
AcDbEntity
  8
1
  6
Continuous
 62
     7
100
AcDbLine
 10
96.56977422701829
 20
440.1760336289296
 30
0.0
 11
96.56977422701829
 21
453.6760336289296
 31
0.0
  0
LINE
  5
1B8
330
59
100
AcDbEntity
  8
1
  6
Continuous
 62
     7
100
AcDbLine
 10
98.56977422701829
 20
432.1760336289296
 30
0.0
 11
96.56977422701829
 21
432.1760336289296
 31
0.0
  0
LINE
  5
1B9
330
59
100
AcDbEntity
  8
1
  6
Continuous
 62
     7
100
AcDbLine
 10
101.5697742270183
 20
447.9260336289296
 30
0.0
 11
108.5697742270183
 21
447.9260336289296
 31
0.0
  0
LINE
  5
1BA
330
59
100
AcDbEntity
  8
1
  6
Continuous
 62
     7
100
AcDbLine
 10
110.5697742270183
 20
449.9260336289296
 30
0.0
 11
110.5697742270183
 21
456.327069926038
 31
0.0
  0
LINE
  5
1BB
330
59
100
AcDbEntity
  8
1
  6
Continuous
 62
     7
100
AcDbLine
 10
96.56977422701829
 20
440.1760336289296
 30
0.0
 11
96.56977422701829
 21
436.9563426861558
 31
0.0
  0
LINE
  5
1BC
330
59
100
AcDbEntity
  8
1
  6
Continuous
 62
     7
100
AcDbLine
 10
99.56977422701829
 20
442.4260336289296
 30
0.0
 11
99.56977422701829
 21
434.9260336289296
 31
0.0
  0
LINE
  5
1BD
330
59
100
AcDbEntity
  8
1
  6
Continuous
 62
     7
100
AcDbLine
 10
99.56977422701829
 20
461.4260336289296
 30
0.0
 11
99.56977422701829
 21
445.9260336289296
 31
0.0
  0
LINE
  5
1BE
330
59
100
AcDbEntity
  8
1
  6
Continuous
 62
     7
100
AcDbLine
 10
96.56977422701829
 20
467.1760336289296
 30
0.0
 11
96.56977422701829
 21
470.3957245717038
 31
0.0
  0
LINE
  5
1BF
330
59
100
AcDbEntity
  8
1
  6
Continuous
 62
     7
100
AcDbLine
 10
99.56977422701829
 20
472.4260336289296
 30
0.0
 11
99.56977422701829
 21
464.9260336289296
 31
0.0
  0
ARC
  5
1C0
330
59
100
AcDbEntity
  8
1
  6
Continuous
 62
     7
100
AcDbCircle
 10
98.56977422701829
 20
474.1760336289296
 30
0.0
 40
1.0
100
AcDbArc
 50
0.0
 51
90.0
  0
ARC
  5
1C1
330
59
100
AcDbEntity
  8
1
  6
Continuous
 62
     7
100
AcDbCircle
 10
108.5697742270183
 20
457.4260336289296
 30
0.0
 40
2.0
100
AcDbArc
 50
0.0
 51
90.0
  0
ARC
  5
1C2
330
59
100
AcDbEntity
  8
1
  6
Continuous
 62
     7
100
AcDbCircle
 10
101.5697742270183
 20
461.4260336289296
 30
0.0
 40
2.000000000000014
100
AcDbArc
 50
180.0
 51
-90.0
  0
ARC
  5
1C3
330
59
100
AcDbEntity
  8
1
  6
Continuous
 62
     7
100
AcDbCircle
 10
98.56977422701829
 20
433.1760336289296
 30
0.0
 40
1.0
100
AcDbArc
 50
-90.0
 51
0.0
  0
ARC
  5
1C4
330
59
100
AcDbEntity
  8
1
  6
Continuous
 62
     7
100
AcDbCircle
 10
108.5697742270183
 20
449.9260336289296
 30
0.0
 40
2.0
100
AcDbArc
 50
-90.0
 51
0.0
  0
ARC
  5
1C5
330
59
100
AcDbEntity
  8
1
  6
Continuous
 62
     7
100
AcDbCircle
 10
101.5697742270183
 20
445.9260336289296
 30
0.0
 40
2.0
100
AcDbArc
 50
90.0
 51
180.0
  0
ENDBLK
  5
5B
330
59
100
AcDbEntity
  8
0
100
AcDbBlockEnd
  0
BLOCK
  5
5D
330
5C
100
AcDbEntity
  8
0
100
AcDbBlockBegin
  2
H862-L__12
 70
     0
 71
     0
 10
143.074963363852
 20
342.4059476238782
 30
0.0
  3
H862-L__12
  1

  0
LINE
  5
1C6
330
5C
100
AcDbEntity
  8
1
  6
PHANTOM
 62
     4
100
AcDbLine
 10
184.3947742270184
 20
456.2260336289296
 30
0.0
 11
184.3947742270184
 21
453.6760336289295
 31
0.0
  0
LINE
  5
1C7
330
5C
100
AcDbEntity
  8
1
  6
PHANTOM
 62
     4
100
AcDbLine
 10
183.5817742270184
 20
453.6760336289295
 30
0.0
 11
183.5817742270184
 21
457.0390336289295
 31
0.0
  0
LINE
  5
1C8
330
5C
100
AcDbEntity
  8
1
  6
PHANTOM
 62
     4
100
AcDbLine
 10
183.5817742270184
 20
457.0390336289295
 30
0.0
 11
184.3947742270184
 21
456.2260336289296
 31
0.0
  0
LINE
  5
1C9
330
5C
100
AcDbEntity
  8
1
  6
PHANTOM
 62
     4
100
AcDbLine
 10
184.3947742270184
 20
453.6760336289295
 30
0.0
 11
184.3947742270184
 21
451.1260336289297
 31
0.0
  0
LINE
  5
1CA
330
5C
100
AcDbEntity
  8
1
  6
PHANTOM
 62
     4
100
AcDbLine
 10
183.5817742270184
 20
450.3130336289296
 30
0.0
 11
183.5817742270184
 21
453.6760336289295
 31
0.0
  0
LINE
  5
1CB
330
5C
100
AcDbEntity
  8
1
  6
PHANTOM
 62
     4
100
AcDbLine
 10
184.3947742270184
 20
451.1260336289297
 30
0.0
 11
183.5817742270184
 21
450.3130336289296
 31
0.0
  0
LINE
  5
1CC
330
5C
100
AcDbEntity
  8
1
  6
PHANTOM
 62
     4
100
AcDbLine
 10
104.3947742270184
 20
456.2260336289296
 30
0.0
 11
104.3947742270184
 21
453.6760336289295
 31
0.0
  0
LINE
  5
1CD
330
5C
100
AcDbEntity
  8
1
  6
PHANTOM
 62
     4
100
AcDbLine
 10
110.3947742270184
 20
453.6760336289295
 30
0.0
 11
110.3947742270184
 21
456.2260336289296
 31
0.0
  0
LINE
  5
1CE
330
5C
100
AcDbEntity
  8
1
  6
PHANTOM
 62
     4
100
AcDbLine
 10
110.3947742270184
 20
456.2260336289296
 30
0.0
 11
104.3947742270184
 21
456.2260336289296
 31
0.0
  0
LINE
  5
1CF
330
5C
100
AcDbEntity
  8
1
  6
PHANTOM
 62
     4
100
AcDbLine
 10
110.3947742270184
 20
456.2260336289296
 30
0.0
 11
110.3947742270183
 21
457.0390336289298
 31
0.0
  0
LINE
  5
1D0
330
5C
100
AcDbEntity
  8
1
  6
PHANTOM
 62
     4
100
AcDbLine
 10
110.3947742270183
 20
457.0390336289298
 30
0.0
 11
105.2077742270184
 21
457.0390336289295
 31
0.0
  0
LINE
  5
1D1
330
5C
100
AcDbEntity
  8
1
  6
PHANTOM
 62
     4
100
AcDbLine
 10
104.3947742270184
 20
456.2260336289296
 30
0.0
 11
105.2077742270184
 21
457.0390336289295
 31
0.0
  0
LINE
  5
1D2
330
5C
100
AcDbEntity
  8
1
  6
PHANTOM
 62
     4
100
AcDbLine
 10
105.2077742270184
 20
457.0390336289295
 30
0.0
 11
105.2077742270184
 21
453.6760336289295
 31
0.0
  0
LINE
  5
1D3
330
5C
100
AcDbEntity
  8
1
  6
PHANTOM
 62
     4
100
AcDbLine
 10
104.3947742270184
 20
453.6760336289295
 30
0.0
 11
104.3947742270184
 21
451.1260336289297
 31
0.0
  0
LINE
  5
1D4
330
5C
100
AcDbEntity
  8
1
  6
PHANTOM
 62
     4
100
AcDbLine
 10
110.3947742270184
 20
451.1260336289297
 30
0.0
 11
110.3947742270184
 21
453.6760336289295
 31
0.0
  0
LINE
  5
1D5
330
5C
100
AcDbEntity
  8
1
  6
PHANTOM
 62
     4
100
AcDbLine
 10
104.3947742270184
 20
451.1260336289297
 30
0.0
 11
110.3947742270184
 21
451.1260336289297
 31
0.0
  0
LINE
  5
1D6
330
5C
100
AcDbEntity
  8
1
  6
PHANTOM
 62
     4
100
AcDbLine
 10
110.3947742270183
 20
450.3130336289293
 30
0.0
 11
110.3947742270184
 21
451.1260336289297
 31
0.0
  0
LINE
  5
1D7
330
5C
100
AcDbEntity
  8
1
  6
PHANTOM
 62
     4
100
AcDbLine
 10
105.2077742270184
 20
450.3130336289296
 30
0.0
 11
110.3947742270183
 21
450.3130336289293
 31
0.0
  0
LINE
  5
1D8
330
5C
100
AcDbEntity
  8
1
  6
PHANTOM
 62
     4
100
AcDbLine
 10
105.2077742270184
 20
450.3130336289296
 30
0.0
 11
104.3947742270184
 21
451.1260336289297
 31
0.0
  0
LINE
  5
1D9
330
5C
100
AcDbEntity
  8
1
  6
PHANTOM
 62
     4
100
AcDbLine
 10
105.2077742270184
 20
453.6760336289295
 30
0.0
 11
105.2077742270184
 21
450.3130336289296
 31
0.0
  0
LINE
  5
1DA
330
5C
100
AcDbEntity
  8
1
  6
Continuous
 62
     2
100
AcDbLine
 10
110.5697742270183
 20
451.0249973318214
 30
0.0
 11
111.8029315335718
 21
450.3130336289296
 31
0.0
  0
LINE
  5
1DB
330
5C
100
AcDbEntity
  8
1
  6
Continuous
 62
     7
100
AcDbLine
 10
173.3197742270183
 20
457.0390336289295
 30
0.0
 11
162.1447742270184
 21
457.0390336289295
 31
0.0
  0
LINE
  5
1DC
330
5C
100
AcDbEntity
  8
1
  6
Continuous
 62
     2
100
AcDbLine
 10
173.3197742270183
 20
456.2260336289296
 30
0.0
 11
162.1447742270184
 21
456.2260336289296
 31
0.0
  0
LINE
  5
1DD
330
5C
100
AcDbEntity
  8
1
  6
Continuous
 62
     7
100
AcDbLine
 10
162.1447742270184
 20
450.3130336289296
 30
0.0
 11
173.3197742270183
 21
450.3130336289296
 31
0.0
  0
LINE
  5
1DE
330
5C
100
AcDbEntity
  8
1
  6
Continuous
 62
     7
100
AcDbLine
 10
162.1447742270184
 20
451.1260336289297
 30
0.0
 11
162.1447742270184
 21
453.6760336289295
 31
0.0
  0
LINE
  5
1DF
330
5C
100
AcDbEntity
  8
1
  6
Continuous
 62
     2
100
AcDbLine
 10
162.1447742270184
 20
451.1260336289297
 30
0.0
 11
173.3197742270183
 21
451.1260336289297
 31
0.0
  0
LINE
  5
1E0
330
5C
100
AcDbEntity
  8
1
  6
Continuous
 62
     7
100
AcDbLine
 10
160.7366169204648
 20
450.3130336289296
 30
0.0
 11
162.1447742270184
 21
450.3130336289296
 31
0.0
  0
LINE
  5
1E1
330
5C
100
AcDbEntity
  8
1
  6
Continuous
 62
     7
100
AcDbLine
 10
162.1447742270184
 20
450.3130336289296
 30
0.0
 11
162.1447742270184
 21
451.1260336289297
 31
0.0
  0
LINE
  5
1E2
330
5C
100
AcDbEntity
  8
1
  6
Continuous
 62
     2
100
AcDbLine
 10
160.7366169204648
 20
450.3130336289296
 30
0.0
 11
162.1447742270184
 21
451.1260336289297
 31
0.0
  0
LINE
  5
1E3
330
5C
100
AcDbEntity
  8
1
  6
Continuous
 62
     2
100
AcDbLine
 10
111.8029315335718
 20
457.0390336289295
 30
0.0
 11
110.5697742270183
 21
456.3270699260379
 31
0.0
  0
LINE
  5
1E4
330
5C
100
AcDbEntity
  8
1
  6
Continuous
 62
     7
100
AcDbLine
 10
162.1447742270184
 20
453.6760336289295
 30
0.0
 11
162.1447742270184
 21
456.2260336289296
 31
0.0
  0
LINE
  5
1E5
330
5C
100
AcDbEntity
  8
1
  6
Continuous
 62
     7
100
AcDbLine
 10
162.1447742270184
 20
457.0390336289295
 30
0.0
 11
160.7366169204648
 21
457.0390336289295
 31
0.0
  0
LINE
  5
1E6
330
5C
100
AcDbEntity
  8
1
  6
Continuous
 62
     7
100
AcDbLine
 10
162.1447742270184
 20
456.2260336289296
 30
0.0
 11
162.1447742270184
 21
457.0390336289295
 31
0.0
  0
LINE
  5
1E7
330
5C
100
AcDbEntity
  8
1
  6
Continuous
 62
     7
100
AcDbLine
 10
160.7366169204648
 20
457.0390336289295
 30
0.0
 11
110.6555993581344
 21
457.0390336289298
 31
0.0
  0
LINE
  5
1E8
330
5C
100
AcDbEntity
  8
1
  6
Continuous
 62
     2
100
AcDbLine
 10
162.1447742270184
 20
456.2260336289296
 30
0.0
 11
160.7366169204648
 21
457.0390336289295
 31
0.0
  0
LINE
  5
1E9
330
5C
100
AcDbEntity
  8
1
  6
Continuous
 62
     7
100
AcDbLine
 10
110.5697742270183
 20
450.3130336289296
 30
0.0
 11
160.7366169204648
 21
450.3130336289296
 31
0.0
  0
ENDBLK
  5
5E
330
5C
100
AcDbEntity
  8
0
100
AcDbBlockEnd
  0
BLOCK
  5
60
330
5F
100
AcDbEntity
  8
0
100
AcDbBlockBegin
  2
H862-A__13
 70
     0
 71
     0
 10
169.2216870960762
 20
437.052862504979
 30
0.0
  3
H862-A__13
  1

  0
LINE
  5
1EA
330
5F
100
AcDbEntity
  8
1
  6
Continuous
 62
     7
100
AcDbLine
 10
173.422974608361
 20
458.6253688115576
 30
0.0
 11
178.3197742270183
 21
458.6253688115576
 31
0.0
  0
LINE
  5
1EB
330
5F
100
AcDbEntity
  8
1
  6
Continuous
 62
     7
100
AcDbLine
 10
173.422974608361
 20
458.6253688115576
 30
0.0
 11
173.3197742270183
 21
458.4260336289295
 31
0.0
  0
LINE
  5
1EC
330
5F
100
AcDbEntity
  8
1
  6
Continuous
 62
     7
100
AcDbLine
 10
178.3197742270183
 20
448.7266984463015
 30
0.0
 11
173.422974608361
 21
448.7266984463015
 31
0.0
  0
LINE
  5
1ED
330
5F
100
AcDbEntity
  8
1
  6
Continuous
 62
     7
100
AcDbLine
 10
173.3197742270183
 20
458.4260336289295
 30
0.0
 11
173.3197742270183
 21
453.6760336289295
 31
0.0
  0
LINE
  5
1EE
330
5F
100
AcDbEntity
  8
1
  6
Continuous
 62
     7
100
AcDbLine
 10
173.8197742270183
 20
453.6760336289295
 30
0.0
 11
178.3197742270183
 21
453.6760336289295
 31
0.0
  0
LINE
  5
1EF
330
5F
100
AcDbEntity
  8
1
  6
Continuous
 62
     7
100
AcDbLine
 10
173.3197742270183
 20
453.6760336289295
 30
0.0
 11
173.3197742270183
 21
448.9260336289295
 31
0.0
  0
LINE
  5
1F0
330
5F
100
AcDbEntity
  8
1
  6
Continuous
 62
     7
100
AcDbLine
 10
173.3197742270183
 20
448.9260336289295
 30
0.0
 11
173.422974608361
 21
448.7266984463015
 31
0.0
  0
ARC
  5
1F1
330
5F
100
AcDbEntity
  8
1
  6
Continuous
 62
     7
100
AcDbCircle
 10
183.8764070395188
 20
456.1507012202435
 30
0.0
 40
10.35663281250049
100
AcDbArc
 50
166.1757070278549
 51
-166.1757070278555
  0
ARC
  5
1F2
330
5F
100
AcDbEntity
  8
1
  6
Continuous
 62
     7
100
AcDbCircle
 10
183.8764070395188
 20
451.2013660376153
 30
0.0
 40
10.35663281250051
100
AcDbArc
 50
166.1757070278546
 51
-166.1757070278568
  0
ENDBLK
  5
61
330
5F
100
AcDbEntity
  8
0
100
AcDbBlockEnd
  0
BLOCK
  5
67
330
62
100
AcDbEntity
  8
0
100
AcDbBlockBegin
  2
H862S__14
 70
     0
 71
     0
 10
75.31977422701833
 20
320.9059476238782
 30
0.0
  3
H862S__14
  1

  0
INSERT
  5
63
330
62
100
AcDbEntity
  8
1
100
AcDbBlockReference
  2
H86F-B__10
 10
49.48951314773875
 20
351.4801612960758
 30
0.0
  0
INSERT
  5
64
330
62
100
AcDbEntity
  8
1
100
AcDbBlockReference
  2
H86F-A__11
 10
56.56977422701833
 20
386.9059476238782
 30
0.0
  0
INSERT
  5
65
330
62
100
AcDbEntity
  8
0
100
AcDbBlockReference
  2
H862-L__12
 10
143.074963363852
 20
342.4059476238782
 30
0.0
  0
INSERT
  5
66
330
62
100
AcDbEntity
  8
0
100
AcDbBlockReference
  2
H862-A__13
 10
169.2216870960762
 20
437.052862504979
 30
0.0
  0
ENDBLK
  5
68
330
62
100
AcDbEntity
  8
0
100
AcDbBlockEnd
  0
BLOCK
  5
6A
330
69
100
AcDbEntity
  8
0
100
AcDbBlockBegin
  2
TOP__15
 70
     0
 71
     0
 10
-3.33850889389737
 20
375.4083835736185
 30
0.0
  3
TOP__15
  1

  0
LINE
  5
1F3
330
69
100
AcDbEntity
  8
1
  6
Continuous
 62
     7
100
AcDbLine
 10
365.377774248694
 20
211.5850168360741
 30
0.0
 11
364.8607905252579
 21
209.6556073135228
 31
0.0
  0
LINE
  5
1F4
330
69
100
AcDbEntity
  8
1
  6
Continuous
 62
     7
100
AcDbLine
 10
358.1748842313716
 20
227.9850168360742
 30
0.0
 11
361.1480979808351
 21
227.9850168360742
 31
0.0
  0
LINE
  5
1F5
330
69
100
AcDbEntity
  8
1
  6
Continuous
 62
     7
100
AcDbLine
 10
360.9303488601482
 20
226.9850168360741
 30
0.0
 11
358.3926333520585
 21
226.9850168360741
 31
0.0
  0
LINE
  5
1F6
330
69
100
AcDbEntity
  8
1
  6
Continuous
 62
     7
100
AcDbLine
 10
364.3778276121132
 20
209.2850168360741
 30
0.0
 11
359.6614911061028
 21
209.2850168360741
 31
0.0
  0
LINE
  5
1F7
330
69
100
AcDbEntity
  8
1
  6
Continuous
 62
     7
100
AcDbLine
 10
359.6614911061028
 20
209.2850168360741
 30
0.0
 11
354.9451546000923
 21
209.2850168360741
 31
0.0
  0
LINE
  5
1F8
330
69
100
AcDbEntity
  8
1
  6
Continuous
 62
     7
100
AcDbLine
 10
354.4621916869474
 20
209.6556073135228
 30
0.0
 11
353.9452079635111
 21
211.5850168360741
 31
0.0
  0
LINE
  5
1F9
330
69
100
AcDbEntity
  8
1
  6
Continuous
 62
     7
100
AcDbLine
 10
359.6614911061027
 20
239.8341508541538
 30
0.0
 11
359.6614911061027
 21
233.9777443936028
 31
0.0
  0
LINE
  5
1FA
330
69
100
AcDbEntity
  8
1
  6
Continuous
 62
     7
100
AcDbLine
 10
371.6614911061027
 20
233.9777443936028
 30
0.0
 11
371.6614911061027
 21
232.9059476238782
 31
0.0
  0
LINE
  5
1FB
330
69
100
AcDbEntity
  8
1
  6
Continuous
 62
     7
100
AcDbLine
 10
371.6614911061027
 20
239.8341508541538
 30
0.0
 11
371.6614911061027
 21
233.9777443936028
 31
0.0
  0
LINE
  5
1FC
330
69
100
AcDbEntity
  8
1
  6
Continuous
 62
     7
100
AcDbLine
 10
347.6614911061027
 20
232.9059476238782
 30
0.0
 11
347.6614911061027
 21
240.9059476238782
 31
0.0
  0
LINE
  5
1FD
330
69
100
AcDbEntity
  8
1
  6
Continuous
 62
     7
100
AcDbLine
 10
371.6614911061027
 20
240.9059476238782
 30
0.0
 11
371.6614911061027
 21
239.8341508541538
 31
0.0
  0
LINE
  5
1FE
330
69
100
AcDbEntity
  8
1
  6
Continuous
 62
     7
100
AcDbLine
 10
347.6614911061027
 20
232.9059476238782
 30
0.0
 11
350.8114911061027
 21
232.9059476238782
 31
0.0
  0
LINE
  5
1FF
330
69
100
AcDbEntity
  8
1
  6
Continuous
 62
     7
100
AcDbLine
 10
368.5114911061027
 20
232.9059476238782
 30
0.0
 11
371.6614911061027
 21
232.9059476238782
 31
0.0
  0
LINE
  5
200
330
69
100
AcDbEntity
  8
1
  6
Continuous
 62
     7
100
AcDbLine
 10
351.3114911061027
 20
232.4059476238782
 30
0.0
 11
351.3114911061027
 21
232.2059476238782
 31
0.0
  0
LINE
  5
201
330
69
100
AcDbEntity
  8
1
  6
Continuous
 62
     7
100
AcDbLine
 10
368.0114911061027
 20
232.4059476238782
 30
0.0
 11
368.0114911061027
 21
232.2059476238782
 31
0.0
  0
LINE
  5
202
330
69
100
AcDbEntity
  8
1
  6
Continuous
 62
     7
100
AcDbLine
 10
368.5114911061027
 20
232.9059476238782
 30
0.0
 11
350.8114911061027
 21
232.9059476238782
 31
0.0
  0
LINE
  5
203
330
69
100
AcDbEntity
  8
1
  6
Continuous
 62
     7
100
AcDbLine
 10
347.6614911061027
 20
240.9059476238782
 30
0.0
 11
371.6614911061027
 21
240.9059476238782
 31
0.0
  0
ARC
  5
204
330
69
100
AcDbEntity
  8
1
  6
Continuous
 62
     7
100
AcDbCircle
 10
353.6614911061027
 20
250.2217025521674
 30
0.0
 40
17.31664449762705
100
AcDbArc
 50
-110.2726217347325
 51
-69.72737826526749
  0
ARC
  5
205
330
69
100
AcDbEntity
  8
1
  6
Continuous
 62
     7
100
AcDbCircle
 10
353.6614911061027
 20
223.5758206049871
 30
0.0
 40
17.33012701889311
100
AcDbArc
 50
69.74384199954815
 51
110.2561580004518
  0
ARC
  5
206
330
69
100
AcDbEntity
  8
1
  6
Continuous
 62
     7
100
AcDbCircle
 10
365.6614911061027
 20
250.2217025521674
 30
0.0
 40
17.31664449762705
100
AcDbArc
 50
-110.2726217347325
 51
-69.72737826526749
  0
ARC
  5
207
330
69
100
AcDbEntity
  8
1
  6
Continuous
 62
     7
100
AcDbCircle
 10
365.6614911061027
 20
223.5758206049871
 30
0.0
 40
17.33012701889311
100
AcDbArc
 50
69.74384199954815
 51
110.2561580004518
  0
ARC
  5
208
330
69
100
AcDbEntity
  8
1
  6
Continuous
 62
     7
100
AcDbCircle
 10
354.9451546000923
 20
209.7850168360741
 30
0.0
 40
0.5000000000003521
100
AcDbArc
 50
-165.0000000000062
 51
-90.0
  0
ARC
  5
209
330
69
100
AcDbEntity
  8
1
  6
Continuous
 62
     7
100
AcDbCircle
 10
364.3778276121132
 20
209.7850168360741
 30
0.0
 40
0.5
100
AcDbArc
 50
-90.0
 51
-14.99999999999883
  0
ARC
  5
20A
330
69
100
AcDbEntity
  8
1
  6
Continuous
 62
     7
100
AcDbCircle
 10
350.8114911061027
 20
232.4059476238782
 30
0.0
 40
0.5
100
AcDbArc
 50
0.0
 51
90.0
  0
ARC
  5
20B
330
69
100
AcDbEntity
  8
1
  6
Continuous
 62
     7
100
AcDbCircle
 10
368.5114911061027
 20
232.4059476238782
 30
0.0
 40
0.5
100
AcDbArc
 50
90.0
 51
180.0
  0
ENDBLK
  5
6B
330
69
100
AcDbEntity
  8
0
100
AcDbBlockEnd
  0
BLOCK
  5
6D
330
6C
100
AcDbEntity
  8
0
100
AcDbBlockBegin
  2
V2110-1-0__16
 70
     0
 71
     0
 10
476.7767402376899
 20
838.9446519524615
 30
0.0
  3
V2110-1-0__16
  1

  0
LINE
  5
20C
330
6C
100
AcDbEntity
  8
1
  6
Continuous
 62
     7
100
AcDbLine
 10
178.8197742270183
 20
269.7059476238782
 30
0.0
 11
178.3197742270183
 21
270.2059476238782
 31
0.0
  0
LINE
  5
20D
330
6C
100
AcDbEntity
  8
1
  6
Continuous
 62
     7
100
AcDbLine
 10
178.8197742270183
 20
282.1059476238783
 30
0.0
 11
178.3197742270183
 21
281.6059476238783
 31
0.0
  0
LINE
  5
20E
330
6C
100
AcDbEntity
  8
1
  6
Continuous
 62
     7
100
AcDbLine
 10
186.5197742270184
 20
265.3808622082707
 30
0.0
 11
186.5197742270184
 21
266.7059476238782
 31
0.0
  0
LINE
  5
20F
330
6C
100
AcDbEntity
  8
1
  6
Continuous
 62
     7
100
AcDbLine
 10
178.8197742270183
 20
282.1059476238783
 30
0.0
 11
183.6215595399824
 21
282.1059476238783
 31
0.0
  0
LINE
  5
210
330
6C
100
AcDbEntity
  8
1
  6
Continuous
 62
     7
100
AcDbLine
 10
178.8197742270183
 20
269.7059476238782
 30
0.0
 11
183.5197742270184
 21
269.7059476238782
 31
0.0
  0
LINE
  5
211
330
6C
100
AcDbEntity
  8
1
  6
Continuous
 62
     7
100
AcDbLine
 10
213.3197742270187
 20
253.9059476238783
 30
0.0
 11
213.3197742270183
 21
241.9059476238783
 31
0.0
  0
LINE
  5
212
330
6C
100
AcDbEntity
  8
1
  6
Continuous
 62
     7
100
AcDbLine
 10
189.1197742270185
 20
294.5468944239694
 30
0.0
 11
189.1197742270185
 21
291.2695617794018
 31
0.0
  0
LINE
  5
213
330
6C
100
AcDbEntity
  8
1
  6
Continuous
 62
     7
100
AcDbLine
 10
189.3197742270183
 20
294.8933045854832
 30
0.0
 11
189.1197742270185
 21
294.5468944239694
 31
0.0
  0
LINE
  5
214
330
6C
100
AcDbEntity
  8
1
  6
Continuous
 62
     7
100
AcDbLine
 10
210.5212927813211
 20
294.544264210763
 30
0.0
 11
210.3197742270183
 21
294.8933045854832
 31
0.0
  0
LINE
  5
215
330
6C
100
AcDbEntity
  8
1
  6
Continuous
 62
     7
100
AcDbLine
 10
222.0652067589512
 20
288.1059476238783
 30
0.0
 11
216.8197742270183
 21
288.1059476238783
 31
0.0
  0
LINE
  5
216
330
6C
100
AcDbEntity
  8
1
  6
Continuous
 62
     7
100
AcDbLine
 10
222.4116169204649
 20
287.9059476238782
 30
0.0
 11
222.0652067589512
 21
288.1059476238783
 31
0.0
  0
LINE
  5
217
330
6C
100
AcDbEntity
  8
1
  6
Continuous
 62
     7
100
AcDbLine
 10
222.065206758951
 20
263.7059476238782
 30
0.0
 11
219.8763475715573
 21
263.7059476238782
 31
0.0
  0
LINE
  5
218
330
6C
100
AcDbEntity
  8
1
  6
Continuous
 62
     7
100
AcDbLine
 10
222.4116169204649
 20
263.9059476238783
 30
0.0
 11
222.065206758951
 21
263.7059476238782
 31
0.0
  0
LINE
  5
219
330
6C
100
AcDbEntity
  8
1
  6
Continuous
 62
     7
100
AcDbLine
 10
223.8197742270183
 20
263.9059476238783
 30
0.0
 11
225.2494655152035
 21
263.9059476238783
 31
0.0
  0
LINE
  5
21A
330
6C
100
AcDbEntity
  8
1
  6
Continuous
 62
     7
100
AcDbLine
 10
223.8197742270183
 20
264.7189476238782
 30
0.0
 11
223.8197742270183
 21
263.9059476238783
 31
0.0
  0
LINE
  5
21B
330
6C
100
AcDbEntity
  8
1
  6
Continuous
 62
     7
100
AcDbLine
 10
222.4116169204649
 20
263.9059476238783
 30
0.0
 11
223.8197742270183
 21
263.9059476238783
 31
0.0
  0
LINE
  5
21C
330
6C
100
AcDbEntity
  8
1
  6
Continuous
 62
     2
100
AcDbLine
 10
222.4116169204649
 20
263.9059476238783
 30
0.0
 11
223.8197742270183
 21
264.7189476238782
 31
0.0
  0
LINE
  5
21D
330
6C
100
AcDbEntity
  8
1
  6
Continuous
 62
     7
100
AcDbLine
 10
206.3197742270183
 20
305.9059476238782
 30
0.0
 11
209.1577742270184
 21
305.9059476238782
 31
0.0
  0
LINE
  5
21E
330
6C
100
AcDbEntity
  8
1
  6
Continuous
 62
     2
100
AcDbLine
 10
190.4817742270184
 20
296.9059476238782
 30
0.0
 11
190.4817742270184
 21
304.7439476238783
 31
0.0
  0
LINE
  5
21F
330
6C
100
AcDbEntity
  8
1
  6
Continuous
 62
     7
100
AcDbLine
 10
189.3197742270183
 20
296.9059476238782
 30
0.0
 11
190.4817742270184
 21
296.9059476238782
 31
0.0
  0
LINE
  5
220
330
6C
100
AcDbEntity
  8
1
  6
Continuous
 62
     2
100
AcDbLine
 10
189.3197742270183
 20
294.8933045854832
 30
0.0
 11
190.4817742270184
 21
296.9059476238782
 31
0.0
  0
LINE
  5
221
330
6C
100
AcDbEntity
  8
1
  6
Continuous
 62
     2
100
AcDbLine
 10
190.4817742270184
 20
296.9059476238782
 30
0.0
 11
190.4817742270184
 21
304.7439476238783
 31
0.0
  0
LINE
  5
222
330
6C
100
AcDbEntity
  8
1
  6
Continuous
 62
     2
100
AcDbLine
 10
209.1577742270184
 20
296.9059476238782
 30
0.0
 11
210.3197742270183
 21
294.8933045854832
 31
0.0
  0
LINE
  5
223
330
6C
100
AcDbEntity
  8
1
  6
Continuous
 62
     7
100
AcDbLine
 10
210.3197742270183
 20
296.9059476238782
 30
0.0
 11
210.3197742270183
 21
294.8933045854832
 31
0.0
  0
LINE
  5
224
330
6C
100
AcDbEntity
  8
1
  6
Continuous
 62
     7
100
AcDbLine
 10
209.1577742270184
 20
296.9059476238782
 30
0.0
 11
210.3197742270183
 21
296.9059476238782
 31
0.0
  0
LINE
  5
225
330
6C
100
AcDbEntity
  8
1
  6
Continuous
 62
     2
100
AcDbLine
 10
209.1577742270184
 20
305.9059476238782
 30
0.0
 11
209.1577742270184
 21
304.7439476238783
 31
0.0
  0
LINE
  5
226
330
6C
100
AcDbEntity
  8
1
  6
Continuous
 62
     2
100
AcDbLine
 10
223.8197742270183
 20
287.0929476238782
 30
0.0
 11
222.4116169204649
 21
287.9059476238782
 31
0.0
  0
LINE
  5
227
330
6C
100
AcDbEntity
  8
1
  6
Continuous
 62
     7
100
AcDbLine
 10
223.8197742270183
 20
287.9059476238782
 30
0.0
 11
222.4116169204649
 21
287.9059476238782
 31
0.0
  0
LINE
  5
228
330
6C
100
AcDbEntity
  8
1
  6
Continuous
 62
     7
100
AcDbLine
 10
223.8197742270183
 20
287.9059476238782
 30
0.0
 11
223.8197742270183
 21
287.0929476238782
 31
0.0
  0
LINE
  5
229
330
6C
100
AcDbEntity
  8
1
  6
Continuous
 62
     2
100
AcDbLine
 10
223.8197742270183
 20
287.0929476238782
 30
0.0
 11
225.2494655152035
 21
287.0929476238782
 31
0.0
  0
LINE
  5
22A
330
6C
100
AcDbEntity
  8
1
  6
Continuous
 62
     7
100
AcDbLine
 10
225.2494655152035
 20
287.9059476238782
 30
0.0
 11
223.8197742270183
 21
287.9059476238782
 31
0.0
  0
LINE
  5
22B
330
6C
100
AcDbEntity
  8
1
  6
Continuous
 62
     7
100
AcDbLine
 10
190.4817742270184
 20
305.9059476238782
 30
0.0
 11
189.3197742270183
 21
304.7439476238783
 31
0.0
  0
LINE
  5
22C
330
6C
100
AcDbEntity
  8
1
  6
Continuous
 62
     7
100
AcDbLine
 10
189.3197742270183
 20
304.7439476238783
 30
0.0
 11
189.3197742270183
 21
296.9059476238782
 31
0.0
  0
LINE
  5
22D
330
6C
100
AcDbEntity
  8
1
  6
Continuous
 62
     7
100
AcDbLine
 10
209.1577742270184
 20
305.9059476238782
 30
0.0
 11
210.3197742270183
 21
304.7439476238783
 31
0.0
  0
LINE
  5
22E
330
6C
100
AcDbEntity
  8
1
  6
Continuous
 62
     7
100
AcDbLine
 10
210.3197742270183
 20
304.7439476238783
 30
0.0
 11
210.3197742270183
 21
296.9059476238782
 31
0.0
  0
LINE
  5
22F
330
6C
100
AcDbEntity
  8
1
  6
Continuous
 62
     7
100
AcDbLine
 10
210.3197742270183
 20
304.7439476238783
 30
0.0
 11
209.1577742270184
 21
304.7439476238783
 31
0.0
  0
LINE
  5
230
330
6C
100
AcDbEntity
  8
1
  6
Continuous
 62
     2
100
AcDbLine
 10
209.1577742270184
 20
304.7439476238783
 30
0.0
 11
209.1577742270184
 21
296.9059476238782
 31
0.0
  0
LINE
  5
231
330
6C
100
AcDbEntity
  8
1
  6
Continuous
 62
     7
100
AcDbLine
 10
189.3197742270183
 20
304.7439476238783
 30
0.0
 11
190.4817742270184
 21
304.7439476238783
 31
0.0
  0
LINE
  5
232
330
6C
100
AcDbEntity
  8
1
  6
Continuous
 62
     2
100
AcDbLine
 10
190.4817742270184
 20
304.7439476238783
 30
0.0
 11
190.4817742270184
 21
305.9059476238782
 31
0.0
  0
LINE
  5
233
330
6C
100
AcDbEntity
  8
1
  6
Continuous
 62
     2
100
AcDbLine
 10
190.4817742270184
 20
304.7439476238783
 30
0.0
 11
190.4817742270184
 21
305.9059476238782
 31
0.0
  0
LINE
  5
234
330
6C
100
AcDbEntity
  8
1
  6
Continuous
 62
     2
100
AcDbLine
 10
225.2494655152035
 20
264.7189476238782
 30
0.0
 11
223.8197742270183
 21
264.7189476238782
 31
0.0
  0
LINE
  5
235
330
6C
100
AcDbEntity
  8
1
  6
Continuous
 62
     7
100
AcDbLine
 10
189.3197742270183
 20
296.9059476238782
 30
0.0
 11
189.3197742270183
 21
294.8933045854832
 31
0.0
  0
LINE
  5
236
330
6C
100
AcDbEntity
  8
1
  6
Continuous
 62
     7
100
AcDbLine
 10
190.4817742270184
 20
305.9059476238782
 30
0.0
 11
206.3197742270183
 21
305.9059476238782
 31
0.0
  0
LINE
  5
237
330
6C
100
AcDbEntity
  8
1
  6
Continuous
 62
     7
100
AcDbLine
 10
178.3197742270183
 20
270.2059476238782
 30
0.0
 11
178.3197742270183
 21
279.2689476238782
 31
0.0
  0
LINE
  5
238
330
6C
100
AcDbEntity
  8
1
  6
Continuous
 62
     7
100
AcDbLine
 10
178.3197742270183
 20
279.2689476238782
 30
0.0
 11
178.3197742270183
 21
281.6059476238783
 31
0.0
  0
LINE
  5
239
330
6C
100
AcDbEntity
  8
1
  6
Continuous
 62
     7
100
AcDbLine
 10
186.3197742270183
 20
241.9059476238782
 30
0.0
 11
186.3197742270183
 21
253.9059476238775
 31
0.0
  0
LINE
  5
23A
330
6C
100
AcDbEntity
  8
1
  6
Continuous
 62
     7
100
AcDbLine
 10
212.3197742270183
 20
240.9059476238783
 30
0.0
 11
187.4197742269962
 21
240.9059476238771
 31
0.0
  0
LINE
  5
23B
330
6C
100
AcDbEntity
  8
1
  6
Continuous
 62
     7
100
AcDbLine
 10
178.8197742270183
 20
282.1059476238783
 30
0.0
 11
178.8197742270183
 21
269.7059476238782
 31
0.0
  0
LINE
  5
23C
330
6C
100
AcDbEntity
  8
1
  6
Continuous
 62
     7
100
AcDbLine
 10
223.8197742270183
 20
287.0929476238782
 30
0.0
 11
223.8197742270183
 21
264.7189476238782
 31
0.0
  0
LINE
  5
23D
330
6C
100
AcDbEntity
  8
1
  6
Continuous
 62
     7
100
AcDbLine
 10
190.4817742270184
 20
304.7439476238783
 30
0.0
 11
209.1577742270184
 21
304.7439476238783
 31
0.0
  0
LINE
  5
23E
330
6C
100
AcDbEntity
  8
1
  6
Continuous
 62
     7
100
AcDbLine
 10
209.1577742270184
 20
296.9059476238782
 30
0.0
 11
190.4817742270184
 21
296.9059476238782
 31
0.0
  0
LINE
  5
23F
330
6C
100
AcDbEntity
  8
1
  6
Continuous
 62
     7
100
AcDbLine
 10
186.3197742270183
 20
253.9059476238775
 30
0.0
 11
213.3197742270187
 21
253.9059476238783
 31
0.0
  0
LINE
  5
240
330
6C
100
AcDbEntity
  8
1
  6
Continuous
 62
     7
100
AcDbLine
 10
349.1614911061026
 20
294.8933045854832
 30
0.0
 11
348.9614911061028
 21
294.5468944239694
 31
0.0
  0
LINE
  5
241
330
6C
100
AcDbEntity
  8
1
  6
Continuous
 62
     7
100
AcDbLine
 10
370.3630096604054
 20
294.544264210763
 30
0.0
 11
370.1614911061026
 21
294.8933045854832
 31
0.0
  0
LINE
  5
242
330
6C
100
AcDbEntity
  8
1
  6
Continuous
 62
     7
100
AcDbLine
 10
366.1614911061026
 20
305.9059476238782
 30
0.0
 11
368.9994911061028
 21
305.9059476238782
 31
0.0
  0
LINE
  5
243
330
6C
100
AcDbEntity
  8
1
  6
Continuous
 62
     2
100
AcDbLine
 10
350.3234911061027
 20
296.9059476238782
 30
0.0
 11
350.3234911061027
 21
304.7439476238783
 31
0.0
  0
LINE
  5
244
330
6C
100
AcDbEntity
  8
1
  6
Continuous
 62
     7
100
AcDbLine
 10
349.1614911061026
 20
296.9059476238782
 30
0.0
 11
350.3234911061027
 21
296.9059476238782
 31
0.0
  0
LINE
  5
245
330
6C
100
AcDbEntity
  8
1
  6
Continuous
 62
     2
100
AcDbLine
 10
349.1614911061026
 20
294.8933045854832
 30
0.0
 11
350.3234911061027
 21
296.9059476238782
 31
0.0
  0
LINE
  5
246
330
6C
100
AcDbEntity
  8
1
  6
Continuous
 62
     2
100
AcDbLine
 10
350.3234911061027
 20
296.9059476238782
 30
0.0
 11
350.3234911061027
 21
304.7439476238783
 31
0.0
  0
LINE
  5
247
330
6C
100
AcDbEntity
  8
1
  6
Continuous
 62
     2
100
AcDbLine
 10
368.9994911061028
 20
296.9059476238782
 30
0.0
 11
370.1614911061026
 21
294.8933045854832
 31
0.0
  0
LINE
  5
248
330
6C
100
AcDbEntity
  8
1
  6
Continuous
 62
     7
100
AcDbLine
 10
370.1614911061026
 20
296.9059476238782
 30
0.0
 11
370.1614911061026
 21
294.8933045854832
 31
0.0
  0
LINE
  5
249
330
6C
100
AcDbEntity
  8
1
  6
Continuous
 62
     7
100
AcDbLine
 10
368.9994911061028
 20
296.9059476238782
 30
0.0
 11
370.1614911061026
 21
296.9059476238782
 31
0.0
  0
LINE
  5
24A
330
6C
100
AcDbEntity
  8
1
  6
Continuous
 62
     2
100
AcDbLine
 10
368.9994911061028
 20
305.9059476238782
 30
0.0
 11
368.9994911061028
 21
304.7439476238783
 31
0.0
  0
LINE
  5
24B
330
6C
100
AcDbEntity
  8
1
  6
Continuous
 62
     7
100
AcDbLine
 10
350.3234911061027
 20
305.9059476238782
 30
0.0
 11
349.1614911061026
 21
304.7439476238783
 31
0.0
  0
LINE
  5
24C
330
6C
100
AcDbEntity
  8
1
  6
Continuous
 62
     7
100
AcDbLine
 10
368.9994911061028
 20
305.9059476238782
 30
0.0
 11
370.1614911061026
 21
304.7439476238783
 31
0.0
  0
LINE
  5
24D
330
6C
100
AcDbEntity
  8
1
  6
Continuous
 62
     7
100
AcDbLine
 10
370.1614911061026
 20
304.7439476238783
 30
0.0
 11
370.1614911061026
 21
296.9059476238782
 31
0.0
  0
LINE
  5
24E
330
6C
100
AcDbEntity
  8
1
  6
Continuous
 62
     7
100
AcDbLine
 10
370.1614911061026
 20
304.7439476238783
 30
0.0
 11
368.9994911061028
 21
304.7439476238783
 31
0.0
  0
LINE
  5
24F
330
6C
100
AcDbEntity
  8
1
  6
Continuous
 62
     2
100
AcDbLine
 10
368.9994911061028
 20
304.7439476238783
 30
0.0
 11
368.9994911061028
 21
296.9059476238782
 31
0.0
  0
LINE
  5
250
330
6C
100
AcDbEntity
  8
1
  6
Continuous
 62
     7
100
AcDbLine
 10
349.1614911061026
 20
304.7439476238783
 30
0.0
 11
350.3234911061027
 21
304.7439476238783
 31
0.0
  0
LINE
  5
251
330
6C
100
AcDbEntity
  8
1
  6
Continuous
 62
     2
100
AcDbLine
 10
350.3234911061027
 20
304.7439476238783
 30
0.0
 11
350.3234911061027
 21
305.9059476238782
 31
0.0
  0
LINE
  5
252
330
6C
100
AcDbEntity
  8
1
  6
Continuous
 62
     2
100
AcDbLine
 10
350.3234911061027
 20
304.7439476238783
 30
0.0
 11
350.3234911061027
 21
305.9059476238782
 31
0.0
  0
LINE
  5
253
330
6C
100
AcDbEntity
  8
1
  6
Continuous
 62
     7
100
AcDbLine
 10
349.1614911061026
 20
296.9059476238782
 30
0.0
 11
349.1614911061026
 21
294.8933045854832
 31
0.0
  0
LINE
  5
254
330
6C
100
AcDbEntity
  8
1
  6
Continuous
 62
     7
100
AcDbLine
 10
350.3234911061027
 20
305.9059476238782
 30
0.0
 11
356.3448663157474
 21
305.9059476238782
 31
0.0
  0
LINE
  5
255
330
6C
100
AcDbEntity
  8
1
  6
Continuous
 62
     7
100
AcDbLine
 10
350.3234911061027
 20
304.7439476238783
 30
0.0
 11
355.0495765362088
 21
304.7439476238783
 31
0.0
  0
LINE
  5
256
330
6C
100
AcDbEntity
  8
1
  6
Continuous
 62
     7
100
AcDbLine
 10
368.9994911061028
 20
296.9059476238782
 30
0.0
 11
366.9449449582878
 21
296.9059476238782
 31
0.0
  0
LINE
  5
257
330
6C
100
AcDbEntity
  8
1
  6
Continuous
 62
     7
100
AcDbLine
 10
373.161491106103
 20
253.9059476238783
 30
0.0
 11
373.1614911061026
 21
241.9059476238783
 31
0.0
  0
LINE
  5
258
330
6C
100
AcDbEntity
  8
1
  6
Continuous
 62
     7
100
AcDbLine
 10
346.1614911061026
 20
241.9059476238782
 30
0.0
 11
346.1614911061026
 21
253.9059476238775
 31
0.0
  0
LINE
  5
259
330
6C
100
AcDbEntity
  8
1
  6
Continuous
 62
     7
100
AcDbLine
 10
372.1614911061026
 20
240.9059476238783
 30
0.0
 11
347.2614911061027
 21
240.9059476238782
 31
0.0
  0
LINE
  5
25A
330
6C
100
AcDbEntity
  8
1
  6
Continuous
 62
     7
100
AcDbLine
 10
346.1614911061026
 20
253.9059476238775
 30
0.0
 11
373.161491106103
 21
253.9059476238783
 31
0.0
  0
LINE
  5
25B
330
6C
100
AcDbEntity
  8
1
  6
Continuous
 62
     7
100
AcDbLine
 10
349.1614911061026
 20
304.7439476238783
 30
0.0
 11
349.1614911061026
 21
296.9059476238782
 31
0.0
  0
LINE
  5
25C
330
6C
100
AcDbEntity
  8
1
  6
Continuous
 62
     7
100
AcDbLine
 10
348.9614911061028
 20
294.5468944239694
 30
0.0
 11
348.9614911061028
 21
285.2614785020364
 31
0.0
  0
LINE
  5
25D
330
6C
100
AcDbEntity
  8
1
  6
Continuous
 62
     7
100
AcDbLine
 10
370.3614911061027
 20
285.2614785020364
 30
0.0
 11
370.3614911061027
 21
294.5468944239694
 31
0.0
  0
LINE
  5
25E
330
6C
100
AcDbEntity
  8
1
  6
Continuous
 62
     7
100
AcDbLine
 10
352.3780372539177
 20
296.9059476238782
 30
0.0
 11
350.3234911061027
 21
296.9059476238782
 31
0.0
  0
LINE
  5
25F
330
6C
100
AcDbEntity
  8
1
  6
Continuous
 62
     7
100
AcDbLine
 10
364.2734056759966
 20
304.7439476238783
 30
0.0
 11
368.9994911061028
 21
304.7439476238783
 31
0.0
  0
LINE
  5
260
330
6C
100
AcDbEntity
  8
1
  6
Continuous
 62
     7
100
AcDbLine
 10
362.9781158964581
 20
305.9059476238782
 30
0.0
 11
366.1614911061026
 21
305.9059476238782
 31
0.0
  0
ARC
  5
261
330
6C
100
AcDbEntity
  8
1
  6
Continuous
 62
     7
100
AcDbCircle
 10
183.6215595399824
 20
285.1059476238783
 30
0.0
 40
3.0
100
AcDbArc
 50
-90.0
 51
-14.96770387018611
  0
ARC
  5
262
330
6C
100
AcDbEntity
  8
1
  6
Continuous
 62
     7
100
AcDbCircle
 10
179.3629602910341
 20
261.8059476238782
 30
0.0
 40
8.000000000000087
100
AcDbArc
 50
1.07368182743015
 51
26.54267944600835
  0
ARC
  5
263
330
6C
100
AcDbEntity
  8
1
  6
Continuous
 62
     7
100
AcDbCircle
 10
374.219021380099
 20
265.4578379751844
 30
0.0
 40
186.8902789938053
100
AcDbArc
 50
172.0614100354163
 51
172.7638820443954
  0
ARC
  5
264
330
6C
100
AcDbEntity
  8
1
  6
Continuous
 62
     7
100
AcDbCircle
 10
180.880946601852
 20
290.0059476238782
 30
0.0
 40
8.000000000000021
100
AcDbArc
 50
-45.18229403168833
 51
-7.2361179556046
  0
ARC
  5
265
330
6C
100
AcDbEntity
  8
1
  6
Continuous
 62
     7
100
AcDbCircle
 10
184.0368265844439
 20
256.5588988223097
 30
0.0
 40
3.499999999999839
100
AcDbArc
 50
-49.28697333557901
 51
2.67901014555452
  0
ARC
  5
266
330
6C
100
AcDbEntity
  8
1
  6
Continuous
 62
     7
100
AcDbCircle
 10
215.6234840383492
 20
256.5408899581958
 30
0.0
 40
3.4999999999998
100
AcDbArc
 50
171.5085972117324
 51
-131.1629519599868
  0
ARC
  5
267
330
6C
100
AcDbEntity
  8
1
  6
Continuous
 62
     7
100
AcDbCircle
 10
374.219021380099
 20
265.4578379751844
 30
0.0
 40
186.8902789938054
100
AcDbArc
 50
-178.9263181725691
 51
-177.320989854448
  0
ARC
  5
268
330
6C
100
AcDbEntity
  8
1
  6
Continuous
 62
     7
100
AcDbCircle
 10
216.8197742270183
 20
294.4059476238782
 30
0.0
 40
6.299999999999955
100
AcDbArc
 50
178.7419692902588
 51
-90.0
  0
ARC
  5
269
330
6C
100
AcDbEntity
  8
1
  6
Continuous
 62
     7
100
AcDbCircle
 10
219.8763475715573
 20
255.9059476238783
 30
0.0
 40
7.799999999999926
100
AcDbArc
 50
90.0
 51
171.5085972117338
  0
ARC
  5
26A
330
6C
100
AcDbEntity
  8
1
  6
Continuous
 62
     7
100
AcDbCircle
 10
343.8785434635283
 20
256.5588988223097
 30
0.0
 40
3.499999999999765
100
AcDbArc
 50
-49.28697333558042
 51
2.67901014555459
  0
ARC
  5
26B
330
6C
100
AcDbEntity
  8
1
  6
Continuous
 62
     7
100
AcDbCircle
 10
534.0607382591834
 20
265.4578379751844
 30
0.0
 40
186.8902789938054
100
AcDbArc
 50
-178.2261097874136
 51
-177.320989854448
  0
ARC
  5
26C
330
6C
100
AcDbEntity
  8
1
  6
Continuous
 62
     7
100
AcDbCircle
 10
185.2622439530221
 20
265.4578379751844
 30
0.0
 40
186.8902789938054
100
AcDbArc
 50
-2.67901014555205
 51
-1.7738902125864
  0
ARC
  5
26D
330
6C
100
AcDbEntity
  8
1
  6
Continuous
 62
     7
100
AcDbCircle
 10
375.4444387486773
 20
256.5588988223097
 30
0.0
 40
3.500000000000109
100
AcDbArc
 50
177.3209898544455
 51
-130.7130266644281
  0
ARC
  5
26E
330
6C
100
AcDbEntity
  8
1
  6
Continuous
 62
     7
100
AcDbCircle
 10
183.5197742270184
 20
266.7059476238782
 30
0.0
 40
3.0
100
AcDbArc
 50
0.0
 51
90.0
  0
ARC
  5
26F
330
6C
100
AcDbEntity
  8
1
  6
Continuous
 62
     7
100
AcDbCircle
 10
187.3697742270185
 20
241.9559476238782
 30
0.0
 40
1.051189802081613
100
AcDbArc
 50
-177.2736890060951
 51
-87.27368900731065
  0
ARC
  5
270
330
6C
100
AcDbEntity
  8
1
  6
Continuous
 62
     7
100
AcDbCircle
 10
212.3197742270183
 20
241.9059476238783
 30
0.0
 40
1.0
100
AcDbArc
 50
-90.0
 51
0.0
  0
ARC
  5
271
330
6C
100
AcDbEntity
  8
1
  6
Continuous
 62
     7
100
AcDbCircle
 10
347.2114911061028
 20
241.9559476238782
 30
0.0
 40
1.05118980208167
100
AcDbArc
 50
-177.2736890060953
 51
-87.27368900609926
  0
ARC
  5
272
330
6C
100
AcDbEntity
  8
1
  6
Continuous
 62
     7
100
AcDbCircle
 10
372.1614911061026
 20
241.9059476238783
 30
0.0
 40
1.0
100
AcDbArc
 50
-90.0
 51
0.0
  0
ENDBLK
  5
6E
330
6C
100
AcDbEntity
  8
0
100
AcDbBlockEnd
  0
BLOCK
  5
70
330
6F
100
AcDbEntity
  8
0
100
AcDbBlockBegin
  2
21-1A__17
 70
     0
 71
     0
 10
188.7596785020271
 20
160.4635267037429
 30
0.0
  3
21-1A__17
  1

  0
LINE
  5
273
330
6F
100
AcDbEntity
  8
1
  6
Continuous
 62
     7
100
AcDbLine
 10
242.3197742270185
 20
306.3307634202679
 30
0.0
 11
242.3197742270185
 21
280.6559476238782
 31
0.0
  0
LINE
  5
274
330
6F
100
AcDbEntity
  8
1
  6
Continuous
 62
     7
100
AcDbLine
 10
242.3197742270185
 20
280.6559476238782
 30
0.0
 11
242.3197742270185
 21
281.6559476238782
 31
0.0
  0
LINE
  5
275
330
6F
100
AcDbEntity
  8
1
  6
Continuous
 62
     7
100
AcDbLine
 10
242.3197742270185
 20
280.6559476238782
 30
0.0
 11
242.3197742270185
 21
262.1136562203875
 31
0.0
  0
LINE
  5
276
330
6F
100
AcDbEntity
  8
1
  6
Continuous
 62
     7
100
AcDbLine
 10
242.3197742270185
 20
262.1136562203875
 30
0.0
 11
242.3197742270185
 21
263.6790128514795
 31
0.0
  0
LINE
  5
277
330
6F
100
AcDbEntity
  8
1
  6
Continuous
 62
     7
100
AcDbLine
 10
247.278850832762
 20
258.103261769527
 30
0.0
 11
242.8893961597311
 21
257.4860442755194
 31
0.0
  0
LINE
  5
278
330
6F
100
AcDbEntity
  8
1
  6
Continuous
 62
     7
100
AcDbLine
 10
246.104853982369
 20
306.3739893556461
 30
0.0
 11
242.8893607774985
 21
306.8258974546385
 31
0.0
  0
LINE
  5
279
330
6F
100
AcDbEntity
  8
1
  6
Continuous
 62
     7
100
AcDbLine
 10
242.3197742270185
 20
262.1136562203875
 30
0.0
 11
242.3197742270185
 21
257.9811733359525
 31
0.0
  0
LINE
  5
27A
330
6F
100
AcDbEntity
  8
1
  6
Continuous
 62
     7
100
AcDbLine
 10
350.214526936898
 20
288.8316171980605
 30
0.0
 11
353.8659361483683
 21
302.4588618944933
 31
0.0
  0
LINE
  5
27B
330
6F
100
AcDbEntity
  8
1
  6
Continuous
 62
     7
100
AcDbLine
 10
343.7440508093348
 20
277.62442379596
 30
0.0
 11
333.7682153243725
 21
267.6485883109975
 31
0.0
  0
LINE
  5
27C
330
6F
100
AcDbEntity
  8
1
  6
Continuous
 62
     7
100
AcDbLine
 10
353.1910149785398
 20
261.2618018776143
 30
0.0
 11
339.5637702821069
 21
257.6103926661438
 31
0.0
  0
LINE
  5
27D
330
6F
100
AcDbEntity
  8
1
  6
Continuous
 62
     7
100
AcDbLine
 10
366.1319672336658
 20
261.2618018776143
 30
0.0
 11
380.519716832719
 21
257.4066159916467
 31
0.0
  0
LINE
  5
27E
330
6F
100
AcDbEntity
  8
1
  6
Continuous
 62
     7
100
AcDbLine
 10
375.5789314028707
 20
277.62442379596
 30
0.0
 11
385.554766887833
 21
267.6485883109975
 31
0.0
  0
LINE
  5
27F
330
6F
100
AcDbEntity
  8
1
  6
Continuous
 62
     7
100
AcDbLine
 10
369.1084552753077
 20
288.8316171980605
 30
0.0
 11
365.4570460638372
 21
302.4588618944933
 31
0.0
  0
ARC
  5
280
330
6F
100
AcDbEntity
  8
1
  6
Continuous
 62
     7
100
AcDbCircle
 10
178.4079532183192
 20
275.5417519586314
 30
0.0
 40
75.0
100
AcDbArc
 50
-9.5914924826651
 51
-2.77863896596253
  0
ARC
  5
281
330
6F
100
AcDbEntity
  8
1
  6
Continuous
 62
     7
100
AcDbCircle
 10
103.3197742270185
 20
275.9059476238782
 30
0.0
 40
150.0533238552216
100
AcDbArc
 50
1.52752544221293
 51
9.80290179376779
  0
ARC
  5
282
330
6F
100
AcDbEntity
  8
1
  6
Continuous
 62
     7
100
AcDbCircle
 10
359.6614911061027
 20
300.9059476238782
 30
0.0
 40
6.0
100
AcDbArc
 50
90.0
 51
165.0000000000004
  0
ARC
  5
283
330
6F
100
AcDbEntity
  8
1
  6
Continuous
 62
     7
100
AcDbCircle
 10
338.0108560114918
 20
263.4059476238782
 30
0.0
 40
6.000000000000049
100
AcDbArc
 50
135.0
 51
-75.00000000000041
  0
ARC
  5
284
330
6F
100
AcDbEntity
  8
1
  6
Continuous
 62
     7
100
AcDbCircle
 10
381.3121262007137
 20
263.4059476238782
 30
0.0
 40
5.999999999999985
100
AcDbArc
 50
-97.52424107894142
 51
45.0
  0
ARC
  5
285
330
6F
100
AcDbEntity
  8
1
  6
Continuous
 62
     7
100
AcDbCircle
 10
359.6614911061027
 20
300.9059476238782
 30
0.0
 40
6.000000000000084
100
AcDbArc
 50
14.99999999999931
 51
90.0
  0
ARC
  5
286
330
6F
100
AcDbEntity
  8
1
  6
Continuous
 62
     7
100
AcDbCircle
 10
242.8197742270185
 20
257.9811733359525
 30
0.0
 40
0.5
100
AcDbArc
 50
180.0
 51
-81.99590562830339
  0
ARC
  5
287
330
6F
100
AcDbEntity
  8
1
  6
Continuous
 62
     7
100
AcDbCircle
 10
242.8197742270185
 20
306.3307634202679
 30
0.0
 40
0.4999999999998175
100
AcDbArc
 50
82.00000000000287
 51
180.0
  0
ARC
  5
288
330
6F
100
AcDbEntity
  8
1
  6
Continuous
 62
     7
100
AcDbCircle
 10
246.4433876402106
 20
264.0448104947241
 30
0.0
 40
5.99999999999995
100
AcDbArc
 50
-81.99590562829894
 51
-9.59149248266567
  0
ARC
  5
289
330
6F
100
AcDbEntity
  8
1
  6
Continuous
 62
     7
100
AcDbCircle
 10
245.2698153766088
 20
300.4323809431967
 30
0.0
 40
5.99999999999994
100
AcDbArc
 50
9.8029017937682
 51
82.00000000000162
  0
ARC
  5
28A
330
6F
100
AcDbEntity
  8
1
  6
Continuous
 62
     7
100
AcDbCircle
 10
326.0663812796713
 20
295.3020933256236
 30
0.0
 40
24.9999999999998
100
AcDbArc
 50
-45.00000000000019
 51
-15.00000000000027
  0
ARC
  5
28B
330
6F
100
AcDbEntity
  8
1
  6
Continuous
 62
     7
100
AcDbCircle
 10
359.6614911061027
 20
237.1136562203876
 30
0.0
 40
25.0
100
AcDbArc
 50
74.99999999999973
 51
104.9999999999998
  0
ARC
  5
28C
330
6F
100
AcDbEntity
  8
1
  6
Continuous
 62
     7
100
AcDbCircle
 10
393.2566009325344
 20
295.3020933256236
 30
0.0
 40
25.00000000000005
100
AcDbArc
 50
-164.9999999999998
 51
-135.0000000000002
  0
ENDBLK
  5
71
330
6F
100
AcDbEntity
  8
0
100
AcDbBlockEnd
  0
BLOCK
  5
73
330
72
100
AcDbEntity
  8
0
100
AcDbBlockBegin
  2
42-1__18
 70
     0
 71
     0
 10
204.7972052480402
 20
165.60050878661
 30
0.0
  3
42-1__18
  1

  0
LINE
  5
28D
330
72
100
AcDbEntity
  8
1
  6
Continuous
 62
     7
100
AcDbLine
 10
253.3197742270185
 20
282.9059476238782
 30
0.0
 11
256.3197742270185
 21
282.9059476238782
 31
0.0
  0
LINE
  5
28E
330
72
100
AcDbEntity
  8
1
  6
Continuous
 62
     2
100
AcDbLine
 10
256.3197742270185
 20
282.4059476238782
 30
0.0
 11
253.3197742270185
 21
282.4059476238782
 31
0.0
  0
LINE
  5
28F
330
72
100
AcDbEntity
  8
1
  6
Continuous
 62
     2
100
AcDbLine
 10
256.3197742270185
 20
281.9059476238782
 30
0.0
 11
253.3197742270185
 21
281.9059476238782
 31
0.0
  0
LINE
  5
290
330
72
100
AcDbEntity
  8
1
  6
Continuous
 62
     2
100
AcDbLine
 10
256.3197742270185
 20
281.4059476238782
 30
0.0
 11
253.3197742270185
 21
281.4059476238782
 31
0.0
  0
LINE
  5
291
330
72
100
AcDbEntity
  8
1
  6
Continuous
 62
     2
100
AcDbLine
 10
256.3197742270185
 20
280.9059476238782
 30
0.0
 11
253.3197742270185
 21
280.9059476238782
 31
0.0
  0
LINE
  5
292
330
72
100
AcDbEntity
  8
1
  6
Continuous
 62
     2
100
AcDbLine
 10
256.1753619919963
 20
280.4059476238782
 30
0.0
 11
253.4253615532059
 21
280.4059476238782
 31
0.0
  0
LINE
  5
293
330
72
100
AcDbEntity
  8
1
  6
Continuous
 62
     2
100
AcDbLine
 10
256.1298478185662
 20
279.9059476238782
 30
0.0
 11
253.4858225394701
 21
279.9059476238782
 31
0.0
  0
LINE
  5
294
330
72
100
AcDbEntity
  8
1
  6
Continuous
 62
     2
100
AcDbLine
 10
256.0439925442832
 20
279.4059476238782
 30
0.0
 11
253.5742469272806
 21
279.4059476238782
 31
0.0
  0
LINE
  5
295
330
72
100
AcDbEntity
  8
1
  6
Continuous
 62
     2
100
AcDbLine
 10
256.0163007206909
 20
278.9059476238782
 30
0.0
 11
253.6804747072563
 21
278.9059476238782
 31
0.0
  0
LINE
  5
296
330
72
100
AcDbEntity
  8
1
  6
Continuous
 62
     7
100
AcDbLine
 10
253.3197742270185
 20
278.2059476238782
 30
0.0
 11
253.3197742270185
 21
282.9059476238782
 31
0.0
  0
LINE
  5
297
330
72
100
AcDbEntity
  8
1
  6
Continuous
 62
     7
100
AcDbLine
 10
253.3197742270185
 20
268.9059476238782
 30
0.0
 11
253.3197742270185
 21
278.2059476238782
 31
0.0
  0
LINE
  5
298
330
72
100
AcDbEntity
  8
1
  6
Continuous
 62
     2
100
AcDbLine
 10
253.3197742270185
 20
270.9059476238782
 30
0.0
 11
256.3197742270185
 21
270.9059476238782
 31
0.0
  0
LINE
  5
299
330
72
100
AcDbEntity
  8
1
  6
Continuous
 62
     2
100
AcDbLine
 10
253.4253615532059
 20
271.4059476238782
 30
0.0
 11
256.1753619919963
 21
271.4059476238782
 31
0.0
  0
LINE
  5
29A
330
72
100
AcDbEntity
  8
1
  6
Continuous
 62
     2
100
AcDbLine
 10
253.4858225394701
 20
271.9059476238782
 30
0.0
 11
256.1298478185662
 21
271.9059476238782
 31
0.0
  0
LINE
  5
29B
330
72
100
AcDbEntity
  8
1
  6
Continuous
 62
     2
100
AcDbLine
 10
253.5742469272806
 20
272.4059476238782
 30
0.0
 11
256.0439925442832
 21
272.4059476238782
 31
0.0
  0
LINE
  5
29C
330
72
100
AcDbEntity
  8
1
  6
Continuous
 62
     2
100
AcDbLine
 10
253.6804747072563
 20
272.9059476238782
 30
0.0
 11
256.0163007206909
 21
272.9059476238782
 31
0.0
  0
LINE
  5
29D
330
72
100
AcDbEntity
  8
1
  6
Continuous
 62
     2
100
AcDbLine
 10
254.2573680553876
 20
274.4059476238782
 30
0.0
 11
255.6060943852402
 21
274.4059476238782
 31
0.0
  0
LINE
  5
29E
330
72
100
AcDbEntity
  8
1
  6
Continuous
 62
     2
100
AcDbLine
 10
253.9333234176959
 20
273.4059476238782
 30
0.0
 11
255.8513173543043
 21
273.4059476238782
 31
0.0
  0
LINE
  5
29F
330
72
100
AcDbEntity
  8
1
  6
Continuous
 62
     2
100
AcDbLine
 10
254.0373370148643
 20
273.9059476238782
 30
0.0
 11
255.8054275389225
 21
273.9059476238782
 31
0.0
  0
LINE
  5
2A0
330
72
100
AcDbEntity
  8
1
  6
Continuous
 62
     2
100
AcDbLine
 10
254.2968732385792
 20
274.9059476238782
 30
0.0
 11
255.5621123291896
 21
274.9059476238782
 31
0.0
  0
LINE
  5
2A1
330
72
100
AcDbEntity
  8
1
  6
Continuous
 62
     7
100
AcDbLine
 10
256.3197742270185
 20
280.9059476238782
 30
0.0
 11
256.3197742270185
 21
270.9059476238782
 31
0.0
  0
LINE
  5
2A2
330
72
100
AcDbEntity
  8
1
  6
Continuous
 62
     2
100
AcDbLine
 10
255.6060943852402
 20
277.4059476238782
 30
0.0
 11
254.2573680553876
 21
277.4059476238782
 31
0.0
  0
LINE
  5
2A3
330
72
100
AcDbEntity
  8
1
  6
Continuous
 62
     2
100
AcDbLine
 10
255.8513173543043
 20
278.4059476238782
 30
0.0
 11
253.9333234176959
 21
278.4059476238782
 31
0.0
  0
LINE
  5
2A4
330
72
100
AcDbEntity
  8
1
  6
Continuous
 62
     7
100
AcDbLine
 10
256.3197742270185
 20
281.4059476238782
 30
0.0
 11
256.3197742270185
 21
280.9059476238782
 31
0.0
  0
LINE
  5
2A5
330
72
100
AcDbEntity
  8
1
  6
Continuous
 62
     7
100
AcDbLine
 10
256.3197742270185
 20
282.4059476238782
 30
0.0
 11
256.3197742270185
 21
281.9059476238782
 31
0.0
  0
LINE
  5
2A6
330
72
100
AcDbEntity
  8
1
  6
Continuous
 62
     7
100
AcDbLine
 10
256.3197742270185
 20
282.9059476238782
 30
0.0
 11
256.5890964260417
 21
281.9059476238783
 31
0.0
  0
LINE
  5
2A7
330
72
100
AcDbEntity
  8
1
  6
Continuous
 62
     7
100
AcDbLine
 10
256.3197742270185
 20
282.9059476238782
 30
0.0
 11
256.3197742270185
 21
282.4059476238782
 31
0.0
  0
LINE
  5
2A8
330
72
100
AcDbEntity
  8
1
  6
Continuous
 62
     7
100
AcDbLine
 10
256.3197742270185
 20
281.9059476238782
 30
0.0
 11
256.3197742270185
 21
281.4059476238782
 31
0.0
  0
LINE
  5
2A9
330
72
100
AcDbEntity
  8
1
  6
Continuous
 62
     2
100
AcDbLine
 10
255.8054275389225
 20
277.9059476238782
 30
0.0
 11
254.0373370148643
 21
277.9059476238782
 31
0.0
  0
LINE
  5
2AA
330
72
100
AcDbEntity
  8
1
  6
Continuous
 62
     2
100
AcDbLine
 10
255.5621123291896
 20
276.9059476238782
 30
0.0
 11
254.2968732385792
 21
276.9059476238782
 31
0.0
  0
LINE
  5
2AB
330
72
100
AcDbEntity
  8
1
  6
Continuous
 62
     7
100
AcDbLine
 10
256.6495399472221
 20
281.6559476238782
 30
0.0
 11
256.6495399472221
 21
275.9059476238782
 31
0.0
  0
LINE
  5
2AC
330
72
100
AcDbEntity
  8
1
  6
Continuous
 62
     7
100
AcDbLine
 10
256.3197742270185
 20
270.9059476238782
 30
0.0
 11
256.3197742270185
 21
270.4059476238782
 31
0.0
  0
LINE
  5
2AD
330
72
100
AcDbEntity
  8
1
  6
Continuous
 62
     2
100
AcDbLine
 10
253.3197742270185
 20
270.4059476238782
 30
0.0
 11
256.3197742270185
 21
270.4059476238782
 31
0.0
  0
LINE
  5
2AE
330
72
100
AcDbEntity
  8
1
  6
Continuous
 62
     7
100
AcDbLine
 10
256.3197742270185
 20
269.9059476238782
 30
0.0
 11
256.3197742270185
 21
269.4059476238782
 31
0.0
  0
LINE
  5
2AF
330
72
100
AcDbEntity
  8
1
  6
Continuous
 62
     2
100
AcDbLine
 10
253.3197742270185
 20
269.4059476238782
 30
0.0
 11
256.3197742270185
 21
269.4059476238782
 31
0.0
  0
LINE
  5
2B0
330
72
100
AcDbEntity
  8
1
  6
Continuous
 62
     7
100
AcDbLine
 10
256.3197742270185
 20
268.9059476238782
 30
0.0
 11
253.3197742270185
 21
268.9059476238782
 31
0.0
  0
LINE
  5
2B1
330
72
100
AcDbEntity
  8
1
  6
Continuous
 62
     7
100
AcDbLine
 10
256.5890964260417
 20
269.9059476238781
 30
0.0
 11
256.3197742270185
 21
268.9059476238782
 31
0.0
  0
LINE
  5
2B2
330
72
100
AcDbEntity
  8
1
  6
Continuous
 62
     7
100
AcDbLine
 10
256.3197742270185
 20
269.4059476238782
 30
0.0
 11
256.3197742270185
 21
268.9059476238782
 31
0.0
  0
LINE
  5
2B3
330
72
100
AcDbEntity
  8
1
  6
Continuous
 62
     2
100
AcDbLine
 10
253.3197742270185
 20
269.9059476238782
 30
0.0
 11
256.3197742270185
 21
269.9059476238782
 31
0.0
  0
LINE
  5
2B4
330
72
100
AcDbEntity
  8
1
  6
Continuous
 62
     7
100
AcDbLine
 10
256.3197742270185
 20
270.4059476238782
 30
0.0
 11
256.3197742270185
 21
269.9059476238782
 31
0.0
  0
LINE
  5
2B5
330
72
100
AcDbEntity
  8
1
  6
Continuous
 62
     7
100
AcDbLine
 10
256.6495399472221
 20
275.9059476238782
 30
0.0
 11
256.6495399472221
 21
270.1559476238782
 31
0.0
  0
ARC
  5
2B6
330
72
100
AcDbEntity
  8
1
  6
Continuous
 62
     7
100
AcDbCircle
 10
232.3197742270185
 20
275.9059476238782
 30
0.0
 40
24.99999999999985
100
AcDbArc
 50
13.29707174720914
 51
13.88654036262925
  0
ARC
  5
2B7
330
72
100
AcDbEntity
  8
1
  6
Continuous
 62
     7
100
AcDbCircle
 10
232.3197742270185
 20
275.9059476238782
 30
0.0
 40
25.00000000000001
100
AcDbArc
 50
-13.88654036262925
 51
-13.29707174720914
  0
ARC
  5
2B8
330
72
100
AcDbEntity
  8
1
  6
Continuous
 62
     7
100
AcDbCircle
 10
232.3197742270185
 20
275.9059476238782
 30
0.0
 40
25.0
100
AcDbArc
 50
0.0
 51
13.29707174720914
  0
ARC
  5
2B9
330
72
100
AcDbEntity
  8
1
  6
Continuous
 62
     7
100
AcDbCircle
 10
232.3197742270185
 20
275.9059476238782
 30
0.0
 40
24.99999999999985
100
AcDbArc
 50
-13.29707174720914
 51
0.0
  0
CIRCLE
  5
2BA
330
72
100
AcDbEntity
  8
1
  6
Continuous
 62
     7
100
AcDbCircle
 10
359.6614911061029
 20
275.9059476238782
 30
0.0
 40
5.75
  0
CIRCLE
  5
2BB
330
72
100
AcDbEntity
  8
1
  6
Continuous
 62
     7
100
AcDbCircle
 10
359.6614911061029
 20
275.9059476238782
 30
0.0
 40
7.0
  0
ENDBLK
  5
74
330
72
100
AcDbEntity
  8
0
100
AcDbBlockEnd
  0
BLOCK
  5
78
330
75
100
AcDbEntity
  8
0
100
AcDbBlockBegin
  2
R20F__19
 70
     0
 71
     0
 10
241.3197742270185
 20
282.9059476238782
 30
0.0
  3
R20F__19
  1

  0
INSERT
  5
76
330
75
100
AcDbEntity
  8
0
100
AcDbBlockReference
  2
21-1A__17
 10
188.7596785020271
 20
160.4635267037429
 30
0.0
  0
INSERT
  5
77
330
75
100
AcDbEntity
  8
1
100
AcDbBlockReference
  2
42-1__18
 10
204.7972052480402
 20
165.60050878661
 30
0.0
  0
ENDBLK
  5
79
330
75
100
AcDbEntity
  8
0
100
AcDbBlockEnd
  0
BLOCK
  5
7B
330
7A
100
AcDbEntity
  8
0
100
AcDbBlockBegin
  2
37-1-13__20
 70
     0
 71
     0
 10
197.9058151201684
 20
82.53743487843497
 30
0.0
  3
37-1-13__20
  1

  0
LINE
  5
2BC
330
7A
100
AcDbEntity
  8
1
  6
Continuous
 62
     7
100
AcDbLine
 10
232.7494655152036
 20
288.405947623878
 30
0.0
 11
232.7494655152035
 21
275.9059476238783
 31
0.0
  0
LINE
  5
2BD
330
7A
100
AcDbEntity
  8
1
  6
Continuous
 62
     7
100
AcDbLine
 10
239.2494655152035
 20
269.9059476238782
 30
0.0
 11
239.2494655152035
 21
281.9059476238781
 31
0.0
  0
LINE
  5
2BE
330
7A
100
AcDbEntity
  8
1
  6
Continuous
 62
     7
100
AcDbLine
 10
225.2494655152035
 20
262.8352334096068
 30
0.0
 11
225.2494655152035
 21
288.9766618381495
 31
0.0
  0
LINE
  5
2BF
330
7A
100
AcDbEntity
  8
1
  6
Continuous
 62
     7
100
AcDbLine
 10
232.7494655152035
 20
275.9059476238783
 30
0.0
 11
232.7494655152036
 21
263.4059476238783
 31
0.0
  0
LINE
  5
2C0
330
7A
100
AcDbEntity
  8
1
  6
Continuous
 62
     7
100
AcDbLine
 10
372.6614911061027
 20
282.3285639132108
 30
0.0
 11
372.6614911061027
 21
281.1302391336974
 31
0.0
  0
LINE
  5
2C1
330
7A
100
AcDbEntity
  8
1
  6
Continuous
 62
     7
100
AcDbLine
 10
347.599342240781
 20
283.9529697284096
 30
0.0
 11
348.6371219418243
 21
284.5521321181666
 31
0.0
  0
LINE
  5
2C2
330
7A
100
AcDbEntity
  8
1
  6
Continuous
 62
     7
100
AcDbLine
 10
358.7236399714245
 20
261.4363092300142
 30
0.0
 11
357.6858602703812
 21
262.0354716197711
 31
0.0
  0
LINE
  5
2C3
330
7A
100
AcDbEntity
  8
1
  6
Continuous
 62
     7
100
AcDbLine
 10
361.6371219418243
 20
262.0354716197711
 30
0.0
 11
360.599342240781
 21
261.4363092300142
 31
0.0
  0
LINE
  5
2C4
330
7A
100
AcDbEntity
  8
1
  6
Continuous
 62
     7
100
AcDbLine
 10
346.6614911061027
 20
281.1302391336972
 30
0.0
 11
346.6614911061027
 21
282.3285639132108
 31
0.0
  0
LINE
  5
2C5
330
7A
100
AcDbEntity
  8
1
  6
Continuous
 62
     7
100
AcDbLine
 10
370.6858602703816
 20
284.5521321181664
 30
0.0
 11
371.7236399714245
 21
283.9529697284096
 31
0.0
  0
ARC
  5
2C6
330
7A
100
AcDbEntity
  8
1
  6
Continuous
 62
     7
100
AcDbCircle
 10
252.6559207203184
 20
301.8124028289931
 30
0.0
 40
23.99999999999998
100
AcDbArc
 50
-146.040807499902
 51
-123.9591925000974
  0
ARC
  5
2C7
330
7A
100
AcDbEntity
  8
1
  6
Continuous
 62
     7
100
AcDbCircle
 10
228.7494655152035
 20
285.4059476238781
 30
0.0
 40
5.000000000000023
100
AcDbArc
 50
36.86989764584219
 51
134.427004000806
  0
ARC
  5
2C8
330
7A
100
AcDbEntity
  8
1
  6
Continuous
 62
     7
100
AcDbCircle
 10
228.7494655152035
 20
266.4059476238782
 30
0.0
 40
4.999999999999975
100
AcDbArc
 50
-134.427004000806
 51
-36.86989764584219
  0
ARC
  5
2C9
330
7A
100
AcDbEntity
  8
1
  6
Continuous
 62
     7
100
AcDbCircle
 10
252.6559207203184
 20
249.9994924187633
 30
0.0
 40
23.99999999999996
100
AcDbArc
 50
123.9591925000975
 51
146.0408074999021
  0
ARC
  5
2CA
330
7A
100
AcDbEntity
  8
1
  6
Continuous
 62
     7
100
AcDbCircle
 10
359.6614911061027
 20
275.9059476238782
 30
0.0
 40
14.5
100
AcDbArc
 50
-93.70844472527031
 51
-90.0
  0
ARC
  5
2CB
330
7A
100
AcDbEntity
  8
1
  6
Continuous
 62
     7
100
AcDbCircle
 10
359.6614911061027
 20
275.9059476238782
 30
0.0
 40
14.5
100
AcDbArc
 50
-90.0
 51
-86.29155527472904
  0
ARC
  5
2CC
330
7A
100
AcDbEntity
  8
1
  6
Continuous
 62
     7
100
AcDbCircle
 10
359.6614911061027
 20
275.9059476238782
 30
0.0
 40
14.50000000000002
100
AcDbArc
 50
26.29155527472953
 51
33.70844472527032
  0
ARC
  5
2CD
330
7A
100
AcDbEntity
  8
1
  6
Continuous
 62
     7
100
AcDbCircle
 10
359.6614911061027
 20
275.9059476238782
 30
0.0
 40
14.4999999999999
100
AcDbArc
 50
146.2915552747293
 51
153.7084447252705
  0
SPLINE
  5
2CE
330
7A
100
AcDbEntity
  8
1
  6
Continuous
 62
     7
100
AcDbSpline
210
0.0
220
0.0
230
1.0
 70
     8
 71
     3
 72
    29
 73
    25
 74
    23
 42
0.0000000001
 43
0.0000000001
 44
0.00000001
 40
0.0
 40
0.0
 40
0.0
 40
0.0
 40
0.6069077131759356
 40
1.212222625822746
 40
1.842666707826666
 40
2.47463190059522
 40
3.102420172365271
 40
3.729333891456327
 40
4.271042939833063
 40
4.812985328221093
 40
5.34010798072826
 40
5.86624892728005
 40
6.263874837343234
 40
6.661485236222402
 40
7.28096649756889
 40
7.902596738528005
 40
8.549168915178665
 40
9.195896772489036
 40
9.722415974179068
 40
10.24911841725699
 40
11.07897537274012
 40
11.90732207846629
 40
12.67331709995021
 40
13.44191271185814
 40
13.44191271185814
 40
13.44191271185814
 40
13.44191271185814
 10
232.2494655152035
 20
275.9059476238783
 30
0.0
 10
232.2395901417412
 20
275.7038877943209
 30
0.0
 10
232.2198653122662
 20
275.3002984316521
 30
0.0
 10
232.156074958213
 20
274.6885928813134
 30
0.0
 10
232.0218916608957
 20
274.0791758194237
 30
0.0
 10
231.8214360402114
 20
273.4807696439184
 30
0.0
 10
231.5628749233932
 20
272.9062071120227
 30
0.0
 10
231.253945533622
 20
272.3913093143511
 30
0.0
 10
230.9001286090472
 20
271.9422904403529
 30
0.0
 10
230.5121039408842
 20
271.5683488378618
 30
0.0
 10
230.0751735371215
 20
271.2613829364017
 30
0.0
 10
229.6349595700212
 20
271.0540742788679
 30
0.0
 10
229.2082504493366
 20
270.938171690597
 30
0.0
 10
228.7373350068344
 20
270.8874684857025
 30
0.0
 10
228.1883604137904
 20
270.9479248089805
 30
0.0
 10
227.5906143475705
 20
271.1608720407273
 30
0.0
 10
227.049012101572
 20
271.5081089780734
 30
0.0
 10
226.6084041334343
 20
271.9294667039059
 30
0.0
 10
226.2585302097973
 20
272.3768801941629
 30
0.0
 10
225.9296198268083
 20
272.9127165800856
 30
0.0
 10
225.625881205181
 20
273.577607629999
 30
0.0
 10
225.4011113398383
 20
274.3572686914729
 30
0.0
 10
225.2967245344288
 20
275.1396743097824
 30
0.0
 10
225.2653020556799
 20
275.650234779145
 30
0.0
 10
225.2495641912905
 20
275.9059476238783
 30
0.0
 11
232.2494655152035
 21
275.9059476238783
 31
0.0
 11
232.2142646494411
 21
275.3000616021201
 31
0.0
 11
232.1459076573569
 21
274.6986187826386
 31
0.0
 11
232.0112311715325
 21
274.0827275708977
 31
0.0
 11
231.8111662795875
 21
273.483266109349
 31
0.0
 11
231.5517850413371
 21
272.9115673360289
 31
0.0
 11
231.2275650865591
 21
272.3750021190158
 31
0.0
 11
230.8909559465781
 21
271.9505695802367
 31
0.0
 11
230.4994655152035
 21
271.5758206049561
 31
0.0
 11
230.0671203539849
 21
271.2742647189962
 31
0.0
 11
229.5901179683687
 21
271.0522444051624
 31
0.0
 11
229.206268938239
 21
270.9484836880193
 31
0.0
 11
228.8108573924247
 21
270.9067255901985
 31
0.0
 11
228.1947529382149
 21
270.9713192018199
 31
0.0
 11
227.6088187679382
 21
271.1789373719713
 31
0.0
 11
227.0622171340242
 21
271.5243099728263
 31
0.0
 11
226.5922411539438
 21
271.9685840994291
 31
0.0
 11
226.2667665063726
 21
272.3824545182038
 31
0.0
 11
225.9898610081929
 21
272.8304933654281
 31
0.0
 11
225.6448989200154
 21
273.5852540720656
 31
0.0
 11
225.4162214302692
 21
274.3814103824537
 31
0.0
 11
225.3059013012546
 21
275.1394195130533
 31
0.0
 11
225.2495641912905
 21
275.9059476238783
 31
0.0
  0
SPLINE
  5
2CF
330
7A
100
AcDbEntity
  8
1
  6
Continuous
 62
     7
100
AcDbSpline
210
0.0
220
0.0
230
1.0
 70
    11
 71
     3
 72
    79
 73
    75
 74
    73
 42
0.0000000001
 43
0.0000000001
 44
0.00000001
 40
0.0
 40
0.0
 40
0.0
 40
0.0
 40
0.2803981145479002
 40
0.560797785903194
 40
0.8427454841466862
 40
1.124697473048457
 40
1.40953645163812
 40
1.694381500885861
 40
1.983071310125124
 40
2.271767843422705
 40
2.56477614220077
 40
2.85779085454644
 40
3.15505569855273
 40
3.452325978930781
 40
3.753284827389662
 40
4.054247742882656
 40
4.357919806975572
 40
4.661594368328815
 40
4.966700748943329
 40
5.271807969839277
 40
5.576915190735254
 40
5.882021571349853
 40
6.185696132703067
 40
6.489368196795983
 40
6.790331112288944
 40
7.091289960747774
 40
7.38856024112585
 40
7.685825085132279
 40
7.978839797477826
 40
8.271848096255871
 40
8.560544629553416
 40
8.849234438792712
 40
9.134079488040445
 40
9.418918466630055
 40
9.700870455531845
 40
9.98281815377544
 40
10.26321782513072
 40
10.54361593967862
 40
10.82401405422652
 40
11.10441372558196
 40
11.38636142382556
 40
11.66831341272735
 40
11.95315239131688
 40
12.23799744056449
 40
12.5266872498038
 40
12.81538378310151
 40
13.10839208187955
 40
13.40140679422511
 40
13.69867163823149
 40
13.99594191860954
 40
14.2969007670684
 40
14.59786368256133
 40
14.90153574665428
 40
15.20521030800745
 40
15.51031668862203
 40
15.81542390951803
 40
16.12053113041395
 40
16.42563751102849
 40
16.72931207238171
 40
17.03298413647465
 40
17.33394705196767
 40
17.63490590042652
 40
17.93217618080455
 40
18.22944102481079
 40
18.52245573715645
 40
18.81546403593453
 40
19.10416056923222
 40
19.39285037847155
 40
19.67769542771914
 40
19.96253440630865
 40
20.24448639521049
 40
20.52643409345403
 40
20.80683376480944
 40
21.08723187935739
 40
21.08723187935739
 40
21.08723187935739
 40
21.08723187935739
 10
232.2494655152035
 20
264.6476173746806
 30
0.0
 10
232.2468841293143
 20
264.5541168316271
 30
0.0
 10
232.2417213432037
 20
264.3671152263927
 30
0.0
 10
232.2002489931546
 20
264.0886308131526
 30
0.0
 10
232.1343488327619
 20
263.8146886167504
 30
0.0
 10
232.042116723528
 20
263.5467604514149
 30
0.0
 10
231.925034534169
 20
263.2877146638546
 30
0.0
 10
231.7835582525897
 20
263.0385553697017
 30
0.0
 10
231.6192759065967
 20
262.802245349524
 30
0.0
 10
231.4328157583801
 20
262.579470355606
 30
0.0
 10
231.2263912834431
 20
262.373014323308
 30
0.0
 10
231.0006735890065
 20
262.1834015796674
 30
0.0
 10
230.7583827906579
 20
262.0130024037416
 30
0.0
 10
230.5003252978177
 20
261.8622895961338
 30
0.0
 10
230.2294980943359
 20
261.7330664596083
 30
0.0
 10
229.9469812408392
 20
261.6257867864239
 30
0.0
 10
229.6557932702461
 20
261.5416322828688
 30
0.0
 10
229.3574144973314
 20
261.4809890090376
 30
0.0
 10
229.0546535254512
 20
261.4444552467663
 30
0.0
 10
228.7494655152032
 20
261.4322362160296
 30
0.0
 10
228.4442775049569
 20
261.4444552467664
 30
0.0
 10
228.141516533072
 20
261.4809890090374
 30
0.0
 10
227.8431377601742
 20
261.5416322828688
 30
0.0
 10
227.5519497895184
 20
261.6257867864239
 30
0.0
 10
227.2694329362534
 20
261.7330664596084
 30
0.0
 10
226.9986057319118
 20
261.8622895961338
 30
0.0
 10
226.7405482422426
 20
262.0130024037417
 30
0.0
 10
226.498257432147
 20
262.1834015796674
 30
0.0
 10
226.2725397809492
 20
262.3730143233079
 30
0.0
 10
226.0661151459228
 20
262.5794703556061
 30
0.0
 10
225.8796555867456
 20
262.802245349524
 30
0.0
 10
225.7153710590345
 20
263.0385553697017
 30
0.0
 10
225.5739028159645
 20
263.2877146638544
 30
0.0
 10
225.456790812363
 20
263.5467604514149
 30
0.0
 10
225.36466889389
 20
263.8146886167502
 30
0.0
 10
225.2983591283224
 20
264.0886308131527
 30
0.0
 10
225.2584074632265
 20
264.3671152263926
 30
0.0
 10
225.2449945536036
 20
264.6476173746806
 30
0.0
 10
225.2584074632266
 20
264.9281195229685
 30
0.0
 10
225.2983591283223
 20
265.2066039362086
 30
0.0
 10
225.36466889389
 20
265.480546132611
 30
0.0
 10
225.456790812363
 20
265.7484742979465
 30
0.0
 10
225.5739028159645
 20
266.0075200855067
 30
0.0
 10
225.7153710590346
 20
266.2566793796594
 30
0.0
 10
225.8796555867456
 20
266.4929893998373
 30
0.0
 10
226.0661151459227
 20
266.7157643937553
 30
0.0
 10
226.2725397809491
 20
266.9222204260535
 30
0.0
 10
226.498257432147
 20
267.1118331696941
 30
0.0
 10
226.7405482422427
 20
267.2822323456195
 30
0.0
 10
226.9986057319117
 20
267.4329451532274
 30
0.0
 10
227.2694329362535
 20
267.5621682897529
 30
0.0
 10
227.5519497895184
 20
267.6694479629373
 30
0.0
 10
227.8431377601741
 20
267.7536024664923
 30
0.0
 10
228.141516533072
 20
267.8142457403237
 30
0.0
 10
228.4442775049569
 20
267.8507795025949
 30
0.0
 10
228.7494655152032
 20
267.8629985333316
 30
0.0
 10
229.0546535254511
 20
267.8507795025949
 30
0.0
 10
229.3574144973313
 20
267.8142457403236
 30
0.0
 10
229.6557932702461
 20
267.7536024664926
 30
0.0
 10
229.9469812408392
 20
267.6694479629372
 30
0.0
 10
230.2294980943359
 20
267.562168289753
 30
0.0
 10
230.5003252978178
 20
267.4329451532274
 30
0.0
 10
230.7583827906578
 20
267.2822323456196
 30
0.0
 10
231.0006735890066
 20
267.1118331696939
 30
0.0
 10
231.226391283443
 20
266.9222204260534
 30
0.0
 10
231.4328157583803
 20
266.7157643937553
 30
0.0
 10
231.6192759065966
 20
266.4929893998371
 30
0.0
 10
231.7835582525898
 20
266.2566793796595
 30
0.0
 10
231.9250345341689
 20
266.0075200855067
 30
0.0
 10
232.042116723528
 20
265.7484742979464
 30
0.0
 10
232.134348832762
 20
265.480546132611
 30
0.0
 10
232.2002489931546
 20
265.2066039362086
 30
0.0
 10
232.2417213432037
 20
264.9281195229686
 30
0.0
 10
232.2468841293143
 20
264.7411179177341
 30
0.0
 10
232.2494655152035
 20
264.6476173746806
 30
0.0
 11
232.2494655152035
 21
264.6476173746806
 31
0.0
 11
232.2361127299054
 21
264.367537375811
 31
0.0
 11
232.1962926507462
 21
264.0899795674324
 31
0.0
 11
232.1300330680222
 21
263.8159281630535
 31
0.0
 11
232.0383896879541
 21
263.549285302779
 31
0.0
 11
231.921141687669
 21
263.2896968782429
 31
0.0
 11
231.780554428449
 21
263.0419633023474
 31
0.0
 11
231.615857233097
 21
262.8048628177385
 31
0.0
 11
231.4306210661199
 21
262.5834282884038
 31
0.0
 11
231.2235281892046
 21
262.376144899094
 31
0.0
 11
230.9992221491063
 21
262.1876126153163
 31
0.0
 11
230.7561273184056
 21
262.0165240687426
 31
0.0
 11
230.4994655152035
 21
261.8665429420197
 31
0.0
 11
230.2278772952323
 21
261.7368661621453
 31
0.0
 11
229.9465360168433
 21
261.629974808068
 31
0.0
 11
229.6548185332979
 21
261.5456087467378
 31
0.0
 11
229.3572341370377
 21
261.485096216502
 31
0.0
 11
229.0543284025035
 21
261.448517267939
 31
0.0
 11
228.7494655152035
 21
261.4363092300143
 31
0.0
 11
228.4446026279035
 21
261.448517267939
 31
0.0
 11
228.1416968933692
 21
261.485096216502
 31
0.0
 11
227.844112497109
 21
261.5456087467378
 31
0.0
 11
227.5523950135636
 21
261.629974808068
 31
0.0
 11
227.2710537351746
 21
261.7368661621454
 31
0.0
 11
226.9994655152035
 21
261.8665429420197
 31
0.0
 11
226.7428037120014
 21
262.0165240687426
 31
0.0
 11
226.4997088813005
 21
262.1876126153163
 31
0.0
 11
226.2754028412023
 21
262.376144899094
 31
0.0
 11
226.0683099642871
 21
262.5834282884038
 31
0.0
 11
225.8830737973101
 21
262.8048628177385
 31
0.0
 11
225.718376601958
 21
263.0419633023474
 31
0.0
 11
225.577789342738
 21
263.2896968782429
 31
0.0
 11
225.4605413424528
 21
263.5492853027789
 31
0.0
 11
225.3688979623847
 21
263.8159281630534
 31
0.0
 11
225.3026383796607
 21
264.0899795674324
 31
0.0
 11
225.2628183005016
 21
264.367537375811
 31
0.0
 11
225.2494655152035
 21
264.6476173746806
 31
0.0
 11
225.2628183005016
 21
264.9276973735502
 31
0.0
 11
225.3026383796607
 21
265.2052551819289
 31
0.0
 11
225.3688979623847
 21
265.4793065863079
 31
0.0
 11
225.4605413424528
 21
265.7459494465824
 31
0.0
 11
225.577789342738
 21
266.0055378711184
 31
0.0
 11
225.718376601958
 21
266.2532714470137
 31
0.0
 11
225.88307379731
 21
266.4903719316226
 31
0.0
 11
226.0683099642871
 21
266.7118064609575
 31
0.0
 11
226.2754028412023
 21
266.9190898502674
 31
0.0
 11
226.4997088813005
 21
267.107622134045
 31
0.0
 11
226.7428037120014
 21
267.2787106806186
 31
0.0
 11
226.9994655152035
 21
267.4286918073415
 31
0.0
 11
227.2710537351747
 21
267.5583685872159
 31
0.0
 11
227.5523950135636
 21
267.6652599412932
 31
0.0
 11
227.8441124971091
 21
267.7496260026234
 31
0.0
 11
228.1416968933692
 21
267.8101385328592
 31
0.0
 11
228.4446026279035
 21
267.8467174814222
 31
0.0
 11
228.7494655152035
 21
267.8589255193469
 31
0.0
 11
229.0543284025034
 21
267.8467174814222
 31
0.0
 11
229.3572341370377
 21
267.8101385328592
 31
0.0
 11
229.6548185332979
 21
267.7496260026235
 31
0.0
 11
229.9465360168433
 21
267.6652599412932
 31
0.0
 11
230.2278772952324
 21
267.5583685872159
 31
0.0
 11
230.4994655152035
 21
267.4286918073415
 31
0.0
 11
230.7561273184056
 21
267.2787106806186
 31
0.0
 11
230.9992221491063
 21
267.107622134045
 31
0.0
 11
231.2235281892046
 21
266.9190898502674
 31
0.0
 11
231.4306210661199
 21
266.7118064609575
 31
0.0
 11
231.6158572330969
 21
266.4903719316226
 31
0.0
 11
231.780554428449
 21
266.2532714470137
 31
0.0
 11
231.921141687669
 21
266.0055378711184
 31
0.0
 11
232.0383896879541
 21
265.7459494465824
 31
0.0
 11
232.1300330680222
 21
265.4793065863079
 31
0.0
 11
232.1962926507462
 21
265.2052551819289
 31
0.0
 11
232.2361127299054
 21
264.9276973735503
 31
0.0
 11
232.2494655152035
 21
264.6476173746806
 31
0.0
  0
SPLINE
  5
2D0
330
7A
100
AcDbEntity
  8
1
  6
Continuous
 62
     7
100
AcDbSpline
210
0.0
220
0.0
230
1.0
 70
     8
 71
     3
 72
    29
 73
    25
 74
    23
 42
0.0000000001
 43
0.0000000001
 44
0.00000001
 40
0.0
 40
0.0
 40
0.0
 40
0.0
 40
0.6069077131758237
 40
1.212222625822631
 40
1.842666707826656
 40
2.474631900595273
 40
3.102420172365376
 40
3.729333891456383
 40
4.271042939833075
 40
4.812985328221026
 40
5.340107980728234
 40
5.866248927280074
 40
6.263874837343244
 40
6.6614852362224
 40
7.280966497568894
 40
7.90259673852797
 40
8.549168915178637
 40
9.195896772489027
 40
9.722415974179059
 40
10.24911841725684
 40
11.07897537274002
 40
11.90732207846624
 40
12.6733170999501
 40
13.44191271185803
 40
13.44191271185803
 40
13.44191271185803
 40
13.44191271185803
 10
232.2494655152035
 20
275.9059476238783
 30
0.0
 10
232.2395901417412
 20
276.1080074534358
 30
0.0
 10
232.2198653122662
 20
276.5115968161045
 30
0.0
 10
232.156074958213
 20
277.123302366443
 30
0.0
 10
232.0218916608957
 20
277.7327194283329
 30
0.0
 10
231.8214360402113
 20
278.3311256038384
 30
0.0
 10
231.5628749233933
 20
278.905688135734
 30
0.0
 10
231.253945533622
 20
279.4205859334056
 30
0.0
 10
230.9001286090471
 20
279.8696048074037
 30
0.0
 10
230.5121039408843
 20
280.2435464098948
 30
0.0
 10
230.0751735371214
 20
280.5505123113549
 30
0.0
 10
229.6349595700213
 20
280.7578209688888
 30
0.0
 10
229.2082504493366
 20
280.8737235571597
 30
0.0
 10
228.7373350068344
 20
280.9244267620541
 30
0.0
 10
228.1883604137904
 20
280.863970438776
 30
0.0
 10
227.5906143475705
 20
280.6510232070293
 30
0.0
 10
227.049012101572
 20
280.303786269683
 30
0.0
 10
226.6084041334343
 20
279.8824285438507
 30
0.0
 10
226.2585302097974
 20
279.4350150535937
 30
0.0
 10
225.9296198268082
 20
278.899178667671
 30
0.0
 10
225.625881205181
 20
278.2342876177577
 30
0.0
 10
225.4011113398384
 20
277.4546265562837
 30
0.0
 10
225.2967245344289
 20
276.6722209379741
 30
0.0
 10
225.26530205568
 20
276.1616604686116
 30
0.0
 10
225.2495641912905
 20
275.9059476238783
 30
0.0
 11
232.2494655152035
 21
275.9059476238783
 31
0.0
 11
232.2142646494411
 21
276.5118336456364
 31
0.0
 11
232.1459076573569
 21
277.1132764651179
 31
0.0
 11
232.0112311715326
 21
277.729167676859
 31
0.0
 11
231.8111662795875
 21
278.3286291384077
 31
0.0
 11
231.5517850413371
 21
278.9003279117279
 31
0.0
 11
231.2275650865591
 21
279.4368931287409
 31
0.0
 11
230.8909559465781
 21
279.86132566752
 31
0.0
 11
230.4994655152035
 21
280.2360746428004
 31
0.0
 11
230.067120353985
 21
280.5376305287605
 31
0.0
 11
229.5901179683687
 21
280.7596508425943
 31
0.0
 11
229.206268938239
 21
280.8634115597374
 31
0.0
 11
228.8108573924247
 21
280.905169657558
 31
0.0
 11
228.1947529382149
 21
280.8405760459366
 31
0.0
 11
227.6088187679382
 21
280.6329578757853
 31
0.0
 11
227.0622171340242
 21
280.2875852749303
 31
0.0
 11
226.5922411539438
 21
279.8433111483274
 31
0.0
 11
226.2667665063726
 21
279.4294407295528
 31
0.0
 11
225.9898610081929
 21
278.9814018823286
 31
0.0
 11
225.6448989200154
 21
278.226641175691
 31
0.0
 11
225.4162214302692
 21
277.4304848653029
 31
0.0
 11
225.3059013012546
 21
276.6724757347034
 31
0.0
 11
225.2495641912905
 21
275.9059476238783
 31
0.0
  0
SPLINE
  5
2D1
330
7A
100
AcDbEntity
  8
1
  6
Continuous
 62
     7
100
AcDbSpline
210
0.0
220
0.0
230
1.0
 70
    11
 71
     3
 72
    79
 73
    75
 74
    73
 42
0.0000000001
 43
0.0000000001
 44
0.00000001
 40
0.0
 40
0.0
 40
0.0
 40
0.0
 40
0.2803981145478461
 40
0.5607977859031881
 40
0.8427454841466802
 40
1.124697473048505
 40
1.409536451638064
 40
1.694381500885805
 40
1.983071310125162
 40
2.271767843422786
 40
2.56477614220081
 40
2.857790854546488
 40
3.155055698552725
 40
3.452325978930728
 40
3.753284827389584
 40
4.054247742882618
 40
4.357919806975549
 40
4.661594368328792
 40
4.966700748943293
 40
5.271807969839241
 40
5.576915190735216
 40
5.882021571349807
 40
6.185696132703011
 40
6.489368196795959
 40
6.790331112288939
 40
7.09128996074777
 40
7.388560241125789
 40
7.685825085132184
 40
7.978839797477775
 40
8.27184809625574
 40
8.560544629553407
 40
8.849234438792717
 40
9.134079488040486
 40
9.418918466630057
 40
9.700870455531847
 40
9.982818153775387
 40
10.26321782513072
 40
10.54361593967856
 40
10.82401405422647
 40
11.10441372558185
 40
11.38636142382534
 40
11.66831341272718
 40
11.95315239131676
 40
12.23799744056452
 40
12.5266872498039
 40
12.81538378310149
 40
13.10839208187941
 40
13.40140679422497
 40
13.69867163823139
 40
13.99594191860941
 40
14.29690076706832
 40
14.59786368256125
 40
14.90153574665418
 40
15.20521030800737
 40
15.51031668862194
 40
15.81542390951795
 40
16.12053113041387
 40
16.42563751102841
 40
16.72931207238163
 40
17.03298413647456
 40
17.33394705196762
 40
17.63490590042648
 40
17.93217618080453
 40
18.22944102481075
 40
18.52245573715637
 40
18.81546403593437
 40
19.10416056923206
 40
19.39285037847135
 40
19.67769542771909
 40
19.96253440630865
 40
20.24448639521042
 40
20.52643409345397
 40
20.80683376480938
 40
21.08723187935728
 40
21.08723187935728
 40
21.08723187935728
 40
21.08723187935728
 10
232.2494655152035
 20
287.164277873076
 30
0.0
 10
232.2468841293142
 20
287.2577784161295
 30
0.0
 10
232.2417213432036
 20
287.444780021364
 30
0.0
 10
232.2002489931547
 20
287.7232644346039
 30
0.0
 10
232.1343488327619
 20
287.9972066310063
 30
0.0
 10
232.042116723528
 20
288.2651347963416
 30
0.0
 10
231.925034534169
 20
288.5241805839021
 30
0.0
 10
231.7835582525897
 20
288.7733398780548
 30
0.0
 10
231.6192759065967
 20
289.0096498982327
 30
0.0
 10
231.4328157583803
 20
289.2324248921507
 30
0.0
 10
231.226391283443
 20
289.4388809244487
 30
0.0
 10
231.0006735890067
 20
289.6284936680894
 30
0.0
 10
230.7583827906577
 20
289.7988928440147
 30
0.0
 10
230.5003252978179
 20
289.9496056516227
 30
0.0
 10
230.2294980943359
 20
290.078828788148
 30
0.0
 10
229.9469812408393
 20
290.1861084613325
 30
0.0
 10
229.655793270246
 20
290.2702629648878
 30
0.0
 10
229.3574144973314
 20
290.3309062387191
 30
0.0
 10
229.0546535254511
 20
290.3674400009902
 30
0.0
 10
228.7494655152032
 20
290.3796590317269
 30
0.0
 10
228.4442775049569
 20
290.3674400009901
 30
0.0
 10
228.141516533072
 20
290.3309062387191
 30
0.0
 10
227.8431377601741
 20
290.2702629648878
 30
0.0
 10
227.5519497895184
 20
290.1861084613327
 30
0.0
 10
227.2694329362535
 20
290.078828788148
 30
0.0
 10
226.9986057319118
 20
289.9496056516226
 30
0.0
 10
226.7405482422427
 20
289.798892844015
 30
0.0
 10
226.4982574321469
 20
289.6284936680892
 30
0.0
 10
226.2725397809492
 20
289.4388809244488
 30
0.0
 10
226.0661151459228
 20
289.2324248921507
 30
0.0
 10
225.8796555867455
 20
289.0096498982326
 30
0.0
 10
225.7153710590345
 20
288.7733398780549
 30
0.0
 10
225.5739028159645
 20
288.524180583902
 30
0.0
 10
225.456790812363
 20
288.2651347963417
 30
0.0
 10
225.36466889389
 20
287.9972066310061
 30
0.0
 10
225.2983591283223
 20
287.723264434604
 30
0.0
 10
225.2584074632266
 20
287.4447800213638
 30
0.0
 10
225.2449945536036
 20
287.164277873076
 30
0.0
 10
225.2584074632266
 20
286.8837757247881
 30
0.0
 10
225.2983591283222
 20
286.6052913115479
 30
0.0
 10
225.3646688938901
 20
286.3313491151456
 30
0.0
 10
225.456790812363
 20
286.0634209498103
 30
0.0
 10
225.5739028159646
 20
285.8043751622499
 30
0.0
 10
225.7153710590346
 20
285.5552158680971
 30
0.0
 10
225.8796555867455
 20
285.3189058479192
 30
0.0
 10
226.0661151459227
 20
285.0961308540013
 30
0.0
 10
226.2725397809492
 20
284.8896748217032
 30
0.0
 10
226.4982574321469
 20
284.7000620780626
 30
0.0
 10
226.7405482422426
 20
284.5296629021372
 30
0.0
 10
226.9986057319119
 20
284.3789500945293
 30
0.0
 10
227.2694329362534
 20
284.2497269580037
 30
0.0
 10
227.5519497895184
 20
284.1424472848194
 30
0.0
 10
227.8431377601741
 20
284.0582927812641
 30
0.0
 10
228.141516533072
 20
283.9976495074329
 30
0.0
 10
228.4442775049569
 20
283.9611157451618
 30
0.0
 10
228.7494655152032
 20
283.948896714425
 30
0.0
 10
229.0546535254511
 20
283.9611157451618
 30
0.0
 10
229.3574144973313
 20
283.9976495074329
 30
0.0
 10
229.6557932702461
 20
284.0582927812641
 30
0.0
 10
229.9469812408393
 20
284.1424472848194
 30
0.0
 10
230.229498094336
 20
284.2497269580038
 30
0.0
 10
230.5003252978178
 20
284.3789500945292
 30
0.0
 10
230.7583827906578
 20
284.5296629021373
 30
0.0
 10
231.0006735890065
 20
284.7000620780627
 30
0.0
 10
231.226391283443
 20
284.8896748217032
 30
0.0
 10
231.4328157583802
 20
285.0961308540012
 30
0.0
 10
231.6192759065967
 20
285.3189058479192
 30
0.0
 10
231.7835582525898
 20
285.5552158680972
 30
0.0
 10
231.9250345341689
 20
285.8043751622498
 30
0.0
 10
232.042116723528
 20
286.0634209498103
 30
0.0
 10
232.1343488327619
 20
286.3313491151457
 30
0.0
 10
232.2002489931547
 20
286.605291311548
 30
0.0
 10
232.2417213432037
 20
286.8837757247882
 30
0.0
 10
232.2468841293143
 20
287.0707773300225
 30
0.0
 10
232.2494655152035
 20
287.164277873076
 30
0.0
 11
232.2494655152035
 21
287.164277873076
 31
0.0
 11
232.2361127299054
 21
287.4443578719456
 31
0.0
 11
232.1962926507462
 21
287.7219156803242
 31
0.0
 11
232.1300330680222
 21
287.9959670847031
 31
0.0
 11
232.0383896879541
 21
288.2626099449776
 31
0.0
 11
231.921141687669
 21
288.5221983695136
 31
0.0
 11
231.780554428449
 21
288.7699319454091
 31
0.0
 11
231.615857233097
 21
289.0070324300181
 31
0.0
 11
231.4306210661199
 21
289.2284669593529
 31
0.0
 11
231.2235281892046
 21
289.4357503486627
 31
0.0
 11
230.9992221491063
 21
289.6242826324403
 31
0.0
 11
230.7561273184056
 21
289.7953711790138
 31
0.0
 11
230.4994655152035
 21
289.9453523057368
 31
0.0
 11
230.2278772952323
 21
290.0750290856111
 31
0.0
 11
229.9465360168433
 21
290.1819204396885
 31
0.0
 11
229.6548185332979
 21
290.2662865010188
 31
0.0
 11
229.3572341370377
 21
290.3267990312546
 31
0.0
 11
229.0543284025035
 21
290.3633779798175
 31
0.0
 11
228.7494655152035
 21
290.3755860177422
 31
0.0
 11
228.4446026279035
 21
290.3633779798175
 31
0.0
 11
228.1416968933692
 21
290.3267990312546
 31
0.0
 11
227.844112497109
 21
290.2662865010188
 31
0.0
 11
227.5523950135636
 21
290.1819204396885
 31
0.0
 11
227.2710537351746
 21
290.0750290856111
 31
0.0
 11
226.9994655152035
 21
289.9453523057368
 31
0.0
 11
226.7428037120014
 21
289.795371179014
 31
0.0
 11
226.4997088813005
 21
289.6242826324403
 31
0.0
 11
226.2754028412023
 21
289.4357503486627
 31
0.0
 11
226.0683099642871
 21
289.2284669593529
 31
0.0
 11
225.88307379731
 21
289.0070324300181
 31
0.0
 11
225.718376601958
 21
288.7699319454091
 31
0.0
 11
225.577789342738
 21
288.5221983695136
 31
0.0
 11
225.4605413424528
 21
288.2626099449776
 31
0.0
 11
225.3688979623847
 21
287.9959670847031
 31
0.0
 11
225.3026383796607
 21
287.7219156803242
 31
0.0
 11
225.2628183005016
 21
287.4443578719456
 31
0.0
 11
225.2494655152035
 21
287.164277873076
 31
0.0
 11
225.2628183005016
 21
286.8841978742064
 31
0.0
 11
225.3026383796607
 21
286.6066400658277
 31
0.0
 11
225.3688979623847
 21
286.3325886614488
 31
0.0
 11
225.4605413424528
 21
286.0659458011743
 31
0.0
 11
225.577789342738
 21
285.8063573766383
 31
0.0
 11
225.718376601958
 21
285.5586238007428
 31
0.0
 11
225.8830737973101
 21
285.3215233161338
 31
0.0
 11
226.0683099642871
 21
285.100088786799
 31
0.0
 11
226.2754028412023
 21
284.8928053974893
 31
0.0
 11
226.4997088813005
 21
284.7042731137117
 31
0.0
 11
226.7428037120014
 21
284.5331845671381
 31
0.0
 11
226.9994655152035
 21
284.3832034404152
 31
0.0
 11
227.2710537351747
 21
284.2535266605407
 31
0.0
 11
227.5523950135636
 21
284.1466353064634
 31
0.0
 11
227.844112497109
 21
284.0622692451331
 31
0.0
 11
228.1416968933692
 21
284.0017567148974
 31
0.0
 11
228.4446026279035
 21
283.9651777663344
 31
0.0
 11
228.7494655152035
 21
283.9529697284097
 31
0.0
 11
229.0543284025034
 21
283.9651777663344
 31
0.0
 11
229.3572341370377
 21
284.0017567148974
 31
0.0
 11
229.6548185332979
 21
284.0622692451331
 31
0.0
 11
229.9465360168433
 21
284.1466353064634
 31
0.0
 11
230.2278772952324
 21
284.2535266605408
 31
0.0
 11
230.4994655152035
 21
284.3832034404152
 31
0.0
 11
230.7561273184056
 21
284.5331845671382
 31
0.0
 11
230.9992221491063
 21
284.7042731137117
 31
0.0
 11
231.2235281892046
 21
284.8928053974893
 31
0.0
 11
231.4306210661199
 21
285.100088786799
 31
0.0
 11
231.615857233097
 21
285.3215233161338
 31
0.0
 11
231.780554428449
 21
285.5586238007428
 31
0.0
 11
231.921141687669
 21
285.8063573766383
 31
0.0
 11
232.0383896879541
 21
286.0659458011743
 31
0.0
 11
232.1300330680222
 21
286.3325886614488
 31
0.0
 11
232.1962926507462
 21
286.6066400658277
 31
0.0
 11
232.2361127299054
 21
286.8841978742064
 31
0.0
 11
232.2494655152035
 21
287.164277873076
 31
0.0
  0
ENDBLK
  5
7C
330
7A
100
AcDbEntity
  8
0
100
AcDbBlockEnd
  0
BLOCK
  5
7E
330
7D
100
AcDbEntity
  8
0
100
AcDbBlockBegin
  2
36-1A-13-M4__21
 70
     0
 71
     0
 10
149.4001339392487
 20
338.7843648900662
 30
0.0
  3
36-1A-13-M4__21
  1

  0
LINE
  5
2D2
330
7D
100
AcDbEntity
  8
1
  6
Continuous
 62
     7
100
AcDbLine
 10
239.2494655152035
 20
280.6559476238782
 30
0.0
 11
242.3197742270185
 21
280.6559476238782
 31
0.0
  0
LINE
  5
2D3
330
7D
100
AcDbEntity
  8
1
  6
Continuous
 62
     7
100
AcDbLine
 10
242.3197742270185
 20
271.1559476238782
 30
0.0
 11
239.2494655152035
 21
271.1559476238781
 31
0.0
  0
ENDBLK
  5
7F
330
7D
100
AcDbEntity
  8
0
100
AcDbBlockEnd
  0
BLOCK
  5
84
330
80
100
AcDbEntity
  8
0
100
AcDbBlockBegin
  2
R10A-13__22
 70
     0
 71
     0
 10
207.8197742270185
 20
290.4059476238781
 30
0.0
  3
R10A-13__22
  1

  0
INSERT
  5
81
330
80
100
AcDbEntity
  8
1
100
AcDbBlockReference
  2
R20F__19
 10
241.3197742270185
 20
282.9059476238782
 30
0.0
  0
INSERT
  5
82
330
80
100
AcDbEntity
  8
1
100
AcDbBlockReference
  2
37-1-13__20
 10
197.9058151201684
 20
82.53743487843497
 30
0.0
  0
INSERT
  5
83
330
80
100
AcDbEntity
  8
1
100
AcDbBlockReference
  2
36-1A-13-M4__21
 10
149.4001339392487
 20
338.7843648900662
 30
0.0
  0
ENDBLK
  5
85
330
80
100
AcDbEntity
  8
0
100
AcDbBlockEnd
  0
BLOCK
  5
87
330
86
100
AcDbEntity
  8
0
100
AcDbBlockBegin
  2
H862-A__23
 70
     0
 71
     0
 10
169.2216870960762
 20
370.552862504979
 30
0.0
  3
H862-A__23
  1

  0
LINE
  5
2D4
330
86
100
AcDbEntity
  8
1
  6
Continuous
 62
     7
100
AcDbLine
 10
173.8197742270183
 20
270.1901799589009
 30
0.0
 11
178.3197742270183
 21
270.1901799589009
 31
0.0
  0
LINE
  5
2D5
330
86
100
AcDbEntity
  8
1
  6
Continuous
 62
     7
100
AcDbLine
 10
173.3197742270183
 20
271.1559476238782
 30
0.0
 11
173.8197742270183
 21
270.1901799589009
 31
0.0
  0
LINE
  5
2D6
330
86
100
AcDbEntity
  8
1
  6
Continuous
 62
     7
100
AcDbLine
 10
173.3197742270183
 20
275.9059476238782
 30
0.0
 11
173.3197742270183
 21
271.1559476238782
 31
0.0
  0
LINE
  5
2D7
330
86
100
AcDbEntity
  8
1
  6
Continuous
 62
     7
100
AcDbLine
 10
173.8197742270183
 20
273.0480637913895
 30
0.0
 11
178.3197742270183
 21
273.0480637913895
 31
0.0
  0
LINE
  5
2D8
330
86
100
AcDbEntity
  8
1
  6
Continuous
 62
     7
100
AcDbLine
 10
178.3197742270183
 20
281.6217152888556
 30
0.0
 11
173.8197742270183
 21
281.6217152888556
 31
0.0
  0
LINE
  5
2D9
330
86
100
AcDbEntity
  8
1
  6
Continuous
 62
     7
100
AcDbLine
 10
173.8197742270183
 20
281.6217152888556
 30
0.0
 11
173.3197742270183
 21
280.6559476238782
 31
0.0
  0
LINE
  5
2DA
330
86
100
AcDbEntity
  8
1
  6
Continuous
 62
     7
100
AcDbLine
 10
173.3197742270183
 20
280.6559476238782
 30
0.0
 11
173.3197742270183
 21
275.9059476238782
 31
0.0
  0
LINE
  5
2DB
330
86
100
AcDbEntity
  8
1
  6
Continuous
 62
     7
100
AcDbLine
 10
178.3197742270183
 20
278.7638314563669
 30
0.0
 11
173.8197742270183
 21
278.7638314563669
 31
0.0
  0
ARC
  5
2DC
330
86
100
AcDbEntity
  8
1
  6
Continuous
 62
     7
100
AcDbCircle
 10
177.0728992270183
 20
271.6191218751452
 30
0.0
 40
3.553124999999974
100
AcDbArc
 50
156.2864175266665
 51
-156.2864175266665
  0
ARC
  5
2DD
330
86
100
AcDbEntity
  8
1
  6
Continuous
 62
     7
100
AcDbCircle
 10
187.2822742270184
 20
275.9059476238782
 30
0.0
 40
13.76250000000002
100
AcDbArc
 50
180.0
 51
-168.0148997076153
  0
ARC
  5
2DE
330
86
100
AcDbEntity
  8
1
  6
Continuous
 62
     7
100
AcDbCircle
 10
177.0728992270183
 20
280.1927733726113
 30
0.0
 40
3.553124999999974
100
AcDbArc
 50
156.2864175266665
 51
-156.2864175266648
  0
ARC
  5
2DF
330
86
100
AcDbEntity
  8
1
  6
Continuous
 62
     7
100
AcDbCircle
 10
187.2822742270184
 20
275.9059476238782
 30
0.0
 40
13.7625000000001
100
AcDbArc
 50
168.0148997076153
 51
180.0
  0
ENDBLK
  5
88
330
86
100
AcDbEntity
  8
0
100
AcDbBlockEnd
  0
BLOCK
  5
8A
330
89
100
AcDbEntity
  8
0
100
AcDbBlockBegin
  2
H862-L__24
 70
     0
 71
     0
 10
143.074963363852
 20
275.9059476238782
 30
0.0
  3
H862-L__24
  1

  0
LINE
  5
2E0
330
89
100
AcDbEntity
  8
1
  6
Continuous
 62
     7
100
AcDbLine
 10
110.3947742270183
 20
272.5429476238779
 30
0.0
 11
160.7366169204648
 21
272.5429476238783
 31
0.0
  0
LINE
  5
2E1
330
89
100
AcDbEntity
  8
1
  6
Continuous
 62
     2
100
AcDbLine
 10
162.1447742270184
 20
278.4559476238783
 30
0.0
 11
160.7366169204648
 21
279.2689476238782
 31
0.0
  0
LINE
  5
2E2
330
89
100
AcDbEntity
  8
1
  6
Continuous
 62
     7
100
AcDbLine
 10
160.7366169204648
 20
279.2689476238782
 30
0.0
 11
110.3947742270183
 21
279.2689476238785
 31
0.0
  0
LINE
  5
2E3
330
89
100
AcDbEntity
  8
1
  6
Continuous
 62
     7
100
AcDbLine
 10
162.1447742270184
 20
278.4559476238783
 30
0.0
 11
162.1447742270184
 21
279.2689476238782
 31
0.0
  0
LINE
  5
2E4
330
89
100
AcDbEntity
  8
1
  6
Continuous
 62
     7
100
AcDbLine
 10
162.1447742270184
 20
279.2689476238782
 30
0.0
 11
160.7366169204648
 21
279.2689476238782
 31
0.0
  0
LINE
  5
2E5
330
89
100
AcDbEntity
  8
1
  6
Continuous
 62
     7
100
AcDbLine
 10
162.1447742270184
 20
275.9059476238782
 30
0.0
 11
162.1447742270184
 21
278.4559476238783
 31
0.0
  0
LINE
  5
2E6
330
89
100
AcDbEntity
  8
1
  6
Continuous
 62
     2
100
AcDbLine
 10
111.8029315335718
 20
279.2689476238782
 30
0.0
 11
110.5697742270183
 21
278.5569839209865
 31
0.0
  0
LINE
  5
2E7
330
89
100
AcDbEntity
  8
1
  6
Continuous
 62
     2
100
AcDbLine
 10
160.7366169204648
 20
272.5429476238783
 30
0.0
 11
162.1447742270184
 21
273.3559476238783
 31
0.0
  0
LINE
  5
2E8
330
89
100
AcDbEntity
  8
1
  6
Continuous
 62
     7
100
AcDbLine
 10
162.1447742270184
 20
272.5429476238783
 30
0.0
 11
162.1447742270184
 21
273.3559476238783
 31
0.0
  0
LINE
  5
2E9
330
89
100
AcDbEntity
  8
1
  6
Continuous
 62
     7
100
AcDbLine
 10
160.7366169204648
 20
272.5429476238783
 30
0.0
 11
162.1447742270184
 21
272.5429476238783
 31
0.0
  0
LINE
  5
2EA
330
89
100
AcDbEntity
  8
1
  6
Continuous
 62
     2
100
AcDbLine
 10
162.1447742270184
 20
273.3559476238783
 30
0.0
 11
173.3197742270183
 21
273.3559476238783
 31
0.0
  0
LINE
  5
2EB
330
89
100
AcDbEntity
  8
1
  6
Continuous
 62
     7
100
AcDbLine
 10
162.1447742270184
 20
273.3559476238783
 30
0.0
 11
162.1447742270184
 21
275.9059476238782
 31
0.0
  0
LINE
  5
2EC
330
89
100
AcDbEntity
  8
1
  6
Continuous
 62
     7
100
AcDbLine
 10
162.1447742270184
 20
272.5429476238783
 30
0.0
 11
173.3197742270183
 21
272.5429476238783
 31
0.0
  0
LINE
  5
2ED
330
89
100
AcDbEntity
  8
1
  6
Continuous
 62
     2
100
AcDbLine
 10
173.3197742270183
 20
278.4559476238783
 30
0.0
 11
162.1447742270184
 21
278.4559476238783
 31
0.0
  0
LINE
  5
2EE
330
89
100
AcDbEntity
  8
1
  6
Continuous
 62
     7
100
AcDbLine
 10
173.3197742270183
 20
279.2689476238782
 30
0.0
 11
162.1447742270184
 21
279.2689476238782
 31
0.0
  0
LINE
  5
2EF
330
89
100
AcDbEntity
  8
1
  6
Continuous
 62
     2
100
AcDbLine
 10
110.5697742270183
 20
273.2549113267701
 30
0.0
 11
111.8029315335718
 21
272.5429476238783
 31
0.0
  0
LINE
  5
2F0
330
89
100
AcDbEntity
  8
1
  6
PHANTOM
 62
     4
100
AcDbLine
 10
105.2077742270184
 20
275.9059476238782
 30
0.0
 11
105.2077742270184
 21
272.5429476238783
 31
0.0
  0
LINE
  5
2F1
330
89
100
AcDbEntity
  8
1
  6
PHANTOM
 62
     4
100
AcDbLine
 10
105.2077742270184
 20
272.5429476238783
 30
0.0
 11
104.3947742270184
 21
273.3559476238783
 31
0.0
  0
LINE
  5
2F2
330
89
100
AcDbEntity
  8
1
  6
PHANTOM
 62
     4
100
AcDbLine
 10
105.2077742270184
 20
272.5429476238783
 30
0.0
 11
110.3947742270183
 21
272.5429476238779
 31
0.0
  0
LINE
  5
2F3
330
89
100
AcDbEntity
  8
1
  6
PHANTOM
 62
     4
100
AcDbLine
 10
110.3947742270183
 20
272.5429476238779
 30
0.0
 11
110.3947742270184
 21
273.3559476238783
 31
0.0
  0
LINE
  5
2F4
330
89
100
AcDbEntity
  8
1
  6
PHANTOM
 62
     4
100
AcDbLine
 10
104.3947742270184
 20
273.3559476238783
 30
0.0
 11
110.3947742270184
 21
273.3559476238783
 31
0.0
  0
LINE
  5
2F5
330
89
100
AcDbEntity
  8
1
  6
PHANTOM
 62
     4
100
AcDbLine
 10
110.3947742270184
 20
273.3559476238783
 30
0.0
 11
110.3947742270184
 21
275.9059476238782
 31
0.0
  0
LINE
  5
2F6
330
89
100
AcDbEntity
  8
1
  6
PHANTOM
 62
     4
100
AcDbLine
 10
104.3947742270184
 20
275.9059476238782
 30
0.0
 11
104.3947742270184
 21
273.3559476238783
 31
0.0
  0
LINE
  5
2F7
330
89
100
AcDbEntity
  8
1
  6
PHANTOM
 62
     4
100
AcDbLine
 10
105.2077742270184
 20
279.2689476238782
 30
0.0
 11
105.2077742270184
 21
275.9059476238782
 31
0.0
  0
LINE
  5
2F8
330
89
100
AcDbEntity
  8
1
  6
PHANTOM
 62
     4
100
AcDbLine
 10
104.3947742270184
 20
278.4559476238783
 30
0.0
 11
105.2077742270184
 21
279.2689476238782
 31
0.0
  0
LINE
  5
2F9
330
89
100
AcDbEntity
  8
1
  6
PHANTOM
 62
     4
100
AcDbLine
 10
110.3947742270183
 20
279.2689476238785
 30
0.0
 11
105.2077742270184
 21
279.2689476238782
 31
0.0
  0
LINE
  5
2FA
330
89
100
AcDbEntity
  8
1
  6
PHANTOM
 62
     4
100
AcDbLine
 10
110.3947742270184
 20
278.4559476238783
 30
0.0
 11
110.3947742270183
 21
279.2689476238785
 31
0.0
  0
LINE
  5
2FB
330
89
100
AcDbEntity
  8
1
  6
PHANTOM
 62
     4
100
AcDbLine
 10
110.3947742270184
 20
278.4559476238783
 30
0.0
 11
104.3947742270184
 21
278.4559476238783
 31
0.0
  0
LINE
  5
2FC
330
89
100
AcDbEntity
  8
1
  6
PHANTOM
 62
     4
100
AcDbLine
 10
110.3947742270184
 20
275.9059476238782
 30
0.0
 11
110.3947742270184
 21
278.4559476238783
 31
0.0
  0
LINE
  5
2FD
330
89
100
AcDbEntity
  8
1
  6
PHANTOM
 62
     4
100
AcDbLine
 10
104.3947742270184
 20
278.4559476238783
 30
0.0
 11
104.3947742270184
 21
275.9059476238782
 31
0.0
  0
LINE
  5
2FE
330
89
100
AcDbEntity
  8
1
  6
PHANTOM
 62
     4
100
AcDbLine
 10
184.3947742270184
 20
273.3559476238783
 30
0.0
 11
183.5817742270184
 21
272.5429476238783
 31
0.0
  0
LINE
  5
2FF
330
89
100
AcDbEntity
  8
1
  6
PHANTOM
 62
     4
100
AcDbLine
 10
183.5817742270184
 20
272.5429476238783
 30
0.0
 11
183.5817742270184
 21
275.9059476238782
 31
0.0
  0
LINE
  5
300
330
89
100
AcDbEntity
  8
1
  6
PHANTOM
 62
     4
100
AcDbLine
 10
184.3947742270184
 20
275.9059476238782
 30
0.0
 11
184.3947742270184
 21
273.3559476238783
 31
0.0
  0
LINE
  5
301
330
89
100
AcDbEntity
  8
1
  6
PHANTOM
 62
     4
100
AcDbLine
 10
183.5817742270184
 20
279.2689476238782
 30
0.0
 11
184.3947742270184
 21
278.4559476238783
 31
0.0
  0
LINE
  5
302
330
89
100
AcDbEntity
  8
1
  6
PHANTOM
 62
     4
100
AcDbLine
 10
183.5817742270184
 20
275.9059476238782
 30
0.0
 11
183.5817742270184
 21
279.2689476238782
 31
0.0
  0
LINE
  5
303
330
89
100
AcDbEntity
  8
1
  6
PHANTOM
 62
     4
100
AcDbLine
 10
184.3947742270184
 20
278.4559476238783
 30
0.0
 11
184.3947742270184
 21
275.9059476238782
 31
0.0
  0
ENDBLK
  5
8B
330
89
100
AcDbEntity
  8
0
100
AcDbBlockEnd
  0
BLOCK
  5
8D
330
8C
100
AcDbEntity
  8
0
100
AcDbBlockBegin
  2
H86F-A__25
 70
     0
 71
     0
 10
56.56977422701833
 20
320.4059476238782
 30
0.0
  3
H86F-A__25
  1

  0
LINE
  5
304
330
8C
100
AcDbEntity
  8
1
  6
Continuous
 62
     7
100
AcDbLine
 10
99.56977422701829
 20
294.6559476238782
 30
0.0
 11
99.56977422701829
 21
287.1559476238782
 31
0.0
  0
LINE
  5
305
330
8C
100
AcDbEntity
  8
1
  6
Continuous
 62
     7
100
AcDbLine
 10
96.56977422701829
 20
289.4059476238782
 30
0.0
 11
96.56977422701829
 21
292.6256385666521
 31
0.0
  0
LINE
  5
306
330
8C
100
AcDbEntity
  8
1
  6
Continuous
 62
     7
100
AcDbLine
 10
99.56977422701829
 20
283.6559476238782
 30
0.0
 11
99.56977422701829
 21
268.1559476238782
 31
0.0
  0
LINE
  5
307
330
8C
100
AcDbEntity
  8
1
  6
Continuous
 62
     7
100
AcDbLine
 10
99.56977422701829
 20
264.6559476238782
 30
0.0
 11
99.56977422701829
 21
257.1559476238782
 31
0.0
  0
LINE
  5
308
330
8C
100
AcDbEntity
  8
1
  6
Continuous
 62
     7
100
AcDbLine
 10
96.56977422701829
 20
262.4059476238782
 30
0.0
 11
96.56977422701829
 21
259.1862566811043
 31
0.0
  0
LINE
  5
309
330
8C
100
AcDbEntity
  8
1
  6
Continuous
 62
     7
100
AcDbLine
 10
110.5697742270183
 20
272.1559476238782
 30
0.0
 11
110.5697742270183
 21
278.5569839209865
 31
0.0
  0
LINE
  5
30A
330
8C
100
AcDbEntity
  8
1
  6
Continuous
 62
     7
100
AcDbLine
 10
101.5697742270183
 20
270.1559476238782
 30
0.0
 11
108.5697742270183
 21
270.1559476238782
 31
0.0
  0
LINE
  5
30B
330
8C
100
AcDbEntity
  8
1
  6
Continuous
 62
     7
100
AcDbLine
 10
98.56977422701829
 20
254.4059476238782
 30
0.0
 11
96.56977422701829
 21
254.4059476238782
 31
0.0
  0
LINE
  5
30C
330
8C
100
AcDbEntity
  8
1
  6
Continuous
 62
     7
100
AcDbLine
 10
96.56977422701829
 20
262.4059476238782
 30
0.0
 11
96.56977422701829
 21
275.9059476238782
 31
0.0
  0
LINE
  5
30D
330
8C
100
AcDbEntity
  8
1
  6
Continuous
 62
     7
100
AcDbLine
 10
99.56977422701829
 20
257.1559476238782
 30
0.0
 11
99.56977422701829
 21
255.4059476238782
 31
0.0
  0
LINE
  5
30E
330
8C
100
AcDbEntity
  8
1
  6
Continuous
 62
     7
100
AcDbLine
 10
96.56977422701829
 20
259.1862566811043
 30
0.0
 11
96.56977422701829
 21
254.4059476238782
 31
0.0
  0
LINE
  5
30F
330
8C
100
AcDbEntity
  8
1
  6
Continuous
 62
     7
100
AcDbLine
 10
99.56977422701829
 20
264.6559476238782
 30
0.0
 11
99.56977422701829
 21
268.1559476238782
 31
0.0
  0
LINE
  5
310
330
8C
100
AcDbEntity
  8
1
  6
Continuous
 62
     7
100
AcDbLine
 10
110.5697742270183
 20
278.5569839209865
 30
0.0
 11
110.5697742270183
 21
279.6559476238782
 31
0.0
  0
LINE
  5
311
330
8C
100
AcDbEntity
  8
1
  6
Continuous
 62
     7
100
AcDbLine
 10
108.5697742270183
 20
281.6559476238782
 30
0.0
 11
101.5697742270183
 21
281.6559476238782
 31
0.0
  0
LINE
  5
312
330
8C
100
AcDbEntity
  8
1
  6
Continuous
 62
     7
100
AcDbLine
 10
96.56977422701829
 20
297.4059476238782
 30
0.0
 11
98.56977422701829
 21
297.4059476238782
 31
0.0
  0
LINE
  5
313
330
8C
100
AcDbEntity
  8
1
  6
Continuous
 62
     7
100
AcDbLine
 10
96.56977422701829
 20
275.9059476238782
 30
0.0
 11
96.56977422701829
 21
289.4059476238782
 31
0.0
  0
LINE
  5
314
330
8C
100
AcDbEntity
  8
1
  6
Continuous
 62
     7
100
AcDbLine
 10
99.56977422701829
 20
296.4059476238782
 30
0.0
 11
99.56977422701829
 21
294.6559476238782
 31
0.0
  0
LINE
  5
315
330
8C
100
AcDbEntity
  8
1
  6
Continuous
 62
     7
100
AcDbLine
 10
96.56977422701829
 20
297.4059476238782
 30
0.0
 11
96.56977422701829
 21
292.6256385666521
 31
0.0
  0
LINE
  5
316
330
8C
100
AcDbEntity
  8
1
  6
Continuous
 62
     7
100
AcDbLine
 10
99.56977422701829
 20
283.6559476238782
 30
0.0
 11
99.56977422701829
 21
287.1559476238782
 31
0.0
  0
ARC
  5
317
330
8C
100
AcDbEntity
  8
1
  6
Continuous
 62
     7
100
AcDbCircle
 10
101.5697742270183
 20
268.1559476238782
 30
0.0
 40
2.0
100
AcDbArc
 50
90.0
 51
180.0
  0
ARC
  5
318
330
8C
100
AcDbEntity
  8
1
  6
Continuous
 62
     7
100
AcDbCircle
 10
108.5697742270183
 20
272.1559476238782
 30
0.0
 40
2.0
100
AcDbArc
 50
-90.0
 51
0.0
  0
ARC
  5
319
330
8C
100
AcDbEntity
  8
1
  6
Continuous
 62
     7
100
AcDbCircle
 10
98.56977422701829
 20
255.4059476238782
 30
0.0
 40
1.0
100
AcDbArc
 50
-90.0
 51
0.0
  0
ARC
  5
31A
330
8C
100
AcDbEntity
  8
1
  6
Continuous
 62
     7
100
AcDbCircle
 10
101.5697742270183
 20
283.6559476238782
 30
0.0
 40
2.000000000000014
100
AcDbArc
 50
180.0
 51
-90.0
  0
ARC
  5
31B
330
8C
100
AcDbEntity
  8
1
  6
Continuous
 62
     7
100
AcDbCircle
 10
108.5697742270183
 20
279.6559476238782
 30
0.0
 40
2.0
100
AcDbArc
 50
0.0
 51
90.0
  0
ARC
  5
31C
330
8C
100
AcDbEntity
  8
1
  6
Continuous
 62
     7
100
AcDbCircle
 10
98.56977422701829
 20
296.4059476238782
 30
0.0
 40
1.0
100
AcDbArc
 50
0.0
 51
90.0
  0
ENDBLK
  5
8E
330
8C
100
AcDbEntity
  8
0
100
AcDbBlockEnd
  0
BLOCK
  5
90
330
8F
100
AcDbEntity
  8
0
100
AcDbBlockBegin
  2
H86F-B__26
 70
     0
 71
     0
 10
49.48951314773875
 20
284.9801612960758
 30
0.0
  3
H86F-B__26
  1

  0
LINE
  5
31D
330
8F
100
AcDbEntity
  8
1
  6
Continuous
 62
     7
100
AcDbLine
 10
96.56977422701829
 20
289.1862566811043
 30
0.0
 11
96.40793771737249
 21
288.9059476238782
 31
0.0
  0
LINE
  5
31E
330
8F
100
AcDbEntity
  8
1
  6
Continuous
 62
     7
100
AcDbLine
 10
96.56977422701829
 20
292.4059476238782
 30
0.0
 11
95.99130492913359
 21
292.4059476238782
 31
0.0
  0
LINE
  5
31F
330
8F
100
AcDbEntity
  8
1
  6
Continuous
 62
     7
100
AcDbLine
 10
99.56977422701829
 20
287.1559476238782
 30
0.0
 11
99.81977422701829
 21
286.9059476238782
 31
0.0
  0
LINE
  5
320
330
8F
100
AcDbEntity
  8
1
  6
Continuous
 62
     7
100
AcDbLine
 10
79.37270533092828
 20
291.9919272401498
 30
0.0
 11
78.5181901221972
 21
291.7629605800503
 31
0.0
  0
LINE
  5
321
330
8F
100
AcDbEntity
  8
1
  6
Continuous
 62
     7
100
AcDbLine
 10
77.90581768650132
 20
291.5988758804385
 30
0.0
 11
77.05130247777025
 21
291.3699092203389
 31
0.0
  0
LINE
  5
322
330
8F
100
AcDbEntity
  8
1
  6
Continuous
 62
     7
100
AcDbLine
 10
76.4389300420746
 20
291.2058245207271
 30
0.0
 11
75.31977422701833
 21
290.9059476238782
 31
0.0
  0
LINE
  5
323
330
8F
100
AcDbEntity
  8
1
  6
Continuous
 62
     7
100
AcDbLine
 10
76.77659177622523
 20
290.5155945380487
 30
0.0
 11
75.31977422701833
 21
290.9059476238782
 31
0.0
  0
LINE
  5
324
330
8F
100
AcDbEntity
  8
1
  6
Continuous
 62
     7
100
AcDbLine
 10
78.38896421192111
 20
290.0835606460058
 30
0.0
 11
77.38896421192111
 21
290.3515098384369
 31
0.0
  0
LINE
  5
325
330
8F
100
AcDbEntity
  8
1
  6
Continuous
 62
     7
100
AcDbLine
 10
80.00133664761688
 20
289.6515267539629
 30
0.0
 11
79.00133664761687
 21
289.919475946394
 31
0.0
  0
LINE
  5
326
330
8F
100
AcDbEntity
  8
1
  6
Continuous
 62
     7
100
AcDbLine
 10
80.91785043837169
 20
289.4059476238782
 30
0.0
 11
80.61370908331259
 21
289.4874420543513
 31
0.0
  0
LINE
  5
327
330
8F
100
AcDbEntity
  8
1
  6
Continuous
 62
     7
100
AcDbLine
 10
81.61370908331259
 20
289.4059476238782
 30
0.0
 11
80.91785043837169
 21
289.4059476238782
 31
0.0
  0
LINE
  5
328
330
8F
100
AcDbEntity
  8
1
  6
Continuous
 62
     7
100
AcDbLine
 10
80.90840116047889
 20
292.4059476238782
 30
0.0
 11
79.98507776662399
 21
292.1560119397616
 31
0.0
  0
LINE
  5
329
330
8F
100
AcDbEntity
  8
1
  6
Continuous
 62
     7
100
AcDbLine
 10
76.79248343266771
 20
291.818196956423
 30
0.0
 11
77.13014516681845
 21
289.9032221023529
 31
0.0
  0
LINE
  5
32A
330
8F
100
AcDbEntity
  8
1
  6
Continuous
 62
     7
100
AcDbLine
 10
76.79248343266771
 20
291.818196956423
 30
0.0
 11
76.4389300420746
 21
291.2058245207271
 31
0.0
  0
LINE
  5
32B
330
8F
100
AcDbEntity
  8
1
  6
Continuous
 62
     7
100
AcDbLine
 10
76.77659177622523
 20
290.5155945380487
 30
0.0
 11
76.4389300420746
 21
291.2058245207271
 31
0.0
  0
LINE
  5
32C
330
8F
100
AcDbEntity
  8
1
  6
Continuous
 62
     7
100
AcDbLine
 10
77.13014516681845
 20
289.9032221023529
 30
0.0
 11
76.77659177622523
 21
290.5155945380487
 31
0.0
  0
LINE
  5
32D
330
8F
100
AcDbEntity
  8
1
  6
Continuous
 62
     7
100
AcDbLine
 10
77.38896421192111
 20
290.3515098384369
 30
0.0
 11
77.13014516681845
 21
289.9032221023529
 31
0.0
  0
LINE
  5
32E
330
8F
100
AcDbEntity
  8
1
  6
Continuous
 62
     7
100
AcDbLine
 10
77.05130247777025
 20
291.3699092203389
 30
0.0
 11
77.38896421192111
 21
290.3515098384369
 31
0.0
  0
LINE
  5
32F
330
8F
100
AcDbEntity
  8
1
  6
Continuous
 62
     7
100
AcDbLine
 10
76.79248343266771
 20
291.818196956423
 30
0.0
 11
77.05130247777025
 21
291.3699092203389
 31
0.0
  0
LINE
  5
330
330
8F
100
AcDbEntity
  8
1
  6
Continuous
 62
     7
100
AcDbLine
 10
78.25937107709466
 20
292.2112483161343
 30
0.0
 11
77.90581768650132
 21
291.5988758804385
 31
0.0
  0
LINE
  5
331
330
8F
100
AcDbEntity
  8
1
  6
Continuous
 62
     7
100
AcDbLine
 10
78.25937107709466
 20
292.2112483161343
 30
0.0
 11
78.74251760251433
 21
289.4711882103101
 31
0.0
  0
LINE
  5
332
330
8F
100
AcDbEntity
  8
1
  6
Continuous
 62
     7
100
AcDbLine
 10
78.38896421192111
 20
290.0835606460058
 30
0.0
 11
77.90581768650132
 21
291.5988758804385
 31
0.0
  0
LINE
  5
333
330
8F
100
AcDbEntity
  8
1
  6
Continuous
 62
     7
100
AcDbLine
 10
78.74251760251433
 20
289.4711882103101
 30
0.0
 11
78.38896421192111
 21
290.0835606460058
 31
0.0
  0
LINE
  5
334
330
8F
100
AcDbEntity
  8
1
  6
Continuous
 62
     7
100
AcDbLine
 10
79.00133664761687
 20
289.919475946394
 30
0.0
 11
78.74251760251433
 21
289.4711882103101
 31
0.0
  0
LINE
  5
335
330
8F
100
AcDbEntity
  8
1
  6
Continuous
 62
     7
100
AcDbLine
 10
78.5181901221972
 20
291.7629605800503
 30
0.0
 11
79.00133664761687
 21
289.919475946394
 31
0.0
  0
LINE
  5
336
330
8F
100
AcDbEntity
  8
1
  6
Continuous
 62
     7
100
AcDbLine
 10
78.25937107709466
 20
292.2112483161343
 30
0.0
 11
78.5181901221972
 21
291.7629605800503
 31
0.0
  0
LINE
  5
337
330
8F
100
AcDbEntity
  8
1
  6
Continuous
 62
     7
100
AcDbLine
 10
80.35489003821019
 20
289.0391543182672
 30
0.0
 11
80.00133664761688
 21
289.6515267539629
 31
0.0
  0
LINE
  5
338
330
8F
100
AcDbEntity
  8
1
  6
Continuous
 62
     7
100
AcDbLine
 10
80.61370908331259
 20
289.4874420543513
 30
0.0
 11
80.35489003821019
 21
289.0391543182672
 31
0.0
  0
LINE
  5
339
330
8F
100
AcDbEntity
  8
1
  6
Continuous
 62
     7
100
AcDbLine
 10
79.37270533092828
 20
291.9919272401498
 30
0.0
 11
80.00133664761688
 21
289.6515267539629
 31
0.0
  0
LINE
  5
33A
330
8F
100
AcDbEntity
  8
1
  6
Continuous
 62
     7
100
AcDbLine
 10
79.72625872152159
 20
292.6042996758456
 30
0.0
 11
79.37270533092828
 21
291.9919272401498
 31
0.0
  0
LINE
  5
33B
330
8F
100
AcDbEntity
  8
1
  6
Continuous
 62
     7
100
AcDbLine
 10
79.72625872152159
 20
292.6042996758456
 30
0.0
 11
79.98507776662399
 21
292.1560119397616
 31
0.0
  0
LINE
  5
33C
330
8F
100
AcDbEntity
  8
1
  6
Continuous
 62
     7
100
AcDbLine
 10
79.72625872152159
 20
292.6042996758456
 30
0.0
 11
80.35489003821019
 21
289.0391543182672
 31
0.0
  0
LINE
  5
33D
330
8F
100
AcDbEntity
  8
1
  6
Continuous
 62
     7
100
AcDbLine
 10
79.98507776662399
 20
292.1560119397616
 30
0.0
 11
80.61370908331259
 21
289.4874420543513
 31
0.0
  0
LINE
  5
33E
330
8F
100
AcDbEntity
  8
1
  6
Continuous
 62
     7
100
AcDbLine
 10
83.76840962169179
 20
289.4059476238782
 30
0.0
 11
82.19105935250228
 21
289.4059476238782
 31
0.0
  0
LINE
  5
33F
330
8F
100
AcDbEntity
  8
1
  6
Continuous
 62
     7
100
AcDbLine
 10
83.06310169885809
 20
292.4059476238782
 30
0.0
 11
81.48575142966838
 21
292.4059476238782
 31
0.0
  0
LINE
  5
340
330
8F
100
AcDbEntity
  8
1
  6
Continuous
 62
     7
100
AcDbLine
 10
85.21780223723728
 20
292.4059476238782
 30
0.0
 11
83.64045196804769
 21
292.4059476238782
 31
0.0
  0
LINE
  5
341
330
8F
100
AcDbEntity
  8
1
  6
Continuous
 62
     7
100
AcDbLine
 10
85.92311016007109
 20
289.4059476238782
 30
0.0
 11
84.34575989088148
 21
289.4059476238782
 31
0.0
  0
LINE
  5
342
330
8F
100
AcDbEntity
  8
1
  6
Continuous
 62
     7
100
AcDbLine
 10
88.07781069845029
 20
289.4059476238782
 30
0.0
 11
86.50046042926078
 21
289.4059476238782
 31
0.0
  0
LINE
  5
343
330
8F
100
AcDbEntity
  8
1
  6
Continuous
 62
     7
100
AcDbLine
 10
87.37250277561658
 20
292.4059476238782
 30
0.0
 11
85.79515250642699
 21
292.4059476238782
 31
0.0
  0
LINE
  5
344
330
8F
100
AcDbEntity
  8
1
  6
Continuous
 62
     7
100
AcDbLine
 10
89.52720331399578
 20
292.4059476238782
 30
0.0
 11
87.94985304480609
 21
292.4059476238782
 31
0.0
  0
LINE
  5
345
330
8F
100
AcDbEntity
  8
1
  6
Continuous
 62
     7
100
AcDbLine
 10
90.23251123682958
 20
289.4059476238782
 30
0.0
 11
88.65516096764009
 21
289.4059476238782
 31
0.0
  0
LINE
  5
346
330
8F
100
AcDbEntity
  8
1
  6
Continuous
 62
     7
100
AcDbLine
 10
92.38721177520888
 20
289.4059476238782
 30
0.0
 11
90.80986150601929
 21
289.4059476238782
 31
0.0
  0
LINE
  5
347
330
8F
100
AcDbEntity
  8
1
  6
Continuous
 62
     7
100
AcDbLine
 10
91.68190385237509
 20
292.4059476238782
 30
0.0
 11
90.10455358318539
 21
292.4059476238782
 31
0.0
  0
LINE
  5
348
330
8F
100
AcDbEntity
  8
1
  6
Continuous
 62
     7
100
AcDbLine
 10
93.83660439075429
 20
292.4059476238782
 30
0.0
 11
92.25925412156468
 21
292.4059476238782
 31
0.0
  0
LINE
  5
349
330
8F
100
AcDbEntity
  8
1
  6
Continuous
 62
     7
100
AcDbLine
 10
94.54191231358819
 20
289.4059476238782
 30
0.0
 11
92.96456204439859
 21
289.4059476238782
 31
0.0
  0
LINE
  5
34A
330
8F
100
AcDbEntity
  8
1
  6
Continuous
 62
     7
100
AcDbLine
 10
82.19105935250228
 20
289.4059476238782
 30
0.0
 11
81.90238421790738
 21
288.9059476238782
 31
0.0
  0
LINE
  5
34B
330
8F
100
AcDbEntity
  8
1
  6
Continuous
 62
     7
100
AcDbLine
 10
81.48575142966838
 20
292.4059476238782
 30
0.0
 11
82.19105935250228
 21
289.4059476238782
 31
0.0
  0
LINE
  5
34C
330
8F
100
AcDbEntity
  8
1
  6
Continuous
 62
     7
100
AcDbLine
 10
81.90238421790738
 20
288.9059476238782
 30
0.0
 11
81.61370908331259
 21
289.4059476238782
 31
0.0
  0
LINE
  5
34D
330
8F
100
AcDbEntity
  8
1
  6
Continuous
 62
     7
100
AcDbLine
 10
81.61370908331259
 20
289.4059476238782
 30
0.0
 11
80.90840116047889
 21
292.4059476238782
 31
0.0
  0
LINE
  5
34E
330
8F
100
AcDbEntity
  8
1
  6
Continuous
 62
     7
100
AcDbLine
 10
80.90840116047889
 20
292.4059476238782
 30
0.0
 11
81.19707629507369
 21
292.9059476238782
 31
0.0
  0
LINE
  5
34F
330
8F
100
AcDbEntity
  8
1
  6
Continuous
 62
     7
100
AcDbLine
 10
81.19707629507369
 20
292.9059476238782
 30
0.0
 11
81.90238421790738
 21
288.9059476238782
 31
0.0
  0
LINE
  5
350
330
8F
100
AcDbEntity
  8
1
  6
Continuous
 62
     7
100
AcDbLine
 10
81.19707629507369
 20
292.9059476238782
 30
0.0
 11
81.48575142966838
 21
292.4059476238782
 31
0.0
  0
LINE
  5
351
330
8F
100
AcDbEntity
  8
1
  6
Continuous
 62
     7
100
AcDbLine
 10
84.34575989088148
 20
289.4059476238782
 30
0.0
 11
84.05708475628669
 21
288.9059476238782
 31
0.0
  0
LINE
  5
352
330
8F
100
AcDbEntity
  8
1
  6
Continuous
 62
     7
100
AcDbLine
 10
83.64045196804769
 20
292.4059476238782
 30
0.0
 11
84.34575989088148
 21
289.4059476238782
 31
0.0
  0
LINE
  5
353
330
8F
100
AcDbEntity
  8
1
  6
Continuous
 62
     7
100
AcDbLine
 10
84.05708475628669
 20
288.9059476238782
 30
0.0
 11
83.76840962169179
 21
289.4059476238782
 31
0.0
  0
LINE
  5
354
330
8F
100
AcDbEntity
  8
1
  6
Continuous
 62
     7
100
AcDbLine
 10
83.76840962169179
 20
289.4059476238782
 30
0.0
 11
83.06310169885809
 21
292.4059476238782
 31
0.0
  0
LINE
  5
355
330
8F
100
AcDbEntity
  8
1
  6
Continuous
 62
     7
100
AcDbLine
 10
83.06310169885809
 20
292.4059476238782
 30
0.0
 11
83.35177683345289
 21
292.9059476238782
 31
0.0
  0
LINE
  5
356
330
8F
100
AcDbEntity
  8
1
  6
Continuous
 62
     7
100
AcDbLine
 10
83.35177683345289
 20
292.9059476238782
 30
0.0
 11
84.05708475628669
 21
288.9059476238782
 31
0.0
  0
LINE
  5
357
330
8F
100
AcDbEntity
  8
1
  6
Continuous
 62
     7
100
AcDbLine
 10
83.35177683345289
 20
292.9059476238782
 30
0.0
 11
83.64045196804769
 21
292.4059476238782
 31
0.0
  0
LINE
  5
358
330
8F
100
AcDbEntity
  8
1
  6
Continuous
 62
     7
100
AcDbLine
 10
86.50046042926078
 20
289.4059476238782
 30
0.0
 11
86.21178529466599
 21
288.9059476238782
 31
0.0
  0
LINE
  5
359
330
8F
100
AcDbEntity
  8
1
  6
Continuous
 62
     7
100
AcDbLine
 10
85.79515250642699
 20
292.4059476238782
 30
0.0
 11
86.50046042926078
 21
289.4059476238782
 31
0.0
  0
LINE
  5
35A
330
8F
100
AcDbEntity
  8
1
  6
Continuous
 62
     7
100
AcDbLine
 10
86.21178529466599
 20
288.9059476238782
 30
0.0
 11
85.92311016007109
 21
289.4059476238782
 31
0.0
  0
LINE
  5
35B
330
8F
100
AcDbEntity
  8
1
  6
Continuous
 62
     7
100
AcDbLine
 10
85.92311016007109
 20
289.4059476238782
 30
0.0
 11
85.21780223723728
 21
292.4059476238782
 31
0.0
  0
LINE
  5
35C
330
8F
100
AcDbEntity
  8
1
  6
Continuous
 62
     7
100
AcDbLine
 10
85.21780223723728
 20
292.4059476238782
 30
0.0
 11
85.50647737183199
 21
292.9059476238782
 31
0.0
  0
LINE
  5
35D
330
8F
100
AcDbEntity
  8
1
  6
Continuous
 62
     7
100
AcDbLine
 10
85.50647737183199
 20
292.9059476238782
 30
0.0
 11
86.21178529466599
 21
288.9059476238782
 31
0.0
  0
LINE
  5
35E
330
8F
100
AcDbEntity
  8
1
  6
Continuous
 62
     7
100
AcDbLine
 10
85.50647737183199
 20
292.9059476238782
 30
0.0
 11
85.79515250642699
 21
292.4059476238782
 31
0.0
  0
LINE
  5
35F
330
8F
100
AcDbEntity
  8
1
  6
Continuous
 62
     7
100
AcDbLine
 10
88.65516096764009
 20
289.4059476238782
 30
0.0
 11
88.36648583304529
 21
288.9059476238782
 31
0.0
  0
LINE
  5
360
330
8F
100
AcDbEntity
  8
1
  6
Continuous
 62
     7
100
AcDbLine
 10
87.94985304480609
 20
292.4059476238782
 30
0.0
 11
88.65516096764009
 21
289.4059476238782
 31
0.0
  0
LINE
  5
361
330
8F
100
AcDbEntity
  8
1
  6
Continuous
 62
     7
100
AcDbLine
 10
88.36648583304529
 20
288.9059476238782
 30
0.0
 11
88.07781069845029
 21
289.4059476238782
 31
0.0
  0
LINE
  5
362
330
8F
100
AcDbEntity
  8
1
  6
Continuous
 62
     7
100
AcDbLine
 10
88.07781069845029
 20
289.4059476238782
 30
0.0
 11
87.37250277561658
 21
292.4059476238782
 31
0.0
  0
LINE
  5
363
330
8F
100
AcDbEntity
  8
1
  6
Continuous
 62
     7
100
AcDbLine
 10
87.37250277561658
 20
292.4059476238782
 30
0.0
 11
87.66117791021128
 21
292.9059476238782
 31
0.0
  0
LINE
  5
364
330
8F
100
AcDbEntity
  8
1
  6
Continuous
 62
     7
100
AcDbLine
 10
87.66117791021128
 20
292.9059476238782
 30
0.0
 11
88.36648583304529
 21
288.9059476238782
 31
0.0
  0
LINE
  5
365
330
8F
100
AcDbEntity
  8
1
  6
Continuous
 62
     7
100
AcDbLine
 10
87.66117791021128
 20
292.9059476238782
 30
0.0
 11
87.94985304480609
 21
292.4059476238782
 31
0.0
  0
LINE
  5
366
330
8F
100
AcDbEntity
  8
1
  6
Continuous
 62
     7
100
AcDbLine
 10
90.80986150601929
 20
289.4059476238782
 30
0.0
 11
90.52118637142439
 21
288.9059476238782
 31
0.0
  0
LINE
  5
367
330
8F
100
AcDbEntity
  8
1
  6
Continuous
 62
     7
100
AcDbLine
 10
90.10455358318539
 20
292.4059476238782
 30
0.0
 11
90.80986150601929
 21
289.4059476238782
 31
0.0
  0
LINE
  5
368
330
8F
100
AcDbEntity
  8
1
  6
Continuous
 62
     7
100
AcDbLine
 10
90.52118637142439
 20
288.9059476238782
 30
0.0
 11
90.23251123682958
 21
289.4059476238782
 31
0.0
  0
LINE
  5
369
330
8F
100
AcDbEntity
  8
1
  6
Continuous
 62
     7
100
AcDbLine
 10
90.23251123682958
 20
289.4059476238782
 30
0.0
 11
89.52720331399578
 21
292.4059476238782
 31
0.0
  0
LINE
  5
36A
330
8F
100
AcDbEntity
  8
1
  6
Continuous
 62
     7
100
AcDbLine
 10
89.52720331399578
 20
292.4059476238782
 30
0.0
 11
89.81587844859048
 21
292.9059476238782
 31
0.0
  0
LINE
  5
36B
330
8F
100
AcDbEntity
  8
1
  6
Continuous
 62
     7
100
AcDbLine
 10
89.81587844859048
 20
292.9059476238782
 30
0.0
 11
90.52118637142439
 21
288.9059476238782
 31
0.0
  0
LINE
  5
36C
330
8F
100
AcDbEntity
  8
1
  6
Continuous
 62
     7
100
AcDbLine
 10
89.81587844859048
 20
292.9059476238782
 30
0.0
 11
90.10455358318539
 21
292.4059476238782
 31
0.0
  0
LINE
  5
36D
330
8F
100
AcDbEntity
  8
1
  6
Continuous
 62
     7
100
AcDbLine
 10
92.96456204439859
 20
289.4059476238782
 30
0.0
 11
92.67588690980368
 21
288.9059476238782
 31
0.0
  0
LINE
  5
36E
330
8F
100
AcDbEntity
  8
1
  6
Continuous
 62
     7
100
AcDbLine
 10
92.25925412156468
 20
292.4059476238782
 30
0.0
 11
92.96456204439859
 21
289.4059476238782
 31
0.0
  0
LINE
  5
36F
330
8F
100
AcDbEntity
  8
1
  6
Continuous
 62
     7
100
AcDbLine
 10
92.67588690980368
 20
288.9059476238782
 30
0.0
 11
92.38721177520888
 21
289.4059476238782
 31
0.0
  0
LINE
  5
370
330
8F
100
AcDbEntity
  8
1
  6
Continuous
 62
     7
100
AcDbLine
 10
92.38721177520888
 20
289.4059476238782
 30
0.0
 11
91.68190385237509
 21
292.4059476238782
 31
0.0
  0
LINE
  5
371
330
8F
100
AcDbEntity
  8
1
  6
Continuous
 62
     7
100
AcDbLine
 10
91.68190385237509
 20
292.4059476238782
 30
0.0
 11
91.97057898696978
 21
292.9059476238782
 31
0.0
  0
LINE
  5
372
330
8F
100
AcDbEntity
  8
1
  6
Continuous
 62
     7
100
AcDbLine
 10
91.97057898696978
 20
292.9059476238782
 30
0.0
 11
92.67588690980368
 21
288.9059476238782
 31
0.0
  0
LINE
  5
373
330
8F
100
AcDbEntity
  8
1
  6
Continuous
 62
     7
100
AcDbLine
 10
91.97057898696978
 20
292.9059476238782
 30
0.0
 11
92.25925412156468
 21
292.4059476238782
 31
0.0
  0
LINE
  5
374
330
8F
100
AcDbEntity
  8
1
  6
Continuous
 62
     7
100
AcDbLine
 10
95.41395465994398
 20
292.4059476238782
 30
0.0
 11
94.41395465994398
 21
292.4059476238782
 31
0.0
  0
LINE
  5
375
330
8F
100
AcDbEntity
  8
1
  6
Continuous
 62
     7
100
AcDbLine
 10
94.83058744818298
 20
288.9059476238782
 30
0.0
 11
94.54191231358819
 21
289.4059476238782
 31
0.0
  0
LINE
  5
376
330
8F
100
AcDbEntity
  8
1
  6
Continuous
 62
     7
100
AcDbLine
 10
94.54191231358819
 20
289.4059476238782
 30
0.0
 11
93.83660439075429
 21
292.4059476238782
 31
0.0
  0
LINE
  5
377
330
8F
100
AcDbEntity
  8
1
  6
Continuous
 62
     7
100
AcDbLine
 10
93.83660439075429
 20
292.4059476238782
 30
0.0
 11
94.12527952534899
 21
292.9059476238782
 31
0.0
  0
LINE
  5
378
330
8F
100
AcDbEntity
  8
1
  6
Continuous
 62
     7
100
AcDbLine
 10
94.12527952534899
 20
292.9059476238782
 30
0.0
 11
94.83058744818298
 21
288.9059476238782
 31
0.0
  0
LINE
  5
379
330
8F
100
AcDbEntity
  8
1
  6
Continuous
 62
     7
100
AcDbLine
 10
94.12527952534899
 20
292.9059476238782
 30
0.0
 11
94.41395465994398
 21
292.4059476238782
 31
0.0
  0
LINE
  5
37A
330
8F
100
AcDbEntity
  8
1
  6
Continuous
 62
     7
100
AcDbLine
 10
95.11926258277778
 20
289.4059476238782
 30
0.0
 11
94.83058744818298
 21
288.9059476238782
 31
0.0
  0
LINE
  5
37B
330
8F
100
AcDbEntity
  8
1
  6
Continuous
 62
     7
100
AcDbLine
 10
94.41395465994398
 20
292.4059476238782
 30
0.0
 11
95.11926258277778
 21
289.4059476238782
 31
0.0
  0
LINE
  5
37C
330
8F
100
AcDbEntity
  8
1
  6
Continuous
 62
     7
100
AcDbLine
 10
96.11926258277778
 20
289.4059476238782
 30
0.0
 11
95.11926258277778
 21
289.4059476238782
 31
0.0
  0
LINE
  5
37D
330
8F
100
AcDbEntity
  8
1
  6
Continuous
 62
     7
100
AcDbLine
 10
95.41395465994398
 20
292.4059476238782
 30
0.0
 11
95.70262979453868
 21
292.9059476238782
 31
0.0
  0
LINE
  5
37E
330
8F
100
AcDbEntity
  8
1
  6
Continuous
 62
     7
100
AcDbLine
 10
96.11926258277778
 20
289.4059476238782
 30
0.0
 11
95.41395465994398
 21
292.4059476238782
 31
0.0
  0
LINE
  5
37F
330
8F
100
AcDbEntity
  8
1
  6
Continuous
 62
     7
100
AcDbLine
 10
96.40793771737249
 20
288.9059476238782
 30
0.0
 11
96.11926258277778
 21
289.4059476238782
 31
0.0
  0
LINE
  5
380
330
8F
100
AcDbEntity
  8
1
  6
Continuous
 62
     7
100
AcDbLine
 10
95.99130492913359
 20
292.4059476238782
 30
0.0
 11
96.56977422701829
 21
289.9454508146522
 31
0.0
  0
LINE
  5
381
330
8F
100
AcDbEntity
  8
1
  6
Continuous
 62
     7
100
AcDbLine
 10
95.70262979453868
 20
292.9059476238782
 30
0.0
 11
95.99130492913359
 21
292.4059476238782
 31
0.0
  0
LINE
  5
382
330
8F
100
AcDbEntity
  8
1
  6
Continuous
 62
     7
100
AcDbLine
 10
95.70262979453868
 20
292.9059476238782
 30
0.0
 11
96.40793771737249
 21
288.9059476238782
 31
0.0
  0
LINE
  5
383
330
8F
100
AcDbEntity
  8
1
  6
Continuous
 62
     7
100
AcDbLine
 10
99.81977422701829
 20
294.9059476238782
 30
0.0
 11
99.81977422701829
 21
286.9059476238782
 31
0.0
  0
LINE
  5
384
330
8F
100
AcDbEntity
  8
1
  6
Continuous
 62
     7
100
AcDbLine
 10
99.81977422701829
 20
294.9059476238782
 30
0.0
 11
99.56977422701829
 21
294.6559476238782
 31
0.0
  0
LINE
  5
385
330
8F
100
AcDbEntity
  8
1
  6
Continuous
 62
     7
100
AcDbLine
 10
100.3197742270185
 20
294.9059476238782
 30
0.0
 11
99.81977422701829
 21
294.9059476238782
 31
0.0
  0
LINE
  5
386
330
8F
100
AcDbEntity
  8
1
  6
Continuous
 62
     7
100
AcDbLine
 10
100.3197742270185
 20
286.9059476238782
 30
0.0
 11
99.81977422701829
 21
286.9059476238782
 31
0.0
  0
LINE
  5
387
330
8F
100
AcDbEntity
  8
1
  6
Continuous
 62
     7
100
AcDbLine
 10
100.3197742270185
 20
294.9059476238782
 30
0.0
 11
100.3197742270185
 21
286.9059476238782
 31
0.0
  0
LINE
  5
388
330
8F
100
AcDbEntity
  8
1
  6
Continuous
 62
     7
100
AcDbLine
 10
96.56977422701829
 20
259.1862566811043
 30
0.0
 11
96.40793771737249
 21
258.9059476238782
 31
0.0
  0
LINE
  5
389
330
8F
100
AcDbEntity
  8
1
  6
Continuous
 62
     7
100
AcDbLine
 10
96.56977422701829
 20
262.4059476238782
 30
0.0
 11
95.99130492913359
 21
262.4059476238782
 31
0.0
  0
LINE
  5
38A
330
8F
100
AcDbEntity
  8
1
  6
Continuous
 62
     7
100
AcDbLine
 10
99.56977422701829
 20
257.1559476238782
 30
0.0
 11
99.81977422701829
 21
256.9059476238782
 31
0.0
  0
LINE
  5
38B
330
8F
100
AcDbEntity
  8
1
  6
Continuous
 62
     7
100
AcDbLine
 10
79.37270533092828
 20
261.9919272401498
 30
0.0
 11
78.5181901221972
 21
261.7629605800503
 31
0.0
  0
LINE
  5
38C
330
8F
100
AcDbEntity
  8
1
  6
Continuous
 62
     7
100
AcDbLine
 10
77.90581768650132
 20
261.5988758804385
 30
0.0
 11
77.05130247777025
 21
261.3699092203389
 31
0.0
  0
LINE
  5
38D
330
8F
100
AcDbEntity
  8
1
  6
Continuous
 62
     7
100
AcDbLine
 10
76.4389300420746
 20
261.2058245207271
 30
0.0
 11
75.31977422701833
 21
260.9059476238782
 31
0.0
  0
LINE
  5
38E
330
8F
100
AcDbEntity
  8
1
  6
Continuous
 62
     7
100
AcDbLine
 10
76.77659177622523
 20
260.5155945380487
 30
0.0
 11
75.31977422701833
 21
260.9059476238782
 31
0.0
  0
LINE
  5
38F
330
8F
100
AcDbEntity
  8
1
  6
Continuous
 62
     7
100
AcDbLine
 10
78.38896421192111
 20
260.0835606460058
 30
0.0
 11
77.38896421192111
 21
260.3515098384369
 31
0.0
  0
LINE
  5
390
330
8F
100
AcDbEntity
  8
1
  6
Continuous
 62
     7
100
AcDbLine
 10
80.00133664761688
 20
259.6515267539629
 30
0.0
 11
79.00133664761687
 21
259.919475946394
 31
0.0
  0
LINE
  5
391
330
8F
100
AcDbEntity
  8
1
  6
Continuous
 62
     7
100
AcDbLine
 10
80.91785043837169
 20
259.4059476238782
 30
0.0
 11
80.61370908331259
 21
259.4874420543513
 31
0.0
  0
LINE
  5
392
330
8F
100
AcDbEntity
  8
1
  6
Continuous
 62
     7
100
AcDbLine
 10
81.61370908331259
 20
259.4059476238782
 30
0.0
 11
80.91785043837169
 21
259.4059476238782
 31
0.0
  0
LINE
  5
393
330
8F
100
AcDbEntity
  8
1
  6
Continuous
 62
     7
100
AcDbLine
 10
80.90840116047889
 20
262.4059476238782
 30
0.0
 11
79.98507776662399
 21
262.1560119397616
 31
0.0
  0
LINE
  5
394
330
8F
100
AcDbEntity
  8
1
  6
Continuous
 62
     7
100
AcDbLine
 10
76.79248343266771
 20
261.818196956423
 30
0.0
 11
77.13014516681845
 21
259.9032221023529
 31
0.0
  0
LINE
  5
395
330
8F
100
AcDbEntity
  8
1
  6
Continuous
 62
     7
100
AcDbLine
 10
76.79248343266771
 20
261.818196956423
 30
0.0
 11
76.4389300420746
 21
261.2058245207271
 31
0.0
  0
LINE
  5
396
330
8F
100
AcDbEntity
  8
1
  6
Continuous
 62
     7
100
AcDbLine
 10
76.77659177622523
 20
260.5155945380487
 30
0.0
 11
76.4389300420746
 21
261.2058245207271
 31
0.0
  0
LINE
  5
397
330
8F
100
AcDbEntity
  8
1
  6
Continuous
 62
     7
100
AcDbLine
 10
77.13014516681845
 20
259.9032221023529
 30
0.0
 11
76.77659177622523
 21
260.5155945380487
 31
0.0
  0
LINE
  5
398
330
8F
100
AcDbEntity
  8
1
  6
Continuous
 62
     7
100
AcDbLine
 10
77.38896421192111
 20
260.3515098384369
 30
0.0
 11
77.13014516681845
 21
259.9032221023529
 31
0.0
  0
LINE
  5
399
330
8F
100
AcDbEntity
  8
1
  6
Continuous
 62
     7
100
AcDbLine
 10
77.05130247777025
 20
261.3699092203389
 30
0.0
 11
77.38896421192111
 21
260.3515098384369
 31
0.0
  0
LINE
  5
39A
330
8F
100
AcDbEntity
  8
1
  6
Continuous
 62
     7
100
AcDbLine
 10
76.79248343266771
 20
261.818196956423
 30
0.0
 11
77.05130247777025
 21
261.3699092203389
 31
0.0
  0
LINE
  5
39B
330
8F
100
AcDbEntity
  8
1
  6
Continuous
 62
     7
100
AcDbLine
 10
78.25937107709466
 20
262.2112483161343
 30
0.0
 11
77.90581768650132
 21
261.5988758804385
 31
0.0
  0
LINE
  5
39C
330
8F
100
AcDbEntity
  8
1
  6
Continuous
 62
     7
100
AcDbLine
 10
78.25937107709466
 20
262.2112483161343
 30
0.0
 11
78.74251760251433
 21
259.4711882103101
 31
0.0
  0
LINE
  5
39D
330
8F
100
AcDbEntity
  8
1
  6
Continuous
 62
     7
100
AcDbLine
 10
78.38896421192111
 20
260.0835606460058
 30
0.0
 11
77.90581768650132
 21
261.5988758804385
 31
0.0
  0
LINE
  5
39E
330
8F
100
AcDbEntity
  8
1
  6
Continuous
 62
     7
100
AcDbLine
 10
78.74251760251433
 20
259.4711882103101
 30
0.0
 11
78.38896421192111
 21
260.0835606460058
 31
0.0
  0
LINE
  5
39F
330
8F
100
AcDbEntity
  8
1
  6
Continuous
 62
     7
100
AcDbLine
 10
79.00133664761687
 20
259.919475946394
 30
0.0
 11
78.74251760251433
 21
259.4711882103101
 31
0.0
  0
LINE
  5
3A0
330
8F
100
AcDbEntity
  8
1
  6
Continuous
 62
     7
100
AcDbLine
 10
78.5181901221972
 20
261.7629605800503
 30
0.0
 11
79.00133664761687
 21
259.919475946394
 31
0.0
  0
LINE
  5
3A1
330
8F
100
AcDbEntity
  8
1
  6
Continuous
 62
     7
100
AcDbLine
 10
78.25937107709466
 20
262.2112483161343
 30
0.0
 11
78.5181901221972
 21
261.7629605800503
 31
0.0
  0
LINE
  5
3A2
330
8F
100
AcDbEntity
  8
1
  6
Continuous
 62
     7
100
AcDbLine
 10
80.35489003821019
 20
259.0391543182672
 30
0.0
 11
80.00133664761688
 21
259.6515267539629
 31
0.0
  0
LINE
  5
3A3
330
8F
100
AcDbEntity
  8
1
  6
Continuous
 62
     7
100
AcDbLine
 10
80.61370908331259
 20
259.4874420543513
 30
0.0
 11
80.35489003821019
 21
259.0391543182672
 31
0.0
  0
LINE
  5
3A4
330
8F
100
AcDbEntity
  8
1
  6
Continuous
 62
     7
100
AcDbLine
 10
79.37270533092828
 20
261.9919272401498
 30
0.0
 11
80.00133664761688
 21
259.6515267539629
 31
0.0
  0
LINE
  5
3A5
330
8F
100
AcDbEntity
  8
1
  6
Continuous
 62
     7
100
AcDbLine
 10
79.72625872152159
 20
262.6042996758456
 30
0.0
 11
79.37270533092828
 21
261.9919272401498
 31
0.0
  0
LINE
  5
3A6
330
8F
100
AcDbEntity
  8
1
  6
Continuous
 62
     7
100
AcDbLine
 10
79.72625872152159
 20
262.6042996758456
 30
0.0
 11
79.98507776662399
 21
262.1560119397616
 31
0.0
  0
LINE
  5
3A7
330
8F
100
AcDbEntity
  8
1
  6
Continuous
 62
     7
100
AcDbLine
 10
79.72625872152159
 20
262.6042996758456
 30
0.0
 11
80.35489003821019
 21
259.0391543182672
 31
0.0
  0
LINE
  5
3A8
330
8F
100
AcDbEntity
  8
1
  6
Continuous
 62
     7
100
AcDbLine
 10
79.98507776662399
 20
262.1560119397616
 30
0.0
 11
80.61370908331259
 21
259.4874420543513
 31
0.0
  0
LINE
  5
3A9
330
8F
100
AcDbEntity
  8
1
  6
Continuous
 62
     7
100
AcDbLine
 10
83.76840962169179
 20
259.4059476238782
 30
0.0
 11
82.19105935250228
 21
259.4059476238782
 31
0.0
  0
LINE
  5
3AA
330
8F
100
AcDbEntity
  8
1
  6
Continuous
 62
     7
100
AcDbLine
 10
83.06310169885809
 20
262.4059476238782
 30
0.0
 11
81.48575142966838
 21
262.4059476238782
 31
0.0
  0
LINE
  5
3AB
330
8F
100
AcDbEntity
  8
1
  6
Continuous
 62
     7
100
AcDbLine
 10
85.21780223723728
 20
262.4059476238782
 30
0.0
 11
83.64045196804769
 21
262.4059476238782
 31
0.0
  0
LINE
  5
3AC
330
8F
100
AcDbEntity
  8
1
  6
Continuous
 62
     7
100
AcDbLine
 10
85.92311016007109
 20
259.4059476238782
 30
0.0
 11
84.34575989088148
 21
259.4059476238782
 31
0.0
  0
LINE
  5
3AD
330
8F
100
AcDbEntity
  8
1
  6
Continuous
 62
     7
100
AcDbLine
 10
88.07781069845029
 20
259.4059476238782
 30
0.0
 11
86.50046042926078
 21
259.4059476238782
 31
0.0
  0
LINE
  5
3AE
330
8F
100
AcDbEntity
  8
1
  6
Continuous
 62
     7
100
AcDbLine
 10
87.37250277561658
 20
262.4059476238782
 30
0.0
 11
85.79515250642699
 21
262.4059476238782
 31
0.0
  0
LINE
  5
3AF
330
8F
100
AcDbEntity
  8
1
  6
Continuous
 62
     7
100
AcDbLine
 10
89.52720331399578
 20
262.4059476238782
 30
0.0
 11
87.94985304480609
 21
262.4059476238782
 31
0.0
  0
LINE
  5
3B0
330
8F
100
AcDbEntity
  8
1
  6
Continuous
 62
     7
100
AcDbLine
 10
90.23251123682958
 20
259.4059476238782
 30
0.0
 11
88.65516096764009
 21
259.4059476238782
 31
0.0
  0
LINE
  5
3B1
330
8F
100
AcDbEntity
  8
1
  6
Continuous
 62
     7
100
AcDbLine
 10
92.38721177520888
 20
259.4059476238782
 30
0.0
 11
90.80986150601929
 21
259.4059476238782
 31
0.0
  0
LINE
  5
3B2
330
8F
100
AcDbEntity
  8
1
  6
Continuous
 62
     7
100
AcDbLine
 10
91.68190385237509
 20
262.4059476238782
 30
0.0
 11
90.10455358318539
 21
262.4059476238782
 31
0.0
  0
LINE
  5
3B3
330
8F
100
AcDbEntity
  8
1
  6
Continuous
 62
     7
100
AcDbLine
 10
93.83660439075429
 20
262.4059476238782
 30
0.0
 11
92.25925412156468
 21
262.4059476238782
 31
0.0
  0
LINE
  5
3B4
330
8F
100
AcDbEntity
  8
1
  6
Continuous
 62
     7
100
AcDbLine
 10
94.54191231358819
 20
259.4059476238782
 30
0.0
 11
92.96456204439859
 21
259.4059476238782
 31
0.0
  0
LINE
  5
3B5
330
8F
100
AcDbEntity
  8
1
  6
Continuous
 62
     7
100
AcDbLine
 10
82.19105935250228
 20
259.4059476238782
 30
0.0
 11
81.90238421790738
 21
258.9059476238782
 31
0.0
  0
LINE
  5
3B6
330
8F
100
AcDbEntity
  8
1
  6
Continuous
 62
     7
100
AcDbLine
 10
81.48575142966838
 20
262.4059476238782
 30
0.0
 11
82.19105935250228
 21
259.4059476238782
 31
0.0
  0
LINE
  5
3B7
330
8F
100
AcDbEntity
  8
1
  6
Continuous
 62
     7
100
AcDbLine
 10
81.90238421790738
 20
258.9059476238782
 30
0.0
 11
81.61370908331259
 21
259.4059476238782
 31
0.0
  0
LINE
  5
3B8
330
8F
100
AcDbEntity
  8
1
  6
Continuous
 62
     7
100
AcDbLine
 10
81.61370908331259
 20
259.4059476238782
 30
0.0
 11
80.90840116047889
 21
262.4059476238782
 31
0.0
  0
LINE
  5
3B9
330
8F
100
AcDbEntity
  8
1
  6
Continuous
 62
     7
100
AcDbLine
 10
80.90840116047889
 20
262.4059476238782
 30
0.0
 11
81.19707629507369
 21
262.9059476238782
 31
0.0
  0
LINE
  5
3BA
330
8F
100
AcDbEntity
  8
1
  6
Continuous
 62
     7
100
AcDbLine
 10
81.19707629507369
 20
262.9059476238782
 30
0.0
 11
81.90238421790738
 21
258.9059476238782
 31
0.0
  0
LINE
  5
3BB
330
8F
100
AcDbEntity
  8
1
  6
Continuous
 62
     7
100
AcDbLine
 10
81.19707629507369
 20
262.9059476238782
 30
0.0
 11
81.48575142966838
 21
262.4059476238782
 31
0.0
  0
LINE
  5
3BC
330
8F
100
AcDbEntity
  8
1
  6
Continuous
 62
     7
100
AcDbLine
 10
84.34575989088148
 20
259.4059476238782
 30
0.0
 11
84.05708475628669
 21
258.9059476238782
 31
0.0
  0
LINE
  5
3BD
330
8F
100
AcDbEntity
  8
1
  6
Continuous
 62
     7
100
AcDbLine
 10
83.64045196804769
 20
262.4059476238782
 30
0.0
 11
84.34575989088148
 21
259.4059476238782
 31
0.0
  0
LINE
  5
3BE
330
8F
100
AcDbEntity
  8
1
  6
Continuous
 62
     7
100
AcDbLine
 10
84.05708475628669
 20
258.9059476238782
 30
0.0
 11
83.76840962169179
 21
259.4059476238782
 31
0.0
  0
LINE
  5
3BF
330
8F
100
AcDbEntity
  8
1
  6
Continuous
 62
     7
100
AcDbLine
 10
83.76840962169179
 20
259.4059476238782
 30
0.0
 11
83.06310169885809
 21
262.4059476238782
 31
0.0
  0
LINE
  5
3C0
330
8F
100
AcDbEntity
  8
1
  6
Continuous
 62
     7
100
AcDbLine
 10
83.06310169885809
 20
262.4059476238782
 30
0.0
 11
83.35177683345289
 21
262.9059476238782
 31
0.0
  0
LINE
  5
3C1
330
8F
100
AcDbEntity
  8
1
  6
Continuous
 62
     7
100
AcDbLine
 10
83.35177683345289
 20
262.9059476238782
 30
0.0
 11
84.05708475628669
 21
258.9059476238782
 31
0.0
  0
LINE
  5
3C2
330
8F
100
AcDbEntity
  8
1
  6
Continuous
 62
     7
100
AcDbLine
 10
83.35177683345289
 20
262.9059476238782
 30
0.0
 11
83.64045196804769
 21
262.4059476238782
 31
0.0
  0
LINE
  5
3C3
330
8F
100
AcDbEntity
  8
1
  6
Continuous
 62
     7
100
AcDbLine
 10
86.50046042926078
 20
259.4059476238782
 30
0.0
 11
86.21178529466599
 21
258.9059476238782
 31
0.0
  0
LINE
  5
3C4
330
8F
100
AcDbEntity
  8
1
  6
Continuous
 62
     7
100
AcDbLine
 10
85.79515250642699
 20
262.4059476238782
 30
0.0
 11
86.50046042926078
 21
259.4059476238782
 31
0.0
  0
LINE
  5
3C5
330
8F
100
AcDbEntity
  8
1
  6
Continuous
 62
     7
100
AcDbLine
 10
86.21178529466599
 20
258.9059476238782
 30
0.0
 11
85.92311016007109
 21
259.4059476238782
 31
0.0
  0
LINE
  5
3C6
330
8F
100
AcDbEntity
  8
1
  6
Continuous
 62
     7
100
AcDbLine
 10
85.92311016007109
 20
259.4059476238782
 30
0.0
 11
85.21780223723728
 21
262.4059476238782
 31
0.0
  0
LINE
  5
3C7
330
8F
100
AcDbEntity
  8
1
  6
Continuous
 62
     7
100
AcDbLine
 10
85.21780223723728
 20
262.4059476238782
 30
0.0
 11
85.50647737183199
 21
262.9059476238782
 31
0.0
  0
LINE
  5
3C8
330
8F
100
AcDbEntity
  8
1
  6
Continuous
 62
     7
100
AcDbLine
 10
85.50647737183199
 20
262.9059476238782
 30
0.0
 11
86.21178529466599
 21
258.9059476238782
 31
0.0
  0
LINE
  5
3C9
330
8F
100
AcDbEntity
  8
1
  6
Continuous
 62
     7
100
AcDbLine
 10
85.50647737183199
 20
262.9059476238782
 30
0.0
 11
85.79515250642699
 21
262.4059476238782
 31
0.0
  0
LINE
  5
3CA
330
8F
100
AcDbEntity
  8
1
  6
Continuous
 62
     7
100
AcDbLine
 10
88.65516096764009
 20
259.4059476238782
 30
0.0
 11
88.36648583304529
 21
258.9059476238782
 31
0.0
  0
LINE
  5
3CB
330
8F
100
AcDbEntity
  8
1
  6
Continuous
 62
     7
100
AcDbLine
 10
87.94985304480609
 20
262.4059476238782
 30
0.0
 11
88.65516096764009
 21
259.4059476238782
 31
0.0
  0
LINE
  5
3CC
330
8F
100
AcDbEntity
  8
1
  6
Continuous
 62
     7
100
AcDbLine
 10
88.36648583304529
 20
258.9059476238782
 30
0.0
 11
88.07781069845029
 21
259.4059476238782
 31
0.0
  0
LINE
  5
3CD
330
8F
100
AcDbEntity
  8
1
  6
Continuous
 62
     7
100
AcDbLine
 10
88.07781069845029
 20
259.4059476238782
 30
0.0
 11
87.37250277561658
 21
262.4059476238782
 31
0.0
  0
LINE
  5
3CE
330
8F
100
AcDbEntity
  8
1
  6
Continuous
 62
     7
100
AcDbLine
 10
87.37250277561658
 20
262.4059476238782
 30
0.0
 11
87.66117791021128
 21
262.9059476238782
 31
0.0
  0
LINE
  5
3CF
330
8F
100
AcDbEntity
  8
1
  6
Continuous
 62
     7
100
AcDbLine
 10
87.66117791021128
 20
262.9059476238782
 30
0.0
 11
88.36648583304529
 21
258.9059476238782
 31
0.0
  0
LINE
  5
3D0
330
8F
100
AcDbEntity
  8
1
  6
Continuous
 62
     7
100
AcDbLine
 10
87.66117791021128
 20
262.9059476238782
 30
0.0
 11
87.94985304480609
 21
262.4059476238782
 31
0.0
  0
LINE
  5
3D1
330
8F
100
AcDbEntity
  8
1
  6
Continuous
 62
     7
100
AcDbLine
 10
90.80986150601929
 20
259.4059476238782
 30
0.0
 11
90.52118637142439
 21
258.9059476238782
 31
0.0
  0
LINE
  5
3D2
330
8F
100
AcDbEntity
  8
1
  6
Continuous
 62
     7
100
AcDbLine
 10
90.10455358318539
 20
262.4059476238782
 30
0.0
 11
90.80986150601929
 21
259.4059476238782
 31
0.0
  0
LINE
  5
3D3
330
8F
100
AcDbEntity
  8
1
  6
Continuous
 62
     7
100
AcDbLine
 10
90.52118637142439
 20
258.9059476238782
 30
0.0
 11
90.23251123682958
 21
259.4059476238782
 31
0.0
  0
LINE
  5
3D4
330
8F
100
AcDbEntity
  8
1
  6
Continuous
 62
     7
100
AcDbLine
 10
90.23251123682958
 20
259.4059476238782
 30
0.0
 11
89.52720331399578
 21
262.4059476238782
 31
0.0
  0
LINE
  5
3D5
330
8F
100
AcDbEntity
  8
1
  6
Continuous
 62
     7
100
AcDbLine
 10
89.52720331399578
 20
262.4059476238782
 30
0.0
 11
89.81587844859048
 21
262.9059476238782
 31
0.0
  0
LINE
  5
3D6
330
8F
100
AcDbEntity
  8
1
  6
Continuous
 62
     7
100
AcDbLine
 10
89.81587844859048
 20
262.9059476238782
 30
0.0
 11
90.52118637142439
 21
258.9059476238782
 31
0.0
  0
LINE
  5
3D7
330
8F
100
AcDbEntity
  8
1
  6
Continuous
 62
     7
100
AcDbLine
 10
89.81587844859048
 20
262.9059476238782
 30
0.0
 11
90.10455358318539
 21
262.4059476238782
 31
0.0
  0
LINE
  5
3D8
330
8F
100
AcDbEntity
  8
1
  6
Continuous
 62
     7
100
AcDbLine
 10
92.96456204439859
 20
259.4059476238782
 30
0.0
 11
92.67588690980368
 21
258.9059476238782
 31
0.0
  0
LINE
  5
3D9
330
8F
100
AcDbEntity
  8
1
  6
Continuous
 62
     7
100
AcDbLine
 10
92.25925412156468
 20
262.4059476238782
 30
0.0
 11
92.96456204439859
 21
259.4059476238782
 31
0.0
  0
LINE
  5
3DA
330
8F
100
AcDbEntity
  8
1
  6
Continuous
 62
     7
100
AcDbLine
 10
92.67588690980368
 20
258.9059476238782
 30
0.0
 11
92.38721177520888
 21
259.4059476238782
 31
0.0
  0
LINE
  5
3DB
330
8F
100
AcDbEntity
  8
1
  6
Continuous
 62
     7
100
AcDbLine
 10
92.38721177520888
 20
259.4059476238782
 30
0.0
 11
91.68190385237509
 21
262.4059476238782
 31
0.0
  0
LINE
  5
3DC
330
8F
100
AcDbEntity
  8
1
  6
Continuous
 62
     7
100
AcDbLine
 10
91.68190385237509
 20
262.4059476238782
 30
0.0
 11
91.97057898696978
 21
262.9059476238782
 31
0.0
  0
LINE
  5
3DD
330
8F
100
AcDbEntity
  8
1
  6
Continuous
 62
     7
100
AcDbLine
 10
91.97057898696978
 20
262.9059476238782
 30
0.0
 11
92.67588690980368
 21
258.9059476238782
 31
0.0
  0
LINE
  5
3DE
330
8F
100
AcDbEntity
  8
1
  6
Continuous
 62
     7
100
AcDbLine
 10
91.97057898696978
 20
262.9059476238782
 30
0.0
 11
92.25925412156468
 21
262.4059476238782
 31
0.0
  0
LINE
  5
3DF
330
8F
100
AcDbEntity
  8
1
  6
Continuous
 62
     7
100
AcDbLine
 10
95.41395465994398
 20
262.4059476238782
 30
0.0
 11
94.41395465994398
 21
262.4059476238782
 31
0.0
  0
LINE
  5
3E0
330
8F
100
AcDbEntity
  8
1
  6
Continuous
 62
     7
100
AcDbLine
 10
94.83058744818298
 20
258.9059476238782
 30
0.0
 11
94.54191231358819
 21
259.4059476238782
 31
0.0
  0
LINE
  5
3E1
330
8F
100
AcDbEntity
  8
1
  6
Continuous
 62
     7
100
AcDbLine
 10
94.54191231358819
 20
259.4059476238782
 30
0.0
 11
93.83660439075429
 21
262.4059476238782
 31
0.0
  0
LINE
  5
3E2
330
8F
100
AcDbEntity
  8
1
  6
Continuous
 62
     7
100
AcDbLine
 10
93.83660439075429
 20
262.4059476238782
 30
0.0
 11
94.12527952534899
 21
262.9059476238782
 31
0.0
  0
LINE
  5
3E3
330
8F
100
AcDbEntity
  8
1
  6
Continuous
 62
     7
100
AcDbLine
 10
94.12527952534899
 20
262.9059476238782
 30
0.0
 11
94.83058744818298
 21
258.9059476238782
 31
0.0
  0
LINE
  5
3E4
330
8F
100
AcDbEntity
  8
1
  6
Continuous
 62
     7
100
AcDbLine
 10
94.12527952534899
 20
262.9059476238782
 30
0.0
 11
94.41395465994398
 21
262.4059476238782
 31
0.0
  0
LINE
  5
3E5
330
8F
100
AcDbEntity
  8
1
  6
Continuous
 62
     7
100
AcDbLine
 10
95.11926258277778
 20
259.4059476238782
 30
0.0
 11
94.83058744818298
 21
258.9059476238782
 31
0.0
  0
LINE
  5
3E6
330
8F
100
AcDbEntity
  8
1
  6
Continuous
 62
     7
100
AcDbLine
 10
94.41395465994398
 20
262.4059476238782
 30
0.0
 11
95.11926258277778
 21
259.4059476238782
 31
0.0
  0
LINE
  5
3E7
330
8F
100
AcDbEntity
  8
1
  6
Continuous
 62
     7
100
AcDbLine
 10
96.11926258277778
 20
259.4059476238782
 30
0.0
 11
95.11926258277778
 21
259.4059476238782
 31
0.0
  0
LINE
  5
3E8
330
8F
100
AcDbEntity
  8
1
  6
Continuous
 62
     7
100
AcDbLine
 10
95.41395465994398
 20
262.4059476238782
 30
0.0
 11
95.70262979453868
 21
262.9059476238782
 31
0.0
  0
LINE
  5
3E9
330
8F
100
AcDbEntity
  8
1
  6
Continuous
 62
     7
100
AcDbLine
 10
96.11926258277778
 20
259.4059476238782
 30
0.0
 11
95.41395465994398
 21
262.4059476238782
 31
0.0
  0
LINE
  5
3EA
330
8F
100
AcDbEntity
  8
1
  6
Continuous
 62
     7
100
AcDbLine
 10
96.40793771737249
 20
258.9059476238782
 30
0.0
 11
96.11926258277778
 21
259.4059476238782
 31
0.0
  0
LINE
  5
3EB
330
8F
100
AcDbEntity
  8
1
  6
Continuous
 62
     7
100
AcDbLine
 10
95.99130492913359
 20
262.4059476238782
 30
0.0
 11
96.56977422701829
 21
259.9454508146522
 31
0.0
  0
LINE
  5
3EC
330
8F
100
AcDbEntity
  8
1
  6
Continuous
 62
     7
100
AcDbLine
 10
95.70262979453868
 20
262.9059476238782
 30
0.0
 11
95.99130492913359
 21
262.4059476238782
 31
0.0
  0
LINE
  5
3ED
330
8F
100
AcDbEntity
  8
1
  6
Continuous
 62
     7
100
AcDbLine
 10
95.70262979453868
 20
262.9059476238782
 30
0.0
 11
96.40793771737249
 21
258.9059476238782
 31
0.0
  0
LINE
  5
3EE
330
8F
100
AcDbEntity
  8
1
  6
Continuous
 62
     7
100
AcDbLine
 10
99.81977422701829
 20
264.9059476238782
 30
0.0
 11
99.81977422701829
 21
256.9059476238782
 31
0.0
  0
LINE
  5
3EF
330
8F
100
AcDbEntity
  8
1
  6
Continuous
 62
     7
100
AcDbLine
 10
99.81977422701829
 20
264.9059476238782
 30
0.0
 11
99.56977422701829
 21
264.6559476238782
 31
0.0
  0
LINE
  5
3F0
330
8F
100
AcDbEntity
  8
1
  6
Continuous
 62
     7
100
AcDbLine
 10
100.3197742270185
 20
264.9059476238782
 30
0.0
 11
99.81977422701829
 21
264.9059476238782
 31
0.0
  0
LINE
  5
3F1
330
8F
100
AcDbEntity
  8
1
  6
Continuous
 62
     7
100
AcDbLine
 10
100.3197742270185
 20
256.9059476238782
 30
0.0
 11
99.81977422701829
 21
256.9059476238782
 31
0.0
  0
LINE
  5
3F2
330
8F
100
AcDbEntity
  8
1
  6
Continuous
 62
     7
100
AcDbLine
 10
100.3197742270185
 20
264.9059476238782
 30
0.0
 11
100.3197742270185
 21
256.9059476238782
 31
0.0
  0
ENDBLK
  5
91
330
8F
100
AcDbEntity
  8
0
100
AcDbBlockEnd
  0
BLOCK
  5
97
330
92
100
AcDbEntity
  8
0
100
AcDbBlockBegin
  2
H862S__27
 70
     0
 71
     0
 10
75.31977422701833
 20
254.4059476238782
 30
0.0
  3
H862S__27
  1

  0
INSERT
  5
93
330
92
100
AcDbEntity
  8
0
100
AcDbBlockReference
  2
H862-A__23
 10
169.2216870960762
 20
370.552862504979
 30
0.0
  0
INSERT
  5
94
330
92
100
AcDbEntity
  8
0
100
AcDbBlockReference
  2
H862-L__24
 10
143.074963363852
 20
275.9059476238782
 30
0.0
  0
INSERT
  5
95
330
92
100
AcDbEntity
  8
1
100
AcDbBlockReference
  2
H86F-A__25
 10
56.56977422701833
 20
320.4059476238782
 30
0.0
  0
INSERT
  5
96
330
92
100
AcDbEntity
  8
1
100
AcDbBlockReference
  2
H86F-B__26
 10
49.48951314773875
 20
284.9801612960758
 30
0.0
  0
ENDBLK
  5
98
330
92
100
AcDbEntity
  8
0
100
AcDbBlockEnd
  0
BLOCK
  5
9A
330
99
100
AcDbEntity
  8
0
100
AcDbBlockBegin
  2
TOP__28
 70
     0
 71
     0
 10
-163.1802257729817
 20
375.4083835736185
 30
0.0
  3
TOP__28
  1

  0
LINE
  5
3F3
330
99
100
AcDbEntity
  8
1
  6
Continuous
 62
     7
100
AcDbLine
 10
205.5360573696098
 20
211.5850168360741
 30
0.0
 11
205.0190736461735
 21
209.6556073135228
 31
0.0
  0
LINE
  5
3F4
330
99
100
AcDbEntity
  8
1
  6
Continuous
 62
     7
100
AcDbLine
 10
194.5015107237882
 20
227.9850168360741
 30
0.0
 11
196.8223618977384
 21
227.9850168360741
 31
0.0
  0
LINE
  5
3F5
330
99
100
AcDbEntity
  8
1
  6
Continuous
 62
     7
100
AcDbLine
 10
196.6337562647765
 20
226.9850168360741
 30
0.0
 11
194.6901163567501
 21
226.9850168360741
 31
0.0
  0
LINE
  5
3F6
330
99
100
AcDbEntity
  8
1
  6
Continuous
 62
     7
100
AcDbLine
 10
204.5361107330289
 20
209.2850168360741
 30
0.0
 11
199.8197742270185
 21
209.2850168360741
 31
0.0
  0
LINE
  5
3F7
330
99
100
AcDbEntity
  8
1
  6
Continuous
 62
     7
100
AcDbLine
 10
199.8197742270185
 20
209.2850168360741
 30
0.0
 11
195.1034377210079
 21
209.2850168360741
 31
0.0
  0
LINE
  5
3F8
330
99
100
AcDbEntity
  8
1
  6
Continuous
 62
     7
100
AcDbLine
 10
194.6204748078631
 20
209.6556073135228
 30
0.0
 11
194.1034910844268
 21
211.5850168360741
 31
0.0
  0
LINE
  5
3F9
330
99
100
AcDbEntity
  8
1
  6
Continuous
 62
     7
100
AcDbLine
 10
192.8915709967422
 20
233.9777443936028
 30
0.0
 11
192.8915709967422
 21
239.8341508541538
 31
0.0
  0
LINE
  5
3FA
330
99
100
AcDbEntity
  8
1
  6
Continuous
 62
     7
100
AcDbLine
 10
206.7479774572936
 20
239.8341508541538
 30
0.0
 11
206.7479774572936
 21
233.9777443936028
 31
0.0
  0
LINE
  5
3FB
330
99
100
AcDbEntity
  8
1
  6
Continuous
 62
     7
100
AcDbLine
 10
185.9633677664673
 20
233.9777443936028
 30
0.0
 11
186.7755455929611
 21
233.5088333068468
 31
0.0
  0
LINE
  5
3FC
330
99
100
AcDbEntity
  8
1
  6
Continuous
 62
     7
100
AcDbLine
 10
211.8197742270185
 20
232.9059476238782
 30
0.0
 11
212.8640028610784
 21
233.5088333068483
 31
0.0
  0
LINE
  5
3FD
330
99
100
AcDbEntity
  8
1
  6
Continuous
 62
     7
100
AcDbLine
 10
187.8197742270185
 20
240.9059476238782
 30
0.0
 11
211.8197742270185
 21
240.9059476238782
 31
0.0
  0
LINE
  5
3FE
330
99
100
AcDbEntity
  8
1
  6
Continuous
 62
     7
100
AcDbLine
 10
208.6697742270184
 20
232.9059476238782
 30
0.0
 11
190.9697742270183
 21
232.9059476238782
 31
0.0
  0
LINE
  5
3FF
330
99
100
AcDbEntity
  8
1
  6
Continuous
 62
     7
100
AcDbLine
 10
187.8197742270185
 20
240.9059476238782
 30
0.0
 11
185.9633677664673
 21
239.8341508541538
 31
0.0
  0
LINE
  5
400
330
99
100
AcDbEntity
  8
1
  6
Continuous
 62
     7
100
AcDbLine
 10
185.9633677664673
 20
239.8341508541538
 30
0.0
 11
185.9633677664673
 21
233.9777443936028
 31
0.0
  0
LINE
  5
401
330
99
100
AcDbEntity
  8
1
  6
Continuous
 62
     7
100
AcDbLine
 10
186.7755455929611
 20
233.5088333068468
 30
0.0
 11
187.8197742270185
 21
232.9059476238782
 31
0.0
  0
LINE
  5
402
330
99
100
AcDbEntity
  8
1
  6
Continuous
 62
     7
100
AcDbLine
 10
212.8640028610784
 20
233.5088333068483
 30
0.0
 11
213.6761806875694
 21
233.9777443936028
 31
0.0
  0
LINE
  5
403
330
99
100
AcDbEntity
  8
1
  6
Continuous
 62
     7
100
AcDbLine
 10
213.6761806875694
 20
233.9777443936028
 30
0.0
 11
213.6761806875694
 21
239.8341508541538
 31
0.0
  0
LINE
  5
404
330
99
100
AcDbEntity
  8
1
  6
Continuous
 62
     7
100
AcDbLine
 10
213.6761806875694
 20
239.8341508541538
 30
0.0
 11
211.8197742270185
 21
240.9059476238782
 31
0.0
  0
LINE
  5
405
330
99
100
AcDbEntity
  8
1
  6
Continuous
 62
     7
100
AcDbLine
 10
208.6697742270184
 20
232.9059476238782
 30
0.0
 11
211.8197742270185
 21
232.9059476238782
 31
0.0
  0
LINE
  5
406
330
99
100
AcDbEntity
  8
1
  6
Continuous
 62
     7
100
AcDbLine
 10
187.8197742270185
 20
232.9059476238782
 30
0.0
 11
190.9697742270183
 21
232.9059476238782
 31
0.0
  0
ARC
  5
407
330
99
100
AcDbEntity
  8
1
  6
Continuous
 62
     7
100
AcDbCircle
 10
189.4274693816047
 20
234.7719730276624
 30
0.0
 40
6.133974596215672
100
AcDbArc
 50
55.61575253196187
 51
115.6157525319246
  0
ARC
  5
408
330
99
100
AcDbEntity
  8
1
  6
Continuous
 62
     7
100
AcDbCircle
 10
210.2120790724315
 20
234.7719730276624
 30
0.0
 40
6.133974596215984
100
AcDbArc
 50
64.38424746804149
 51
124.3842474680414
  0
ARC
  5
409
330
99
100
AcDbEntity
  8
1
  6
Continuous
 62
     7
100
AcDbCircle
 10
199.819774227018
 20
217.9777443936048
 30
0.0
 40
22.92820323027359
100
AcDbArc
 50
72.41204622600452
 51
107.587953773996
  0
ARC
  5
40A
330
99
100
AcDbEntity
  8
1
  6
Continuous
 62
     7
100
AcDbCircle
 10
189.4274693816047
 20
239.0399222200942
 30
0.0
 40
6.133974596215917
100
AcDbArc
 50
-115.6157525319246
 51
-55.61575253196201
  0
ARC
  5
40B
330
99
100
AcDbEntity
  8
1
  6
Continuous
 62
     7
100
AcDbCircle
 10
199.819774227018
 20
255.8341508541518
 30
0.0
 40
22.92820323027369
100
AcDbArc
 50
-107.587953773996
 51
-72.41204622600453
  0
ARC
  5
40C
330
99
100
AcDbEntity
  8
1
  6
Continuous
 62
     7
100
AcDbCircle
 10
210.2120790724315
 20
239.0399222200942
 30
0.0
 40
6.133974596215936
100
AcDbArc
 50
-124.3842474680413
 51
-64.38424746804161
  0
ARC
  5
40D
330
99
100
AcDbEntity
  8
1
  6
Continuous
 62
     7
100
AcDbCircle
 10
195.103437721008
 20
209.7850168360741
 30
0.0
 40
0.5000000000003521
100
AcDbArc
 50
-165.0000000000062
 51
-90.00000000000978
  0
ARC
  5
40E
330
99
100
AcDbEntity
  8
1
  6
Continuous
 62
     7
100
AcDbCircle
 10
204.5361107330289
 20
209.7850168360741
 30
0.0
 40
0.5
100
AcDbArc
 50
-90.0
 51
-15.0000000000022
  0
ENDBLK
  5
9B
330
99
100
AcDbEntity
  8
0
100
AcDbBlockEnd
  0
BLOCK
  5
9D
330
9C
100
AcDbEntity
  8
0
100
AcDbBlockBegin
  2
_J__A4
 70
     0
 71
     0
 10
0.0
 20
0.0
 30
0.0
  3
_J__A4
  1

  0
POINT
  5
40F
330
9C
100
AcDbEntity
  8
1
 62
     4
100
AcDbPoint
 10
34.0
 20
34.00000000000001
 30
0.0
  0
POINT
  5
410
330
9C
100
AcDbEntity
  8
1
 62
     4
100
AcDbPoint
 10
57.0
 20
12.25
 30
0.0
  0
POINT
  5
411
330
9C
100
AcDbEntity
  8
1
 62
     4
100
AcDbPoint
 10
57.0
 20
20.75000000000001
 30
0.0
  0
POINT
  5
412
330
9C
100
AcDbEntity
  8
1
 62
     4
100
AcDbPoint
 10
57.0
 20
24.75000000000001
 30
0.0
  0
POINT
  5
413
330
9C
100
AcDbEntity
  8
1
 62
     4
100
AcDbPoint
 10
57.0
 20
16.25
 30
0.0
  0
POINT
  5
414
330
9C
100
AcDbEntity
  8
1
 62
     4
100
AcDbPoint
 10
157.5
 20
19.00000000000001
 30
0.0
  0
POINT
  5
415
330
9C
100
AcDbEntity
  8
1
 62
     4
100
AcDbPoint
 10
47.5
 20
282.0000000000003
 30
0.0
  0
POINT
  5
416
330
9C
100
AcDbEntity
  8
1
 62
     4
100
AcDbPoint
 10
57.0
 20
22.75000000000001
 30
0.0
  0
POINT
  5
417
330
9C
100
AcDbEntity
  8
1
 62
     4
100
AcDbPoint
 10
57.0
 20
14.25
 30
0.0
  0
POINT
  5
418
330
9C
100
AcDbEntity
  8
1
 62
     4
100
AcDbPoint
 10
157.5
 20
12.5
 30
0.0
  0
POINT
  5
419
330
9C
100
AcDbEntity
  8
1
 62
     4
100
AcDbPoint
 10
163.25
 20
12.5
 30
0.0
  0
POINT
  5
41A
330
9C
100
AcDbEntity
  8
1
 62
     4
100
AcDbPoint
 10
151.75
 20
12.5
 30
0.0
  0
POINT
  5
41B
330
9C
100
AcDbEntity
  8
1
 62
     4
100
AcDbPoint
 10
134.75
 20
12.5
 30
0.0
  0
POINT
  5
41C
330
9C
100
AcDbEntity
  8
1
 62
     4
100
AcDbPoint
 10
146.25
 20
12.5
 30
0.0
  0
POINT
  5
41D
330
9C
100
AcDbEntity
  8
1
 62
     4
100
AcDbPoint
 10
140.5
 20
12.5
 30
0.0
  0
POINT
  5
41E
330
9C
100
AcDbEntity
  8
1
 62
     4
100
AcDbPoint
 10
140.5
 20
19.00000000000001
 30
0.0
  0
POINT
  5
41F
330
9C
100
AcDbEntity
  8
1
 62
     4
100
AcDbPoint
 10
117.75
 20
12.5
 30
0.0
  0
POINT
  5
420
330
9C
100
AcDbEntity
  8
1
 62
     4
100
AcDbPoint
 10
129.25
 20
12.5
 30
0.0
  0
POINT
  5
421
330
9C
100
AcDbEntity
  8
1
 62
     4
100
AcDbPoint
 10
123.5
 20
12.5
 30
0.0
  0
POINT
  5
422
330
9C
100
AcDbEntity
  8
1
 62
     4
100
AcDbPoint
 10
123.5
 20
19.00000000000001
 30
0.0
  0
POINT
  5
423
330
9C
100
AcDbEntity
  8
1
 62
     4
100
AcDbPoint
 10
100.75
 20
12.5
 30
0.0
  0
POINT
  5
424
330
9C
100
AcDbEntity
  8
1
 62
     4
100
AcDbPoint
 10
112.25
 20
12.5
 30
0.0
  0
POINT
  5
425
330
9C
100
AcDbEntity
  8
1
 62
     4
100
AcDbPoint
 10
106.5
 20
12.5
 30
0.0
  0
POINT
  5
426
330
9C
100
AcDbEntity
  8
1
 62
     4
100
AcDbPoint
 10
106.5
 20
19.00000000000001
 30
0.0
  0
POINT
  5
427
330
9C
100
AcDbEntity
  8
1
 62
     4
100
AcDbPoint
 10
85.25
 20
17.0
 30
0.0
  0
POINT
  5
428
330
9C
100
AcDbEntity
  8
1
 62
     4
100
AcDbPoint
 10
93.75
 20
17.0
 30
0.0
  0
LINE
  5
429
330
9C
100
AcDbEntity
  8
1
  6
Continuous
 62
     2
100
AcDbLine
 10
81.0
 20
27.00000000000001
 30
0.0
 11
81.0
 21
10.0
 31
0.0
  0
LINE
  5
42A
330
9C
100
AcDbEntity
  8
1
  6
DOT_CENTER
 62
     2
100
AcDbLine
 10
187.0
 20
26.50000000000001
 30
0.0
 11
187.0
 21
20.50000000000001
 31
0.0
  0
LINE
  5
42B
330
9C
100
AcDbEntity
  8
1
  6
DOT_CENTER
 62
     2
100
AcDbLine
 10
184.0
 20
23.50000000000001
 30
0.0
 11
197.0
 21
23.50000000000001
 31
0.0
  0
LINE
  5
42C
330
9C
100
AcDbEntity
  8
1
  6
Continuous
 62
     7
100
AcDbLine
 10
196.0
 20
21.50000000000001
 30
0.0
 11
191.0
 21
22.30000000000001
 31
0.0
  0
LINE
  5
42D
330
9C
100
AcDbEntity
  8
1
  6
Continuous
 62
     7
100
AcDbLine
 10
196.0
 20
25.50000000000001
 30
0.0
 11
196.0
 21
21.50000000000001
 31
0.0
  0
LINE
  5
42E
330
9C
100
AcDbEntity
  8
1
  6
Continuous
 62
     7
100
AcDbLine
 10
191.0
 20
24.70000000000001
 30
0.0
 11
196.0
 21
25.50000000000001
 31
0.0
  0
LINE
  5
42F
330
9C
100
AcDbEntity
  8
1
  6
Continuous
 62
     7
100
AcDbLine
 10
191.0
 20
24.70000000000001
 30
0.0
 11
191.0
 21
22.30000000000001
 31
0.0
  0
LINE
  5
430
330
9C
100
AcDbEntity
  8
1
  6
Continuous
 62
     2
100
AcDbLine
 10
33.0
 20
27.0
 30
0.0
 11
33.0
 21
10.0
 31
0.0
  0
LINE
  5
431
330
9C
100
AcDbEntity
  8
1
  6
Continuous
 62
     2
100
AcDbLine
 10
25.0
 20
18.50000000000001
 30
0.0
 11
81.0
 21
18.50000000000001
 31
0.0
  0
LINE
  5
432
330
9C
100
AcDbEntity
  8
1
  6
Continuous
 62
     7
100
AcDbLine
 10
200.0
 20
287.0000000000003
 30
0.0
 11
105.0
 21
287.0000000000003
 31
0.0
  0
LINE
  5
433
330
9C
100
AcDbEntity
  8
1
  6
Continuous
 62
     7
100
AcDbLine
 10
200.0
 20
10.0
 30
0.0
 11
200.0
 21
148.5
 31
0.0
  0
LINE
  5
434
330
9C
100
AcDbEntity
  8
1
  6
Continuous
 62
     7
100
AcDbLine
 10
25.0
 20
10.0
 30
0.0
 11
105.0
 21
10.0
 31
0.0
  0
LINE
  5
435
330
9C
100
AcDbEntity
  8
1
  6
PHANTOM
 62
     4
100
AcDbLine
 10
0.0
 20
297.0
 30
0.0
 11
0.0
 21
0.0
 31
0.0
  0
LINE
  5
436
330
9C
100
AcDbEntity
  8
1
  6
PHANTOM
 62
     4
100
AcDbLine
 10
210.0
 20
297.0
 30
0.0
 11
0.0
 21
297.0
 31
0.0
  0
LINE
  5
437
330
9C
100
AcDbEntity
  8
1
  6
PHANTOM
 62
     4
100
AcDbLine
 10
210.0
 20
0.0
 30
0.0
 11
210.0
 21
297.0
 31
0.0
  0
LINE
  5
438
330
9C
100
AcDbEntity
  8
1
  6
PHANTOM
 62
     4
100
AcDbLine
 10
0.0
 20
0.0
 30
0.0
 11
210.0
 21
0.0
 31
0.0
  0
LINE
  5
439
330
9C
100
AcDbEntity
  8
1
  6
Continuous
 62
     7
100
AcDbLine
 10
25.0
 20
41.0
 30
0.0
 11
200.0
 21
41.0
 31
0.0
  0
LINE
  5
43A
330
9C
100
AcDbEntity
  8
1
  6
Continuous
 62
     7
100
AcDbLine
 10
200.0
 20
27.00000000000001
 30
0.0
 11
25.0
 21
27.00000000000001
 31
0.0
  0
LINE
  5
43B
330
9C
100
AcDbEntity
  8
1
  6
Continuous
 62
     2
100
AcDbLine
 10
33.0
 20
41.00000000000001
 30
0.0
 11
33.0
 21
27.0
 31
0.0
  0
LINE
  5
43C
330
9C
100
AcDbEntity
  8
1
  6
Continuous
 62
     2
100
AcDbLine
 10
55.0
 20
287.0000000000003
 30
0.0
 11
55.0
 21
277.0000000000003
 31
0.0
  0
LINE
  5
43D
330
9C
100
AcDbEntity
  8
1
  6
Continuous
 62
     2
100
AcDbLine
 10
40.0
 20
287.0000000000003
 30
0.0
 11
40.0
 21
277.0000000000003
 31
0.0
  0
LINE
  5
43E
330
9C
100
AcDbEntity
  8
1
  6
Continuous
 62
     7
100
AcDbLine
 10
25.0
 20
10.0
 30
0.0
 11
25.0
 21
148.5
 31
0.0
  0
LINE
  5
43F
330
9C
100
AcDbEntity
  8
1
  6
Continuous
 62
     2
100
AcDbLine
 10
55.0
 20
277.0000000000003
 30
0.0
 11
25.0
 21
277.0000000000003
 31
0.0
  0
LINE
  5
440
330
9C
100
AcDbEntity
  8
1
  6
Continuous
 62
     2
100
AcDbLine
 10
166.0
 20
27.00000000000001
 30
0.0
 11
166.0
 21
10.0
 31
0.0
  0
LINE
  5
441
330
9C
100
AcDbEntity
  8
1
  6
Continuous
 62
     2
100
AcDbLine
 10
132.0
 20
27.00000000000001
 30
0.0
 11
132.0
 21
9.99999999999999
 31
0.0
  0
LINE
  5
442
330
9C
100
AcDbEntity
  8
1
  6
Continuous
 62
     2
100
AcDbLine
 10
149.0
 20
27.00000000000001
 30
0.0
 11
149.0
 21
10.0
 31
0.0
  0
LINE
  5
443
330
9C
100
AcDbEntity
  8
1
  6
Continuous
 62
     2
100
AcDbLine
 10
115.0
 20
27.00000000000001
 30
0.0
 11
115.0
 21
9.99999999999999
 31
0.0
  0
LINE
  5
444
330
9C
100
AcDbEntity
  8
1
  6
Continuous
 62
     2
100
AcDbLine
 10
98.0
 20
27.00000000000001
 30
0.0
 11
98.0
 21
9.99999999999999
 31
0.0
  0
LINE
  5
445
330
9C
100
AcDbEntity
  8
1
  6
Continuous
 62
     2
100
AcDbLine
 10
166.0
 20
20.00000000000001
 30
0.0
 11
200.0
 21
20.00000000000001
 31
0.0
  0
LINE
  5
446
330
9C
100
AcDbEntity
  8
1
  6
Continuous
 62
     2
100
AcDbLine
 10
105.0
 20
287.0000000000003
 30
0.0
 11
105.0
 21
292.0000000000003
 31
0.0
  0
LINE
  5
447
330
9C
100
AcDbEntity
  8
1
  6
Continuous
 62
     7
100
AcDbLine
 10
105.0
 20
287.0000000000003
 30
0.0
 11
25.0
 21
287.0000000000003
 31
0.0
  0
LINE
  5
448
330
9C
100
AcDbEntity
  8
1
  6
Continuous
 62
     2
100
AcDbLine
 10
25.0
 20
148.5
 30
0.0
 11
20.0
 21
148.5
 31
0.0
  0
LINE
  5
449
330
9C
100
AcDbEntity
  8
1
  6
Continuous
 62
     7
100
AcDbLine
 10
25.0
 20
148.5
 30
0.0
 11
25.0
 21
287.0000000000003
 31
0.0
  0
LINE
  5
44A
330
9C
100
AcDbEntity
  8
1
  6
Continuous
 62
     2
100
AcDbLine
 10
200.0
 20
148.5
 30
0.0
 11
205.0
 21
148.5
 31
0.0
  0
LINE
  5
44B
330
9C
100
AcDbEntity
  8
1
  6
Continuous
 62
     7
100
AcDbLine
 10
200.0
 20
148.5
 30
0.0
 11
200.0
 21
287.0000000000003
 31
0.0
  0
LINE
  5
44C
330
9C
100
AcDbEntity
  8
1
  6
Continuous
 62
     2
100
AcDbLine
 10
105.0
 20
10.0
 30
0.0
 11
105.0
 21
5.0
 31
0.0
  0
LINE
  5
44D
330
9C
100
AcDbEntity
  8
1
  6
Continuous
 62
     7
100
AcDbLine
 10
105.0
 20
10.0
 30
0.0
 11
200.0
 21
10.0
 31
0.0
  0
CIRCLE
  5
44E
330
9C
100
AcDbEntity
  8
1
  6
DOT_CENTER
 62
     7
100
AcDbCircle
 10
89.5
 20
18.0
 30
0.0
 40
0.1000000000000227
  0
CIRCLE
  5
44F
330
9C
100
AcDbEntity
  8
1
  6
DOT_CENTER
 62
     7
100
AcDbCircle
 10
89.5
 20
16.0
 30
0.0
 40
0.1000000000000227
  0
CIRCLE
  5
450
330
9C
100
AcDbEntity
  8
1
  6
Continuous
 62
     7
100
AcDbCircle
 10
187.0
 20
23.50000000000001
 30
0.0
 40
2.0
  0
CIRCLE
  5
451
330
9C
100
AcDbEntity
  8
1
  6
Continuous
 62
     7
100
AcDbCircle
 10
187.0
 20
23.50000000000001
 30
0.0
 40
1.200000000000102
  0
CIRCLE
  5
452
330
9C
100
AcDbEntity
  8
1
  6
Continuous
 62
     7
100
AcDbCircle
 10
154.5
 20
12.5
 30
0.0
 40
0.3000000000000114
  0
CIRCLE
  5
453
330
9C
100
AcDbEntity
  8
1
  6
Continuous
 62
     7
100
AcDbCircle
 10
160.5
 20
12.5
 30
0.0
 40
0.3000000000000114
  0
CIRCLE
  5
454
330
9C
100
AcDbEntity
  8
1
  6
Continuous
 62
     7
100
AcDbCircle
 10
143.5
 20
12.5
 30
0.0
 40
0.3000000000000114
  0
CIRCLE
  5
455
330
9C
100
AcDbEntity
  8
1
  6
Continuous
 62
     7
100
AcDbCircle
 10
137.5
 20
12.5
 30
0.0
 40
0.3000000000000114
  0
CIRCLE
  5
456
330
9C
100
AcDbEntity
  8
1
  6
Continuous
 62
     7
100
AcDbCircle
 10
126.5
 20
12.5
 30
0.0
 40
0.2999999999999972
  0
CIRCLE
  5
457
330
9C
100
AcDbEntity
  8
1
  6
Continuous
 62
     7
100
AcDbCircle
 10
120.5
 20
12.5
 30
0.0
 40
0.2999999999999972
  0
CIRCLE
  5
458
330
9C
100
AcDbEntity
  8
1
  6
Continuous
 62
     7
100
AcDbCircle
 10
109.5
 20
12.5
 30
0.0
 40
0.2999999999999972
  0
CIRCLE
  5
459
330
9C
100
AcDbEntity
  8
1
  6
Continuous
 62
     7
100
AcDbCircle
 10
103.5
 20
12.5
 30
0.0
 40
0.2999999999999972
  0
MTEXT
  5
45B
330
9C
100
AcDbEntity
  8
1
 62
   250
100
AcDbMText
 10
25.0
 20
5.0
 30
0.0
 40
3.5
 41
0.0
 71
     4
 72
     1
  1
備考欄の文字列 原点位置=4
  7
CONVERTER_1
 73
     1
 44
0.7202881152461
  0
MTEXT
  5
45C
330
9C
100
AcDbEntity
  8
1
 62
     2
100
AcDbMText
 10
89.5
 20
24.00000000000001
 30
0.0
 40
3.5
 41
0.0
 71
     5
 72
     1
  1
尺度
  7
CONVERTER_1
 73
     1
 44
0.7202881152461
  0
MTEXT
  5
45D
330
9C
100
AcDbEntity
  8
1
 62
     2
100
AcDbMText
 10
135.5
 20
25.00000000000001
 30
0.0
 40
3.0
 41
0.0
 71
     5
 72
     1
  1
製図
  7
CONVERTER_1
 73
     1
 44
0.78031212484994
  0
MTEXT
  5
45E
330
9C
100
AcDbEntity
  8
1
 62
     2
100
AcDbMText
 10
152.5
 20
25.00000000000001
 30
0.0
 40
3.0
 41
0.0
 71
     5
 72
     1
  1
設計
  7
CONVERTER_1
 73
     1
 44
0.78031212484994
  0
MTEXT
  5
45F
330
9C
100
AcDbEntity
  8
1
 62
     2
100
AcDbMText
 10
118.5
 20
25.00000000000001
 30
0.0
 40
3.0
 41
0.0
 71
     5
 72
     1
  1
検図
  7
CONVERTER_1
 73
     1
 44
0.78031212484994
  0
MTEXT
  5
460
330
9C
100
AcDbEntity
  8
1
 62
     2
100
AcDbMText
 10
175.0
 20
23.50000000000001
 30
0.0
 40
3.5
 41
0.0
 71
     5
 72
     1
  1
第三角法
  7
CONVERTER_1
 73
     1
 44
0.7202881152461
  0
MTEXT
  5
461
330
9C
100
AcDbEntity
  8
1
 62
     2
100
AcDbMText
 10
101.5
 20
25.00000000000001
 30
0.0
 40
3.0
 41
0.0
 71
     5
 72
     1
  1
承認
  7
CONVERTER_1
 73
     1
 44
0.78031212484994
  0
MTEXT
  5
462
330
9C
100
AcDbEntity
  8
1
 62
     2
100
AcDbMText
 10
29.0
 20
14.25
 30
0.0
 40
3.5
 41
0.0
 71
     5
 72
     1
  1
品番
  7
CONVERTER_1
 73
     1
 44
0.96038415366146
  0
MTEXT
  5
463
330
9C
100
AcDbEntity
  8
1
 62
     2
100
AcDbMText
 10
29.0
 20
22.75
 30
0.0
 40
3.5
 41
0.0
 71
     5
 72
     1
  1
品名
  7
CONVERTER_1
 73
     1
 44
0.96038415366146
  0
MTEXT
  5
464
330
9C
100
AcDbEntity
  8
1
 62
     2
100
AcDbMText
 10
29.0
 20
34.00000000000001
 30
0.0
 40
3.5
 41
0.0
 71
     5
 72
     1
  1
備考
  7
CONVERTER_1
 73
     1
 44
0.60024009603842
  0
MTEXT
  5
465
330
9C
100
AcDbEntity
  8
1
 62
     2
100
AcDbMText
 10
32.5
 20
282.0000000000003
 30
0.0
 40
5.0
 41
0.0
 71
     5
 72
     1
  1
図番
  7
CONVERTER_1
 73
     1
 44
0.60024009603842
  0
MTEXT
  5
466
330
9C
100
AcDbEntity
  8
1
 62
     7
100
AcDbMText
 10
171.5
 20
15.0
 30
0.0
 40
2.5
 41
0.0
 71
     5
 72
     1
  1
株式会社
  7
CONVERTER_1
 73
     1
 44
1.32052821128451
  0
MTEXT
  5
467
330
9C
100
AcDbEntity
  8
1
 62
     7
100
AcDbMText
 10
188.5
 20
15.0
 30
0.0
 40
3.0
 41
0.0
 71
     5
 72
     1
  1
三栄水栓製作所
  7
CONVERTER_1
 73
     1
 44
1.32052821128451
  0
ENDBLK
  5
9E
330
9C
100
AcDbEntity
  8
0
100
AcDbBlockEnd
  0
BLOCK
  5
49C
330
493
100
AcDbEntity
  8
0
100
AcDbBlockBegin
  2
*D030
 70
     1
 71
     0
 10
0.0
 20
0.0
 30
0.0
  3
*D030
  1

  0
LINE
  5
494
330
493
100
AcDbEntity
  8
1
  6
Continuous
 62
     2
100
AcDbLine
 10
277.3197742270185
 20
191.148163666306
 30
0.0
 11
277.3197742270185
 21
211.5850168360741
 31
0.0
  0
LINE
  5
495
330
493
100
AcDbEntity
  8
1
  6
Continuous
 62
     2
100
AcDbLine
 10
277.3197742270185
 20
211.5850168360741
 30
0.0
 11
277.3197742270185
 21
231.5850168360741
 31
0.0
  0
LINE
  5
496
330
493
100
AcDbEntity
  8
1
  6
Continuous
 62
     2
100
AcDbLine
 10
277.3197742270185
 20
231.5850168360741
 30
0.0
 11
277.3197742270185
 21
245.5850168360741
 31
0.0
  0
LINE
  5
497
330
493
100
AcDbEntity
  8
1
  6
Continuous
 62
     2
100
AcDbLine
 10
208.5197742270187
 20
231.5850168360741
 30
0.0
 11
279.3197742270185
 21
231.5850168360741
 31
0.0
  0
LINE
  5
498
330
493
100
AcDbEntity
  8
1
  6
Continuous
 62
     2
100
AcDbLine
 10
208.8197742270185
 20
211.5850168360741
 30
0.0
 11
279.3197742270185
 21
211.5850168360741
 31
0.0
  0
SOLID
  5
499
330
493
100
AcDbEntity
  8
1
 62
     2
100
AcDbTrace
 10
278.2413417101303
 20
204.5850168360741
 30
0.0
 11
276.3982067439068
 21
204.5850168360741
 31
0.0
 12
277.3197742270185
 22
211.5850168360741
 32
0.0
 13
277.3197742270185
 23
211.5850168360741
 33
0.0
  0
SOLID
  5
49A
330
493
100
AcDbEntity
  8
1
 62
     2
100
AcDbTrace
 10
276.3982067439068
 20
238.5850168360741
 30
0.0
 11
278.2413417101303
 21
238.5850168360741
 31
0.0
 12
277.3197742270185
 22
231.5850168360741
 32
0.0
 13
277.3197742270185
 23
231.5850168360741
 33
0.0
  0
MTEXT
  5
49B
330
493
100
AcDbEntity
  8
1
 62
     7
100
AcDbMText
 10
275.3197742270185
 20
191.148163666306
 30
0.0
 40
7.0
 41
0.0
 71
     7
 72
     1
  1
20
  7
CONVERTER_2
 11
0.0
 21
1.0
 31
0.0
 73
     1
 44
0.60024009603842
  0
ENDBLK
  5
49D
330
493
100
AcDbEntity
  8
0
100
AcDbBlockEnd
  0
BLOCK
  5
4A9
330
4A0
100
AcDbEntity
  8
0
100
AcDbBlockBegin
  2
*D131
 70
     1
 71
     0
 10
0.0
 20
0.0
 30
0.0
  3
*D131
  1

  0
LINE
  5
4A1
330
4A0
100
AcDbEntity
  8
1
  6
Continuous
 62
     2
100
AcDbLine
 10
177.1197742270186
 20
189.2850168360741
 30
0.0
 11
191.1197742270186
 21
189.2850168360741
 31
0.0
  0
LINE
  5
4A2
330
4A0
100
AcDbEntity
  8
1
  6
Continuous
 62
     2
100
AcDbLine
 10
191.1197742270186
 20
189.2850168360741
 30
0.0
 11
208.5197742270183
 21
189.2850168360741
 31
0.0
  0
LINE
  5
4A3
330
4A0
100
AcDbEntity
  8
1
  6
Continuous
 62
     2
100
AcDbLine
 10
208.5197742270183
 20
189.2850168360741
 30
0.0
 11
237.868304645111
 21
189.2850168360741
 31
0.0
  0
LINE
  5
4A4
330
4A0
100
AcDbEntity
  8
1
  6
Continuous
 62
     2
100
AcDbLine
 10
208.5197742270183
 20
213.1046320783449
 30
0.0
 11
208.5197742270183
 21
187.2850168360741
 31
0.0
  0
LINE
  5
4A5
330
4A0
100
AcDbEntity
  8
1
  6
Continuous
 62
     2
100
AcDbLine
 10
191.1197742270186
 20
213.1046320783449
 30
0.0
 11
191.1197742270186
 21
187.2850168360741
 31
0.0
  0
SOLID
  5
4A6
330
4A0
100
AcDbEntity
  8
1
 62
     2
100
AcDbTrace
 10
184.1197742270186
 20
188.3634493529623
 30
0.0
 11
184.1197742270186
 21
190.2065843191859
 31
0.0
 12
191.1197742270186
 22
189.2850168360741
 32
0.0
 13
191.1197742270186
 23
189.2850168360741
 33
0.0
  0
SOLID
  5
4A7
330
4A0
100
AcDbEntity
  8
1
 62
     2
100
AcDbTrace
 10
215.5197742270183
 20
190.2065843191859
 30
0.0
 11
215.5197742270183
 21
188.3634493529623
 31
0.0
 12
208.5197742270183
 22
189.2850168360741
 32
0.0
 13
208.5197742270183
 23
189.2850168360741
 33
0.0
  0
MTEXT
  5
4A8
330
4A0
100
AcDbEntity
  8
1
 62
     7
100
AcDbMText
 10
217.9883046451447
 20
191.2849890077688
 30
0.0
 40
7.0
 41
0.0
 71
     7
 72
     1
  1
\C7;{\Fgdt;n}\C7;18
  7
CONVERTER_2
 11
0.9999999999970621
 21
2.424068405545307E-6
 31
0.0
 73
     1
 44
0.60024009603842
  0
ENDBLK
  5
4AA
330
4A0
100
AcDbEntity
  8
0
100
AcDbBlockEnd
  0
BLOCK
  5
4B4
330
4AD
100
AcDbEntity
  8
0
100
AcDbBlockBegin
  2
*D232
 70
     1
 71
     0
 10
0.0
 20
0.0
 30
0.0
  3
*D232
  1

  0
LINE
  5
4AE
330
4AD
100
AcDbEntity
  8
1
  6
Continuous
 62
     2
100
AcDbLine
 10
297.3197742270185
 20
275.9059476238782
 30
0.0
 11
297.3197742270185
 21
209.2850168360741
 31
0.0
  0
LINE
  5
4AF
330
4AD
100
AcDbEntity
  8
1
  6
Continuous
 62
     2
100
AcDbLine
 10
204.5361107330289
 20
209.2850168360741
 30
0.0
 11
299.3197742270185
 21
209.2850168360741
 31
0.0
  0
LINE
  5
4B0
330
4AD
100
AcDbEntity
  8
1
  6
Continuous
 62
     2
100
AcDbLine
 10
263.3197742270185
 20
275.9059476238782
 30
0.0
 11
299.3197742270185
 21
275.9059476238782
 31
0.0
  0
SOLID
  5
4B1
330
4AD
100
AcDbEntity
  8
1
 62
     2
100
AcDbTrace
 10
298.2413417101303
 20
268.9059476238782
 30
0.0
 11
296.3982067439068
 21
268.9059476238782
 31
0.0
 12
297.3197742270185
 22
275.9059476238782
 32
0.0
 13
297.3197742270185
 23
275.9059476238782
 33
0.0
  0
SOLID
  5
4B2
330
4AD
100
AcDbEntity
  8
1
 62
     2
100
AcDbTrace
 10
296.3982067439068
 20
216.2850168360741
 30
0.0
 11
298.2413417101303
 21
216.2850168360741
 31
0.0
 12
297.3197742270185
 22
209.2850168360741
 32
0.0
 13
297.3197742270185
 23
209.2850168360741
 33
0.0
  0
MTEXT
  5
4B3
330
4AD
100
AcDbEntity
  8
1
 62
     7
100
AcDbMText
 10
295.3197742270185
 20
237.3454822299761
 30
0.0
 40
7.0
 41
0.0
 71
     7
 72
     1
  1
67
  7
CONVERTER_2
 11
0.0
 21
1.0
 31
0.0
 73
     1
 44
0.60024009603842
  0
ENDBLK
  5
4B5
330
4AD
100
AcDbEntity
  8
0
100
AcDbBlockEnd
  0
BLOCK
  5
4BF
330
4B8
100
AcDbEntity
  8
0
100
AcDbBlockBegin
  2
*D333
 70
     1
 71
     0
 10
0.0
 20
0.0
 30
0.0
  3
*D333
  1

  0
LINE
  5
4B9
330
4B8
100
AcDbEntity
  8
0
  6
Continuous
 62
     2
100
AcDbLine
 10
63.766133764772
 20
475.1760336289296
 30
0.0
 11
63.766133764772
 21
432.1760336289296
 31
0.0
  0
LINE
  5
4BA
330
4B8
100
AcDbEntity
  8
0
  6
Continuous
 62
     2
100
AcDbLine
 10
96.56977422701833
 20
432.1760336289296
 30
0.0
 11
61.766133764772
 21
432.1760336289296
 31
0.0
  0
LINE
  5
4BB
330
4B8
100
AcDbEntity
  8
0
  6
Continuous
 62
     2
100
AcDbLine
 10
98.56977422701833
 20
475.1760336289296
 30
0.0
 11
61.766133764772
 21
475.1760336289296
 31
0.0
  0
SOLID
  5
4BC
330
4B8
100
AcDbEntity
  8
0
 62
     2
100
AcDbTrace
 10
64.68770124788377
 20
468.1760336289296
 30
0.0
 11
62.84456628166023
 21
468.1760336289296
 31
0.0
 12
63.766133764772
 22
475.1760336289296
 32
0.0
 13
63.766133764772
 23
475.1760336289296
 33
0.0
  0
SOLID
  5
4BD
330
4B8
100
AcDbEntity
  8
0
 62
     2
100
AcDbTrace
 10
62.84456628166023
 20
439.1760336289296
 30
0.0
 11
64.68770124788377
 21
439.1760336289296
 31
0.0
 12
63.766133764772
 22
432.1760336289296
 32
0.0
 13
63.766133764772
 23
432.1760336289296
 33
0.0
  0
MTEXT
  5
4BE
330
4B8
100
AcDbEntity
  8
0
 62
     7
100
AcDbMText
 10
61.766133764772
 20
441.1460336289296
 30
0.0
 40
7.0
 41
0.0
 71
     7
 72
     1
  1
\C7;{\Fgdt;n}\C7;43
  7
CONVERTER_2
 11
0.0
 21
1.0
 31
0.0
 73
     1
 44
0.60024009603842
  0
ENDBLK
  5
4C0
330
4B8
100
AcDbEntity
  8
0
100
AcDbBlockEnd
  0
BLOCK
  5
4CA
330
4C3
100
AcDbEntity
  8
0
100
AcDbBlockBegin
  2
*D434
 70
     1
 71
     0
 10
0.0
 20
0.0
 30
0.0
  3
*D434
  1

  0
LINE
  5
4C4
330
4C3
100
AcDbEntity
  8
1
  6
Continuous
 62
     2
100
AcDbLine
 10
199.8197742270183
 20
345.9059476238782
 30
0.0
 11
96.56977422701831
 21
345.9059476238782
 31
0.0
  0
LINE
  5
4C5
330
4C3
100
AcDbEntity
  8
1
  6
Continuous
 62
     2
100
AcDbLine
 10
96.56977422701831
 20
297.4059476238782
 30
0.0
 11
96.56977422701831
 21
347.9059476238782
 31
0.0
  0
LINE
  5
4C6
330
4C3
100
AcDbEntity
  8
1
  6
Continuous
 62
     2
100
AcDbLine
 10
199.8197742270183
 20
311.9059476238782
 30
0.0
 11
199.8197742270183
 21
347.9059476238782
 31
0.0
  0
SOLID
  5
4C7
330
4C3
100
AcDbEntity
  8
1
 62
     2
100
AcDbTrace
 10
192.8197742270183
 20
344.9843801407665
 30
0.0
 11
192.8197742270183
 21
346.82751510699
 31
0.0
 12
199.8197742270183
 22
345.9059476238782
 32
0.0
 13
199.8197742270183
 23
345.9059476238782
 33
0.0
  0
SOLID
  5
4C8
330
4C3
100
AcDbEntity
  8
1
 62
     2
100
AcDbTrace
 10
103.5697742270183
 20
346.82751510699
 30
0.0
 11
103.5697742270183
 21
344.9843801407665
 31
0.0
 12
96.56977422701831
 22
345.9059476238782
 32
0.0
 13
96.56977422701831
 23
345.9059476238782
 33
0.0
  0
MTEXT
  5
4C9
330
4C3
100
AcDbEntity
  8
1
 62
     7
100
AcDbMText
 10
140.8447742270183
 20
347.9059476238782
 30
0.0
 40
7.0
 41
0.0
 71
     7
 72
     1
  1
104
  7
CONVERTER_2
 11
0.9999999999970621
 21
2.424068405545307E-6
 31
0.0
 73
     1
 44
0.60024009603842
  0
ENDBLK
  5
4CB
330
4C3
100
AcDbEntity
  8
0
100
AcDbBlockEnd
  0
BLOCK
  5
4D5
330
4CE
100
AcDbEntity
  8
0
100
AcDbBlockBegin
  2
*D535
 70
     1
 71
     0
 10
0.0
 20
0.0
 30
0.0
  3
*D535
  1

  0
LINE
  5
4CF
330
4CE
100
AcDbEntity
  8
0
  6
Continuous
 62
     2
100
AcDbLine
 10
297.3197742270185
 20
275.9059476238782
 30
0.0
 11
297.3197742270185
 21
305.9059476238782
 31
0.0
  0
LINE
  5
4D0
330
4CE
100
AcDbEntity
  8
0
  6
Continuous
 62
     2
100
AcDbLine
 10
209.1577742270184
 20
305.9059476238782
 30
0.0
 11
299.3197742270185
 21
305.9059476238782
 31
0.0
  0
LINE
  5
4D1
330
4CE
100
AcDbEntity
  8
0
  6
Continuous
 62
     2
100
AcDbLine
 10
263.3197742270185
 20
275.9059476238782
 30
0.0
 11
299.3197742270185
 21
275.9059476238782
 31
0.0
  0
SOLID
  5
4D2
330
4CE
100
AcDbEntity
  8
0
 62
     2
100
AcDbTrace
 10
296.3982067439068
 20
282.9059476238782
 30
0.0
 11
298.2413417101303
 21
282.9059476238782
 31
0.0
 12
297.3197742270185
 22
275.9059476238782
 32
0.0
 13
297.3197742270185
 23
275.9059476238782
 33
0.0
  0
SOLID
  5
4D3
330
4CE
100
AcDbEntity
  8
0
 62
     2
100
AcDbTrace
 10
298.2413417101303
 20
298.9059476238782
 30
0.0
 11
296.3982067439068
 21
298.9059476238782
 31
0.0
 12
297.3197742270185
 22
305.9059476238782
 32
0.0
 13
297.3197742270185
 23
305.9059476238782
 33
0.0
  0
MTEXT
  5
4D4
330
4CE
100
AcDbEntity
  8
0
 62
     7
100
AcDbMText
 10
295.3197742270185
 20
285.6559476238782
 30
0.0
 40
7.0
 41
0.0
 71
     7
 72
     1
  1
30
  7
CONVERTER_2
 11
0.0
 21
1.0
 31
0.0
 73
     1
 44
0.60024009603842
  0
ENDBLK
  5
4D6
330
4CE
100
AcDbEntity
  8
0
100
AcDbBlockEnd
  0
BLOCK
  5
4E1
330
4D9
100
AcDbEntity
  8
0
100
AcDbBlockBegin
  2
*D636
 70
     1
 71
     0
 10
0.0
 20
0.0
 30
0.0
  3
*D636
  1

  0
LINE
  5
4DA
330
4D9
100
AcDbEntity
  8
0
  6
Continuous
 62
     2
100
AcDbLine
 10
199.8197742270183
 20
345.9059476238782
 30
0.0
 11
257.3197742270185
 21
345.9059476238782
 31
0.0
  0
LINE
  5
4DB
330
4D9
100
AcDbEntity
  8
0
  6
Continuous
 62
     2
100
AcDbLine
 10
199.8197742270183
 20
311.9059476238782
 30
0.0
 11
199.8197742270183
 21
347.9059476238782
 31
0.0
  0
LINE
  5
4DC
330
4D9
100
AcDbEntity
  8
0
  6
Continuous
 62
     2
100
AcDbLine
 10
257.3197742270185
 20
337.193801253213
 30
0.0
 11
257.3197742270185
 21
347.9059476238782
 31
0.0
  0
LINE
  5
4DD
330
4D9
100
AcDbEntity
  8
0
  6
Continuous
 62
     2
100
AcDbLine
 10
257.3197742270185
 20
275.9059476238782
 30
0.0
 11
257.3197742270185
 21
323.875314986716
 31
0.0
  0
SOLID
  5
4DE
330
4D9
100
AcDbEntity
  8
0
 62
     2
100
AcDbTrace
 10
206.8197742270183
 20
346.82751510699
 30
0.0
 11
206.8197742270183
 21
344.9843801407665
 31
0.0
 12
199.8197742270183
 22
345.9059476238782
 32
0.0
 13
199.8197742270183
 23
345.9059476238782
 33
0.0
  0
SOLID
  5
4DF
330
4D9
100
AcDbEntity
  8
0
 62
     2
100
AcDbTrace
 10
250.3197742270185
 20
344.9843801407665
 30
0.0
 11
250.3197742270185
 21
346.82751510699
 31
0.0
 12
257.3197742270185
 22
345.9059476238782
 32
0.0
 13
257.3197742270185
 23
345.9059476238782
 33
0.0
  0
MTEXT
  5
4E0
330
4D9
100
AcDbEntity
  8
0
 62
     7
100
AcDbMText
 10
209.6697742270183
 20
347.9059476238782
 30
0.0
 40
7.0
 41
0.0
 71
     7
 72
     1
  1
58リフト5
  7
CONVERTER_1
 11
0.9999999999970621
 21
2.424068405545307E-6
 31
0.0
 73
     1
 44
0.60024009603842
  0
ENDBLK
  5
4E2
330
4D9
100
AcDbEntity
  8
0
100
AcDbBlockEnd
  0
BLOCK
  5
4EC
330
4E5
100
AcDbEntity
  8
0
100
AcDbBlockBegin
  2
*D737
 70
     1
 71
     0
 10
0.0
 20
0.0
 30
0.0
  3
*D737
  1

  0
LINE
  5
4E6
330
4E5
100
AcDbEntity
  8
1
  6
Continuous
 62
     2
100
AcDbLine
 10
184.3947742270184
 20
325.9059476238782
 30
0.0
 11
104.3947742270184
 21
325.9059476238782
 31
0.0
  0
LINE
  5
4E7
330
4E5
100
AcDbEntity
  8
1
  6
Continuous
 62
     2
100
AcDbLine
 10
104.3947742270184
 20
278.4559476238783
 30
0.0
 11
104.3947742270184
 21
327.9059476238782
 31
0.0
  0
LINE
  5
4E8
330
4E5
100
AcDbEntity
  8
1
  6
Continuous
 62
     2
100
AcDbLine
 10
184.3947742270184
 20
278.4559476238783
 30
0.0
 11
184.3947742270184
 21
327.9059476238782
 31
0.0
  0
SOLID
  5
4E9
330
4E5
100
AcDbEntity
  8
1
 62
     2
100
AcDbTrace
 10
177.3947742270184
 20
324.9843801407665
 30
0.0
 11
177.3947742270184
 21
326.82751510699
 31
0.0
 12
184.3947742270184
 22
325.9059476238782
 32
0.0
 13
184.3947742270184
 23
325.9059476238782
 33
0.0
  0
SOLID
  5
4EA
330
4E5
100
AcDbEntity
  8
1
 62
     2
100
AcDbTrace
 10
111.3947742270184
 20
326.82751510699
 30
0.0
 11
111.3947742270184
 21
324.9843801407665
 31
0.0
 12
104.3947742270184
 22
325.9059476238782
 32
0.0
 13
104.3947742270184
 23
325.9059476238782
 33
0.0
  0
MTEXT
  5
4EB
330
4E5
100
AcDbEntity
  8
1
 62
     7
100
AcDbMText
 10
139.1447742270184
 20
327.9059476238782
 30
0.0
 40
7.0
 41
0.0
 71
     7
 72
     1
  1
80
  7
CONVERTER_2
 11
0.9999999999970621
 21
2.424068405545307E-6
 31
0.0
 73
     1
 44
0.60024009603842
  0
ENDBLK
  5
4ED
330
4E5
100
AcDbEntity
  8
0
100
AcDbBlockEnd
  0
ENDSEC
  0
SECTION
  2
ENTITIES
  0
INSERT
  5
9F
330
1F
100
AcDbEntity
  8
1
100
AcDbBlockReference
  2
1__1
 10
350.2284784042108
 20
211.5850168360741
 30
0.0
  0
INSERT
  5
A0
330
1F
100
AcDbEntity
  8
1
100
AcDbBlockReference
  2
1__2
 10
190.3867615251264
 20
211.5850168360741
 30
0.0
  0
INSERT
  5
A1
330
1F
100
AcDbEntity
  8
1
100
AcDbBlockReference
  2
V2110-1-0__3
 10
476.7767402376899
 20
905.4446519524615
 30
0.0
  0
INSERT
  5
A2
330
1F
100
AcDbEntity
  8
1
100
AcDbBlockReference
  2
R10A-13__9
 10
207.8197742270185
 20
356.9059476238781
 30
0.0
  0
INSERT
  5
A3
330
1F
100
AcDbEntity
  8
0
100
AcDbBlockReference
  2
H862S__14
 10
75.31977422701833
 20
320.9059476238782
 30
0.0
  0
INSERT
  5
A4
330
1F
100
AcDbEntity
  8
0
100
AcDbBlockReference
  2
TOP__15
 10
-3.33850889389737
 20
375.4083835736185
 30
0.0
  0
INSERT
  5
A5
330
1F
100
AcDbEntity
  8
1
100
AcDbBlockReference
  2
V2110-1-0__16
 10
476.7767402376899
 20
838.9446519524615
 30
0.0
  0
INSERT
  5
A6
330
1F
100
AcDbEntity
  8
1
100
AcDbBlockReference
  2
R10A-13__22
 10
207.8197742270185
 20
290.4059476238781
 30
0.0
  0
INSERT
  5
A7
330
1F
100
AcDbEntity
  8
0
100
AcDbBlockReference
  2
H862S__27
 10
75.31977422701833
 20
254.4059476238782
 30
0.0
  0
INSERT
  5
A8
330
1F
100
AcDbEntity
  8
0
100
AcDbBlockReference
  2
TOP__28
 10
-163.1802257729817
 20
375.4083835736185
 30
0.0
  0
INSERT
  5
A9
330
1F
100
AcDbEntity
  8
1
100
AcDbBlockReference
  2
_J__A4
 10
0.0
 20
0.0
 30
0.0
 41
2.0
 42
2.0
 43
2.0
  0
LINE
  5
468
330
1F
100
AcDbEntity
  8
1
  6
Continuous
 62
     2
100
AcDbLine
 10
277.3197742270185
 20
193.117607381382
 30
0.0
 11
277.3197742270185
 21
151.617607381382
 31
0.0
  0
LINE
  5
469
330
1F
100
AcDbEntity
  8
1
  6
Continuous
 62
     2
100
AcDbLine
 10
205.032753031278
 20
231.5850168360741
 30
0.0
 11
208.5197742270187
 21
231.5850168360741
 31
0.0
  0
LINE
  5
46A
330
1F
100
AcDbEntity
  8
1
  6
DASH_CENTER
 62
     2
100
AcDbLine
 10
190.3615605196346
 20
453.6760336289295
 30
0.0
 11
263.3197742270185
 21
453.6760336289295
 31
0.0
  0
LINE
  5
46B
330
1F
100
AcDbEntity
  8
1
  6
DASH_CENTER
 62
     2
100
AcDbLine
 10
70.81977422701834
 20
453.6760336289303
 30
0.0
 11
173.8197742270183
 21
453.6760336289295
 31
0.0
  0
LINE
  5
46C
330
1F
100
AcDbEntity
  8
1
  6
DASH_CENTER
 62
     2
100
AcDbLine
 10
178.3197742270183
 20
453.6760336289295
 30
0.0
 11
186.1614911061029
 21
453.6760336289295
 31
0.0
  0
LINE
  5
46D
330
1F
100
AcDbEntity
  8
1
  6
DASH_CENTER
 62
     2
100
AcDbLine
 10
257.3197742270185
 20
275.9059476238782
 30
0.0
 11
263.3197742270185
 21
275.9059476238782
 31
0.0
  0
LINE
  5
46E
330
1F
100
AcDbEntity
  8
1
  6
DASH_CENTER
 62
     2
100
AcDbLine
 10
378.8075222355087
 20
286.9599138503537
 30
0.0
 11
327.6197088130118
 21
257.4066159916467
 31
0.0
  0
LINE
  5
46F
330
1F
100
AcDbEntity
  8
1
  6
DASH_CENTER
 62
     2
100
AcDbLine
 10
387.6614911061029
 20
275.9059476238782
 30
0.0
 11
331.6614911061027
 21
275.9059476238782
 31
0.0
  0
LINE
  5
470
330
1F
100
AcDbEntity
  8
1
  6
DASH_CENTER
 62
     2
100
AcDbLine
 10
341.1501344941831
 20
286.5934843468352
 30
0.0
 11
391.7032733991939
 21
257.4066159916467
 31
0.0
  0
LINE
  5
471
330
1F
100
AcDbEntity
  8
1
  6
DASH_CENTER
 62
     2
100
AcDbLine
 10
359.6614911061027
 20
311.9059476238782
 30
0.0
 11
359.6614911061027
 21
203.2850168360741
 31
0.0
  0
LINE
  5
472
330
1F
100
AcDbEntity
  8
1
  6
DASH_CENTER
 62
     2
100
AcDbLine
 10
238.9941046745502
 20
275.9059476238782
 30
0.0
 11
257.3197742270185
 21
275.9059476238782
 31
0.0
  0
LINE
  5
473
330
1F
100
AcDbEntity
  8
1
  6
DASH_CENTER
 62
     2
100
AcDbLine
 10
224.8197742270185
 20
275.9059476238782
 30
0.0
 11
238.9941046745502
 21
275.9059476238782
 31
0.0
  0
LINE
  5
474
330
1F
100
AcDbEntity
  8
1
  6
DASH_CENTER
 62
     2
100
AcDbLine
 10
184.3947742270186
 20
275.9059476238782
 30
0.0
 11
199.8197742270185
 21
275.9059476238782
 31
0.0
  0
LINE
  5
475
330
1F
100
AcDbEntity
  8
1
  6
DASH_CENTER
 62
     2
100
AcDbLine
 10
90.56977422701829
 20
275.9059476238782
 30
0.0
 11
184.3947742270186
 21
275.9059476238782
 31
0.0
  0
LINE
  5
476
330
1F
100
AcDbEntity
  8
1
  6
DASH_CENTER
 62
     2
100
AcDbLine
 10
199.8197742270185
 20
203.2850168360741
 30
0.0
 11
199.8197742270185
 21
275.9059476238782
 31
0.0
  0
LINE
  5
477
330
1F
100
AcDbEntity
  8
1
  6
DASH_CENTER
 62
     2
100
AcDbLine
 10
199.8197742270185
 20
275.9059476238782
 30
0.0
 11
224.8197742270185
 21
275.9059476238782
 31
0.0
  0
LINE
  5
478
330
1F
100
AcDbEntity
  8
1
  6
DASH_CENTER
 62
     2
100
AcDbLine
 10
106.3197742270185
 20
290.9059476238782
 30
0.0
 11
70.81977422701833
 21
290.9059476238782
 31
0.0
  0
LINE
  5
479
330
1F
100
AcDbEntity
  8
1
  6
DASH_CENTER
 62
     2
100
AcDbLine
 10
70.81977422701833
 20
260.9059476238782
 30
0.0
 11
106.3197742270185
 21
260.9059476238782
 31
0.0
  0
LINE
  5
47A
330
1F
100
AcDbEntity
  8
1
  6
DASH_CENTER
 62
     2
100
AcDbLine
 10
199.8197742270185
 20
275.9059476238782
 30
0.0
 11
199.8197742270183
 21
311.9059476238782
 31
0.0
  0
SOLID
  5
47B
330
1F
100
AcDbEntity
  8
0
 62
     2
100
AcDbTrace
 10
164.8995951110063
 20
266.6286558342754
 30
0.0
 11
163.5002612967157
 21
267.8282438385081
 31
0.0
 12
168.7558159622239
 22
272.5429476238782
 32
0.0
 13
168.7558159622239
 23
272.5429476238782
 33
0.0
  0
LEADER
  5
47C
330
1F
100
AcDbEntity
  8
0
  6
Continuous
 62
     2
100
AcDbLeader
  3
Standard
 71
     0
 76
     2
 10
168.7558159622239
 20
272.5429476238782
 30
0.0
 10
128.7759446962939
 20
225.9059476238782
 30
0.0
  0
SOLID
  5
47D
330
1F
100
AcDbEntity
  8
1
 62
     2
100
AcDbTrace
 10
344.8633902544261
 20
306.8657695204227
 30
0.0
 11
346.459591957779
 21
307.7873370035345
 31
0.0
 12
349.1614911061026
 22
301.2643754354875
 32
0.0
 13
349.1614911061026
 23
301.2643754354875
 33
0.0
  0
LEADER
  5
47E
330
1F
100
AcDbEntity
  8
1
  6
Continuous
 62
     2
100
AcDbLeader
  3
Standard
 71
     0
 76
     3
 10
349.1614911061026
 20
301.2643754354875
 30
0.0
 10
334.9346727698796
 20
325.9059476238782
 30
0.0
 10
308.2101228914073
 20
325.9059476238782
 30
0.0
  0
SOLID
  5
47F
330
1F
100
AcDbEntity
  8
0
 62
     2
100
AcDbTrace
 10
114.4365825644475
 20
266.3243563373737
 30
0.0
 11
112.7131686778373
 21
265.6709107932348
 31
0.0
 12
111.0931697814752
 22
272.5429476238779
 32
0.0
 13
111.0931697814752
 23
272.5429476238779
 33
0.0
  0
LEADER
  5
480
330
1F
100
AcDbEntity
  8
0
  6
Continuous
 62
     2
100
AcDbLeader
  3
Standard
 71
     0
 76
     3
 10
111.0931697814752
 20
272.5429476238779
 30
0.0
 10
128.7759446962939
 20
225.9059476238782
 30
0.0
 10
79.69471424586409
 20
225.9059476238782
 30
0.0
  0
SOLID
  5
481
330
1F
100
AcDbEntity
  8
0
 62
     2
100
AcDbTrace
 10
227.160312320477
 20
294.4289091919251
 30
0.0
 11
228.7565140238299
 21
293.5073417088133
 31
0.0
 12
224.4584131721534
 22
287.9059476238782
 32
0.0
 13
224.4584131721534
 23
287.9059476238782
 33
0.0
  0
LEADER
  5
482
330
1F
100
AcDbEntity
  8
0
  6
Continuous
 62
     2
100
AcDbLeader
  3
Standard
 71
     0
 76
     3
 10
224.4584131721534
 20
287.9059476238782
 30
0.0
 10
246.3977234013589
 20
325.9059476238782
 30
0.0
 10
289.9145779227273
 20
325.9059476238782
 30
0.0
  0
MTEXT
  5
483
330
1F
100
AcDbEntity
  8
1
 62
     7
100
AcDbMText
 10
271.7890591912031
 20
169.9750433706092
 30
0.0
 40
7.0
 41
0.0
 71
     5
 72
     1
  1
管挿入寸法
  7
CONVERTER_1
 11
0.0
 21
1.0
 31
0.0
 73
     1
 44
0.7202881152461
  0
MTEXT
  5
484
330
1F
100
AcDbEntity
  8
0
 62
     7
100
AcDbMText
 10
291.0
 20
58.33633755741336
 30
0.0
 40
5.6
 41
0.0
 71
     4
 72
     1
  1
●管接続の際は,専用工具を使用すること。
  7
CONVERTER_1
 73
     1
 44
0.7202881152461
  0
MTEXT
  5
486
330
1F
100
AcDbEntity
  8
1
 62
     7
100
AcDbMText
 10
170.4999999999998
 20
34.0
 30
0.0
 40
7.0
 41
0.0
 71
     5
 72
     1
  1
1
  7
CONVERTER_2
 73
     1
 44
0.7202881152461
  0
MTEXT
  5
487
330
1F
100
AcDbEntity
  8
0
 62
     7
100
AcDbMText
 10
68.0
 20
58.33633755741336
 30
0.0
 40
5.6
 41
0.0
 71
     4
 72
     1
  1
あります。
  7
CONVERTER_1
 73
     1
 44
0.7202881152461
  0
MTEXT
  5
488
330
1F
100
AcDbEntity
  8
0
 62
     7
100
AcDbMText
 10
231.2312585975108
 20
77.13633755741331
 30
0.0
 40
5.6
 41
0.0
 71
     4
 72
     1
  1
●アルミ複合管が継手の奥に当たるまで確実に差し込むこと。
  7
CONVERTER_1
 73
     1
 44
0.7202881152461
  0
MTEXT
  5
489
330
1F
100
AcDbEntity
  8
0
 62
     7
100
AcDbMText
 10
113.9999999999998
 20
28.5
 30
0.0
 40
7.0
 41
0.0
 71
     5
 72
     1
  1
V2110V-4-13X80
  7
CONVERTER_2
 73
     1
 44
1.32052821128451
  0
MTEXT
  5
48A
330
1F
100
AcDbEntity
  8
0
 62
     7
100
AcDbMText
 10
113.9999999999998
 20
41.5
 30
0.0
 40
7.0
 41
0.0
 71
     5
 72
     1
  1
止水栓
  7
CONVERTER_1
 73
     1
 44
1.32052821128451
  0
MTEXT
  5
48B
330
1F
100
AcDbEntity
  8
0
 62
     7
100
AcDbMText
 10
113.9999999999998
 20
49.5
 30
0.0
 40
7.0
 41
0.0
 71
     5
 72
     1
  1
カシメアダプター付
  7
CONVERTER_1
 73
     1
 44
1.32052821128451
  0
MTEXT
  5
48C
330
1F
100
AcDbEntity
  8
1
 62
     7
100
AcDbMText
 10
187.4999999999998
 20
34.0
 30
0.0
 40
7.0
 41
0.0
 71
     5
 72
     1
  1
2
  7
CONVERTER_2
 73
     1
 44
0.7202881152461
  0
MTEXT
  5
48D
330
1F
100
AcDbEntity
  8
0
 62
     7
100
AcDbMText
 10
68.0
 20
68.00000000000001
 30
0.0
 40
5.6
 41
0.0
 71
     4
 72
     1
  1
●施工時, 支持棒(※1), 袋ナット(※2)を確実に固定して下さい。水栓開閉時,支持棒部を中心に水栓本体が回転する事が
  7
CONVERTER_1
 73
     1
 44
0.7202881152461
  0
MTEXT
  5
48E
330
1F
100
AcDbEntity
  8
0
 62
     7
100
AcDbMText
 10
101.5
 20
58.33633755741336
 30
0.0
 40
5.6
 41
0.0
 71
     4
 72
     1
  1
●アルミ複合管端面を接続前に専用工具で矯正及び面取りを行なうこと。
  7
CONVERTER_1
 73
     1
 44
0.7202881152461
  0
MTEXT
  5
48F
330
1F
100
AcDbEntity
  8
0
 62
     7
100
AcDbMText
 10
67.98277995051876
 20
77.13633755741331
 30
0.0
 40
5.6
 41
0.0
 71
     4
 72
     1
  1
●専用のアルミ複合管(T102-13A)を使用すること。
  7
CONVERTER_1
 73
     1
 44
0.7202881152461
  0
MTEXT
  5
490
330
1F
100
AcDbEntity
  8
1
 62
     7
100
AcDbMText
 10
321.7228975275593
 20
332.0441230367231
 30
0.0
 40
7.0
 41
0.0
 71
     5
 72
     1
  1
G1/2
  7
CONVERTER_2
 73
     1
 44
0.7202881152461
  0
MTEXT
  5
491
330
1F
100
AcDbEntity
  8
1
 62
     7
100
AcDbMText
 10
101.4321654204322
 20
232.0759768400262
 30
0.0
 40
7.0
 41
0.0
 71
     5
 72
     1
  1
W1/4山20
  7
CONVERTER_1
 73
     1
 44
0.7202881152461
  0
MTEXT
  5
492
330
1F
100
AcDbEntity
  8
1
 62
     7
100
AcDbMText
 10
268.5121687658332
 20
331.5064138298653
 30
0.0
 40
7.0
 41
0.0
 71
     5
 72
     1
  1
W24山20
  7
CONVERTER_1
 73
     1
 44
0.7202881152461
  0
DIMENSION
  5
49F
330
1F
100
AcDbEntity
  8
1
100
AcDbDimension
  2
*D030
 10
277.3197742270185
 20
211.5850168360741
 30
0.0
 11
271.8197742270185
 21
196.398163666306
 31
0.0
  1
<>
 71
     5
 42
0.0
 53
-90.0
  3
ME10_DIM_0
100
AcDbAlignedDimension
 13
208.5197742270187
 23
231.5850168360741
 33
0.0
 14
208.8197742270185
 24
211.5850168360741
 34
0.0
 50
-90.0
100
AcDbRotatedDimension
  0
DIMENSION
  5
4AC
330
1F
100
AcDbEntity
  8
1
100
AcDbDimension
  2
*D131
 10
191.1197742270186
 20
189.2850168360741
 30
0.0
 11
229.468304645111
 21
194.7850168360741
 31
0.0
  1
{\Fgdt;n}18
 71
     5
 42
0.0
 53
0.00013888888889
  3
ME10_DIM_1
100
AcDbAlignedDimension
 13
208.5197742270183
 23
213.1046320783449
 33
0.0
 14
191.1197742270186
 24
213.1046320783449
 34
0.0
100
AcDbRotatedDimension
  0
DIMENSION
  5
4B7
330
1F
100
AcDbEntity
  8
1
100
AcDbDimension
  2
*D232
 10
297.3197742270185
 20
275.9059476238782
 30
0.0
 11
291.8197742270185
 21
242.5954822299761
 31
0.0
  1
67
 71
     5
 42
0.0
 53
-90.0
  3
ME10_DIM_2
100
AcDbAlignedDimension
 13
204.5361107330289
 23
209.2850168360741
 33
0.0
 14
263.3197742270185
 24
275.9059476238782
 34
0.0
 50
-90.0
100
AcDbRotatedDimension
  0
DIMENSION
  5
4C2
330
1F
100
AcDbEntity
  8
0
100
AcDbDimension
  2
*D333
 10
63.766133764772
 20
475.1760336289296
 30
0.0
 11
58.266133764772
 21
453.6760336289296
 31
0.0
  1
<>
 71
     5
 42
0.0
 53
90.0
  3
ME10_DIM_3
100
AcDbAlignedDimension
 13
96.56977422701829
 23
432.1760336289296
 33
0.0
 14
98.56977422701829
 24
475.1760336289296
 34
0.0
 50
90.0
100
AcDbRotatedDimension
  0
DIMENSION
  5
4CD
330
1F
100
AcDbEntity
  8
1
100
AcDbDimension
  2
*D434
 10
199.8197742270183
 20
345.9059476238782
 30
0.0
 11
148.1947742270183
 21
351.4059476238782
 31
0.0
  1
104
 71
     5
 42
0.0
 53
0.00013888888889
  3
ME10_DIM_4
100
AcDbAlignedDimension
 13
96.56977422701829
 23
297.4059476238782
 33
0.0
 14
199.8197742270183
 24
311.9059476238782
 34
0.0
100
AcDbRotatedDimension
  0
DIMENSION
  5
4D8
330
1F
100
AcDbEntity
  8
0
100
AcDbDimension
  2
*D535
 10
297.3197742270185
 20
275.9059476238782
 30
0.0
 11
291.8197742270185
 21
290.9059476238782
 31
0.0
  1
<>
 71
     5
 42
0.0
 53
90.0
  3
ME10_DIM_5
100
AcDbAlignedDimension
 13
209.1577742270184
 23
305.9059476238782
 33
0.0
 14
263.3197742270185
 24
275.9059476238782
 34
0.0
 50
90.0
100
AcDbRotatedDimension
  0
DIMENSION
  5
4E4
330
1F
100
AcDbEntity
  8
0
100
AcDbDimension
  2
*D636
 10
199.8197742270183
 20
345.9059476238782
 30
0.0
 11
228.5697742270183
 21
351.4059476238782
 31
0.0
  1
58リフト5
 71
     5
 42
0.0
 53
0.00013888888889
  3
ME10_DIM_6
100
AcDbAlignedDimension
 13
257.3197742270185
 23
275.9059476238782
 33
0.0
 14
199.8197742270183
 24
311.9059476238782
 34
0.0
100
AcDbRotatedDimension
  0
DIMENSION
  5
4EF
330
1F
100
AcDbEntity
  8
1
100
AcDbDimension
  2
*D737
 10
184.3947742270184
 20
325.9059476238782
 30
0.0
 11
144.3947742270184
 21
331.4059476238782
 31
0.0
  1
80
 71
     5
 42
0.0
 53
0.00013888888889
  3
ME10_DIM_7
100
AcDbAlignedDimension
 13
104.3947742270184
 23
278.4559476238783
 33
0.0
 14
184.3947742270184
 24
278.4559476238783
 34
0.0
100
AcDbRotatedDimension
  0
ENDSEC
  0
SECTION
  2
OBJECTS
  0
DICTIONARY
  5
C
330
0
100
AcDbDictionary
281
     1
  3
ACAD_GROUP
350
D
  3
ACAD_LAYOUT
350
1A
  3
ACAD_MLINESTYLE
350
17
  3
ACAD_PLOTSETTINGS
350
19
  3
ACAD_PLOTSTYLENAME
350
E
  3
ACAD_TABLESTYLE
350
2A
  3
AcDbVariableDictionary
350
2C
  0
DICTIONARY
  5
D
102
{ACAD_REACTORS
330
C
102
}
330
C
100
AcDbDictionary
281
     1
  0
DICTIONARY
  5
1A
102
{ACAD_REACTORS
330
C
102
}
330
C
100
AcDbDictionary
281
     1
  3
Layout1
350
1E
  3
Layout2
350
26
  3
Model
350
22
  0
DICTIONARY
  5
17
102
{ACAD_REACTORS
330
C
102
}
330
C
100
AcDbDictionary
281
     1
  3
Standard
350
18
  0
DICTIONARY
  5
19
102
{ACAD_REACTORS
330
C
102
}
330
C
100
AcDbDictionary
281
     1
  0
ACDBDICTIONARYWDFLT
  5
E
102
{ACAD_REACTORS
330
C
102
}
330
C
100
AcDbDictionary
281
     1
  3
Normal
350
F
100
AcDbDictionaryWithDefault
340
F
  0
DICTIONARY
  5
2A
102
{ACAD_REACTORS
330
C
102
}
330
C
100
AcDbDictionary
281
     1
  3
Standard
350
2B
  0
DICTIONARY
  5
2C
102
{ACAD_REACTORS
330
C
102
}
330
C
100
AcDbDictionary
281
     1
  3
CTABLESTYLE
350
2D
  0
LAYOUT
  5
1E
102
{ACAD_REACTORS
330
1A
102
}
330
1A
100
AcDbPlotSettings
  1

  2

  4

  6

 40
0.0
 41
0.0
 42
0.0
 43
0.0
 44
0.0
 45
0.0
 46
0.0
 47
0.0
 48
0.0
 49
0.0
140
0.0
141
0.0
142
1.0
143
1.0
 70
   688
 72
     0
 73
     0
 74
     5
  7

 75
    16
147
1.0
148
0.0
149
0.0
100
AcDbLayout
  1
Layout1
 70
     1
 71
     1
 10
0.0
 20
0.0
 11
12.0
 21
9.0
 12
0.0
 22
0.0
 32
0.0
 14
1.00000000000000E+20
 24
1.00000000000000E+20
 34
1.00000000000000E+20
 15
-1.00000000000000E+20
 25
-1.00000000000000E+20
 35
-1.00000000000000E+20
146
0.0
 13
0.0
 23
0.0
 33
0.0
 16
1.0
 26
0.0
 36
0.0
 17
0.0
 27
1.0
 37
0.0
 76
     0
330
1B
  0
LAYOUT
  5
26
102
{ACAD_REACTORS
330
1A
102
}
330
1A
100
AcDbPlotSettings
  1

  2

  4

  6

 40
0.0
 41
0.0
 42
0.0
 43
0.0
 44
0.0
 45
0.0
 46
0.0
 47
0.0
 48
0.0
 49
0.0
140
0.0
141
0.0
142
1.0
143
1.0
 70
   688
 72
     0
 73
     0
 74
     5
  7

 75
    16
147
1.0
148
0.0
149
0.0
100
AcDbLayout
  1
Layout2
 70
     1
 71
     2
 10
0.0
 20
0.0
 11
0.0
 21
0.0
 12
0.0
 22
0.0
 32
0.0
 14
0.0
 24
0.0
 34
0.0
 15
0.0
 25
0.0
 35
0.0
146
0.0
 13
0.0
 23
0.0
 33
0.0
 16
1.0
 26
0.0
 36
0.0
 17
0.0
 27
1.0
 37
0.0
 76
     0
330
23
  0
LAYOUT
  5
22
102
{ACAD_REACTORS
330
1A
102
}
330
1A
100
AcDbPlotSettings
  1

  2

  4

  6

 40
0.0
 41
0.0
 42
0.0
 43
0.0
 44
0.0
 45
0.0
 46
0.0
 47
0.0
 48
0.0
 49
0.0
140
0.0
141
0.0
142
1.0
143
1.0
 70
  1712
 72
     0
 73
     0
 74
     0
  7

 75
     0
147
1.0
148
0.0
149
0.0
100
AcDbLayout
  1
Model
 70
     1
 71
     0
 10
0.0
 20
0.0
 11
0.0
 21
0.0
 12
0.0
 22
0.0
 32
0.0
 14
0.0
 24
0.0
 34
0.0
 15
420.0
 25
594.0
 35
0.0
146
0.0
 13
0.0
 23
0.0
 33
0.0
 16
1.0
 26
0.0
 36
0.0
 17
0.0
 27
1.0
 37
0.0
 76
     0
330
1F
  0
MLINESTYLE
  5
18
102
{ACAD_REACTORS
330
17
102
}
330
17
100
AcDbMlineStyle
  2
Standard
 70
     0
  3

 62
   256
 51
90.0
 52
90.0
 71
     2
 49
0.5
 62
   256
  6
BYLAYER
 49
-0.5
 62
   256
  6
BYLAYER
  0
ACDBPLACEHOLDER
  5
F
102
{ACAD_REACTORS
330
E
102
}
330
E
  0
TABLESTYLE
  5
2B
102
{ACAD_REACTORS
330
2A
102
}
330
2A
100
AcDbTableStyle
  3
Standard
 70
     0
 71
     0
 40
0.06
 41
0.06
280
     0
281
     0
  7
Standard
140
0.18
170
     2
 62
     0
 63
     7
283
     0
274
    -2
284
     1
 64
     0
275
    -2
285
     1
 65
     0
276
    -2
286
     1
 66
     0
277
    -2
287
     1
 67
     0
278
    -2
288
     1
 68
     0
279
    -2
289
     1
 69
     0
  7
Standard
140
0.25
170
     5
 62
     0
 63
     7
283
     0
274
    -2
284
     1
 64
     0
275
    -2
285
     1
 65
     0
276
    -2
286
     1
 66
     0
277
    -2
287
     1
 67
     0
278
    -2
288
     1
 68
     0
279
    -2
289
     1
 69
     0
  7
Standard
140
0.18
170
     5
 62
     0
 63
     7
283
     0
274
    -2
284
     1
 64
     0
275
    -2
285
     1
 65
     0
276
    -2
286
     1
 66
     0
277
    -2
287
     1
 67
     0
278
    -2
288
     1
 68
     0
279
    -2
289
     1
 69
     0
  0
DICTIONARYVAR
  5
2D
102
{ACAD_REACTORS
330
2C
102
}
330
2C
100
DictionaryVariables
280
     0
  1
Standard
  0
ENDSEC
  0
EOF
