  0
SECTION
  2
HEADER
  9
$ACADVER
  1
AC1015
  9
$ACADMAINTVER
 70
     6
  9
$DWGCODEPAGE
  3
ANSI_932
  9
$INSBASE
 10
0.0
 20
0.0
 30
0.0
  9
$EXTMIN
 10
0.0
 20
0.0
 30
0.0
  9
$EXTMAX
 10
210.0
 20
297.0
 30
0.0
  9
$LIMMIN
 10
0.0
 20
0.0
  9
$LIMMAX
 10
12.0
 20
9.0
  9
$ORTHOMODE
 70
     0
  9
$REGENMODE
 70
     1
  9
$FILLMODE
 70
     1
  9
$QTEXTMODE
 70
     0
  9
$MIRRTEXT
 70
     1
  9
$LTSCALE
 40
1.0
  9
$ATTMODE
 70
     1
  9
$TEXTSIZE
 40
0.2
  9
$TRACEWID
 40
0.05
  9
$TEXTSTYLE
  7
Standard
  9
$CLAYER
  8
0
  9
$CELTYPE
  6
ByLayer
  9
$CECOLOR
 62
   256
  9
$CELTSCALE
 40
1.0
  9
$DISPSILH
 70
     0
  9
$DIMSCALE
 40
1.0
  9
$DIMASZ
 40
0.18
  9
$DIMEXO
 40
0.0625
  9
$DIMDLI
 40
0.38
  9
$DIMRND
 40
0.0
  9
$DIMDLE
 40
0.0
  9
$DIMEXE
 40
0.18
  9
$DIMTP
 40
0.0
  9
$DIMTM
 40
0.0
  9
$DIMTXT
 40
0.18
  9
$DIMCEN
 40
0.09
  9
$DIMTSZ
 40
0.0
  9
$DIMTOL
 70
     0
  9
$DIMLIM
 70
     0
  9
$DIMTIH
 70
     1
  9
$DIMTOH
 70
     1
  9
$DIMSE1
 70
     0
  9
$DIMSE2
 70
     0
  9
$DIMTAD
 70
     0
  9
$DIMZIN
 70
     0
  9
$DIMBLK
  1

  9
$DIMASO
 70
     1
  9
$DIMSHO
 70
     1
  9
$DIMPOST
  1

  9
$DIMAPOST
  1

  9
$DIMALT
 70
     0
  9
$DIMALTD
 70
     2
  9
$DIMALTF
 40
25.4
  9
$DIMLFAC
 40
1.0
  9
$DIMTOFL
 70
     0
  9
$DIMTVP
 40
0.0
  9
$DIMTIX
 70
     0
  9
$DIMSOXD
 70
     0
  9
$DIMSAH
 70
     0
  9
$DIMBLK1
  1

  9
$DIMBLK2
  1

  9
$DIMSTYLE
  2
Standard
  9
$DIMCLRD
 70
     0
  9
$DIMCLRE
 70
     0
  9
$DIMCLRT
 70
     0
  9
$DIMTFAC
 40
1.0
  9
$DIMGAP
 40
0.09
  9
$DIMJUST
 70
     0
  9
$DIMSD1
 70
     0
  9
$DIMSD2
 70
     0
  9
$DIMTOLJ
 70
     1
  9
$DIMTZIN
 70
     0
  9
$DIMALTZ
 70
     0
  9
$DIMALTTZ
 70
     0
  9
$DIMUPT
 70
     0
  9
$DIMDEC
 70
     4
  9
$DIMTDEC
 70
     4
  9
$DIMALTU
 70
     2
  9
$DIMALTTD
 70
     2
  9
$DIMTXSTY
  7
Standard
  9
$DIMAUNIT
 70
     0
  9
$DIMADEC
 70
     0
  9
$DIMALTRND
 40
0.0
  9
$DIMAZIN
 70
     0
  9
$DIMDSEP
 70
    46
  9
$DIMATFIT
 70
     3
  9
$DIMFRAC
 70
     0
  9
$DIMLDRBLK
  1

  9
$DIMLUNIT
 70
     2
  9
$DIMLWD
 70
    -2
  9
$DIMLWE
 70
    -2
  9
$DIMTMOVE
 70
     0
  9
$LUNITS
 70
     2
  9
$LUPREC
 70
     4
  9
$SKETCHINC
 40
0.1
  9
$FILLETRAD
 40
0.5
  9
$AUNITS
 70
     0
  9
$AUPREC
 70
     0
  9
$MENU
  1
.
  9
$ELEVATION
 40
0.0
  9
$PELEVATION
 40
0.0
  9
$THICKNESS
 40
0.0
  9
$LIMCHECK
 70
     0
  9
$CHAMFERA
 40
0.5
  9
$CHAMFERB
 40
0.5
  9
$CHAMFERC
 40
1.0
  9
$CHAMFERD
 40
0.0
  9
$SKPOLY
 70
     0
  9
$TDCREATE
 40
2457529.433232998
  9
$TDUCREATE
 40
2457529.058232998
  9
$TDUPDATE
 40
2457529.433234618
  9
$TDUUPDATE
 40
2457529.058234618
  9
$TDINDWG
 40
0.0000000116
  9
$TDUSRTIMER
 40
0.0000000116
  9
$USRTIMER
 70
     1
  9
$ANGBASE
 50
0.0
  9
$ANGDIR
 70
     0
  9
$PDMODE
 70
     0
  9
$PDSIZE
 40
0.0
  9
$PLINEWID
 40
0.0
  9
$SPLFRAME
 70
     0
  9
$SPLINETYPE
 70
     6
  9
$SPLINESEGS
 70
     8
  9
$HANDSEED
  5
3CC
  9
$SURFTAB1
 70
     6
  9
$SURFTAB2
 70
     6
  9
$SURFTYPE
 70
     6
  9
$SURFU
 70
     6
  9
$SURFV
 70
     6
  9
$UCSBASE
  2

  9
$UCSNAME
  2

  9
$UCSORG
 10
0.0
 20
0.0
 30
0.0
  9
$UCSXDIR
 10
1.0
 20
0.0
 30
0.0
  9
$UCSYDIR
 10
0.0
 20
1.0
 30
0.0
  9
$UCSORTHOREF
  2

  9
$UCSORTHOVIEW
 70
     0
  9
$UCSORGTOP
 10
0.0
 20
0.0
 30
0.0
  9
$UCSORGBOTTOM
 10
0.0
 20
0.0
 30
0.0
  9
$UCSORGLEFT
 10
0.0
 20
0.0
 30
0.0
  9
$UCSORGRIGHT
 10
0.0
 20
0.0
 30
0.0
  9
$UCSORGFRONT
 10
0.0
 20
0.0
 30
0.0
  9
$UCSORGBACK
 10
0.0
 20
0.0
 30
0.0
  9
$PUCSBASE
  2

  9
$PUCSNAME
  2

  9
$PUCSORG
 10
0.0
 20
0.0
 30
0.0
  9
$PUCSXDIR
 10
1.0
 20
0.0
 30
0.0
  9
$PUCSYDIR
 10
0.0
 20
1.0
 30
0.0
  9
$PUCSORTHOREF
  2

  9
$PUCSORTHOVIEW
 70
     0
  9
$PUCSORGTOP
 10
0.0
 20
0.0
 30
0.0
  9
$PUCSORGBOTTOM
 10
0.0
 20
0.0
 30
0.0
  9
$PUCSORGLEFT
 10
0.0
 20
0.0
 30
0.0
  9
$PUCSORGRIGHT
 10
0.0
 20
0.0
 30
0.0
  9
$PUCSORGFRONT
 10
0.0
 20
0.0
 30
0.0
  9
$PUCSORGBACK
 10
0.0
 20
0.0
 30
0.0
  9
$USERI1
 70
     0
  9
$USERI2
 70
     0
  9
$USERI3
 70
     0
  9
$USERI4
 70
     0
  9
$USERI5
 70
     0
  9
$USERR1
 40
18.1
  9
$USERR2
 40
0.0
  9
$USERR3
 40
0.0
  9
$USERR4
 40
0.0
  9
$USERR5
 40
0.0
  9
$WORLDVIEW
 70
     1
  9
$SHADEDGE
 70
     3
  9
$SHADEDIF
 70
    70
  9
$TILEMODE
 70
     1
  9
$MAXACTVP
 70
    64
  9
$PINSBASE
 10
0.0
 20
0.0
 30
0.0
  9
$PLIMCHECK
 70
     0
  9
$PEXTMIN
 10
1.00000000000000E+20
 20
1.00000000000000E+20
 30
1.00000000000000E+20
  9
$PEXTMAX
 10
-1.00000000000000E+20
 20
-1.00000000000000E+20
 30
-1.00000000000000E+20
  9
$PLIMMIN
 10
0.0
 20
0.0
  9
$PLIMMAX
 10
12.0
 20
9.0
  9
$UNITMODE
 70
     0
  9
$VISRETAIN
 70
     1
  9
$PLINEGEN
 70
     0
  9
$PSLTSCALE
 70
     1
  9
$TREEDEPTH
 70
  3020
  9
$CMLSTYLE
  2
Standard
  9
$CMLJUST
 70
     0
  9
$CMLSCALE
 40
1.0
  9
$PROXYGRAPHICS
 70
     1
  9
$MEASUREMENT
 70
     1
  9
$CELWEIGHT
370
    -1
  9
$ENDCAPS
280
     0
  9
$JOINSTYLE
280
     0
  9
$LWDISPLAY
290
     0
  9
$INSUNITS
 70
     4
  9
$HYPERLINKBASE
  1

  9
$STYLESHEET
  1

  9
$XEDIT
290
     1
  9
$CEPSNTYPE
380
     0
  9
$PSTYLEMODE
290
     1
  9
$FINGERPRINTGUID
  2
{0756685E-972C-497B-B8E6-8F6000E4DA0B}
  9
$VERSIONGUID
  2
{FAEB1C32-E019-11D5-929B-00C0DF256EC4}
  9
$EXTNAMES
290
     1
  9
$PSVPSCALE
 40
0.0
  9
$OLESTARTUP
290
     0
  0
ENDSEC
  0
SECTION
  2
CLASSES
  0
CLASS
  1
ACDBDICTIONARYWDFLT
  2
AcDbDictionaryWithDefault
  3
ObjectDBX Classes
 90
        0
280
     0
281
     0
  0
CLASS
  1
VISUALSTYLE
  2
AcDbVisualStyle
  3
ObjectDBX Classes
 90
     4095
280
     0
281
     0
  0
CLASS
  1
MATERIAL
  2
AcDbMaterial
  3
ObjectDBX Classes
 90
     1153
280
     0
281
     0
  0
CLASS
  1
DICTIONARYVAR
  2
AcDbDictionaryVar
  3
ObjectDBX Classes
 90
        0
280
     0
281
     0
  0
CLASS
  1
ACDBPLACEHOLDER
  2
AcDbPlaceHolder
  3
ObjectDBX Classes
 90
        0
280
     0
281
     0
  0
CLASS
  1
LAYOUT
  2
AcDbLayout
  3
ObjectDBX Classes
 90
        0
280
     0
281
     0
  0
ENDSEC
  0
SECTION
  2
TABLES
  0
TABLE
  2
VPORT
  5
8
330
0
100
AcDbSymbolTable
 70
     1
  0
VPORT
  5
29
330
8
100
AcDbSymbolTableRecord
100
AcDbViewportTableRecord
  2
*Active
 70
     0
 10
0.0
 20
0.0
 11
1.0
 21
1.0
 12
105.0
 22
148.5
 13
0.0
 23
0.0
 14
0.5
 24
0.5
 15
0.5
 25
0.5
 16
0.0
 26
0.0
 36
1.0
 17
0.0
 27
0.0
 37
0.0
 40
326.7
 41
1.60267857142857
 42
50.0
 43
0.0
 44
0.0
 50
0.0
 51
0.0
 71
     0
 72
   100
 73
     1
 74
     3
 75
     0
 76
     0
 77
     0
 78
     0
281
     0
 65
     1
110
0.0
120
0.0
130
0.0
111
1.0
121
0.0
131
0.0
112
0.0
122
1.0
132
0.0
 79
     0
146
0.0
  0
ENDTAB
  0
TABLE
  2
LTYPE
  5
5
330
0
100
AcDbSymbolTable
 70
     8
  0
LTYPE
  5
14
330
5
100
AcDbSymbolTableRecord
100
AcDbLinetypeTableRecord
  2
ByBlock
 70
     0
  3

 72
    65
 73
     0
 40
0.0
  0
LTYPE
  5
15
330
5
100
AcDbSymbolTableRecord
100
AcDbLinetypeTableRecord
  2
ByLayer
 70
     0
  3

 72
    65
 73
     0
 40
0.0
  0
LTYPE
  5
16
330
5
100
AcDbSymbolTableRecord
100
AcDbLinetypeTableRecord
  2
Continuous
 70
     0
  3
Solid line
 72
    65
 73
     0
 40
0.0
  0
LTYPE
  5
3F
330
5
100
AcDbSymbolTableRecord
100
AcDbLinetypeTableRecord
  2
DASHED
 70
     0
  3
Dashed
 72
    65
 73
     2
 40
15.0
 49
7.0
 74
     0
 49
-8.0
 74
     0
  0
LTYPE
  5
40
330
5
100
AcDbSymbolTableRecord
100
AcDbLinetypeTableRecord
  2
DOTTED
 70
     0
  3
Dotted
 72
    65
 73
     2
 40
1.0
 49
0.0
 74
     0
 49
-1.0
 74
     0
  0
LTYPE
  5
41
330
5
100
AcDbSymbolTableRecord
100
AcDbLinetypeTableRecord
  2
DOT_CENTER
 70
     0
  3
Dot_Center
 72
    65
 73
     4
 40
14.0
 49
12.0
 74
     0
 49
-1.0
 74
     0
 49
0.0
 74
     0
 49
-1.0
 74
     0
  0
LTYPE
  5
42
330
5
100
AcDbSymbolTableRecord
100
AcDbLinetypeTableRecord
  2
LONG_DASHED
 70
     0
  3
Long_Dashed
 72
    65
 73
     2
 40
15.0
 49
10.0
 74
     0
 49
-5.0
 74
     0
  0
LTYPE
  5
43
330
5
100
AcDbSymbolTableRecord
100
AcDbLinetypeTableRecord
  2
DASH_CENTER
 70
     0
  3
Dash_Center
 72
    65
 73
     4
 40
14.0
 49
11.0
 74
     0
 49
-1.0
 74
     0
 49
1.0
 74
     0
 49
-1.0
 74
     0
  0
LTYPE
  5
44
330
5
100
AcDbSymbolTableRecord
100
AcDbLinetypeTableRecord
  2
PHANTOM
 70
     0
  3
Phantom
 72
    65
 73
     6
 40
13.0
 49
10.0
 74
     0
 49
-1.0
 74
     0
 49
0.0
 74
     0
 49
-1.0
 74
     0
 49
0.0
 74
     0
 49
-1.0
 74
     0
  0
LTYPE
  5
45
330
5
100
AcDbSymbolTableRecord
100
AcDbLinetypeTableRecord
  2
CENTER_DASH_DASH
 70
     0
  3
Center_Dash_Dash
 72
    65
 73
     6
 40
14.0
 49
9.0
 74
     0
 49
-1.0
 74
     0
 49
1.0
 74
     0
 49
-1.0
 74
     0
 49
1.0
 74
     0
 49
-1.0
 74
     0
  0
ENDTAB
  0
TABLE
  2
LAYER
  5
2
330
0
100
AcDbSymbolTable
 70
     3
  0
LAYER
  5
10
330
2
100
AcDbSymbolTableRecord
100
AcDbLayerTableRecord
  2
0
 70
     0
 62
     7
  6
Continuous
370
    -3
390
F
  0
LAYER
  5
46
330
2
100
AcDbSymbolTableRecord
100
AcDbLayerTableRecord
  2
1
 70
     0
 62
     7
  6
Continuous
370
    -3
390
F
  0
LAYER
  5
47
330
2
100
AcDbSymbolTableRecord
100
AcDbLayerTableRecord
  2
表示_1
 70
     0
 62
     7
  6
Continuous
370
    -3
390
F
  0
ENDTAB
  0
TABLE
  2
STYLE
  5
3
330
0
100
AcDbSymbolTable
 70
     3
  0
STYLE
  5
11
330
3
100
AcDbSymbolTableRecord
100
AcDbTextStyleTableRecord
  2
Standard
 70
     0
 40
0.0
 41
1.0
 50
0.0
 71
     0
 42
0.2
  3
txt
  4

  0
STYLE
  5
27F
330
3
100
AcDbSymbolTableRecord
100
AcDbTextStyleTableRecord
  2
CONVERTER_11
 70
     0
 40
0.0
 41
0.89
 50
0.0
 71
     0
 42
0.2
  3
MS Mincho.ttf
  4

1001
ACAD
1000
MS Mincho
1071
    32785
  0
STYLE
  5
34E
330
3
100
AcDbSymbolTableRecord
100
AcDbTextStyleTableRecord
  2
CONVERTER_12
 70
     0
 40
0.0
 41
0.9
 50
0.0
 71
     0
 42
0.2
  3
txt.shx
  4

  0
ENDTAB
  0
TABLE
  2
VIEW
  5
6
330
0
100
AcDbSymbolTable
 70
     0
  0
ENDTAB
  0
TABLE
  2
UCS
  5
7
330
0
100
AcDbSymbolTable
 70
     0
  0
ENDTAB
  0
TABLE
  2
APPID
  5
9
330
0
100
AcDbSymbolTable
 70
     1
  0
APPID
  5
12
330
9
100
AcDbSymbolTableRecord
100
AcDbRegAppTableRecord
  2
ACAD
 70
     0
  0
ENDTAB
  0
TABLE
  2
DIMSTYLE
  5
A
330
0
100
AcDbSymbolTable
 70
     7
100
AcDbDimStyleTable
  0
DIMSTYLE
105
27
330
A
100
AcDbSymbolTableRecord
100
AcDbDimStyleTableRecord
  2
Standard
 70
     0
178
     0
340
11
  0
DIMSTYLE
105
367
102
{ACAD_REACTORS
330
368
102
}
330
A
100
AcDbSymbolTableRecord
100
AcDbDimStyleTableRecord
  2
ME10_DIM_10
 70
     0
 41
3.5
 42
0.0
 44
1.0
 73
     0
 74
     0
 77
     1
 78
     8
140
3.5
147
1.0
172
     1
173
     1
174
     1
175
     1
176
     2
177
     2
271
     2
178
     7
271
     2
340
34E
  0
DIMSTYLE
105
372
102
{ACAD_REACTORS
330
373
102
}
330
A
100
AcDbSymbolTableRecord
100
AcDbDimStyleTableRecord
  2
ME10_DIM_11
 70
     0
 41
3.5
 42
0.0
 44
1.0
 73
     0
 74
     0
 77
     1
 78
     8
140
3.5
147
1.0
172
     1
173
     1
174
     1
175
     1
176
     2
177
     2
271
     2
178
     7
271
     2
340
34E
  0
DIMSTYLE
105
37D
102
{ACAD_REACTORS
330
37E
102
}
330
A
100
AcDbSymbolTableRecord
100
AcDbDimStyleTableRecord
  2
ME10_DIM_12
 70
     0
 41
3.5
 42
0.0
 44
1.0
 73
     0
 74
     0
 77
     1
 78
     8
140
3.5
147
1.0
172
     1
173
     1
174
     1
175
     1
176
     2
177
     2
271
     2
178
     7
271
     2
340
34E
  0
DIMSTYLE
105
388
102
{ACAD_REACTORS
330
389
102
}
330
A
100
AcDbSymbolTableRecord
100
AcDbDimStyleTableRecord
  2
ME10_DIM_13
 70
     0
 41
3.5
 42
0.0
 44
1.0
 73
     0
 74
     0
 77
     1
 78
     8
140
3.5
147
1.0
172
     1
173
     1
174
     1
175
     1
176
     2
177
     2
271
     2
178
     7
271
     2
340
34E
  0
DIMSTYLE
105
393
102
{ACAD_REACTORS
330
394
102
}
330
A
100
AcDbSymbolTableRecord
100
AcDbDimStyleTableRecord
  2
ME10_DIM_14
 70
     0
 41
3.5
 42
0.0
 44
1.0
 73
     0
 74
     0
 77
     1
 78
     8
140
3.5
147
1.0
172
     1
173
     1
174
     1
175
     1
176
     2
177
     2
271
     2
178
     7
271
     2
340
34E
  0
DIMSTYLE
105
39E
102
{ACAD_REACTORS
330
39F
102
}
330
A
100
AcDbSymbolTableRecord
100
AcDbDimStyleTableRecord
  2
ME10_DIM_15
 70
     0
 41
3.5
 42
0.0
 44
1.0
 73
     0
 74
     0
 77
     1
 78
     8
140
3.5
147
1.0
172
     1
173
     1
174
     1
175
     1
176
     2
177
     2
271
     2
178
     7
271
     2
340
34E
  0
ENDTAB
  0
TABLE
  2
BLOCK_RECORD
  5
1
330
0
100
AcDbSymbolTable
 70
    11
  0
BLOCK_RECORD
  5
1F
330
1
100
AcDbSymbolTableRecord
100
AcDbBlockTableRecord
  2
*Model_Space
340
22
  0
BLOCK_RECORD
  5
1B
330
1
100
AcDbSymbolTableRecord
100
AcDbBlockTableRecord
  2
*Paper_Space
340
1E
  0
BLOCK_RECORD
  5
23
330
1
100
AcDbSymbolTableRecord
100
AcDbBlockTableRecord
  2
*Paper_Space0
340
26
  0
BLOCK_RECORD
  5
48
330
1
100
AcDbSymbolTableRecord
100
AcDbBlockTableRecord
  2
印刷
340
0
102
{BLKREFS
331
4C
102
}
  0
BLOCK_RECORD
  5
4B
330
1
100
AcDbSymbolTableRecord
100
AcDbBlockTableRecord
  2
81-196
340
0
102
{BLKREFS
331
55
102
}
  0
BLOCK_RECORD
  5
4F
330
1
100
AcDbSymbolTableRecord
100
AcDbBlockTableRecord
  2
開示A4
340
0
102
{BLKREFS
331
56
102
}
  0
BLOCK_RECORD
  5
52
330
1
100
AcDbSymbolTableRecord
100
AcDbBlockTableRecord
  2
V2113-0-13-M11
340
0
102
{BLKREFS
331
57
102
}
  0
BLOCK_RECORD
  5
35E
330
1
100
AcDbSymbolTableRecord
100
AcDbBlockTableRecord
  2
*D5
340
0
  0
BLOCK_RECORD
  5
369
330
1
100
AcDbSymbolTableRecord
100
AcDbBlockTableRecord
  2
*D6
340
0
  0
BLOCK_RECORD
  5
374
330
1
100
AcDbSymbolTableRecord
100
AcDbBlockTableRecord
  2
*D7
340
0
  0
BLOCK_RECORD
  5
37F
330
1
100
AcDbSymbolTableRecord
100
AcDbBlockTableRecord
  2
*D8
340
0
  0
BLOCK_RECORD
  5
38A
330
1
100
AcDbSymbolTableRecord
100
AcDbBlockTableRecord
  2
*D9
340
0
  0
BLOCK_RECORD
  5
395
330
1
100
AcDbSymbolTableRecord
100
AcDbBlockTableRecord
  2
*D10
340
0
  0
ENDTAB
  0
ENDSEC
  0
SECTION
  2
BLOCKS
  0
BLOCK
  5
20
330
1F
100
AcDbEntity
  8
0
100
AcDbBlockBegin
  2
*Model_Space
 70
     0
 10
0.0
 20
0.0
 30
0.0
  3
*Model_Space
  1

  0
ENDBLK
  5
21
330
1F
100
AcDbEntity
  8
0
100
AcDbBlockEnd
  0
BLOCK
  5
1C
330
1B
100
AcDbEntity
 67
     1
  8
0
100
AcDbBlockBegin
  2
*Paper_Space
 70
     0
 10
0.0
 20
0.0
 30
0.0
  3
*Paper_Space
  1

  0
ENDBLK
  5
1D
330
1B
100
AcDbEntity
 67
     1
  8
0
100
AcDbBlockEnd
  0
BLOCK
  5
24
330
23
100
AcDbEntity
  8
0
100
AcDbBlockBegin
  2
*Paper_Space0
 70
     0
 10
0.0
 20
0.0
 30
0.0
  3
*Paper_Space0
  1

  0
ENDBLK
  5
25
330
23
100
AcDbEntity
  8
0
100
AcDbBlockEnd
  0
BLOCK
  5
49
330
48
100
AcDbEntity
  8
0
100
AcDbBlockBegin
  2
印刷
 70
     0
 10
56.13452505379075
 20
187.2379562834883
 30
0.0
  3
印刷
  1

  0
LINE
  5
197
102
{ACAD_REACTORS
330
1AE
102
}
330
48
100
AcDbEntity
  8
1
  6
Continuous
 62
     2
100
AcDbLine
 10
77.87652505379071
 20
191.5528372834883
 30
0.0
 11
74.6615620537907
 21
192.6221942834883
 31
0.0
  0
LINE
  5
198
102
{ACAD_REACTORS
330
1AE
102
}
330
48
100
AcDbEntity
  8
1
  6
Continuous
 62
     2
100
AcDbLine
 10
74.6615620537907
 20
192.6221942834883
 30
0.0
 11
75.56072654054515
 21
193.1315916206746
 31
0.0
  0
LINE
  5
199
102
{ACAD_REACTORS
330
1AE
102
}
330
48
100
AcDbEntity
  8
1
  6
Continuous
 62
     2
100
AcDbLine
 10
56.94774205379065
 20
191.5528372834883
 30
0.0
 11
60.16236105379073
 21
192.6221942834883
 31
0.0
  0
LINE
  5
19A
102
{ACAD_REACTORS
330
1AE
102
}
330
48
100
AcDbEntity
  8
1
  6
Continuous
 62
     2
100
AcDbLine
 10
60.16236105379073
 20
192.6221942834883
 30
0.0
 11
59.2634464551694
 21
193.1314729722523
 31
0.0
  0
ARC
  5
19B
102
{ACAD_REACTORS
330
1AE
102
}
330
48
100
AcDbEntity
  8
1
  6
Continuous
 62
     2
100
AcDbCircle
 10
67.41213355379068
 20
188.8727674602375
 30
0.0
 40
10.80214162667628
100
AcDbArc
 50
14.36542863856665
 51
165.6345713614334
  0
ARC
  5
19C
102
{ACAD_REACTORS
330
1AE
102
}
330
48
100
AcDbEntity
  8
1
  6
Continuous
 62
     2
100
AcDbCircle
 10
67.41213355379068
 20
188.8727674602375
 30
0.0
 40
10.00214162667639
100
AcDbArc
 50
32.57812412915514
 51
147.4228087917989
  0
ARC
  5
19D
102
{ACAD_REACTORS
330
1AE
102
}
330
48
100
AcDbEntity
  8
1
  6
Continuous
 62
     2
100
AcDbCircle
 10
75.16639219454396
 20
193.8276522671443
 30
0.0
 40
0.7999999999999791
100
AcDbArc
 50
299.5325499177503
 51
32.57812412915691
  0
ARC
  5
19E
102
{ACAD_REACTORS
330
1AE
102
}
330
48
100
AcDbEntity
  8
1
  6
Continuous
 62
     2
100
AcDbCircle
 10
59.65779423594393
 20
193.827526007443
 30
0.0
 40
0.8000000000000176
100
AcDbArc
 50
147.4228087917965
 51
240.4663442015713
  0
LWPOLYLINE
  5
19F
102
{ACAD_REACTORS
330
1B4
102
}
330
48
100
AcDbEntity
  8
表示_1
  6
Continuous
 62
     2
100
AcDbPolyline
 90
        7
 70
     1
 43
0.0
 10
74.16546805379073
 20
189.1614242834883
 10
75.10391205379074
 20
189.1614242834883
 10
75.17354605379069
 20
189.1929252834883
 10
75.18762805379072
 20
189.2651212834883
 10
75.18762805379072
 20
189.3936232834883
 10
74.16546805379073
 20
189.3936232834883
 10
74.16546805379073
 20
189.1614242834883
  0
LWPOLYLINE
  5
1A0
102
{ACAD_REACTORS
330
1B3
102
}
330
48
100
AcDbEntity
  8
表示_1
  6
Continuous
 62
     2
100
AcDbPolyline
 90
       66
 70
     1
 43
0.0
 10
74.60308205379073
 20
187.8273322834883
 10
74.50136505379072
 20
187.8576272834883
 10
74.43763105379071
 20
187.9162802834883
 10
74.39250005379074
 20
188.0452132834883
 10
74.43388405379073
 20
188.1688052834883
 10
74.50136505379072
 20
188.2329702834883
 10
74.60127305379069
 20
188.2632662834883
 10
74.78283005379069
 20
188.2675942834883
 10
75.89904005379071
 20
188.2675942834883
 10
75.89885705379072
 20
188.3986282834883
 10
75.92315605379065
 20
188.5231552834883
 10
75.99835605379064
 20
188.6161922834883
 10
76.15087705379074
 20
188.6527552834883
 10
76.25939205379063
 20
188.6324722834883
 10
76.32989305379073
 20
188.5867392834883
 10
76.38307605379072
 20
188.5096122834883
 10
76.40753705379063
 20
188.2675942834883
 10
76.8423080537907
 20
188.2675942834883
 10
77.02567305379068
 20
188.2632662834883
 10
77.12377205379073
 20
188.2329702834883
 10
77.18750605379068
 20
188.1724232834883
 10
77.23263705379065
 20
188.0452132834883
 10
77.19125305379072
 20
187.9199622834883
 10
77.12377205379073
 20
187.8576272834883
 10
77.02373505379069
 20
187.8273322834883
 10
76.8423080537907
 20
187.8230042834883
 10
76.42235105379063
 20
187.8230042834883
 10
76.46196905379065
 20
186.5882822834883
 10
76.44650905379069
 20
186.4710192834883
 10
76.36826305379066
 20
186.3018222834883
 10
76.27634805379068
 20
186.2245362834883
 10
76.17064305379074
 20
186.1796292834883
 10
75.95829605379072
 20
186.1536832834883
 10
75.67123405379073
 20
186.1679162834883
 10
75.47421705379065
 20
186.1975032834883
 10
75.29167005379065
 20
186.2525572834883
 10
75.2271720537907
 20
186.2987162834883
 10
75.1914180537907
 20
186.3555662834883
 10
75.17281405379072
 20
186.4549572834883
 10
75.19883605379073
 20
186.5747972834883
 10
75.26238705379069
 20
186.6506812834883
 10
75.41500505379065
 20
186.7019702834883
 10
75.7657150537907
 20
186.6525332834883
 10
75.8446080537907
 20
186.6427142834883
 10
75.89755505379071
 20
186.6576822834883
 10
75.92737605379068
 20
186.6957902834883
 10
75.94348205379072
 20
186.8006722834883
 10
75.91385405379071
 20
187.7044932834883
 10
75.68707005379065
 20
187.4036522834883
 10
75.43722505379071
 20
187.1236282834883
 10
75.16516005379071
 20
186.8648882834883
 10
74.8717130537907
 20
186.6279002834883
 10
74.7019990537907
 20
186.5203922834883
 10
74.59507205379072
 20
186.4944032834883
 10
74.50307205379073
 20
186.5132382834883
 10
74.42596105379073
 20
186.5635632834883
 10
74.37294405379072
 20
186.6361092834883
 10
74.35322605379065
 20
186.7216072834883
 10
74.36493905379064
 20
186.8015822834883
 10
74.40998405379071
 20
186.8722872834883
 10
74.65949505379069
 20
187.0821362834883
 10
74.93910805379073
 20
187.3192452834883
 10
75.16571405379074
 20
187.5489202834883
 10
75.38537705379065
 20
187.8230042834883
 10
74.78283005379069
 20
187.8230042834883
 10
74.60308205379073
 20
187.8273322834883
  0
LWPOLYLINE
  5
1A1
102
{ACAD_REACTORS
330
1B2
102
}
330
48
100
AcDbEntity
  8
表示_1
  6
Continuous
 62
     2
100
AcDbPolyline
 90
       35
 70
     1
 43
0.0
 10
76.13144405379069
 20
188.7729732834883
 10
76.03288205379073
 20
188.8293162834883
 10
75.96119205379068
 20
188.9356572834883
 10
75.9334910537907
 20
189.1021682834883
 10
75.9334910537907
 20
190.1294952834883
 10
75.95139505379063
 20
190.2239582834883
 10
76.01005905379066
 20
190.3258012834883
 10
76.11691005379072
 20
190.4072642834883
 10
76.27937905379065
 20
190.4405882834883
 10
77.57818005379073
 20
190.4405882834883
 10
77.72237305379065
 20
190.4136672834883
 10
77.82764805379065
 20
190.3436942834883
 10
77.89216305379068
 20
190.2468492834883
 10
77.91407705379072
 20
190.1393142834883
 10
77.91407705379072
 20
186.5043942834883
 10
77.8930090537907
 20
186.3429752834883
 10
77.83628805379072
 20
186.2216732834883
 10
77.75364005379072
 20
186.1347552834883
 10
77.65479005379063
 20
186.0764912834883
 10
77.44739005379063
 20
186.0230042834883
 10
77.29189305379072
 20
186.0153622834883
 10
76.97828705379072
 20
186.0287982834883
 10
76.75088305379074
 20
186.0746612834883
 10
76.61242805379072
 20
186.1612842834883
 10
76.56566605379072
 20
186.2969992834883
 10
76.59529405379072
 20
186.4420812834883
 10
76.6656600537907
 20
186.5199502834883
 10
76.80268905379069
 20
186.5538312834883
 10
77.02007505379072
 20
186.5242032834883
 10
77.27707905379066
 20
186.4993982834883
 10
77.37448905379063
 20
186.5290692834883
 10
77.40523605379065
 20
186.6623512834883
 10
77.40523605379065
 20
188.7564532834883
 10
76.23976005379063
 20
188.7564532834883
 10
76.13144405379069
 20
188.7729732834883
  0
LWPOLYLINE
  5
1A2
102
{ACAD_REACTORS
330
1B2
102
}
330
48
100
AcDbEntity
  8
表示_1
  6
Continuous
 62
     2
100
AcDbPolyline
 90
       10
 70
     1
 43
0.0
 10
77.40523605379065
 20
189.9369152834883
 10
77.39050805379065
 20
189.9942972834883
 10
77.31635305379064
 20
190.0109842834883
 10
76.51640205379073
 20
190.0109842834883
 10
76.43789605379072
 20
190.0017252834883
 10
76.4057980537907
 20
189.9797362834883
 10
76.39272305379063
 20
189.9369152834883
 10
76.39272305379063
 20
189.7787852834883
 10
77.40523605379065
 20
189.7787852834883
 10
77.40523605379065
 20
189.9369152834883
  0
LWPOLYLINE
  5
1A3
102
{ACAD_REACTORS
330
1B2
102
}
330
48
100
AcDbEntity
  8
表示_1
  6
Continuous
 62
     2
100
AcDbPolyline
 90
        7
 70
     1
 43
0.0
 10
76.39272305379063
 20
189.2651212834883
 10
76.41873305379073
 20
189.1917192834883
 10
76.49642005379064
 20
189.1812332834883
 10
77.40523605379065
 20
189.1812332834883
 10
77.40523605379065
 20
189.3936232834883
 10
76.39272305379063
 20
189.3936232834883
 10
76.39272305379063
 20
189.2651212834883
  0
LWPOLYLINE
  5
1A4
102
{ACAD_REACTORS
330
1B1
102
}
330
48
100
AcDbEntity
  8
表示_1
  6
Continuous
 62
     2
100
AcDbPolyline
 90
       26
 70
     1
 43
0.0
 10
57.30021905379073
 20
186.1870362834883
 10
57.23540805379071
 20
186.0746182834883
 10
57.15707505379072
 20
186.0216072834883
 10
57.0676320537907
 20
186.0055442834883
 10
56.93339205379073
 20
186.0387222834883
 10
56.86445705379072
 20
186.1265312834883
 10
56.83906005379072
 20
186.2513862834883
 10
56.83543205379073
 20
186.3957012834883
 10
56.83543205379073
 20
189.8282222834883
 10
56.86220705379071
 20
190.0945442834883
 10
56.94963705379064
 20
190.2807352834883
 10
57.10838105379071
 20
190.3900582834883
 10
57.34909605379073
 20
190.4257742834883
 10
58.36161005379074
 20
190.4257742834883
 10
58.54615105379071
 20
190.4084302834883
 10
58.68258505379072
 20
190.3461922834883
 10
58.76718105379064
 20
190.2237512834883
 10
58.79620805379074
 20
190.0257982834883
 10
58.79620805379074
 20
189.1417872834883
 10
58.78416905379072
 20
188.9464392834883
 10
58.72211705379073
 20
188.7719562834883
 10
58.57115005379069
 20
188.6465652834883
 10
58.29236305379072
 20
188.5984952834883
 10
57.30947805379071
 20
188.5984952834883
 10
57.30947805379071
 20
186.3957012834883
 10
57.30021905379073
 20
186.1870362834883
  0
LWPOLYLINE
  5
1A5
102
{ACAD_REACTORS
330
1B1
102
}
330
48
100
AcDbEntity
  8
表示_1
  6
Continuous
 62
     2
100
AcDbPolyline
 90
       11
 70
     1
 43
0.0
 10
58.29735905379073
 20
189.8528542834883
 10
58.28269805379068
 20
189.9328212834883
 10
58.24673705379064
 20
189.9738852834883
 10
58.15903805379071
 20
189.9911752834883
 10
57.47260305379064
 20
189.9911752834883
 10
57.3804030537907
 20
189.9755052834883
 10
57.33174105379072
 20
189.9362262834883
 10
57.30947805379071
 20
189.8332172834883
 10
57.30947805379071
 20
189.7147062834883
 10
58.29735905379073
 20
189.7147062834883
 10
58.29735905379073
 20
189.8528542834883
  0
LWPOLYLINE
  5
1A6
102
{ACAD_REACTORS
330
1B1
102
}
330
48
100
AcDbEntity
  8
表示_1
  6
Continuous
 62
     2
100
AcDbPolyline
 90
        8
 70
     1
 43
0.0
 10
57.30947805379071
 20
189.0627222834883
 10
58.1688570537907
 20
189.0627222834883
 10
58.2368970537907
 20
189.0736872834883
 10
58.27574105379074
 20
189.1022542834883
 10
58.29735905379073
 20
189.1862282834883
 10
58.29735905379073
 20
189.3095632834883
 10
57.30947805379071
 20
189.3095632834883
 10
57.30947805379071
 20
189.0627222834883
  0
LWPOLYLINE
  5
1A7
102
{ACAD_REACTORS
330
1B0
102
}
330
48
100
AcDbEntity
  8
表示_1
  6
Continuous
 62
     2
100
AcDbPolyline
 90
       70
 70
     1
 43
0.0
 10
60.0653820537907
 20
187.5613492834883
 10
60.24943605379065
 20
187.5570212834883
 10
60.35184105379074
 20
187.5267262834883
 10
60.41548905379074
 20
187.4680522834883
 10
60.46053405379064
 20
187.3389682834883
 10
60.41729805379072
 20
187.2180242834883
 10
60.35184105379074
 20
187.1563782834883
 10
60.24943605379065
 20
187.1260832834883
 10
60.0653820537907
 20
187.1217552834883
 10
59.82835905379073
 20
187.1217552834883
 10
59.82835905379073
 20
186.4795892834883
 10
59.81972505379065
 20
186.2647662834883
 10
59.75928505379073
 20
186.1536832834883
 10
59.67221005379065
 20
186.0987982834883
 10
59.58151805379072
 20
186.0846092834883
 10
59.46414805379072
 20
186.1110932834883
 10
59.36912805379063
 20
186.1931292834883
 10
59.33883305379072
 20
186.2956642834883
 10
59.33450505379074
 20
186.4795892834883
 10
59.33450505379074
 20
187.1217552834883
 10
58.69733405379066
 20
187.1217552834883
 10
58.67208305379074
 20
186.9603712834883
 10
58.60603905379071
 20
186.7457442834883
 10
58.46958605379064
 20
186.5042782834883
 10
58.23310805379072
 20
186.2623762834883
 10
58.00284605379073
 20
186.1216012834883
 10
57.78369505379072
 20
186.0549812834883
 10
57.69215505379066
 20
186.0731142834883
 10
57.6256300537907
 20
186.1222682834883
 10
57.58503905379064
 20
186.1945802834883
 10
57.57130505379064
 20
186.2821852834883
 10
57.59007005379073
 20
186.3809112834883
 10
57.63615905379072
 20
186.4463222834883
 10
57.74907205379066
 20
186.5142122834883
 10
57.91716805379065
 20
186.5917972834883
 10
58.05656805379073
 20
186.7013242834883
 10
58.16447805379073
 20
186.8691812834883
 10
58.23810305379072
 20
187.1217552834883
 10
57.87257805379073
 20
187.1217552834883
 10
57.68865305379075
 20
187.1260832834883
 10
57.58611905379064
 20
187.1563782834883
 10
57.52253505379065
 20
187.2149662834883
 10
57.47742605379074
 20
187.3439642834883
 10
57.52066205379072
 20
187.4649292834883
 10
57.58611905379064
 20
187.5267262834883
 10
57.68865305379075
 20
187.5570212834883
 10
57.87257805379073
 20
187.5613492834883
 10
58.26273505379072
 20
187.5613492834883
 10
58.24792205379072
 20
187.9761392834883
 10
57.92201505379069
 20
187.9761392834883
 10
57.73865005379071
 20
187.9804662834883
 10
57.64055105379072
 20
188.0107622834883
 10
57.56947505379071
 20
188.0730532834883
 10
57.53185805379064
 20
188.1835332834882
 10
57.56704105379072
 20
188.2860462834883
 10
57.63555605379065
 20
188.3514822834883
 10
57.73802605379069
 20
188.3817772834883
 10
57.92201505379069
 20
188.3861052834883
 10
60.0653820537907
 20
188.3861052834883
 10
60.24883305379069
 20
188.3817772834883
 10
60.34701805379063
 20
188.3514822834883
 10
60.41794405379073
 20
188.2891252834883
 10
60.45553905379063
 20
188.1787102834883
 10
60.42035605379073
 20
188.0761972834883
 10
60.35184105379074
 20
188.0107622834883
 10
60.25124505379074
 20
187.9804662834883
 10
60.0653820537907
 20
187.9761392834883
 10
59.82835905379073
 20
187.9761392834883
 10
59.82835905379073
 20
187.5613492834883
 10
60.0653820537907
 20
187.5613492834883
  0
LWPOLYLINE
  5
1A8
102
{ACAD_REACTORS
330
1B0
102
}
330
48
100
AcDbEntity
  8
表示_1
  6
Continuous
 62
     2
100
AcDbPolyline
 90
        5
 70
     1
 43
0.0
 10
58.71214805379066
 20
187.9761392834883
 10
58.72213905379073
 20
187.5613492834883
 10
59.33450505379074
 20
187.5613492834883
 10
59.33450505379074
 20
187.9761392834883
 10
58.71214805379066
 20
187.9761392834883
  0
LWPOLYLINE
  5
1A9
102
{ACAD_REACTORS
330
1AF
102
}
330
48
100
AcDbEntity
  8
表示_1
  6
Continuous
 62
     2
100
AcDbPolyline
 90
       35
 70
     1
 43
0.0
 10
59.43959105379065
 20
188.6082792834883
 10
59.2789520537907
 20
188.6620362834883
 10
59.16831105379072
 20
188.7963752834882
 10
59.12711005379072
 20
189.0479082834883
 10
59.12711005379072
 20
190.0257982834883
 10
59.1589070537907
 20
190.2112522834883
 10
59.2444150537907
 20
190.3350822834883
 10
59.36881005379064
 20
190.4042632834883
 10
59.51726705379065
 20
190.4257742834883
 10
60.71736605379073
 20
190.4257742834883
 10
60.90149305379072
 20
190.3936862834883
 10
61.02727405379073
 20
190.3097602834883
 10
61.09934405379073
 20
190.1925032834883
 10
61.12233705379072
 20
190.0604212834883
 10
61.12233705379072
 20
186.6279002834883
 10
61.10567105379073
 20
186.3661162834883
 10
61.06609005379073
 20
186.2583492834883
 10
60.9890120537907
 20
186.1635022834883
 10
60.87325105379068
 20
186.0893112834883
 10
60.7334290537907
 20
186.0512132834883
 10
60.38146905379074
 20
186.0351722834883
 10
60.14567405379069
 20
186.0654242834883
 10
60.04672705379073
 20
186.1372732834883
 10
60.0061260537907
 20
186.2771902834883
 10
60.02240705379074
 20
186.3642212834883
 10
60.06971005379069
 20
186.4401432834883
 10
60.14572505379073
 20
186.4938432834883
 10
60.24814405379073
 20
186.5142122834883
 10
60.44072505379074
 20
186.4993982834883
 10
60.5760520537907
 20
186.5284662834883
 10
60.61796705379072
 20
186.5765742834883
 10
60.63347805379073
 20
186.6575282834883
 10
60.63347805379073
 20
188.5984952834883
 10
59.63078305379065
 20
188.5984952834883
 10
59.43959105379065
 20
188.6082792834883
  0
LWPOLYLINE
  5
1AA
102
{ACAD_REACTORS
330
1AF
102
}
330
48
100
AcDbEntity
  8
表示_1
  6
Continuous
 62
     2
100
AcDbPolyline
 90
       11
 70
     1
 43
0.0
 10
60.63347805379073
 20
189.8528542834883
 10
60.61695005379073
 20
189.9328212834883
 10
60.57540605379074
 20
189.9738852834883
 10
60.46552905379065
 20
189.9911752834883
 10
59.71966605379072
 20
189.9911752834883
 10
59.65115205379072
 20
189.9745092834882
 10
59.61596905379065
 20
189.9356232834883
 10
59.60115505379065
 20
189.8578502834883
 10
59.60115505379065
 20
189.7147062834883
 10
60.63347805379073
 20
189.7147062834883
 10
60.63347805379073
 20
189.8528542834883
  0
LWPOLYLINE
  5
1AB
102
{ACAD_REACTORS
330
1AF
102
}
330
48
100
AcDbEntity
  8
表示_1
  6
Continuous
 62
     2
100
AcDbPolyline
 90
        8
 70
     1
 43
0.0
 10
59.60115505379065
 20
189.2206792834883
 10
59.6203180537907
 20
189.0991322834883
 10
59.66161605379068
 20
189.0714392834883
 10
59.73947605379073
 20
189.0627222834883
 10
60.63347805379073
 20
189.0627222834883
 10
60.63347805379073
 20
189.3095632834883
 10
59.60115505379065
 20
189.3095632834883
 10
59.60115505379065
 20
189.2206792834883
  0
LWPOLYLINE
  5
1AC
102
{ACAD_REACTORS
330
1B4
102
}
330
48
100
AcDbEntity
  8
表示_1
  6
Continuous
 62
     2
100
AcDbPolyline
 90
       26
 70
     1
 43
0.0
 10
74.16116205379069
 20
186.1993952834883
 10
74.13101705379074
 20
186.0994232834883
 10
74.01849205379074
 20
186.0079992834883
 10
73.92844605379071
 20
185.9907302834883
 10
73.8030010537907
 20
186.0246642834883
 10
73.72587405379073
 20
186.0994232834883
 10
73.69573005379073
 20
186.1993952834883
 10
73.69142305379069
 20
186.3808872834883
 10
73.69142305379069
 20
190.0652442834883
 10
73.72220805379072
 20
190.2259932834883
 10
73.80437905379074
 20
190.3436732834883
 10
73.92265905379065
 20
190.4159742834883
 10
74.06177105379072
 20
190.4405882834883
 10
75.34093505379064
 20
190.4405882834883
 10
75.50591205379072
 20
190.4044012834883
 10
75.6088770537907
 20
190.3177482834883
 10
75.66184605379073
 20
190.2134942834883
 10
75.67683205379069
 20
190.1245002834882
 10
75.67683205379069
 20
189.0973452834883
 10
75.65484205379073
 20
188.9443802834883
 10
75.58980005379073
 20
188.8293812834882
 10
75.48309405379064
 20
188.7569832834883
 10
75.33611205379066
 20
188.7318202834883
 10
74.16546805379073
 20
188.7318202834883
 10
74.16546805379073
 20
186.3808872834883
 10
74.16116205379069
 20
186.1993952834883
  0
LWPOLYLINE
  5
1AD
102
{ACAD_REACTORS
330
1B4
102
}
330
48
100
AcDbEntity
  8
表示_1
  6
Continuous
 62
     2
100
AcDbPolyline
 90
        9
 70
     1
 43
0.0
 10
75.18762805379072
 20
189.9319192834883
 10
75.16605305379073
 20
189.9917992834883
 10
75.10391205379074
 20
190.0109842834883
 10
74.25435205379074
 20
190.0109842834883
 10
74.18213405379072
 20
189.9782132834883
 10
74.16546805379073
 20
189.9121102834883
 10
74.16546805379073
 20
189.7591482834883
 10
75.18762805379072
 20
189.7591482834883
 10
75.18762805379072
 20
189.9319192834883
  0
HATCH
  5
1AE
330
48
100
AcDbEntity
  8
1
  6
Continuous
 62
     2
100
AcDbHatch
 10
0.0
 20
0.0
 30
0.0
210
0.0
220
0.0
230
1.0
  2
CUSTOM0
 70
     0
 71
     1
 91
        1
 92
        1
 93
        8
 72
     1
 10
77.87652505379071
 20
191.5528372834883
 11
74.6615620537907
 21
192.6221942834883
 72
     1
 10
74.6615620537907
 20
192.6221942834883
 11
75.56072654054515
 21
193.1315916206746
 72
     2
 10
75.16639219454396
 20
193.8276522671443
 40
0.7999999999999791
 50
299.5325499177503
 51
392.5781241291569
 73
     1
 72
     2
 10
67.41213355379068
 20
188.8727674602375
 40
10.00214162667639
 50
32.57812412915514
 51
147.4228087917989
 73
     1
 72
     2
 10
59.65779423594393
 20
193.827526007443
 40
0.8000000000000176
 50
147.4228087917965
 51
240.4663442015713
 73
     1
 72
     1
 10
59.2634464551694
 20
193.1314729722523
 11
60.16236105379073
 21
192.6221942834883
 72
     1
 10
60.16236105379073
 20
192.6221942834883
 11
56.94774205379065
 21
191.5528372834883
 72
     2
 10
67.41213355379068
 20
188.8727674602375
 40
10.80214162667628
 50
194.3654286385666
 51
345.6345713614334
 73
     0
 97
        8
330
197
330
198
330
19D
330
19C
330
19E
330
19A
330
199
330
19B
 75
     1
 76
     2
 52
135.0
 41
0.005
 77
     0
 78
     2
 53
135.0
 43
0.0
 44
0.0
 45
0.0
 46
-0.0141421356237309
 79
     0
 53
225.0
 43
0.0
 44
0.0
 45
0.0141421356237309
 46
0.0
 79
     0
 98
        1
 10
0.0
 20
0.0
  0
HATCH
  5
1AF
330
48
100
AcDbEntity
  8
1
  6
Continuous
 62
     2
100
AcDbHatch
 10
0.0
 20
0.0
 30
0.0
210
0.0
220
0.0
230
1.0
  2
CUSTOM1
 70
     0
 71
     1
 91
        3
 92
        1
 93
       34
 72
     1
 10
60.90149305379072
 20
190.3936862834883
 11
61.02727405379073
 21
190.3097602834883
 72
     1
 10
61.02727405379073
 20
190.3097602834883
 11
61.09934405379073
 21
190.1925032834883
 72
     1
 10
61.09934405379073
 20
190.1925032834883
 11
61.12233705379072
 21
190.0604212834883
 72
     1
 10
61.12233705379072
 20
190.0604212834883
 11
61.12233705379072
 21
186.6279002834883
 72
     1
 10
61.12233705379072
 20
186.6279002834883
 11
61.10567105379073
 21
186.3661162834883
 72
     1
 10
61.10567105379073
 20
186.3661162834883
 11
61.06609005379073
 21
186.2583492834883
 72
     1
 10
61.06609005379073
 20
186.2583492834883
 11
60.9890120537907
 21
186.1635022834883
 72
     1
 10
60.9890120537907
 20
186.1635022834883
 11
60.87325105379068
 21
186.0893112834883
 72
     1
 10
60.87325105379068
 20
186.0893112834883
 11
60.7334290537907
 21
186.0512132834883
 72
     1
 10
60.7334290537907
 20
186.0512132834883
 11
60.38146905379074
 21
186.0351722834883
 72
     1
 10
60.38146905379074
 20
186.0351722834883
 11
60.14567405379069
 21
186.0654242834883
 72
     1
 10
60.14567405379069
 20
186.0654242834883
 11
60.04672705379073
 21
186.1372732834883
 72
     1
 10
60.04672705379073
 20
186.1372732834883
 11
60.0061260537907
 21
186.2771902834883
 72
     1
 10
60.0061260537907
 20
186.2771902834883
 11
60.02240705379074
 21
186.3642212834883
 72
     1
 10
60.02240705379074
 20
186.3642212834883
 11
60.06971005379069
 21
186.4401432834883
 72
     1
 10
60.06971005379069
 20
186.4401432834883
 11
60.14572505379073
 21
186.4938432834883
 72
     1
 10
60.14572505379073
 20
186.4938432834883
 11
60.24814405379073
 21
186.5142122834883
 72
     1
 10
60.24814405379073
 20
186.5142122834883
 11
60.44072505379074
 21
186.4993982834883
 72
     1
 10
60.44072505379074
 20
186.4993982834883
 11
60.5760520537907
 21
186.5284662834883
 72
     1
 10
60.5760520537907
 20
186.5284662834883
 11
60.61796705379072
 21
186.5765742834883
 72
     1
 10
60.61796705379072
 20
186.5765742834883
 11
60.63347805379073
 21
186.6575282834883
 72
     1
 10
60.63347805379073
 20
186.6575282834883
 11
60.63347805379073
 21
188.5984952834883
 72
     1
 10
60.63347805379073
 20
188.5984952834883
 11
59.63078305379065
 21
188.5984952834883
 72
     1
 10
59.63078305379065
 20
188.5984952834883
 11
59.43959105379065
 21
188.6082792834883
 72
     1
 10
59.43959105379065
 20
188.6082792834883
 11
59.2789520537907
 21
188.6620362834883
 72
     1
 10
59.2789520537907
 20
188.6620362834883
 11
59.16831105379072
 21
188.7963752834882
 72
     1
 10
59.16831105379072
 20
188.7963752834882
 11
59.12711005379072
 21
189.0479082834883
 72
     1
 10
59.12711005379072
 20
189.0479082834883
 11
59.12711005379072
 21
190.0257982834883
 72
     1
 10
59.12711005379072
 20
190.0257982834883
 11
59.1589070537907
 21
190.2112522834883
 72
     1
 10
59.1589070537907
 20
190.2112522834883
 11
59.2444150537907
 21
190.3350822834883
 72
     1
 10
59.2444150537907
 20
190.3350822834883
 11
59.36881005379064
 21
190.4042632834883
 72
     1
 10
59.36881005379064
 20
190.4042632834883
 11
59.51726705379065
 21
190.4257742834883
 72
     1
 10
59.51726705379065
 20
190.4257742834883
 11
60.71736605379073
 21
190.4257742834883
 72
     1
 10
60.71736605379073
 20
190.4257742834883
 11
60.90149305379072
 21
190.3936862834883
 97
        1
330
1A9
 92
       16
 93
        7
 72
     1
 10
59.60115505379065
 20
189.2206792834883
 11
59.6203180537907
 21
189.0991322834883
 72
     1
 10
59.6203180537907
 20
189.0991322834883
 11
59.66161605379068
 21
189.0714392834883
 72
     1
 10
59.66161605379068
 20
189.0714392834883
 11
59.73947605379073
 21
189.0627222834883
 72
     1
 10
59.73947605379073
 20
189.0627222834883
 11
60.63347805379073
 21
189.0627222834883
 72
     1
 10
60.63347805379073
 20
189.0627222834883
 11
60.63347805379073
 21
189.3095632834883
 72
     1
 10
60.63347805379073
 20
189.3095632834883
 11
59.60115505379065
 21
189.3095632834883
 72
     1
 10
59.60115505379065
 20
189.3095632834883
 11
59.60115505379065
 21
189.2206792834883
 97
        1
330
1AB
 92
       16
 93
       10
 72
     1
 10
60.63347805379073
 20
189.8528542834883
 11
60.61695005379073
 21
189.9328212834883
 72
     1
 10
60.61695005379073
 20
189.9328212834883
 11
60.57540605379074
 21
189.9738852834883
 72
     1
 10
60.57540605379074
 20
189.9738852834883
 11
60.46552905379065
 21
189.9911752834883
 72
     1
 10
60.46552905379065
 20
189.9911752834883
 11
59.71966605379072
 21
189.9911752834883
 72
     1
 10
59.71966605379072
 20
189.9911752834883
 11
59.65115205379072
 21
189.9745092834882
 72
     1
 10
59.65115205379072
 20
189.9745092834882
 11
59.61596905379065
 21
189.9356232834883
 72
     1
 10
59.61596905379065
 20
189.9356232834883
 11
59.60115505379065
 21
189.8578502834883
 72
     1
 10
59.60115505379065
 20
189.8578502834883
 11
59.60115505379065
 21
189.7147062834883
 72
     1
 10
59.60115505379065
 20
189.7147062834883
 11
60.63347805379073
 21
189.7147062834883
 72
     1
 10
60.63347805379073
 20
189.7147062834883
 11
60.63347805379073
 21
189.8528542834883
 97
        1
330
1AA
 75
     1
 76
     2
 52
135.0
 41
0.005
 77
     0
 78
     2
 53
135.0
 43
0.0
 44
0.0
 45
0.0
 46
-0.0141421356237309
 79
     0
 53
225.0
 43
0.0
 44
0.0
 45
0.0141421356237309
 46
0.0
 79
     0
 98
        1
 10
0.0
 20
0.0
  0
HATCH
  5
1B0
330
48
100
AcDbEntity
  8
1
  6
Continuous
 62
     2
100
AcDbHatch
 10
0.0
 20
0.0
 30
0.0
210
0.0
220
0.0
230
1.0
  2
CUSTOM2
 70
     0
 71
     1
 91
        2
 92
        1
 93
       69
 72
     1
 10
60.0653820537907
 20
188.3861052834883
 11
60.24883305379069
 21
188.3817772834883
 72
     1
 10
60.24883305379069
 20
188.3817772834883
 11
60.34701805379063
 21
188.3514822834883
 72
     1
 10
60.34701805379063
 20
188.3514822834883
 11
60.41794405379073
 21
188.2891252834883
 72
     1
 10
60.41794405379073
 20
188.2891252834883
 11
60.45553905379063
 21
188.1787102834883
 72
     1
 10
60.45553905379063
 20
188.1787102834883
 11
60.42035605379073
 21
188.0761972834883
 72
     1
 10
60.42035605379073
 20
188.0761972834883
 11
60.35184105379074
 21
188.0107622834883
 72
     1
 10
60.35184105379074
 20
188.0107622834883
 11
60.25124505379074
 21
187.9804662834883
 72
     1
 10
60.25124505379074
 20
187.9804662834883
 11
60.0653820537907
 21
187.9761392834883
 72
     1
 10
60.0653820537907
 20
187.9761392834883
 11
59.82835905379073
 21
187.9761392834883
 72
     1
 10
59.82835905379073
 20
187.9761392834883
 11
59.82835905379073
 21
187.5613492834883
 72
     1
 10
59.82835905379073
 20
187.5613492834883
 11
60.0653820537907
 21
187.5613492834883
 72
     1
 10
60.0653820537907
 20
187.5613492834883
 11
60.24943605379065
 21
187.5570212834883
 72
     1
 10
60.24943605379065
 20
187.5570212834883
 11
60.35184105379074
 21
187.5267262834883
 72
     1
 10
60.35184105379074
 20
187.5267262834883
 11
60.41548905379074
 21
187.4680522834883
 72
     1
 10
60.41548905379074
 20
187.4680522834883
 11
60.46053405379064
 21
187.3389682834883
 72
     1
 10
60.46053405379064
 20
187.3389682834883
 11
60.41729805379072
 21
187.2180242834883
 72
     1
 10
60.41729805379072
 20
187.2180242834883
 11
60.35184105379074
 21
187.1563782834883
 72
     1
 10
60.35184105379074
 20
187.1563782834883
 11
60.24943605379065
 21
187.1260832834883
 72
     1
 10
60.24943605379065
 20
187.1260832834883
 11
60.0653820537907
 21
187.1217552834883
 72
     1
 10
60.0653820537907
 20
187.1217552834883
 11
59.82835905379073
 21
187.1217552834883
 72
     1
 10
59.82835905379073
 20
187.1217552834883
 11
59.82835905379073
 21
186.4795892834883
 72
     1
 10
59.82835905379073
 20
186.4795892834883
 11
59.81972505379065
 21
186.2647662834883
 72
     1
 10
59.81972505379065
 20
186.2647662834883
 11
59.75928505379073
 21
186.1536832834883
 72
     1
 10
59.75928505379073
 20
186.1536832834883
 11
59.67221005379065
 21
186.0987982834883
 72
     1
 10
59.67221005379065
 20
186.0987982834883
 11
59.58151805379072
 21
186.0846092834883
 72
     1
 10
59.58151805379072
 20
186.0846092834883
 11
59.46414805379072
 21
186.1110932834883
 72
     1
 10
59.46414805379072
 20
186.1110932834883
 11
59.36912805379063
 21
186.1931292834883
 72
     1
 10
59.36912805379063
 20
186.1931292834883
 11
59.33883305379072
 21
186.2956642834883
 72
     1
 10
59.33883305379072
 20
186.2956642834883
 11
59.33450505379074
 21
186.4795892834883
 72
     1
 10
59.33450505379074
 20
186.4795892834883
 11
59.33450505379074
 21
187.1217552834883
 72
     1
 10
59.33450505379074
 20
187.1217552834883
 11
58.69733405379066
 21
187.1217552834883
 72
     1
 10
58.69733405379066
 20
187.1217552834883
 11
58.67208305379074
 21
186.9603712834883
 72
     1
 10
58.67208305379074
 20
186.9603712834883
 11
58.60603905379071
 21
186.7457442834883
 72
     1
 10
58.60603905379071
 20
186.7457442834883
 11
58.46958605379064
 21
186.5042782834883
 72
     1
 10
58.46958605379064
 20
186.5042782834883
 11
58.23310805379072
 21
186.2623762834883
 72
     1
 10
58.23310805379072
 20
186.2623762834883
 11
58.00284605379073
 21
186.1216012834883
 72
     1
 10
58.00284605379073
 20
186.1216012834883
 11
57.78369505379072
 21
186.0549812834883
 72
     1
 10
57.78369505379072
 20
186.0549812834883
 11
57.69215505379066
 21
186.0731142834883
 72
     1
 10
57.69215505379066
 20
186.0731142834883
 11
57.6256300537907
 21
186.1222682834883
 72
     1
 10
57.6256300537907
 20
186.1222682834883
 11
57.58503905379064
 21
186.1945802834883
 72
     1
 10
57.58503905379064
 20
186.1945802834883
 11
57.57130505379064
 21
186.2821852834883
 72
     1
 10
57.57130505379064
 20
186.2821852834883
 11
57.59007005379073
 21
186.3809112834883
 72
     1
 10
57.59007005379073
 20
186.3809112834883
 11
57.63615905379072
 21
186.4463222834883
 72
     1
 10
57.63615905379072
 20
186.4463222834883
 11
57.74907205379066
 21
186.5142122834883
 72
     1
 10
57.74907205379066
 20
186.5142122834883
 11
57.91716805379065
 21
186.5917972834883
 72
     1
 10
57.91716805379065
 20
186.5917972834883
 11
58.05656805379073
 21
186.7013242834883
 72
     1
 10
58.05656805379073
 20
186.7013242834883
 11
58.16447805379073
 21
186.8691812834883
 72
     1
 10
58.16447805379073
 20
186.8691812834883
 11
58.23810305379072
 21
187.1217552834883
 72
     1
 10
58.23810305379072
 20
187.1217552834883
 11
57.87257805379073
 21
187.1217552834883
 72
     1
 10
57.87257805379073
 20
187.1217552834883
 11
57.68865305379075
 21
187.1260832834883
 72
     1
 10
57.68865305379075
 20
187.1260832834883
 11
57.58611905379064
 21
187.1563782834883
 72
     1
 10
57.58611905379064
 20
187.1563782834883
 11
57.52253505379065
 21
187.2149662834883
 72
     1
 10
57.52253505379065
 20
187.2149662834883
 11
57.47742605379074
 21
187.3439642834883
 72
     1
 10
57.47742605379074
 20
187.3439642834883
 11
57.52066205379072
 21
187.4649292834883
 72
     1
 10
57.52066205379072
 20
187.4649292834883
 11
57.58611905379064
 21
187.5267262834883
 72
     1
 10
57.58611905379064
 20
187.5267262834883
 11
57.68865305379075
 21
187.5570212834883
 72
     1
 10
57.68865305379075
 20
187.5570212834883
 11
57.87257805379073
 21
187.5613492834883
 72
     1
 10
57.87257805379073
 20
187.5613492834883
 11
58.26273505379072
 21
187.5613492834883
 72
     1
 10
58.26273505379072
 20
187.5613492834883
 11
58.24792205379072
 21
187.9761392834883
 72
     1
 10
58.24792205379072
 20
187.9761392834883
 11
57.92201505379069
 21
187.9761392834883
 72
     1
 10
57.92201505379069
 20
187.9761392834883
 11
57.73865005379071
 21
187.9804662834883
 72
     1
 10
57.73865005379071
 20
187.9804662834883
 11
57.64055105379072
 21
188.0107622834883
 72
     1
 10
57.64055105379072
 20
188.0107622834883
 11
57.56947505379071
 21
188.0730532834883
 72
     1
 10
57.56947505379071
 20
188.0730532834883
 11
57.53185805379064
 21
188.1835332834882
 72
     1
 10
57.53185805379064
 20
188.1835332834882
 11
57.56704105379072
 21
188.2860462834883
 72
     1
 10
57.56704105379072
 20
188.2860462834883
 11
57.63555605379065
 21
188.3514822834883
 72
     1
 10
57.63555605379065
 20
188.3514822834883
 11
57.73802605379069
 21
188.3817772834883
 72
     1
 10
57.73802605379069
 20
188.3817772834883
 11
57.92201505379069
 21
188.3861052834883
 72
     1
 10
57.92201505379069
 20
188.3861052834883
 11
60.0653820537907
 21
188.3861052834883
 97
        1
330
1A7
 92
       16
 93
        4
 72
     1
 10
58.71214805379066
 20
187.9761392834883
 11
58.72213905379073
 21
187.5613492834883
 72
     1
 10
58.72213905379073
 20
187.5613492834883
 11
59.33450505379074
 21
187.5613492834883
 72
     1
 10
59.33450505379074
 20
187.5613492834883
 11
59.33450505379074
 21
187.9761392834883
 72
     1
 10
59.33450505379074
 20
187.9761392834883
 11
58.71214805379066
 21
187.9761392834883
 97
        1
330
1A8
 75
     1
 76
     2
 52
135.0
 41
0.005
 77
     0
 78
     2
 53
135.0
 43
0.0
 44
0.0
 45
0.0
 46
-0.0141421356237309
 79
     0
 53
225.0
 43
0.0
 44
0.0
 45
0.0141421356237309
 46
0.0
 79
     0
 98
        1
 10
0.0
 20
0.0
  0
HATCH
  5
1B1
330
48
100
AcDbEntity
  8
1
  6
Continuous
 62
     2
100
AcDbHatch
 10
0.0
 20
0.0
 30
0.0
210
0.0
220
0.0
230
1.0
  2
CUSTOM3
 70
     0
 71
     1
 91
        3
 92
        1
 93
       25
 72
     1
 10
58.54615105379071
 20
190.4084302834883
 11
58.68258505379072
 21
190.3461922834883
 72
     1
 10
58.68258505379072
 20
190.3461922834883
 11
58.76718105379064
 21
190.2237512834883
 72
     1
 10
58.76718105379064
 20
190.2237512834883
 11
58.79620805379074
 21
190.0257982834883
 72
     1
 10
58.79620805379074
 20
190.0257982834883
 11
58.79620805379074
 21
189.1417872834883
 72
     1
 10
58.79620805379074
 20
189.1417872834883
 11
58.78416905379072
 21
188.9464392834883
 72
     1
 10
58.78416905379072
 20
188.9464392834883
 11
58.72211705379073
 21
188.7719562834883
 72
     1
 10
58.72211705379073
 20
188.7719562834883
 11
58.57115005379069
 21
188.6465652834883
 72
     1
 10
58.57115005379069
 20
188.6465652834883
 11
58.29236305379072
 21
188.5984952834883
 72
     1
 10
58.29236305379072
 20
188.5984952834883
 11
57.30947805379071
 21
188.5984952834883
 72
     1
 10
57.30947805379071
 20
188.5984952834883
 11
57.30947805379071
 21
186.3957012834883
 72
     1
 10
57.30947805379071
 20
186.3957012834883
 11
57.30021905379073
 21
186.1870362834883
 72
     1
 10
57.30021905379073
 20
186.1870362834883
 11
57.23540805379071
 21
186.0746182834883
 72
     1
 10
57.23540805379071
 20
186.0746182834883
 11
57.15707505379072
 21
186.0216072834883
 72
     1
 10
57.15707505379072
 20
186.0216072834883
 11
57.0676320537907
 21
186.0055442834883
 72
     1
 10
57.0676320537907
 20
186.0055442834883
 11
56.93339205379073
 21
186.0387222834883
 72
     1
 10
56.93339205379073
 20
186.0387222834883
 11
56.86445705379072
 21
186.1265312834883
 72
     1
 10
56.86445705379072
 20
186.1265312834883
 11
56.83906005379072
 21
186.2513862834883
 72
     1
 10
56.83906005379072
 20
186.2513862834883
 11
56.83543205379073
 21
186.3957012834883
 72
     1
 10
56.83543205379073
 20
186.3957012834883
 11
56.83543205379073
 21
189.8282222834883
 72
     1
 10
56.83543205379073
 20
189.8282222834883
 11
56.86220705379071
 21
190.0945442834883
 72
     1
 10
56.86220705379071
 20
190.0945442834883
 11
56.94963705379064
 21
190.2807352834883
 72
     1
 10
56.94963705379064
 20
190.2807352834883
 11
57.10838105379071
 21
190.3900582834883
 72
     1
 10
57.10838105379071
 20
190.3900582834883
 11
57.34909605379073
 21
190.4257742834883
 72
     1
 10
57.34909605379073
 20
190.4257742834883
 11
58.36161005379074
 21
190.4257742834883
 72
     1
 10
58.36161005379074
 20
190.4257742834883
 11
58.54615105379071
 21
190.4084302834883
 97
        1
330
1A4
 92
       16
 93
        7
 72
     1
 10
57.30947805379071
 20
189.0627222834883
 11
58.1688570537907
 21
189.0627222834883
 72
     1
 10
58.1688570537907
 20
189.0627222834883
 11
58.2368970537907
 21
189.0736872834883
 72
     1
 10
58.2368970537907
 20
189.0736872834883
 11
58.27574105379074
 21
189.1022542834883
 72
     1
 10
58.27574105379074
 20
189.1022542834883
 11
58.29735905379073
 21
189.1862282834883
 72
     1
 10
58.29735905379073
 20
189.1862282834883
 11
58.29735905379073
 21
189.3095632834883
 72
     1
 10
58.29735905379073
 20
189.3095632834883
 11
57.30947805379071
 21
189.3095632834883
 72
     1
 10
57.30947805379071
 20
189.3095632834883
 11
57.30947805379071
 21
189.0627222834883
 97
        1
330
1A6
 92
       16
 93
       10
 72
     1
 10
58.29735905379073
 20
189.8528542834883
 11
58.28269805379068
 21
189.9328212834883
 72
     1
 10
58.28269805379068
 20
189.9328212834883
 11
58.24673705379064
 21
189.9738852834883
 72
     1
 10
58.24673705379064
 20
189.9738852834883
 11
58.15903805379071
 21
189.9911752834883
 72
     1
 10
58.15903805379071
 20
189.9911752834883
 11
57.47260305379064
 21
189.9911752834883
 72
     1
 10
57.47260305379064
 20
189.9911752834883
 11
57.3804030537907
 21
189.9755052834883
 72
     1
 10
57.3804030537907
 20
189.9755052834883
 11
57.33174105379072
 21
189.9362262834883
 72
     1
 10
57.33174105379072
 20
189.9362262834883
 11
57.30947805379071
 21
189.8332172834883
 72
     1
 10
57.30947805379071
 20
189.8332172834883
 11
57.30947805379071
 21
189.7147062834883
 72
     1
 10
57.30947805379071
 20
189.7147062834883
 11
58.29735905379073
 21
189.7147062834883
 72
     1
 10
58.29735905379073
 20
189.7147062834883
 11
58.29735905379073
 21
189.8528542834883
 97
        1
330
1A5
 75
     1
 76
     2
 52
135.0
 41
0.005
 77
     0
 78
     2
 53
135.0
 43
0.0
 44
0.0
 45
0.0
 46
-0.0141421356237309
 79
     0
 53
225.0
 43
0.0
 44
0.0
 45
0.0141421356237309
 46
0.0
 79
     0
 98
        1
 10
0.0
 20
0.0
  0
HATCH
  5
1B2
330
48
100
AcDbEntity
  8
1
  6
Continuous
 62
     2
100
AcDbHatch
 10
0.0
 20
0.0
 30
0.0
210
0.0
220
0.0
230
1.0
  2
CUSTOM4
 70
     0
 71
     1
 91
        3
 92
        1
 93
       34
 72
     1
 10
76.27937905379065
 20
190.4405882834883
 11
77.57818005379073
 21
190.4405882834883
 72
     1
 10
77.57818005379073
 20
190.4405882834883
 11
77.72237305379065
 21
190.4136672834883
 72
     1
 10
77.72237305379065
 20
190.4136672834883
 11
77.82764805379065
 21
190.3436942834883
 72
     1
 10
77.82764805379065
 20
190.3436942834883
 11
77.89216305379068
 21
190.2468492834883
 72
     1
 10
77.89216305379068
 20
190.2468492834883
 11
77.91407705379072
 21
190.1393142834883
 72
     1
 10
77.91407705379072
 20
190.1393142834883
 11
77.91407705379072
 21
186.5043942834883
 72
     1
 10
77.91407705379072
 20
186.5043942834883
 11
77.8930090537907
 21
186.3429752834883
 72
     1
 10
77.8930090537907
 20
186.3429752834883
 11
77.83628805379072
 21
186.2216732834883
 72
     1
 10
77.83628805379072
 20
186.2216732834883
 11
77.75364005379072
 21
186.1347552834883
 72
     1
 10
77.75364005379072
 20
186.1347552834883
 11
77.65479005379063
 21
186.0764912834883
 72
     1
 10
77.65479005379063
 20
186.0764912834883
 11
77.44739005379063
 21
186.0230042834883
 72
     1
 10
77.44739005379063
 20
186.0230042834883
 11
77.29189305379072
 21
186.0153622834883
 72
     1
 10
77.29189305379072
 20
186.0153622834883
 11
76.97828705379072
 21
186.0287982834883
 72
     1
 10
76.97828705379072
 20
186.0287982834883
 11
76.75088305379074
 21
186.0746612834883
 72
     1
 10
76.75088305379074
 20
186.0746612834883
 11
76.61242805379072
 21
186.1612842834883
 72
     1
 10
76.61242805379072
 20
186.1612842834883
 11
76.56566605379072
 21
186.2969992834883
 72
     1
 10
76.56566605379072
 20
186.2969992834883
 11
76.59529405379072
 21
186.4420812834883
 72
     1
 10
76.59529405379072
 20
186.4420812834883
 11
76.6656600537907
 21
186.5199502834883
 72
     1
 10
76.6656600537907
 20
186.5199502834883
 11
76.80268905379069
 21
186.5538312834883
 72
     1
 10
76.80268905379069
 20
186.5538312834883
 11
77.02007505379072
 21
186.5242032834883
 72
     1
 10
77.02007505379072
 20
186.5242032834883
 11
77.27707905379066
 21
186.4993982834883
 72
     1
 10
77.27707905379066
 20
186.4993982834883
 11
77.37448905379063
 21
186.5290692834883
 72
     1
 10
77.37448905379063
 20
186.5290692834883
 11
77.40523605379065
 21
186.6623512834883
 72
     1
 10
77.40523605379065
 20
186.6623512834883
 11
77.40523605379065
 21
188.7564532834883
 72
     1
 10
77.40523605379065
 20
188.7564532834883
 11
76.23976005379063
 21
188.7564532834883
 72
     1
 10
76.23976005379063
 20
188.7564532834883
 11
76.13144405379069
 21
188.7729732834883
 72
     1
 10
76.13144405379069
 20
188.7729732834883
 11
76.03288205379073
 21
188.8293162834883
 72
     1
 10
76.03288205379073
 20
188.8293162834883
 11
75.96119205379068
 21
188.9356572834883
 72
     1
 10
75.96119205379068
 20
188.9356572834883
 11
75.9334910537907
 21
189.1021682834883
 72
     1
 10
75.9334910537907
 20
189.1021682834883
 11
75.9334910537907
 21
190.1294952834883
 72
     1
 10
75.9334910537907
 20
190.1294952834883
 11
75.95139505379063
 21
190.2239582834883
 72
     1
 10
75.95139505379063
 20
190.2239582834883
 11
76.01005905379066
 21
190.3258012834883
 72
     1
 10
76.01005905379066
 20
190.3258012834883
 11
76.11691005379072
 21
190.4072642834883
 72
     1
 10
76.11691005379072
 20
190.4072642834883
 11
76.27937905379065
 21
190.4405882834883
 97
        1
330
1A1
 92
       16
 93
        6
 72
     1
 10
76.39272305379063
 20
189.2651212834883
 11
76.41873305379073
 21
189.1917192834883
 72
     1
 10
76.41873305379073
 20
189.1917192834883
 11
76.49642005379064
 21
189.1812332834883
 72
     1
 10
76.49642005379064
 20
189.1812332834883
 11
77.40523605379065
 21
189.1812332834883
 72
     1
 10
77.40523605379065
 20
189.1812332834883
 11
77.40523605379065
 21
189.3936232834883
 72
     1
 10
77.40523605379065
 20
189.3936232834883
 11
76.39272305379063
 21
189.3936232834883
 72
     1
 10
76.39272305379063
 20
189.3936232834883
 11
76.39272305379063
 21
189.2651212834883
 97
        1
330
1A3
 92
       16
 93
        9
 72
     1
 10
77.40523605379065
 20
189.9369152834883
 11
77.39050805379065
 21
189.9942972834883
 72
     1
 10
77.39050805379065
 20
189.9942972834883
 11
77.31635305379064
 21
190.0109842834883
 72
     1
 10
77.31635305379064
 20
190.0109842834883
 11
76.51640205379073
 21
190.0109842834883
 72
     1
 10
76.51640205379073
 20
190.0109842834883
 11
76.43789605379072
 21
190.0017252834883
 72
     1
 10
76.43789605379072
 20
190.0017252834883
 11
76.4057980537907
 21
189.9797362834883
 72
     1
 10
76.4057980537907
 20
189.9797362834883
 11
76.39272305379063
 21
189.9369152834883
 72
     1
 10
76.39272305379063
 20
189.9369152834883
 11
76.39272305379063
 21
189.7787852834883
 72
     1
 10
76.39272305379063
 20
189.7787852834883
 11
77.40523605379065
 21
189.7787852834883
 72
     1
 10
77.40523605379065
 20
189.7787852834883
 11
77.40523605379065
 21
189.9369152834883
 97
        1
330
1A2
 75
     1
 76
     2
 52
135.0
 41
0.005
 77
     0
 78
     2
 53
135.0
 43
0.0
 44
0.0
 45
0.0
 46
-0.0141421356237309
 79
     0
 53
225.0
 43
0.0
 44
0.0
 45
0.0141421356237309
 46
0.0
 79
     0
 98
        1
 10
0.0
 20
0.0
  0
HATCH
  5
1B3
330
48
100
AcDbEntity
  8
1
  6
Continuous
 62
     2
100
AcDbHatch
 10
0.0
 20
0.0
 30
0.0
210
0.0
220
0.0
230
1.0
  2
CUSTOM5
 70
     0
 71
     1
 91
        1
 92
        1
 93
       65
 72
     1
 10
75.89904005379071
 20
188.2675942834883
 11
75.89885705379072
 21
188.3986282834883
 72
     1
 10
75.89885705379072
 20
188.3986282834883
 11
75.92315605379065
 21
188.5231552834883
 72
     1
 10
75.92315605379065
 20
188.5231552834883
 11
75.99835605379064
 21
188.6161922834883
 72
     1
 10
75.99835605379064
 20
188.6161922834883
 11
76.15087705379074
 21
188.6527552834883
 72
     1
 10
76.15087705379074
 20
188.6527552834883
 11
76.25939205379063
 21
188.6324722834883
 72
     1
 10
76.25939205379063
 20
188.6324722834883
 11
76.32989305379073
 21
188.5867392834883
 72
     1
 10
76.32989305379073
 20
188.5867392834883
 11
76.38307605379072
 21
188.5096122834883
 72
     1
 10
76.38307605379072
 20
188.5096122834883
 11
76.40753705379063
 21
188.2675942834883
 72
     1
 10
76.40753705379063
 20
188.2675942834883
 11
76.8423080537907
 21
188.2675942834883
 72
     1
 10
76.8423080537907
 20
188.2675942834883
 11
77.02567305379068
 21
188.2632662834883
 72
     1
 10
77.02567305379068
 20
188.2632662834883
 11
77.12377205379073
 21
188.2329702834883
 72
     1
 10
77.12377205379073
 20
188.2329702834883
 11
77.18750605379068
 21
188.1724232834883
 72
     1
 10
77.18750605379068
 20
188.1724232834883
 11
77.23263705379065
 21
188.0452132834883
 72
     1
 10
77.23263705379065
 20
188.0452132834883
 11
77.19125305379072
 21
187.9199622834883
 72
     1
 10
77.19125305379072
 20
187.9199622834883
 11
77.12377205379073
 21
187.8576272834883
 72
     1
 10
77.12377205379073
 20
187.8576272834883
 11
77.02373505379069
 21
187.8273322834883
 72
     1
 10
77.02373505379069
 20
187.8273322834883
 11
76.8423080537907
 21
187.8230042834883
 72
     1
 10
76.8423080537907
 20
187.8230042834883
 11
76.42235105379063
 21
187.8230042834883
 72
     1
 10
76.42235105379063
 20
187.8230042834883
 11
76.46196905379065
 21
186.5882822834883
 72
     1
 10
76.46196905379065
 20
186.5882822834883
 11
76.44650905379069
 21
186.4710192834883
 72
     1
 10
76.44650905379069
 20
186.4710192834883
 11
76.36826305379066
 21
186.3018222834883
 72
     1
 10
76.36826305379066
 20
186.3018222834883
 11
76.27634805379068
 21
186.2245362834883
 72
     1
 10
76.27634805379068
 20
186.2245362834883
 11
76.17064305379074
 21
186.1796292834883
 72
     1
 10
76.17064305379074
 20
186.1796292834883
 11
75.95829605379072
 21
186.1536832834883
 72
     1
 10
75.95829605379072
 20
186.1536832834883
 11
75.67123405379073
 21
186.1679162834883
 72
     1
 10
75.67123405379073
 20
186.1679162834883
 11
75.47421705379065
 21
186.1975032834883
 72
     1
 10
75.47421705379065
 20
186.1975032834883
 11
75.29167005379065
 21
186.2525572834883
 72
     1
 10
75.29167005379065
 20
186.2525572834883
 11
75.2271720537907
 21
186.2987162834883
 72
     1
 10
75.2271720537907
 20
186.2987162834883
 11
75.1914180537907
 21
186.3555662834883
 72
     1
 10
75.1914180537907
 20
186.3555662834883
 11
75.17281405379072
 21
186.4549572834883
 72
     1
 10
75.17281405379072
 20
186.4549572834883
 11
75.19883605379073
 21
186.5747972834883
 72
     1
 10
75.19883605379073
 20
186.5747972834883
 11
75.26238705379069
 21
186.6506812834883
 72
     1
 10
75.26238705379069
 20
186.6506812834883
 11
75.41500505379065
 21
186.7019702834883
 72
     1
 10
75.41500505379065
 20
186.7019702834883
 11
75.7657150537907
 21
186.6525332834883
 72
     1
 10
75.7657150537907
 20
186.6525332834883
 11
75.8446080537907
 21
186.6427142834883
 72
     1
 10
75.8446080537907
 20
186.6427142834883
 11
75.89755505379071
 21
186.6576822834883
 72
     1
 10
75.89755505379071
 20
186.6576822834883
 11
75.92737605379068
 21
186.6957902834883
 72
     1
 10
75.92737605379068
 20
186.6957902834883
 11
75.94348205379072
 21
186.8006722834883
 72
     1
 10
75.94348205379072
 20
186.8006722834883
 11
75.91385405379071
 21
187.7044932834883
 72
     1
 10
75.91385405379071
 20
187.7044932834883
 11
75.68707005379065
 21
187.4036522834883
 72
     1
 10
75.68707005379065
 20
187.4036522834883
 11
75.43722505379071
 21
187.1236282834883
 72
     1
 10
75.43722505379071
 20
187.1236282834883
 11
75.16516005379071
 21
186.8648882834883
 72
     1
 10
75.16516005379071
 20
186.8648882834883
 11
74.8717130537907
 21
186.6279002834883
 72
     1
 10
74.8717130537907
 20
186.6279002834883
 11
74.7019990537907
 21
186.5203922834883
 72
     1
 10
74.7019990537907
 20
186.5203922834883
 11
74.59507205379072
 21
186.4944032834883
 72
     1
 10
74.59507205379072
 20
186.4944032834883
 11
74.50307205379073
 21
186.5132382834883
 72
     1
 10
74.50307205379073
 20
186.5132382834883
 11
74.42596105379073
 21
186.5635632834883
 72
     1
 10
74.42596105379073
 20
186.5635632834883
 11
74.37294405379072
 21
186.6361092834883
 72
     1
 10
74.37294405379072
 20
186.6361092834883
 11
74.35322605379065
 21
186.7216072834883
 72
     1
 10
74.35322605379065
 20
186.7216072834883
 11
74.36493905379064
 21
186.8015822834883
 72
     1
 10
74.36493905379064
 20
186.8015822834883
 11
74.40998405379071
 21
186.8722872834883
 72
     1
 10
74.40998405379071
 20
186.8722872834883
 11
74.65949505379069
 21
187.0821362834883
 72
     1
 10
74.65949505379069
 20
187.0821362834883
 11
74.93910805379073
 21
187.3192452834883
 72
     1
 10
74.93910805379073
 20
187.3192452834883
 11
75.16571405379074
 21
187.5489202834883
 72
     1
 10
75.16571405379074
 20
187.5489202834883
 11
75.38537705379065
 21
187.8230042834883
 72
     1
 10
75.38537705379065
 20
187.8230042834883
 11
74.78283005379069
 21
187.8230042834883
 72
     1
 10
74.78283005379069
 20
187.8230042834883
 11
74.60308205379073
 21
187.8273322834883
 72
     1
 10
74.60308205379073
 20
187.8273322834883
 11
74.50136505379072
 21
187.8576272834883
 72
     1
 10
74.50136505379072
 20
187.8576272834883
 11
74.43763105379071
 21
187.9162802834883
 72
     1
 10
74.43763105379071
 20
187.9162802834883
 11
74.39250005379074
 21
188.0452132834883
 72
     1
 10
74.39250005379074
 20
188.0452132834883
 11
74.43388405379073
 21
188.1688052834883
 72
     1
 10
74.43388405379073
 20
188.1688052834883
 11
74.50136505379072
 21
188.2329702834883
 72
     1
 10
74.50136505379072
 20
188.2329702834883
 11
74.60127305379069
 21
188.2632662834883
 72
     1
 10
74.60127305379069
 20
188.2632662834883
 11
74.78283005379069
 21
188.2675942834883
 72
     1
 10
74.78283005379069
 20
188.2675942834883
 11
75.89904005379071
 21
188.2675942834883
 97
        1
330
1A0
 75
     1
 76
     2
 52
135.0
 41
0.005
 77
     0
 78
     2
 53
135.0
 43
0.0
 44
0.0
 45
0.0
 46
-0.0141421356237309
 79
     0
 53
225.0
 43
0.0
 44
0.0
 45
0.0141421356237309
 46
0.0
 79
     0
 98
        1
 10
0.0
 20
0.0
  0
HATCH
  5
1B4
330
48
100
AcDbEntity
  8
1
  6
Continuous
 62
     2
100
AcDbHatch
 10
0.0
 20
0.0
 30
0.0
210
0.0
220
0.0
230
1.0
  2
CUSTOM6
 70
     0
 71
     1
 91
        3
 92
        1
 93
       25
 72
     1
 10
75.50591205379072
 20
190.4044012834883
 11
75.6088770537907
 21
190.3177482834883
 72
     1
 10
75.6088770537907
 20
190.3177482834883
 11
75.66184605379073
 21
190.2134942834883
 72
     1
 10
75.66184605379073
 20
190.2134942834883
 11
75.67683205379069
 21
190.1245002834882
 72
     1
 10
75.67683205379069
 20
190.1245002834882
 11
75.67683205379069
 21
189.0973452834883
 72
     1
 10
75.67683205379069
 20
189.0973452834883
 11
75.65484205379073
 21
188.9443802834883
 72
     1
 10
75.65484205379073
 20
188.9443802834883
 11
75.58980005379073
 21
188.8293812834882
 72
     1
 10
75.58980005379073
 20
188.8293812834882
 11
75.48309405379064
 21
188.7569832834883
 72
     1
 10
75.48309405379064
 20
188.7569832834883
 11
75.33611205379066
 21
188.7318202834883
 72
     1
 10
75.33611205379066
 20
188.7318202834883
 11
74.16546805379073
 21
188.7318202834883
 72
     1
 10
74.16546805379073
 20
188.7318202834883
 11
74.16546805379073
 21
186.3808872834883
 72
     1
 10
74.16546805379073
 20
186.3808872834883
 11
74.16116205379069
 21
186.1993952834883
 72
     1
 10
74.16116205379069
 20
186.1993952834883
 11
74.13101705379074
 21
186.0994232834883
 72
     1
 10
74.13101705379074
 20
186.0994232834883
 11
74.01849205379074
 21
186.0079992834883
 72
     1
 10
74.01849205379074
 20
186.0079992834883
 11
73.92844605379071
 21
185.9907302834883
 72
     1
 10
73.92844605379071
 20
185.9907302834883
 11
73.8030010537907
 21
186.0246642834883
 72
     1
 10
73.8030010537907
 20
186.0246642834883
 11
73.72587405379073
 21
186.0994232834883
 72
     1
 10
73.72587405379073
 20
186.0994232834883
 11
73.69573005379073
 21
186.1993952834883
 72
     1
 10
73.69573005379073
 20
186.1993952834883
 11
73.69142305379069
 21
186.3808872834883
 72
     1
 10
73.69142305379069
 20
186.3808872834883
 11
73.69142305379069
 21
190.0652442834883
 72
     1
 10
73.69142305379069
 20
190.0652442834883
 11
73.72220805379072
 21
190.2259932834883
 72
     1
 10
73.72220805379072
 20
190.2259932834883
 11
73.80437905379074
 21
190.3436732834883
 72
     1
 10
73.80437905379074
 20
190.3436732834883
 11
73.92265905379065
 21
190.4159742834883
 72
     1
 10
73.92265905379065
 20
190.4159742834883
 11
74.06177105379072
 21
190.4405882834883
 72
     1
 10
74.06177105379072
 20
190.4405882834883
 11
75.34093505379064
 21
190.4405882834883
 72
     1
 10
75.34093505379064
 20
190.4405882834883
 11
75.50591205379072
 21
190.4044012834883
 97
        1
330
1AC
 92
       16
 93
        8
 72
     1
 10
75.18762805379072
 20
189.9319192834883
 11
75.16605305379073
 21
189.9917992834883
 72
     1
 10
75.16605305379073
 20
189.9917992834883
 11
75.10391205379074
 21
190.0109842834883
 72
     1
 10
75.10391205379074
 20
190.0109842834883
 11
74.25435205379074
 21
190.0109842834883
 72
     1
 10
74.25435205379074
 20
190.0109842834883
 11
74.18213405379072
 21
189.9782132834883
 72
     1
 10
74.18213405379072
 20
189.9782132834883
 11
74.16546805379073
 21
189.9121102834883
 72
     1
 10
74.16546805379073
 20
189.9121102834883
 11
74.16546805379073
 21
189.7591482834883
 72
     1
 10
74.16546805379073
 20
189.7591482834883
 11
75.18762805379072
 21
189.7591482834883
 72
     1
 10
75.18762805379072
 20
189.7591482834883
 11
75.18762805379072
 21
189.9319192834883
 97
        1
330
1AD
 92
       16
 93
        6
 72
     1
 10
74.16546805379073
 20
189.1614242834883
 11
75.10391205379074
 21
189.1614242834883
 72
     1
 10
75.10391205379074
 20
189.1614242834883
 11
75.17354605379069
 21
189.1929252834883
 72
     1
 10
75.17354605379069
 20
189.1929252834883
 11
75.18762805379072
 21
189.2651212834883
 72
     1
 10
75.18762805379072
 20
189.2651212834883
 11
75.18762805379072
 21
189.3936232834883
 72
     1
 10
75.18762805379072
 20
189.3936232834883
 11
74.16546805379073
 21
189.3936232834883
 72
     1
 10
74.16546805379073
 20
189.3936232834883
 11
74.16546805379073
 21
189.1614242834883
 97
        1
330
19F
 75
     1
 76
     2
 52
135.0
 41
0.005
 77
     0
 78
     2
 53
135.0
 43
0.0
 44
0.0
 45
0.0
 46
-0.0141421356237309
 79
     0
 53
225.0
 43
0.0
 44
0.0
 45
0.0141421356237309
 46
0.0
 79
     0
 98
        1
 10
0.0
 20
0.0
  0
ENDBLK
  5
4A
330
48
100
AcDbEntity
  8
0
100
AcDbBlockEnd
  0
BLOCK
  5
4D
330
4B
100
AcDbEntity
  8
0
100
AcDbBlockBegin
  2
81-196
 70
     0
 10
255.1001500537906
 20
-12.62141871635649
 30
0.0
  3
81-196
  1

  0
INSERT
  5
4C
330
4B
100
AcDbEntity
  8
1
100
AcDbBlockReference
  2
印刷
 10
56.13452505379075
 20
187.2379562834883
 30
0.0
  0
LINE
  5
1B5
330
4B
100
AcDbEntity
  8
1
  6
Continuous
 62
     7
100
AcDbLine
 10
81.02364022197014
 20
134.3307212810935
 30
0.0
 11
80.99775219188041
 21
135.8138413052935
 31
0.0
  0
LINE
  5
1B6
330
4B
100
AcDbEntity
  8
1
  6
Continuous
 62
     7
100
AcDbLine
 10
54.20254215580633
 20
135.813511322081
 30
0.0
 11
54.17665988561146
 21
134.3307212810935
 31
0.0
  0
LINE
  5
1B7
330
4B
100
AcDbEntity
  8
1
  6
PHANTOM
 62
     4
100
AcDbLine
 10
67.6001500537908
 20
207.8785812834534
 30
0.0
 11
67.6001500537908
 21
169.8785812835231
 31
0.0
  0
LINE
  5
1B8
330
4B
100
AcDbEntity
  8
1
  6
PHANTOM
 62
     4
100
AcDbLine
 10
67.6001500537908
 20
97.77858128364352
 30
0.0
 11
67.6001500537908
 21
142.5785811195012
 31
0.0
  0
LINE
  5
1B9
330
4B
100
AcDbEntity
  8
1
  6
Continuous
 62
     7
100
AcDbLine
 10
51.60015005382911
 20
100.7785812836435
 30
0.0
 11
83.60015005375203
 21
100.7785812836435
 31
0.0
  0
LINE
  5
1BA
330
4B
100
AcDbEntity
  8
1
  6
PHANTOM
 62
     4
100
AcDbLine
 10
48.60015005382559
 20
188.8785812834883
 30
0.0
 11
86.60015005375601
 21
188.8785812834883
 31
0.0
  0
LINE
  5
1BB
330
4B
100
AcDbEntity
  8
1
  6
Continuous
 62
     7
100
AcDbLine
 10
80.9490838443611
 20
185.2302947911897
 30
0.0
 11
80.97876058477004
 21
185.2221840871444
 31
0.0
  0
LINE
  5
1BC
330
4B
100
AcDbEntity
  8
1
  6
Continuous
 62
     7
100
AcDbLine
 10
80.63310133684973
 20
185.8458232296414
 30
0.0
 11
80.8882791748523
 21
185.8588933310235
 31
0.0
  0
LINE
  5
1BD
330
4B
100
AcDbEntity
  8
1
  6
Continuous
 62
     7
100
AcDbLine
 10
54.60185410589094
 20
133.8521108847435
 30
0.0
 11
54.18580437214087
 21
134.3307212810935
 31
0.0
  0
LINE
  5
1BE
330
4B
100
AcDbEntity
  8
1
  6
Continuous
 62
     7
100
AcDbLine
 10
81.01449573544085
 20
134.3307212810935
 30
0.0
 11
80.59845252094078
 21
133.8521183352935
 31
0.0
  0
LINE
  5
1BF
330
4B
100
AcDbEntity
  8
1
  6
Continuous
 62
     7
100
AcDbLine
 10
70.94926309904093
 20
134.3307212810935
 30
0.0
 11
70.94926309898995
 21
134.3307212376268
 31
0.0
  0
LINE
  5
1C0
330
4B
100
AcDbEntity
  8
1
  6
Continuous
 62
     7
100
AcDbLine
 10
64.27931871399085
 20
110.1997286897435
 30
0.0
 11
64.25103700854083
 21
134.3307212810935
 31
0.0
  0
LINE
  5
1C1
330
4B
100
AcDbEntity
  8
1
  6
Continuous
 62
     7
100
AcDbLine
 10
64.25103700854083
 20
134.3307212810935
 30
0.0
 11
70.94926309898995
 21
134.3307212376268
 31
0.0
  0
LINE
  5
1C2
330
4B
100
AcDbEntity
  8
1
  6
Continuous
 62
     7
100
AcDbLine
 10
70.94926309898995
 20
134.3307212376268
 30
0.0
 11
70.92098139359086
 21
110.1997286897435
 31
0.0
  0
LINE
  5
1C3
330
4B
100
AcDbEntity
  8
1
  6
Continuous
 62
     7
100
AcDbLine
 10
64.27931871399085
 20
110.1997286897435
 30
0.0
 11
60.45110609514086
 21
110.1997286897435
 31
0.0
  0
LINE
  5
1C4
330
4B
100
AcDbEntity
  8
1
  6
Continuous
 62
     7
100
AcDbLine
 10
60.45110609514086
 20
110.1997286897435
 30
0.0
 11
60.78334005684093
 21
134.3307212810935
 31
0.0
  0
LINE
  5
1C5
330
4B
100
AcDbEntity
  8
1
  6
Continuous
 62
     7
100
AcDbLine
 10
60.78334005684093
 20
134.3307212810935
 30
0.0
 11
56.04697896299081
 21
134.3307212810935
 31
0.0
  0
LINE
  5
1C6
330
4B
100
AcDbEntity
  8
1
  6
Continuous
 62
     7
100
AcDbLine
 10
56.04697896299081
 20
134.3307212810935
 30
0.0
 11
55.75474111494088
 21
110.1997286897435
 31
0.0
  0
LINE
  5
1C7
330
4B
100
AcDbEntity
  8
1
  6
Continuous
 62
     7
100
AcDbLine
 10
55.75474111494088
 20
110.1997286897435
 30
0.0
 11
54.16904429104079
 21
110.1997286897435
 31
0.0
  0
LINE
  5
1C8
330
4B
100
AcDbEntity
  8
1
  6
Continuous
 62
     7
100
AcDbLine
 10
54.16904429104079
 20
110.1997286897435
 30
0.0
 11
54.61061226339086
 21
134.3307212810935
 31
0.0
  0
LINE
  5
1C9
330
4B
100
AcDbEntity
  8
1
  6
Continuous
 62
     7
100
AcDbLine
 10
54.61061226339086
 20
134.3307212810935
 30
0.0
 11
54.17665988561146
 21
134.3307212810935
 31
0.0
  0
LINE
  5
1CA
330
4B
100
AcDbEntity
  8
1
  6
Continuous
 62
     7
100
AcDbLine
 10
81.02364022197014
 20
134.3307212810935
 30
0.0
 11
80.58968784419085
 21
134.3307212810935
 31
0.0
  0
LINE
  5
1CB
330
4B
100
AcDbEntity
  8
1
  6
Continuous
 62
     7
100
AcDbLine
 10
80.58968784419085
 20
134.3307212810935
 30
0.0
 11
81.0312558165408
 21
110.1997286897435
 31
0.0
  0
LINE
  5
1CC
330
4B
100
AcDbEntity
  8
1
  6
Continuous
 62
     7
100
AcDbLine
 10
81.0312558165408
 20
110.1997286897435
 30
0.0
 11
79.44555899264083
 21
110.1997286897435
 31
0.0
  0
LINE
  5
1CD
330
4B
100
AcDbEntity
  8
1
  6
Continuous
 62
     7
100
AcDbLine
 10
79.44555899264083
 20
110.1997286897435
 30
0.0
 11
79.1533211445909
 21
134.3307212810935
 31
0.0
  0
LINE
  5
1CE
330
4B
100
AcDbEntity
  8
1
  6
Continuous
 62
     7
100
AcDbLine
 10
79.1533211445909
 20
134.3307212810935
 30
0.0
 11
74.41696005074084
 21
134.3307212810935
 31
0.0
  0
LINE
  5
1CF
330
4B
100
AcDbEntity
  8
1
  6
Continuous
 62
     7
100
AcDbLine
 10
74.41696005074084
 20
134.3307212810935
 30
0.0
 11
74.74919401244085
 21
110.1997286897435
 31
0.0
  0
LINE
  5
1D0
330
4B
100
AcDbEntity
  8
1
  6
Continuous
 62
     7
100
AcDbLine
 10
74.74919401244085
 20
110.1997286897435
 30
0.0
 11
70.92098139359086
 21
110.1997286897435
 31
0.0
  0
LINE
  5
1D1
330
4B
100
AcDbEntity
  8
1
  6
Continuous
 62
     7
100
AcDbLine
 10
149.6788525938945
 20
185.5577499436885
 30
0.0
 11
149.6788525938945
 21
181.7295373248385
 31
0.0
  0
LINE
  5
1D2
330
4B
100
AcDbEntity
  8
1
  6
Continuous
 62
     7
100
AcDbLine
 10
149.6788525938945
 20
181.7295373248385
 30
0.0
 11
125.5478600025445
 21
182.0617712865386
 31
0.0
  0
LINE
  5
1D3
330
4B
100
AcDbEntity
  8
1
  6
Continuous
 62
     7
100
AcDbLine
 10
125.5478600025445
 20
182.0617712865386
 30
0.0
 11
125.5478600025445
 21
177.3254101926885
 31
0.0
  0
LINE
  5
1D4
330
4B
100
AcDbEntity
  8
1
  6
Continuous
 62
     7
100
AcDbLine
 10
125.5478600025445
 20
177.3254101926885
 30
0.0
 11
149.6788525938945
 21
177.0331723446386
 31
0.0
  0
LINE
  5
1D5
330
4B
100
AcDbEntity
  8
1
  6
Continuous
 62
     7
100
AcDbLine
 10
149.6788525938945
 20
177.0331723446386
 30
0.0
 11
149.6788525938945
 21
175.4474755207386
 31
0.0
  0
LINE
  5
1D6
330
4B
100
AcDbEntity
  8
1
  6
Continuous
 62
     7
100
AcDbLine
 10
149.6788525938945
 20
175.4474755207386
 30
0.0
 11
125.5478600025445
 21
175.8890434930885
 31
0.0
  0
LINE
  5
1D7
330
4B
100
AcDbEntity
  8
1
  6
Continuous
 62
     7
100
AcDbLine
 10
125.5478600025445
 20
175.8890434930885
 30
0.0
 11
125.5478600025445
 21
175.4550911153093
 31
0.0
  0
LINE
  5
1D8
330
4B
100
AcDbEntity
  8
1
  6
Continuous
 62
     7
100
AcDbLine
 10
125.5478600025445
 20
202.302071451668
 30
0.0
 11
125.5478600025445
 21
201.8681190738885
 31
0.0
  0
LINE
  5
1D9
330
4B
100
AcDbEntity
  8
1
  6
Continuous
 62
     7
100
AcDbLine
 10
125.5478600025445
 20
201.8681190738885
 30
0.0
 11
149.6788525938945
 21
202.3096870462385
 31
0.0
  0
LINE
  5
1DA
330
4B
100
AcDbEntity
  8
1
  6
Continuous
 62
     7
100
AcDbLine
 10
149.6788525938945
 20
202.3096870462385
 30
0.0
 11
149.6788525938945
 21
200.7239902223385
 31
0.0
  0
LINE
  5
1DB
330
4B
100
AcDbEntity
  8
1
  6
Continuous
 62
     7
100
AcDbLine
 10
149.6788525938945
 20
200.7239902223385
 30
0.0
 11
125.5478600025445
 21
200.4317523742886
 31
0.0
  0
LINE
  5
1DC
330
4B
100
AcDbEntity
  8
1
  6
Continuous
 62
     7
100
AcDbLine
 10
125.5478600025445
 20
200.4317523742886
 30
0.0
 11
125.5478600025445
 21
195.6953912804385
 31
0.0
  0
LINE
  5
1DD
330
4B
100
AcDbEntity
  8
1
  6
Continuous
 62
     7
100
AcDbLine
 10
125.5478600025445
 20
195.6953912804385
 30
0.0
 11
149.6788525938945
 21
196.0276252421385
 31
0.0
  0
LINE
  5
1DE
330
4B
100
AcDbEntity
  8
1
  6
Continuous
 62
     7
100
AcDbLine
 10
149.6788525938945
 20
196.0276252421385
 30
0.0
 11
149.6788525938945
 21
192.1994126232885
 31
0.0
  0
LINE
  5
1DF
330
4B
100
AcDbEntity
  8
1
  6
Continuous
 62
     7
100
AcDbLine
 10
149.6788525938945
 20
185.5577499436885
 30
0.0
 11
125.5478600460112
 21
185.5294682382895
 31
0.0
  0
LINE
  5
1E0
330
4B
100
AcDbEntity
  8
1
  6
Continuous
 62
     7
100
AcDbLine
 10
125.5478600460112
 20
185.5294682382895
 30
0.0
 11
125.5478600025445
 21
192.2276943287386
 31
0.0
  0
LINE
  5
1E1
330
4B
100
AcDbEntity
  8
1
  6
Continuous
 62
     7
100
AcDbLine
 10
125.5478600025445
 20
192.2276943287386
 30
0.0
 11
149.6788525938945
 21
192.1994126232885
 31
0.0
  0
LINE
  5
1E2
330
4B
100
AcDbEntity
  8
1
  6
Continuous
 62
     7
100
AcDbLine
 10
125.5478600460112
 20
185.5294682382895
 30
0.0
 11
125.5478600025445
 21
185.5294682382385
 31
0.0
  0
LINE
  5
1E3
330
4B
100
AcDbEntity
  8
1
  6
Continuous
 62
     7
100
AcDbLine
 10
126.0264629483445
 20
175.8802788163386
 30
0.0
 11
125.5478600025445
 21
175.4642356018385
 31
0.0
  0
LINE
  5
1E4
330
4B
100
AcDbEntity
  8
1
  6
Continuous
 62
     7
100
AcDbLine
 10
125.5478600025445
 20
202.2929269651385
 30
0.0
 11
126.0264703988944
 21
201.8768772313885
 31
0.0
  0
LINE
  5
1E5
330
4B
100
AcDbEntity
  8
1
  6
Continuous
 62
     7
100
AcDbLine
 10
159.0999999999945
 20
172.8785812835274
 30
0.0
 11
159.0999999999945
 21
204.8785812834506
 31
0.0
  0
LINE
  5
1E6
330
4B
100
AcDbEntity
  8
1
  6
PHANTOM
 62
     4
100
AcDbLine
 10
117.3000001641367
 20
188.8785812834886
 30
0.0
 11
162.0999999999945
 21
188.8785812834886
 31
0.0
  0
LINE
  5
1E7
330
4B
100
AcDbEntity
  8
1
  6
Continuous
 62
     7
100
AcDbLine
 10
125.5478600025445
 20
202.302071451668
 30
0.0
 11
124.0650699615568
 21
202.2761891814735
 31
0.0
  0
LINE
  5
1E8
330
4B
100
AcDbEntity
  8
1
  6
Continuous
 62
     7
100
AcDbLine
 10
124.0647399783444
 20
175.480979145399
 30
0.0
 11
125.5478600025445
 21
175.4550911153093
 31
0.0
  0
ARC
  5
1E9
330
4B
100
AcDbEntity
  8
1
  6
Continuous
 62
     7
100
AcDbCircle
 10
79.99790453343064
 20
135.7963899357935
 30
0.0
 40
0.999999999999903
100
AcDbArc
 50
1.00000000001164
 51
64.6972942922007
  0
ARC
  5
1EA
330
4B
100
AcDbEntity
  8
1
  6
Continuous
 62
     7
100
AcDbCircle
 10
67.59701172305108
 20
109.5785812836435
 30
0.0
 40
30.00000000000967
100
AcDbArc
 50
64.69729429229315
 51
90.00599377030183
  0
ARC
  5
1EB
330
4B
100
AcDbEntity
  8
1
  6
Continuous
 62
     7
100
AcDbCircle
 10
55.20239557415113
 20
135.7963899357935
 30
0.0
 40
1.000000000022122
100
AcDbArc
 50
115.3027057076142
 51
179.018968892138
  0
ARC
  5
1EC
330
4B
100
AcDbEntity
  8
1
  6
Continuous
 62
     7
100
AcDbCircle
 10
247.5474024835908
 20
60.72019557754351
 30
0.0
 40
200.0000000003783
100
AcDbArc
 50
165.126471858194
 51
168.4459692671947
  0
ARC
  5
1ED
330
4B
100
AcDbEntity
  8
1
  6
Continuous
 62
     7
100
AcDbCircle
 10
-112.3471023760094
 20
60.72019557754351
 30
0.0
 40
200.0000000003783
100
AcDbArc
 50
11.55403073280532
 51
14.87352814180587
  0
ARC
  5
1EE
330
4B
100
AcDbEntity
  8
1
  6
Continuous
 62
     7
100
AcDbCircle
 10
67.6001500537908
 20
188.8785812834883
 30
0.0
 40
13.38003055342657
100
AcDbArc
 50
99.87209085551383
 51
99.96737556469986
  0
ARC
  5
1EF
330
4B
100
AcDbEntity
  8
1
  6
Continuous
 62
     7
100
AcDbCircle
 10
67.6001500537908
 20
188.8785812834883
 30
0.0
 40
13.86926314542554
100
AcDbArc
 50
105.2857487267376
 51
119.7142512733001
  0
ARC
  5
1F0
330
4B
100
AcDbEntity
  8
1
  6
Continuous
 62
     7
100
AcDbCircle
 10
67.6001500537908
 20
188.8785812834883
 30
0.0
 40
13.38003055342663
100
AcDbArc
 50
125.0326244353001
 51
125.1279091444865
  0
ARC
  5
1F1
330
4B
100
AcDbEntity
  8
1
  6
Continuous
 62
     7
100
AcDbCircle
 10
67.6001500537908
 20
188.8785812834883
 30
0.0
 40
13.38003055342666
100
AcDbArc
 50
170.0326244353004
 51
170.1279091444866
  0
ARC
  5
1F2
330
4B
100
AcDbEntity
  8
1
  6
Continuous
 62
     7
100
AcDbCircle
 10
67.6001500537908
 20
188.8785812834883
 30
0.0
 40
13.38003055342663
100
AcDbArc
 50
125.0326244353001
 51
144.8720908555139
  0
ARC
  5
1F3
330
4B
100
AcDbEntity
  8
1
  6
Continuous
 62
     7
100
AcDbCircle
 10
67.6001500537908
 20
188.8785812834883
 30
0.0
 40
13.86926314542553
100
AcDbArc
 50
150.2857487267373
 51
164.7142512732997
  0
ARC
  5
1F4
330
4B
100
AcDbEntity
  8
1
  6
Continuous
 62
     7
100
AcDbCircle
 10
67.6001500537908
 20
188.8785812834883
 30
0.0
 40
13.3800305534266
100
AcDbArc
 50
144.8720908555139
 51
144.9673755646997
  0
ARC
  5
1F5
330
4B
100
AcDbEntity
  8
1
  6
Continuous
 62
     7
100
AcDbCircle
 10
67.6001500537908
 20
188.8785812834883
 30
0.0
 40
13.38003055342672
100
AcDbArc
 50
215.0326244353004
 51
215.1279091444868
  0
ARC
  5
1F6
330
4B
100
AcDbEntity
  8
1
  6
Continuous
 62
     7
100
AcDbCircle
 10
67.6001500537908
 20
188.8785812834883
 30
0.0
 40
13.38003055342666
100
AcDbArc
 50
170.0326244353004
 51
189.8720908555137
  0
ARC
  5
1F7
330
4B
100
AcDbEntity
  8
1
  6
Continuous
 62
     7
100
AcDbCircle
 10
67.6001500537908
 20
188.8785812834883
 30
0.0
 40
13.86926314542561
100
AcDbArc
 50
195.2857487267376
 51
209.7142512732995
  0
ARC
  5
1F8
330
4B
100
AcDbEntity
  8
1
  6
Continuous
 62
     7
100
AcDbCircle
 10
67.6001500537908
 20
188.8785812834883
 30
0.0
 40
13.38003055342671
100
AcDbArc
 50
189.8720908555137
 51
189.9673755647001
  0
ARC
  5
1F9
330
4B
100
AcDbEntity
  8
1
  6
Continuous
 62
     7
100
AcDbCircle
 10
67.6001500537908
 20
188.8785812834883
 30
0.0
 40
13.38003055342678
100
AcDbArc
 50
260.0326244353002
 51
260.1279091444863
  0
ARC
  5
1FA
330
4B
100
AcDbEntity
  8
1
  6
Continuous
 62
     7
100
AcDbCircle
 10
67.6001500537908
 20
188.8785812834883
 30
0.0
 40
13.38003055342672
100
AcDbArc
 50
215.0326244353004
 51
234.872090855514
  0
ARC
  5
1FB
330
4B
100
AcDbEntity
  8
1
  6
Continuous
 62
     7
100
AcDbCircle
 10
67.6001500537908
 20
188.8785812834883
 30
0.0
 40
13.86926314542567
100
AcDbArc
 50
240.2857487267372
 51
254.7142512732992
  0
ARC
  5
1FC
330
4B
100
AcDbEntity
  8
1
  6
Continuous
 62
     7
100
AcDbCircle
 10
67.6001500537908
 20
188.8785812834883
 30
0.0
 40
13.3800305534267
100
AcDbArc
 50
234.872090855514
 51
234.9673755646995
  0
ARC
  5
1FD
330
4B
100
AcDbEntity
  8
1
  6
Continuous
 62
     7
100
AcDbCircle
 10
67.6001500537908
 20
188.8785812834883
 30
0.0
 40
13.3800305534267
100
AcDbArc
 50
305.0326244353005
 51
305.1279091444863
  0
ARC
  5
1FE
330
4B
100
AcDbEntity
  8
1
  6
Continuous
 62
     7
100
AcDbCircle
 10
67.6001500537908
 20
188.8785812834883
 30
0.0
 40
13.38003055342678
100
AcDbArc
 50
260.0326244353002
 51
279.8720908555136
  0
ARC
  5
1FF
330
4B
100
AcDbEntity
  8
1
  6
Continuous
 62
     7
100
AcDbCircle
 10
67.6001500537908
 20
188.8785812834883
 30
0.0
 40
13.86926314542562
100
AcDbArc
 50
285.285748726737
 51
299.7142512732992
  0
ARC
  5
200
330
4B
100
AcDbEntity
  8
1
  6
Continuous
 62
     7
100
AcDbCircle
 10
67.6001500537908
 20
188.8785812834883
 30
0.0
 40
13.38003055342676
100
AcDbArc
 50
279.8720908555136
 51
279.9673755646994
  0
ARC
  5
201
330
4B
100
AcDbEntity
  8
1
  6
Continuous
 62
     7
100
AcDbCircle
 10
67.6001500537908
 20
188.8785812834883
 30
0.0
 40
13.38003055342668
100
AcDbArc
 50
350.0326244352999
 51
350.1279091444866
  0
ARC
  5
202
330
4B
100
AcDbEntity
  8
1
  6
Continuous
 62
     7
100
AcDbCircle
 10
67.6001500537908
 20
188.8785812834883
 30
0.0
 40
13.3800305534267
100
AcDbArc
 50
305.0326244353005
 51
324.8720908555134
  0
ARC
  5
203
330
4B
100
AcDbEntity
  8
1
  6
Continuous
 62
     7
100
AcDbCircle
 10
67.6001500537908
 20
188.8785812834883
 30
0.0
 40
13.86926314542563
100
AcDbArc
 50
330.2857487267375
 51
344.7142512732995
  0
ARC
  5
204
330
4B
100
AcDbEntity
  8
1
  6
Continuous
 62
     7
100
AcDbCircle
 10
67.6001500537908
 20
188.8785812834883
 30
0.0
 40
13.38003055342682
100
AcDbArc
 50
324.8720908555134
 51
324.9673755646996
  0
ARC
  5
205
330
4B
100
AcDbEntity
  8
1
  6
Continuous
 62
     7
100
AcDbCircle
 10
67.6001500537908
 20
188.8785812834883
 30
0.0
 40
13.38003055342668
100
AcDbArc
 50
350.0326244352999
 51
9.87209085551381
  0
ARC
  5
206
330
4B
100
AcDbEntity
  8
1
  6
Continuous
 62
     7
100
AcDbCircle
 10
67.6001500537908
 20
188.8785812834883
 30
0.0
 40
13.8692631454256
100
AcDbArc
 50
15.28574872673764
 51
29.71425127329973
  0
ARC
  5
207
330
4B
100
AcDbEntity
  8
1
  6
Continuous
 62
     7
100
AcDbCircle
 10
67.6001500537908
 20
188.8785812834883
 30
0.0
 40
13.86926314542555
100
AcDbArc
 50
60.28574872673718
 51
74.71425127329992
  0
ARC
  5
208
330
4B
100
AcDbEntity
  8
1
  6
Continuous
 62
     7
100
AcDbCircle
 10
67.6001500537908
 20
188.8785812834883
 30
0.0
 40
13.38003055342661
100
AcDbArc
 50
54.87209085551365
 51
54.96737556469953
  0
ARC
  5
209
330
4B
100
AcDbEntity
  8
1
  6
Continuous
 62
     7
100
AcDbCircle
 10
67.59701172305108
 20
109.5785812836435
 30
0.0
 40
30.0000000000097
100
AcDbArc
 50
90.00599377030183
 51
115.3027057076144
  0
ARC
  5
20A
330
4B
100
AcDbEntity
  8
1
  6
Continuous
 62
     7
100
AcDbCircle
 10
67.6001500537908
 20
188.8785812834883
 30
0.0
 40
13.3800305534267
100
AcDbArc
 50
35.0326244353003
 51
54.87209085551365
  0
ARC
  5
20B
330
4B
100
AcDbEntity
  8
1
  6
Continuous
 62
     7
100
AcDbCircle
 10
67.6001500537908
 20
188.8785812834883
 30
0.0
 40
13.38003055342665
100
AcDbArc
 50
80.03262443530062
 51
99.87209085551383
  0
ARC
  5
20C
330
4B
100
AcDbEntity
  8
1
  6
Continuous
 62
     7
100
AcDbCircle
 10
67.6001500537908
 20
188.8785812834883
 30
0.0
 40
13.38003055342665
100
AcDbArc
 50
80.03262443530062
 51
80.12790914448647
  0
ARC
  5
20D
330
4B
100
AcDbEntity
  8
1
  6
Continuous
 62
     7
100
AcDbCircle
 10
73.2451329293907
 20
284.5755103758882
 30
0.0
 40
99.64347805200129
100
AcDbArc
 50
274.1663852961003
 51
274.4342575456
  0
ARC
  5
20E
330
4B
100
AcDbEntity
  8
1
  6
Continuous
 62
     7
100
AcDbCircle
 10
150.2999999999945
 20
188.8817196142283
 30
0.0
 40
30.00000000001037
100
AcDbArc
 50
154.6972942923855
 51
179.9940062296981
  0
ARC
  5
20F
330
4B
100
AcDbEntity
  8
1
  6
Continuous
 62
     7
100
AcDbCircle
 10
199.1583857060946
 20
368.8258337132891
 30
0.0
 40
200.0000000003783
100
AcDbArc
 50
255.1264718581941
 51
258.4459692671946
  0
ARC
  5
210
330
4B
100
AcDbEntity
  8
1
  6
Continuous
 62
     7
100
AcDbCircle
 10
199.1583857060946
 20
8.93132885368865
 30
0.0
 40
200.0000000003788
100
AcDbArc
 50
101.5540307328053
 51
104.873528141806
  0
ARC
  5
211
330
4B
100
AcDbEntity
  8
1
  6
Continuous
 62
     7
100
AcDbCircle
 10
124.0821913478447
 20
201.2763357631283
 30
0.0
 40
1.000000000022525
100
AcDbArc
 50
90.98103110788442
 51
154.6972942923904
  0
ARC
  5
212
330
4B
100
AcDbEntity
  8
1
  6
Continuous
 62
     7
100
AcDbCircle
 10
150.2999999999945
 20
188.8817196142283
 30
0.0
 40
30.00000000000979
100
AcDbArc
 50
179.9940062296981
 51
205.3027057077067
  0
ARC
  5
213
330
4B
100
AcDbEntity
  8
1
  6
Continuous
 62
     7
100
AcDbCircle
 10
124.0821913478447
 20
176.4808268038488
 30
0.0
 40
1.000000000000259
100
AcDbArc
 50
205.3027057077917
 51
268.9999999999819
  0
CIRCLE
  5
214
330
4B
100
AcDbEntity
  8
1
  6
Continuous
 62
     7
100
AcDbCircle
 10
67.6001500537908
 20
188.8785812834883
 30
0.0
 40
15.9999999999652
  0
CIRCLE
  5
215
330
4B
100
AcDbEntity
  8
1
  6
Continuous
 62
     7
100
AcDbCircle
 10
67.6001500537908
 20
188.8785812834883
 30
0.0
 40
13.36596206919226
  0
CIRCLE
  5
216
330
4B
100
AcDbEntity
  8
1
  6
Continuous
 62
     7
100
AcDbCircle
 10
67.6001500537908
 20
188.8785812834883
 30
0.0
 40
12.43519881187961
  0
SPLINE
  5
217
330
4B
100
AcDbEntity
  8
1
  6
Continuous
 62
     7
100
AcDbSpline
210
0.0
220
0.0
230
1.0
 70
     8
 71
     3
 72
    65
 73
    61
 74
    59
 42
0.000000001
 43
0.0000000001
 44
0.00000001
 40
0.0
 40
0.0
 40
0.0
 40
0.0
 40
0.8028301213054153
 40
1.605658588339925
 40
2.411827186790887
 40
3.217969310682541
 40
3.627774854881503
 40
4.037587196414986
 40
4.432443427297823
 40
4.827292263491008
 40
4.906008611284837
 40
4.984718277725923
 40
5.063934360892524
 40
5.143163267065759
 40
5.310082979249575
 40
5.476958003536438
 40
5.551374843366571
 40
5.625816745162495
 40
5.793438889825087
 40
5.960959775159841
 40
6.041835619835933
 40
6.122755555038213
 40
6.246576278076542
 40
6.370254729916572
 40
6.406737111389389
 40
6.443231529851849
 40
6.529130650646412
 40
6.614997039549101
 40
6.654525598708392
 40
6.694061101341513
 40
6.779571085399064
 40
6.865081140061444
 40
6.90546973827986
 40
6.945851026792496
 40
7.028238363205248
 40
7.110653290755621
 40
7.150273828320881
 40
7.189883577737153
 40
7.314181563264005
 40
7.438612168301236
 40
7.517982745636552
 40
7.597311058586033
 40
7.758902405056422
 40
7.920588631906141
 40
8.00307746731233
 40
8.085539626165074
 40
8.24791138211906
 40
8.410321572299111
 40
8.489308023975935
 40
8.568282550403495
 40
8.646150672470391
 40
8.724025080702688
 40
9.129680764061554
 40
9.535345234190709
 40
9.930368423093677
 40
10.32538439630014
 40
11.13715900099027
 40
11.94896199721363
 40
12.75013962025979
 40
13.55131745731319
 40
13.55131745731319
 40
13.55131745731319
 40
13.55131745731319
 10
149.6788525938945
 20
192.1994126232885
 30
0.0
 10
149.4291511458956
 20
192.1031473752624
 30
0.0
 10
148.9297487679437
 20
191.9106170685201
 30
0.0
 10
148.1852812518007
 20
191.6070214380638
 30
0.0
 10
147.4446071028102
 20
191.2914978664089
 30
0.0
 10
146.8297147185447
 20
191.0152531385807
 30
0.0
 10
146.3391042770928
 20
190.7850599476897
 30
0.0
 10
145.9744791969399
 20
190.6091694622155
 30
0.0
 10
145.616123550974
 20
190.4318017334846
 30
0.0
 10
145.3587236095529
 20
190.2993179608276
 30
0.0
 10
145.1961408792397
 20
190.2129645226306
 30
0.0
 10
145.1268702723967
 20
190.1752262897018
 30
0.0
 10
145.0580994878902
 20
190.1362339438216
 30
0.0
 10
144.9646494920235
 20
190.0811859498024
 30
0.0
 10
144.8477792065199
 20
190.008354158697
 30
0.0
 10
144.735317955374
 20
189.9316629904858
 30
0.0
 10
144.6505024774899
 20
189.869336591153
 30
0.0
 10
144.566978766861
 20
189.8048835969364
 30
0.0
 10
144.4623221238639
 20
189.7170650555867
 30
0.0
 10
144.3625909143733
 20
189.6204826346122
 30
0.0
 10
144.2887720360399
 20
189.5391919412386
 30
0.0
 10
144.2281925938297
 20
189.465698523697
 30
0.0
 10
144.1643753581982
 20
189.3765767720773
 30
0.0
 10
144.1168820470926
 20
189.2944601944774
 30
0.0
 10
144.0883288369481
 20
189.2354421215112
 30
0.0
 10
144.066983413309
 20
189.1869652647772
 30
0.0
 10
144.0430646041056
 20
189.1216857878826
 30
0.0
 10
144.0252454221045
 20
189.0534134961996
 30
0.0
 10
144.0154521231251
 20
188.9992960779304
 30
0.0
 10
144.0083630701136
 20
188.9448781967256
 30
0.0
 10
144.0048882941514
 20
188.874630746362
 30
0.0
 10
144.0090547474013
 20
188.804134919976
 30
0.0
 10
144.0167913256829
 20
188.7492297636044
 30
0.0
 10
144.0270842873201
 20
188.6958064121045
 30
0.0
 10
144.044970180925
 20
188.6296760334932
 30
0.0
 10
144.068731504785
 20
188.5657133321777
 30
0.0
 10
144.0906614202607
 20
188.5164829948175
 30
0.0
 10
144.1206440639506
 20
188.4556108419482
 30
0.0
 10
144.1694963110288
 20
188.372607822772
 30
0.0
 10
144.233853967903
 20
188.2840090786787
 30
0.0
 10
144.2943224527335
 20
188.2115041635678
 30
0.0
 10
144.3664647582231
 20
188.1327600852429
 30
0.0
 10
144.463164162663
 20
188.0394993263091
 30
0.0
 10
144.5667819065926
 20
187.952435319591
 30
0.0
 10
144.6529717120171
 20
187.8858911635915
 30
0.0
 10
144.7410429601786
 20
187.8214682507314
 30
0.0
 10
144.8534127500221
 20
187.7452235181471
 30
0.0
 10
144.9677305372329
 20
187.6741338217511
 30
0.0
 10
145.0597690885113
 20
187.6199693408186
 30
0.0
 10
145.1281686229541
 20
187.5812182121905
 30
0.0
 10
145.1968831965631
 20
187.5438008307592
 30
0.0
 10
145.3621566827388
 20
187.4560302806065
 30
0.0
 10
145.6257420454679
 20
187.3204306572811
 30
0.0
 10
145.9862273261231
 20
187.1422353212322
 30
0.0
 10
146.3452867598256
 20
186.9692097425522
 30
0.0
 10
146.8286694190751
 20
186.7424058501278
 30
0.0
 10
147.4424570704899
 20
186.4665654036902
 30
0.0
 10
148.1860847442517
 20
186.1497946348053
 30
0.0
 10
148.9312887574954
 20
185.8459478010786
 30
0.0
 10
149.4296646250664
 20
185.6538159016892
 30
0.0
 10
149.6788525938945
 20
185.5577499436885
 30
0.0
 11
149.6788525938945
 21
192.1994126232885
 31
0.0
 11
148.9306927136221
 21
191.9082202309306
 31
0.0
 11
148.1871109958636
 21
191.6055326412067
 31
0.0
 11
147.445645438039
 21
191.2890889084846
 31
0.0
 11
146.7104301691337
 21
190.9584476640296
 31
0.0
 11
146.3394218834626
 21
190.784397567556
 31
0.0
 11
145.9702984040863
 21
190.6063694453197
 31
0.0
 11
145.6165853005659
 21
190.4308744780976
 31
0.0
 11
145.2656845254554
 21
190.249837880888
 31
0.0
 11
145.1962044074344
 21
190.2128408997635
 31
0.0
 11
145.1271259982127
 21
190.1751131251997
 31
0.0
 11
145.0582127716002
 21
190.1360470909307
 31
0.0
 11
144.9899441678941
 21
190.0958399109087
 31
0.0
 11
144.8483896832751
 21
190.0073836040662
 31
0.0
 11
144.7106385483273
 21
189.9131928477441
 31
0.0
 11
144.6506846385675
 21
189.8691088964625
 31
0.0
 11
144.5917625106287
 21
189.8236140661138
 31
0.0
 11
144.4636201154601
 21
189.7155552396424
 31
0.0
 11
144.3435787415661
 21
189.5987078364992
 31
0.0
 11
144.2892693405305
 21
189.5387796192462
 31
0.0
 11
144.2378606439271
 21
189.4762881651124
 31
0.0
 11
144.1660249276242
 21
189.3754357910622
 31
0.0
 11
144.104404880756
 21
189.2682008652539
 31
0.0
 11
144.0885283029881
 21
189.2353542757803
 31
0.0
 11
144.0738332772721
 21
189.201949204279
 31
0.0
 11
144.0443717843531
 21
189.121260423082
 31
0.0
 11
144.0228049069723
 21
189.0381466061347
 31
0.0
 11
144.0157747180825
 21
188.9992482329203
 31
0.0
 11
144.0106755687687
 21
188.9600429443719
 31
0.0
 11
144.0064364835918
 21
188.8746380993324
 31
0.0
 11
144.0115016150335
 21
188.7892781911925
 31
0.0
 11
144.0171260778731
 21
188.74928313788
 31
0.0
 11
144.0247541687697
 21
188.709628873333
 31
0.0
 11
144.0461648988853
 21
188.6300722654404
 31
0.0
 11
144.074787225174
 21
188.5527871909314
 31
0.0
 11
144.0908936439734
 21
188.516588153997
 31
0.0
 11
144.1083799191049
 21
188.4810471574547
 31
0.0
 11
144.1711339554426
 21
188.3737535408273
 31
0.0
 11
144.2440159412934
 21
188.2729012149102
 31
0.0
 11
144.2947946636684
 21
188.2118994943364
 31
0.0
 11
144.3483261192629
 21
188.1533557969072
 31
0.0
 11
144.4643674224995
 21
188.0409005647556
 31
0.0
 11
144.5879167889097
 21
187.9366029614913
 31
0.0
 11
144.6531930546017
 21
187.8861706592267
 31
0.0
 11
144.719732619297
 21
187.8374624055128
 31
0.0
 11
144.8539865856907
 21
187.7461362884227
 31
0.0
 11
144.9918046213004
 21
187.6602103962001
 31
0.0
 11
145.0598811713517
 21
187.6201548986317
 31
0.0
 11
145.1285975311091
 21
187.5812314130539
 31
0.0
 11
145.1969452444724
 21
187.5439214342946
 31
0.0
 11
145.2656846478444
 21
187.5073247420385
 31
0.0
 11
145.6262248296318
 21
187.3214018794836
 31
0.0
 11
145.9897086123131
 21
187.1412819135962
 31
0.0
 11
146.3455813833232
 21
186.9698237826107
 31
0.0
 11
146.7032000244665
 21
186.8020545164937
 31
0.0
 11
147.4435096274347
 21
186.4690084223416
 31
0.0
 11
148.1901601282925
 21
186.1503595018335
 31
0.0
 11
148.9322286154701
 21
185.8483331048366
 31
0.0
 11
149.6788525938945
 21
185.5577499436885
 31
0.0
  0
SPLINE
  5
218
330
4B
100
AcDbEntity
  8
1
  6
Continuous
 62
     7
100
AcDbSpline
210
0.0
220
0.0
230
1.0
 70
     8
 71
     3
 72
    57
 73
    53
 74
    51
 42
0.000000001
 43
0.0000000001
 44
0.00000001
 40
0.0
 40
0.0
 40
0.0
 40
0.0
 40
0.8096879821802191
 40
1.619375893302085
 40
2.423836958899459
 40
3.228275421666504
 40
3.6247441892206
 40
4.021217154235149
 40
4.430422829077384
 40
4.839620362344205
 40
4.9197147599602
 40
4.999805396382937
 40
5.081121700151316
 40
5.162445712355875
 40
5.322218050128136
 40
5.481959527705327
 40
5.554417992316355
 40
5.626899827488865
 40
5.782873642237801
 40
5.938712178978747
 40
6.009636647986775
 40
6.080680237967576
 40
6.226906409591042
 40
6.37262958609109
 40
6.434574894743704
 40
6.496646939115237
 40
6.585768097815593
 40
6.674479221608902
 40
6.708968751784593
 40
6.743460591022068
 40
6.797008601009715
 40
6.850583014627744
 40
6.880036535097164
 40
6.909471917572549
 40
7.002732542270379
 40
7.09622924405731
 40
7.154474294490555
 40
7.212639247429885
 40
7.417561035346827
 40
7.623020899764245
 40
7.76692129125666
 40
7.910644040084741
 40
8.05099417179923
 40
8.191408591180455
 40
8.555782391175168
 40
8.920099254823832
 40
9.289055255996322
 40
9.658023326202752
 40
10.40496299069192
 40
11.15190368156906
 40
11.9124888975495
 40
12.67307412268614
 40
12.67307412268614
 40
12.67307412268614
 40
12.67307412268614
 10
149.678852355142
 20
200.7239898816142
 30
0.0
 10
149.4276785428066
 20
200.6252063340915
 30
0.0
 10
148.9253309431671
 20
200.4276392401924
 30
0.0
 10
148.1791428295772
 20
200.117707812751
 30
0.0
 10
147.4394130395252
 20
199.797078671649
 30
0.0
 10
146.8311979522222
 20
199.5196306136943
 30
0.0
 10
146.3502817049638
 20
199.2910655490441
 30
0.0
 10
145.9901717893535
 20
199.115282244758
 30
0.0
 10
145.6281532069682
 20
198.9337839792405
 30
0.0
 10
145.3624165013356
 20
198.7956037456995
 30
0.0
 10
145.195020432421
 20
198.7061576422959
 30
0.0
 10
145.1243197777895
 20
198.6676612558105
 30
0.0
 10
145.0537341222506
 20
198.628107321418
 30
0.0
 10
144.9606206279721
 20
198.574439250113
 30
0.0
 10
144.8460450953863
 20
198.5056726581131
 30
0.0
 10
144.7360183023635
 20
198.435159384
 30
0.0
 10
144.6519440455797
 20
198.378176744254
 30
0.0
 10
144.5699020138592
 20
198.3204633131407
 30
0.0
 10
144.4673088315357
 20
198.2436807659871
 30
0.0
 10
144.3694378323945
 20
198.1616981249559
 30
0.0
 10
144.2966663214661
 20
198.0941502233566
 30
0.0
 10
144.2287770026802
 20
198.0261611365103
 30
0.0
 10
144.148963452829
 20
197.934920396185
 30
0.0
 10
144.0836996677168
 20
197.8359525001989
 30
0.0
 10
144.0445908585156
 20
197.7548619828532
 30
0.0
 10
144.0205057223445
 20
197.6878617641144
 30
0.0
 10
144.0052199128955
 20
197.6088747633179
 30
0.0
 10
144.0063738657955
 20
197.5374086547434
 30
0.0
 10
144.0163666416523
 20
197.4857299240255
 30
0.0
 10
144.0278300998903
 20
197.4464714995098
 30
0.0
 10
144.0461583065232
 20
197.4028156123791
 30
0.0
 10
144.0688714831512
 20
197.3632357148901
 30
0.0
 10
144.0902976202407
 20
197.3324514446292
 30
0.0
 10
144.1215678396474
 20
197.2924962269046
 30
0.0
 10
144.1718426218653
 20
197.2404785595794
 30
0.0
 10
144.2355402258877
 20
197.1891333480468
 30
0.0
 10
144.2932072535935
 20
197.1494574792604
 30
0.0
 10
144.3843543190742
 20
197.0931410728408
 30
0.0
 10
144.5244175429456
 20
197.0230499544253
 30
0.0
 10
144.6971834026371
 20
196.9571061903252
 30
0.0
 10
144.8536297175851
 20
196.9065987384135
 30
0.0
 10
144.991044290032
 20
196.8681407911178
 30
0.0
 10
145.1285631933284
 20
196.8347529062773
 30
0.0
 10
145.3385449822413
 20
196.7883373480927
 30
0.0
 10
145.6221968642272
 20
196.7293881700808
 30
0.0
 10
145.9812088466248
 20
196.658808370935
 30
0.0
 10
146.3419552289337
 20
196.5891285069482
 30
0.0
 10
146.8283539943978
 20
196.4974858187291
 30
0.0
 10
147.4395630891979
 20
196.3878521022797
 30
0.0
 10
148.1805317345876
 20
196.2625080436858
 30
0.0
 10
148.926895059369
 20
196.1418837528633
 30
0.0
 10
149.4282000810049
 20
196.0657114100896
 30
0.0
 10
149.6788525938945
 20
196.0276252421385
 30
0.0
 11
149.678852355142
 21
200.7239898816142
 31
0.0
 11
148.9262849395928
 21
200.425264376926
 31
0.0
 11
148.1783468738953
 21
200.1151302708697
 31
0.0
 11
147.4404352516059
 21
199.7947491790305
 31
0.0
 11
146.7086639001803
 21
199.460635530958
 31
0.0
 11
146.3505823054815
 21
199.2904442995932
 31
0.0
 11
145.9942917559785
 21
199.1165251908959
 31
0.0
 11
145.6286073117838
 21
198.9328837695145
 31
0.0
 11
145.2656846478446
 21
198.7438605929385
 31
0.0
 11
145.1950690188934
 21
198.7060644889145
 31
0.0
 11
145.1247563530962
 21
198.6677155766305
 31
0.0
 11
145.05381749087
 21
198.6279661227064
 31
0.0
 11
144.9833579242774
 21
198.5873576945221
 31
0.0
 11
144.8464468929585
 21
198.5050013381577
 31
0.0
 11
144.7120409228463
 21
198.4186741994783
 31
0.0
 11
144.6520699681093
 21
198.3780083208397
 31
0.0
 11
144.5927960414194
 21
198.3362924000324
 31
0.0
 11
144.4681505690563
 21
198.2425302694666
 31
0.0
 11
144.3489402598766
 21
198.1421582029073
 31
0.0
 11
144.2970068839162
 21
198.0938549445088
 31
0.0
 11
144.2468521152618
 21
198.0435390338456
 31
0.0
 11
144.1514499367532
 21
197.9327215368472
 31
0.0
 11
144.0722815308616
 21
197.8103793620749
 31
0.0
 11
144.0455988561127
 21
197.7544753716671
 31
0.0
 11
144.0248183057503
 21
197.6959851380211
 31
0.0
 11
144.008282299391
 21
197.6084115035615
 31
0.0
 11
144.0103691733978
 21
197.5197249291812
 31
0.0
 11
144.0168870541031
 21
197.4858568774507
 31
0.0
 11
144.0265319231175
 21
197.4527409676679
 31
0.0
 11
144.0471420859863
 21
197.4033181938507
 31
0.0
 11
144.0737198857139
 21
197.3568011177731
 31
0.0
 11
144.0905221278484
 21
197.3326103234445
 31
0.0
 11
144.108641107513
 21
197.3094123856021
 31
0.0
 11
144.1730657036622
 21
197.2419808235994
 31
0.0
 11
144.2455543194735
 21
197.182929711484
 31
0.0
 11
144.2934894076589
 21
197.1498432606786
 31
0.0
 11
144.3429225950586
 21
197.1191916418072
 31
0.0
 11
144.5255625558284
 21
197.0262637991216
 31
0.0
 11
144.7170463631945
 21
196.9517808652444
 31
0.0
 11
144.8539596670337
 21
196.9074856068473
 31
0.0
 11
144.992336772253
 21
196.8686525630381
 31
0.0
 11
145.128648903033
 21
196.8352285824105
 31
0.0
 11
145.2656846478445
 21
196.8046113679885
 31
0.0
 11
145.6223433250013
 21
196.7300268242941
 31
0.0
 11
145.9797295487932
 21
196.6593029654792
 31
0.0
 11
146.3420041779487
 21
196.5894057273649
 31
0.0
 11
146.7046063894805
 21
196.5211629764665
 31
0.0
 11
147.4397728255339
 21
196.3890676555928
 31
0.0
 11
148.1761956771393
 21
196.2641605723716
 31
0.0
 11
148.9270790847701
 21
196.1430656546466
 31
0.0
 11
149.6788525938945
 21
196.0276252421385
 31
0.0
  0
SPLINE
  5
219
330
4B
100
AcDbEntity
  8
1
  6
Continuous
 62
     7
100
AcDbSpline
210
0.0
220
0.0
230
1.0
 70
     8
 71
     3
 72
    37
 73
    33
 74
    31
 42
0.000000001
 43
0.0000000001
 44
0.00000001
 40
0.0
 40
0.0
 40
0.0
 40
0.0
 40
0.7234297630660669
 40
1.446852666752795
 40
1.830822531892224
 40
2.214771306506798
 40
2.338451457579968
 40
2.462093752303486
 40
2.594065321877525
 40
2.726095773605223
 40
2.925325077730011
 40
3.124476636265915
 40
3.192468467680608
 40
3.260460681902225
 40
3.385541994640828
 40
3.510619899649476
 40
3.581956109096056
 40
3.653298476959236
 40
3.850860012158725
 40
4.048456156459908
 40
4.183052753886928
 40
4.317642622328159
 40
4.569011592355729
 40
4.820478984943391
 40
4.959236184783355
 40
5.097913186498134
 40
5.222033925384586
 40
5.346195751604249
 40
5.714090841293388
 40
6.081997527361874
 40
6.821477849320948
 40
7.560960676830051
 40
7.560960676830051
 40
7.560960676830051
 40
7.560960676830051
 10
125.5478600025445
 20
192.2276943287386
 30
0.0
 10
125.6863372270711
 20
192.0302514171893
 30
0.0
 10
125.9632903515583
 20
191.6353674581997
 30
0.0
 10
126.2942573376744
 20
191.1224830037442
 30
0.0
 10
126.5574422458269
 20
190.7007474473203
 30
0.0
 10
126.7079484312521
 20
190.4443943564427
 30
0.0
 10
126.8095756238773
 20
190.2601280552229
 30
0.0
 10
126.8675869336731
 20
190.1477603149651
 30
0.0
 10
126.92187432872
 20
190.0304527706137
 30
0.0
 10
126.9807072431476
 20
189.8876475373347
 30
0.0
 10
127.0396519915517
 20
189.7208324680625
 30
0.0
 10
127.0817550630416
 20
189.5710457293096
 30
0.0
 10
127.1068867525116
 20
189.4621891066839
 30
0.0
 10
127.124408440174
 20
189.3769414884011
 30
0.0
 10
127.1421626597367
 20
189.2723494863358
 30
0.0
 10
127.1553070323721
 20
189.1659543164081
 30
0.0
 10
127.1630559736256
 20
189.0770293277035
 30
0.0
 10
127.1699159019898
 20
188.9638138549886
 30
0.0
 10
127.1715292568335
 20
188.8081690224886
 30
0.0
 10
127.1604749796233
 20
188.6317704046892
 30
0.0
 10
127.1412370822843
 20
188.4773088464658
 30
0.0
 10
127.1113682071926
 20
188.3063176348943
 30
0.0
 10
127.0603374190892
 20
188.0997626799706
 30
0.0
 10
126.9917362769933
 20
187.8969426298003
 30
0.0
 10
126.9251476323626
 20
187.7336504032266
 30
0.0
 10
126.869042493713
 20
187.6120662938443
 30
0.0
 10
126.8098420716255
 20
187.4974365070144
 30
0.0
 10
126.7105925380956
 20
187.3176043634851
 30
0.0
 10
126.565534318893
 20
187.0702896624244
 30
0.0
 10
126.3057444951465
 20
186.652746957208
 30
0.0
 10
125.9723846399204
 20
186.1350301477406
 30
0.0
 10
125.6893683909857
 20
185.731322409971
 30
0.0
 10
125.5478600210001
 20
185.5294682031189
 30
0.0
 11
125.5478600025445
 21
192.2276943287386
 31
0.0
 11
125.9594420627312
 21
191.6327566560301
 31
0.0
 11
126.3535899679863
 21
191.0261364065727
 31
0.0
 11
126.5559733280226
 21
190.6998331227275
 31
0.0
 11
126.7496130621151
 21
190.3682907950159
 31
0.0
 11
126.8090842927686
 21
190.25984748027
 31
0.0
 11
126.8655414437972
 21
190.1498474476999
 31
0.0
 11
126.9210059041678
 21
190.0300969201667
 31
0.0
 11
126.971337221994
 21
189.9080362849593
 31
0.0
 11
127.0375830189669
 21
189.7201432033899
 31
0.0
 11
127.0913261308365
 21
189.5283802734508
 31
0.0
 11
127.1066190670806
 21
189.4621306300334
 31
0.0
 11
127.1203060038673
 21
189.3955302623981
 31
0.0
 11
127.1412297902879
 21
189.2722114479242
 31
0.0
 11
127.1565528642074
 21
189.1480756925072
 31
0.0
 11
127.162742715897
 21
189.0770085374398
 31
0.0
 11
127.1670549177127
 21
189.0057966115914
 31
0.0
 11
127.169126493192
 21
188.8082459373764
 31
0.0
 11
127.1567689053284
 21
188.6110365907884
 31
0.0
 11
127.1401489087757
 21
188.4774700537864
 31
0.0
 11
127.1170044754406
 21
188.3448851076402
 31
0.0
 11
127.0569693937054
 21
188.1007905599201
 31
0.0
 11
126.9766097771475
 21
187.8625088322982
 31
0.0
 11
126.9241784675423
 21
187.7340389201676
 31
0.0
 11
126.8660376969748
 21
187.6081383179494
 31
0.0
 11
126.8093467377078
 21
187.4977205069655
 31
0.0
 11
126.749613062115
 21
187.3888717719727
 31
0.0
 11
126.5641722379842
 21
187.07113210195
 31
0.0
 11
126.3706383610141
 21
186.7582423957573
 31
0.0
 11
125.9683692352214
 21
186.1377500930543
 31
0.0
 11
125.5478600210001
 21
185.5294682031189
 31
0.0
  0
SPLINE
  5
21A
330
4B
100
AcDbEntity
  8
1
  6
Continuous
 62
     7
100
AcDbSpline
210
0.0
220
0.0
230
1.0
 70
     8
 71
     3
 72
    33
 73
    29
 74
    27
 42
0.000000001
 43
0.0000000001
 44
0.00000001
 40
0.0
 40
0.0
 40
0.0
 40
0.0
 40
0.7307637154532322
 40
1.46152794080388
 40
1.820302006599242
 40
2.179081181396748
 40
2.300320048663013
 40
2.421521522698039
 40
2.541368707183115
 40
2.661297494909073
 40
2.885825921575123
 40
3.110081499882734
 40
3.21478777221281
 40
3.319622601865535
 40
3.511168704089117
 40
3.702323915973231
 40
3.7865979882987
 40
3.870904873323903
 40
4.030615013550909
 40
4.19040849478773
 40
4.268921972199819
 40
4.347301080998129
 40
4.425436796617286
 40
4.503668562174782
 40
4.733088300101318
 40
4.962474975521245
 40
5.458764220815715
 40
5.955055194569279
 40
5.955055194569279
 40
5.955055194569279
 40
5.955055194569279
 10
125.5478600025445
 20
177.3254101926885
 30
0.0
 10
125.6898956483072
 20
177.5233249512583
 30
0.0
 10
125.9739670269129
 20
177.9191546150065
 30
0.0
 10
126.3082978685019
 20
178.4256812714125
 30
0.0
 10
126.566509547609
 20
178.8336068820455
 30
0.0
 10
126.7104877585075
 20
179.0733347860635
 30
0.0
 10
126.8099900193511
 20
179.2473015173679
 30
0.0
 10
126.8676447760885
 20
179.3534306710279
 30
0.0
 10
126.9215948046023
 20
179.4610119643285
 30
0.0
 10
126.986248527024
 20
179.601653113836
 30
0.0
 10
127.0567297576777
 20
179.7778204454255
 30
0.0
 10
127.110528597222
 20
179.9546279727977
 30
0.0
 10
127.141746515319
 20
180.095883626414
 30
0.0
 10
127.1631108236474
 20
180.2279294404146
 30
0.0
 10
127.1745296150382
 20
180.3904787858407
 30
0.0
 10
127.1635167257676
 20
180.5464495239663
 30
0.0
 10
127.1404941212955
 20
180.6642432026786
 30
0.0
 10
127.1108955637873
 20
180.7697150059607
 30
0.0
 10
127.0584750928263
 20
180.8943548795271
 30
0.0
 10
126.988198278565
 20
181.0075748636229
 30
0.0
 10
126.9222601002363
 20
181.0901253327425
 30
0.0
 10
126.8685594567672
 20
181.1472998594986
 30
0.0
 10
126.8104443883108
 20
181.199792274866
 30
0.0
 10
126.7106917907607
 20
181.2809772910224
 30
0.0
 10
126.56719410696
 20
181.3881413357076
 30
0.0
 10
126.3055616686162
 20
181.5695339987605
 30
0.0
 10
125.9690285289518
 20
181.7991472100277
 30
0.0
 10
125.6882496887926
 20
181.9742299061615
 30
0.0
 10
125.5478600210001
 20
182.0617714015534
 30
0.0
 11
125.5478600025445
 21
177.3254101926885
 31
0.0
 11
125.9700579953198
 21
177.9218701362565
 31
0.0
 11
126.3739816755334
 21
178.5308545495243
 31
0.0
 11
126.5653185228238
 21
178.8343492638027
 31
0.0
 11
126.7496125757945
 21
179.1421774605886
 31
0.0
 11
126.809610628718
 21
179.2475297108282
 31
0.0
 11
126.8672700636326
 21
179.3541373415366
 31
0.0
 11
126.9209711965007
 21
179.4612799381646
 31
0.0
 11
126.9710436036861
 21
179.5702554777243
 31
0.0
 11
127.0537607216573
 21
179.7789918976343
 31
0.0
 11
127.1182908925078
 21
179.9937625234115
 31
0.0
 11
127.1407589540858
 21
180.0960297700328
 31
0.0
 11
127.1573853809751
 21
180.1995377576352
 31
0.0
 11
127.1700323820566
 21
180.3906658896716
 31
0.0
 11
127.1556343644482
 21
180.5812780937609
 31
0.0
 11
127.1393941026053
 21
180.66397255069
 31
0.0
 11
127.116538833054
 21
180.7451223354182
 31
0.0
 11
127.054753447579
 21
180.8923972320871
 31
0.0
 11
126.9704561379402
 21
181.0281467085925
 31
0.0
 11
126.9214356073323
 21
181.0894765850148
 31
0.0
 11
126.8677549837949
 21
181.1465876642797
 31
0.0
 11
126.8100385444028
 21
181.1992564661884
 31
0.0
 11
126.7496125757945
 21
181.2489446083386
 31
0.0
 11
126.5664130896803
 21
181.3870437194731
 31
0.0
 11
126.3785686013491
 21
181.5186974132834
 31
0.0
 11
125.9671741607398
 21
181.7962899735493
 31
0.0
 11
125.5478600210001
 21
182.0617714015534
 31
0.0
  0
SPLINE
  5
21B
330
4B
100
AcDbEntity
  8
1
  6
Continuous
 62
     7
100
AcDbSpline
210
0.0
220
0.0
230
1.0
 70
     8
 71
     3
 72
    57
 73
    53
 74
    51
 42
0.000000001
 43
0.0000000001
 44
0.00000001
 40
0.0
 40
0.0
 40
0.0
 40
0.0
 40
0.8096879821802401
 40
1.619375893302063
 40
2.423836958899471
 40
3.228275421666504
 40
3.624744189220612
 40
4.021217154235149
 40
4.430422829077384
 40
4.839620362344193
 40
4.919714759960175
 40
4.999805396382912
 40
5.081121700151263
 40
5.162445712355878
 40
5.322218050128124
 40
5.481959527705301
 40
5.554417992316376
 40
5.626899827488885
 40
5.782873642237787
 40
5.938712178978769
 40
6.009636647986778
 40
6.080680237967579
 40
6.226906409591022
 40
6.372629586091071
 40
6.434574894743608
 40
6.496646939115168
 40
6.585768097815524
 40
6.674479221608946
 40
6.70896875178461
 40
6.743460591022139
 40
6.797008601009733
 40
6.850583014627762
 40
6.880036535097182
 40
6.909471917572589
 40
7.00273254227042
 40
7.096229244057351
 40
7.15447429449058
 40
7.212639247429895
 40
7.417561035346837
 40
7.623020899764255
 40
7.766921291256661
 40
7.910644040084749
 40
8.050994171799232
 40
8.191408591180457
 40
8.555782391175175
 40
8.920099254823826
 40
9.289055255996317
 40
9.658023326202766
 40
10.40496299069193
 40
11.15190368156907
 40
11.9124888975495
 40
12.67307412268614
 40
12.67307412268614
 40
12.67307412268614
 40
12.67307412268614
 10
149.678852355142
 20
177.0331726853629
 30
0.0
 10
149.4276785428066
 20
177.1319562328857
 30
0.0
 10
148.9253309431672
 20
177.3295233267847
 30
0.0
 10
148.1791428295771
 20
177.639454754226
 30
0.0
 10
147.4394130395253
 20
177.9600838953281
 30
0.0
 10
146.8311979522222
 20
178.2375319532828
 30
0.0
 10
146.3502817049638
 20
178.466097017933
 30
0.0
 10
145.9901717893535
 20
178.6418803222191
 30
0.0
 10
145.6281532069683
 20
178.8233785877366
 30
0.0
 10
145.3624165013354
 20
178.9615588212775
 30
0.0
 10
145.195020432421
 20
179.0510049246811
 30
0.0
 10
145.1243197777895
 20
179.0895013111667
 30
0.0
 10
145.0537341222506
 20
179.1290552455589
 30
0.0
 10
144.9606206279722
 20
179.1827233168642
 30
0.0
 10
144.8460450953863
 20
179.2514899088639
 30
0.0
 10
144.7360183023634
 20
179.3220031829771
 30
0.0
 10
144.6519440455798
 20
179.3789858227231
 30
0.0
 10
144.5699020138592
 20
179.4366992538364
 30
0.0
 10
144.4673088315357
 20
179.5134818009899
 30
0.0
 10
144.3694378323946
 20
179.5954644420213
 30
0.0
 10
144.2966663214661
 20
179.6630123436204
 30
0.0
 10
144.2287770026803
 20
179.7310014304668
 30
0.0
 10
144.148963452829
 20
179.822242170792
 30
0.0
 10
144.0836996677169
 20
179.9212100667783
 30
0.0
 10
144.0445908585156
 20
180.0023005841237
 30
0.0
 10
144.0205057223445
 20
180.0693008028626
 30
0.0
 10
144.0052199128956
 20
180.1482878036591
 30
0.0
 10
144.0063738657955
 20
180.2197539122337
 30
0.0
 10
144.0163666416523
 20
180.2714326429516
 30
0.0
 10
144.0278300998903
 20
180.3106910674674
 30
0.0
 10
144.0461583065232
 20
180.354346954598
 30
0.0
 10
144.0688714831512
 20
180.3939268520868
 30
0.0
 10
144.0902976202406
 20
180.424711122348
 30
0.0
 10
144.1215678396474
 20
180.4646663400724
 30
0.0
 10
144.1718426218654
 20
180.5166840073978
 30
0.0
 10
144.2355402258877
 20
180.5680292189303
 30
0.0
 10
144.2932072535935
 20
180.6077050877166
 30
0.0
 10
144.3843543190743
 20
180.6640214941363
 30
0.0
 10
144.5244175429456
 20
180.7341126125518
 30
0.0
 10
144.6971834026371
 20
180.8000563766518
 30
0.0
 10
144.8536297175851
 20
180.8505638285636
 30
0.0
 10
144.9910442900319
 20
180.8890217758593
 30
0.0
 10
145.1285631933284
 20
180.9224096606997
 30
0.0
 10
145.3385449822413
 20
180.9688252188843
 30
0.0
 10
145.6221968642273
 20
181.0277743968962
 30
0.0
 10
145.9812088466248
 20
181.0983541960421
 30
0.0
 10
146.3419552289337
 20
181.1680340600287
 30
0.0
 10
146.8283539943978
 20
181.2596767482481
 30
0.0
 10
147.4395630891979
 20
181.3693104646973
 30
0.0
 10
148.1805317345876
 20
181.4946545232912
 30
0.0
 10
148.926895059369
 20
181.6152788141137
 30
0.0
 10
149.4282000810048
 20
181.6914511568874
 30
0.0
 10
149.6788525938945
 20
181.7295373248385
 30
0.0
 11
149.678852355142
 21
177.0331726853629
 31
0.0
 11
148.9262849395928
 21
177.3318981900511
 31
0.0
 11
148.1783468738953
 21
177.6420322961073
 31
0.0
 11
147.4404352516059
 21
177.9624133879466
 31
0.0
 11
146.7086639001803
 21
178.2965270360191
 31
0.0
 11
146.3505823054815
 21
178.4667182673839
 31
0.0
 11
145.9942917559785
 21
178.6406373760811
 31
0.0
 11
145.6286073117838
 21
178.8242787974625
 31
0.0
 11
145.2656846478446
 21
179.0133019740385
 31
0.0
 11
145.1950690188934
 21
179.0510980780626
 31
0.0
 11
145.1247563530962
 21
179.0894469903466
 31
0.0
 11
145.05381749087
 21
179.1291964442706
 31
0.0
 11
144.9833579242774
 21
179.169804872455
 31
0.0
 11
144.8464468929585
 21
179.2521612288193
 31
0.0
 11
144.7120409228463
 21
179.3384883674987
 31
0.0
 11
144.6520699681093
 21
179.3791542461375
 31
0.0
 11
144.5927960414194
 21
179.4208701669447
 31
0.0
 11
144.4681505690563
 21
179.5146322975104
 31
0.0
 11
144.3489402598766
 21
179.6150043640698
 31
0.0
 11
144.2970068839162
 21
179.6633076224683
 31
0.0
 11
144.2468521152618
 21
179.7136235331315
 31
0.0
 11
144.1514499367532
 21
179.8244410301298
 31
0.0
 11
144.0722815308616
 21
179.9467832049021
 31
0.0
 11
144.0455988561127
 21
180.0026871953098
 31
0.0
 11
144.0248183057503
 21
180.0611774289559
 31
0.0
 11
144.008282299391
 21
180.1487510634155
 31
0.0
 11
144.0103691733978
 21
180.2374376377959
 31
0.0
 11
144.0168870541031
 21
180.2713056895263
 31
0.0
 11
144.0265319231175
 21
180.3044215993092
 31
0.0
 11
144.0471420859863
 21
180.3538443731264
 31
0.0
 11
144.0737198857139
 21
180.400361449204
 31
0.0
 11
144.0905221278484
 21
180.4245522435326
 31
0.0
 11
144.108641107513
 21
180.4477501813751
 31
0.0
 11
144.1730657036622
 21
180.5151817433777
 31
0.0
 11
144.2455543194735
 21
180.5742328554932
 31
0.0
 11
144.2934894076589
 21
180.6073193062985
 31
0.0
 11
144.3429225950586
 21
180.6379709251698
 31
0.0
 11
144.5255625558284
 21
180.7308987678554
 31
0.0
 11
144.7170463631945
 21
180.8053817017326
 31
0.0
 11
144.8539596670337
 21
180.8496769601297
 31
0.0
 11
144.992336772253
 21
180.888510003939
 31
0.0
 11
145.128648903033
 21
180.9219339845665
 31
0.0
 11
145.2656846478445
 21
180.9525511989885
 31
0.0
 11
145.6223433250013
 21
181.0271357426829
 31
0.0
 11
145.9797295487932
 21
181.0978596014978
 31
0.0
 11
146.3420041779487
 21
181.1677568396121
 31
0.0
 11
146.7046063894805
 21
181.2359995905106
 31
0.0
 11
147.4397728255339
 21
181.3680949113843
 31
0.0
 11
148.1761956771393
 21
181.4930019946055
 31
0.0
 11
148.9270790847701
 21
181.6140969123305
 31
0.0
 11
149.6788525938945
 21
181.7295373248385
 31
0.0
  0
SPLINE
  5
21C
330
4B
100
AcDbEntity
  8
1
  6
Continuous
 62
     7
100
AcDbSpline
210
0.0
220
0.0
230
1.0
 70
     8
 71
     3
 72
    33
 73
    29
 74
    27
 42
0.000000001
 43
0.0000000001
 44
0.00000001
 40
0.0
 40
0.0
 40
0.0
 40
0.0
 40
0.7307637154532322
 40
1.46152794080388
 40
1.82030200659929
 40
2.179081181396748
 40
2.300320048662988
 40
2.421521522698089
 40
2.541368707183139
 40
2.661297494909122
 40
2.885825921575226
 40
3.110081499882755
 40
3.21478777221283
 40
3.319622601865527
 40
3.511168704089166
 40
3.702323915973365
 40
3.786597988298805
 40
3.870904873323981
 40
4.030615013551039
 40
4.190408494787788
 40
4.268921972199832
 40
4.347301080998164
 40
4.425436796617263
 40
4.503668562174795
 40
4.733088300101332
 40
4.962474975521292
 40
5.45876422081573
 40
5.955055194569308
 40
5.955055194569308
 40
5.955055194569308
 40
5.955055194569308
 10
125.5478600025445
 20
200.4317523742886
 30
0.0
 10
125.6898956483072
 20
200.2338376157187
 30
0.0
 10
125.9739670269129
 20
199.8380079519707
 30
0.0
 10
126.3082978685019
 20
199.3314812955646
 30
0.0
 10
126.566509547609
 20
198.9235556849315
 30
0.0
 10
126.7104877585075
 20
198.6838277809137
 30
0.0
 10
126.8099900193512
 20
198.5098610496092
 30
0.0
 10
126.8676447760885
 20
198.4037318959492
 30
0.0
 10
126.9215948046023
 20
198.2961506026486
 30
0.0
 10
126.986248527024
 20
198.155509453141
 30
0.0
 10
127.0567297576777
 20
197.9793421215514
 30
0.0
 10
127.110528597222
 20
197.8025345941794
 30
0.0
 10
127.1417465153189
 20
197.6612789405631
 30
0.0
 10
127.1631108236475
 20
197.5292331265624
 30
0.0
 10
127.1745296150381
 20
197.3666837811365
 30
0.0
 10
127.1635167257676
 20
197.2107130430107
 30
0.0
 10
127.1404941212955
 20
197.0929193642984
 30
0.0
 10
127.1108955637873
 20
196.9874475610163
 30
0.0
 10
127.0584750928263
 20
196.8628076874499
 30
0.0
 10
126.988198278565
 20
196.7495877033541
 30
0.0
 10
126.9222601002363
 20
196.6670372342347
 30
0.0
 10
126.8685594567672
 20
196.6098627074784
 30
0.0
 10
126.8104443883108
 20
196.5573702921112
 30
0.0
 10
126.7106917907608
 20
196.4761852759546
 30
0.0
 10
126.56719410696
 20
196.3690212312696
 30
0.0
 10
126.3055616686162
 20
196.1876285682164
 30
0.0
 10
125.9690285289518
 20
195.9580153569494
 30
0.0
 10
125.6882496887926
 20
195.7829326608156
 30
0.0
 10
125.5478600210001
 20
195.6953911654237
 30
0.0
 11
125.5478600025445
 21
200.4317523742886
 31
0.0
 11
125.9700579953198
 21
199.8352924307206
 31
0.0
 11
126.3739816755334
 21
199.2263080174528
 31
0.0
 11
126.5653185228238
 21
198.9228133031744
 31
0.0
 11
126.7496125757945
 21
198.6149851063885
 31
0.0
 11
126.809610628718
 21
198.509632856149
 31
0.0
 11
126.8672700636326
 21
198.4030252254404
 31
0.0
 11
126.9209711965007
 21
198.2958826288125
 31
0.0
 11
126.9710436036861
 21
198.1869070892528
 31
0.0
 11
127.0537607216573
 21
197.9781706693427
 31
0.0
 11
127.1182908925078
 21
197.7634000435656
 31
0.0
 11
127.1407589540858
 21
197.6611327969443
 31
0.0
 11
127.1573853809751
 21
197.5576248093419
 31
0.0
 11
127.1700323820566
 21
197.3664966773055
 31
0.0
 11
127.1556343644482
 21
197.1758844732161
 31
0.0
 11
127.1393941026053
 21
197.093190016287
 31
0.0
 11
127.116538833054
 21
197.0120402315588
 31
0.0
 11
127.054753447579
 21
196.8647653348899
 31
0.0
 11
126.9704561379402
 21
196.7290158583845
 31
0.0
 11
126.9214356073323
 21
196.6676859819623
 31
0.0
 11
126.8677549837949
 21
196.6105749026974
 31
0.0
 11
126.8100385444028
 21
196.5579061007887
 31
0.0
 11
126.7496125757945
 21
196.5082179586385
 31
0.0
 11
126.5664130896803
 21
196.370118847504
 31
0.0
 11
126.3785686013491
 21
196.2384651536937
 31
0.0
 11
125.9671741607398
 21
195.9608725934278
 31
0.0
 11
125.5478600210001
 21
195.6953911654237
 31
0.0
  0
SPLINE
  5
21D
330
4B
100
AcDbEntity
  8
1
  6
Continuous
 62
     7
100
AcDbSpline
210
0.0
220
0.0
230
1.0
 70
     8
 71
     3
 72
    33
 73
    29
 74
    27
 42
0.000000001
 43
0.0000000001
 44
0.00000001
 40
0.0
 40
0.0
 40
0.0
 40
0.0
 40
0.7307637154532307
 40
1.4615279408039
 40
1.820302006599222
 40
2.179081181396728
 40
2.300320048662956
 40
2.421521522698041
 40
2.541368707183072
 40
2.661297494909035
 40
2.885825921575122
 40
3.110081499882696
 40
3.214787772212804
 40
3.319622601865518
 40
3.511168704089129
 40
3.702323915973247
 40
3.786597988298706
 40
3.870904873323911
 40
4.030615013550927
 40
4.190408494787784
 40
4.268921972199836
 40
4.347301080998182
 40
4.425436796617297
 40
4.503668562174808
 40
4.7330883001013
 40
4.962474975521173
 40
5.45876422081554
 40
5.955055194569296
 40
5.955055194569296
 40
5.955055194569296
 40
5.955055194569296
 10
56.04697896299081
 20
134.3307212810935
 30
0.0
 10
56.2448937215607
 20
134.1886856353308
 30
0.0
 10
56.64072338530885
 20
133.9046142567252
 30
0.0
 10
57.14725004171482
 20
133.5702834151361
 30
0.0
 10
57.55517565234791
 20
133.3120717360291
 30
0.0
 10
57.79490355636581
 20
133.1680935251306
 30
0.0
 10
57.96887028767025
 20
133.068591264287
 30
0.0
 10
58.07499944133016
 20
133.0109365075495
 30
0.0
 10
58.1825807346308
 20
132.9569864790357
 30
0.0
 10
58.32322188413833
 20
132.892332756614
 30
0.0
 10
58.49938921572787
 20
132.8218515259604
 30
0.0
 10
58.67619674309998
 20
132.7680526864161
 30
0.0
 10
58.81745239671631
 20
132.7368347683191
 30
0.0
 10
58.94949821071695
 20
132.7154704599906
 30
0.0
 10
59.11204755614296
 20
132.7040516686
 30
0.0
 10
59.26801829426864
 20
132.7150645578704
 30
0.0
 10
59.38581197298101
 20
132.7380871623425
 30
0.0
 10
59.49128377626303
 20
132.7676857198508
 30
0.0
 10
59.61592364982955
 20
132.8201061908117
 30
0.0
 10
59.72914363392521
 20
132.8903830050731
 30
0.0
 10
59.81169410304484
 20
132.9563211834019
 30
0.0
 10
59.86886862980099
 20
133.0100218268709
 30
0.0
 10
59.92136104516824
 20
133.0681368953273
 30
0.0
 10
60.00254606132481
 20
133.1678894928773
 30
0.0
 10
60.10971010600987
 20
133.3113871766781
 30
0.0
 10
60.29110276906293
 20
133.5730196150216
 30
0.0
 10
60.52071598033012
 20
133.9095527546862
 30
0.0
 10
60.69579867646377
 20
134.1903315948455
 30
0.0
 10
60.78334017185568
 20
134.330721262638
 30
0.0
 11
56.04697896299081
 21
134.3307212810935
 31
0.0
 11
56.64343890655881
 21
133.9085232883183
 31
0.0
 11
57.25242331982662
 21
133.5045996081046
 31
0.0
 11
57.55591803410504
 21
133.3132627608143
 31
0.0
 11
57.86374623089092
 21
133.1289687078436
 31
0.0
 11
57.96909848113052
 21
133.0689706549201
 31
0.0
 11
58.07570611183898
 21
133.0113112200054
 31
0.0
 11
58.18284870846689
 21
132.9576100871374
 31
0.0
 11
58.29182424802656
 21
132.907537679952
 31
0.0
 11
58.50056066793659
 21
132.8248205619808
 31
0.0
 11
58.71533129371382
 21
132.7602903911304
 31
0.0
 11
58.81759854033518
 21
132.7378223295522
 31
0.0
 11
58.92110652793757
 21
132.721195902663
 31
0.0
 11
59.11223465997394
 21
132.7085489015814
 31
0.0
 11
59.30284686406326
 21
132.7229469191898
 31
0.0
 11
59.38554132099233
 21
132.7391871810327
 31
0.0
 11
59.46669110572054
 21
132.7620424505841
 31
0.0
 11
59.61396600238945
 21
132.823827836059
 31
0.0
 11
59.74971547889488
 21
132.9081251456979
 31
0.0
 11
59.81104535531709
 21
132.9571456763058
 31
0.0
 11
59.86815643458208
 21
133.0108262998432
 31
0.0
 11
59.92082523649073
 21
133.0685427392353
 31
0.0
 11
59.97051337864092
 21
133.1289687078436
 31
0.0
 11
60.10861248977542
 21
133.3121681939578
 31
0.0
 11
60.24026618358576
 21
133.5000126822889
 31
0.0
 11
60.51785874385164
 21
133.9114071228981
 31
0.0
 11
60.78334017185568
 21
134.330721262638
 31
0.0
  0
SPLINE
  5
21E
330
4B
100
AcDbEntity
  8
1
  6
Continuous
 62
     7
100
AcDbSpline
210
0.0
220
0.0
230
1.0
 70
     8
 71
     3
 72
    33
 73
    29
 74
    27
 42
0.000000001
 43
0.0000000001
 44
0.00000001
 40
0.0
 40
0.0
 40
0.0
 40
0.0
 40
0.7307637154531843
 40
1.46152794080386
 40
1.820302006599176
 40
2.179081181396676
 40
2.300320048662915
 40
2.421521522698038
 40
2.541368707183082
 40
2.661297494909097
 40
2.885825921575164
 40
3.110081499882663
 40
3.214787772212785
 40
3.319622601865477
 40
3.511168704089103
 40
3.70232391597327
 40
3.786597988298709
 40
3.870904873323906
 40
4.030615013550921
 40
4.190408494787754
 40
4.268921972199834
 40
4.347301080998175
 40
4.425436796617276
 40
4.503668562174778
 40
4.733088300101261
 40
4.962474975521131
 40
5.458764220815525
 40
5.955055194569296
 40
5.955055194569296
 40
5.955055194569296
 40
5.955055194569296
 10
79.1533211445909
 20
134.3307212810935
 30
0.0
 10
78.95540638602102
 20
134.1886856353308
 30
0.0
 10
78.55957672227294
 20
133.9046142567252
 30
0.0
 10
78.05305006586694
 20
133.5702834151361
 30
0.0
 10
77.64512445523386
 20
133.312071736029
 30
0.0
 10
77.40539655121597
 20
133.1680935251306
 30
0.0
 10
77.23142981991151
 20
133.0685912642869
 30
0.0
 10
77.12530066625156
 20
133.0109365075495
 30
0.0
 10
77.01771937295092
 20
132.9569864790357
 30
0.0
 10
76.8770782234433
 20
132.892332756614
 30
0.0
 10
76.7009108918538
 20
132.8218515259604
 30
0.0
 10
76.52410336448176
 20
132.7680526864161
 30
0.0
 10
76.38284771086545
 20
132.7368347683191
 30
0.0
 10
76.2508018968648
 20
132.7154704599906
 30
0.0
 10
76.0882525514388
 20
132.7040516685999
 30
0.0
 10
75.93228181331307
 20
132.7150645578705
 30
0.0
 10
75.81448813460071
 20
132.7380871623425
 30
0.0
 10
75.70901633131871
 20
132.7676857198508
 30
0.0
 10
75.58437645775219
 20
132.8201061908117
 30
0.0
 10
75.47115647365649
 20
132.8903830050731
 30
0.0
 10
75.38860600453692
 20
132.9563211834019
 30
0.0
 10
75.33143147778073
 20
133.0100218268708
 30
0.0
 10
75.2789390624135
 20
133.0681368953274
 30
0.0
 10
75.19775404625695
 20
133.1678894928773
 30
0.0
 10
75.09059000157191
 20
133.311387176678
 30
0.0
 10
74.90919733851884
 20
133.5730196150216
 30
0.0
 10
74.67958412725163
 20
133.9095527546862
 30
0.0
 10
74.50450143111792
 20
134.1903315948454
 30
0.0
 10
74.41695993572603
 20
134.330721262638
 30
0.0
 11
79.1533211445909
 21
134.3307212810935
 31
0.0
 11
78.55686120102295
 21
133.9085232883183
 31
0.0
 11
77.94787678775515
 21
133.5045996081046
 31
0.0
 11
77.64438207347673
 21
133.3132627608143
 31
0.0
 11
77.33655387669086
 21
133.1289687078436
 31
0.0
 11
77.23120162645125
 21
133.0689706549201
 31
0.0
 11
77.12459399574274
 21
133.0113112200054
 31
0.0
 11
77.01745139911482
 21
132.9576100871374
 31
0.0
 11
76.9084758595551
 21
132.907537679952
 31
0.0
 11
76.69973943964509
 21
132.8248205619808
 31
0.0
 11
76.48496881386794
 21
132.7602903911304
 31
0.0
 11
76.38270156724657
 21
132.7378223295522
 31
0.0
 11
76.2791935796442
 21
132.721195902663
 31
0.0
 11
76.08806544760782
 21
132.7085489015814
 31
0.0
 11
75.89745324351844
 21
132.7229469191898
 31
0.0
 11
75.81475878658938
 21
132.7391871810327
 31
0.0
 11
75.73360900186118
 21
132.7620424505841
 31
0.0
 11
75.58633410519226
 21
132.823827836059
 31
0.0
 11
75.45058462868687
 21
132.9081251456979
 31
0.0
 11
75.38925475226463
 21
132.9571456763058
 31
0.0
 11
75.33214367299965
 21
133.0108262998432
 31
0.0
 11
75.27947487109101
 21
133.0685427392353
 31
0.0
 11
75.22978672894084
 21
133.1289687078436
 31
0.0
 11
75.09168761780636
 21
133.3121681939578
 31
0.0
 11
74.96003392399602
 21
133.5000126822889
 31
0.0
 11
74.68244136373009
 21
133.9114071228981
 31
0.0
 11
74.41695993572603
 21
134.330721262638
 31
0.0
  0
SPLINE
  5
21F
330
4B
100
AcDbEntity
  8
1
  6
Continuous
 62
     7
100
AcDbSpline
210
0.0
220
0.0
230
1.0
 70
     8
 71
     3
 72
    37
 73
    33
 74
    31
 42
0.000000001
 43
0.0000000001
 44
0.00000001
 40
0.0
 40
0.0
 40
0.0
 40
0.0
 40
0.7234297630660793
 40
1.446852666752757
 40
1.830822531892095
 40
2.214771306506592
 40
2.338451457579768
 40
2.462093752303324
 40
2.5940653218774
 40
2.726095773605119
 40
2.925325077729911
 40
3.124476636265795
 40
3.192468467680432
 40
3.260460681902055
 40
3.385541994640719
 40
3.510619899649388
 40
3.581956109096005
 40
3.653298476959184
 40
3.850860012158744
 40
4.048456156459905
 40
4.183052753886915
 40
4.317642622328136
 40
4.569011592355688
 40
4.820478984943356
 40
4.959236184783311
 40
5.097913186498059
 40
5.222033925384594
 40
5.346195751604236
 40
5.714090841293436
 40
6.081997527361883
 40
6.821477849320965
 40
7.56096067683014
 40
7.56096067683014
 40
7.56096067683014
 40
7.56096067683014
 10
64.25103700854083
 20
134.3307212810935
 30
0.0
 10
64.4484799200901
 20
134.1922440565669
 30
0.0
 10
64.84336387907967
 20
133.9152909320796
 30
0.0
 10
65.35624833353523
 20
133.5843239459637
 30
0.0
 10
65.77798388995899
 20
133.3211390378112
 30
0.0
 10
66.03433698083668
 20
133.170632852386
 30
0.0
 10
66.2186032820564
 20
133.0690056597608
 30
0.0
 10
66.33097102231423
 20
133.010994349965
 30
0.0
 10
66.44827856666564
 20
132.9567069549181
 30
0.0
 10
66.59108379994461
 20
132.8978740404904
 30
0.0
 10
66.75789886921687
 20
132.8389292920863
 30
0.0
 10
66.9076856079698
 20
132.7968262205967
 30
0.0
 10
67.01654223059542
 20
132.7716945311265
 30
0.0
 10
67.10178984887814
 20
132.754172843464
 30
0.0
 10
67.20638185094364
 20
132.7364186239015
 30
0.0
 10
67.31277702087124
 20
132.7232742512658
 30
0.0
 10
67.40170200957593
 20
132.7155253100125
 30
0.0
 10
67.51491748229085
 20
132.7086653816484
 30
0.0
 10
67.67056231479086
 20
132.7070520268046
 30
0.0
 10
67.8469609325902
 20
132.7181063040146
 30
0.0
 10
68.00142249081367
 20
132.7373442013535
 30
0.0
 10
68.17241370238504
 20
132.7672130764453
 30
0.0
 10
68.37896865730897
 20
132.8182438645488
 30
0.0
 10
68.58178870747903
 20
132.8868450066447
 30
0.0
 10
68.74508093405282
 20
132.9534336512754
 30
0.0
 10
68.86666504343518
 20
133.0095387899249
 30
0.0
 10
68.981294830265
 20
133.0687392120126
 30
0.0
 10
69.16112697379435
 20
133.1679887455423
 30
0.0
 10
69.40844167485507
 20
133.3130469647451
 30
0.0
 10
69.82598438007146
 20
133.5728367884914
 30
0.0
 10
70.34370118953888
 20
133.9061966437176
 30
0.0
 10
70.74740892730851
 20
134.1892128926525
 30
0.0
 10
70.94926313416056
 20
134.330721262638
 30
0.0
 11
64.25103700854083
 21
134.3307212810935
 31
0.0
 11
64.84597468124934
 21
133.9191392209068
 31
0.0
 11
65.45259493070668
 21
133.5249913156518
 31
0.0
 11
65.77889821455187
 21
133.3226079556155
 31
0.0
 11
66.11044054226336
 21
133.128968221523
 31
0.0
 11
66.21888385700926
 21
133.0694969908695
 31
0.0
 11
66.32888388957943
 21
133.013039839841
 31
0.0
 11
66.44863441711269
 21
132.9575753794702
 31
0.0
 11
66.57069505232006
 21
132.9072440616441
 31
0.0
 11
66.75858813388945
 21
132.8409982646712
 31
0.0
 11
66.95035106382859
 21
132.7872551528017
 31
0.0
 11
67.01660070724589
 21
132.7719622165575
 31
0.0
 11
67.08320107488125
 21
132.7582752797708
 31
0.0
 11
67.20651988935516
 21
132.7373514933501
 31
0.0
 11
67.33065564477221
 21
132.7220284194306
 31
0.0
 11
67.40172279983966
 21
132.715838567741
 31
0.0
 11
67.47293472568798
 21
132.7115263659254
 31
0.0
 11
67.67048539990306
 21
132.709454790446
 31
0.0
 11
67.86769474649104
 21
132.7218123783095
 31
0.0
 11
68.00126128349305
 21
132.7384323748622
 31
0.0
 11
68.13384622963923
 21
132.7615768081972
 31
0.0
 11
68.37794077735933
 21
132.8216118899325
 31
0.0
 11
68.61622250498121
 21
132.9019715064905
 31
0.0
 11
68.74469241711182
 21
132.9544028160957
 31
0.0
 11
68.87059301932997
 21
133.0125435866632
 31
0.0
 11
68.98101083031395
 21
133.0692345459303
 31
0.0
 11
69.08985956530677
 21
133.128968221523
 31
0.0
 11
69.40759923532944
 21
133.3144090456539
 31
0.0
 11
69.72048894152208
 21
133.5079429226239
 31
0.0
 11
70.34098124422515
 21
133.9102120484166
 31
0.0
 11
70.94926313416056
 21
134.330721262638
 31
0.0
  0
SPLINE
  5
220
330
4B
100
AcDbEntity
  8
1
  6
Continuous
 62
     7
100
AcDbSpline
210
0.0
220
0.0
230
1.0
 70
     8
 71
     3
 72
    29
 73
    25
 74
    23
 42
0.000000001
 43
0.0000000001
 44
0.00000001
 40
0.0
 40
0.0
 40
0.0
 40
0.0
 40
0.0124951093734626
 40
0.0249960269819448
 40
0.0714309590197395
 40
0.1179157110266112
 40
0.1575660670288373
 40
0.1972055146381785
 40
0.2766297253889662
 40
0.3560656950314464
 40
0.3713972002321938
 40
0.3867291925173994
 40
0.451262661827686
 40
0.5157809003833411
 40
0.5307821573043229
 40
0.5457837778324878
 40
0.571704603265129
 40
0.5976272864412389
 40
0.6481765586623798
 40
0.6987241506683917
 40
0.824083410544921
 40
0.9494416943415503
 40
1.174189826400969
 40
1.398940723343401
 40
1.398940723343401
 40
1.398940723343401
 40
1.398940723343401
 10
80.4845378001969
 20
185.1953627838454
 30
0.0
 10
80.48472404249802
 20
185.1995268200907
 30
0.0
 10
80.48509659926687
 20
185.2078568291013
 30
0.0
 10
80.4887465662974
 20
185.231413620585
 30
0.0
 10
80.49640075922878
 20
185.265731814489
 30
0.0
 10
80.50783319151
 20
185.3084215177765
 30
0.0
 10
80.51711031665648
 20
185.3493130099083
 30
0.0
 10
80.52841647870248
 20
185.4009956128636
 30
0.0
 10
80.5443647050651
 20
185.4652198234475
 30
0.0
 10
80.5586829686026
 20
185.5214906074374
 30
0.0
 10
80.56718056709613
 20
185.5571933519618
 30
0.0
 10
80.57451381477786
 20
185.5880668910285
 30
0.0
 10
80.5861345964637
 20
185.6347690583892
 30
0.0
 10
80.59698519799787
 20
185.6815562790898
 30
0.0
 10
80.60316886106517
 20
185.7124510031111
 30
0.0
 10
80.60683485264336
 20
185.7307283530423
 30
0.0
 10
80.6115816568234
 20
185.752499925693
 30
0.0
 10
80.61922146608102
 20
185.7857647736705
 30
0.0
 10
80.62875878713493
 20
185.8270165039302
 30
0.0
 10
80.64572052762617
 20
185.9005715226097
 30
0.0
 10
80.66776221465884
 20
185.9985456853622
 30
0.0
 10
80.70092844288496
 20
186.1535299586084
 30
0.0
 10
80.73745741108331
 20
186.3416467772223
 30
0.0
 10
80.76463822293282
 20
186.4889930448285
 30
0.0
 10
80.77822870520879
 20
186.5626666331454
 30
0.0
 11
80.4845378001969
 21
185.1953627838454
 31
0.0
 11
80.48532258905801
 21
185.2078332232499
 31
0.0
 11
80.48706965292705
 21
185.2202114584536
 31
0.0
 11
80.49671345226831
 21
185.2656339200784
 31
0.0
 11
80.50810957461579
 21
185.3107000997684
 31
0.0
 11
80.51706108780162
 21
185.3493267892761
 31
0.0
 11
80.52570257434729
 21
185.3880128399622
 31
0.0
 11
80.54443740917684
 21
185.465195812256
 31
0.0
 11
80.56361818750841
 21
185.5422812908489
 31
0.0
 11
80.56717939922945
 21
185.5571934611376
 31
0.0
 11
80.57073388187302
 21
185.5721077375363
 31
0.0
 11
80.58596926076814
 21
185.6348170023128
 31
0.0
 11
80.60019663244108
 21
185.697747003122
 31
0.0
 11
80.60316984083312
 21
185.7124506673333
 31
0.0
 11
80.60614908954598
 21
185.7271534798448
 31
0.0
 11
80.61162820103391
 21
185.7524886042501
 31
0.0
 11
80.61738817155288
 21
185.7777632603816
 31
0.0
 11
80.62875425542647
 21
185.8270181186048
 31
0.0
 11
80.64009185469645
 21
185.8762778171352
 31
0.0
 11
80.66754865176901
 21
185.9985932631129
 31
0.0
 11
80.69371671204296
 21
186.1211898859563
 31
0.0
 11
80.73711166495109
 21
186.3417088214705
 31
0.0
 11
80.77822870520879
 21
186.5626666331454
 31
0.0
  0
SPLINE
  5
221
330
4B
100
AcDbEntity
  8
1
  6
Continuous
 62
     7
100
AcDbSpline
210
0.0
220
0.0
230
1.0
 70
     8
 71
     3
 72
    23
 73
    19
 74
    17
 42
0.000000001
 43
0.0000000001
 44
0.00000001
 40
0.0
 40
0.0
 40
0.0
 40
0.0
 40
0.0821578612991398
 40
0.1643156749538273
 40
0.2380574650785711
 40
0.3117929993058997
 40
0.3449906793468521
 40
0.3781904172579897
 40
0.4693923146062801
 40
0.5605920812970325
 40
0.6112362593860658
 40
0.6618851040478925
 40
0.7983519365991341
 40
0.9348521428939398
 40
1.005311459886193
 40
1.07572979582019
 40
1.243981109776674
 40
1.412189195173146
 40
1.412189195173146
 40
1.412189195173146
 40
1.412189195173146
 10
74.47479330794386
 20
200.9241509171968
 30
0.0
 10
74.49837863689284
 20
200.9102218261561
 30
0.0
 10
74.54554927363804
 20
200.8823636397966
 30
0.0
 10
74.61127872584557
 20
200.8378185300092
 30
0.0
 10
74.67275200156972
 20
200.792180560329
 30
0.0
 10
74.71944680990664
 20
200.754107204905
 30
0.0
 10
74.75467135674496
 20
200.7234254021773
 30
0.0
 10
74.7935918654508
 20
200.6881381187352
 30
0.0
 10
74.84507729350665
 20
200.6379434931556
 30
0.0
 10
74.89769633425243
 20
200.5807404363813
 30
0.0
 10
74.93904377167588
 20
200.5316622349113
 30
0.0
 10
74.98826227085993
 20
200.4695332263632
 30
0.0
 10
75.05067004882898
 20
200.3814011173723
 30
0.0
 10
75.10941851643861
 20
200.2830053502123
 30
0.0
 10
75.15202135969395
 20
200.2009246596546
 30
0.0
 10
75.1955597644798
 20
200.1074757658078
 30
0.0
 10
75.24251335461346
 20
199.9800985302621
 30
0.0
 10
75.28021891885406
 20
199.8744953924279
 30
0.0
 10
75.29906927181514
 20
199.8217006050056
 30
0.0
 11
74.47479330794386
 21
200.9241509171968
 31
0.0
 11
74.54509883237944
 21
200.881641532953
 31
0.0
 11
74.61323843586979
 21
200.8357405417525
 31
0.0
 11
74.6724124904336
 21
200.7917373261091
 31
0.0
 11
74.7295636427948
 21
200.7451468241574
 31
0.0
 11
74.75459770626405
 21
200.7233435757789
 31
0.0
 11
74.779195446605
 21
200.7010461817706
 31
0.0
 11
74.84448450111346
 21
200.6373663143421
 31
0.0
 11
74.90620898705606
 21
200.5702285057805
 31
0.0
 11
74.93884551232432
 21
200.5315026744947
 31
0.0
 11
74.9703029736712
 21
200.4918071633406
 31
0.0
 11
75.04917771200255
 21
200.3804430213189
 31
0.0
 11
75.11914266426463
 21
200.2632371689058
 31
0.0
 11
75.15157838430765
 21
200.200687673058
 31
0.0
 11
75.18125215437163
 21
200.1368268132007
 31
0.0
 11
75.24223783888935
 21
199.9800172118699
 31
0.0
 11
75.29906927181514
 21
199.8217006050056
 31
0.0
  0
SPLINE
  5
222
330
4B
100
AcDbEntity
  8
1
  6
Continuous
 62
     7
100
AcDbSpline
210
0.0
220
0.0
230
1.0
 70
     8
 71
     3
 72
    23
 73
    19
 74
    17
 42
0.000000001
 43
0.0000000001
 44
0.00000001
 40
0.0
 40
0.0
 40
0.0
 40
0.0
 40
0.0821578612991449
 40
0.1643156749538083
 40
0.2380574650785521
 40
0.3117929993058614
 40
0.3449906793467927
 40
0.3781904172578961
 40
0.4693923146062006
 40
0.5605920812969707
 40
0.6112362593860379
 40
0.6618851040478566
 40
0.798351936599039
 40
0.9348521428938396
 40
1.005311459886043
 40
1.075729795820081
 40
1.243981109776562
 40
1.412189195173058
 40
1.412189195173058
 40
1.412189195173058
 40
1.412189195173058
 10
71.25654716179076
 20
202.2571921179883
 30
0.0
 10
71.23002046102377
 20
202.264020109294
 30
0.0
 10
71.17696707142204
 20
202.2776760739232
 30
0.0
 10
71.09899118084297
 20
202.2926556661031
 30
0.0
 10
71.02325209287629
 20
202.3038529183892
 30
0.0
 10
70.96331194945215
 20
202.3099492062075
 30
0.0
 10
70.91670912275085
 20
202.3131614113734
 30
0.0
 10
70.86423628970614
 20
202.3157304895949
 30
0.0
 10
70.79233763426916
 20
202.3166432247791
 30
0.0
 10
70.71468168438861
 20
202.3134018359604
 30
0.0
 10
70.6507411019338
 20
202.3079353602791
 30
0.0
 10
70.57200652414824
 20
202.2988062515592
 30
0.0
 10
70.46555874923976
 20
202.2806164026523
 30
0.0
 10
70.35444099520984
 20
202.2525815282845
 30
0.0
 10
70.26627642294835
 20
202.2246664747504
 30
0.0
 10
70.16941177514877
 20
202.189374429483
 30
0.0
 10
70.04614126614109
 20
202.1325063244443
 30
0.0
 10
69.94480671110097
 20
202.0844954897303
 30
0.0
 10
69.89414594649674
 20
202.0604931499392
 30
0.0
 11
71.25654716179076
 21
202.2571921179883
 31
0.0
 11
71.17677497484459
 21
202.2768469572087
 31
0.0
 11
71.09613609700816
 21
202.292572030763
 31
0.0
 11
71.02317874958035
 21
202.30329943384
 31
0.0
 11
70.9498223223242
 21
202.3107669413583
 31
0.0
 11
70.91670334150415
 21
202.3130514726177
 31
0.0
 11
70.88354347400113
 21
202.3146780631086
 31
0.0
 11
70.79234867473723
 21
202.3158159302051
 31
0.0
 11
70.701229272454
 21
202.3119881330724
 31
0.0
 11
70.6507684662132
 21
202.3076823434947
 31
0.0
 11
70.60045571685619
 21
202.3018571626122
 31
0.0
 11
70.46593651451325
 21
202.2788836849461
 31
0.0
 11
70.33358676928724
 21
202.2454793241
 31
0.0
 11
70.26642207901844
 21
202.2241856690214
 31
0.0
 11
70.20028310792532
 21
202.2000117459995
 31
0.0
 11
70.04627858439142
 21
202.132254004621
 31
0.0
 11
69.89414594649674
 21
202.0604931499392
 31
0.0
  0
SPLINE
  5
223
330
4B
100
AcDbEntity
  8
1
  6
Continuous
 62
     7
100
AcDbSpline
210
0.0
220
0.0
230
1.0
 70
     8
 71
     3
 72
    23
 73
    19
 74
    17
 42
0.000000001
 43
0.0000000001
 44
0.00000001
 40
0.0
 40
0.0
 40
0.0
 40
0.0
 40
0.0821578612992858
 40
0.1643156749539214
 40
0.2380574650785907
 40
0.3117929993058703
 40
0.3449906793468442
 40
0.3781904172580166
 40
0.4693923146063914
 40
0.5605920812971467
 40
0.6112362593861973
 40
0.6618851040479655
 40
0.7983519365991572
 40
0.9348521428939889
 40
1.005311459886268
 40
1.075729795820325
 40
1.243981109776724
 40
1.41218919517318
 40
1.41218919517318
 40
1.41218919517318
 40
1.41218919517318
 10
80.97876088829071
 20
192.5349783914884
 30
0.0
 10
80.98558887959646
 20
192.5084516907214
 30
0.0
 10
80.99924484422569
 20
192.4553983011197
 30
0.0
 10
81.0142244364057
 20
192.3774224105405
 30
0.0
 10
81.02542168869168
 20
192.3016833225739
 30
0.0
 10
81.03151797650999
 20
192.2417431791498
 30
0.0
 10
81.03473018167594
 20
192.1951403524484
 30
0.0
 10
81.03729925989732
 20
192.1426675194037
 30
0.0
 10
81.03821199508147
 20
192.0707688639666
 30
0.0
 10
81.03497060626285
 20
191.9931129140861
 30
0.0
 10
81.02950413058153
 20
191.9291723316313
 30
0.0
 10
81.02037502186181
 20
191.8504377538458
 30
0.0
 10
81.00218517295478
 20
191.7439899789373
 30
0.0
 10
80.97415029858689
 20
191.6328722249073
 30
0.0
 10
80.94623524505285
 20
191.5447076526458
 30
0.0
 10
80.91094319978541
 20
191.4478430048462
 30
0.0
 10
80.8540750947468
 20
191.3245724958387
 30
0.0
 10
80.80606426003273
 20
191.2232379407985
 30
0.0
 10
80.78206192024163
 20
191.1725771761943
 30
0.0
 11
80.97876088829071
 21
192.5349783914884
 31
0.0
 11
80.9984157275112
 21
192.4552062045421
 31
0.0
 11
81.01414080106551
 21
192.3745673267057
 31
0.0
 11
81.02486820414246
 21
192.301609979278
 31
0.0
 11
81.03233571166075
 21
192.2282535520218
 31
0.0
 11
81.03462024292023
 21
192.1951345712017
 31
0.0
 11
81.03624683341107
 21
192.1619747036987
 31
0.0
 11
81.03738470050749
 21
192.0707799044347
 31
0.0
 11
81.03355690337483
 21
191.9796605021515
 31
0.0
 11
81.02925111379712
 21
191.9291996959107
 31
0.0
 11
81.02342593291472
 21
191.8788869465537
 31
0.0
 11
81.00045245524865
 21
191.7443677442108
 31
0.0
 11
80.96704809440243
 21
191.6120179989848
 31
0.0
 11
80.9457544393238
 21
191.5448533087159
 31
0.0
 11
80.92158051630187
 21
191.4787143376228
 31
0.0
 11
80.85382277492344
 21
191.3247098140889
 31
0.0
 11
80.78206192024163
 21
191.1725771761943
 31
0.0
  0
SPLINE
  5
224
330
4B
100
AcDbEntity
  8
1
  6
Continuous
 62
     7
100
AcDbSpline
210
0.0
220
0.0
230
1.0
 70
     8
 71
     3
 72
    23
 73
    19
 74
    17
 42
0.000000001
 43
0.0000000001
 44
0.00000001
 40
0.0
 40
0.0
 40
0.0
 40
0.0
 40
0.0821578612993465
 40
0.1643156749540383
 40
0.2380574650787453
 40
0.3117929993060339
 40
0.344990679346969
 40
0.3781904172580971
 40
0.4693923146064274
 40
0.5605920812971397
 40
0.6112362593861964
 40
0.6618851040480207
 40
0.7983519365991898
 40
0.9348521428940735
 40
1.005311459886244
 40
1.075729795820273
 40
1.243981109776755
 40
1.412189195173232
 40
1.412189195173232
 40
1.412189195173232
 40
1.412189195173232
 10
79.64571968749931
 20
195.7532245376412
 30
0.0
 10
79.63179059645863
 20
195.7768098665903
 30
0.0
 10
79.60393241009923
 20
195.8239805033356
 30
0.0
 10
79.55938730031161
 20
195.8897099555431
 30
0.0
 10
79.5137493306315
 20
195.9511832312672
 30
0.0
 10
79.47567597520742
 20
195.9978780396041
 30
0.0
 10
79.44499417247985
 20
196.0331025864425
 30
0.0
 10
79.40970688903768
 20
196.0720230951483
 30
0.0
 10
79.3595122634581
 20
196.1235085232041
 30
0.0
 10
79.30230920668399
 20
196.17612756395
 30
0.0
 10
79.25323100521373
 20
196.2174750013733
 30
0.0
 10
79.19110199666578
 20
196.2666935005574
 30
0.0
 10
79.1029698876747
 20
196.3291012785264
 30
0.0
 10
79.0045741205148
 20
196.3878497461361
 30
0.0
 10
78.92249342995711
 20
196.4304525893914
 30
0.0
 10
78.8290445361103
 20
196.4739909941772
 30
0.0
 10
78.70166730056462
 20
196.5209445843108
 30
0.0
 10
78.59606416273049
 20
196.5586501485515
 30
0.0
 10
78.54326937530811
 20
196.5775005015126
 30
0.0
 11
79.64571968749931
 21
195.7532245376412
 31
0.0
 11
79.60321030325547
 21
195.823530062077
 31
0.0
 11
79.5573093120549
 21
195.8916696655673
 31
0.0
 11
79.51330609641157
 21
195.9508437201311
 31
0.0
 11
79.46671559445987
 21
196.0079948724923
 31
0.0
 11
79.44491234608144
 21
196.0330289359615
 31
0.0
 11
79.4226149520731
 21
196.0576266763025
 31
0.0
 11
79.35893508464463
 21
196.122915730811
 31
0.0
 11
79.29179727608303
 21
196.1846402167536
 31
0.0
 11
79.25307144479724
 21
196.2172767420218
 31
0.0
 11
79.21337593364316
 21
196.2487342033687
 31
0.0
 11
79.10201179162148
 21
196.3276089417
 31
0.0
 11
78.98480593920826
 21
196.3975738939621
 31
0.0
 11
78.9222564433606
 21
196.4300096140051
 31
0.0
 11
78.85839558350328
 21
196.4596833840691
 31
0.0
 11
78.70158598217247
 21
196.5206690685868
 31
0.0
 11
78.54326937530811
 21
196.5775005015126
 31
0.0
  0
SPLINE
  5
225
330
4B
100
AcDbEntity
  8
1
  6
Continuous
 62
     7
100
AcDbSpline
210
0.0
220
0.0
230
1.0
 70
     8
 71
     3
 72
    23
 73
    19
 74
    17
 42
0.000000001
 43
0.0000000001
 44
0.00000001
 40
0.0
 40
0.0
 40
0.0
 40
0.0
 40
0.082157861299079
 40
0.1643156749537629
 40
0.2380574650784757
 40
0.3117929993058083
 40
0.3449906793467649
 40
0.378190417257891
 40
0.4693923146061807
 40
0.5605920812969611
 40
0.6112362593859997
 40
0.661885104047824
 40
0.7983519365990588
 40
0.9348521428939035
 40
1.005311459886113
 40
1.075729795820129
 40
1.243981109776597
 40
1.412189195173037
 40
1.412189195173037
 40
1.412189195173037
 40
1.412189195173037
 10
79.64571968749931
 20
182.0039380293352
 30
0.0
 10
79.63179059645861
 20
181.9803527003862
 30
0.0
 10
79.60393241009916
 20
181.933182063641
 30
0.0
 10
79.55938730031158
 20
181.8674526114336
 30
0.0
 10
79.51374933063155
 20
181.8059793357094
 30
0.0
 10
79.47567597520745
 20
181.7592845273725
 30
0.0
 10
79.44499417247991
 20
181.7240599805341
 30
0.0
 10
79.40970688903768
 20
181.6851394718283
 30
0.0
 10
79.35951226345806
 20
181.6336540437726
 30
0.0
 10
79.30230920668404
 20
181.5810350030266
 30
0.0
 10
79.25323100521373
 20
181.5396875656033
 30
0.0
 10
79.19110199666575
 20
181.4904690664191
 30
0.0
 10
79.10296988767477
 20
181.42806128845
 30
0.0
 10
79.00457412051475
 20
181.3693128208404
 30
0.0
 10
78.92249342995717
 20
181.3267099775851
 30
0.0
 10
78.82904453611032
 20
181.2831715727992
 30
0.0
 10
78.70166730056465
 20
181.2362179826657
 30
0.0
 10
78.59606416273056
 20
181.1985124184249
 30
0.0
 10
78.54326937530823
 20
181.1796620654638
 30
0.0
 11
79.64571968749931
 21
182.0039380293352
 31
0.0
 11
79.60321030325547
 21
181.9336325048997
 31
0.0
 11
79.55730931205491
 21
181.8654929014094
 31
0.0
 11
79.51330609641161
 21
181.8063188468455
 31
0.0
 11
79.46671559445991
 21
181.7491676944843
 31
0.0
 11
79.44491234608148
 21
181.724133631015
 31
0.0
 11
79.42261495207312
 21
181.6995358906741
 31
0.0
 11
79.35893508464464
 21
181.6342468361657
 31
0.0
 11
79.29179727608303
 21
181.572522350223
 31
0.0
 11
79.25307144479724
 21
181.5398858249548
 31
0.0
 11
79.21337593364316
 21
181.5084283636079
 31
0.0
 11
79.10201179162148
 21
181.4295536252765
 31
0.0
 11
78.98480593920829
 21
181.3595886730144
 31
0.0
 11
78.92225644336061
 21
181.3271529529714
 31
0.0
 11
78.85839558350331
 21
181.2974791829074
 31
0.0
 11
78.70158598217252
 21
181.2364934983897
 31
0.0
 11
78.54326937530823
 21
181.1796620654638
 31
0.0
  0
SPLINE
  5
226
330
4B
100
AcDbEntity
  8
1
  6
Continuous
 62
     7
100
AcDbSpline
210
0.0
220
0.0
230
1.0
 70
     8
 71
     3
 72
    23
 73
    19
 74
    17
 42
0.000000001
 43
0.0000000001
 44
0.00000001
 40
0.0
 40
0.0
 40
0.0
 40
0.0
 40
0.0821578612991203
 40
0.1643156749538395
 40
0.2380574650785651
 40
0.311792999305873
 40
0.3449906793467901
 40
0.378190417257934
 40
0.4693923146062804
 40
0.5605920812970073
 40
0.6112362593860863
 40
0.6618851040478827
 40
0.7983519365990183
 40
0.9348521428938775
 40
1.005311459886076
 40
1.075729795820132
 40
1.243981109776687
 40
1.412189195173144
 40
1.412189195173144
 40
1.412189195173144
 40
1.412189195173144
 10
80.97876088829071
 20
185.2221841754883
 30
0.0
 10
80.98558887959643
 20
185.2487108762552
 30
0.0
 10
80.9992448442257
 20
185.301764265857
 30
0.0
 10
81.0142244364057
 20
185.379740156436
 30
0.0
 10
81.0254216886917
 20
185.4554792444027
 30
0.0
 10
81.03151797651
 20
185.5154193878269
 30
0.0
 10
81.03473018167594
 20
185.5620222145282
 30
0.0
 10
81.03729925989732
 20
185.6144950475729
 30
0.0
 10
81.03821199508147
 20
185.68639370301
 30
0.0
 10
81.03497060626283
 20
185.7640496528905
 30
0.0
 10
81.02950413058156
 20
185.8279902353453
 30
0.0
 10
81.02037502186178
 20
185.9067248131308
 30
0.0
 10
81.00218517295475
 20
186.0131725880393
 30
0.0
 10
80.97415029858693
 20
186.1242903420692
 30
0.0
 10
80.94623524505283
 20
186.2124549143307
 30
0.0
 10
80.91094319978536
 20
186.3093195621303
 30
0.0
 10
80.85407509474685
 20
186.4325900711381
 30
0.0
 10
80.80606426003276
 20
186.5339246261782
 30
0.0
 10
80.78206192024163
 20
186.5845853907824
 30
0.0
 11
80.97876088829071
 21
185.2221841754883
 31
0.0
 11
80.9984157275112
 21
185.3019563624344
 31
0.0
 11
81.01414080106551
 21
185.3825952402709
 31
0.0
 11
81.02486820414246
 21
185.4555525876987
 31
0.0
 11
81.03233571166075
 21
185.5289090149549
 31
0.0
 11
81.03462024292023
 21
185.5620279957749
 31
0.0
 11
81.03624683341107
 21
185.5951878632779
 31
0.0
 11
81.03738470050749
 21
185.6863826625419
 31
0.0
 11
81.03355690337483
 21
185.7775020648251
 31
0.0
 11
81.02925111379712
 21
185.8279628710659
 31
0.0
 11
81.02342593291472
 21
185.8782756204229
 31
0.0
 11
81.00045245524865
 21
186.0127948227658
 31
0.0
 11
80.96704809440243
 21
186.1451445679918
 31
0.0
 11
80.9457544393238
 21
186.2123092582606
 31
0.0
 11
80.92158051630187
 21
186.2784482293538
 31
0.0
 11
80.85382277492344
 21
186.4324527528878
 31
0.0
 11
80.78206192024163
 21
186.5845853907824
 31
0.0
  0
SPLINE
  5
227
330
4B
100
AcDbEntity
  8
1
  6
Continuous
 62
     7
100
AcDbSpline
210
0.0
220
0.0
230
1.0
 70
     8
 71
     3
 72
    23
 73
    19
 74
    17
 42
0.000000001
 43
0.0000000001
 44
0.00000001
 40
0.0
 40
0.0
 40
0.0
 40
0.0
 40
0.0821578612992345
 40
0.1643156749539258
 40
0.2380574650786596
 40
0.3117929993059491
 40
0.3449906793469087
 40
0.3781904172580249
 40
0.4693923146063426
 40
0.5605920812970949
 40
0.6112362593861762
 40
0.6618851040479993
 40
0.7983519365991957
 40
0.9348521428940241
 40
1.005311459886219
 40
1.075729795820247
 40
1.243981109776693
 40
1.412189195173126
 40
1.412189195173126
 40
1.412189195173126
 40
1.412189195173126
 10
71.25654716179093
 20
175.4999704489883
 30
0.0
 10
71.23002046102391
 20
175.4931424576826
 30
0.0
 10
71.17696707142213
 20
175.4794864930535
 30
0.0
 10
71.09899118084306
 20
175.4645069008734
 30
0.0
 10
71.02325209287635
 20
175.4533096485873
 30
0.0
 10
70.96331194945225
 20
175.4472133607692
 30
0.0
 10
70.9167091227509
 20
175.4440011556031
 30
0.0
 10
70.86423628970623
 20
175.4414320773818
 30
0.0
 10
70.79233763426916
 20
175.4405193421977
 30
0.0
 10
70.71468168438867
 20
175.4437607310162
 30
0.0
 10
70.65074110193383
 20
175.4492272066975
 30
0.0
 10
70.57200652414825
 20
175.4583563154172
 30
0.0
 10
70.46555874923973
 20
175.4765461643243
 30
0.0
 10
70.35444099520986
 20
175.5045810386922
 30
0.0
 10
70.26627642294835
 20
175.5324960922262
 30
0.0
 10
70.1694117751488
 20
175.5677881374937
 30
0.0
 10
70.04614126614113
 20
175.6246562425322
 30
0.0
 10
69.944806711101
 20
175.6726670772462
 30
0.0
 10
69.89414594649679
 20
175.6966694170373
 30
0.0
 11
71.25654716179093
 21
175.4999704489883
 31
0.0
 11
71.17677497484468
 21
175.4803156097679
 31
0.0
 11
71.09613609700821
 21
175.4645905362136
 31
0.0
 11
71.02317874958042
 21
175.4538631331366
 31
0.0
 11
70.94982232232428
 21
175.4463956256184
 31
0.0
 11
70.9167033415042
 21
175.4441110943589
 31
0.0
 11
70.88354347400117
 21
175.442484503868
 31
0.0
 11
70.79234867473726
 21
175.4413466367716
 31
0.0
 11
70.70122927245404
 21
175.4451744339042
 31
0.0
 11
70.65076846621322
 21
175.4494802234819
 31
0.0
 11
70.6004557168562
 21
175.4553054043643
 31
0.0
 11
70.46593651451325
 21
175.4782788820305
 31
0.0
 11
70.33358676928724
 21
175.5116832428767
 31
0.0
 11
70.26642207901844
 21
175.5329768979553
 31
0.0
 11
70.20028310792532
 21
175.5571508209771
 31
0.0
 11
70.04627858439143
 21
175.6249085623556
 31
0.0
 11
69.89414594649679
 21
175.6966694170373
 31
0.0
  0
SPLINE
  5
228
330
4B
100
AcDbEntity
  8
1
  6
Continuous
 62
     7
100
AcDbSpline
210
0.0
220
0.0
230
1.0
 70
     8
 71
     3
 72
    23
 73
    19
 74
    17
 42
0.000000001
 43
0.0000000001
 44
0.00000001
 40
0.0
 40
0.0
 40
0.0
 40
0.0
 40
0.0821578612991839
 40
0.1643156749538714
 40
0.2380574650785643
 40
0.3117929993059289
 40
0.3449906793468813
 40
0.3781904172580189
 40
0.4693923146064192
 40
0.5605920812971378
 40
0.611236259386162
 40
0.6618851040479263
 40
0.7983519365990737
 40
0.9348521428938794
 40
1.005311459886107
 40
1.075729795820131
 40
1.243981109776641
 40
1.412189195173113
 40
1.412189195173113
 40
1.412189195173113
 40
1.412189195173113
 10
74.47479330794386
 20
176.8330116497798
 30
0.0
 10
74.49837863689287
 20
176.8469407408205
 30
0.0
 10
74.54554927363806
 20
176.8747989271801
 30
0.0
 10
74.61127872584552
 20
176.9193440369675
 30
0.0
 10
74.67275200156979
 20
176.9649820066476
 30
0.0
 10
74.7194468099066
 20
177.0030553620716
 30
0.0
 10
74.75467135674499
 20
177.0337371647994
 30
0.0
 10
74.7935918654508
 20
177.0690244482415
 30
0.0
 10
74.84507729350662
 20
177.1192190738213
 30
0.0
 10
74.89769633425254
 20
177.1764221305952
 30
0.0
 10
74.93904377167595
 20
177.2255003320655
 30
0.0
 10
74.98826227085995
 20
177.2876293406133
 30
0.0
 10
75.05067004882903
 20
177.3757614496044
 30
0.0
 10
75.10941851643855
 20
177.4741572167643
 30
0.0
 10
75.15202135969398
 20
177.5562379073219
 30
0.0
 10
75.19555976447974
 20
177.6496868011688
 30
0.0
 10
75.24251335461348
 20
177.7770640367144
 30
0.0
 10
75.28021891885406
 20
177.8826671745486
 30
0.0
 10
75.29906927181514
 20
177.935461961971
 30
0.0
 11
74.47479330794386
 21
176.8330116497798
 31
0.0
 11
74.54509883237944
 21
176.8755210340237
 31
0.0
 11
74.61323843586979
 21
176.9214220252242
 31
0.0
 11
74.6724124904336
 21
176.9654252408675
 31
0.0
 11
74.7295636427948
 21
177.0120157428193
 31
0.0
 11
74.75459770626405
 21
177.0338189911978
 31
0.0
 11
74.779195446605
 21
177.0561163852061
 31
0.0
 11
74.8444845011135
 21
177.1197962526346
 31
0.0
 11
74.90620898705615
 21
177.1869340611962
 31
0.0
 11
74.93884551232439
 21
177.225659892482
 31
0.0
 11
74.97030297367124
 21
177.265355403636
 31
0.0
 11
75.04917771200255
 21
177.3767195456576
 31
0.0
 11
75.11914266426463
 21
177.4939253980708
 31
0.0
 11
75.15157838430765
 21
177.5564748939185
 31
0.0
 11
75.18125215437163
 21
177.6203357537758
 31
0.0
 11
75.24223783888935
 21
177.7771453551066
 31
0.0
 11
75.29906927181514
 21
177.935461961971
 31
0.0
  0
SPLINE
  5
229
330
4B
100
AcDbEntity
  8
1
  6
Continuous
 62
     7
100
AcDbSpline
210
0.0
220
0.0
230
1.0
 70
     8
 71
     3
 72
    23
 73
    19
 74
    17
 42
0.000000001
 43
0.0000000001
 44
0.00000001
 40
0.0
 40
0.0
 40
0.0
 40
0.0
 40
0.0821578612991839
 40
0.164315674953836
 40
0.2380574650785518
 40
0.3117929993058943
 40
0.3449906793468682
 40
0.3781904172579795
 40
0.4693923146063696
 40
0.5605920812970977
 40
0.6112362593861036
 40
0.6618851040478768
 40
0.7983519365990448
 40
0.9348521428938579
 40
1.005311459886095
 40
1.07572979582011
 40
1.24398110977655
 40
1.412189195172973
 40
1.412189195172973
 40
1.412189195172973
 40
1.412189195172973
 10
60.72550679963763
 20
176.8330116497798
 30
0.0
 10
60.70192147068864
 20
176.8469407408205
 30
0.0
 10
60.65475083394342
 20
176.87479892718
 30
0.0
 10
60.58902138173602
 20
176.9193440369676
 30
0.0
 10
60.52754810601171
 20
176.9649820066475
 30
0.0
 10
60.48085329767489
 20
177.0030553620717
 30
0.0
 10
60.44562875083653
 20
177.0337371647993
 30
0.0
 10
60.40670824213075
 20
177.0690244482416
 30
0.0
 10
60.35522281407497
 20
177.1192190738213
 30
0.0
 10
60.30260377332895
 20
177.1764221305952
 30
0.0
 10
60.26125633590564
 20
177.2255003320655
 30
0.0
 10
60.21203783672154
 20
177.2876293406133
 30
0.0
 10
60.1496300587525
 20
177.3757614496043
 30
0.0
 10
60.09088159114292
 20
177.4741572167643
 30
0.0
 10
60.04827874788751
 20
177.5562379073219
 30
0.0
 10
60.00474034310177
 20
177.6496868011688
 30
0.0
 10
59.95778675296815
 20
177.7770640367144
 30
0.0
 10
59.92008118872757
 20
177.8826671745486
 30
0.0
 10
59.90123083576646
 20
177.9354619619709
 30
0.0
 11
60.72550679963763
 21
176.8330116497798
 31
0.0
 11
60.65520127520205
 21
176.8755210340237
 31
0.0
 11
60.58706167171174
 21
176.9214220252242
 31
0.0
 11
60.5278876171479
 21
176.9654252408675
 31
0.0
 11
60.47073646478672
 21
177.0120157428193
 31
0.0
 11
60.44570240131745
 21
177.0338189911978
 31
0.0
 11
60.42110466097652
 21
177.0561163852061
 31
0.0
 11
60.35581560646805
 21
177.1197962526346
 31
0.0
 11
60.29409112052539
 21
177.1869340611962
 31
0.0
 11
60.26145459525717
 21
177.225659892482
 31
0.0
 11
60.22999713391031
 21
177.265355403636
 31
0.0
 11
60.15112239557896
 21
177.3767195456576
 31
0.0
 11
60.08115744331687
 21
177.4939253980708
 31
0.0
 11
60.04872172327381
 21
177.5564748939185
 31
0.0
 11
60.01904795320987
 21
177.6203357537758
 31
0.0
 11
59.95806226869227
 21
177.7771453551066
 31
0.0
 11
59.90123083576646
 21
177.9354619619709
 31
0.0
  0
SPLINE
  5
22A
330
4B
100
AcDbEntity
  8
1
  6
Continuous
 62
     7
100
AcDbSpline
210
0.0
220
0.0
230
1.0
 70
     8
 71
     3
 72
    23
 73
    19
 74
    17
 42
0.000000001
 43
0.0000000001
 44
0.00000001
 40
0.0
 40
0.0
 40
0.0
 40
0.0
 40
0.0821578612992069
 40
0.1643156749539121
 40
0.2380574650786038
 40
0.3117929993059215
 40
0.3449906793468528
 40
0.3781904172579691
 40
0.4693923146063009
 40
0.5605920812970533
 40
0.6112362593861488
 40
0.661885104047986
 40
0.7983519365992104
 40
0.9348521428940526
 40
1.00531145988622
 40
1.075729795820222
 40
1.243981109776719
 40
1.412189195173178
 40
1.412189195173178
 40
1.412189195173178
 40
1.412189195173178
 10
63.94375294579061
 20
175.4999704489883
 30
0.0
 10
63.9702796465576
 20
175.4931424576826
 30
0.0
 10
64.02333303615941
 20
175.4794864930535
 30
0.0
 10
64.10130892673843
 20
175.4645069008734
 30
0.0
 10
64.17704801470516
 20
175.4533096485874
 30
0.0
 10
64.23698815812926
 20
175.4472133607692
 30
0.0
 10
64.28359098483058
 20
175.4440011556031
 30
0.0
 10
64.33606381787531
 20
175.4414320773818
 30
0.0
 10
64.4079624733123
 20
175.4405193421977
 30
0.0
 10
64.48561842319285
 20
175.4437607310162
 30
0.0
 10
64.54955900564765
 20
175.4492272066975
 30
0.0
 10
64.6282935834333
 20
175.4583563154173
 30
0.0
 10
64.73474135834178
 20
175.4765461643242
 30
0.0
 10
64.84585911237173
 20
175.5045810386923
 30
0.0
 10
64.93402368463319
 20
175.5324960922262
 30
0.0
 10
65.03088833243275
 20
175.5677881374937
 30
0.0
 10
65.15415884144042
 20
175.6246562425321
 30
0.0
 10
65.2554933964806
 20
175.6726670772463
 30
0.0
 10
65.3061541610848
 20
175.6966694170373
 30
0.0
 11
63.94375294579061
 21
175.4999704489883
 31
0.0
 11
64.02352513273684
 21
175.4803156097679
 31
0.0
 11
64.10416401057331
 21
175.4645905362136
 31
0.0
 11
64.17712135800106
 21
175.4538631331366
 31
0.0
 11
64.25047778525723
 21
175.4463956256184
 31
0.0
 11
64.28359676607728
 21
175.4441110943589
 31
0.0
 11
64.31675663358031
 21
175.442484503868
 31
0.0
 11
64.40795143284424
 21
175.4413466367716
 31
0.0
 11
64.49907083512745
 21
175.4451744339042
 31
0.0
 11
64.54953164136829
 21
175.4494802234819
 31
0.0
 11
64.59984439072532
 21
175.4553054043643
 31
0.0
 11
64.73436359306831
 21
175.4782788820305
 31
0.0
 11
64.86671333829433
 21
175.5116832428767
 31
0.0
 11
64.9338780285631
 21
175.5329768979553
 31
0.0
 11
65.0000169996562
 21
175.5571508209771
 31
0.0
 11
65.15402152319014
 21
175.6249085623556
 31
0.0
 11
65.3061541610848
 21
175.6966694170373
 31
0.0
  0
SPLINE
  5
22B
330
4B
100
AcDbEntity
  8
1
  6
Continuous
 62
     7
100
AcDbSpline
210
0.0
220
0.0
230
1.0
 70
     8
 71
     3
 72
    23
 73
    19
 74
    17
 42
0.000000001
 43
0.0000000001
 44
0.00000001
 40
0.0
 40
0.0
 40
0.0
 40
0.0
 40
0.0821578612991033
 40
0.1643156749538129
 40
0.2380574650785437
 40
0.3117929993058523
 40
0.3449906793467695
 40
0.3781904172579134
 40
0.4693923146062597
 40
0.5605920812969855
 40
0.611236259386065
 40
0.6618851040478655
 40
0.7983519365990035
 40
0.9348521428938628
 40
1.005311459886044
 40
1.075729795820098
 40
1.243981109776659
 40
1.412189195173038
 40
1.412189195173038
 40
1.412189195173038
 40
1.412189195173038
 10
54.22153921929072
 20
185.2221841754883
 30
0.0
 10
54.21471122798499
 20
185.2487108762552
 30
0.0
 10
54.2010552633558
 20
185.301764265857
 30
0.0
 10
54.18607567117587
 20
185.3797401564361
 30
0.0
 10
54.1748784188898
 20
185.4554792444027
 30
0.0
 10
54.16878213107152
 20
185.5154193878269
 30
0.0
 10
54.16556992590558
 20
185.5620222145282
 30
0.0
 10
54.16300084768413
 20
185.6144950475729
 30
0.0
 10
54.16208811250007
 20
185.68639370301
 30
0.0
 10
54.16532950131864
 20
185.7640496528904
 30
0.0
 10
54.17079597699991
 20
185.8279902353453
 30
0.0
 10
54.17992508571976
 20
185.9067248131308
 30
0.0
 10
54.19811493462674
 20
186.0131725880393
 30
0.0
 10
54.22614980899465
 20
186.1242903420693
 30
0.0
 10
54.25406486252864
 20
186.2124549143307
 30
0.0
 10
54.2893569077961
 20
186.3093195621303
 30
0.0
 10
54.34622501283464
 20
186.432590071138
 30
0.0
 10
54.39423584754875
 20
186.5339246261781
 30
0.0
 10
54.41823818733985
 20
186.5845853907823
 30
0.0
 11
54.22153921929072
 21
185.2221841754883
 31
0.0
 11
54.2018843800703
 21
185.3019563624344
 31
0.0
 11
54.18615930651605
 21
185.3825952402709
 31
0.0
 11
54.17543190343905
 21
185.4555525876987
 31
0.0
 11
54.16796439592076
 21
185.5289090149549
 31
0.0
 11
54.16567986466129
 21
185.5620279957749
 31
0.0
 11
54.16405327417043
 21
185.5951878632779
 31
0.0
 11
54.16291540707402
 21
185.6863826625419
 31
0.0
 11
54.16674320420665
 21
185.7775020648251
 31
0.0
 11
54.17104899378437
 21
185.8279628710659
 31
0.0
 11
54.17687417466679
 21
185.8782756204229
 31
0.0
 11
54.19984765233288
 21
186.0127948227658
 31
0.0
 11
54.2332520131791
 21
186.1451445679918
 31
0.0
 11
54.25454566825767
 21
186.2123092582606
 31
0.0
 11
54.2787195912796
 21
186.2784482293538
 31
0.0
 11
54.34647733265803
 21
186.4324527528878
 31
0.0
 11
54.41823818733985
 21
186.5845853907823
 31
0.0
  0
SPLINE
  5
22C
330
4B
100
AcDbEntity
  8
1
  6
Continuous
 62
     7
100
AcDbSpline
210
0.0
220
0.0
230
1.0
 70
     8
 71
     3
 72
    23
 73
    19
 74
    17
 42
0.000000001
 43
0.0000000001
 44
0.00000001
 40
0.0
 40
0.0
 40
0.0
 40
0.0
 40
0.082157861299101
 40
0.1643156749537492
 40
0.2380574650784493
 40
0.311792999305791
 40
0.3449906793467522
 40
0.3781904172578783
 40
0.4693923146062176
 40
0.5605920812969928
 40
0.6112362593860204
 40
0.6618851040478336
 40
0.7983519365990279
 40
0.9348521428938604
 40
1.005311459886044
 40
1.075729795820067
 40
1.243981109776608
 40
1.412189195173202
 40
1.412189195173202
 40
1.412189195173202
 40
1.412189195173202
 10
55.55458042008223
 20
182.0039380293352
 30
0.0
 10
55.56850951112295
 20
181.9803527003862
 30
0.0
 10
55.59636769748241
 20
181.933182063641
 30
0.0
 10
55.64091280726993
 20
181.8674526114337
 30
0.0
 10
55.68655077694996
 20
181.8059793357094
 30
0.0
 10
55.72462413237407
 20
181.7592845273725
 30
0.0
 10
55.7553059351016
 20
181.724059980534
 30
0.0
 10
55.79059321854388
 20
181.6851394718284
 30
0.0
 10
55.84078784412351
 20
181.6336540437726
 30
0.0
 10
55.89799090089756
 20
181.5810350030266
 30
0.0
 10
55.94706910236783
 20
181.5396875656033
 30
0.0
 10
56.00919811091578
 20
181.4904690664192
 30
0.0
 10
56.09733021990674
 20
181.4280612884501
 30
0.0
 10
56.19572598706672
 20
181.3693128208405
 30
0.0
 10
56.27780667762432
 20
181.3267099775851
 30
0.0
 10
56.37125557147115
 20
181.2831715727992
 30
0.0
 10
56.4986328070169
 20
181.2362179826657
 30
0.0
 10
56.60423594485113
 20
181.1985124184249
 30
0.0
 10
56.65703073227348
 20
181.1796620654638
 30
0.0
 11
55.55458042008223
 21
182.0039380293352
 31
0.0
 11
55.59708980432611
 21
181.9336325048997
 31
0.0
 11
55.64299079552661
 21
181.8654929014094
 31
0.0
 11
55.68699401116988
 21
181.8063188468455
 31
0.0
 11
55.7335845131216
 21
181.7491676944843
 31
0.0
 11
55.75538776150005
 21
181.724133631015
 31
0.0
 11
55.7776851555084
 21
181.6995358906741
 31
0.0
 11
55.84136502293695
 21
181.6342468361657
 31
0.0
 11
55.90850283149856
 21
181.572522350223
 31
0.0
 11
55.94722866278433
 21
181.5398858249548
 31
0.0
 11
55.98692417393839
 21
181.5084283636079
 31
0.0
 11
56.09828831596003
 21
181.4295536252765
 31
0.0
 11
56.2154941683732
 21
181.3595886730144
 31
0.0
 11
56.27804366422086
 21
181.3271529529714
 31
0.0
 11
56.34190452407816
 21
181.2974791829074
 31
0.0
 11
56.49871412540904
 21
181.2364934983897
 31
0.0
 11
56.65703073227348
 21
181.1796620654638
 31
0.0
  0
SPLINE
  5
22D
330
4B
100
AcDbEntity
  8
1
  6
Continuous
 62
     7
100
AcDbSpline
210
0.0
220
0.0
230
1.0
 70
     8
 71
     3
 72
    23
 73
    19
 74
    17
 42
0.000000001
 43
0.0000000001
 44
0.00000001
 40
0.0
 40
0.0
 40
0.0
 40
0.0
 40
0.0821578612993686
 40
0.1643156749540287
 40
0.2380574650787314
 40
0.3117929993060334
 40
0.3449906793469639
 40
0.3781904172581015
 40
0.4693923146064517
 40
0.5605920812971692
 40
0.6112362593862152
 40
0.6618851040480284
 40
0.7983519365991569
 40
0.9348521428940284
 40
1.005311459886211
 40
1.075729795820247
 40
1.243981109776762
 40
1.412189195173286
 40
1.412189195173286
 40
1.412189195173286
 40
1.412189195173286
 10
55.55458042008223
 20
195.7532245376412
 30
0.0
 10
55.56850951112294
 20
195.7768098665903
 30
0.0
 10
55.59636769748234
 20
195.8239805033356
 30
0.0
 10
55.64091280726996
 20
195.8897099555431
 30
0.0
 10
55.68655077695
 20
195.9511832312672
 30
0.0
 10
55.72462413237412
 20
195.9978780396041
 30
0.0
 10
55.75530593510168
 20
196.0331025864425
 30
0.0
 10
55.79059321854388
 20
196.0720230951483
 30
0.0
 10
55.84078784412347
 20
196.123508523204
 30
0.0
 10
55.8979909008976
 20
196.17612756395
 30
0.0
 10
55.94706910236783
 20
196.2174750013733
 30
0.0
 10
56.00919811091575
 20
196.2666935005574
 30
0.0
 10
56.0973302199068
 20
196.3291012785264
 30
0.0
 10
56.19572598706672
 20
196.3878497461361
 30
0.0
 10
56.27780667762437
 20
196.4304525893913
 30
0.0
 10
56.37125557147124
 20
196.4739909941773
 30
0.0
 10
56.49863280701693
 20
196.5209445843108
 30
0.0
 10
56.60423594485111
 20
196.5586501485515
 30
0.0
 10
56.65703073227348
 20
196.5775005015126
 30
0.0
 11
55.55458042008223
 21
195.7532245376412
 31
0.0
 11
55.59708980432611
 21
195.823530062077
 31
0.0
 11
55.64299079552663
 21
195.8916696655673
 31
0.0
 11
55.68699401116994
 21
195.9508437201311
 31
0.0
 11
55.73358451312167
 21
196.0079948724923
 31
0.0
 11
55.7553877615001
 21
196.0330289359615
 31
0.0
 11
55.77768515550844
 21
196.0576266763025
 31
0.0
 11
55.84136502293695
 21
196.122915730811
 31
0.0
 11
55.90850283149856
 21
196.1846402167536
 31
0.0
 11
55.94722866278433
 21
196.2172767420218
 31
0.0
 11
55.98692417393839
 21
196.2487342033687
 31
0.0
 11
56.09828831596003
 21
196.3276089417
 31
0.0
 11
56.21549416837323
 21
196.3975738939621
 31
0.0
 11
56.27804366422092
 21
196.4300096140051
 31
0.0
 11
56.34190452407823
 21
196.4596833840691
 31
0.0
 11
56.49871412540908
 21
196.5206690685868
 31
0.0
 11
56.65703073227348
 21
196.5775005015126
 31
0.0
  0
SPLINE
  5
22E
330
4B
100
AcDbEntity
  8
1
  6
Continuous
 62
     7
100
AcDbSpline
210
0.0
220
0.0
230
1.0
 70
     8
 71
     3
 72
    23
 73
    19
 74
    17
 42
0.000000001
 43
0.0000000001
 44
0.00000001
 40
0.0
 40
0.0
 40
0.0
 40
0.0
 40
0.0821578612992689
 40
0.1643156749538948
 40
0.2380574650785694
 40
0.3117929993058497
 40
0.3449906793468236
 40
0.3781904172579959
 40
0.4693923146063707
 40
0.5605920812971249
 40
0.6112362593861761
 40
0.6618851040479484
 40
0.7983519365991425
 40
0.9348521428939742
 40
1.005311459886236
 40
1.07572979582029
 40
1.243981109776695
 40
1.412189195173229
 40
1.412189195173229
 40
1.412189195173229
 40
1.412189195173229
 10
54.22153921929072
 20
192.5349783914884
 30
0.0
 10
54.21471122798501
 20
192.5084516907214
 30
0.0
 10
54.20105526335583
 20
192.4553983011195
 30
0.0
 10
54.18607567117586
 20
192.3774224105405
 30
0.0
 10
54.17487841888982
 20
192.3016833225739
 30
0.0
 10
54.1687821310715
 20
192.2417431791498
 30
0.0
 10
54.16556992590558
 20
192.1951403524485
 30
0.0
 10
54.16300084768414
 20
192.1426675194036
 30
0.0
 10
54.16208811250007
 20
192.0707688639667
 30
0.0
 10
54.16532950131864
 20
191.9931129140861
 30
0.0
 10
54.17079597699991
 20
191.9291723316313
 30
0.0
 10
54.17992508571977
 20
191.8504377538458
 30
0.0
 10
54.19811493462674
 20
191.7439899789373
 30
0.0
 10
54.22614980899466
 20
191.6328722249073
 30
0.0
 10
54.25406486252862
 20
191.5447076526458
 30
0.0
 10
54.28935690779607
 20
191.4478430048462
 30
0.0
 10
54.34622501283469
 20
191.3245724958385
 30
0.0
 10
54.39423584754878
 20
191.2232379407985
 30
0.0
 10
54.41823818733985
 20
191.1725771761942
 30
0.0
 11
54.22153921929072
 21
192.5349783914884
 31
0.0
 11
54.2018843800703
 21
192.4552062045421
 31
0.0
 11
54.18615930651605
 21
192.3745673267057
 31
0.0
 11
54.17543190343905
 21
192.301609979278
 31
0.0
 11
54.16796439592076
 21
192.2282535520218
 31
0.0
 11
54.16567986466129
 21
192.1951345712017
 31
0.0
 11
54.16405327417043
 21
192.1619747036987
 31
0.0
 11
54.16291540707402
 21
192.0707799044347
 31
0.0
 11
54.16674320420665
 21
191.9796605021515
 31
0.0
 11
54.17104899378437
 21
191.9291996959107
 31
0.0
 11
54.17687417466679
 21
191.8788869465537
 31
0.0
 11
54.19984765233288
 21
191.7443677442108
 31
0.0
 11
54.2332520131791
 21
191.6120179989848
 31
0.0
 11
54.25454566825767
 21
191.5448533087159
 31
0.0
 11
54.2787195912796
 21
191.4787143376228
 31
0.0
 11
54.34647733265803
 21
191.3247098140889
 31
0.0
 11
54.41823818733985
 21
191.1725771761942
 31
0.0
  0
SPLINE
  5
22F
330
4B
100
AcDbEntity
  8
1
  6
Continuous
 62
     7
100
AcDbSpline
210
0.0
220
0.0
230
1.0
 70
     8
 71
     3
 72
    23
 73
    19
 74
    17
 42
0.000000001
 43
0.0000000001
 44
0.00000001
 40
0.0
 40
0.0
 40
0.0
 40
0.0
 40
0.0821578612991398
 40
0.1643156749537919
 40
0.2380574650785585
 40
0.3117929993058651
 40
0.344990679346839
 40
0.3781904172579503
 40
0.4693923146062458
 40
0.5605920812970271
 40
0.6112362593860375
 40
0.6618851040478597
 40
0.7983519365991095
 40
0.9348521428939226
 40
1.005311459886185
 40
1.075729795820183
 40
1.243981109776656
 40
1.412189195173175
 40
1.412189195173175
 40
1.412189195173175
 40
1.412189195173175
 10
60.72550679963763
 20
200.9241509171968
 30
0.0
 10
60.70192147068865
 20
200.9102218261561
 30
0.0
 10
60.65475083394339
 20
200.8823636397967
 30
0.0
 10
60.58902138173599
 20
200.8378185300092
 30
0.0
 10
60.52754810601176
 20
200.7921805603291
 30
0.0
 10
60.48085329767488
 20
200.754107204905
 30
0.0
 10
60.44562875083652
 20
200.7234254021773
 30
0.0
 10
60.40670824213077
 20
200.6881381187351
 30
0.0
 10
60.35522281407491
 20
200.6379434931555
 30
0.0
 10
60.30260377332901
 20
200.5807404363815
 30
0.0
 10
60.26125633590564
 20
200.5316622349113
 30
0.0
 10
60.21203783672159
 20
200.4695332263632
 30
0.0
 10
60.14963005875254
 20
200.3814011173723
 30
0.0
 10
60.09088159114288
 20
200.2830053502122
 30
0.0
 10
60.04827874788754
 20
200.2009246596546
 30
0.0
 10
60.00474034310172
 20
200.1074757658078
 30
0.0
 10
59.95778675296798
 20
199.9800985302621
 30
0.0
 10
59.92008118872752
 20
199.8744953924279
 30
0.0
 10
59.90123083576646
 20
199.8217006050055
 30
0.0
 11
60.72550679963763
 21
200.9241509171968
 31
0.0
 11
60.65520127520205
 21
200.881641532953
 31
0.0
 11
60.58706167171174
 21
200.8357405417525
 31
0.0
 11
60.5278876171479
 21
200.7917373261091
 31
0.0
 11
60.47073646478672
 21
200.7451468241574
 31
0.0
 11
60.44570240131745
 21
200.7233435757789
 31
0.0
 11
60.42110466097652
 21
200.7010461817706
 31
0.0
 11
60.35581560646807
 21
200.6373663143421
 31
0.0
 11
60.29409112052542
 21
200.5702285057805
 31
0.0
 11
60.2614545952572
 21
200.5315026744947
 31
0.0
 11
60.22999713391033
 21
200.4918071633406
 31
0.0
 11
60.15112239557896
 21
200.3804430213189
 31
0.0
 11
60.08115744331687
 21
200.2632371689058
 31
0.0
 11
60.04872172327381
 21
200.200687673058
 31
0.0
 11
60.01904795320985
 21
200.1368268132007
 31
0.0
 11
59.95806226869215
 21
199.9800172118699
 31
0.0
 11
59.90123083576646
 21
199.8217006050055
 31
0.0
  0
SPLINE
  5
230
330
4B
100
AcDbEntity
  8
1
  6
Continuous
 62
     7
100
AcDbSpline
210
0.0
220
0.0
230
1.0
 70
     8
 71
     3
 72
    23
 73
    19
 74
    17
 42
0.000000001
 43
0.0000000001
 44
0.00000001
 40
0.0
 40
0.0
 40
0.0
 40
0.0
 40
0.0821578612991725
 40
0.1643156749538498
 40
0.2380574650785655
 40
0.3117929993058748
 40
0.344990679346792
 40
0.3781904172578954
 40
0.4693923146062424
 40
0.5605920812969983
 40
0.6112362593860513
 40
0.6618851040478559
 40
0.7983519365990104
 40
0.9348521428938384
 40
1.005311459886042
 40
1.07572979582008
 40
1.243981109776626
 40
1.412189195173145
 40
1.412189195173145
 40
1.412189195173145
 40
1.412189195173145
 10
63.94375294579072
 20
202.2571921179883
 30
0.0
 10
63.97027964655773
 20
202.264020109294
 30
0.0
 10
64.02333303615951
 20
202.2776760739231
 30
0.0
 10
64.10130892673848
 20
202.2926556661031
 30
0.0
 10
64.17704801470525
 20
202.3038529183892
 30
0.0
 10
64.23698815812932
 20
202.3099492062075
 30
0.0
 10
64.28359098483065
 20
202.3131614113734
 30
0.0
 10
64.33606381787534
 20
202.315730489595
 30
0.0
 10
64.4079624733124
 20
202.3166432247791
 30
0.0
 10
64.48561842319288
 20
202.3134018359604
 30
0.0
 10
64.54955900564771
 20
202.3079353602791
 30
0.0
 10
64.62829358343322
 20
202.2988062515592
 30
0.0
 10
64.73474135834172
 20
202.2806164026522
 30
0.0
 10
64.84585911237164
 20
202.2525815282845
 30
0.0
 10
64.93402368463315
 20
202.2246664747504
 30
0.0
 10
65.03088833243271
 20
202.189374429483
 30
0.0
 10
65.15415884144046
 20
202.1325063244444
 30
0.0
 10
65.2554933964806
 20
202.0844954897303
 30
0.0
 10
65.3061541610848
 20
202.0604931499391
 30
0.0
 11
63.94375294579072
 21
202.2571921179883
 31
0.0
 11
64.02352513273692
 21
202.2768469572087
 31
0.0
 11
64.10416401057337
 21
202.292572030763
 31
0.0
 11
64.17712135800114
 21
202.30329943384
 31
0.0
 11
64.2504777852573
 21
202.3107669413583
 31
0.0
 11
64.28359676607734
 21
202.3130514726177
 31
0.0
 11
64.31675663358035
 21
202.3146780631086
 31
0.0
 11
64.4079514328443
 21
202.3158159302051
 31
0.0
 11
64.49907083512751
 21
202.3119881330724
 31
0.0
 11
64.5495316413683
 21
202.3076823434947
 31
0.0
 11
64.5998443907253
 21
202.3018571626122
 31
0.0
 11
64.73436359306821
 21
202.2788836849461
 31
0.0
 11
64.86671333829425
 21
202.2454793241
 31
0.0
 11
64.93387802856304
 21
202.2241856690214
 31
0.0
 11
65.00001699965617
 21
202.2000117459995
 31
0.0
 11
65.15402152319014
 21
202.132254004621
 31
0.0
 11
65.3061541610848
 21
202.0604931499391
 31
0.0
  0
SPLINE
  5
231
330
4B
100
AcDbEntity
  8
1
  6
Continuous
 62
     7
100
AcDbSpline
210
0.0
220
0.0
230
1.0
 70
     8
 71
     3
 72
    65
 73
    61
 74
    59
 42
0.000000001
 43
0.0000000001
 44
0.00000001
 40
0.0
 40
0.0
 40
0.0
 40
0.0
 40
0.8028301213054727
 40
1.605658588339985
 40
2.411827186791013
 40
3.217969310682653
 40
3.627774854881576
 40
4.037587196415072
 40
4.432443427297833
 40
4.827292263490967
 40
4.906008611284705
 40
4.984718277725819
 40
5.063934360892471
 40
5.143163267065758
 40
5.310082979249604
 40
5.476958003536508
 40
5.551374843366553
 40
5.625816745162516
 40
5.793438889825183
 40
5.960959775159957
 40
6.041835619835957
 40
6.122755555038237
 40
6.246576278076539
 40
6.370254729916618
 40
6.406737111389423
 40
6.443231529851983
 40
6.529130650646536
 40
6.614997039549169
 40
6.65452559870849
 40
6.694061101341555
 40
6.779571085399093
 40
6.865081140061434
 40
6.905469738279872
 40
6.945851026792485
 40
7.028238363205215
 40
7.110653290755614
 40
7.150273828320841
 40
7.189883577737126
 40
7.314181563264055
 40
7.438612168301292
 40
7.517982745636576
 40
7.597311058586038
 40
7.758902405056408
 40
7.920588631906158
 40
8.003077467312371
 40
8.085539626165097
 40
8.247911382119103
 40
8.410321572299205
 40
8.489308023976058
 40
8.56828255040363
 40
8.64615067247057
 40
8.724025080702829
 40
9.12968076406165
 40
9.535345234190785
 40
9.930368423093729
 40
10.3253843963002
 40
11.13715900099028
 40
11.94896199721368
 40
12.75013962025989
 40
13.55131745731324
 40
13.55131745731324
 40
13.55131745731324
 40
13.55131745731324
 10
64.27931871399085
 20
110.1997286897435
 30
0.0
 10
64.37558396201693
 20
110.4494301377424
 30
0.0
 10
64.56811426875935
 20
110.9488325156943
 30
0.0
 10
64.8717098992157
 20
111.6933000318374
 30
0.0
 10
65.18723347087047
 20
112.4339741808278
 30
0.0
 10
65.4634781986988
 20
113.0488665650934
 30
0.0
 10
65.69367138958964
 20
113.5394770065453
 30
0.0
 10
65.86956187506388
 20
113.9041020866981
 30
0.0
 10
66.04692960379474
 20
114.262457732664
 30
0.0
 10
66.17941337645186
 20
114.519857674085
 30
0.0
 10
66.26576681464871
 20
114.6824404043982
 30
0.0
 10
66.30350504757757
 20
114.7517110112412
 30
0.0
 10
66.34249739345778
 20
114.8204817957478
 30
0.0
 10
66.397545387477
 20
114.9139317916145
 30
0.0
 10
66.47037717858248
 20
115.0308020771181
 30
0.0
 10
66.54706834679362
 20
115.1432633282639
 30
0.0
 10
66.60939474612643
 20
115.2280788061481
 30
0.0
 10
66.67384774034302
 20
115.311602516777
 30
0.0
 10
66.76166628169273
 20
115.4162591597741
 30
0.0
 10
66.85824870266731
 20
115.5159903692647
 30
0.0
 10
66.93953939604076
 20
115.5898092475982
 30
0.0
 10
67.01303281358238
 20
115.6503886898083
 30
0.0
 10
67.10215456520217
 20
115.7142059254398
 30
0.0
 10
67.18427114280196
 20
115.7616992365455
 30
0.0
 10
67.2432892157682
 20
115.79025244669
 30
0.0
 10
67.29176607250221
 20
115.8115978703291
 30
0.0
 10
67.35704554939687
 20
115.8355166795325
 30
0.0
 10
67.42531784107983
 20
115.8533358615336
 30
0.0
 10
67.47943525934897
 20
115.863129160513
 30
0.0
 10
67.53385314055382
 20
115.8702182135245
 30
0.0
 10
67.60410059091743
 20
115.8736929894867
 30
0.0
 10
67.6745964173034
 20
115.8695265362369
 30
0.0
 10
67.72950157367487
 20
115.8617899579551
 30
0.0
 10
67.78292492517484
 20
115.8514969963179
 30
0.0
 10
67.84905530378614
 20
115.8336111027132
 30
0.0
 10
67.91301800510172
 20
115.8098497788531
 30
0.0
 10
67.96224834246175
 20
115.7879198633774
 30
0.0
 10
68.02312049533127
 20
115.7579372196875
 30
0.0
 10
68.10612351450737
 20
115.7090849726092
 30
0.0
 10
68.19472225860075
 20
115.6447273157351
 30
0.0
 10
68.26722717371142
 20
115.5842588309045
 30
0.0
 10
68.34597125203653
 20
115.5121165254149
 30
0.0
 10
68.43923201097013
 20
115.4154171209749
 30
0.0
 10
68.5262960176884
 20
115.3117993770455
 30
0.0
 10
68.59284017368783
 20
115.2256095716209
 30
0.0
 10
68.65726308654803
 20
115.1375383234594
 30
0.0
 10
68.73350781913233
 20
115.0251685336159
 30
0.0
 10
68.8045975155284
 20
114.9108507464051
 30
0.0
 10
68.85876199646077
 20
114.8188121951267
 30
0.0
 10
68.897513125089
 20
114.7504126606838
 30
0.0
 10
68.93493050652019
 20
114.6816980870748
 30
0.0
 10
69.02270105667284
 20
114.5164246008991
 30
0.0
 10
69.15830067999835
 20
114.2528392381701
 30
0.0
 10
69.3364960160471
 20
113.8923539575149
 30
0.0
 10
69.50952159472712
 20
113.5332945238124
 30
0.0
 10
69.73632548715165
 20
113.049911864563
 30
0.0
 10
70.01216593358924
 20
112.4361242131482
 30
0.0
 10
70.32893670247407
 20
111.6924965393863
 30
0.0
 10
70.6327835362008
 20
110.9472925261426
 30
0.0
 10
70.82491543559023
 20
110.4489166585717
 30
0.0
 10
70.92098139359086
 20
110.1997286897435
 30
0.0
 11
64.27931871399085
 21
110.1997286897435
 31
0.0
 11
64.5705111063488
 21
110.9478885700159
 31
0.0
 11
64.8731986960727
 21
111.6914702877744
 31
0.0
 11
65.1896424287948
 21
112.4329358455991
 31
0.0
 11
65.5202836732498
 21
113.1681511145044
 31
0.0
 11
65.6943337697234
 21
113.5391594001755
 31
0.0
 11
65.87236189195971
 21
113.9082828795518
 31
0.0
 11
66.04785685918182
 21
114.2619959830721
 31
0.0
 11
66.22889345639132
 21
114.6128967581825
 31
0.0
 11
66.26589043751581
 21
114.6823768762035
 31
0.0
 11
66.30361821207964
 21
114.7514552854252
 31
0.0
 11
66.34268424634863
 21
114.8203685120378
 31
0.0
 11
66.38289142637066
 21
114.8886371157438
 31
0.0
 11
66.47134773321321
 21
115.0301916003629
 31
0.0
 11
66.56553848953538
 21
115.1679427353107
 31
0.0
 11
66.60962244081689
 21
115.2278966450705
 31
0.0
 11
66.65511727116561
 21
115.2868187730093
 31
0.0
 11
66.76317609763706
 21
115.414961168178
 31
0.0
 11
66.88002350078033
 21
115.535002542072
 31
0.0
 11
66.93995171803326
 21
115.5893119431075
 31
0.0
 11
67.00244317216706
 21
115.640720639711
 31
0.0
 11
67.10329554621714
 21
115.7125563560138
 31
0.0
 11
67.21053047202548
 21
115.7741764028821
 31
0.0
 11
67.24337706149913
 21
115.79005298065
 31
0.0
 11
67.27678213300048
 21
115.804748006366
 31
0.0
 11
67.35747091419745
 21
115.834209499285
 31
0.0
 11
67.44058473114471
 21
115.8557763766658
 31
0.0
 11
67.47948310435912
 21
115.8628065655556
 31
0.0
 11
67.51868839290748
 21
115.8679057148694
 31
0.0
 11
67.60409323794697
 21
115.8721448000463
 31
0.0
 11
67.6894531460868
 21
115.8670796686045
 31
0.0
 11
67.72944819939931
 21
115.8614552057649
 31
0.0
 11
67.76910246394631
 21
115.8538271148683
 31
0.0
 11
67.84865907183891
 21
115.8324163847528
 31
0.0
 11
67.9259441463479
 21
115.8037940584641
 31
0.0
 11
67.9621431832823
 21
115.7876876396647
 31
0.0
 11
67.99768417982465
 21
115.7702013645332
 31
0.0
 11
68.10497779645206
 21
115.7074473281954
 31
0.0
 11
68.20583012236916
 21
115.6345653423446
 31
0.0
 11
68.26683184294288
 21
115.5837866199696
 31
0.0
 11
68.32537554037208
 21
115.5302551643751
 31
0.0
 11
68.43783077252364
 21
115.4142138611384
 31
0.0
 11
68.54212837578805
 21
115.2906644947283
 31
0.0
 11
68.59256067805269
 21
115.2253882290363
 31
0.0
 11
68.64126893176653
 21
115.158848664341
 31
0.0
 11
68.7325950488567
 21
115.0245946979473
 31
0.0
 11
68.81852094107938
 21
114.8867766623377
 31
0.0
 11
68.85857643864776
 21
114.8187001122862
 31
0.0
 11
68.89749992422553
 21
114.7499837525289
 31
0.0
 11
68.93480990298482
 21
114.6816360391655
 31
0.0
 11
68.9714065952409
 21
114.6128966357935
 31
0.0
 11
69.15732945779574
 21
114.2523564540061
 31
0.0
 11
69.33744942368313
 21
113.8888726713249
 31
0.0
 11
69.5089075546687
 21
113.5329999003149
 31
0.0
 11
69.67667682078573
 21
113.1753812591715
 31
0.0
 11
70.0097229149378
 21
112.4350716562034
 31
0.0
 11
70.32837183544589
 21
111.6884211553456
 31
0.0
 11
70.63039823244287
 21
110.9463526681679
 31
0.0
 11
70.92098139359086
 21
110.1997286897435
 31
0.0
  0
SPLINE
  5
232
330
4B
100
AcDbEntity
  8
1
  6
Continuous
 62
     7
100
AcDbSpline
210
0.0
220
0.0
230
1.0
 70
     8
 71
     3
 72
    57
 73
    53
 74
    51
 42
0.000000001
 43
0.0000000001
 44
0.00000001
 40
0.0
 40
0.0
 40
0.0
 40
0.0
 40
0.8096879821803271
 40
1.619375893302145
 40
2.423836958899486
 40
3.228275421666505
 40
3.624744189220648
 40
4.021217154235201
 40
4.430422829077449
 40
4.839620362344368
 40
4.919714759960309
 40
4.999805396383072
 40
5.081121700151359
 40
5.162445712355965
 40
5.322218050128194
 40
5.481959527705307
 40
5.554417992316405
 40
5.626899827488904
 40
5.782873642237756
 40
5.938712178978792
 40
6.00963664798681
 40
6.080680237967657
 40
6.226906409591059
 40
6.372629586091036
 40
6.434574894743568
 40
6.49664693911513
 40
6.585768097815508
 40
6.674479221608921
 40
6.708968751784615
 40
6.743460591022084
 40
6.797008601009765
 40
6.850583014627749
 40
6.880036535097214
 40
6.909471917572568
 40
7.002732542270405
 40
7.096229244057361
 40
7.154474294490613
 40
7.2126392474299
 40
7.417561035346814
 40
7.623020899764242
 40
7.766921291256711
 40
7.910644040084722
 40
8.05099417179924
 40
8.191408591180464
 40
8.555782391175194
 40
8.920099254823866
 40
9.28905525599635
 40
9.658023326202779
 40
10.40496299069191
 40
11.15190368156908
 40
11.91248889754953
 40
12.67307412268615
 40
12.67307412268615
 40
12.67307412268615
 40
12.67307412268615
 10
55.75474145566523
 20
110.199728928496
 30
0.0
 10
55.85352500318795
 20
110.4509027408315
 30
0.0
 10
56.05109209708704
 20
110.9532503404709
 30
0.0
 10
56.36102352452842
 20
111.6994384540609
 30
0.0
 10
56.68165266563042
 20
112.4391682441128
 30
0.0
 10
56.95910072358519
 20
113.0473833314158
 30
0.0
 10
57.18766578823533
 20
113.5282995786742
 30
0.0
 10
57.36344909252141
 20
113.8884094942845
 30
0.0
 10
57.54494735803893
 20
114.2504280766698
 30
0.0
 10
57.6831275915799
 20
114.5161647823028
 30
0.0
 10
57.77257369498348
 20
114.6835608512172
 30
0.0
 10
57.81107008146896
 20
114.7542615058486
 30
0.0
 10
57.8506240158613
 20
114.8248471613875
 30
0.0
 10
57.90429208716645
 20
114.917960655666
 30
0.0
 10
57.97305867916626
 20
115.0325361882517
 30
0.0
 10
58.0435719532795
 20
115.1425629812746
 30
0.0
 10
58.10055459302534
 20
115.2266372380583
 30
0.0
 10
58.15826802413872
 20
115.3086792697788
 30
0.0
 10
58.23505057129226
 20
115.4112724521023
 30
0.0
 10
58.31703321232359
 20
115.5091434512435
 30
0.0
 10
58.38458111392274
 20
115.5819149621719
 30
0.0
 10
58.45257020076908
 20
115.6498042809578
 30
0.0
 10
58.54381094109434
 20
115.729617830809
 30
0.0
 10
58.6427788370805
 20
115.7948816159212
 30
0.0
 10
58.72386935442604
 20
115.8339904251223
 30
0.0
 10
58.79086957316491
 20
115.8580755612935
 30
0.0
 10
58.86985657396139
 20
115.8733613707423
 30
0.0
 10
58.94132268253596
 20
115.8722074178425
 30
0.0
 10
58.99300141325395
 20
115.8622146419858
 30
0.0
 10
59.03225983776968
 20
115.8507511837477
 30
0.0
 10
59.07591572490037
 20
115.8324229771148
 30
0.0
 10
59.11549562238925
 20
115.8097098004867
 30
0.0
 10
59.14627989265031
 20
115.7882836633973
 30
0.0
 10
59.18623511037477
 20
115.7570134439905
 30
0.0
 10
59.23825277770011
 20
115.7067386617727
 30
0.0
 10
59.28959798923269
 20
115.6430410577504
 30
0.0
 10
59.32927385801898
 20
115.5853740300445
 30
0.0
 10
59.38559026443859
 20
115.4942269645637
 30
0.0
 10
59.45568138285417
 20
115.3541637406924
 30
0.0
 10
59.52162514695424
 20
115.1813978810009
 30
0.0
 10
59.57213259886597
 20
115.0249515660529
 30
0.0
 10
59.61059054616177
 20
114.8875369936061
 30
0.0
 10
59.64397843100208
 20
114.7500180903096
 30
0.0
 10
59.69039398918674
 20
114.5400363013967
 30
0.0
 10
59.74934316719853
 20
114.2563844194107
 30
0.0
 10
59.8199229663444
 20
113.8973724370132
 30
0.0
 10
59.8896028303311
 20
113.5366260547043
 30
0.0
 10
59.98124551855027
 20
113.0502272892402
 30
0.0
 10
60.09087923499975
 20
112.4390181944401
 30
0.0
 10
60.21622329359352
 20
111.6980495490505
 30
0.0
 10
60.33684758441608
 20
110.9516862242689
 30
0.0
 10
60.41301992718973
 20
110.4503812026331
 30
0.0
 10
60.45110609514086
 20
110.1997286897435
 30
0.0
 11
55.75474145566523
 21
110.199728928496
 31
0.0
 11
56.05346696035343
 21
110.9522963440453
 31
0.0
 11
56.36360106640966
 21
111.7002344097427
 31
0.0
 11
56.68398215824892
 21
112.4381460320321
 31
0.0
 11
57.01809580632143
 21
113.1699173834577
 31
0.0
 11
57.18828703768624
 21
113.5279989781565
 31
0.0
 11
57.36220614638347
 21
113.8842895276596
 31
0.0
 11
57.54584756776484
 21
114.2499739718543
 31
0.0
 11
57.73487074434087
 21
114.6128966357936
 31
0.0
 11
57.77266684836487
 21
114.6835122647447
 31
0.0
 11
57.81101576064892
 21
114.753824930542
 31
0.0
 11
57.85076521457295
 21
114.8247637927681
 31
0.0
 11
57.89137364275734
 21
114.8952233593607
 31
0.0
 11
57.97372999912166
 21
115.0321343906795
 31
0.0
 11
58.06005713780108
 21
115.1665403607918
 31
0.0
 11
58.10072301643976
 21
115.2265113155288
 31
0.0
 11
58.14243893724697
 21
115.2857852422186
 31
0.0
 11
58.23620106781273
 21
115.4104307145817
 31
0.0
 11
58.33657313437217
 21
115.5296410237614
 31
0.0
 11
58.38487639277059
 21
115.5815743997218
 31
0.0
 11
58.43519230343382
 21
115.6317291683763
 31
0.0
 11
58.54600980043215
 21
115.7271313468849
 31
0.0
 11
58.66835197520443
 21
115.8062997527763
 31
0.0
 11
58.72425596561214
 21
115.8329824275252
 31
0.0
 11
58.7827461992582
 21
115.8537629778876
 31
0.0
 11
58.87031983371785
 21
115.8702989842469
 31
0.0
 11
58.95900640809823
 21
115.8682121102402
 31
0.0
 11
58.99287445982868
 21
115.8616942295349
 31
0.0
 11
59.0259903696115
 21
115.8520493605205
 31
0.0
 11
59.07541314342876
 21
115.8314391976517
 31
0.0
 11
59.1219302195063
 21
115.8048613979241
 31
0.0
 11
59.14612101383491
 21
115.7880591557896
 31
0.0
 11
59.16931895167737
 21
115.769940176125
 31
0.0
 11
59.23675051368001
 21
115.7055155799759
 31
0.0
 11
59.29580162579553
 21
115.6330269641645
 31
0.0
 11
59.32888807660085
 21
115.5850918759791
 31
0.0
 11
59.35953969547217
 21
115.5356586885794
 31
0.0
 11
59.45246753815778
 21
115.3530187278097
 31
0.0
 11
59.526950472035
 21
115.1615349204435
 31
0.0
 11
59.57124573043209
 21
115.0246216166043
 31
0.0
 11
59.6100787742414
 21
114.8862445113851
 31
0.0
 11
59.64350275486888
 21
114.749932380605
 31
0.0
 11
59.67411996929089
 21
114.6128966357935
 31
0.0
 11
59.74870451298524
 21
114.2562379586367
 31
0.0
 11
59.81942837180009
 21
113.8988517348448
 31
0.0
 11
59.88932560991446
 21
113.5365771056893
 31
0.0
 11
59.95756836081288
 21
113.1739748941575
 31
0.0
 11
60.08966368168668
 21
112.4388084581041
 31
0.0
 11
60.21457076490782
 21
111.7023856064987
 31
0.0
 11
60.33566568263281
 21
110.9515021988679
 31
0.0
 11
60.45110609514086
 21
110.1997286897435
 31
0.0
  0
SPLINE
  5
233
330
4B
100
AcDbEntity
  8
1
  6
Continuous
 62
     7
100
AcDbSpline
210
0.0
220
0.0
230
1.0
 70
     8
 71
     3
 72
    57
 73
    53
 74
    51
 42
0.000000001
 43
0.0000000001
 44
0.00000001
 40
0.0
 40
0.0
 40
0.0
 40
0.0
 40
0.8096879821803062
 40
1.619375893302141
 40
2.423836958899481
 40
3.2282754216665
 40
3.624744189220634
 40
4.021217154235196
 40
4.43042282907745
 40
4.839620362344373
 40
4.919714759960318
 40
4.999805396383074
 40
5.081121700151372
 40
5.162445712355964
 40
5.322218050128193
 40
5.48195952770531
 40
5.554417992316409
 40
5.626899827488903
 40
5.782873642237776
 40
5.938712178978784
 40
6.009636647986803
 40
6.080680237967645
 40
6.22690640959109
 40
6.372629586091108
 40
6.434574894743665
 40
6.49664693911522
 40
6.585768097815543
 40
6.674479221608864
 40
6.70896875178455
 40
6.743460591022006
 40
6.797008601009733
 40
6.850583014627748
 40
6.880036535097184
 40
6.909471917572538
 40
7.002732542270318
 40
7.096229244057271
 40
7.154474294490542
 40
7.212639247429824
 40
7.417561035346742
 40
7.623020899764176
 40
7.76692129125664
 40
7.910644040084651
 40
8.050994171799173
 40
8.191408591180398
 40
8.555782391175136
 40
8.920099254823821
 40
9.289055255996306
 40
9.658023326202724
 40
10.40496299069185
 40
11.15190368156902
 40
11.91248889754947
 40
12.6730741226861
 40
12.6730741226861
 40
12.6730741226861
 40
12.6730741226861
 10
79.44555865191649
 20
110.199728928496
 30
0.0
 10
79.34677510439379
 20
110.4509027408314
 30
0.0
 10
79.14920801049477
 20
110.953250340471
 30
0.0
 10
78.8392765830533
 20
111.6994384540609
 30
0.0
 10
78.51864744195133
 20
112.4391682441128
 30
0.0
 10
78.24119938399656
 20
113.0473833314158
 30
0.0
 10
78.01263431934642
 20
113.5282995786743
 30
0.0
 10
77.83685101506032
 20
113.8884094942845
 30
0.0
 10
77.65535274954279
 20
114.2504280766698
 30
0.0
 10
77.51717251600184
 20
114.5161647823028
 30
0.0
 10
77.42772641259825
 20
114.6835608512172
 30
0.0
 10
77.38923002611274
 20
114.7542615058487
 30
0.0
 10
77.3496760917204
 20
114.8248471613875
 30
0.0
 10
77.29600802041529
 20
114.9179606556659
 30
0.0
 10
77.22724142841544
 20
115.0325361882517
 30
0.0
 10
77.15672815430221
 20
115.1425629812746
 30
0.0
 10
77.09974551455637
 20
115.2266372380583
 30
0.0
 10
77.04203208344303
 20
115.3086792697788
 30
0.0
 10
76.9652495362894
 20
115.4112724521023
 30
0.0
 10
76.88326689525816
 20
115.5091434512435
 30
0.0
 10
76.81571899365896
 20
115.5819149621719
 30
0.0
 10
76.74772990681268
 20
115.6498042809579
 30
0.0
 10
76.65648916648733
 20
115.729617830809
 30
0.0
 10
76.55752127050113
 20
115.7948816159211
 30
0.0
 10
76.47643075315555
 20
115.8339904251223
 30
0.0
 10
76.40943053441671
 20
115.8580755612934
 30
0.0
 10
76.33044353362033
 20
115.8733613707423
 30
0.0
 10
76.25897742504577
 20
115.8722074178425
 30
0.0
 10
76.20729869432782
 20
115.8622146419858
 30
0.0
 10
76.16804026981207
 20
115.8507511837477
 30
0.0
 10
76.12438438268138
 20
115.8324229771148
 30
0.0
 10
76.08480448519248
 20
115.8097098004867
 30
0.0
 10
76.05402021493141
 20
115.7882836633974
 30
0.0
 10
76.01406499720699
 20
115.7570134439905
 30
0.0
 10
75.96204732988167
 20
115.7067386617726
 30
0.0
 10
75.91070211834915
 20
115.6430410577504
 30
0.0
 10
75.8710262495628
 20
115.5853740300445
 30
0.0
 10
75.81470984314316
 20
115.4942269645637
 30
0.0
 10
75.74461872472763
 20
115.3541637406924
 30
0.0
 10
75.67867496062755
 20
115.1813978810009
 30
0.0
 10
75.62816750871582
 20
115.0249515660529
 30
0.0
 10
75.58970956142
 20
114.8875369936061
 30
0.0
 10
75.5563216765797
 20
114.7500180903096
 30
0.0
 10
75.50990611839501
 20
114.5400363013967
 30
0.0
 10
75.4509569403832
 20
114.2563844194106
 30
0.0
 10
75.38037714123722
 20
113.8973724370133
 30
0.0
 10
75.31069727725055
 20
113.5366260547042
 30
0.0
 10
75.21905458903146
 20
113.0502272892402
 30
0.0
 10
75.10942087258204
 20
112.4390181944402
 30
0.0
 10
74.98407681398822
 20
111.6980495490504
 30
0.0
 10
74.86345252316565
 20
110.9516862242689
 30
0.0
 10
74.78728018039196
 20
110.4503812026332
 30
0.0
 10
74.74919401244085
 20
110.1997286897435
 30
0.0
 11
79.44555865191649
 21
110.199728928496
 31
0.0
 11
79.14683314722835
 21
110.9522963440453
 31
0.0
 11
78.83669904117208
 21
111.7002344097427
 31
0.0
 11
78.5163179493328
 21
112.4381460320321
 31
0.0
 11
78.1822043012603
 21
113.1699173834577
 31
0.0
 11
78.01201306989552
 21
113.5279989781565
 31
0.0
 11
77.83809396119827
 21
113.8842895276596
 31
0.0
 11
77.65445253981689
 21
114.2499739718543
 31
0.0
 11
77.46542936324084
 21
114.6128966357936
 31
0.0
 11
77.42763325921683
 21
114.6835122647447
 31
0.0
 11
77.3892843469328
 21
114.753824930542
 31
0.0
 11
77.34953489300875
 21
114.8247637927681
 31
0.0
 11
77.30892646482438
 21
114.8952233593607
 31
0.0
 11
77.22657010846007
 21
115.0321343906795
 31
0.0
 11
77.14024296978063
 21
115.1665403607918
 31
0.0
 11
77.09957709114197
 21
115.2265113155288
 31
0.0
 11
77.05786117033475
 21
115.2857852422186
 31
0.0
 11
76.96409903976897
 21
115.4104307145817
 31
0.0
 11
76.86372697320957
 21
115.5296410237614
 31
0.0
 11
76.81542371481113
 21
115.5815743997218
 31
0.0
 11
76.76510780414792
 21
115.6317291683763
 31
0.0
 11
76.65429030714954
 21
115.7271313468849
 31
0.0
 11
76.5319481323772
 21
115.8062997527763
 31
0.0
 11
76.47604414196945
 21
115.8329824275252
 31
0.0
 11
76.41755390832341
 21
115.8537629778876
 31
0.0
 11
76.32998027386382
 21
115.8702989842469
 31
0.0
 11
76.24129369948353
 21
115.8682121102402
 31
0.0
 11
76.20742564775308
 21
115.8616942295349
 31
0.0
 11
76.17430973797028
 21
115.8520493605205
 31
0.0
 11
76.12488696415298
 21
115.8314391976517
 31
0.0
 11
76.0783698880754
 21
115.8048613979241
 31
0.0
 11
76.05417909374681
 21
115.7880591557896
 31
0.0
 11
76.03098115590437
 21
115.769940176125
 31
0.0
 11
75.9635495939018
 21
115.7055155799759
 31
0.0
 11
75.90449848178629
 21
115.6330269641645
 31
0.0
 11
75.87141203098093
 21
115.5850918759791
 31
0.0
 11
75.84076041210962
 21
115.5356586885794
 31
0.0
 11
75.747832569424
 21
115.3530187278097
 31
0.0
 11
75.67334963554677
 21
115.1615349204435
 31
0.0
 11
75.62905437714969
 21
115.0246216166043
 31
0.0
 11
75.59022133334038
 21
114.8862445113851
 31
0.0
 11
75.55679735271289
 21
114.749932380605
 31
0.0
 11
75.52618013829087
 21
114.6128966357935
 31
0.0
 11
75.45159559459648
 21
114.2562379586367
 31
0.0
 11
75.38087173578155
 21
113.8988517348448
 31
0.0
 11
75.31097449766719
 21
113.5365771056893
 31
0.0
 11
75.24273174676883
 21
113.1739748941575
 31
0.0
 11
75.11063642589508
 21
112.4388084581041
 31
0.0
 11
74.98572934267392
 21
111.7023856064987
 31
0.0
 11
74.8646344249489
 21
110.9515021988679
 31
0.0
 11
74.74919401244085
 21
110.1997286897435
 31
0.0
  0
ENDBLK
  5
4E
330
4B
100
AcDbEntity
  8
0
100
AcDbBlockEnd
  0
BLOCK
  5
50
330
4F
100
AcDbEntity
  8
0
100
AcDbBlockBegin
  2
開示A4
 70
     0
 10
0.0
 20
0.0
 30
0.0
  3
開示A4
  1

  0
POINT
  5
234
330
4F
100
AcDbEntity
  8
1
 62
     4
100
AcDbPoint
 10
93.75
 20
17.0
 30
0.0
  0
POINT
  5
235
330
4F
100
AcDbEntity
  8
1
 62
     4
100
AcDbPoint
 10
85.25
 20
17.0
 30
0.0
  0
POINT
  5
236
330
4F
100
AcDbEntity
  8
1
 62
     4
100
AcDbPoint
 10
106.5
 20
19.0
 30
0.0
  0
POINT
  5
237
330
4F
100
AcDbEntity
  8
1
 62
     4
100
AcDbPoint
 10
106.5
 20
12.5
 30
0.0
  0
POINT
  5
238
330
4F
100
AcDbEntity
  8
1
 62
     4
100
AcDbPoint
 10
112.25
 20
12.5
 30
0.0
  0
POINT
  5
239
330
4F
100
AcDbEntity
  8
1
 62
     4
100
AcDbPoint
 10
100.75
 20
12.5
 30
0.0
  0
POINT
  5
23A
330
4F
100
AcDbEntity
  8
1
 62
     4
100
AcDbPoint
 10
123.5
 20
19.0
 30
0.0
  0
POINT
  5
23B
330
4F
100
AcDbEntity
  8
1
 62
     4
100
AcDbPoint
 10
123.5
 20
12.5
 30
0.0
  0
POINT
  5
23C
330
4F
100
AcDbEntity
  8
1
 62
     4
100
AcDbPoint
 10
129.25
 20
12.5
 30
0.0
  0
POINT
  5
23D
330
4F
100
AcDbEntity
  8
1
 62
     4
100
AcDbPoint
 10
117.75
 20
12.5
 30
0.0
  0
POINT
  5
23E
330
4F
100
AcDbEntity
  8
1
 62
     4
100
AcDbPoint
 10
140.5
 20
19.0
 30
0.0
  0
POINT
  5
23F
330
4F
100
AcDbEntity
  8
1
 62
     4
100
AcDbPoint
 10
140.5
 20
12.5
 30
0.0
  0
POINT
  5
240
330
4F
100
AcDbEntity
  8
1
 62
     4
100
AcDbPoint
 10
146.25
 20
12.5
 30
0.0
  0
POINT
  5
241
330
4F
100
AcDbEntity
  8
1
 62
     4
100
AcDbPoint
 10
134.75
 20
12.5
 30
0.0
  0
POINT
  5
242
330
4F
100
AcDbEntity
  8
1
 62
     4
100
AcDbPoint
 10
151.75
 20
12.5
 30
0.0
  0
POINT
  5
243
330
4F
100
AcDbEntity
  8
1
 62
     4
100
AcDbPoint
 10
163.25
 20
12.5
 30
0.0
  0
POINT
  5
244
330
4F
100
AcDbEntity
  8
1
 62
     4
100
AcDbPoint
 10
157.5
 20
12.5
 30
0.0
  0
POINT
  5
245
330
4F
100
AcDbEntity
  8
1
 62
     4
100
AcDbPoint
 10
57.0
 20
14.25
 30
0.0
  0
POINT
  5
246
330
4F
100
AcDbEntity
  8
1
 62
     4
100
AcDbPoint
 10
57.0
 20
22.75
 30
0.0
  0
POINT
  5
247
330
4F
100
AcDbEntity
  8
1
 62
     4
100
AcDbPoint
 10
47.5
 20
282.0000000000002
 30
0.0
  0
POINT
  5
248
330
4F
100
AcDbEntity
  8
1
 62
     4
100
AcDbPoint
 10
157.5
 20
19.0
 30
0.0
  0
POINT
  5
249
330
4F
100
AcDbEntity
  8
1
 62
     4
100
AcDbPoint
 10
57.0
 20
16.25
 30
0.0
  0
POINT
  5
24A
330
4F
100
AcDbEntity
  8
1
 62
     4
100
AcDbPoint
 10
57.0
 20
24.75
 30
0.0
  0
POINT
  5
24B
330
4F
100
AcDbEntity
  8
1
 62
     4
100
AcDbPoint
 10
57.0
 20
20.75
 30
0.0
  0
POINT
  5
24C
330
4F
100
AcDbEntity
  8
1
 62
     4
100
AcDbPoint
 10
57.0
 20
12.25
 30
0.0
  0
POINT
  5
24D
330
4F
100
AcDbEntity
  8
1
 62
     4
100
AcDbPoint
 10
34.0
 20
34.0
 30
0.0
  0
LINE
  5
24E
330
4F
100
AcDbEntity
  8
1
  6
Continuous
 62
     7
100
AcDbLine
 10
105.0
 20
10.0
 30
0.0
 11
200.0
 21
10.0
 31
0.0
  0
LINE
  5
24F
330
4F
100
AcDbEntity
  8
1
  6
Continuous
 62
     2
100
AcDbLine
 10
105.0
 20
10.0
 30
0.0
 11
105.0
 21
5.0
 31
0.0
  0
LINE
  5
250
330
4F
100
AcDbEntity
  8
1
  6
Continuous
 62
     7
100
AcDbLine
 10
200.0
 20
148.5
 30
0.0
 11
200.0
 21
287.0000000000002
 31
0.0
  0
LINE
  5
251
330
4F
100
AcDbEntity
  8
1
  6
Continuous
 62
     2
100
AcDbLine
 10
200.0
 20
148.5
 30
0.0
 11
205.0
 21
148.5
 31
0.0
  0
LINE
  5
252
330
4F
100
AcDbEntity
  8
1
  6
Continuous
 62
     7
100
AcDbLine
 10
25.0
 20
148.5
 30
0.0
 11
25.0
 21
287.0000000000002
 31
0.0
  0
LINE
  5
253
330
4F
100
AcDbEntity
  8
1
  6
Continuous
 62
     2
100
AcDbLine
 10
25.0
 20
148.5
 30
0.0
 11
20.0
 21
148.5
 31
0.0
  0
LINE
  5
254
330
4F
100
AcDbEntity
  8
1
  6
Continuous
 62
     7
100
AcDbLine
 10
105.0
 20
287.0000000000002
 30
0.0
 11
25.0
 21
287.0000000000002
 31
0.0
  0
LINE
  5
255
330
4F
100
AcDbEntity
  8
1
  6
Continuous
 62
     2
100
AcDbLine
 10
105.0
 20
287.0000000000002
 30
0.0
 11
105.0
 21
292.0000000000002
 31
0.0
  0
LINE
  5
256
330
4F
100
AcDbEntity
  8
1
  6
Continuous
 62
     2
100
AcDbLine
 10
166.0
 20
20.0
 30
0.0
 11
200.0
 21
20.0
 31
0.0
  0
LINE
  5
257
330
4F
100
AcDbEntity
  8
1
  6
Continuous
 62
     2
100
AcDbLine
 10
98.0
 20
27.0
 30
0.0
 11
98.0
 21
10.0
 31
0.0
  0
LINE
  5
258
330
4F
100
AcDbEntity
  8
1
  6
Continuous
 62
     2
100
AcDbLine
 10
115.0
 20
27.0
 30
0.0
 11
115.0
 21
10.0
 31
0.0
  0
LINE
  5
259
330
4F
100
AcDbEntity
  8
1
  6
Continuous
 62
     2
100
AcDbLine
 10
149.0
 20
27.0
 30
0.0
 11
149.0
 21
10.0
 31
0.0
  0
LINE
  5
25A
330
4F
100
AcDbEntity
  8
1
  6
Continuous
 62
     2
100
AcDbLine
 10
132.0
 20
27.0
 30
0.0
 11
132.0
 21
10.0
 31
0.0
  0
LINE
  5
25B
330
4F
100
AcDbEntity
  8
1
  6
Continuous
 62
     2
100
AcDbLine
 10
166.0
 20
27.0
 30
0.0
 11
166.0
 21
10.0
 31
0.0
  0
LINE
  5
25C
330
4F
100
AcDbEntity
  8
1
  6
Continuous
 62
     2
100
AcDbLine
 10
55.0
 20
277.0000000000002
 30
0.0
 11
25.0
 21
277.0000000000002
 31
0.0
  0
LINE
  5
25D
330
4F
100
AcDbEntity
  8
1
  6
Continuous
 62
     7
100
AcDbLine
 10
25.0
 20
10.0
 30
0.0
 11
25.0
 21
148.5
 31
0.0
  0
LINE
  5
25E
330
4F
100
AcDbEntity
  8
1
  6
Continuous
 62
     2
100
AcDbLine
 10
40.0
 20
287.0000000000002
 30
0.0
 11
40.0
 21
277.0000000000002
 31
0.0
  0
LINE
  5
25F
330
4F
100
AcDbEntity
  8
1
  6
Continuous
 62
     2
100
AcDbLine
 10
55.0
 20
287.0000000000002
 30
0.0
 11
55.0
 21
277.0000000000002
 31
0.0
  0
LINE
  5
260
330
4F
100
AcDbEntity
  8
1
  6
Continuous
 62
     2
100
AcDbLine
 10
33.0
 20
41.0
 30
0.0
 11
33.0
 21
27.0
 31
0.0
  0
LINE
  5
261
330
4F
100
AcDbEntity
  8
1
  6
Continuous
 62
     7
100
AcDbLine
 10
200.0
 20
27.0
 30
0.0
 11
25.0
 21
27.0
 31
0.0
  0
LINE
  5
262
330
4F
100
AcDbEntity
  8
1
  6
Continuous
 62
     7
100
AcDbLine
 10
25.0
 20
41.0
 30
0.0
 11
200.0
 21
41.0
 31
0.0
  0
LINE
  5
263
330
4F
100
AcDbEntity
  8
1
  6
PHANTOM
 62
     4
100
AcDbLine
 10
0.0
 20
0.0
 30
0.0
 11
210.0
 21
0.0
 31
0.0
  0
LINE
  5
264
330
4F
100
AcDbEntity
  8
1
  6
PHANTOM
 62
     4
100
AcDbLine
 10
210.0
 20
0.0
 30
0.0
 11
210.0
 21
297.0
 31
0.0
  0
LINE
  5
265
330
4F
100
AcDbEntity
  8
1
  6
PHANTOM
 62
     4
100
AcDbLine
 10
210.0
 20
297.0
 30
0.0
 11
0.0
 21
297.0
 31
0.0
  0
LINE
  5
266
330
4F
100
AcDbEntity
  8
1
  6
PHANTOM
 62
     4
100
AcDbLine
 10
0.0
 20
297.0
 30
0.0
 11
0.0
 21
0.0
 31
0.0
  0
LINE
  5
267
330
4F
100
AcDbEntity
  8
1
  6
Continuous
 62
     7
100
AcDbLine
 10
25.0
 20
10.0
 30
0.0
 11
105.0
 21
10.0
 31
0.0
  0
LINE
  5
268
330
4F
100
AcDbEntity
  8
1
  6
Continuous
 62
     7
100
AcDbLine
 10
200.0
 20
10.0
 30
0.0
 11
200.0
 21
148.5
 31
0.0
  0
LINE
  5
269
330
4F
100
AcDbEntity
  8
1
  6
Continuous
 62
     7
100
AcDbLine
 10
200.0
 20
287.0000000000002
 30
0.0
 11
105.0
 21
287.0000000000002
 31
0.0
  0
LINE
  5
26A
330
4F
100
AcDbEntity
  8
1
  6
Continuous
 62
     2
100
AcDbLine
 10
25.0
 20
18.5
 30
0.0
 11
81.0
 21
18.5
 31
0.0
  0
LINE
  5
26B
330
4F
100
AcDbEntity
  8
1
  6
Continuous
 62
     2
100
AcDbLine
 10
33.0
 20
27.0
 30
0.0
 11
33.0
 21
10.0
 31
0.0
  0
LINE
  5
26C
330
4F
100
AcDbEntity
  8
1
  6
Continuous
 62
     7
100
AcDbLine
 10
191.0
 20
24.69999999999999
 30
0.0
 11
191.0
 21
22.30000000000001
 31
0.0
  0
LINE
  5
26D
330
4F
100
AcDbEntity
  8
1
  6
Continuous
 62
     7
100
AcDbLine
 10
191.0
 20
24.69999999999999
 30
0.0
 11
196.0
 21
25.5
 31
0.0
  0
LINE
  5
26E
330
4F
100
AcDbEntity
  8
1
  6
Continuous
 62
     7
100
AcDbLine
 10
196.0
 20
25.5
 30
0.0
 11
196.0
 21
21.5
 31
0.0
  0
LINE
  5
26F
330
4F
100
AcDbEntity
  8
1
  6
Continuous
 62
     7
100
AcDbLine
 10
196.0
 20
21.5
 30
0.0
 11
191.0
 21
22.30000000000001
 31
0.0
  0
LINE
  5
270
330
4F
100
AcDbEntity
  8
1
  6
DOT_CENTER
 62
     2
100
AcDbLine
 10
184.0
 20
23.5
 30
0.0
 11
197.0
 21
23.5
 31
0.0
  0
LINE
  5
271
330
4F
100
AcDbEntity
  8
1
  6
DOT_CENTER
 62
     2
100
AcDbLine
 10
187.0
 20
26.5
 30
0.0
 11
187.0
 21
20.5
 31
0.0
  0
LINE
  5
272
330
4F
100
AcDbEntity
  8
1
  6
Continuous
 62
     2
100
AcDbLine
 10
81.0
 20
27.0
 30
0.0
 11
81.0
 21
10.0
 31
0.0
  0
CIRCLE
  5
273
330
4F
100
AcDbEntity
  8
1
  6
Continuous
 62
     7
100
AcDbCircle
 10
103.5
 20
12.5
 30
0.0
 40
0.2999999999999972
  0
CIRCLE
  5
274
330
4F
100
AcDbEntity
  8
1
  6
Continuous
 62
     7
100
AcDbCircle
 10
109.5
 20
12.5
 30
0.0
 40
0.2999999999999972
  0
CIRCLE
  5
275
330
4F
100
AcDbEntity
  8
1
  6
Continuous
 62
     7
100
AcDbCircle
 10
120.5
 20
12.5
 30
0.0
 40
0.2999999999999972
  0
CIRCLE
  5
276
330
4F
100
AcDbEntity
  8
1
  6
Continuous
 62
     7
100
AcDbCircle
 10
126.5
 20
12.5
 30
0.0
 40
0.2999999999999972
  0
CIRCLE
  5
277
330
4F
100
AcDbEntity
  8
1
  6
Continuous
 62
     7
100
AcDbCircle
 10
137.5
 20
12.5
 30
0.0
 40
0.3000000000000114
  0
CIRCLE
  5
278
330
4F
100
AcDbEntity
  8
1
  6
Continuous
 62
     7
100
AcDbCircle
 10
143.5
 20
12.5
 30
0.0
 40
0.3000000000000114
  0
CIRCLE
  5
279
330
4F
100
AcDbEntity
  8
1
  6
Continuous
 62
     7
100
AcDbCircle
 10
160.5
 20
12.5
 30
0.0
 40
0.3000000000000114
  0
CIRCLE
  5
27A
330
4F
100
AcDbEntity
  8
1
  6
Continuous
 62
     7
100
AcDbCircle
 10
154.5
 20
12.5
 30
0.0
 40
0.3000000000000114
  0
CIRCLE
  5
27B
330
4F
100
AcDbEntity
  8
1
  6
Continuous
 62
     7
100
AcDbCircle
 10
187.0
 20
23.5
 30
0.0
 40
1.200000000000102
  0
CIRCLE
  5
27C
330
4F
100
AcDbEntity
  8
1
  6
Continuous
 62
     7
100
AcDbCircle
 10
187.0
 20
23.5
 30
0.0
 40
2.0
  0
CIRCLE
  5
27D
330
4F
100
AcDbEntity
  8
1
  6
DOT_CENTER
 62
     7
100
AcDbCircle
 10
89.5
 20
16.0
 30
0.0
 40
0.1000000000000227
  0
CIRCLE
  5
27E
330
4F
100
AcDbEntity
  8
1
  6
DOT_CENTER
 62
     7
100
AcDbCircle
 10
89.5
 20
18.0
 30
0.0
 40
0.1000000000000227
  0
MTEXT
  5
280
330
4F
100
AcDbEntity
  8
1
 62
     7
100
AcDbMText
 10
188.5
 20
15.0
 30
0.0
 40
3.0
 41
0.0
 71
     5
 72
     1
  1
三栄水栓製作所
  7
CONVERTER_11
 73
     1
 44
1.0
  0
MTEXT
  5
281
330
4F
100
AcDbEntity
  8
1
 62
     7
100
AcDbMText
 10
171.5
 20
15.0
 30
0.0
 40
2.5
 41
0.0
 71
     5
 72
     1
  1
株式会社
  7
CONVERTER_11
 73
     1
 44
1.0
  0
MTEXT
  5
282
330
4F
100
AcDbEntity
  8
1
 62
     2
100
AcDbMText
 10
32.5
 20
282.0000000000002
 30
0.0
 40
5.0
 41
0.0
 71
     5
 72
     1
  1
図番
  7
CONVERTER_11
 73
     1
 44
0.45454545454545
  0
MTEXT
  5
283
330
4F
100
AcDbEntity
  8
1
 62
     2
100
AcDbMText
 10
29.0
 20
34.0
 30
0.0
 40
3.5
 41
0.0
 71
     5
 72
     1
  1
備考
  7
CONVERTER_11
 73
     1
 44
0.45454545454545
  0
MTEXT
  5
284
330
4F
100
AcDbEntity
  8
1
 62
     2
100
AcDbMText
 10
29.0
 20
22.75
 30
0.0
 40
3.5
 41
0.0
 71
     5
 72
     1
  1
品名
  7
CONVERTER_11
 73
     1
 44
0.72727272727273
  0
MTEXT
  5
285
330
4F
100
AcDbEntity
  8
1
 62
     2
100
AcDbMText
 10
29.0
 20
14.25
 30
0.0
 40
3.5
 41
0.0
 71
     5
 72
     1
  1
品番
  7
CONVERTER_11
 73
     1
 44
0.72727272727273
  0
MTEXT
  5
286
330
4F
100
AcDbEntity
  8
1
 62
     2
100
AcDbMText
 10
101.5
 20
25.0
 30
0.0
 40
3.0
 41
0.0
 71
     5
 72
     1
  1
承認
  7
CONVERTER_11
 73
     1
 44
0.59090909090909
  0
MTEXT
  5
287
330
4F
100
AcDbEntity
  8
1
 62
     2
100
AcDbMText
 10
175.0
 20
23.5
 30
0.0
 40
3.5
 41
0.0
 71
     5
 72
     1
  1
第三角法
  7
CONVERTER_11
 73
     1
 44
0.54545454545455
  0
MTEXT
  5
288
330
4F
100
AcDbEntity
  8
1
 62
     2
100
AcDbMText
 10
118.5
 20
25.0
 30
0.0
 40
3.0
 41
0.0
 71
     5
 72
     1
  1
検図
  7
CONVERTER_11
 73
     1
 44
0.59090909090909
  0
MTEXT
  5
289
330
4F
100
AcDbEntity
  8
1
 62
     2
100
AcDbMText
 10
152.5
 20
25.0
 30
0.0
 40
3.0
 41
0.0
 71
     5
 72
     1
  1
設計
  7
CONVERTER_11
 73
     1
 44
0.59090909090909
  0
MTEXT
  5
28A
330
4F
100
AcDbEntity
  8
1
 62
     2
100
AcDbMText
 10
135.5
 20
25.0
 30
0.0
 40
3.0
 41
0.0
 71
     5
 72
     1
  1
製図
  7
CONVERTER_11
 73
     1
 44
0.59090909090909
  0
MTEXT
  5
28B
330
4F
100
AcDbEntity
  8
1
 62
     2
100
AcDbMText
 10
89.5
 20
24.0
 30
0.0
 40
3.5
 41
0.0
 71
     5
 72
     1
  1
尺度
  7
CONVERTER_11
 73
     1
 44
0.54545454545455
  0
MTEXT
  5
28C
330
4F
100
AcDbEntity
  8
1
 62
   250
100
AcDbMText
 10
25.0
 20
5.0
 30
0.0
 40
3.5
 41
0.0
 71
     4
 72
     1
  1
備考欄の文字列 原点位置=4
  7
CONVERTER_11
 73
     1
 44
0.54545454545455
  0
ENDBLK
  5
51
330
4F
100
AcDbEntity
  8
0
100
AcDbBlockEnd
  0
BLOCK
  5
53
330
52
100
AcDbEntity
  8
0
100
AcDbBlockBegin
  2
V2113-0-13-M11
 70
     0
 10
210.0
 20
0.0
 30
0.0
  3
V2113-0-13-M11
  1

  0
LINE
  5
28D
330
52
100
AcDbEntity
  8
1
  6
Continuous
 62
     7
100
AcDbLine
 10
79.60015014804789
 20
199.4615864208164
 30
0.0
 11
79.6001501581024
 21
206.8785808065884
 31
0.0
  0
LINE
  5
28E
330
52
100
AcDbEntity
  8
1
  6
Continuous
 62
     7
100
AcDbLine
 10
55.60015005380248
 20
178.2955760392688
 30
0.0
 11
55.60015005380257
 21
173.4141151894216
 31
0.0
  0
LINE
  5
28F
330
52
100
AcDbEntity
  8
1
  6
Continuous
 62
     7
100
AcDbLine
 10
56.25015005379083
 20
100.7785812836435
 30
0.0
 11
56.25015005379083
 21
96.94644357249267
 31
0.0
  0
LINE
  5
290
330
52
100
AcDbEntity
  8
1
  6
Continuous
 62
     7
100
AcDbLine
 10
159.0999999999945
 20
177.5285812834883
 30
0.0
 11
162.9321377109964
 21
177.5285812834883
 31
0.0
  0
LINE
  5
291
330
52
100
AcDbEntity
  8
1
  6
Continuous
 62
     7
100
AcDbLine
 10
55.60015005380245
 20
206.8785812834883
 30
0.0
 11
55.6001500534025
 21
206.8785812834883
 31
0.0
  0
LINE
  5
292
330
52
100
AcDbEntity
  8
1
  6
Continuous
 62
     7
100
AcDbLine
 10
55.60015005380245
 20
206.8785812834883
 30
0.0
 11
55.60015005380245
 21
199.4615865277071
 31
0.0
  0
LINE
  5
293
330
52
100
AcDbEntity
  8
1
  6
Continuous
 62
     7
100
AcDbLine
 10
57.10015005380245
 20
208.8912243218831
 30
0.0
 11
57.10015005380245
 21
206.8785812834883
 31
0.0
  0
LINE
  5
294
330
52
100
AcDbEntity
  8
1
  6
Continuous
 62
     2
100
AcDbLine
 10
58.26215005380249
 20
224.7165812834882
 30
0.0
 11
58.26215005380249
 21
225.8785812834883
 31
0.0
  0
LINE
  5
295
330
52
100
AcDbEntity
  8
1
  6
Continuous
 62
     7
100
AcDbLine
 10
78.10015005380245
 20
224.7165812834882
 30
0.0
 11
57.10015005380245
 21
224.7165812834882
 31
0.0
  0
LINE
  5
296
330
52
100
AcDbEntity
  8
1
  6
Continuous
 62
     2
100
AcDbLine
 10
58.26215005380237
 20
208.8912243218831
 30
0.0
 11
58.26215005380249
 21
224.7165812834882
 31
0.0
  0
LINE
  5
297
330
52
100
AcDbEntity
  8
1
  6
Continuous
 62
     2
100
AcDbLine
 10
57.10015005380245
 20
206.8785812834883
 30
0.0
 11
58.26215005380237
 21
208.8912243218831
 31
0.0
  0
LINE
  5
298
330
52
100
AcDbEntity
  8
1
  6
Continuous
 62
     7
100
AcDbLine
 10
78.10015005380245
 20
208.8912243218831
 30
0.0
 11
78.10015005380245
 21
224.7165812834882
 31
0.0
  0
LINE
  5
299
330
52
100
AcDbEntity
  8
1
  6
Continuous
 62
     7
100
AcDbLine
 10
78.10015005380245
 20
208.8912243218831
 30
0.0
 11
57.10015005380245
 21
208.8912243218831
 31
0.0
  0
LINE
  5
29A
330
52
100
AcDbEntity
  8
1
  6
Continuous
 62
     2
100
AcDbLine
 10
76.93815005380259
 20
224.7165812834882
 30
0.0
 11
76.93815005380259
 21
225.8785812834883
 31
0.0
  0
LINE
  5
29B
330
52
100
AcDbEntity
  8
1
  6
Continuous
 62
     2
100
AcDbLine
 10
76.93815005380259
 20
208.8912243218831
 30
0.0
 11
76.93815005380259
 21
224.7165812834882
 31
0.0
  0
LINE
  5
29C
330
52
100
AcDbEntity
  8
1
  6
Continuous
 62
     2
100
AcDbLine
 10
78.10015005380245
 20
206.8785812834883
 30
0.0
 11
76.93815005380259
 21
208.8912243218831
 31
0.0
  0
LINE
  5
29D
330
52
100
AcDbEntity
  8
1
  6
Continuous
 62
     7
100
AcDbLine
 10
57.10015005380245
 20
206.8785812834883
 30
0.0
 11
55.60015005380245
 21
206.8785812834883
 31
0.0
  0
LINE
  5
29E
330
52
100
AcDbEntity
  8
1
  6
Continuous
 62
     7
100
AcDbLine
 10
57.10015005380245
 20
224.7165812834882
 30
0.0
 11
57.10015005380245
 21
208.8912243218831
 31
0.0
  0
LINE
  5
29F
330
52
100
AcDbEntity
  8
1
  6
Continuous
 62
     7
100
AcDbLine
 10
58.26215005380249
 20
225.8785812834883
 30
0.0
 11
57.10015005380245
 21
224.7165812834882
 31
0.0
  0
LINE
  5
2A0
330
52
100
AcDbEntity
  8
1
  6
Continuous
 62
     7
100
AcDbLine
 10
76.93815005380259
 20
225.8785812834883
 30
0.0
 11
58.26215005380249
 21
225.8785812834883
 31
0.0
  0
LINE
  5
2A1
330
52
100
AcDbEntity
  8
1
  6
Continuous
 62
     7
100
AcDbLine
 10
78.10015005380245
 20
224.7165812834882
 30
0.0
 11
76.93815005380259
 21
225.8785812834883
 31
0.0
  0
LINE
  5
2A2
330
52
100
AcDbEntity
  8
1
  6
Continuous
 62
     7
100
AcDbLine
 10
78.10015005380245
 20
206.8785812834883
 30
0.0
 11
78.10015005380245
 21
208.8912243218831
 31
0.0
  0
LINE
  5
2A3
330
52
100
AcDbEntity
  8
1
  6
Continuous
 62
     7
100
AcDbLine
 10
79.60015005200256
 20
206.8785812834883
 30
0.0
 11
78.10015005380245
 21
206.8785812834883
 31
0.0
  0
LINE
  5
2A4
330
52
100
AcDbEntity
  8
1
  6
Continuous
 62
     7
100
AcDbLine
 10
57.10015005380245
 20
206.8785812834883
 30
0.0
 11
78.10015005380245
 21
206.8785812834883
 31
0.0
  0
LINE
  5
2A5
330
52
100
AcDbEntity
  8
1
  6
PHANTOM
 62
     4
100
AcDbLine
 10
154.5000000000008
 20
188.8785812834883
 30
0.0
 11
193.9999999989652
 21
188.8785812834883
 31
0.0
  0
LINE
  5
2A6
330
52
100
AcDbEntity
  8
1
  6
PHANTOM
 62
     4
100
AcDbLine
 10
179.0000000000008
 20
155.8785812834882
 30
0.0
 11
179.0000000000008
 21
228.8785812834883
 31
0.0
  0
LINE
  5
2A7
330
52
100
AcDbEntity
  8
1
  6
Continuous
 62
     7
100
AcDbLine
 10
168.5000000000008
 20
206.8785812834883
 30
0.0
 11
189.5000000000008
 21
206.8785812834883
 31
0.0
  0
LINE
  5
2A8
330
52
100
AcDbEntity
  8
1
  6
Continuous
 62
     7
100
AcDbLine
 10
190.9999999982009
 20
173.4141151894043
 30
0.0
 11
190.9999999982009
 21
206.8785812834883
 31
0.0
  0
LINE
  5
2A9
330
52
100
AcDbEntity
  8
1
  6
Continuous
 62
     7
100
AcDbLine
 10
190.9999999982009
 20
206.8785812834883
 30
0.0
 11
189.5000000000008
 21
206.8785812834883
 31
0.0
  0
LINE
  5
2AA
330
52
100
AcDbEntity
  8
1
  6
Continuous
 62
     7
100
AcDbLine
 10
189.5000000000008
 20
206.8785812834883
 30
0.0
 11
189.5000000000008
 21
208.8912243218831
 31
0.0
  0
LINE
  5
2AB
330
52
100
AcDbEntity
  8
1
  6
Continuous
 62
     7
100
AcDbLine
 10
189.5000000000008
 20
224.7165812834882
 30
0.0
 11
188.3380000000009
 21
225.8785812834883
 31
0.0
  0
LINE
  5
2AC
330
52
100
AcDbEntity
  8
1
  6
Continuous
 62
     7
100
AcDbLine
 10
188.3380000000009
 20
225.8785812834883
 30
0.0
 11
169.6620000000008
 21
225.8785812834883
 31
0.0
  0
LINE
  5
2AD
330
52
100
AcDbEntity
  8
1
  6
Continuous
 62
     7
100
AcDbLine
 10
169.6620000000008
 20
225.8785812834883
 30
0.0
 11
168.5000000000008
 21
224.7165812834882
 31
0.0
  0
LINE
  5
2AE
330
52
100
AcDbEntity
  8
1
  6
Continuous
 62
     7
100
AcDbLine
 10
168.5000000000008
 20
224.7165812834882
 30
0.0
 11
168.5000000000008
 21
208.8912243218831
 31
0.0
  0
LINE
  5
2AF
330
52
100
AcDbEntity
  8
1
  6
Continuous
 62
     7
100
AcDbLine
 10
168.5000000000008
 20
206.8785812834883
 30
0.0
 11
166.9999999996009
 21
206.8785812834883
 31
0.0
  0
LINE
  5
2B0
330
52
100
AcDbEntity
  8
1
  6
Continuous
 62
     7
100
AcDbLine
 10
166.9999999996009
 20
206.8785812834883
 30
0.0
 11
166.9999999996009
 21
203.3743854709674
 31
0.0
  0
LINE
  5
2B1
330
52
100
AcDbEntity
  8
1
  6
Continuous
 62
     7
100
AcDbLine
 10
166.9999999996009
 20
173.4141151767982
 30
0.0
 11
166.9999999996009
 21
174.3827770960092
 31
0.0
  0
LINE
  5
2B2
330
52
100
AcDbEntity
  8
1
  6
Continuous
 62
     2
100
AcDbLine
 10
189.5000000000008
 20
206.8785812834883
 30
0.0
 11
188.3380000000009
 21
208.8912243218831
 31
0.0
  0
LINE
  5
2B3
330
52
100
AcDbEntity
  8
1
  6
Continuous
 62
     2
100
AcDbLine
 10
188.3380000000009
 20
208.8912243218831
 30
0.0
 11
188.3380000000009
 21
224.7165812834882
 31
0.0
  0
LINE
  5
2B4
330
52
100
AcDbEntity
  8
1
  6
Continuous
 62
     2
100
AcDbLine
 10
188.3380000000009
 20
224.7165812834882
 30
0.0
 11
188.3380000000009
 21
225.8785812834883
 31
0.0
  0
LINE
  5
2B5
330
52
100
AcDbEntity
  8
1
  6
Continuous
 62
     7
100
AcDbLine
 10
189.5000000000008
 20
208.8912243218831
 30
0.0
 11
168.5000000000008
 21
208.8912243218831
 31
0.0
  0
LINE
  5
2B6
330
52
100
AcDbEntity
  8
1
  6
Continuous
 62
     7
100
AcDbLine
 10
189.5000000000008
 20
208.8912243218831
 30
0.0
 11
189.5000000000008
 21
224.7165812834882
 31
0.0
  0
LINE
  5
2B7
330
52
100
AcDbEntity
  8
1
  6
Continuous
 62
     2
100
AcDbLine
 10
168.5000000000008
 20
206.8785812834883
 30
0.0
 11
169.6620000000007
 21
208.8912243218831
 31
0.0
  0
LINE
  5
2B8
330
52
100
AcDbEntity
  8
1
  6
Continuous
 62
     2
100
AcDbLine
 10
169.6620000000007
 20
208.8912243218831
 30
0.0
 11
169.6620000000008
 21
224.7165812834882
 31
0.0
  0
LINE
  5
2B9
330
52
100
AcDbEntity
  8
1
  6
Continuous
 62
     7
100
AcDbLine
 10
189.5000000000008
 20
224.7165812834882
 30
0.0
 11
168.5000000000008
 21
224.7165812834882
 31
0.0
  0
LINE
  5
2BA
330
52
100
AcDbEntity
  8
1
  6
Continuous
 62
     2
100
AcDbLine
 10
169.6620000000008
 20
224.7165812834882
 30
0.0
 11
169.6620000000008
 21
225.8785812834883
 31
0.0
  0
LINE
  5
2BB
330
52
100
AcDbEntity
  8
1
  6
Continuous
 62
     7
100
AcDbLine
 10
168.5000000000008
 20
208.8912243218831
 30
0.0
 11
168.5000000000008
 21
206.8785812834883
 31
0.0
  0
LINE
  5
2BC
330
52
100
AcDbEntity
  8
1
  6
Continuous
 62
     7
100
AcDbLine
 10
67.6001500537908
 20
78.62858138038824
 30
0.0
 11
72.72190719183953
 21
78.36016146275607
 31
0.0
  0
LINE
  5
2BD
330
52
100
AcDbEntity
  8
1
  6
Continuous
 62
     7
100
AcDbLine
 10
67.6001500537908
 20
78.62858138038824
 30
0.0
 11
62.47839291574212
 21
78.36016146275607
 31
0.0
  0
LINE
  5
2BE
330
52
100
AcDbEntity
  8
1
  6
Continuous
 62
     7
100
AcDbLine
 10
79.60015005580186
 20
173.41411519081
 30
0.0
 11
79.60015006440501
 21
178.2955760513174
 31
0.0
  0
LINE
  5
2BF
330
52
100
AcDbEntity
  8
1
  6
PHANTOM
 62
     4
100
AcDbLine
 10
67.60015005380245
 20
228.8785812834883
 30
0.0
 11
67.60015005379267
 21
155.8785812834883
 31
0.0
  0
LINE
  5
2C0
330
52
100
AcDbEntity
  8
1
  6
PHANTOM
 62
     4
100
AcDbLine
 10
51.84705599385137
 20
188.8785812834883
 30
0.0
 11
83.35324411375359
 21
188.8785812834883
 31
0.0
  0
LINE
  5
2C1
330
52
100
AcDbEntity
  8
1
  6
Continuous
 62
     7
100
AcDbLine
 10
166.2677669525671
 20
171.6463482238318
 30
0.0
 11
163.6435936588219
 21
169.0221749300866
 31
0.0
  0
LINE
  5
2C2
330
52
100
AcDbEntity
  8
1
  6
Continuous
 62
     7
100
AcDbLine
 10
191.7322330452346
 20
171.6463482364379
 30
0.0
 11
194.3564064475514
 21
169.0221748341212
 31
0.0
  0
LINE
  5
2C3
330
52
100
AcDbEntity
  8
1
  6
Continuous
 62
     7
100
AcDbLine
 10
170.77275866404
 20
169.2045901993883
 30
0.0
 11
170.77275866404
 21
160.5525723675881
 31
0.0
  0
LINE
  5
2C4
330
52
100
AcDbEntity
  8
1
  6
Continuous
 62
     7
100
AcDbLine
 10
172.0717967697136
 20
160.5525723675881
 30
0.0
 11
172.0717967697136
 21
169.2045901993887
 31
0.0
  0
LINE
  5
2C5
330
52
100
AcDbEntity
  8
1
  6
Continuous
 62
     7
100
AcDbLine
 10
187.2272413359577
 20
160.5525723675881
 30
0.0
 11
187.2272413359577
 21
169.2045901993887
 31
0.0
  0
LINE
  5
2C6
330
52
100
AcDbEntity
  8
1
  6
Continuous
 62
     7
100
AcDbLine
 10
194.3564064475514
 20
169.0221748341212
 30
0.0
 11
194.3564064475514
 21
160.7349877328554
 31
0.0
  0
LINE
  5
2C7
330
52
100
AcDbEntity
  8
1
  6
Continuous
 62
     7
100
AcDbLine
 10
194.1554445662492
 20
169.2045901993887
 30
0.0
 11
194.1554445662492
 21
160.5525723675881
 31
0.0
  0
LINE
  5
2C8
330
52
100
AcDbEntity
  8
1
  6
Continuous
 62
     7
100
AcDbLine
 10
165.5000000122237
 20
158.8785812834883
 30
0.0
 11
192.4999999981843
 21
158.8785812834883
 31
0.0
  0
LINE
  5
2C9
330
52
100
AcDbEntity
  8
1
  6
Continuous
 62
     7
100
AcDbLine
 10
185.928203230283
 20
169.2045901993887
 30
0.0
 11
185.928203230283
 21
160.5525723675881
 31
0.0
  0
LINE
  5
2CA
330
52
100
AcDbEntity
  8
1
  6
Continuous
 62
     7
100
AcDbLine
 10
194.3564064475514
 20
160.7349877328554
 30
0.0
 11
192.4999999981843
 21
158.8785812834883
 31
0.0
  0
LINE
  5
2CB
330
52
100
AcDbEntity
  8
1
  6
Continuous
 62
     7
100
AcDbLine
 10
163.8445554337326
 20
169.2045901993883
 30
0.0
 11
163.8445554337326
 21
160.5525723676317
 31
0.0
  0
LINE
  5
2CC
330
52
100
AcDbEntity
  8
1
  6
Continuous
 62
     7
100
AcDbLine
 10
163.6435936588219
 20
169.0221749300866
 30
0.0
 11
163.6435936588219
 21
160.73498763689
 31
0.0
  0
LINE
  5
2CD
330
52
100
AcDbEntity
  8
1
  6
Continuous
 62
     7
100
AcDbLine
 10
165.5000000122237
 20
158.8785812834883
 30
0.0
 11
163.6435936588219
 21
160.73498763689
 31
0.0
  0
LINE
  5
2CE
330
52
100
AcDbEntity
  8
1
  6
Continuous
 62
     7
100
AcDbLine
 10
80.35014981548755
 20
169.2045901993883
 30
0.0
 11
80.35014952019549
 21
160.5525721889585
 31
0.0
  0
LINE
  5
2CF
330
52
100
AcDbEntity
  8
1
  6
Continuous
 62
     7
100
AcDbLine
 10
68.35015006030176
 20
160.5525721889585
 30
0.0
 11
68.35015006030176
 21
169.2045901993533
 31
0.0
  0
LINE
  5
2D0
330
52
100
AcDbEntity
  8
1
  6
Continuous
 62
     7
100
AcDbLine
 10
66.8501500537323
 20
169.2045901993883
 30
0.0
 11
66.85014975852556
 21
160.5525721889585
 31
0.0
  0
LINE
  5
2D1
330
52
100
AcDbEntity
  8
1
  6
Continuous
 62
     7
100
AcDbLine
 10
54.85015029220307
 20
169.2045901993883
 30
0.0
 11
54.85015058741095
 21
160.5525721889585
 31
0.0
  0
LINE
  5
2D2
330
52
100
AcDbEntity
  8
1
  6
Continuous
 62
     7
100
AcDbLine
 10
81.10015005380188
 20
158.8785812834882
 30
0.0
 11
81.10015005380188
 21
170.8785812834882
 31
0.0
  0
LINE
  5
2D3
330
52
100
AcDbEntity
  8
1
  6
Continuous
 62
     7
100
AcDbLine
 10
54.10015005380188
 20
158.8785812834882
 30
0.0
 11
81.10015005380188
 21
158.8785812834882
 31
0.0
  0
LINE
  5
2D4
330
52
100
AcDbEntity
  8
1
  6
Continuous
 62
     7
100
AcDbLine
 10
81.10015005380188
 20
170.8785812834882
 30
0.0
 11
80.33238310283548
 21
171.6463482344546
 31
0.0
  0
LINE
  5
2D5
330
52
100
AcDbEntity
  8
1
  6
Continuous
 62
     7
100
AcDbLine
 10
54.10015005380188
 20
158.8785812834882
 30
0.0
 11
54.10015005380188
 21
170.8785812834882
 31
0.0
  0
LINE
  5
2D6
330
52
100
AcDbEntity
  8
1
  6
Continuous
 62
     7
100
AcDbLine
 10
54.10015005380188
 20
170.8785812834882
 30
0.0
 11
54.86791700676889
 21
171.6463482364551
 31
0.0
  0
LINE
  5
2D7
330
52
100
AcDbEntity
  8
1
  6
PHANTOM
 62
     4
100
AcDbLine
 10
67.6001500537908
 20
64.37858128348823
 30
0.0
 11
67.6001500537908
 21
105.3785820136883
 31
0.0
  0
LINE
  5
2D8
330
52
100
AcDbEntity
  8
1
  6
Continuous
 62
     7
100
AcDbLine
 10
54.1001500537908
 20
87.80678451376376
 30
0.0
 11
54.1001500537908
 21
73.95037805321276
 31
0.0
  0
LINE
  5
2D9
330
52
100
AcDbEntity
  8
1
  6
Continuous
 62
     7
100
AcDbLine
 10
54.8501500537908
 20
72.65133994753606
 30
0.0
 11
66.8501500537908
 21
65.72313671726066
 31
0.0
  0
LINE
  5
2DA
330
52
100
AcDbEntity
  8
1
  6
Continuous
 62
     7
100
AcDbLine
 10
68.3501500537908
 20
65.72313671726066
 30
0.0
 11
80.3501500537908
 21
72.65133994753606
 31
0.0
  0
LINE
  5
2DB
330
52
100
AcDbEntity
  8
1
  6
Continuous
 62
     7
100
AcDbLine
 10
81.1001500537908
 20
73.95037805321276
 30
0.0
 11
81.1001500537908
 21
80.87858128348823
 31
0.0
  0
LINE
  5
2DC
330
52
100
AcDbEntity
  8
1
  6
Continuous
 62
     7
100
AcDbLine
 10
80.3501500537908
 20
89.10582261944033
 30
0.0
 11
68.3501500537908
 21
96.03402584971597
 31
0.0
  0
LINE
  5
2DD
330
52
100
AcDbEntity
  8
1
  6
Continuous
 62
     7
100
AcDbLine
 10
66.8501500537908
 20
96.03402584971597
 30
0.0
 11
54.8501500537908
 21
89.10582261944033
 31
0.0
  0
LINE
  5
2DE
330
52
100
AcDbEntity
  8
1
  6
PHANTOM
 62
     4
100
AcDbLine
 10
51.1001500537908
 20
80.87858128348823
 30
0.0
 11
84.1001500537908
 21
80.87858128348823
 31
0.0
  0
LINE
  5
2DF
330
52
100
AcDbEntity
  8
1
  6
Continuous
 62
     7
100
AcDbLine
 10
81.1001500537908
 20
80.87858128348823
 30
0.0
 11
81.1001500537908
 21
87.80678451376376
 31
0.0
  0
LINE
  5
2E0
330
52
100
AcDbEntity
  8
1
  6
Continuous
 62
     7
100
AcDbLine
 10
78.95015005379082
 20
96.94644357249267
 30
0.0
 11
78.95015005379082
 21
100.7785812836435
 31
0.0
  0
LINE
  5
2E1
330
52
100
AcDbEntity
  8
1
  6
Continuous
 62
     7
100
AcDbLine
 10
55.30015005379084
 20
89.36563024057565
 30
0.0
 11
55.30015005379084
 21
93.22858128348842
 31
0.0
  0
LINE
  5
2E2
330
52
100
AcDbEntity
  8
1
  6
Continuous
 62
     7
100
AcDbLine
 10
79.90015005379081
 20
93.22858128348842
 30
0.0
 11
79.90015005379081
 21
89.36563024057565
 31
0.0
  0
LINE
  5
2E3
330
52
100
AcDbEntity
  8
1
  6
Continuous
 62
     7
100
AcDbLine
 10
60.55015005379084
 20
98.47858128348842
 30
0.0
 11
74.65015005379081
 21
98.47858128348842
 31
0.0
  0
LINE
  5
2E4
330
52
100
AcDbEntity
  8
1
  6
Continuous
 62
     7
100
AcDbLine
 10
161.4000000000007
 20
181.8285812834883
 30
0.0
 11
161.4000000000007
 21
195.9285812834883
 31
0.0
  0
LINE
  5
2E5
330
52
100
AcDbEntity
  8
1
  6
Continuous
 62
     7
100
AcDbLine
 10
162.9321377109964
 20
200.2285812834883
 30
0.0
 11
159.0999999999945
 21
200.2285812834883
 31
0.0
  0
LINE
  5
2E6
330
52
100
AcDbEntity
  8
1
  6
Continuous
 62
     7
100
AcDbLine
 10
166.6500000000007
 20
201.1785812834883
 30
0.0
 11
181.1559992237669
 21
201.1785812834883
 31
0.0
  0
LINE
  5
2E7
330
52
100
AcDbEntity
  8
1
  6
Continuous
 62
     7
100
AcDbLine
 10
181.1559992237669
 20
176.5785812834883
 30
0.0
 11
166.6500000000007
 21
176.5785812834883
 31
0.0
  0
ARC
  5
2E8
330
52
100
AcDbEntity
  8
1
  6
Continuous
 62
     7
100
AcDbCircle
 10
67.6001500537908
 20
80.87858128353824
 30
0.0
 40
8.750000000058002
100
AcDbArc
 50
221.9891190790024
 51
318.0108809209979
  0
ARC
  5
2E9
330
52
100
AcDbEntity
  8
1
  6
Continuous
 62
     7
100
AcDbCircle
 10
190.4917867802418
 20
166.0443823514226
 30
0.0
 40
4.838316030947045
100
AcDbArc
 50
40.7804869854434
 51
87.6361660592566
  0
ARC
  5
2EA
330
52
100
AcDbEntity
  8
1
  6
Continuous
 62
     7
100
AcDbCircle
 10
192.3705606131167
 20
167.0363289996864
 30
0.0
 40
2.808410111839727
100
AcDbArc
 50
45.00000000000164
 51
50.53924000933481
  0
ARC
  5
2EB
330
52
100
AcDbEntity
  8
1
  6
Continuous
 62
     7
100
AcDbCircle
 10
190.8908992983871
 20
166.0443823514226
 30
0.0
 40
4.838316030946891
100
AcDbArc
 50
92.36383394074544
 51
139.2195130145566
  0
ARC
  5
2EC
330
52
100
AcDbEntity
  8
1
  6
Continuous
 62
     7
100
AcDbCircle
 10
186.5777222831204
 20
170.2697406155728
 30
0.0
 40
1.247565793493868
100
AcDbArc
 50
238.6255404370124
 51
301.3744595629831
  0
ARC
  5
2ED
330
52
100
AcDbEntity
  8
1
  6
Continuous
 62
     7
100
AcDbCircle
 10
178.9999999999983
 20
155.7045918183378
 30
0.0
 40
15.17398946515069
100
AcDbArc
 50
62.8330917349379
 51
117.1669082650621
  0
ARC
  5
2EE
330
52
100
AcDbEntity
  8
1
  6
Continuous
 62
     7
100
AcDbCircle
 10
171.4222777168951
 20
170.2697406155728
 30
0.0
 40
1.24756579349372
100
AcDbArc
 50
238.6255404370236
 51
301.3744595629864
  0
ARC
  5
2EF
330
52
100
AcDbEntity
  8
1
  6
Continuous
 62
     7
100
AcDbCircle
 10
167.1091007016283
 20
166.0443823514226
 30
0.0
 40
4.83831603094711
100
AcDbArc
 50
40.78048698544274
 51
87.63616605925458
  0
ARC
  5
2F0
330
52
100
AcDbEntity
  8
1
  6
Continuous
 62
     7
100
AcDbCircle
 10
167.5082132197737
 20
166.0443823514226
 30
0.0
 40
4.838316030946372
100
AcDbArc
 50
92.36383394074333
 51
139.2195130145573
  0
ARC
  5
2F1
330
52
100
AcDbEntity
  8
1
  6
Continuous
 62
     7
100
AcDbCircle
 10
165.6294393868988
 20
167.0363289996864
 30
0.0
 40
2.808410111839925
100
AcDbArc
 50
129.460759990667
 51
134.9999999999984
  0
ARC
  5
2F2
330
52
100
AcDbEntity
  8
1
  6
Continuous
 62
     7
100
AcDbCircle
 10
165.6294393868988
 20
162.7208335672903
 30
0.0
 40
2.808410111839888
100
AcDbArc
 50
225.0000000000016
 51
230.5392400093316
  0
ARC
  5
2F3
330
52
100
AcDbEntity
  8
1
  6
Continuous
 62
     7
100
AcDbCircle
 10
167.5082132197737
 20
163.7127802155541
 30
0.0
 40
4.838316030947035
100
AcDbArc
 50
220.7804869854417
 51
267.6361660592569
  0
ARC
  5
2F4
330
52
100
AcDbEntity
  8
1
  6
Continuous
 62
     7
100
AcDbCircle
 10
167.1091007016283
 20
163.7127802155541
 30
0.0
 40
4.838316030946976
100
AcDbArc
 50
272.3638339407454
 51
319.2195130145582
  0
ARC
  5
2F5
330
52
100
AcDbEntity
  8
1
  6
Continuous
 62
     7
100
AcDbCircle
 10
171.4222777168951
 20
159.4874219514039
 30
0.0
 40
1.24756579349395
100
AcDbArc
 50
58.62554043701629
 51
121.3744595629737
  0
ARC
  5
2F6
330
52
100
AcDbEntity
  8
1
  6
Continuous
 62
     7
100
AcDbCircle
 10
178.9999999999983
 20
174.052570748639
 30
0.0
 40
15.17398946515069
100
AcDbArc
 50
242.8330917349379
 51
297.1669082650621
  0
ARC
  5
2F7
330
52
100
AcDbEntity
  8
1
  6
Continuous
 62
     7
100
AcDbCircle
 10
186.5777222831204
 20
159.4874219514039
 30
0.0
 40
1.247565793493906
100
AcDbArc
 50
58.62554043701964
 51
121.3744595629848
  0
ARC
  5
2F8
330
52
100
AcDbEntity
  8
1
  6
Continuous
 62
     7
100
AcDbCircle
 10
190.8908992983871
 20
163.7127802155541
 30
0.0
 40
4.83831603094697
100
AcDbArc
 50
220.7804869854424
 51
267.6361660592546
  0
ARC
  5
2F9
330
52
100
AcDbEntity
  8
1
  6
Continuous
 62
     7
100
AcDbCircle
 10
192.3705606131167
 20
162.7208335672903
 30
0.0
 40
2.808410111839765
100
AcDbArc
 50
309.4607599906667
 51
314.9999999999967
  0
ARC
  5
2FA
330
52
100
AcDbEntity
  8
1
  6
Continuous
 62
     7
100
AcDbCircle
 10
190.4917867802418
 20
163.7127802155541
 30
0.0
 40
4.838316030946969
100
AcDbArc
 50
272.3638339407433
 51
319.2195130145576
  0
ARC
  5
2FB
330
52
100
AcDbEntity
  8
1
  6
Continuous
 62
     7
100
AcDbCircle
 10
74.35014993785188
 20
170.4683218289439
 30
0.0
 40
11.58974054545568
100
AcDbArc
 50
238.821952749159
 51
301.178045545059
  0
ARC
  5
2FC
330
52
100
AcDbEntity
  8
1
  6
Continuous
 62
     7
100
AcDbCircle
 10
60.85015017296769
 20
170.4683218404694
 30
0.0
 40
11.58974055698054
100
AcDbArc
 50
238.8219544708481
 51
301.1780455291566
  0
LINE
  5
2FD
330
52
100
AcDbEntity
  8
1
  6
Continuous
 62
     7
100
AcDbLine
 10
54.85015029220176
 20
160.5525723675881
 30
0.0
 11
54.85015058741095
 21
160.5525721889585
 31
0.0
  0
LINE
  5
2FE
330
52
100
AcDbEntity
  8
1
  6
Continuous
 62
     7
100
AcDbLine
 10
80.35014952019549
 20
160.5525721889585
 30
0.0
 11
80.35014981540183
 21
160.5525723675881
 31
0.0
  0
ARC
  5
2FF
330
52
100
AcDbEntity
  8
1
  6
Continuous
 62
     7
100
AcDbCircle
 10
67.6001500570465
 20
159.1019692364082
 30
0.0
 40
1.633018508490292
100
AcDbArc
 50
62.65984612627659
 51
117.3401538736756
  0
LINE
  5
300
330
52
100
AcDbEntity
  8
1
  6
Continuous
 62
     7
100
AcDbLine
 10
66.85014975852556
 20
160.5525721889585
 30
0.0
 11
66.85015005379279
 21
160.552572367624
 31
0.0
  0
ARC
  5
301
330
52
100
AcDbEntity
  8
1
  6
Continuous
 62
     7
100
AcDbCircle
 10
80.89918583521268
 20
159.8175324133758
 30
0.0
 40
0.9174553314707055
100
AcDbArc
 50
90.0
 51
126.7577886816774
  0
ARC
  5
302
330
52
100
AcDbEntity
  8
1
  6
Continuous
 62
     7
100
AcDbCircle
 10
80.89918583521268
 20
160.5330804602197
 30
0.0
 40
0.2019072846779648
100
AcDbArc
 50
5.53989950711875
 51
90.0
  0
ARC
  5
303
330
52
100
AcDbEntity
  8
1
  6
Continuous
 62
     7
100
AcDbCircle
 10
54.30111427239109
 20
160.5330804602197
 30
0.0
 40
0.2019072845817789
100
AcDbArc
 50
90.0
 51
174.4601004928813
  0
ARC
  5
304
330
52
100
AcDbEntity
  8
1
  6
Continuous
 62
     7
100
AcDbCircle
 10
54.30111427239109
 20
159.8175324133758
 30
0.0
 40
0.9174553315219116
100
AcDbArc
 50
53.2422113183311
 51
90.0
  0
ARC
  5
305
330
52
100
AcDbEntity
  8
1
  6
Continuous
 62
     7
100
AcDbCircle
 10
54.30111427239109
 20
169.9396301536007
 30
0.0
 40
0.917455331470677
100
AcDbArc
 50
270.0
 51
306.7577886816657
  0
ARC
  5
306
330
52
100
AcDbEntity
  8
1
  6
Continuous
 62
     7
100
AcDbCircle
 10
54.30111427239109
 20
169.2240821067567
 30
0.0
 40
0.2019072846779648
100
AcDbArc
 50
185.5398995071187
 51
270.0
  0
ARC
  5
307
330
52
100
AcDbEntity
  8
1
  6
Continuous
 62
     7
100
AcDbCircle
 10
80.89918583521268
 20
169.2240821067567
 30
0.0
 40
0.2019072845816083
100
AcDbArc
 50
270.0
 51
354.4601004928813
  0
ARC
  5
308
330
52
100
AcDbEntity
  8
1
  6
Continuous
 62
     7
100
AcDbCircle
 10
80.89918583521268
 20
169.9396301536007
 30
0.0
 40
0.917455331522082
100
AcDbArc
 50
233.2422113183258
 51
270.0
  0
ARC
  5
309
330
52
100
AcDbEntity
  8
1
  6
Continuous
 62
     7
100
AcDbCircle
 10
60.85015017296769
 20
159.288840726507
 30
0.0
 40
11.5897405569813
100
AcDbArc
 50
58.82195276471301
 51
121.1780472349451
  0
ARC
  5
30A
330
52
100
AcDbEntity
  8
1
  6
Continuous
 62
     7
100
AcDbCircle
 10
67.6001500570465
 20
170.6551933305684
 30
0.0
 40
1.633018508489764
100
AcDbArc
 50
242.6598461263276
 51
297.3401538737202
  0
ARC
  5
30B
330
52
100
AcDbEntity
  8
1
  6
Continuous
 62
     7
100
AcDbCircle
 10
74.35014993785188
 20
159.2888407380326
 30
0.0
 40
11.5897405454555
100
AcDbArc
 50
58.82195274915937
 51
121.1780472508414
  0
ARC
  5
30C
330
52
100
AcDbEntity
  8
1
  6
Continuous
 62
     7
100
AcDbCircle
 10
74.65015005379081
 20
93.22858128348842
 30
0.0
 40
5.249999999999963
100
AcDbArc
 50
28.66738843356489
 51
90.0
  0
ARC
  5
30D
330
52
100
AcDbEntity
  8
1
  6
Continuous
 62
     7
100
AcDbCircle
 10
60.55015005379084
 20
93.22858128348842
 30
0.0
 40
5.250000000000006
100
AcDbArc
 50
151.3326115664354
 51
180.0
  0
ARC
  5
30E
330
52
100
AcDbEntity
  8
1
  6
Continuous
 62
     7
100
AcDbCircle
 10
60.55015005379084
 20
93.22858128348842
 30
0.0
 40
5.25
100
AcDbArc
 50
90.0
 51
151.3326115664354
  0
ARC
  5
30F
330
52
100
AcDbEntity
  8
1
  6
Continuous
 62
     7
100
AcDbCircle
 10
74.65015005379081
 20
93.22858128348842
 30
0.0
 40
5.25
100
AcDbArc
 50
0.0
 51
28.66738843356489
  0
ARC
  5
310
330
52
100
AcDbEntity
  8
1
  6
Continuous
 62
     7
100
AcDbCircle
 10
166.6500000000007
 20
181.8285812834883
 30
0.0
 40
5.24999999999999
100
AcDbArc
 50
241.3326115664346
 51
270.0
  0
ARC
  5
311
330
52
100
AcDbEntity
  8
1
  6
Continuous
 62
     7
100
AcDbCircle
 10
166.6500000000007
 20
195.9285812834883
 30
0.0
 40
5.24999999999999
100
AcDbArc
 50
118.6673884335654
 51
180.0
  0
ARC
  5
312
330
52
100
AcDbEntity
  8
1
  6
Continuous
 62
     7
100
AcDbCircle
 10
166.6500000000007
 20
181.8285812834883
 30
0.0
 40
5.25
100
AcDbArc
 50
180.0
 51
241.3326115664346
  0
ARC
  5
313
330
52
100
AcDbEntity
  8
1
  6
Continuous
 62
     7
100
AcDbCircle
 10
166.6500000000007
 20
195.9285812834883
 30
0.0
 40
5.25
100
AcDbArc
 50
90.0
 51
118.6673884335654
  0
CIRCLE
  5
314
330
52
100
AcDbEntity
  8
1
  6
Continuous
 62
     7
100
AcDbCircle
 10
67.6001500537908
 20
80.87858128348823
 30
0.0
 40
9.533016130049987
  0
CIRCLE
  5
315
330
52
100
AcDbEntity
  8
1
  6
Continuous
 62
     2
100
AcDbCircle
 10
67.6001500537908
 20
80.87858128348823
 30
0.0
 40
10.73250000000013
  0
CIRCLE
  5
316
330
52
100
AcDbEntity
  8
1
  6
Continuous
 62
     7
100
AcDbCircle
 10
67.6001500537908
 20
80.87858128348823
 30
0.0
 40
13.5
  0
ARC
  5
317
330
52
100
AcDbEntity
  8
1
  6
Continuous
 62
     7
100
AcDbCircle
 10
62.58306482822803
 20
76.362902393247
 30
0.0
 40
1.999999999999924
100
AcDbArc
 50
93.00000000000082
 51
221.9891190790027
  0
ARC
  5
318
330
52
100
AcDbEntity
  8
1
  6
Continuous
 62
     7
100
AcDbCircle
 10
72.61723527935362
 20
76.362902393247
 30
0.0
 40
2.000000000000071
100
AcDbArc
 50
318.0108809209975
 51
86.99999999999918
  0
ARC
  5
319
330
52
100
AcDbEntity
  8
1
  6
Continuous
 62
     7
100
AcDbCircle
 10
67.6001500537908
 20
94.73498774403923
 30
0.0
 40
1.500000000000074
100
AcDbArc
 50
60.00000000000163
 51
119.9999999999984
  0
ARC
  5
31A
330
52
100
AcDbEntity
  8
1
  6
Continuous
 62
     7
100
AcDbCircle
 10
55.6001500537908
 20
87.80678451376376
 30
0.0
 40
1.499999999999926
100
AcDbArc
 50
120.0000000000016
 51
180.0
  0
ARC
  5
31B
330
52
100
AcDbEntity
  8
1
  6
Continuous
 62
     7
100
AcDbCircle
 10
55.6001500537908
 20
73.95037805321276
 30
0.0
 40
1.5
100
AcDbArc
 50
180.0
 51
240.0000000000009
  0
ARC
  5
31C
330
52
100
AcDbEntity
  8
1
  6
Continuous
 62
     7
100
AcDbCircle
 10
67.6001500537908
 20
67.02217482293723
 30
0.0
 40
1.499999999999926
100
AcDbArc
 50
239.9999999999984
 51
300.0000000000016
  0
ARC
  5
31D
330
52
100
AcDbEntity
  8
1
  6
Continuous
 62
     7
100
AcDbCircle
 10
79.6001500537908
 20
73.95037805321276
 30
0.0
 40
1.500000000000037
100
AcDbArc
 50
299.9999999999991
 51
0.0
  0
ARC
  5
31E
330
52
100
AcDbEntity
  8
1
  6
Continuous
 62
     7
100
AcDbCircle
 10
79.6001500537908
 20
87.80678451376376
 30
0.0
 40
1.5
100
AcDbArc
 50
0.0
 51
59.99999999999838
  0
ARC
  5
31F
330
52
100
AcDbEntity
  8
1
  6
Continuous
 62
     7
100
AcDbCircle
 10
81.45015005379082
 20
96.94644357249267
 30
0.0
 40
2.5
100
AcDbArc
 50
180.0
 51
208.667388433564
  0
ARC
  5
320
330
52
100
AcDbEntity
  8
1
  6
Continuous
 62
     7
100
AcDbCircle
 10
53.75015005379083
 20
96.94644357249267
 30
0.0
 40
2.49999999999999
100
AcDbArc
 50
331.3326115664354
 51
0.0
  0
ARC
  5
321
330
52
100
AcDbEntity
  8
1
  6
Continuous
 62
     7
100
AcDbCircle
 10
162.9321377109964
 20
175.0285812834883
 30
0.0
 40
2.500000000000015
100
AcDbArc
 50
61.33261156643574
 51
90.0
  0
ARC
  5
322
330
52
100
AcDbEntity
  8
1
  6
Continuous
 62
     7
100
AcDbCircle
 10
162.9321377109964
 20
202.7285812834883
 30
0.0
 40
2.5
100
AcDbArc
 50
270.0
 51
298.6673884335643
  0
ARC
  5
323
330
52
100
AcDbEntity
  8
1
  6
Continuous
 62
     7
100
AcDbCircle
 10
164.4999999996009
 20
203.3743854709674
 30
0.0
 40
2.500000000000029
100
AcDbArc
 50
286.1062439463095
 51
0.0
  0
ARC
  5
324
330
52
100
AcDbEntity
  8
1
  6
Continuous
 62
     7
100
AcDbCircle
 10
164.4999999996009
 20
174.3827770960092
 30
0.0
 40
2.5
100
AcDbArc
 50
0.0
 51
73.89375605369048
  0
ARC
  5
325
330
52
100
AcDbEntity
  8
1
  6
Continuous
 62
     7
100
AcDbCircle
 10
164.4999999996009
 20
173.4141151767982
 30
0.0
 40
2.49999999999988
100
AcDbArc
 50
314.9999999999968
 51
0.0
  0
ARC
  5
326
330
52
100
AcDbEntity
  8
1
  6
Continuous
 62
     7
100
AcDbCircle
 10
193.4999999982009
 20
173.4141151894043
 30
0.0
 40
2.5
100
AcDbArc
 50
180.0
 51
225.0000000000018
  0
ARC
  5
327
330
52
100
AcDbEntity
  8
1
  6
Continuous
 62
     7
100
AcDbCircle
 10
53.10015005380257
 20
173.4141151894216
 30
0.0
 40
2.500000000000056
100
AcDbArc
 50
314.9999999999971
 51
0.0
  0
ARC
  5
328
330
52
100
AcDbEntity
  8
1
  6
Continuous
 62
     7
100
AcDbCircle
 10
82.10015005580186
 20
173.4141151874209
 30
0.0
 40
2.5
100
AcDbArc
 50
179.9999999223271
 51
224.9999999999986
  0
ENDBLK
  5
54
330
52
100
AcDbEntity
  8
0
100
AcDbBlockEnd
  0
BLOCK
  5
365
330
35E
100
AcDbEntity
  8
0
100
AcDbBlockBegin
  2
*D5
 70
     1
 10
0.0
 20
0.0
 30
0.0
  3
*D5
  1

  0
LINE
  5
35F
330
35E
100
AcDbEntity
  8
1
  6
Continuous
 62
     2
100
AcDbLine
 10
41.6001500538256
 20
188.8785812834883
 30
0.0
 11
41.6001500538256
 21
158.8785812834881
 31
0.0
  0
LINE
  5
360
330
35E
100
AcDbEntity
  8
1
  6
Continuous
 62
     2
100
AcDbLine
 10
54.10015005380188
 20
158.8785812834881
 30
0.0
 11
40.6001500538256
 21
158.8785812834881
 31
0.0
  0
LINE
  5
361
330
35E
100
AcDbEntity
  8
1
  6
Continuous
 62
     2
100
AcDbLine
 10
48.60015005382549
 20
188.8785812834883
 30
0.0
 11
40.6001500538256
 21
188.8785812834883
 31
0.0
  0
SOLID
  5
362
330
35E
100
AcDbEntity
  8
1
 62
     2
100
AcDbTrace
 10
42.06093379538149
 20
185.3785812834883
 30
0.0
 11
41.13936631226971
 21
185.3785812834883
 31
0.0
 12
41.6001500538256
 22
188.8785812834883
 32
0.0
 13
41.6001500538256
 23
188.8785812834883
 33
0.0
  0
SOLID
  5
363
330
35E
100
AcDbEntity
  8
1
 62
     2
100
AcDbTrace
 10
41.13936631226971
 20
162.3785812834881
 30
0.0
 11
42.06093379538149
 21
162.3785812834881
 31
0.0
 12
41.6001500538256
 22
158.8785812834881
 32
0.0
 13
41.6001500538256
 23
158.8785812834881
 33
0.0
  0
MTEXT
  5
364
330
35E
100
AcDbEntity
  8
1
 62
     7
100
AcDbMText
 10
40.6001500538256
 20
171.2535812834882
 30
0.0
 40
3.5
 41
0.0
 71
     7
 72
     1
  1
30
  7
CONVERTER_12
 11
0.0
 21
1.0
 31
0.0
 73
     1
 44
0.60024009603842
  0
ENDBLK
  5
366
330
35E
100
AcDbEntity
  8
0
100
AcDbBlockEnd
  0
BLOCK
  5
370
330
369
100
AcDbEntity
  8
0
100
AcDbBlockBegin
  2
*D6
 70
     1
 10
0.0
 20
0.0
 30
0.0
  3
*D6
  1

  0
LINE
  5
36A
330
369
100
AcDbEntity
  8
1
  6
Continuous
 62
     2
100
AcDbLine
 10
93.6001500537522
 20
139.5785811195011
 30
0.0
 11
93.6001500537522
 21
80.87858128348817
 31
0.0
  0
LINE
  5
36B
330
369
100
AcDbEntity
  8
1
  6
Continuous
 62
     2
100
AcDbLine
 10
67.59387339226555
 20
139.5785811195011
 30
0.0
 11
94.6001500537522
 21
139.5785811195011
 31
0.0
  0
LINE
  5
36C
330
369
100
AcDbEntity
  8
1
  6
Continuous
 62
     2
100
AcDbLine
 10
84.1001500537908
 20
80.87858128348817
 30
0.0
 11
94.6001500537522
 21
80.87858128348817
 31
0.0
  0
SOLID
  5
36D
330
369
100
AcDbEntity
  8
1
 62
     2
100
AcDbTrace
 10
94.06093379530809
 20
136.0785811195011
 30
0.0
 11
93.13936631219632
 21
136.0785811195011
 31
0.0
 12
93.6001500537522
 22
139.5785811195011
 32
0.0
 13
93.6001500537522
 23
139.5785811195011
 33
0.0
  0
SOLID
  5
36E
330
369
100
AcDbEntity
  8
1
 62
     2
100
AcDbTrace
 10
93.13936631219632
 20
84.37858128348817
 30
0.0
 11
94.06093379530809
 21
84.37858128348817
 31
0.0
 12
93.6001500537522
 22
80.87858128348817
 32
0.0
 13
93.6001500537522
 23
80.87858128348817
 33
0.0
  0
MTEXT
  5
36F
330
369
100
AcDbEntity
  8
1
 62
     7
100
AcDbMText
 10
92.6001500537522
 20
107.6035812014173
 30
0.0
 40
3.5
 41
0.0
 71
     7
 72
     1
  1
59
  7
CONVERTER_12
 11
0.0
 21
1.0
 31
0.0
 73
     1
 44
0.60024009603842
  0
ENDBLK
  5
371
330
369
100
AcDbEntity
  8
0
100
AcDbBlockEnd
  0
BLOCK
  5
37B
330
374
100
AcDbEntity
  8
0
100
AcDbBlockBegin
  2
*D7
 70
     1
 10
0.0
 20
0.0
 30
0.0
  3
*D7
  1

  0
LINE
  5
375
330
374
100
AcDbEntity
  8
1
  6
Continuous
 62
     2
100
AcDbLine
 10
33.60015005382549
 20
158.8785812834881
 30
0.0
 11
33.60015005382549
 21
225.8785812834882
 31
0.0
  0
LINE
  5
376
330
374
100
AcDbEntity
  8
1
  6
Continuous
 62
     2
100
AcDbLine
 10
58.26215005380249
 20
225.8785812834882
 30
0.0
 11
32.60015005382549
 21
225.8785812834882
 31
0.0
  0
LINE
  5
377
330
374
100
AcDbEntity
  8
1
  6
Continuous
 62
     2
100
AcDbLine
 10
54.10015005380189
 20
158.8785812834881
 30
0.0
 11
32.60015005382549
 21
158.8785812834881
 31
0.0
  0
SOLID
  5
378
330
374
100
AcDbEntity
  8
1
 62
     2
100
AcDbTrace
 10
33.1393663122696
 20
162.3785812834881
 30
0.0
 11
34.06093379538137
 21
162.3785812834881
 31
0.0
 12
33.60015005382549
 22
158.8785812834881
 32
0.0
 13
33.60015005382549
 23
158.8785812834881
 33
0.0
  0
SOLID
  5
379
330
374
100
AcDbEntity
  8
1
 62
     2
100
AcDbTrace
 10
34.06093379538137
 20
222.3785812834882
 30
0.0
 11
33.1393663122696
 21
222.3785812834882
 31
0.0
 12
33.60015005382549
 22
225.8785812834882
 32
0.0
 13
33.60015005382549
 23
225.8785812834882
 33
0.0
  0
MTEXT
  5
37A
330
374
100
AcDbEntity
  8
1
 62
     7
100
AcDbMText
 10
32.60015005382549
 20
189.7535812834882
 30
0.0
 40
3.5
 41
0.0
 71
     7
 72
     1
  1
67
  7
CONVERTER_12
 11
0.0
 21
1.0
 31
0.0
 73
     1
 44
0.60024009603842
  0
ENDBLK
  5
37C
330
374
100
AcDbEntity
  8
0
100
AcDbBlockEnd
  0
BLOCK
  5
386
330
37F
100
AcDbEntity
  8
0
100
AcDbBlockBegin
  2
*D8
 70
     1
 10
0.0
 20
0.0
 30
0.0
  3
*D8
  1

  0
LINE
  5
380
330
37F
100
AcDbEntity
  8
1
  6
Continuous
 62
     2
100
AcDbLine
 10
41.60015005382549
 20
225.8785812834883
 30
0.0
 11
41.60015005382549
 21
206.8785812834883
 31
0.0
  0
LINE
  5
381
330
37F
100
AcDbEntity
  8
1
  6
Continuous
 62
     2
100
AcDbLine
 10
55.60015005380245
 20
206.8785812834883
 30
0.0
 11
40.60015005382549
 21
206.8785812834883
 31
0.0
  0
LINE
  5
382
330
37F
100
AcDbEntity
  8
1
  6
Continuous
 62
     2
100
AcDbLine
 10
58.26215005380249
 20
225.8785812834883
 30
0.0
 11
40.60015005382549
 21
225.8785812834883
 31
0.0
  0
SOLID
  5
383
330
37F
100
AcDbEntity
  8
1
 62
     2
100
AcDbTrace
 10
42.06093379538137
 20
222.3785812834883
 30
0.0
 11
41.1393663122696
 21
222.3785812834883
 31
0.0
 12
41.60015005382549
 22
225.8785812834883
 32
0.0
 13
41.60015005382549
 23
225.8785812834883
 33
0.0
  0
SOLID
  5
384
330
37F
100
AcDbEntity
  8
1
 62
     2
100
AcDbTrace
 10
41.1393663122696
 20
210.3785812834883
 30
0.0
 11
42.06093379538137
 21
210.3785812834883
 31
0.0
 12
41.60015005382549
 22
206.8785812834883
 32
0.0
 13
41.60015005382549
 23
206.8785812834883
 33
0.0
  0
MTEXT
  5
385
330
37F
100
AcDbEntity
  8
1
 62
     7
100
AcDbMText
 10
40.60015005382549
 20
214.2785812834883
 30
0.0
 40
3.5
 41
0.0
 71
     7
 72
     1
  1
19
  7
CONVERTER_12
 11
0.0
 21
1.0
 31
0.0
 73
     1
 44
0.60024009603842
  0
ENDBLK
  5
387
330
37F
100
AcDbEntity
  8
0
100
AcDbBlockEnd
  0
BLOCK
  5
391
330
38A
100
AcDbEntity
  8
0
100
AcDbBlockBegin
  2
*D9
 70
     1
 10
0.0
 20
0.0
 30
0.0
  3
*D9
  1

  0
LINE
  5
38B
330
38A
100
AcDbEntity
  8
1
  6
Continuous
 62
     2
100
AcDbLine
 10
55.60015005380245
 20
235.8785812834883
 30
0.0
 11
79.6001501581024
 21
235.8785812834883
 31
0.0
  0
LINE
  5
38C
330
38A
100
AcDbEntity
  8
1
  6
Continuous
 62
     2
100
AcDbLine
 10
79.6001501581024
 20
206.8785808065884
 30
0.0
 11
79.6001501581024
 21
236.8785812834883
 31
0.0
  0
LINE
  5
38D
330
38A
100
AcDbEntity
  8
1
  6
Continuous
 62
     2
100
AcDbLine
 10
55.60015005380245
 20
206.8785812834883
 30
0.0
 11
55.60015005380245
 21
236.8785812834883
 31
0.0
  0
SOLID
  5
38E
330
38A
100
AcDbEntity
  8
1
 62
     2
100
AcDbTrace
 10
59.10015005380245
 20
236.3393650250442
 30
0.0
 11
59.10015005380245
 21
235.4177975419324
 31
0.0
 12
55.60015005380245
 22
235.8785812834883
 32
0.0
 13
55.60015005380245
 23
235.8785812834883
 33
0.0
  0
SOLID
  5
38F
330
38A
100
AcDbEntity
  8
1
 62
     2
100
AcDbTrace
 10
76.1001501581024
 20
235.4177975419324
 30
0.0
 11
76.1001501581024
 21
236.3393650250442
 31
0.0
 12
79.6001501581024
 22
235.8785812834883
 32
0.0
 13
79.6001501581024
 23
235.8785812834883
 33
0.0
  0
MTEXT
  5
390
330
38A
100
AcDbEntity
  8
1
 62
     7
100
AcDbMText
 10
64.9751500537908
 20
236.8785812834883
 30
0.0
 40
3.5
 41
0.0
 71
     7
 72
     1
  1
24
  7
CONVERTER_12
 11
0.9999999999970619
 21
2.424068405545306E-6
 31
0.0
 73
     1
 44
0.60024009603842
  0
ENDBLK
  5
392
330
38A
100
AcDbEntity
  8
0
100
AcDbBlockEnd
  0
BLOCK
  5
39C
330
395
100
AcDbEntity
  8
0
100
AcDbBlockBegin
  2
*D10
 70
     1
 10
0.0
 20
0.0
 30
0.0
  3
*D10
  1

  0
LINE
  5
396
330
395
100
AcDbEntity
  8
1
  6
Continuous
 62
     2
100
AcDbLine
 10
54.1001500537908
 20
55.67359968558702
 30
0.0
 11
81.1001500537908
 21
55.67359968558702
 31
0.0
  0
LINE
  5
397
330
395
100
AcDbEntity
  8
1
  6
Continuous
 62
     2
100
AcDbLine
 10
81.1001500537908
 20
73.95037805321276
 30
0.0
 11
81.1001500537908
 21
54.67359968558702
 31
0.0
  0
LINE
  5
398
330
395
100
AcDbEntity
  8
1
  6
Continuous
 62
     2
100
AcDbLine
 10
54.1001500537908
 20
73.95037805321276
 30
0.0
 11
54.1001500537908
 21
54.67359968558702
 31
0.0
  0
SOLID
  5
399
330
395
100
AcDbEntity
  8
1
 62
     2
100
AcDbTrace
 10
57.6001500537908
 20
56.13438342714291
 30
0.0
 11
57.6001500537908
 21
55.21281594403114
 31
0.0
 12
54.1001500537908
 22
55.67359968558702
 32
0.0
 13
54.1001500537908
 23
55.67359968558702
 33
0.0
  0
SOLID
  5
39A
330
395
100
AcDbEntity
  8
1
 62
     2
100
AcDbTrace
 10
77.6001500537908
 20
55.21281594403114
 30
0.0
 11
77.6001500537908
 21
56.13438342714291
 31
0.0
 12
81.1001500537908
 22
55.67359968558702
 32
0.0
 13
81.1001500537908
 23
55.67359968558702
 33
0.0
  0
MTEXT
  5
39B
330
395
100
AcDbEntity
  8
1
 62
     7
100
AcDbMText
 10
64.9751500537908
 20
56.67359968558702
 30
0.0
 40
3.5
 41
0.0
 71
     7
 72
     1
  1
27
  7
CONVERTER_12
 11
0.9999999999970619
 21
2.424068405545306E-6
 31
0.0
 73
     1
 44
0.60024009603842
  0
ENDBLK
  5
39D
330
395
100
AcDbEntity
  8
0
100
AcDbBlockEnd
  0
ENDSEC
  0
SECTION
  2
ENTITIES
  0
INSERT
  5
55
330
1F
100
AcDbEntity
  8
1
100
AcDbBlockReference
  2
81-196
 10
255.1001500537906
 20
-12.62141871635649
 30
0.0
  0
INSERT
  5
56
330
1F
100
AcDbEntity
  8
1
100
AcDbBlockReference
  2
開示A4
 10
0.0
 20
0.0
 30
0.0
  0
INSERT
  5
57
330
1F
100
AcDbEntity
  8
1
100
AcDbBlockReference
  2
V2113-0-13-M11
 10
210.0
 20
0.0
 30
0.0
  0
LINE
  5
329
330
1F
100
AcDbEntity
  8
1
  6
DASH_CENTER
 62
     2
100
AcDbLine
 10
179.0000000000008
 20
228.8785812834884
 30
0.0
 11
179.0000000000008
 21
155.8785812834884
 31
0.0
  0
LINE
  5
32A
330
1F
100
AcDbEntity
  8
1
  6
DASH_CENTER
 62
     2
100
AcDbLine
 10
194.0000000000007
 20
188.8785812834884
 30
0.0
 11
117.2000001641431
 21
188.8785812834888
 31
0.0
  0
LINE
  5
32B
330
1F
100
AcDbEntity
  8
1
  6
DASH_CENTER
 62
     2
100
AcDbLine
 10
67.6001500537908
 20
64.37858128348807
 30
0.0
 11
67.6001500537908
 21
142.6785811193462
 31
0.0
  0
LINE
  5
32C
330
1F
100
AcDbEntity
  8
1
  6
DASH_CENTER
 62
     2
100
AcDbLine
 10
84.1001500537908
 20
80.87858128348823
 30
0.0
 11
49.2437435932398
 21
80.87858128348819
 31
0.0
  0
LINE
  5
32D
330
1F
100
AcDbEntity
  8
1
  6
DASH_CENTER
 62
     2
100
AcDbLine
 10
67.6001500537908
 20
228.8785812834884
 30
0.0
 11
67.60015005379091
 21
155.8785812834884
 31
0.0
  0
LINE
  5
32E
330
1F
100
AcDbEntity
  8
1
  6
DASH_CENTER
 62
     2
100
AcDbLine
 10
48.60015005382549
 20
188.8785812834884
 30
0.0
 11
86.60015005375611
 21
188.8785812834882
 31
0.0
  0
LINE
  5
32F
102
{ACAD_REACTORS
330
3A0
102
}
330
1F
100
AcDbEntity
  8
1
  6
Continuous
 62
     7
100
AcDbLine
 10
155.0432400399845
 20
226.8785812834883
 30
0.0
 11
152.2328400399847
 21
226.8785812834883
 31
0.0
  0
LINE
  5
330
102
{ACAD_REACTORS
330
3A0
102
}
330
1F
100
AcDbEntity
  8
1
  6
Continuous
 62
     7
100
AcDbLine
 10
155.0432400399845
 20
232.6565407504043
 30
0.0
 11
155.0432400399845
 21
226.8785812834883
 31
0.0
  0
LINE
  5
331
102
{ACAD_REACTORS
330
3A0
102
}
330
1F
100
AcDbEntity
  8
1
  6
Continuous
 62
     7
100
AcDbLine
 10
156.1361733733181
 20
232.6565407504043
 30
0.0
 11
155.0432400399845
 21
232.6565407504043
 31
0.0
  0
LINE
  5
332
102
{ACAD_REACTORS
330
3A0
102
}
330
1F
100
AcDbEntity
  8
1
  6
Continuous
 62
     7
100
AcDbLine
 10
153.6380400399846
 20
236.0914740837377
 30
0.0
 11
156.1361733733181
 21
232.6565407504043
 31
0.0
  0
LINE
  5
333
102
{ACAD_REACTORS
330
3A0
102
}
330
1F
100
AcDbEntity
  8
1
  6
Continuous
 62
     7
100
AcDbLine
 10
151.1399067066517
 20
232.6565407504043
 30
0.0
 11
153.6380400399846
 21
236.0914740837377
 31
0.0
  0
LINE
  5
334
102
{ACAD_REACTORS
330
3A0
102
}
330
1F
100
AcDbEntity
  8
1
  6
Continuous
 62
     7
100
AcDbLine
 10
152.2328400399847
 20
232.6565407504043
 30
0.0
 11
151.1399067066517
 21
232.6565407504043
 31
0.0
  0
LINE
  5
335
102
{ACAD_REACTORS
330
3A0
102
}
330
1F
100
AcDbEntity
  8
1
  6
Continuous
 62
     7
100
AcDbLine
 10
152.2328400399847
 20
226.8785812834883
 30
0.0
 11
152.2328400399847
 21
232.6565407504043
 31
0.0
  0
LINE
  5
336
330
1F
100
AcDbEntity
  8
1
  6
Continuous
 62
     7
100
AcDbLine
 10
115.0
 20
124.474630376607
 30
0.0
 11
115.0
 21
117.474630376607
 31
0.0
  0
LINE
  5
337
330
1F
100
AcDbEntity
  8
1
  6
Continuous
 62
     7
100
AcDbLine
 10
115.0
 20
96.474630376607
 30
0.0
 11
145.0
 21
96.474630376607
 31
0.0
  0
LINE
  5
338
330
1F
100
AcDbEntity
  8
1
  6
Continuous
 62
     7
100
AcDbLine
 10
165.0
 20
96.474630376607
 30
0.0
 11
165.0
 21
103.474630376607
 31
0.0
  0
LINE
  5
339
330
1F
100
AcDbEntity
  8
1
  6
Continuous
 62
     7
100
AcDbLine
 10
165.0
 20
124.474630376607
 30
0.0
 11
145.0
 21
124.474630376607
 31
0.0
  0
LINE
  5
33A
330
1F
100
AcDbEntity
  8
1
  6
Continuous
 62
     2
100
AcDbLine
 10
115.0
 20
117.474630376607
 30
0.0
 11
165.0
 21
117.474630376607
 31
0.0
  0
LINE
  5
33B
330
1F
100
AcDbEntity
  8
1
  6
Continuous
 62
     7
100
AcDbLine
 10
115.0
 20
117.474630376607
 30
0.0
 11
115.0
 21
110.474630376607
 31
0.0
  0
LINE
  5
33C
330
1F
100
AcDbEntity
  8
1
  6
Continuous
 62
     7
100
AcDbLine
 10
165.0
 20
117.474630376607
 30
0.0
 11
165.0
 21
124.474630376607
 31
0.0
  0
LINE
  5
33D
330
1F
100
AcDbEntity
  8
1
  6
Continuous
 62
     2
100
AcDbLine
 10
115.0
 20
110.474630376607
 30
0.0
 11
165.0
 21
110.474630376607
 31
0.0
  0
LINE
  5
33E
330
1F
100
AcDbEntity
  8
1
  6
Continuous
 62
     7
100
AcDbLine
 10
165.0
 20
110.474630376607
 30
0.0
 11
165.0
 21
117.474630376607
 31
0.0
  0
LINE
  5
33F
330
1F
100
AcDbEntity
  8
1
  6
Continuous
 62
     7
100
AcDbLine
 10
115.0
 20
110.474630376607
 30
0.0
 11
115.0
 21
103.474630376607
 31
0.0
  0
LINE
  5
340
330
1F
100
AcDbEntity
  8
1
  6
Continuous
 62
     2
100
AcDbLine
 10
115.0
 20
103.474630376607
 30
0.0
 11
165.0
 21
103.474630376607
 31
0.0
  0
LINE
  5
341
330
1F
100
AcDbEntity
  8
1
  6
Continuous
 62
     7
100
AcDbLine
 10
165.0
 20
103.474630376607
 30
0.0
 11
165.0
 21
110.474630376607
 31
0.0
  0
LINE
  5
342
330
1F
100
AcDbEntity
  8
1
  6
Continuous
 62
     7
100
AcDbLine
 10
115.0
 20
103.474630376607
 30
0.0
 11
115.0
 21
96.474630376607
 31
0.0
  0
LINE
  5
343
330
1F
100
AcDbEntity
  8
1
  6
Continuous
 62
     2
100
AcDbLine
 10
145.0
 20
96.474630376607
 30
0.0
 11
145.0
 21
124.474630376607
 31
0.0
  0
LINE
  5
344
330
1F
100
AcDbEntity
  8
1
  6
Continuous
 62
     7
100
AcDbLine
 10
145.0
 20
96.474630376607
 30
0.0
 11
165.0
 21
96.474630376607
 31
0.0
  0
LINE
  5
345
330
1F
100
AcDbEntity
  8
1
  6
Continuous
 62
     7
100
AcDbLine
 10
145.0
 20
124.474630376607
 30
0.0
 11
115.0
 21
124.474630376607
 31
0.0
  0
SOLID
  5
346
330
1F
100
AcDbEntity
  8
1
 62
     2
100
AcDbTrace
 10
79.45109962796215
 20
220.0653835867093
 30
0.0
 11
80.24920047963863
 21
219.6045998451534
 31
0.0
 12
78.1001500538004
 22
216.8039028026858
 32
0.0
 13
78.1001500538004
 23
216.8039028026858
 33
0.0
  0
LEADER
  5
347
330
1F
100
AcDbEntity
  8
1
  6
Continuous
 62
     2
100
AcDbLeader
  3
Standard
 71
     0
 76
     3
 10
78.1001500538004
 20
216.8039028026858
 30
0.0
 10
84.30666544758873
 20
227.5539028026856
 30
0.0
 10
96.30666544758873
 20
227.5539028026856
 30
0.0
  0
SOLID
  5
348
330
1F
100
AcDbEntity
  8
1
 62
     2
100
AcDbTrace
 10
168.3940990021115
 20
155.6171004994649
 30
0.0
 11
167.595998150435
 21
156.0778842410208
 31
0.0
 12
169.7450485762732
 22
158.8785812834884
 32
0.0
 13
169.7450485762732
 23
158.8785812834884
 33
0.0
  0
LEADER
  5
349
330
1F
100
AcDbEntity
  8
1
  6
Continuous
 62
     2
100
AcDbLeader
  3
Standard
 71
     0
 76
     3
 10
169.7450485762732
 20
158.8785812834884
 30
0.0
 10
164.3484848646083
 20
149.5314587486024
 30
0.0
 10
148.3484848646083
 20
149.5314587486024
 30
0.0
  0
CIRCLE
  5
34A
102
{ACAD_REACTORS
330
34B
102
}
330
1F
100
AcDbEntity
  8
1
 62
     2
100
AcDbCircle
 10
179.0000000000008
 20
188.8785812834883
 30
0.0
 40
0.875
  0
HATCH
  5
34B
330
1F
100
AcDbEntity
  8
1
 62
     2
100
AcDbHatch
 10
0.0
 20
0.0
 30
0.0
210
0.0
220
0.0
230
1.0
  2
SOLID
 70
     1
 71
     1
 91
        1
 92
        1
 93
        1
 72
     2
 10
179.0000000000008
 20
188.8785812834883
 40
0.875
 50
0.0
 51
360.0
 73
     1
 97
        1
330
34A
 75
     0
 76
     1
 98
        0
  0
LEADER
  5
34C
330
1F
100
AcDbEntity
  8
1
  6
Continuous
 62
     2
100
AcDbLeader
  3
Standard
 71
     0
 76
     3
 10
179.0000000000008
 20
188.8785812834883
 30
0.0
 10
157.6380400399847
 20
225.8785812834883
 30
0.0
 10
149.6380400399847
 20
225.8785812834883
 30
0.0
  0
MTEXT
  5
34D
330
1F
100
AcDbEntity
  8
1
 62
     7
100
AcDbMText
 10
34.0
 20
34.00000000000001
 30
0.0
 40
3.5
 41
0.0
 71
     4
 72
     1
  1
JIS 共用形    ハンドルはノンリフト
  7
CONVERTER_11
 73
     1
 44
0.54545454545455
  0
MTEXT
  5
34F
330
1F
100
AcDbEntity
  8
1
 62
     7
100
AcDbMText
 10
156.3484848646083
 20
152.5314587486024
 30
0.0
 40
3.5
 41
0.0
 71
     5
 72
     1
  1
Rc1/2
  7
CONVERTER_12
 73
     1
 44
0.7202881152461
  0
MTEXT
  5
350
330
1F
100
AcDbEntity
  8
1
 62
     7
100
AcDbMText
 10
90.30666544758873
 20
230.5539028026856
 30
0.0
 40
3.5
 41
0.0
 71
     5
 72
     1
  1
G1/2
  7
CONVERTER_12
 73
     1
 44
0.7202881152461
  0
MTEXT
  5
351
330
1F
100
AcDbEntity
  8
1
 62
     7
100
AcDbMText
 10
57.0
 20
22.75
 30
0.0
 40
3.5
 41
0.0
 71
     5
 72
     1
  1
スマートヘッダー
  7
CONVERTER_11
 73
     1
 44
0.54545454545455
  0
MTEXT
  5
352
330
1F
100
AcDbEntity
  8
1
 62
     7
100
AcDbMText
 10
57.0
 20
14.25
 30
0.0
 40
3.5
 41
0.0
 71
     5
 72
     1
  1
V2113-13-(色)
  7
CONVERTER_11
 73
     1
 44
0.54545454545455
  0
MTEXT
  5
353
330
1F
100
AcDbEntity
  8
1
 62
     7
100
AcDbMText
 10
93.75
 20
17.0
 30
0.0
 40
3.5
 41
0.0
 71
     5
 72
     1
  1
1
  7
CONVERTER_12
 73
     1
 44
0.7202881152461
  0
MTEXT
  5
354
330
1F
100
AcDbEntity
  8
1
 62
     7
100
AcDbMText
 10
85.25
 20
17.0
 30
0.0
 40
3.5
 41
0.0
 71
     5
 72
     1
  1
1
  7
CONVERTER_12
 73
     1
 44
0.7202881152461
  0
MTEXT
  5
355
330
1F
100
AcDbEntity
  8
1
 62
     7
100
AcDbMText
 10
130.0
 20
120.974630376607
 30
0.0
 40
3.0
 41
0.0
 71
     5
 72
     1
  1
製品番号
  7
CONVERTER_11
 73
     1
 44
0.54545454545455
  0
MTEXT
  5
356
330
1F
100
AcDbEntity
  8
1
 62
     2
100
AcDbMText
 10
155.0
 20
122.724630376607
 30
0.0
 40
2.5
 41
0.0
 71
     5
 72
     1
  1
ハンドルの
  7
CONVERTER_11
 73
     1
 44
0.54545454545455
  0
MTEXT
  5
357
330
1F
100
AcDbEntity
  8
1
 62
     2
100
AcDbMText
 10
155.0
 20
119.224630376607
 30
0.0
 40
2.5
 41
0.0
 71
     5
 72
     1
  1
印刷色
  7
CONVERTER_11
 73
     1
 44
0.54545454545455
  0
MTEXT
  5
358
330
1F
100
AcDbEntity
  8
1
 62
     7
100
AcDbMText
 10
155.0
 20
113.974630376607
 30
0.0
 40
3.0
 41
0.0
 71
     5
 72
     1
  1
黒
  7
CONVERTER_11
 73
     1
 44
0.54545454545455
  0
MTEXT
  5
359
330
1F
100
AcDbEntity
  8
1
 62
     7
100
AcDbMText
 10
130.0
 20
113.974630376607
 30
0.0
 40
3.0
 41
0.0
 71
     5
 72
     1
  1
V2113-13
  7
CONVERTER_12
 73
     1
 44
0.7202881152461
  0
MTEXT
  5
35A
330
1F
100
AcDbEntity
  8
1
 62
     7
100
AcDbMText
 10
130.0
 20
106.974630376607
 30
0.0
 40
3.0
 41
0.0
 71
     5
 72
     1
  1
V2113-13-R
  7
CONVERTER_12
 73
     1
 44
0.7202881152461
  0
MTEXT
  5
35B
330
1F
100
AcDbEntity
  8
1
 62
     7
100
AcDbMText
 10
155.0
 20
106.974630376607
 30
0.0
 40
3.0
 41
0.0
 71
     5
 72
     1
  1
赤
  7
CONVERTER_11
 73
     1
 44
0.54545454545455
  0
MTEXT
  5
35C
330
1F
100
AcDbEntity
  8
1
 62
     7
100
AcDbMText
 10
155.0
 20
99.974630376607
 30
0.0
 40
3.0
 41
0.0
 71
     5
 72
     1
  1
青
  7
CONVERTER_11
 73
     1
 44
0.54545454545455
  0
MTEXT
  5
35D
330
1F
100
AcDbEntity
  8
1
 62
     7
100
AcDbMText
 10
130.0
 20
99.974630376607
 30
0.0
 40
3.0
 41
0.0
 71
     5
 72
     1
  1
V2113-13-B
  7
CONVERTER_12
 73
     1
 44
0.7202881152461
  0
DIMENSION
  5
368
330
1F
100
AcDbEntity
  8
1
100
AcDbDimension
  2
*D5
 10
41.6001500538256
 20
188.8785812834883
 30
0.0
 11
38.8501500538256
 21
173.8785812834882
 31
0.0
 70
    32
  1
<>
 71
     5
 42
-1.0
 53
90.0
  3
ME10_DIM_10
100
AcDbAlignedDimension
 13
54.10015005380188
 23
158.8785812834882
 33
0.0
 14
48.60015005382549
 24
188.8785812834884
 34
0.0
 50
90.0
100
AcDbRotatedDimension
  0
DIMENSION
  5
373
330
1F
100
AcDbEntity
  8
1
100
AcDbDimension
  2
*D6
 10
93.6001500537522
 20
139.5785811195011
 30
0.0
 11
90.8501500537522
 21
110.2285812014173
 31
0.0
 70
    32
  1
59
 71
     5
 42
-1.0
 53
90.0
  3
ME10_DIM_11
100
AcDbAlignedDimension
 13
84.1001500537908
 23
80.87858128348823
 33
0.0
 14
67.59387339226555
 24
139.5785811195012
 34
0.0
 50
90.0
100
AcDbRotatedDimension
  0
DIMENSION
  5
37E
330
1F
100
AcDbEntity
  8
1
100
AcDbDimension
  2
*D7
 10
33.60015005382549
 20
158.8785812834881
 30
0.0
 11
30.85015005382549
 21
192.3785812834882
 31
0.0
 70
    32
  1
<>
 71
     5
 42
-1.0
 53
90.0
  3
ME10_DIM_12
100
AcDbAlignedDimension
 13
58.26215005380249
 23
225.8785812834883
 33
0.0
 14
54.10015005380188
 24
158.8785812834882
 34
0.0
 50
90.0
100
AcDbRotatedDimension
  0
DIMENSION
  5
389
330
1F
100
AcDbEntity
  8
1
100
AcDbDimension
  2
*D8
 10
41.60015005382549
 20
225.8785812834883
 30
0.0
 11
38.85015005382549
 21
216.3785812834883
 31
0.0
 70
    32
  1
<>
 71
     5
 42
-1.0
 53
90.0
  3
ME10_DIM_13
100
AcDbAlignedDimension
 13
55.60015005380245
 23
206.8785812834883
 33
0.0
 14
58.26215005380249
 24
225.8785812834883
 34
0.0
 50
90.0
100
AcDbRotatedDimension
  0
DIMENSION
  5
394
330
1F
100
AcDbEntity
  8
1
100
AcDbDimension
  2
*D9
 10
55.60015005380245
 20
235.8785812834883
 30
0.0
 11
67.6001500537908
 21
238.6285812834883
 31
0.0
 70
    32
  1
<>
 71
     5
 42
-1.0
 53
0.00013888888889
  3
ME10_DIM_14
100
AcDbAlignedDimension
 13
79.6001501581024
 23
206.8785808065884
 33
0.0
 14
55.60015005380245
 24
206.8785812834883
 34
0.0
100
AcDbRotatedDimension
  0
DIMENSION
  5
39F
330
1F
100
AcDbEntity
  8
1
100
AcDbDimension
  2
*D10
 10
54.1001500537908
 20
55.67359968558702
 30
0.0
 11
67.6001500537908
 21
58.42359968558702
 31
0.0
 70
    32
  1
<>
 71
     5
 42
-1.0
 53
0.00013888888889
  3
ME10_DIM_15
100
AcDbAlignedDimension
 13
81.1001500537908
 23
73.95037805321276
 33
0.0
 14
54.1001500537908
 24
73.95037805321276
 34
0.0
100
AcDbRotatedDimension
  0
HATCH
  5
3A0
330
1F
100
AcDbEntity
  8
1
  6
Continuous
 62
     2
100
AcDbHatch
 10
0.0
 20
0.0
 30
0.0
210
0.0
220
0.0
230
1.0
  2
CUSTOM7
 70
     0
 71
     1
 91
        1
 92
        1
 93
        7
 72
     1
 10
153.6380400399846
 20
236.0914740837377
 11
156.1361733733181
 21
232.6565407504043
 72
     1
 10
156.1361733733181
 20
232.6565407504043
 11
155.0432400399845
 21
232.6565407504043
 72
     1
 10
155.0432400399845
 20
232.6565407504043
 11
155.0432400399845
 21
226.8785812834883
 72
     1
 10
155.0432400399845
 20
226.8785812834883
 11
152.2328400399847
 21
226.8785812834883
 72
     1
 10
152.2328400399847
 20
226.8785812834883
 11
152.2328400399847
 21
232.6565407504043
 72
     1
 10
152.2328400399847
 20
232.6565407504043
 11
151.1399067066517
 21
232.6565407504043
 72
     1
 10
151.1399067066517
 20
232.6565407504043
 11
153.6380400399846
 21
236.0914740837377
 97
        7
330
332
330
331
330
330
330
32F
330
335
330
334
330
333
 75
     1
 76
     2
 52
45.0
 41
0.00624533333333
 77
     0
 78
     1
 53
45.0
 43
179.7109933917241
 44
273.6540092125396
 45
-0.0176644702030815
 46
0.0
 79
     0
 98
        1
 10
0.0
 20
0.0
  0
ENDSEC
  0
SECTION
  2
OBJECTS
  0
DICTIONARY
  5
C
330
0
100
AcDbDictionary
281
     1
  3
ACAD_GROUP
350
D
  3
ACAD_LAYOUT
350
1A
  3
ACAD_MATERIAL
350
3B
  3
ACAD_MLEADERSTYLE
350
3A3
  3
ACAD_MLINESTYLE
350
17
  3
ACAD_PLOTSETTINGS
350
19
  3
ACAD_PLOTSTYLENAME
350
E
  3
ACAD_VISUALSTYLE
350
2A
  3
AcDbVariableDictionary
350
3A1
  0
DICTIONARY
  5
D
102
{ACAD_REACTORS
330
C
102
}
330
C
100
AcDbDictionary
281
     1
  0
DICTIONARY
  5
1A
102
{ACAD_REACTORS
330
C
102
}
330
C
100
AcDbDictionary
281
     1
  3
Layout1
350
1E
  3
Layout2
350
26
  3
Model
350
22
  0
DICTIONARY
  5
3B
102
{ACAD_REACTORS
330
C
102
}
330
C
100
AcDbDictionary
281
     1
  3
ByBlock
350
3D
  3
ByLayer
350
3C
  3
Global
350
3E
  0
DICTIONARY
  5
3A3
102
{ACAD_REACTORS
330
C
102
}
330
C
100
AcDbDictionary
281
     1
  0
DICTIONARY
  5
17
102
{ACAD_REACTORS
330
C
102
}
330
C
100
AcDbDictionary
281
     1
  3
Standard
350
18
  0
DICTIONARY
  5
19
102
{ACAD_REACTORS
330
C
102
}
330
C
100
AcDbDictionary
281
     1
  0
ACDBDICTIONARYWDFLT
  5
E
102
{ACAD_REACTORS
330
C
102
}
330
C
100
AcDbDictionary
281
     1
  3
Normal
350
F
100
AcDbDictionaryWithDefault
340
F
  0
DICTIONARY
  5
2A
102
{ACAD_REACTORS
330
C
102
}
330
C
100
AcDbDictionary
281
     1
  3
2dWireframe
350
2F
  3
3D Hidden
350
31
  3
3dWireframe
350
30
  3
Basic
350
32
  3
Brighten
350
36
  3
ColorChange
350
3A
  3
Conceptual
350
34
  3
Dim
350
35
  3
Facepattern
350
39
  3
Flat
350
2B
  3
FlatWithEdges
350
2C
  3
Gouraud
350
2D
  3
GouraudWithEdges
350
2E
  3
Linepattern
350
38
  3
Realistic
350
33
  3
Thicken
350
37
  0
DICTIONARY
  5
3A1
102
{ACAD_REACTORS
330
C
102
}
330
C
100
AcDbDictionary
281
     1
  3
DIMASSOC
350
3A4
  3
HIDETEXT
350
3A5
  0
LAYOUT
  5
1E
102
{ACAD_REACTORS
330
1A
102
}
330
1A
100
AcDbPlotSettings
  1

  2
none_device
  4

  6

 40
0.0
 41
0.0
 42
0.0
 43
0.0
 44
0.0
 45
0.0
 46
0.0
 47
0.0
 48
0.0
 49
0.0
140
0.0
141
0.0
142
1.0
143
1.0
 70
   688
 72
     0
 73
     0
 74
     5
  7

 75
    16
147
1.0
148
0.0
149
0.0
100
AcDbLayout
  1
Layout1
 70
     1
 71
     1
 10
0.0
 20
0.0
 11
12.0
 21
9.0
 12
0.0
 22
0.0
 32
0.0
 14
1.00000000000000E+20
 24
1.00000000000000E+20
 34
1.00000000000000E+20
 15
-1.00000000000000E+20
 25
-1.00000000000000E+20
 35
-1.00000000000000E+20
146
0.0
 13
0.0
 23
0.0
 33
0.0
 16
1.0
 26
0.0
 36
0.0
 17
0.0
 27
1.0
 37
0.0
 76
     0
330
1B
  0
LAYOUT
  5
26
102
{ACAD_REACTORS
330
1A
102
}
330
1A
100
AcDbPlotSettings
  1

  2
none_device
  4

  6

 40
0.0
 41
0.0
 42
0.0
 43
0.0
 44
0.0
 45
0.0
 46
0.0
 47
0.0
 48
0.0
 49
0.0
140
0.0
141
0.0
142
1.0
143
1.0
 70
   688
 72
     0
 73
     0
 74
     5
  7

 75
    16
147
1.0
148
0.0
149
0.0
100
AcDbLayout
  1
Layout2
 70
     1
 71
     2
 10
0.0
 20
0.0
 11
0.0
 21
0.0
 12
0.0
 22
0.0
 32
0.0
 14
0.0
 24
0.0
 34
0.0
 15
0.0
 25
0.0
 35
0.0
146
0.0
 13
0.0
 23
0.0
 33
0.0
 16
1.0
 26
0.0
 36
0.0
 17
0.0
 27
1.0
 37
0.0
 76
     0
330
23
  0
LAYOUT
  5
22
102
{ACAD_REACTORS
330
1A
102
}
330
1A
100
AcDbPlotSettings
  1

  2
none_device
  4

  6

 40
0.0
 41
0.0
 42
0.0
 43
0.0
 44
0.0
 45
0.0
 46
0.0
 47
0.0
 48
0.0
 49
0.0
140
0.0
141
0.0
142
1.0
143
1.0
 70
  1712
 72
     0
 73
     0
 74
     0
  7

 75
     0
147
1.0
148
0.0
149
0.0
100
AcDbLayout
  1
Model
 70
     1
 71
     0
 10
0.0
 20
0.0
 11
12.0
 21
9.0
 12
0.0
 22
0.0
 32
0.0
 14
0.0
 24
0.0
 34
0.0
 15
210.0
 25
297.0
 35
0.0
146
0.0
 13
0.0
 23
0.0
 33
0.0
 16
1.0
 26
0.0
 36
0.0
 17
0.0
 27
1.0
 37
0.0
 76
     0
330
1F
331
29
  0
MATERIAL
  5
3D
102
{ACAD_REACTORS
330
3B
102
}
102
{ACAD_XDICTIONARY
360
3C8
102
}
330
3B
100
AcDbMaterial
  1
ByBlock
  0
MATERIAL
  5
3C
102
{ACAD_REACTORS
330
3B
102
}
102
{ACAD_XDICTIONARY
360
3C6
102
}
330
3B
100
AcDbMaterial
  1
ByLayer
  0
MATERIAL
  5
3E
102
{ACAD_REACTORS
330
3B
102
}
102
{ACAD_XDICTIONARY
360
3CA
102
}
330
3B
100
AcDbMaterial
  1
Global
  0
MLINESTYLE
  5
18
102
{ACAD_REACTORS
330
17
102
}
330
17
100
AcDbMlineStyle
  2
Standard
 70
     0
  3

 62
   256
 51
90.0
 52
90.0
 71
     2
 49
0.5
 62
   256
  6
BYLAYER
 49
-0.5
 62
   256
  6
BYLAYER
  0
ACDBPLACEHOLDER
  5
F
102
{ACAD_REACTORS
330
E
102
}
330
E
  0
VISUALSTYLE
  5
2F
102
{ACAD_REACTORS
330
2A
102
}
102
{ACAD_XDICTIONARY
360
3AE
102
}
330
2A
100
AcDbVisualStyle
  2
2dWireframe
 70
     4
 71
     0
 72
     2
 73
     0
 90
        0
 40
-0.6
 41
-30.0
 62
     5
 63
     7
 74
     1
 91
        4
 64
     7
 65
   257
 75
     1
175
     1
 42
1.0
 92
        0
 66
   257
 43
1.0
 76
     1
 77
     6
 78
     2
 67
     7
 79
     5
170
     0
171
     0
290
     0
174
     0
 93
        1
 44
0.0
173
     0
291
     0
 45
0.0
1001
ACAD
1000
AcDbSavedByObjectVersion
1070
     0
  0
VISUALSTYLE
  5
31
102
{ACAD_REACTORS
330
2A
102
}
102
{ACAD_XDICTIONARY
360
3B2
102
}
330
2A
100
AcDbVisualStyle
  2
3D Hidden
 70
     6
 71
     1
 72
     2
 73
     2
 90
        0
 40
-0.6
 41
-30.0
 62
     5
 63
     7
 74
     2
 91
        2
 64
     7
 65
   257
 75
     2
175
     1
 42
40.0
 92
        0
 66
   257
 43
1.0
 76
     1
 77
     6
 78
     2
 67
     7
 79
     3
170
     0
171
     0
290
     0
174
     0
 93
        1
 44
0.0
173
     0
291
     0
 45
0.0
1001
ACAD
1000
AcDbSavedByObjectVersion
1070
     0
  0
VISUALSTYLE
  5
30
102
{ACAD_REACTORS
330
2A
102
}
102
{ACAD_XDICTIONARY
360
3B0
102
}
330
2A
100
AcDbVisualStyle
  2
3dWireframe
 70
     5
 71
     0
 72
     2
 73
     0
 90
        0
 40
-0.6
 41
-30.0
 62
     5
 63
     7
 74
     1
 91
        4
 64
     7
 65
   257
 75
     1
175
     1
 42
1.0
 92
        0
 66
   257
 43
1.0
 76
     1
 77
     6
 78
     2
 67
     7
 79
     5
170
     0
171
     0
290
     0
174
     0
 93
        1
 44
0.0
173
     0
291
     0
 45
0.0
1001
ACAD
1000
AcDbSavedByObjectVersion
1070
     0
  0
VISUALSTYLE
  5
32
102
{ACAD_REACTORS
330
2A
102
}
102
{ACAD_XDICTIONARY
360
3B4
102
}
330
2A
100
AcDbVisualStyle
  2
Basic
 70
     7
 71
     1
 72
     0
 73
     1
 90
        0
 40
-0.6
 41
-30.0
 62
     5
 63
     7
 74
     0
 91
        4
 64
     7
 65
   257
 75
     1
175
     1
 42
1.0
 92
        8
 66
     7
 43
1.0
 76
     1
 77
     6
 78
     2
 67
     7
 79
     5
170
     0
171
     0
290
     0
174
     0
 93
        1
 44
0.0
173
     0
291
     1
 45
0.0
1001
ACAD
1000
AcDbSavedByObjectVersion
1070
     0
  0
VISUALSTYLE
  5
36
102
{ACAD_REACTORS
330
2A
102
}
102
{ACAD_XDICTIONARY
360
3BC
102
}
330
2A
100
AcDbVisualStyle
  2
Brighten
 70
    12
 71
     2
 72
     2
 73
     0
 90
        0
 40
-0.6
 41
-30.0
 62
     5
 63
     7
 74
     1
 91
        4
 64
     7
 65
   257
 75
     1
175
     1
 42
1.0
 92
        8
 66
     7
 43
1.0
 76
     1
 77
     6
 78
     2
 67
     7
 79
     5
170
     0
171
     0
290
     0
174
     0
 93
        1
 44
50.0
173
     0
291
     1
 45
0.0
1001
ACAD
1000
AcDbSavedByObjectVersion
1070
     0
  0
VISUALSTYLE
  5
3A
102
{ACAD_REACTORS
330
2A
102
}
102
{ACAD_XDICTIONARY
360
3C4
102
}
330
2A
100
AcDbVisualStyle
  2
ColorChange
 70
    16
 71
     2
 72
     2
 73
     3
 90
        0
 40
-0.6
 41
-30.0
 62
     5
 63
     8
 74
     1
 91
        4
 64
     7
 65
   257
 75
     1
175
     1
 42
1.0
 92
        8
 66
     8
 43
1.0
 76
     1
 77
     6
 78
     2
 67
     7
 79
     5
170
     0
171
     0
290
     0
174
     0
 93
        1
 44
0.0
173
     0
291
     1
 45
0.0
1001
ACAD
1000
AcDbSavedByObjectVersion
1070
     0
  0
VISUALSTYLE
  5
34
102
{ACAD_REACTORS
330
2A
102
}
102
{ACAD_XDICTIONARY
360
3B8
102
}
330
2A
100
AcDbVisualStyle
  2
Conceptual
 70
     9
 71
     3
 72
     2
 73
     0
 90
        0
 40
-0.6
 41
-30.0
 62
     5
 63
     7
 74
     2
 91
        2
 64
     7
 65
   257
 75
     1
175
     1
 42
40.0
 92
        8
 66
     7
 43
1.0
 76
     1
 77
     6
 78
     2
 67
     7
 79
     3
170
     0
171
     0
290
     0
174
     0
 93
        1
 44
0.0
173
     0
291
     0
 45
0.0
1001
ACAD
1000
AcDbSavedByObjectVersion
1070
     0
  0
VISUALSTYLE
  5
35
102
{ACAD_REACTORS
330
2A
102
}
102
{ACAD_XDICTIONARY
360
3BA
102
}
330
2A
100
AcDbVisualStyle
  2
Dim
 70
    11
 71
     2
 72
     2
 73
     0
 90
        0
 40
-0.6
 41
-30.0
 62
     5
 63
     7
 74
     1
 91
        4
 64
     7
 65
   257
 75
     1
175
     1
 42
1.0
 92
        8
 66
     7
 43
1.0
 76
     1
 77
     6
 78
     2
 67
     7
 79
     5
170
     0
171
     0
290
     0
174
     0
 93
        1
 44
-50.0
173
     0
291
     1
 45
0.0
1001
ACAD
1000
AcDbSavedByObjectVersion
1070
     0
  0
VISUALSTYLE
  5
39
102
{ACAD_REACTORS
330
2A
102
}
102
{ACAD_XDICTIONARY
360
3C2
102
}
330
2A
100
AcDbVisualStyle
  2
Facepattern
 70
    15
 71
     2
 72
     2
 73
     0
 90
        0
 40
-0.6
 41
-30.0
 62
     5
 63
     7
 74
     1
 91
        4
 64
     7
 65
   257
 75
     1
175
     1
 42
1.0
 92
        8
 66
     7
 43
1.0
 76
     1
 77
     6
 78
     2
 67
     7
 79
     5
170
     0
171
     0
290
     0
174
     0
 93
        1
 44
0.0
173
     0
291
     1
 45
0.0
1001
ACAD
1000
AcDbSavedByObjectVersion
1070
     0
  0
VISUALSTYLE
  5
2B
102
{ACAD_REACTORS
330
2A
102
}
102
{ACAD_XDICTIONARY
360
3A6
102
}
330
2A
100
AcDbVisualStyle
  2
Flat
 70
     0
 71
     2
 72
     1
 73
     1
 90
        2
 40
-0.6
 41
30.0
 62
     5
 63
     7
 74
     0
 91
        4
 64
     7
 65
   257
 75
     1
175
     1
 42
1.0
 92
        8
 66
     7
 43
1.0
 76
     1
 77
     6
 78
     2
 67
     7
 79
     5
170
     0
171
     0
290
     0
174
     0
 93
       13
 44
0.0
173
     0
291
     1
 45
0.0
1001
ACAD
1000
AcDbSavedByObjectVersion
1070
     0
  0
VISUALSTYLE
  5
2C
102
{ACAD_REACTORS
330
2A
102
}
102
{ACAD_XDICTIONARY
360
3A8
102
}
330
2A
100
AcDbVisualStyle
  2
FlatWithEdges
 70
     1
 71
     2
 72
     1
 73
     1
 90
        2
 40
-0.6
 41
30.0
 62
     5
 63
     7
 74
     1
 91
        4
 64
     7
 65
   257
 75
     1
175
     1
 42
1.0
 92
        0
 66
   257
 43
1.0
 76
     1
 77
     6
 78
     2
 67
     7
 79
     5
170
     0
171
     0
290
     0
174
     0
 93
       13
 44
0.0
173
     0
291
     1
 45
0.0
1001
ACAD
1000
AcDbSavedByObjectVersion
1070
     0
  0
VISUALSTYLE
  5
2D
102
{ACAD_REACTORS
330
2A
102
}
102
{ACAD_XDICTIONARY
360
3AA
102
}
330
2A
100
AcDbVisualStyle
  2
Gouraud
 70
     2
 71
     2
 72
     2
 73
     1
 90
        2
 40
-0.6
 41
30.0
 62
     5
 63
     7
 74
     0
 91
        4
 64
     7
 65
   257
 75
     1
175
     1
 42
1.0
 92
        0
 66
     7
 43
1.0
 76
     1
 77
     6
 78
     2
 67
     7
 79
     5
170
     0
171
     0
290
     0
174
     0
 93
       13
 44
0.0
173
     0
291
     1
 45
0.0
1001
ACAD
1000
AcDbSavedByObjectVersion
1070
     0
  0
VISUALSTYLE
  5
2E
102
{ACAD_REACTORS
330
2A
102
}
102
{ACAD_XDICTIONARY
360
3AC
102
}
330
2A
100
AcDbVisualStyle
  2
GouraudWithEdges
 70
     3
 71
     2
 72
     2
 73
     1
 90
        2
 40
-0.6
 41
30.0
 62
     5
 63
     7
 74
     1
 91
        4
 64
     7
 65
   257
 75
     1
175
     1
 42
1.0
 92
        0
 66
   257
 43
1.0
 76
     1
 77
     6
 78
     2
 67
     7
 79
     5
170
     0
171
     0
290
     0
174
     0
 93
       13
 44
0.0
173
     0
291
     1
 45
0.0
1001
ACAD
1000
AcDbSavedByObjectVersion
1070
     0
  0
VISUALSTYLE
  5
38
102
{ACAD_REACTORS
330
2A
102
}
102
{ACAD_XDICTIONARY
360
3C0
102
}
330
2A
100
AcDbVisualStyle
  2
Linepattern
 70
    14
 71
     2
 72
     2
 73
     0
 90
        0
 40
-0.6
 41
-30.0
 62
     5
 63
     7
 74
     1
 91
        4
 64
     7
 65
   257
 75
     7
175
     7
 42
1.0
 92
        8
 66
     7
 43
1.0
 76
     1
 77
     6
 78
     2
 67
     7
 79
     5
170
     0
171
     0
290
     0
174
     0
 93
        1
 44
0.0
173
     0
291
     1
 45
0.0
1001
ACAD
1000
AcDbSavedByObjectVersion
1070
     0
  0
VISUALSTYLE
  5
33
102
{ACAD_REACTORS
330
2A
102
}
102
{ACAD_XDICTIONARY
360
3B6
102
}
330
2A
100
AcDbVisualStyle
  2
Realistic
 70
     8
 71
     2
 72
     2
 73
     0
 90
        0
 40
-0.6
 41
-30.0
 62
     5
 63
     7
 74
     1
 91
        0
 64
     7
 65
   257
 75
     1
175
     1
 42
1.0
 92
        8
 66
     8
 43
1.0
 76
     1
 77
     6
 78
     2
 67
     7
 79
     5
170
     0
171
     0
290
     0
174
     0
 93
       13
 44
0.0
173
     0
291
     0
 45
0.0
1001
ACAD
1000
AcDbSavedByObjectVersion
1070
     0
  0
VISUALSTYLE
  5
37
102
{ACAD_REACTORS
330
2A
102
}
102
{ACAD_XDICTIONARY
360
3BE
102
}
330
2A
100
AcDbVisualStyle
  2
Thicken
 70
    13
 71
     2
 72
     2
 73
     0
 90
        0
 40
-0.6
 41
-30.0
 62
     5
 63
     7
 74
     1
 91
        4
 64
     7
 65
   257
 75
     1
175
     1
 42
1.0
 92
       12
 66
     7
 43
1.0
 76
     1
 77
     6
 78
     2
 67
     7
 79
     5
170
     0
171
     0
290
     0
174
     0
 93
        1
 44
0.0
173
     0
291
     1
 45
0.0
1001
ACAD
1000
AcDbSavedByObjectVersion
1070
     0
  0
DICTIONARYVAR
  5
3A4
102
{ACAD_REACTORS
330
3A1
102
}
330
3A1
100
DictionaryVariables
280
     0
  1
2
  0
DICTIONARYVAR
  5
3A5
102
{ACAD_REACTORS
330
3A1
102
}
330
3A1
100
DictionaryVariables
280
     0
  1
1
  0
DICTIONARY
  5
3C8
330
3D
100
AcDbDictionary
280
     1
281
     1
  3
ACAD_XREC_ROUNDTRIP
360
3C9
  0
DICTIONARY
  5
3C6
330
3C
100
AcDbDictionary
280
     1
281
     1
  3
ACAD_XREC_ROUNDTRIP
360
3C7
  0
DICTIONARY
  5
3CA
330
3E
100
AcDbDictionary
280
     1
281
     1
  3
ACAD_XREC_ROUNDTRIP
360
3CB
  0
DICTIONARY
  5
3AE
330
2F
100
AcDbDictionary
280
     1
281
     1
  3
ACAD_XREC_ROUNDTRIP
360
3AF
  0
DICTIONARY
  5
3B2
330
31
100
AcDbDictionary
280
     1
281
     1
  3
ACAD_XREC_ROUNDTRIP
360
3B3
  0
DICTIONARY
  5
3B0
330
30
100
AcDbDictionary
280
     1
281
     1
  3
ACAD_XREC_ROUNDTRIP
360
3B1
  0
DICTIONARY
  5
3B4
330
32
100
AcDbDictionary
280
     1
281
     1
  3
ACAD_XREC_ROUNDTRIP
360
3B5
  0
DICTIONARY
  5
3BC
330
36
100
AcDbDictionary
280
     1
281
     1
  3
ACAD_XREC_ROUNDTRIP
360
3BD
  0
DICTIONARY
  5
3C4
330
3A
100
AcDbDictionary
280
     1
281
     1
  3
ACAD_XREC_ROUNDTRIP
360
3C5
  0
DICTIONARY
  5
3B8
330
34
100
AcDbDictionary
280
     1
281
     1
  3
ACAD_XREC_ROUNDTRIP
360
3B9
  0
DICTIONARY
  5
3BA
330
35
100
AcDbDictionary
280
     1
281
     1
  3
ACAD_XREC_ROUNDTRIP
360
3BB
  0
DICTIONARY
  5
3C2
330
39
100
AcDbDictionary
280
     1
281
     1
  3
ACAD_XREC_ROUNDTRIP
360
3C3
  0
DICTIONARY
  5
3A6
330
2B
100
AcDbDictionary
280
     1
281
     1
  3
ACAD_XREC_ROUNDTRIP
360
3A7
  0
DICTIONARY
  5
3A8
330
2C
100
AcDbDictionary
280
     1
281
     1
  3
ACAD_XREC_ROUNDTRIP
360
3A9
  0
DICTIONARY
  5
3AA
330
2D
100
AcDbDictionary
280
     1
281
     1
  3
ACAD_XREC_ROUNDTRIP
360
3AB
  0
DICTIONARY
  5
3AC
330
2E
100
AcDbDictionary
280
     1
281
     1
  3
ACAD_XREC_ROUNDTRIP
360
3AD
  0
DICTIONARY
  5
3C0
330
38
100
AcDbDictionary
280
     1
281
     1
  3
ACAD_XREC_ROUNDTRIP
360
3C1
  0
DICTIONARY
  5
3B6
330
33
100
AcDbDictionary
280
     1
281
     1
  3
ACAD_XREC_ROUNDTRIP
360
3B7
  0
DICTIONARY
  5
3BE
330
37
100
AcDbDictionary
280
     1
281
     1
  3
ACAD_XREC_ROUNDTRIP
360
3BF
  0
XRECORD
  5
3C9
102
{ACAD_REACTORS
330
3C8
102
}
330
3C8
100
AcDbXrecord
280
     1
102
MATERIAL
148
0.0
149
0.0
149
0.0
 93
        0
 94
      127
282
     0
 72
     1
 77
     1
171
     1
175
     1
179
     1
273
     0
  0
XRECORD
  5
3C7
102
{ACAD_REACTORS
330
3C6
102
}
330
3C6
100
AcDbXrecord
280
     1
102
MATERIAL
148
0.0
149
0.0
149
0.0
 93
        0
 94
      127
282
     0
 72
     1
 77
     1
171
     1
175
     1
179
     1
273
     0
  0
XRECORD
  5
3CB
102
{ACAD_REACTORS
330
3CA
102
}
330
3CA
100
AcDbXrecord
280
     1
102
MATERIAL
148
0.0
149
0.0
149
0.0
 93
        0
 94
      127
282
     0
 72
     1
 77
     1
171
     1
175
     1
179
     1
273
     0
  0
XRECORD
  5
3AF
102
{ACAD_REACTORS
330
3AE
102
}
330
3AE
100
AcDbXrecord
280
     1
102
RTVSPropertyOp0
 70
     1
102
RTVSPropertyOp1
 70
     1
102
RTVSPropertyOp2
 70
     1
102
RTVSPropertyOp3
 70
     1
102
RTVSPropertyOp4
 70
     1
102
RTVSPropertyOp5
 70
     1
102
RTVSPropertyOp6
 70
     1
102
RTVSPropertyOp7
 70
     1
102
RTVSPropertyOp8
 70
     1
102
RTVSPropertyOp9
 70
     1
102
RTVSPropertyOp10
 70
     1
102
RTVSPropertyOp11
 70
     1
102
RTVSPropertyOp12
 70
     1
102
RTVSPropertyOp13
 70
     1
102
RTVSPropertyOp14
 70
     1
102
RTVSPropertyOp15
 70
     1
102
RTVSPropertyOp16
 70
     1
102
RTVSPropertyOp17
 70
     1
102
RTVSPropertyOp18
 70
     1
102
RTVSPropertyOp19
 70
     1
102
RTVSPropertyOp20
 70
     1
102
RTVSPropertyOp21
 70
     1
102
RTVSPropertyOp22
 70
     1
102
RTVSPropertyOp23
 70
     1
102
RTVSPropertyOp24
 70
     1
102
RTVSPropertyOp25
 70
     1
102
RTVSPropertyOp26
 70
     1
102
RTVSPropertyOp27
 70
     1
102
RTVSPropertyOp28
 70
     1
102
RTVSPropertyOp29
 70
     1
102
RTVSPropertyOp30
 70
     1
102
RTVSPropertyOp31
 70
     1
102
RTVSPropertyOp32
 70
     1
  0
XRECORD
  5
3B3
102
{ACAD_REACTORS
330
3B2
102
}
330
3B2
100
AcDbXrecord
280
     1
102
RTVSPropertyOp0
 70
     1
102
RTVSPropertyOp1
 70
     1
102
RTVSPropertyOp2
 70
     1
102
RTVSPropertyOp3
 70
     1
102
RTVSPropertyOp4
 70
     1
102
RTVSPropertyOp5
 70
     1
102
RTVSPropertyOp6
 70
     1
102
RTVSPropertyOp7
 70
     1
102
RTVSPropertyOp8
 70
     1
102
RTVSPropertyOp9
 70
     1
102
RTVSPropertyOp10
 70
     1
102
RTVSPropertyOp11
 70
     1
102
RTVSPropertyOp12
 70
     1
102
RTVSPropertyOp13
 70
     1
102
RTVSPropertyOp14
 70
     1
102
RTVSPropertyOp15
 70
     1
102
RTVSPropertyOp16
 70
     1
102
RTVSPropertyOp17
 70
     1
102
RTVSPropertyOp18
 70
     1
102
RTVSPropertyOp19
 70
     1
102
RTVSPropertyOp20
 70
     1
102
RTVSPropertyOp21
 70
     1
102
RTVSPropertyOp22
 70
     1
102
RTVSPropertyOp23
 70
     1
102
RTVSPropertyOp24
 70
     1
102
RTVSPropertyOp25
 70
     1
102
RTVSPropertyOp26
 70
     1
102
RTVSPropertyOp27
 70
     1
102
RTVSPropertyOp28
 70
     1
102
RTVSPropertyOp29
 70
     1
102
RTVSPropertyOp30
 70
     1
102
RTVSPropertyOp31
 70
     1
102
RTVSPropertyOp32
 70
     1
  0
XRECORD
  5
3B1
102
{ACAD_REACTORS
330
3B0
102
}
330
3B0
100
AcDbXrecord
280
     1
102
RTVSPropertyOp0
 70
     1
102
RTVSPropertyOp1
 70
     1
102
RTVSPropertyOp2
 70
     1
102
RTVSPropertyOp3
 70
     1
102
RTVSPropertyOp4
 70
     1
102
RTVSPropertyOp5
 70
     1
102
RTVSPropertyOp6
 70
     1
102
RTVSPropertyOp7
 70
     1
102
RTVSPropertyOp8
 70
     1
102
RTVSPropertyOp9
 70
     1
102
RTVSPropertyOp10
 70
     1
102
RTVSPropertyOp11
 70
     1
102
RTVSPropertyOp12
 70
     1
102
RTVSPropertyOp13
 70
     1
102
RTVSPropertyOp14
 70
     1
102
RTVSPropertyOp15
 70
     1
102
RTVSPropertyOp16
 70
     1
102
RTVSPropertyOp17
 70
     1
102
RTVSPropertyOp18
 70
     1
102
RTVSPropertyOp19
 70
     1
102
RTVSPropertyOp20
 70
     1
102
RTVSPropertyOp21
 70
     1
102
RTVSPropertyOp22
 70
     1
102
RTVSPropertyOp23
 70
     1
102
RTVSPropertyOp24
 70
     1
102
RTVSPropertyOp25
 70
     1
102
RTVSPropertyOp26
 70
     1
102
RTVSPropertyOp27
 70
     1
102
RTVSPropertyOp28
 70
     1
102
RTVSPropertyOp29
 70
     1
102
RTVSPropertyOp30
 70
     1
102
RTVSPropertyOp31
 70
     1
102
RTVSPropertyOp32
 70
     1
  0
XRECORD
  5
3B5
102
{ACAD_REACTORS
330
3B4
102
}
330
3B4
100
AcDbXrecord
280
     1
102
RTVSPropertyOp0
 70
     1
102
RTVSPropertyOp1
 70
     1
102
RTVSPropertyOp2
 70
     1
102
RTVSPropertyOp3
 70
     1
102
RTVSPropertyOp4
 70
     1
102
RTVSPropertyOp5
 70
     1
102
RTVSPropertyOp6
 70
     1
102
RTVSPropertyOp7
 70
     1
102
RTVSPropertyOp8
 70
     1
102
RTVSPropertyOp9
 70
     1
102
RTVSPropertyOp10
 70
     1
102
RTVSPropertyOp11
 70
     1
102
RTVSPropertyOp12
 70
     1
102
RTVSPropertyOp13
 70
     1
102
RTVSPropertyOp14
 70
     1
102
RTVSPropertyOp15
 70
     1
102
RTVSPropertyOp16
 70
     1
102
RTVSPropertyOp17
 70
     1
102
RTVSPropertyOp18
 70
     1
102
RTVSPropertyOp19
 70
     1
102
RTVSPropertyOp20
 70
     1
102
RTVSPropertyOp21
 70
     1
102
RTVSPropertyOp22
 70
     1
102
RTVSPropertyOp23
 70
     1
102
RTVSPropertyOp24
 70
     1
102
RTVSPropertyOp25
 70
     1
102
RTVSPropertyOp26
 70
     1
102
RTVSPropertyOp27
 70
     1
102
RTVSPropertyOp28
 70
     1
102
RTVSPropertyOp29
 70
     1
102
RTVSPropertyOp30
 70
     1
102
RTVSPropertyOp31
 70
     1
102
RTVSPropertyOp32
 70
     1
  0
XRECORD
  5
3BD
102
{ACAD_REACTORS
330
3BC
102
}
330
3BC
100
AcDbXrecord
280
     1
102
RTVSPropertyOp0
 70
     1
102
RTVSPropertyOp1
 70
     1
102
RTVSPropertyOp2
 70
     1
102
RTVSPropertyOp3
 70
     1
102
RTVSPropertyOp4
 70
     1
102
RTVSPropertyOp5
 70
     1
102
RTVSPropertyOp6
 70
     1
102
RTVSPropertyOp7
 70
     1
102
RTVSPropertyOp8
 70
     1
102
RTVSPropertyOp9
 70
     1
102
RTVSPropertyOp10
 70
     1
102
RTVSPropertyOp11
 70
     1
102
RTVSPropertyOp12
 70
     1
102
RTVSPropertyOp13
 70
     1
102
RTVSPropertyOp14
 70
     1
102
RTVSPropertyOp15
 70
     1
102
RTVSPropertyOp16
 70
     1
102
RTVSPropertyOp17
 70
     1
102
RTVSPropertyOp18
 70
     1
102
RTVSPropertyOp19
 70
     1
102
RTVSPropertyOp20
 70
     1
102
RTVSPropertyOp21
 70
     1
102
RTVSPropertyOp22
 70
     1
102
RTVSPropertyOp23
 70
     1
102
RTVSPropertyOp24
 70
     1
102
RTVSPropertyOp25
 70
     1
102
RTVSPropertyOp26
 70
     1
102
RTVSPropertyOp27
 70
     1
102
RTVSPropertyOp28
 70
     1
102
RTVSPropertyOp29
 70
     1
102
RTVSPropertyOp30
 70
     1
102
RTVSPropertyOp31
 70
     1
102
RTVSPropertyOp32
 70
     1
  0
XRECORD
  5
3C5
102
{ACAD_REACTORS
330
3C4
102
}
330
3C4
100
AcDbXrecord
280
     1
102
RTVSPropertyOp0
 70
     1
102
RTVSPropertyOp1
 70
     1
102
RTVSPropertyOp2
 70
     1
102
RTVSPropertyOp3
 70
     1
102
RTVSPropertyOp4
 70
     1
102
RTVSPropertyOp5
 70
     1
102
RTVSPropertyOp6
 70
     1
102
RTVSPropertyOp7
 70
     1
102
RTVSPropertyOp8
 70
     1
102
RTVSPropertyOp9
 70
     1
102
RTVSPropertyOp10
 70
     1
102
RTVSPropertyOp11
 70
     1
102
RTVSPropertyOp12
 70
     1
102
RTVSPropertyOp13
 70
     1
102
RTVSPropertyOp14
 70
     1
102
RTVSPropertyOp15
 70
     1
102
RTVSPropertyOp16
 70
     1
102
RTVSPropertyOp17
 70
     1
102
RTVSPropertyOp18
 70
     1
102
RTVSPropertyOp19
 70
     1
102
RTVSPropertyOp20
 70
     1
102
RTVSPropertyOp21
 70
     1
102
RTVSPropertyOp22
 70
     1
102
RTVSPropertyOp23
 70
     1
102
RTVSPropertyOp24
 70
     1
102
RTVSPropertyOp25
 70
     1
102
RTVSPropertyOp26
 70
     1
102
RTVSPropertyOp27
 70
     1
102
RTVSPropertyOp28
 70
     1
102
RTVSPropertyOp29
 70
     1
102
RTVSPropertyOp30
 70
     1
102
RTVSPropertyOp31
 70
     1
102
RTVSPropertyOp32
 70
     1
  0
XRECORD
  5
3B9
102
{ACAD_REACTORS
330
3B8
102
}
330
3B8
100
AcDbXrecord
280
     1
102
RTVSPropertyOp0
 70
     1
102
RTVSPropertyOp1
 70
     1
102
RTVSPropertyOp2
 70
     1
102
RTVSPropertyOp3
 70
     1
102
RTVSPropertyOp4
 70
     1
102
RTVSPropertyOp5
 70
     1
102
RTVSPropertyOp6
 70
     1
102
RTVSPropertyOp7
 70
     1
102
RTVSPropertyOp8
 70
     1
102
RTVSPropertyOp9
 70
     1
102
RTVSPropertyOp10
 70
     1
102
RTVSPropertyOp11
 70
     1
102
RTVSPropertyOp12
 70
     1
102
RTVSPropertyOp13
 70
     1
102
RTVSPropertyOp14
 70
     1
102
RTVSPropertyOp15
 70
     1
102
RTVSPropertyOp16
 70
     1
102
RTVSPropertyOp17
 70
     1
102
RTVSPropertyOp18
 70
     1
102
RTVSPropertyOp19
 70
     1
102
RTVSPropertyOp20
 70
     1
102
RTVSPropertyOp21
 70
     1
102
RTVSPropertyOp22
 70
     1
102
RTVSPropertyOp23
 70
     1
102
RTVSPropertyOp24
 70
     1
102
RTVSPropertyOp25
 70
     1
102
RTVSPropertyOp26
 70
     1
102
RTVSPropertyOp27
 70
     1
102
RTVSPropertyOp28
 70
     1
102
RTVSPropertyOp29
 70
     1
102
RTVSPropertyOp30
 70
     1
102
RTVSPropertyOp31
 70
     1
102
RTVSPropertyOp32
 70
     1
  0
XRECORD
  5
3BB
102
{ACAD_REACTORS
330
3BA
102
}
330
3BA
100
AcDbXrecord
280
     1
102
RTVSPropertyOp0
 70
     1
102
RTVSPropertyOp1
 70
     1
102
RTVSPropertyOp2
 70
     1
102
RTVSPropertyOp3
 70
     1
102
RTVSPropertyOp4
 70
     1
102
RTVSPropertyOp5
 70
     1
102
RTVSPropertyOp6
 70
     1
102
RTVSPropertyOp7
 70
     1
102
RTVSPropertyOp8
 70
     1
102
RTVSPropertyOp9
 70
     1
102
RTVSPropertyOp10
 70
     1
102
RTVSPropertyOp11
 70
     1
102
RTVSPropertyOp12
 70
     1
102
RTVSPropertyOp13
 70
     1
102
RTVSPropertyOp14
 70
     1
102
RTVSPropertyOp15
 70
     1
102
RTVSPropertyOp16
 70
     1
102
RTVSPropertyOp17
 70
     1
102
RTVSPropertyOp18
 70
     1
102
RTVSPropertyOp19
 70
     1
102
RTVSPropertyOp20
 70
     1
102
RTVSPropertyOp21
 70
     1
102
RTVSPropertyOp22
 70
     1
102
RTVSPropertyOp23
 70
     1
102
RTVSPropertyOp24
 70
     1
102
RTVSPropertyOp25
 70
     1
102
RTVSPropertyOp26
 70
     1
102
RTVSPropertyOp27
 70
     1
102
RTVSPropertyOp28
 70
     1
102
RTVSPropertyOp29
 70
     1
102
RTVSPropertyOp30
 70
     1
102
RTVSPropertyOp31
 70
     1
102
RTVSPropertyOp32
 70
     1
  0
XRECORD
  5
3C3
102
{ACAD_REACTORS
330
3C2
102
}
330
3C2
100
AcDbXrecord
280
     1
102
RTVSPropertyOp0
 70
     1
102
RTVSPropertyOp1
 70
     1
102
RTVSPropertyOp2
 70
     1
102
RTVSPropertyOp3
 70
     1
102
RTVSPropertyOp4
 70
     1
102
RTVSPropertyOp5
 70
     1
102
RTVSPropertyOp6
 70
     1
102
RTVSPropertyOp7
 70
     1
102
RTVSPropertyOp8
 70
     1
102
RTVSPropertyOp9
 70
     1
102
RTVSPropertyOp10
 70
     1
102
RTVSPropertyOp11
 70
     1
102
RTVSPropertyOp12
 70
     1
102
RTVSPropertyOp13
 70
     1
102
RTVSPropertyOp14
 70
     1
102
RTVSPropertyOp15
 70
     1
102
RTVSPropertyOp16
 70
     1
102
RTVSPropertyOp17
 70
     1
102
RTVSPropertyOp18
 70
     1
102
RTVSPropertyOp19
 70
     1
102
RTVSPropertyOp20
 70
     1
102
RTVSPropertyOp21
 70
     1
102
RTVSPropertyOp22
 70
     1
102
RTVSPropertyOp23
 70
     1
102
RTVSPropertyOp24
 70
     1
102
RTVSPropertyOp25
 70
     1
102
RTVSPropertyOp26
 70
     1
102
RTVSPropertyOp27
 70
     1
102
RTVSPropertyOp28
 70
     1
102
RTVSPropertyOp29
 70
     1
102
RTVSPropertyOp30
 70
     1
102
RTVSPropertyOp31
 70
     1
102
RTVSPropertyOp32
 70
     1
  0
XRECORD
  5
3A7
102
{ACAD_REACTORS
330
3A6
102
}
330
3A6
100
AcDbXrecord
280
     1
102
RTVSPropertyOp0
 70
     1
102
RTVSPropertyOp1
 70
     1
102
RTVSPropertyOp2
 70
     1
102
RTVSPropertyOp3
 70
     1
102
RTVSPropertyOp4
 70
     1
102
RTVSPropertyOp5
 70
     1
102
RTVSPropertyOp6
 70
     1
102
RTVSPropertyOp7
 70
     1
102
RTVSPropertyOp8
 70
     1
102
RTVSPropertyOp9
 70
     1
102
RTVSPropertyOp10
 70
     1
102
RTVSPropertyOp11
 70
     1
102
RTVSPropertyOp12
 70
     1
102
RTVSPropertyOp13
 70
     1
102
RTVSPropertyOp14
 70
     1
102
RTVSPropertyOp15
 70
     1
102
RTVSPropertyOp16
 70
     1
102
RTVSPropertyOp17
 70
     1
102
RTVSPropertyOp18
 70
     1
102
RTVSPropertyOp19
 70
     1
102
RTVSPropertyOp20
 70
     1
102
RTVSPropertyOp21
 70
     1
102
RTVSPropertyOp22
 70
     1
102
RTVSPropertyOp23
 70
     1
102
RTVSPropertyOp24
 70
     1
102
RTVSPropertyOp25
 70
     1
102
RTVSPropertyOp26
 70
     1
102
RTVSPropertyOp27
 70
     1
102
RTVSPropertyOp28
 70
     1
102
RTVSPropertyOp29
 70
     1
102
RTVSPropertyOp30
 70
     1
102
RTVSPropertyOp31
 70
     1
102
RTVSPropertyOp32
 70
     1
  0
XRECORD
  5
3A9
102
{ACAD_REACTORS
330
3A8
102
}
330
3A8
100
AcDbXrecord
280
     1
102
RTVSPropertyOp0
 70
     1
102
RTVSPropertyOp1
 70
     1
102
RTVSPropertyOp2
 70
     1
102
RTVSPropertyOp3
 70
     1
102
RTVSPropertyOp4
 70
     1
102
RTVSPropertyOp5
 70
     1
102
RTVSPropertyOp6
 70
     1
102
RTVSPropertyOp7
 70
     1
102
RTVSPropertyOp8
 70
     1
102
RTVSPropertyOp9
 70
     1
102
RTVSPropertyOp10
 70
     1
102
RTVSPropertyOp11
 70
     1
102
RTVSPropertyOp12
 70
     1
102
RTVSPropertyOp13
 70
     1
102
RTVSPropertyOp14
 70
     1
102
RTVSPropertyOp15
 70
     1
102
RTVSPropertyOp16
 70
     1
102
RTVSPropertyOp17
 70
     1
102
RTVSPropertyOp18
 70
     1
102
RTVSPropertyOp19
 70
     1
102
RTVSPropertyOp20
 70
     1
102
RTVSPropertyOp21
 70
     1
102
RTVSPropertyOp22
 70
     1
102
RTVSPropertyOp23
 70
     1
102
RTVSPropertyOp24
 70
     1
102
RTVSPropertyOp25
 70
     1
102
RTVSPropertyOp26
 70
     1
102
RTVSPropertyOp27
 70
     1
102
RTVSPropertyOp28
 70
     1
102
RTVSPropertyOp29
 70
     1
102
RTVSPropertyOp30
 70
     1
102
RTVSPropertyOp31
 70
     1
102
RTVSPropertyOp32
 70
     1
  0
XRECORD
  5
3AB
102
{ACAD_REACTORS
330
3AA
102
}
330
3AA
100
AcDbXrecord
280
     1
102
RTVSPropertyOp0
 70
     1
102
RTVSPropertyOp1
 70
     1
102
RTVSPropertyOp2
 70
     1
102
RTVSPropertyOp3
 70
     1
102
RTVSPropertyOp4
 70
     1
102
RTVSPropertyOp5
 70
     1
102
RTVSPropertyOp6
 70
     1
102
RTVSPropertyOp7
 70
     1
102
RTVSPropertyOp8
 70
     1
102
RTVSPropertyOp9
 70
     1
102
RTVSPropertyOp10
 70
     1
102
RTVSPropertyOp11
 70
     1
102
RTVSPropertyOp12
 70
     1
102
RTVSPropertyOp13
 70
     1
102
RTVSPropertyOp14
 70
     1
102
RTVSPropertyOp15
 70
     1
102
RTVSPropertyOp16
 70
     1
102
RTVSPropertyOp17
 70
     1
102
RTVSPropertyOp18
 70
     1
102
RTVSPropertyOp19
 70
     1
102
RTVSPropertyOp20
 70
     1
102
RTVSPropertyOp21
 70
     1
102
RTVSPropertyOp22
 70
     1
102
RTVSPropertyOp23
 70
     1
102
RTVSPropertyOp24
 70
     1
102
RTVSPropertyOp25
 70
     1
102
RTVSPropertyOp26
 70
     1
102
RTVSPropertyOp27
 70
     1
102
RTVSPropertyOp28
 70
     1
102
RTVSPropertyOp29
 70
     1
102
RTVSPropertyOp30
 70
     1
102
RTVSPropertyOp31
 70
     1
102
RTVSPropertyOp32
 70
     1
  0
XRECORD
  5
3AD
102
{ACAD_REACTORS
330
3AC
102
}
330
3AC
100
AcDbXrecord
280
     1
102
RTVSPropertyOp0
 70
     1
102
RTVSPropertyOp1
 70
     1
102
RTVSPropertyOp2
 70
     1
102
RTVSPropertyOp3
 70
     1
102
RTVSPropertyOp4
 70
     1
102
RTVSPropertyOp5
 70
     1
102
RTVSPropertyOp6
 70
     1
102
RTVSPropertyOp7
 70
     1
102
RTVSPropertyOp8
 70
     1
102
RTVSPropertyOp9
 70
     1
102
RTVSPropertyOp10
 70
     1
102
RTVSPropertyOp11
 70
     1
102
RTVSPropertyOp12
 70
     1
102
RTVSPropertyOp13
 70
     1
102
RTVSPropertyOp14
 70
     1
102
RTVSPropertyOp15
 70
     1
102
RTVSPropertyOp16
 70
     1
102
RTVSPropertyOp17
 70
     1
102
RTVSPropertyOp18
 70
     1
102
RTVSPropertyOp19
 70
     1
102
RTVSPropertyOp20
 70
     1
102
RTVSPropertyOp21
 70
     1
102
RTVSPropertyOp22
 70
     1
102
RTVSPropertyOp23
 70
     1
102
RTVSPropertyOp24
 70
     1
102
RTVSPropertyOp25
 70
     1
102
RTVSPropertyOp26
 70
     1
102
RTVSPropertyOp27
 70
     1
102
RTVSPropertyOp28
 70
     1
102
RTVSPropertyOp29
 70
     1
102
RTVSPropertyOp30
 70
     1
102
RTVSPropertyOp31
 70
     1
102
RTVSPropertyOp32
 70
     1
  0
XRECORD
  5
3C1
102
{ACAD_REACTORS
330
3C0
102
}
330
3C0
100
AcDbXrecord
280
     1
102
RTVSPropertyOp0
 70
     1
102
RTVSPropertyOp1
 70
     1
102
RTVSPropertyOp2
 70
     1
102
RTVSPropertyOp3
 70
     1
102
RTVSPropertyOp4
 70
     1
102
RTVSPropertyOp5
 70
     1
102
RTVSPropertyOp6
 70
     1
102
RTVSPropertyOp7
 70
     1
102
RTVSPropertyOp8
 70
     1
102
RTVSPropertyOp9
 70
     1
102
RTVSPropertyOp10
 70
     1
102
RTVSPropertyOp11
 70
     1
102
RTVSPropertyOp12
 70
     1
102
RTVSPropertyOp13
 70
     1
102
RTVSPropertyOp14
 70
     1
102
RTVSPropertyOp15
 70
     1
102
RTVSPropertyOp16
 70
     1
102
RTVSPropertyOp17
 70
     1
102
RTVSPropertyOp18
 70
     1
102
RTVSPropertyOp19
 70
     1
102
RTVSPropertyOp20
 70
     1
102
RTVSPropertyOp21
 70
     1
102
RTVSPropertyOp22
 70
     1
102
RTVSPropertyOp23
 70
     1
102
RTVSPropertyOp24
 70
     1
102
RTVSPropertyOp25
 70
     1
102
RTVSPropertyOp26
 70
     1
102
RTVSPropertyOp27
 70
     1
102
RTVSPropertyOp28
 70
     1
102
RTVSPropertyOp29
 70
     1
102
RTVSPropertyOp30
 70
     1
102
RTVSPropertyOp31
 70
     1
102
RTVSPropertyOp32
 70
     1
  0
XRECORD
  5
3B7
102
{ACAD_REACTORS
330
3B6
102
}
330
3B6
100
AcDbXrecord
280
     1
102
RTVSPropertyOp0
 70
     1
102
RTVSPropertyOp1
 70
     1
102
RTVSPropertyOp2
 70
     1
102
RTVSPropertyOp3
 70
     1
102
RTVSPropertyOp4
 70
     1
102
RTVSPropertyOp5
 70
     1
102
RTVSPropertyOp6
 70
     1
102
RTVSPropertyOp7
 70
     1
102
RTVSPropertyOp8
 70
     1
102
RTVSPropertyOp9
 70
     1
102
RTVSPropertyOp10
 70
     1
102
RTVSPropertyOp11
 70
     1
102
RTVSPropertyOp12
 70
     1
102
RTVSPropertyOp13
 70
     1
102
RTVSPropertyOp14
 70
     1
102
RTVSPropertyOp15
 70
     1
102
RTVSPropertyOp16
 70
     1
102
RTVSPropertyOp17
 70
     1
102
RTVSPropertyOp18
 70
     1
102
RTVSPropertyOp19
 70
     1
102
RTVSPropertyOp20
 70
     1
102
RTVSPropertyOp21
 70
     1
102
RTVSPropertyOp22
 70
     1
102
RTVSPropertyOp23
 70
     1
102
RTVSPropertyOp24
 70
     1
102
RTVSPropertyOp25
 70
     1
102
RTVSPropertyOp26
 70
     1
102
RTVSPropertyOp27
 70
     1
102
RTVSPropertyOp28
 70
     1
102
RTVSPropertyOp29
 70
     1
102
RTVSPropertyOp30
 70
     1
102
RTVSPropertyOp31
 70
     1
102
RTVSPropertyOp32
 70
     1
  0
XRECORD
  5
3BF
102
{ACAD_REACTORS
330
3BE
102
}
330
3BE
100
AcDbXrecord
280
     1
102
RTVSPropertyOp0
 70
     1
102
RTVSPropertyOp1
 70
     1
102
RTVSPropertyOp2
 70
     1
102
RTVSPropertyOp3
 70
     1
102
RTVSPropertyOp4
 70
     1
102
RTVSPropertyOp5
 70
     1
102
RTVSPropertyOp6
 70
     1
102
RTVSPropertyOp7
 70
     1
102
RTVSPropertyOp8
 70
     1
102
RTVSPropertyOp9
 70
     1
102
RTVSPropertyOp10
 70
     1
102
RTVSPropertyOp11
 70
     1
102
RTVSPropertyOp12
 70
     1
102
RTVSPropertyOp13
 70
     1
102
RTVSPropertyOp14
 70
     1
102
RTVSPropertyOp15
 70
     1
102
RTVSPropertyOp16
 70
     1
102
RTVSPropertyOp17
 70
     1
102
RTVSPropertyOp18
 70
     1
102
RTVSPropertyOp19
 70
     1
102
RTVSPropertyOp20
 70
     1
102
RTVSPropertyOp21
 70
     1
102
RTVSPropertyOp22
 70
     1
102
RTVSPropertyOp23
 70
     1
102
RTVSPropertyOp24
 70
     1
102
RTVSPropertyOp25
 70
     1
102
RTVSPropertyOp26
 70
     1
102
RTVSPropertyOp27
 70
     1
102
RTVSPropertyOp28
 70
     1
102
RTVSPropertyOp29
 70
     1
102
RTVSPropertyOp30
 70
     1
102
RTVSPropertyOp31
 70
     1
102
RTVSPropertyOp32
 70
     1
  0
ENDSEC
  0
EOF
