  0
SECTION
  2
HEADER
  9
$ACADVER
  1
AC1015
  9
$ACADMAINTVER
 70
     6
  9
$DWGCODEPAGE
  3
ANSI_932
  9
$INSBASE
 10
0.0
 20
0.0
 30
0.0
  9
$EXTMIN
 10
0.0
 20
0.0
 30
0.0
  9
$EXTMAX
 10
945.0
 20
1336.5
 30
0.0
  9
$LIMMIN
 10
0.0
 20
0.0
  9
$LIMMAX
 10
12.0
 20
9.0
  9
$ORTHOMODE
 70
     0
  9
$REGENMODE
 70
     1
  9
$FILLMODE
 70
     1
  9
$QTEXTMODE
 70
     0
  9
$MIRRTEXT
 70
     1
  9
$LTSCALE
 40
1.0
  9
$ATTMODE
 70
     1
  9
$TEXTSIZE
 40
0.2
  9
$TRACEWID
 40
0.05
  9
$TEXTSTYLE
  7
Standard
  9
$CLAYER
  8
0
  9
$CELTYPE
  6
ByLayer
  9
$CECOLOR
 62
   256
  9
$CELTSCALE
 40
1.0
  9
$DISPSILH
 70
     0
  9
$DIMSCALE
 40
1.0
  9
$DIMASZ
 40
0.18
  9
$DIMEXO
 40
0.0625
  9
$DIMDLI
 40
0.38
  9
$DIMRND
 40
0.0
  9
$DIMDLE
 40
0.0
  9
$DIMEXE
 40
0.18
  9
$DIMTP
 40
0.0
  9
$DIMTM
 40
0.0
  9
$DIMTXT
 40
0.18
  9
$DIMCEN
 40
0.09
  9
$DIMTSZ
 40
0.0
  9
$DIMTOL
 70
     0
  9
$DIMLIM
 70
     0
  9
$DIMTIH
 70
     1
  9
$DIMTOH
 70
     1
  9
$DIMSE1
 70
     0
  9
$DIMSE2
 70
     0
  9
$DIMTAD
 70
     0
  9
$DIMZIN
 70
     0
  9
$DIMBLK
  1

  9
$DIMASO
 70
     1
  9
$DIMSHO
 70
     1
  9
$DIMPOST
  1

  9
$DIMAPOST
  1

  9
$DIMALT
 70
     0
  9
$DIMALTD
 70
     2
  9
$DIMALTF
 40
25.4
  9
$DIMLFAC
 40
1.0
  9
$DIMTOFL
 70
     0
  9
$DIMTVP
 40
0.0
  9
$DIMTIX
 70
     0
  9
$DIMSOXD
 70
     0
  9
$DIMSAH
 70
     0
  9
$DIMBLK1
  1

  9
$DIMBLK2
  1

  9
$DIMSTYLE
  2
Standard
  9
$DIMCLRD
 70
     0
  9
$DIMCLRE
 70
     0
  9
$DIMCLRT
 70
     0
  9
$DIMTFAC
 40
1.0
  9
$DIMGAP
 40
0.09
  9
$DIMJUST
 70
     0
  9
$DIMSD1
 70
     0
  9
$DIMSD2
 70
     0
  9
$DIMTOLJ
 70
     1
  9
$DIMTZIN
 70
     0
  9
$DIMALTZ
 70
     0
  9
$DIMALTTZ
 70
     0
  9
$DIMUPT
 70
     0
  9
$DIMDEC
 70
     4
  9
$DIMTDEC
 70
     4
  9
$DIMALTU
 70
     2
  9
$DIMALTTD
 70
     2
  9
$DIMTXSTY
  7
Standard
  9
$DIMAUNIT
 70
     0
  9
$DIMADEC
 70
     0
  9
$DIMALTRND
 40
0.0
  9
$DIMAZIN
 70
     0
  9
$DIMDSEP
 70
    46
  9
$DIMATFIT
 70
     3
  9
$DIMFRAC
 70
     0
  9
$DIMLDRBLK
  1

  9
$DIMLUNIT
 70
     2
  9
$DIMLWD
 70
    -2
  9
$DIMLWE
 70
    -2
  9
$DIMTMOVE
 70
     0
  9
$LUNITS
 70
     2
  9
$LUPREC
 70
     4
  9
$SKETCHINC
 40
0.1
  9
$FILLETRAD
 40
0.5
  9
$AUNITS
 70
     0
  9
$AUPREC
 70
     0
  9
$MENU
  1
.
  9
$ELEVATION
 40
0.0
  9
$PELEVATION
 40
0.0
  9
$THICKNESS
 40
0.0
  9
$LIMCHECK
 70
     0
  9
$CHAMFERA
 40
0.5
  9
$CHAMFERB
 40
0.5
  9
$CHAMFERC
 40
1.0
  9
$CHAMFERD
 40
0.0
  9
$SKPOLY
 70
     0
  9
$TDCREATE
 40
2456563.498649653
  9
$TDUCREATE
 40
2456563.123649653
  9
$TDUPDATE
 40
2456563.498650915
  9
$TDUUPDATE
 40
2456563.123650915
  9
$TDINDWG
 40
0.0000000116
  9
$TDUSRTIMER
 40
0.0000000116
  9
$USRTIMER
 70
     1
  9
$ANGBASE
 50
0.0
  9
$ANGDIR
 70
     0
  9
$PDMODE
 70
     0
  9
$PDSIZE
 40
0.0
  9
$PLINEWID
 40
0.0
  9
$SPLFRAME
 70
     0
  9
$SPLINETYPE
 70
     6
  9
$SPLINESEGS
 70
     8
  9
$HANDSEED
  5
2FE
  9
$SURFTAB1
 70
     6
  9
$SURFTAB2
 70
     6
  9
$SURFTYPE
 70
     6
  9
$SURFU
 70
     6
  9
$SURFV
 70
     6
  9
$UCSBASE
  2

  9
$UCSNAME
  2

  9
$UCSORG
 10
0.0
 20
0.0
 30
0.0
  9
$UCSXDIR
 10
1.0
 20
0.0
 30
0.0
  9
$UCSYDIR
 10
0.0
 20
1.0
 30
0.0
  9
$UCSORTHOREF
  2

  9
$UCSORTHOVIEW
 70
     0
  9
$UCSORGTOP
 10
0.0
 20
0.0
 30
0.0
  9
$UCSORGBOTTOM
 10
0.0
 20
0.0
 30
0.0
  9
$UCSORGLEFT
 10
0.0
 20
0.0
 30
0.0
  9
$UCSORGRIGHT
 10
0.0
 20
0.0
 30
0.0
  9
$UCSORGFRONT
 10
0.0
 20
0.0
 30
0.0
  9
$UCSORGBACK
 10
0.0
 20
0.0
 30
0.0
  9
$PUCSBASE
  2

  9
$PUCSNAME
  2

  9
$PUCSORG
 10
0.0
 20
0.0
 30
0.0
  9
$PUCSXDIR
 10
1.0
 20
0.0
 30
0.0
  9
$PUCSYDIR
 10
0.0
 20
1.0
 30
0.0
  9
$PUCSORTHOREF
  2

  9
$PUCSORTHOVIEW
 70
     0
  9
$PUCSORGTOP
 10
0.0
 20
0.0
 30
0.0
  9
$PUCSORGBOTTOM
 10
0.0
 20
0.0
 30
0.0
  9
$PUCSORGLEFT
 10
0.0
 20
0.0
 30
0.0
  9
$PUCSORGRIGHT
 10
0.0
 20
0.0
 30
0.0
  9
$PUCSORGFRONT
 10
0.0
 20
0.0
 30
0.0
  9
$PUCSORGBACK
 10
0.0
 20
0.0
 30
0.0
  9
$USERI1
 70
     0
  9
$USERI2
 70
     0
  9
$USERI3
 70
     0
  9
$USERI4
 70
     0
  9
$USERI5
 70
     0
  9
$USERR1
 40
18.1
  9
$USERR2
 40
0.0
  9
$USERR3
 40
0.0
  9
$USERR4
 40
0.0
  9
$USERR5
 40
0.0
  9
$WORLDVIEW
 70
     1
  9
$SHADEDGE
 70
     3
  9
$SHADEDIF
 70
    70
  9
$TILEMODE
 70
     1
  9
$MAXACTVP
 70
    64
  9
$PINSBASE
 10
0.0
 20
0.0
 30
0.0
  9
$PLIMCHECK
 70
     0
  9
$PEXTMIN
 10
1.00000000000000E+20
 20
1.00000000000000E+20
 30
1.00000000000000E+20
  9
$PEXTMAX
 10
-1.00000000000000E+20
 20
-1.00000000000000E+20
 30
-1.00000000000000E+20
  9
$PLIMMIN
 10
0.0
 20
0.0
  9
$PLIMMAX
 10
12.0
 20
9.0
  9
$UNITMODE
 70
     0
  9
$VISRETAIN
 70
     1
  9
$PLINEGEN
 70
     0
  9
$PSLTSCALE
 70
     1
  9
$TREEDEPTH
 70
  3020
  9
$CMLSTYLE
  2
Standard
  9
$CMLJUST
 70
     0
  9
$CMLSCALE
 40
1.0
  9
$PROXYGRAPHICS
 70
     1
  9
$MEASUREMENT
 70
     1
  9
$CELWEIGHT
370
    -1
  9
$ENDCAPS
280
     0
  9
$JOINSTYLE
280
     0
  9
$LWDISPLAY
290
     0
  9
$INSUNITS
 70
     4
  9
$HYPERLINKBASE
  1

  9
$STYLESHEET
  1

  9
$XEDIT
290
     1
  9
$CEPSNTYPE
380
     0
  9
$PSTYLEMODE
290
     1
  9
$FINGERPRINTGUID
  2
{81EDDFC0-F001-4CF0-B0FC-1D828B171D95}
  9
$VERSIONGUID
  2
{FAEB1C32-E019-11D5-929B-00C0DF256EC4}
  9
$EXTNAMES
290
     1
  9
$PSVPSCALE
 40
0.0
  9
$OLESTARTUP
290
     0
  0
ENDSEC
  0
SECTION
  2
CLASSES
  0
CLASS
  1
ACDBDICTIONARYWDFLT
  2
AcDbDictionaryWithDefault
  3
ObjectDBX Classes
 90
        0
280
     0
281
     0
  0
CLASS
  1
VISUALSTYLE
  2
AcDbVisualStyle
  3
ObjectDBX Classes
 90
     4095
280
     0
281
     0
  0
CLASS
  1
MATERIAL
  2
AcDbMaterial
  3
ObjectDBX Classes
 90
     1153
280
     0
281
     0
  0
CLASS
  1
DICTIONARYVAR
  2
AcDbDictionaryVar
  3
ObjectDBX Classes
 90
        0
280
     0
281
     0
  0
CLASS
  1
ACDBPLACEHOLDER
  2
AcDbPlaceHolder
  3
ObjectDBX Classes
 90
        0
280
     0
281
     0
  0
CLASS
  1
LAYOUT
  2
AcDbLayout
  3
ObjectDBX Classes
 90
        0
280
     0
281
     0
  0
ENDSEC
  0
SECTION
  2
TABLES
  0
TABLE
  2
VPORT
  5
8
330
0
100
AcDbSymbolTable
 70
     1
  0
VPORT
  5
29
330
8
100
AcDbSymbolTableRecord
100
AcDbViewportTableRecord
  2
*Active
 70
     0
 10
0.0
 20
0.0
 11
1.0
 21
1.0
 12
472.5
 22
668.25
 13
0.0
 23
0.0
 14
0.5
 24
0.5
 15
0.5
 25
0.5
 16
0.0
 26
0.0
 36
1.0
 17
0.0
 27
0.0
 37
0.0
 40
1470.15
 41
1.60267857142857
 42
50.0
 43
0.0
 44
0.0
 50
0.0
 51
0.0
 71
     0
 72
   100
 73
     1
 74
     3
 75
     0
 76
     0
 77
     0
 78
     0
281
     0
 65
     1
110
0.0
120
0.0
130
0.0
111
1.0
121
0.0
131
0.0
112
0.0
122
1.0
132
0.0
 79
     0
146
0.0
  0
ENDTAB
  0
TABLE
  2
LTYPE
  5
5
330
0
100
AcDbSymbolTable
 70
     8
  0
LTYPE
  5
14
330
5
100
AcDbSymbolTableRecord
100
AcDbLinetypeTableRecord
  2
ByBlock
 70
     0
  3

 72
    65
 73
     0
 40
0.0
  0
LTYPE
  5
15
330
5
100
AcDbSymbolTableRecord
100
AcDbLinetypeTableRecord
  2
ByLayer
 70
     0
  3

 72
    65
 73
     0
 40
0.0
  0
LTYPE
  5
16
330
5
100
AcDbSymbolTableRecord
100
AcDbLinetypeTableRecord
  2
Continuous
 70
     0
  3
Solid line
 72
    65
 73
     0
 40
0.0
  0
LTYPE
  5
3F
330
5
100
AcDbSymbolTableRecord
100
AcDbLinetypeTableRecord
  2
DASHED
 70
     0
  3
Dashed
 72
    65
 73
     2
 40
15.0
 49
7.0
 74
     0
 49
-8.0
 74
     0
  0
LTYPE
  5
40
330
5
100
AcDbSymbolTableRecord
100
AcDbLinetypeTableRecord
  2
DOTTED
 70
     0
  3
Dotted
 72
    65
 73
     2
 40
1.0
 49
0.0
 74
     0
 49
-1.0
 74
     0
  0
LTYPE
  5
41
330
5
100
AcDbSymbolTableRecord
100
AcDbLinetypeTableRecord
  2
DOT_CENTER
 70
     0
  3
Dot_Center
 72
    65
 73
     4
 40
14.0
 49
12.0
 74
     0
 49
-1.0
 74
     0
 49
0.0
 74
     0
 49
-1.0
 74
     0
  0
LTYPE
  5
42
330
5
100
AcDbSymbolTableRecord
100
AcDbLinetypeTableRecord
  2
LONG_DASHED
 70
     0
  3
Long_Dashed
 72
    65
 73
     2
 40
15.0
 49
10.0
 74
     0
 49
-5.0
 74
     0
  0
LTYPE
  5
43
330
5
100
AcDbSymbolTableRecord
100
AcDbLinetypeTableRecord
  2
DASH_CENTER
 70
     0
  3
Dash_Center
 72
    65
 73
     4
 40
14.0
 49
11.0
 74
     0
 49
-1.0
 74
     0
 49
1.0
 74
     0
 49
-1.0
 74
     0
  0
LTYPE
  5
44
330
5
100
AcDbSymbolTableRecord
100
AcDbLinetypeTableRecord
  2
PHANTOM
 70
     0
  3
Phantom
 72
    65
 73
     6
 40
13.0
 49
10.0
 74
     0
 49
-1.0
 74
     0
 49
0.0
 74
     0
 49
-1.0
 74
     0
 49
0.0
 74
     0
 49
-1.0
 74
     0
  0
LTYPE
  5
45
330
5
100
AcDbSymbolTableRecord
100
AcDbLinetypeTableRecord
  2
CENTER_DASH_DASH
 70
     0
  3
Center_Dash_Dash
 72
    65
 73
     6
 40
14.0
 49
9.0
 74
     0
 49
-1.0
 74
     0
 49
1.0
 74
     0
 49
-1.0
 74
     0
 49
1.0
 74
     0
 49
-1.0
 74
     0
  0
ENDTAB
  0
TABLE
  2
LAYER
  5
2
330
0
100
AcDbSymbolTable
 70
     2
  0
LAYER
  5
10
330
2
100
AcDbSymbolTableRecord
100
AcDbLayerTableRecord
  2
0
 70
     0
 62
     7
  6
Continuous
370
    -3
390
F
  0
LAYER
  5
46
330
2
100
AcDbSymbolTableRecord
100
AcDbLayerTableRecord
  2
1
 70
     0
 62
     7
  6
Continuous
370
    -3
390
F
  0
ENDTAB
  0
TABLE
  2
STYLE
  5
3
330
0
100
AcDbSymbolTable
 70
     3
  0
STYLE
  5
11
330
3
100
AcDbSymbolTableRecord
100
AcDbTextStyleTableRecord
  2
Standard
 70
     0
 40
0.0
 41
1.0
 50
0.0
 71
     0
 42
0.2
  3
txt
  4

  0
STYLE
  5
B6
330
3
100
AcDbSymbolTableRecord
100
AcDbTextStyleTableRecord
  2
CONVERTER_11
 70
     0
 40
0.0
 41
0.89
 50
0.0
 71
     0
 42
0.2
  3
MS Mincho.ttf
  4

1001
ACAD
1000
MS Mincho
1071
    32785
  0
STYLE
  5
250
330
3
100
AcDbSymbolTableRecord
100
AcDbTextStyleTableRecord
  2
CONVERTER_12
 70
     0
 40
0.0
 41
0.9
 50
0.0
 71
     0
 42
0.2
  3
txt.shx
  4

  0
ENDTAB
  0
TABLE
  2
VIEW
  5
6
330
0
100
AcDbSymbolTable
 70
     0
  0
ENDTAB
  0
TABLE
  2
UCS
  5
7
330
0
100
AcDbSymbolTable
 70
     0
  0
ENDTAB
  0
TABLE
  2
APPID
  5
9
330
0
100
AcDbSymbolTable
 70
     1
  0
APPID
  5
12
330
9
100
AcDbSymbolTableRecord
100
AcDbRegAppTableRecord
  2
ACAD
 70
     0
  0
ENDTAB
  0
TABLE
  2
DIMSTYLE
  5
A
330
0
100
AcDbSymbolTable
 70
    11
100
AcDbDimStyleTable
  0
DIMSTYLE
105
27
330
A
100
AcDbSymbolTableRecord
100
AcDbDimStyleTableRecord
  2
Standard
 70
     0
178
     0
340
11
  0
DIMSTYLE
105
264
102
{ACAD_REACTORS
330
265
102
}
330
A
100
AcDbSymbolTableRecord
100
AcDbDimStyleTableRecord
  2
ME10_DIM_10
 70
     0
 41
15.75
 42
0.0
 44
4.5
 73
     0
 74
     0
 77
     1
 78
     8
140
15.75
147
4.5
172
     1
173
     1
174
     1
175
     1
176
     2
177
     2
271
     2
178
     7
271
     2
340
B6
  0
DIMSTYLE
105
26F
102
{ACAD_REACTORS
330
270
102
}
330
A
100
AcDbSymbolTableRecord
100
AcDbDimStyleTableRecord
  2
ME10_DIM_11
 70
     0
 41
15.75
 42
0.0
 44
4.5
 73
     0
 74
     0
 77
     1
 78
     8
140
15.75
147
4.5
172
     1
173
     1
174
     1
175
     1
176
     2
177
     2
271
     2
178
     7
271
     2
340
250
  0
DIMSTYLE
105
27C
102
{ACAD_REACTORS
330
27D
102
}
330
A
100
AcDbSymbolTableRecord
100
AcDbDimStyleTableRecord
  2
ME10_DIM_12
 70
     0
  3
{\Fgdt;n}<>
 41
15.75
 42
0.0
 44
4.5
 73
     0
 74
     0
 77
     1
 78
     8
140
15.75
147
4.5
172
     1
173
     1
174
     1
175
     1
176
     2
177
     2
271
     2
178
     7
271
     2
340
250
  0
DIMSTYLE
105
287
102
{ACAD_REACTORS
330
288
102
}
330
A
100
AcDbSymbolTableRecord
100
AcDbDimStyleTableRecord
  2
ME10_DIM_13
 70
     0
 41
15.75
 42
0.0
 44
4.5
 73
     0
 74
     0
 77
     1
 78
     8
140
15.75
147
4.5
172
     1
173
     1
174
     1
175
     1
176
     2
177
     2
271
     2
178
     7
271
     2
340
250
  0
DIMSTYLE
105
294
102
{ACAD_REACTORS
330
295
102
}
330
A
100
AcDbSymbolTableRecord
100
AcDbDimStyleTableRecord
  2
ME10_DIM_14
 70
     0
 41
15.75
 42
0.0
 44
4.5
 73
     0
 74
     0
 77
     1
 78
     8
140
15.75
147
4.5
172
     1
173
     1
174
     1
175
     1
176
     2
177
     2
271
     2
178
     7
271
     2
340
250
  0
DIMSTYLE
105
2A1
102
{ACAD_REACTORS
330
2A2
102
}
330
A
100
AcDbSymbolTableRecord
100
AcDbDimStyleTableRecord
  2
ME10_DIM_15
 70
     0
  3
{\Fgdt;n}<>
 41
15.75
 42
0.0
 44
4.5
 73
     0
 74
     0
 77
     1
 78
     8
140
15.75
147
4.5
172
     1
173
     1
174
     1
175
     1
176
     2
177
     2
271
     2
178
     7
271
     2
340
250
  0
DIMSTYLE
105
2AE
102
{ACAD_REACTORS
330
2AF
102
}
330
A
100
AcDbSymbolTableRecord
100
AcDbDimStyleTableRecord
  2
ME10_DIM_16
 70
     0
 41
15.75
 42
0.0
 44
4.5
 73
     0
 74
     0
 77
     1
 78
     8
140
15.75
147
4.5
172
     1
173
     1
174
     1
175
     1
176
     2
177
     2
271
     2
178
     7
271
     2
340
250
  0
DIMSTYLE
105
2BB
102
{ACAD_REACTORS
330
2BC
102
}
330
A
100
AcDbSymbolTableRecord
100
AcDbDimStyleTableRecord
  2
ME10_DIM_17
 70
     0
 41
15.75
 42
0.0
 44
4.5
 73
     0
 74
     0
 77
     1
 78
     8
140
15.75
147
4.5
172
     1
173
     1
174
     1
175
     1
176
     2
177
     2
271
     2
178
     7
271
     2
340
250
  0
DIMSTYLE
105
2C6
102
{ACAD_REACTORS
330
2C7
102
}
330
A
100
AcDbSymbolTableRecord
100
AcDbDimStyleTableRecord
  2
ME10_DIM_18
 70
     0
 41
15.75
 42
0.0
 44
4.5
 73
     0
 74
     0
 77
     1
 78
     8
140
15.75
147
4.5
172
     1
173
     1
174
     1
175
     1
176
     2
177
     2
271
     2
178
     7
271
     2
340
250
  0
DIMSTYLE
105
2D1
102
{ACAD_REACTORS
330
2D2
102
}
330
A
100
AcDbSymbolTableRecord
100
AcDbDimStyleTableRecord
  2
ME10_DIM_19
 70
     0
 41
15.75
 42
0.0
 44
4.5
 73
     0
 74
     0
 77
     1
 78
     8
140
15.75
147
4.5
172
     1
173
     1
174
     1
175
     1
176
     2
177
     2
271
     2
178
     7
271
     2
340
250
  0
ENDTAB
  0
TABLE
  2
BLOCK_RECORD
  5
1
330
0
100
AcDbSymbolTable
 70
    20
  0
BLOCK_RECORD
  5
1F
330
1
100
AcDbSymbolTableRecord
100
AcDbBlockTableRecord
  2
*Model_Space
340
22
  0
BLOCK_RECORD
  5
1B
330
1
100
AcDbSymbolTableRecord
100
AcDbBlockTableRecord
  2
*Paper_Space
340
1E
  0
BLOCK_RECORD
  5
23
330
1
100
AcDbSymbolTableRecord
100
AcDbBlockTableRecord
  2
*Paper_Space0
340
26
  0
BLOCK_RECORD
  5
47
330
1
100
AcDbSymbolTableRecord
100
AcDbBlockTableRecord
  2
開示A4
340
0
102
{BLKREFS
331
62
102
}
  0
BLOCK_RECORD
  5
4A
330
1
100
AcDbSymbolTableRecord
100
AcDbBlockTableRecord
  2
66-6-55-360
340
0
102
{BLKREFS
331
63
102
}
  0
BLOCK_RECORD
  5
4D
330
1
100
AcDbSymbolTableRecord
100
AcDbBlockTableRecord
  2
32-12-M2
340
0
102
{BLKREFS
331
64
102
}
  0
BLOCK_RECORD
  5
50
330
1
100
AcDbSymbolTableRecord
100
AcDbBlockTableRecord
  2
V21-2-0A
340
0
102
{BLKREFS
331
65
102
}
  0
BLOCK_RECORD
  5
53
330
1
100
AcDbSymbolTableRecord
100
AcDbBlockTableRecord
  2
78-167
340
0
102
{BLKREFS
331
66
102
}
  0
BLOCK_RECORD
  5
56
330
1
100
AcDbSymbolTableRecord
100
AcDbBlockTableRecord
  2
64-7-13-420-M11
340
0
102
{BLKREFS
331
67
102
}
  0
BLOCK_RECORD
  5
59
330
1
100
AcDbSymbolTableRecord
100
AcDbBlockTableRecord
  2
V21-2-0A-13-M1
340
0
102
{BLKREFS
331
68
102
}
  0
BLOCK_RECORD
  5
5C
330
1
100
AcDbSymbolTableRecord
100
AcDbBlockTableRecord
  2
37-1-13
340
0
102
{BLKREFS
331
69
102
}
  0
BLOCK_RECORD
  5
5F
330
1
100
AcDbSymbolTableRecord
100
AcDbBlockTableRecord
  2
36-3-13
340
0
102
{BLKREFS
331
6A
102
}
  0
BLOCK_RECORD
  5
259
330
1
100
AcDbSymbolTableRecord
100
AcDbBlockTableRecord
  2
*D10
340
0
  0
BLOCK_RECORD
  5
266
330
1
100
AcDbSymbolTableRecord
100
AcDbBlockTableRecord
  2
*D11
340
0
  0
BLOCK_RECORD
  5
271
330
1
100
AcDbSymbolTableRecord
100
AcDbBlockTableRecord
  2
*D12
340
0
  0
BLOCK_RECORD
  5
27E
330
1
100
AcDbSymbolTableRecord
100
AcDbBlockTableRecord
  2
*D13
340
0
  0
BLOCK_RECORD
  5
289
330
1
100
AcDbSymbolTableRecord
100
AcDbBlockTableRecord
  2
*D14
340
0
  0
BLOCK_RECORD
  5
296
330
1
100
AcDbSymbolTableRecord
100
AcDbBlockTableRecord
  2
*D15
340
0
  0
BLOCK_RECORD
  5
2A3
330
1
100
AcDbSymbolTableRecord
100
AcDbBlockTableRecord
  2
*D16
340
0
  0
BLOCK_RECORD
  5
2B0
330
1
100
AcDbSymbolTableRecord
100
AcDbBlockTableRecord
  2
*D17
340
0
  0
BLOCK_RECORD
  5
2BD
330
1
100
AcDbSymbolTableRecord
100
AcDbBlockTableRecord
  2
*D18
340
0
  0
BLOCK_RECORD
  5
2C8
330
1
100
AcDbSymbolTableRecord
100
AcDbBlockTableRecord
  2
*D19
340
0
  0
ENDTAB
  0
ENDSEC
  0
SECTION
  2
BLOCKS
  0
BLOCK
  5
20
330
1F
100
AcDbEntity
  8
0
100
AcDbBlockBegin
  2
*Model_Space
 70
     0
 10
0.0
 20
0.0
 30
0.0
  3
*Model_Space
  1

  0
ENDBLK
  5
21
330
1F
100
AcDbEntity
  8
0
100
AcDbBlockEnd
  0
BLOCK
  5
1C
330
1B
100
AcDbEntity
 67
     1
  8
0
100
AcDbBlockBegin
  2
*Paper_Space
 70
     0
 10
0.0
 20
0.0
 30
0.0
  3
*Paper_Space
  1

  0
ENDBLK
  5
1D
330
1B
100
AcDbEntity
 67
     1
  8
0
100
AcDbBlockEnd
  0
BLOCK
  5
24
330
23
100
AcDbEntity
  8
0
100
AcDbBlockBegin
  2
*Paper_Space0
 70
     0
 10
0.0
 20
0.0
 30
0.0
  3
*Paper_Space0
  1

  0
ENDBLK
  5
25
330
23
100
AcDbEntity
  8
0
100
AcDbBlockEnd
  0
BLOCK
  5
48
330
47
100
AcDbEntity
  8
0
100
AcDbBlockBegin
  2
開示A4
 70
     0
 10
0.0
 20
0.0
 30
0.0
  3
開示A4
  1

  0
POINT
  5
6B
330
47
100
AcDbEntity
  8
1
 62
     4
100
AcDbPoint
 10
93.74999999999997
 20
17.0
 30
0.0
  0
POINT
  5
6C
330
47
100
AcDbEntity
  8
1
 62
     4
100
AcDbPoint
 10
85.24999999999997
 20
17.0
 30
0.0
  0
POINT
  5
6D
330
47
100
AcDbEntity
  8
1
 62
     4
100
AcDbPoint
 10
106.5
 20
19.00000000000001
 30
0.0
  0
POINT
  5
6E
330
47
100
AcDbEntity
  8
1
 62
     4
100
AcDbPoint
 10
106.5
 20
12.5
 30
0.0
  0
POINT
  5
6F
330
47
100
AcDbEntity
  8
1
 62
     4
100
AcDbPoint
 10
112.25
 20
12.5
 30
0.0
  0
POINT
  5
70
330
47
100
AcDbEntity
  8
1
 62
     4
100
AcDbPoint
 10
100.75
 20
12.5
 30
0.0
  0
POINT
  5
71
330
47
100
AcDbEntity
  8
1
 62
     4
100
AcDbPoint
 10
123.5
 20
19.00000000000001
 30
0.0
  0
POINT
  5
72
330
47
100
AcDbEntity
  8
1
 62
     4
100
AcDbPoint
 10
123.5
 20
12.5
 30
0.0
  0
POINT
  5
73
330
47
100
AcDbEntity
  8
1
 62
     4
100
AcDbPoint
 10
129.25
 20
12.5
 30
0.0
  0
POINT
  5
74
330
47
100
AcDbEntity
  8
1
 62
     4
100
AcDbPoint
 10
117.75
 20
12.5
 30
0.0
  0
POINT
  5
75
330
47
100
AcDbEntity
  8
1
 62
     4
100
AcDbPoint
 10
140.5
 20
19.00000000000001
 30
0.0
  0
POINT
  5
76
330
47
100
AcDbEntity
  8
1
 62
     4
100
AcDbPoint
 10
140.5
 20
12.5
 30
0.0
  0
POINT
  5
77
330
47
100
AcDbEntity
  8
1
 62
     4
100
AcDbPoint
 10
146.25
 20
12.5
 30
0.0
  0
POINT
  5
78
330
47
100
AcDbEntity
  8
1
 62
     4
100
AcDbPoint
 10
134.75
 20
12.5
 30
0.0
  0
POINT
  5
79
330
47
100
AcDbEntity
  8
1
 62
     4
100
AcDbPoint
 10
151.75
 20
12.5
 30
0.0
  0
POINT
  5
7A
330
47
100
AcDbEntity
  8
1
 62
     4
100
AcDbPoint
 10
163.25
 20
12.5
 30
0.0
  0
POINT
  5
7B
330
47
100
AcDbEntity
  8
1
 62
     4
100
AcDbPoint
 10
157.5
 20
12.5
 30
0.0
  0
POINT
  5
7C
330
47
100
AcDbEntity
  8
1
 62
     4
100
AcDbPoint
 10
56.99999999999997
 20
14.25
 30
0.0
  0
POINT
  5
7D
330
47
100
AcDbEntity
  8
1
 62
     4
100
AcDbPoint
 10
56.99999999999997
 20
22.75000000000001
 30
0.0
  0
POINT
  5
7E
330
47
100
AcDbEntity
  8
1
 62
     4
100
AcDbPoint
 10
47.49999999999997
 20
282.0000000000003
 30
0.0
  0
POINT
  5
7F
330
47
100
AcDbEntity
  8
1
 62
     4
100
AcDbPoint
 10
157.5
 20
19.00000000000001
 30
0.0
  0
POINT
  5
80
330
47
100
AcDbEntity
  8
1
 62
     4
100
AcDbPoint
 10
56.99999999999997
 20
16.25
 30
0.0
  0
POINT
  5
81
330
47
100
AcDbEntity
  8
1
 62
     4
100
AcDbPoint
 10
56.99999999999997
 20
24.75000000000001
 30
0.0
  0
POINT
  5
82
330
47
100
AcDbEntity
  8
1
 62
     4
100
AcDbPoint
 10
56.99999999999997
 20
20.75000000000001
 30
0.0
  0
POINT
  5
83
330
47
100
AcDbEntity
  8
1
 62
     4
100
AcDbPoint
 10
56.99999999999997
 20
12.25
 30
0.0
  0
POINT
  5
84
330
47
100
AcDbEntity
  8
1
 62
     4
100
AcDbPoint
 10
33.99999999999997
 20
34.0
 30
0.0
  0
LINE
  5
85
330
47
100
AcDbEntity
  8
1
  6
Continuous
 62
     7
100
AcDbLine
 10
105.0
 20
10.0
 30
0.0
 11
200.0
 21
10.0
 31
0.0
  0
LINE
  5
86
330
47
100
AcDbEntity
  8
1
  6
Continuous
 62
     2
100
AcDbLine
 10
105.0
 20
10.0
 30
0.0
 11
105.0
 21
5.0
 31
0.0
  0
LINE
  5
87
330
47
100
AcDbEntity
  8
1
  6
Continuous
 62
     7
100
AcDbLine
 10
200.0
 20
148.5
 30
0.0
 11
200.0
 21
287.0000000000003
 31
0.0
  0
LINE
  5
88
330
47
100
AcDbEntity
  8
1
  6
Continuous
 62
     2
100
AcDbLine
 10
200.0
 20
148.5
 30
0.0
 11
205.0
 21
148.5
 31
0.0
  0
LINE
  5
89
330
47
100
AcDbEntity
  8
1
  6
Continuous
 62
     7
100
AcDbLine
 10
24.99999999999997
 20
148.5
 30
0.0
 11
24.99999999999997
 21
287.0000000000003
 31
0.0
  0
LINE
  5
8A
330
47
100
AcDbEntity
  8
1
  6
Continuous
 62
     2
100
AcDbLine
 10
24.99999999999997
 20
148.5
 30
0.0
 11
19.99999999999997
 21
148.5
 31
0.0
  0
LINE
  5
8B
330
47
100
AcDbEntity
  8
1
  6
Continuous
 62
     7
100
AcDbLine
 10
105.0
 20
287.0000000000003
 30
0.0
 11
24.99999999999997
 21
287.0000000000003
 31
0.0
  0
LINE
  5
8C
330
47
100
AcDbEntity
  8
1
  6
Continuous
 62
     2
100
AcDbLine
 10
105.0
 20
287.0000000000003
 30
0.0
 11
105.0
 21
292.0000000000003
 31
0.0
  0
LINE
  5
8D
330
47
100
AcDbEntity
  8
1
  6
Continuous
 62
     2
100
AcDbLine
 10
166.0
 20
20.00000000000001
 30
0.0
 11
200.0
 21
20.00000000000001
 31
0.0
  0
LINE
  5
8E
330
47
100
AcDbEntity
  8
1
  6
Continuous
 62
     2
100
AcDbLine
 10
97.99999999999997
 20
27.00000000000001
 30
0.0
 11
97.99999999999997
 21
10.0
 31
0.0
  0
LINE
  5
8F
330
47
100
AcDbEntity
  8
1
  6
Continuous
 62
     2
100
AcDbLine
 10
115.0
 20
27.00000000000001
 30
0.0
 11
115.0
 21
9.99999999999999
 31
0.0
  0
LINE
  5
90
330
47
100
AcDbEntity
  8
1
  6
Continuous
 62
     2
100
AcDbLine
 10
149.0
 20
27.00000000000001
 30
0.0
 11
149.0
 21
10.0
 31
0.0
  0
LINE
  5
91
330
47
100
AcDbEntity
  8
1
  6
Continuous
 62
     2
100
AcDbLine
 10
132.0
 20
27.00000000000001
 30
0.0
 11
132.0
 21
9.99999999999999
 31
0.0
  0
LINE
  5
92
330
47
100
AcDbEntity
  8
1
  6
Continuous
 62
     2
100
AcDbLine
 10
166.0
 20
27.00000000000001
 30
0.0
 11
166.0
 21
10.0
 31
0.0
  0
LINE
  5
93
330
47
100
AcDbEntity
  8
1
  6
Continuous
 62
     2
100
AcDbLine
 10
54.99999999999997
 20
277.0000000000003
 30
0.0
 11
24.99999999999997
 21
277.0000000000003
 31
0.0
  0
LINE
  5
94
330
47
100
AcDbEntity
  8
1
  6
Continuous
 62
     7
100
AcDbLine
 10
24.99999999999997
 20
10.0
 30
0.0
 11
24.99999999999997
 21
148.5
 31
0.0
  0
LINE
  5
95
330
47
100
AcDbEntity
  8
1
  6
Continuous
 62
     2
100
AcDbLine
 10
39.99999999999997
 20
287.0000000000003
 30
0.0
 11
39.99999999999997
 21
277.0000000000003
 31
0.0
  0
LINE
  5
96
330
47
100
AcDbEntity
  8
1
  6
Continuous
 62
     2
100
AcDbLine
 10
54.99999999999997
 20
287.0000000000003
 30
0.0
 11
54.99999999999997
 21
277.0000000000003
 31
0.0
  0
LINE
  5
97
330
47
100
AcDbEntity
  8
1
  6
Continuous
 62
     2
100
AcDbLine
 10
32.99999999999997
 20
41.0
 30
0.0
 11
32.99999999999997
 21
27.0
 31
0.0
  0
LINE
  5
98
330
47
100
AcDbEntity
  8
1
  6
Continuous
 62
     7
100
AcDbLine
 10
200.0
 20
27.00000000000001
 30
0.0
 11
24.99999999999997
 21
27.00000000000001
 31
0.0
  0
LINE
  5
99
330
47
100
AcDbEntity
  8
1
  6
Continuous
 62
     7
100
AcDbLine
 10
24.99999999999997
 20
41.0
 30
0.0
 11
200.0
 21
41.0
 31
0.0
  0
LINE
  5
9A
330
47
100
AcDbEntity
  8
1
  6
PHANTOM
 62
     4
100
AcDbLine
 10
0.0
 20
0.0
 30
0.0
 11
210.0
 21
0.0
 31
0.0
  0
LINE
  5
9B
330
47
100
AcDbEntity
  8
1
  6
PHANTOM
 62
     4
100
AcDbLine
 10
210.0
 20
0.0
 30
0.0
 11
210.0
 21
297.0
 31
0.0
  0
LINE
  5
9C
330
47
100
AcDbEntity
  8
1
  6
PHANTOM
 62
     4
100
AcDbLine
 10
210.0
 20
297.0
 30
0.0
 11
0.0
 21
297.0
 31
0.0
  0
LINE
  5
9D
330
47
100
AcDbEntity
  8
1
  6
PHANTOM
 62
     4
100
AcDbLine
 10
0.0
 20
297.0
 30
0.0
 11
0.0
 21
0.0
 31
0.0
  0
LINE
  5
9E
330
47
100
AcDbEntity
  8
1
  6
Continuous
 62
     7
100
AcDbLine
 10
24.99999999999997
 20
10.0
 30
0.0
 11
105.0
 21
10.0
 31
0.0
  0
LINE
  5
9F
330
47
100
AcDbEntity
  8
1
  6
Continuous
 62
     7
100
AcDbLine
 10
200.0
 20
10.0
 30
0.0
 11
200.0
 21
148.5
 31
0.0
  0
LINE
  5
A0
330
47
100
AcDbEntity
  8
1
  6
Continuous
 62
     7
100
AcDbLine
 10
200.0
 20
287.0000000000003
 30
0.0
 11
105.0
 21
287.0000000000003
 31
0.0
  0
LINE
  5
A1
330
47
100
AcDbEntity
  8
1
  6
Continuous
 62
     2
100
AcDbLine
 10
24.99999999999997
 20
18.50000000000001
 30
0.0
 11
80.99999999999997
 21
18.50000000000001
 31
0.0
  0
LINE
  5
A2
330
47
100
AcDbEntity
  8
1
  6
Continuous
 62
     2
100
AcDbLine
 10
32.99999999999997
 20
27.0
 30
0.0
 11
32.99999999999997
 21
10.0
 31
0.0
  0
LINE
  5
A3
330
47
100
AcDbEntity
  8
1
  6
Continuous
 62
     7
100
AcDbLine
 10
191.0
 20
24.70000000000002
 30
0.0
 11
191.0
 21
22.30000000000001
 31
0.0
  0
LINE
  5
A4
330
47
100
AcDbEntity
  8
1
  6
Continuous
 62
     7
100
AcDbLine
 10
191.0
 20
24.70000000000002
 30
0.0
 11
196.0
 21
25.50000000000001
 31
0.0
  0
LINE
  5
A5
330
47
100
AcDbEntity
  8
1
  6
Continuous
 62
     7
100
AcDbLine
 10
196.0
 20
25.50000000000001
 30
0.0
 11
196.0
 21
21.50000000000001
 31
0.0
  0
LINE
  5
A6
330
47
100
AcDbEntity
  8
1
  6
Continuous
 62
     7
100
AcDbLine
 10
196.0
 20
21.50000000000001
 30
0.0
 11
191.0
 21
22.30000000000001
 31
0.0
  0
LINE
  5
A7
330
47
100
AcDbEntity
  8
1
  6
DOT_CENTER
 62
     2
100
AcDbLine
 10
184.0
 20
23.50000000000001
 30
0.0
 11
197.0
 21
23.50000000000001
 31
0.0
  0
LINE
  5
A8
330
47
100
AcDbEntity
  8
1
  6
DOT_CENTER
 62
     2
100
AcDbLine
 10
187.0
 20
26.50000000000001
 30
0.0
 11
187.0
 21
20.50000000000001
 31
0.0
  0
LINE
  5
A9
330
47
100
AcDbEntity
  8
1
  6
Continuous
 62
     2
100
AcDbLine
 10
80.99999999999997
 20
27.00000000000001
 30
0.0
 11
80.99999999999997
 21
10.0
 31
0.0
  0
CIRCLE
  5
AA
330
47
100
AcDbEntity
  8
1
  6
Continuous
 62
     7
100
AcDbCircle
 10
103.5
 20
12.5
 30
0.0
 40
0.2999999999999972
  0
CIRCLE
  5
AB
330
47
100
AcDbEntity
  8
1
  6
Continuous
 62
     7
100
AcDbCircle
 10
109.5
 20
12.5
 30
0.0
 40
0.2999999999999972
  0
CIRCLE
  5
AC
330
47
100
AcDbEntity
  8
1
  6
Continuous
 62
     7
100
AcDbCircle
 10
120.5
 20
12.5
 30
0.0
 40
0.2999999999999972
  0
CIRCLE
  5
AD
330
47
100
AcDbEntity
  8
1
  6
Continuous
 62
     7
100
AcDbCircle
 10
126.5
 20
12.5
 30
0.0
 40
0.2999999999999972
  0
CIRCLE
  5
AE
330
47
100
AcDbEntity
  8
1
  6
Continuous
 62
     7
100
AcDbCircle
 10
137.5
 20
12.5
 30
0.0
 40
0.3000000000000114
  0
CIRCLE
  5
AF
330
47
100
AcDbEntity
  8
1
  6
Continuous
 62
     7
100
AcDbCircle
 10
143.5
 20
12.5
 30
0.0
 40
0.3000000000000114
  0
CIRCLE
  5
B0
330
47
100
AcDbEntity
  8
1
  6
Continuous
 62
     7
100
AcDbCircle
 10
160.5
 20
12.5
 30
0.0
 40
0.3000000000000114
  0
CIRCLE
  5
B1
330
47
100
AcDbEntity
  8
1
  6
Continuous
 62
     7
100
AcDbCircle
 10
154.5
 20
12.5
 30
0.0
 40
0.3000000000000114
  0
CIRCLE
  5
B2
330
47
100
AcDbEntity
  8
1
  6
Continuous
 62
     7
100
AcDbCircle
 10
187.0
 20
23.50000000000001
 30
0.0
 40
1.200000000000102
  0
CIRCLE
  5
B3
330
47
100
AcDbEntity
  8
1
  6
Continuous
 62
     7
100
AcDbCircle
 10
187.0
 20
23.50000000000001
 30
0.0
 40
2.0
  0
CIRCLE
  5
B4
330
47
100
AcDbEntity
  8
1
  6
DOT_CENTER
 62
     7
100
AcDbCircle
 10
89.49999999999997
 20
16.0
 30
0.0
 40
0.1000000000000227
  0
CIRCLE
  5
B5
330
47
100
AcDbEntity
  8
1
  6
DOT_CENTER
 62
     7
100
AcDbCircle
 10
89.49999999999997
 20
18.0
 30
0.0
 40
0.1000000000000227
  0
MTEXT
  5
B7
330
47
100
AcDbEntity
  8
1
 62
     7
100
AcDbMText
 10
188.5
 20
15.0
 30
0.0
 40
3.0
 41
0.0
 71
     5
 72
     1
  1
三栄水栓製作所
  7
CONVERTER_11
 73
     1
 44
1.0
  0
MTEXT
  5
B8
330
47
100
AcDbEntity
  8
1
 62
     7
100
AcDbMText
 10
171.5
 20
15.0
 30
0.0
 40
2.5
 41
0.0
 71
     5
 72
     1
  1
株式会社
  7
CONVERTER_11
 73
     1
 44
1.0
  0
MTEXT
  5
B9
330
47
100
AcDbEntity
  8
1
 62
     2
100
AcDbMText
 10
32.49999999999997
 20
282.0000000000003
 30
0.0
 40
5.0
 41
0.0
 71
     5
 72
     1
  1
図番
  7
CONVERTER_11
 73
     1
 44
0.45454545454545
  0
MTEXT
  5
BA
330
47
100
AcDbEntity
  8
1
 62
     2
100
AcDbMText
 10
28.99999999999997
 20
34.0
 30
0.0
 40
3.5
 41
0.0
 71
     5
 72
     1
  1
備考
  7
CONVERTER_11
 73
     1
 44
0.45454545454545
  0
MTEXT
  5
BB
330
47
100
AcDbEntity
  8
1
 62
     2
100
AcDbMText
 10
28.99999999999997
 20
22.75
 30
0.0
 40
3.5
 41
0.0
 71
     5
 72
     1
  1
品名
  7
CONVERTER_11
 73
     1
 44
0.72727272727273
  0
MTEXT
  5
BC
330
47
100
AcDbEntity
  8
1
 62
     2
100
AcDbMText
 10
28.99999999999997
 20
14.25
 30
0.0
 40
3.5
 41
0.0
 71
     5
 72
     1
  1
品番
  7
CONVERTER_11
 73
     1
 44
0.72727272727273
  0
MTEXT
  5
BD
330
47
100
AcDbEntity
  8
1
 62
     2
100
AcDbMText
 10
101.5
 20
25.00000000000001
 30
0.0
 40
3.0
 41
0.0
 71
     5
 72
     1
  1
承認
  7
CONVERTER_11
 73
     1
 44
0.59090909090909
  0
MTEXT
  5
BE
330
47
100
AcDbEntity
  8
1
 62
     2
100
AcDbMText
 10
175.0
 20
23.50000000000001
 30
0.0
 40
3.5
 41
0.0
 71
     5
 72
     1
  1
第三角法
  7
CONVERTER_11
 73
     1
 44
0.54545454545455
  0
MTEXT
  5
BF
330
47
100
AcDbEntity
  8
1
 62
     2
100
AcDbMText
 10
118.5
 20
25.00000000000001
 30
0.0
 40
3.0
 41
0.0
 71
     5
 72
     1
  1
検図
  7
CONVERTER_11
 73
     1
 44
0.59090909090909
  0
MTEXT
  5
C0
330
47
100
AcDbEntity
  8
1
 62
     2
100
AcDbMText
 10
152.5
 20
25.00000000000001
 30
0.0
 40
3.0
 41
0.0
 71
     5
 72
     1
  1
設計
  7
CONVERTER_11
 73
     1
 44
0.59090909090909
  0
MTEXT
  5
C1
330
47
100
AcDbEntity
  8
1
 62
     2
100
AcDbMText
 10
135.5
 20
25.00000000000001
 30
0.0
 40
3.0
 41
0.0
 71
     5
 72
     1
  1
製図
  7
CONVERTER_11
 73
     1
 44
0.59090909090909
  0
MTEXT
  5
C2
330
47
100
AcDbEntity
  8
1
 62
     2
100
AcDbMText
 10
89.49999999999997
 20
24.00000000000001
 30
0.0
 40
3.5
 41
0.0
 71
     5
 72
     1
  1
尺度
  7
CONVERTER_11
 73
     1
 44
0.54545454545455
  0
MTEXT
  5
C3
330
47
100
AcDbEntity
  8
1
 62
   250
100
AcDbMText
 10
24.99999999999997
 20
5.0
 30
0.0
 40
3.5
 41
0.0
 71
     4
 72
     1
  1
備考欄の文字列 原点位置=4
  7
CONVERTER_11
 73
     1
 44
0.54545454545455
  0
ENDBLK
  5
49
330
47
100
AcDbEntity
  8
0
100
AcDbBlockEnd
  0
BLOCK
  5
4B
330
4A
100
AcDbEntity
  8
0
100
AcDbBlockBegin
  2
66-6-55-360
 70
     0
 10
778.345180220794
 20
646.548982381179
 30
0.0
  3
66-6-55-360
  1

  0
LINE
  5
C4
330
4A
100
AcDbEntity
  8
1
  6
Continuous
 62
     7
100
AcDbLine
 10
338.1999999999999
 20
1184.137510228571
 30
0.0
 11
338.1999999999999
 21
1198.837510228571
 31
0.0
  0
LINE
  5
C5
330
4A
100
AcDbEntity
  8
1
  6
Continuous
 62
     7
100
AcDbLine
 10
337.4999999999997
 20
1182.58751022857
 30
0.0
 11
338.1999999999999
 21
1182.58751022857
 31
0.0
  0
LINE
  5
C6
330
4A
100
AcDbEntity
  8
1
  6
Continuous
 62
     7
100
AcDbLine
 10
338.1999999999999
 20
1184.137510228571
 30
0.0
 11
338.1999999999999
 21
1182.58751022857
 31
0.0
  0
LINE
  5
C7
330
4A
100
AcDbEntity
  8
1
  6
Continuous
 62
     7
100
AcDbLine
 10
338.1999999999999
 20
1198.837510228571
 30
0.0
 11
338.1999999999999
 21
1200.387510228571
 31
0.0
  0
LINE
  5
C8
330
4A
100
AcDbEntity
  8
1
  6
Continuous
 62
     7
100
AcDbLine
 10
338.1999999999999
 20
1200.387510228571
 30
0.0
 11
337.4999999999997
 21
1200.387510228571
 31
0.0
  0
LINE
  5
C9
330
4A
100
AcDbEntity
  8
1
  6
Continuous
 62
     7
100
AcDbLine
 10
337.4999999999997
 20
1200.387510228571
 30
0.0
 11
337.4999999999997
 21
1182.58751022857
 31
0.0
  0
LINE
  5
CA
330
4A
100
AcDbEntity
  8
1
  6
Continuous
 62
     7
100
AcDbLine
 10
392.4999999999997
 20
1185.13751022857
 30
0.0
 11
339.1999999999999
 21
1185.13751022857
 31
0.0
  0
LINE
  5
CB
330
4A
100
AcDbEntity
  8
1
  6
Continuous
 62
     7
100
AcDbLine
 10
392.4999999999997
 20
1197.83751022857
 30
0.0
 11
339.1999999999999
 21
1197.83751022857
 31
0.0
  0
LINE
  5
CC
330
4A
100
AcDbEntity
  8
1
  6
Continuous
 62
     7
100
AcDbLine
 10
386.1499999999998
 20
1080.237911189721
 30
0.0
 11
386.1499999999998
 21
825.4710883460289
 31
0.0
  0
LINE
  5
CD
330
4A
100
AcDbEntity
  8
1
  6
Continuous
 62
     7
100
AcDbLine
 10
338.1999999999999
 20
1113.887911189721
 30
0.0
 11
338.1999999999999
 21
1112.887911189721
 31
0.0
  0
LINE
  5
CE
330
4A
100
AcDbEntity
  8
1
  6
Continuous
 62
     7
100
AcDbLine
 10
338.1999999999999
 20
1126.587911189721
 30
0.0
 11
338.1999999999999
 21
1127.687911189721
 31
0.0
  0
LINE
  5
CF
330
4A
100
AcDbEntity
  8
1
  6
Continuous
 62
     7
100
AcDbLine
 10
338.1999999999999
 20
1113.887911189721
 30
0.0
 11
338.1999999999999
 21
1126.587911189721
 31
0.0
  0
LINE
  5
D0
330
4A
100
AcDbEntity
  8
1
  6
Continuous
 62
     7
100
AcDbLine
 10
337.4999999999999
 20
1111.337911189721
 30
0.0
 11
338.1999999999999
 21
1111.337911189721
 31
0.0
  0
LINE
  5
D1
330
4A
100
AcDbEntity
  8
1
  6
Continuous
 62
     7
100
AcDbLine
 10
338.1999999999999
 20
1112.887911189721
 30
0.0
 11
338.1999999999999
 21
1111.337911189721
 31
0.0
  0
LINE
  5
D2
330
4A
100
AcDbEntity
  8
1
  6
Continuous
 62
     7
100
AcDbLine
 10
339.1999999999999
 20
1113.887911189721
 30
0.0
 11
352.4999999999999
 21
1113.887911189721
 31
0.0
  0
LINE
  5
D3
330
4A
100
AcDbEntity
  8
1
  6
Continuous
 62
     7
100
AcDbLine
 10
386.1499999999998
 20
825.4710883460289
 30
0.0
 11
386.1499999999998
 21
772.1614610364331
 31
0.0
  0
LINE
  5
D4
330
4A
100
AcDbEntity
  8
1
  6
Continuous
 62
     7
100
AcDbLine
 10
398.8499999999999
 20
822.0681336021536
 30
0.0
 11
398.8499999999999
 21
1080.237911189721
 31
0.0
  0
LINE
  5
D5
330
4A
100
AcDbEntity
  8
1
  6
Continuous
 62
     7
100
AcDbLine
 10
339.1999999999999
 20
1126.587911189721
 30
0.0
 11
352.4999999999999
 21
1126.587911189721
 31
0.0
  0
LINE
  5
D6
330
4A
100
AcDbEntity
  8
1
  6
Continuous
 62
     7
100
AcDbLine
 10
338.1999999999999
 20
1127.687911189721
 30
0.0
 11
338.1999999999999
 21
1129.137911189721
 31
0.0
  0
LINE
  5
D7
330
4A
100
AcDbEntity
  8
1
  6
Continuous
 62
     7
100
AcDbLine
 10
338.1999999999999
 20
1129.137911189721
 30
0.0
 11
337.4999999999999
 21
1129.137911189721
 31
0.0
  0
LINE
  5
D8
330
4A
100
AcDbEntity
  8
1
  6
Continuous
 62
     7
100
AcDbLine
 10
337.4999999999999
 20
1129.137911189721
 30
0.0
 11
337.4999999999999
 21
1111.337911189721
 31
0.0
  0
LINE
  5
D9
330
4A
100
AcDbEntity
  8
1
  6
Continuous
 62
     7
100
AcDbLine
 10
398.8499999999999
 20
772.1614610364331
 30
0.0
 11
398.8499999999999
 21
822.0681336021536
 31
0.0
  0
LINE
  5
DA
330
4A
100
AcDbEntity
  8
1
  6
Continuous
 62
     7
100
AcDbLine
 10
546.1499999999999
 20
1120.237911189721
 30
0.0
 11
546.1499999999999
 21
1114.001926904943
 31
0.0
  0
LINE
  5
DB
330
4A
100
AcDbEntity
  8
1
  6
Continuous
 62
     7
100
AcDbLine
 10
546.1499999999999
 20
825.4710883460289
 30
0.0
 11
546.1499999999999
 21
772.1614610364331
 31
0.0
  0
LINE
  5
DC
330
4A
100
AcDbEntity
  8
1
  6
Continuous
 62
     7
100
AcDbLine
 10
558.8499999999999
 20
822.0681336021536
 30
0.0
 11
558.8499999999999
 21
1114.001926904943
 31
0.0
  0
LINE
  5
DD
330
4A
100
AcDbEntity
  8
1
  6
Continuous
 62
     7
100
AcDbLine
 10
558.8499999999999
 20
772.1614610364331
 30
0.0
 11
558.8499999999999
 21
822.0681336021536
 31
0.0
  0
LINE
  5
DE
330
4A
100
AcDbEntity
  8
1
  6
Continuous
 62
     7
100
AcDbLine
 10
546.1499999999999
 20
1114.001926904943
 30
0.0
 11
546.1499999999999
 21
825.4710883460289
 31
0.0
  0
LINE
  5
DF
330
4A
100
AcDbEntity
  8
1
  6
Continuous
 62
     7
100
AcDbLine
 10
558.8499999999999
 20
1114.001926904943
 30
0.0
 11
558.8499999999999
 21
1120.237911189721
 31
0.0
  0
ARC
  5
E0
330
4A
100
AcDbEntity
  8
1
  6
Continuous
 62
     7
100
AcDbCircle
 10
392.4999999999997
 20
1191.487510228571
 30
0.0
 40
6.350000000001046
100
AcDbArc
 50
270.0
 51
90.0
  0
ARC
  5
E1
330
4A
100
AcDbEntity
  8
1
  6
Continuous
 62
     7
100
AcDbCircle
 10
352.4999999999999
 20
1080.237911189721
 30
0.0
 40
33.64999999999992
100
AcDbArc
 50
0.0
 51
90.0
  0
ARC
  5
E2
330
4A
100
AcDbEntity
  8
1
  6
Continuous
 62
     7
100
AcDbCircle
 10
352.4999999999999
 20
1080.237911189721
 30
0.0
 40
46.35000000000002
100
AcDbArc
 50
0.0
 51
90.0
  0
ARC
  5
E3
330
4A
100
AcDbEntity
  8
0
  6
Continuous
 62
     7
100
AcDbCircle
 10
552.4999999999999
 20
1120.237911189721
 30
0.0
 40
6.350000000000023
100
AcDbArc
 50
0.0
 51
180.0
  0
ARC
  5
E4
330
4A
100
AcDbEntity
  8
1
  6
Continuous
 62
     7
100
AcDbCircle
 10
552.4999999999999
 20
1120.237911189721
 30
0.0
 40
8.899999999999874
100
AcDbArc
 50
315.5190250077213
 51
224.4809749922787
  0
ARC
  5
E5
330
4A
100
AcDbEntity
  8
1
  6
Continuous
 62
     7
100
AcDbCircle
 10
339.1999999999999
 20
1198.83751022857
 30
0.0
 40
1.0
100
AcDbArc
 50
179.9999999999349
 51
270.0
  0
ARC
  5
E6
330
4A
100
AcDbEntity
  8
1
  6
Continuous
 62
     7
100
AcDbCircle
 10
339.1999999999999
 20
1184.13751022857
 30
0.0
 40
1.0
100
AcDbArc
 50
90.0
 51
179.9999999999349
  0
ARC
  5
E7
330
4A
100
AcDbEntity
  8
1
  6
Continuous
 62
     7
100
AcDbCircle
 10
339.1999999999999
 20
1112.887911189721
 30
0.0
 40
1.0
100
AcDbArc
 50
90.0
 51
180.0
  0
ARC
  5
E8
330
4A
100
AcDbEntity
  8
1
  6
Continuous
 62
     7
100
AcDbCircle
 10
339.2499999999999
 20
1127.637911189721
 30
0.0
 40
1.051189802081441
100
AcDbArc
 50
177.2736890060962
 51
267.2736890060935
  0
ENDBLK
  5
4C
330
4A
100
AcDbEntity
  8
0
100
AcDbBlockEnd
  0
BLOCK
  5
4E
330
4D
100
AcDbEntity
  8
0
100
AcDbBlockBegin
  2
32-12-M2
 70
     0
 10
468.5356166437392
 20
804.7040673785477
 30
0.0
  3
32-12-M2
  1

  0
LINE
  5
E9
330
4D
100
AcDbEntity
  8
1
  6
Continuous
 62
     7
100
AcDbLine
 10
563.3923048454133
 20
772.1614610364331
 30
0.0
 11
541.6076951545867
 21
772.1614610364331
 31
0.0
  0
LINE
  5
EA
330
4D
100
AcDbEntity
  8
1
  6
Continuous
 62
     7
100
AcDbLine
 10
541.6076951545867
 20
760.1614610364331
 30
0.0
 11
563.3923048454133
 21
760.1614610364331
 31
0.0
  0
LINE
  5
EB
330
4D
100
AcDbEntity
  8
1
  6
Continuous
 62
     7
100
AcDbLine
 10
394.0073593128804
 20
1203.899841961587
 30
0.0
 11
394.7153903091729
 21
1203.491060075283
 31
0.0
  0
LINE
  5
EC
330
4D
100
AcDbEntity
  8
1
  6
Continuous
 62
     7
100
AcDbLine
 10
394.7153903091729
 20
1203.491060075283
 30
0.0
 11
402.4926406871188
 21
1199.000862476021
 31
0.0
  0
LINE
  5
ED
330
4D
100
AcDbEntity
  8
1
  6
Continuous
 62
     7
100
AcDbLine
 10
403.9999999999997
 20
1196.390039560849
 30
0.0
 11
403.9999999999997
 21
1186.592080589717
 31
0.0
  0
LINE
  5
EE
330
4D
100
AcDbEntity
  8
1
  6
Continuous
 62
     7
100
AcDbLine
 10
402.4926406871188
 20
1183.981257674545
 30
0.0
 11
394.0073593128804
 21
1179.082278188979
 31
0.0
  0
LINE
  5
EF
330
4D
100
AcDbEntity
  8
1
  6
Continuous
 62
     7
100
AcDbLine
 10
390.9926406871188
 20
1179.082278188979
 30
0.0
 11
382.5073593128804
 21
1183.981257674545
 31
0.0
  0
LINE
  5
F0
330
4D
100
AcDbEntity
  8
1
  6
Continuous
 62
     7
100
AcDbLine
 10
382.5073593128804
 20
1199.000862476021
 30
0.0
 11
390.9926406871188
 21
1203.899841961587
 31
0.0
  0
LINE
  5
F1
330
4D
100
AcDbEntity
  8
1
  6
Continuous
 62
     7
100
AcDbLine
 10
381.6076951545865
 20
772.1614610364331
 30
0.0
 11
403.3923048454131
 21
772.1614610364331
 31
0.0
  0
LINE
  5
F2
330
4D
100
AcDbEntity
  8
1
  6
Continuous
 62
     7
100
AcDbLine
 10
403.9999999999999
 20
770.9572925597458
 30
0.0
 11
403.9999999999999
 21
761.3656295131204
 31
0.0
  0
LINE
  5
F3
330
4D
100
AcDbEntity
  8
1
  6
Continuous
 62
     7
100
AcDbLine
 10
380.9999999999999
 20
770.9572925597458
 30
0.0
 11
380.9999999999999
 21
761.3656295131203
 31
0.0
  0
LINE
  5
F4
330
4D
100
AcDbEntity
  8
1
  6
Continuous
 62
     7
100
AcDbLine
 10
403.3923048454131
 20
760.1614610364331
 30
0.0
 11
381.6076951545865
 21
760.1614610364331
 31
0.0
  0
ARC
  5
F5
330
4D
100
AcDbEntity
  8
1
  6
Continuous
 62
     7
100
AcDbCircle
 10
553.0
 20
766.1614610364331
 30
0.0
 40
12.0
100
AcDbArc
 50
330.0
 51
30.0
  0
ARC
  5
F6
330
4D
100
AcDbEntity
  8
1
  6
Continuous
 62
     7
100
AcDbCircle
 10
552.0
 20
766.1614610364331
 30
0.0
 40
12.0
100
AcDbArc
 50
150.0
 51
210.0
  0
ARC
  5
F7
330
4D
100
AcDbEntity
  8
1
  6
Continuous
 62
     7
100
AcDbCircle
 10
392.4999999999997
 20
1191.491060075283
 30
0.0
 40
12.50000000000008
100
AcDbArc
 50
143.0739180656307
 51
149.4692976613084
  0
ARC
  5
F8
330
4D
100
AcDbEntity
  8
1
  6
Continuous
 62
     7
100
AcDbCircle
 10
392.4999999999997
 20
1191.491060075283
 30
0.0
 40
6.700000000000045
100
AcDbArc
 50
90.0
 51
108.6012961881819
  0
ARC
  5
F9
330
4D
100
AcDbEntity
  8
1
  6
Continuous
 62
     7
100
AcDbCircle
 10
392.4999999999997
 20
1191.491060075283
 30
0.0
 40
6.700000000000018
100
AcDbArc
 50
251.3987038118187
 51
90.0
  0
ARC
  5
FA
330
4D
100
AcDbEntity
  8
1
  6
Continuous
 62
     7
100
AcDbCircle
 10
392.4999999999997
 20
1191.491060075283
 30
0.0
 40
10.89230484541356
100
AcDbArc
 50
215.6604407724852
 51
90.0
  0
ARC
  5
FB
330
4D
100
AcDbEntity
  8
1
  6
Continuous
 62
     7
100
AcDbCircle
 10
392.4999999999997
 20
1191.491060075283
 30
0.0
 40
10.89230484541304
100
AcDbArc
 50
90.0
 51
144.3395592275157
  0
ARC
  5
FC
330
4D
100
AcDbEntity
  8
1
  6
Continuous
 62
     7
100
AcDbCircle
 10
392.4999999999997
 20
1191.491060075283
 30
0.0
 40
12.49999999999982
100
AcDbArc
 50
83.07391806563103
 51
90.0
  0
ARC
  5
FD
330
4D
100
AcDbEntity
  8
1
  6
Continuous
 62
     7
100
AcDbCircle
 10
392.4999999999997
 20
1191.491060075283
 30
0.0
 40
12.5
100
AcDbArc
 50
90.0
 51
96.92608193437002
  0
ARC
  5
FE
330
4D
100
AcDbEntity
  8
1
  6
Continuous
 62
     7
100
AcDbCircle
 10
392.4999999999997
 20
1191.491060075283
 30
0.0
 40
12.49999999999981
100
AcDbArc
 50
23.07391806562888
 51
36.92608193436988
  0
ARC
  5
FF
330
4D
100
AcDbEntity
  8
1
  6
Continuous
 62
     7
100
AcDbCircle
 10
392.4999999999997
 20
1191.491060075283
 30
0.0
 40
12.4999999999999
100
AcDbArc
 50
323.0739180656302
 51
336.9260819343701
  0
ARC
  5
100
330
4D
100
AcDbEntity
  8
1
  6
Continuous
 62
     7
100
AcDbCircle
 10
392.4999999999997
 20
1191.491060075283
 30
0.0
 40
12.5
100
AcDbArc
 50
270.0
 51
276.926081934369
  0
ARC
  5
101
330
4D
100
AcDbEntity
  8
1
  6
Continuous
 62
     7
100
AcDbCircle
 10
392.4999999999997
 20
1191.491060075283
 30
0.0
 40
12.49999999999984
100
AcDbArc
 50
263.07391806563
 51
270.0
  0
ARC
  5
102
330
4D
100
AcDbEntity
  8
1
  6
Continuous
 62
     7
100
AcDbCircle
 10
392.4999999999997
 20
1191.491060075283
 30
0.0
 40
12.49999999999986
100
AcDbArc
 50
210.5307023386925
 51
216.9260819343692
  0
ARC
  5
103
330
4D
100
AcDbEntity
  8
1
  6
Continuous
 62
     7
100
AcDbCircle
 10
392.9999999999999
 20
766.1614610364331
 30
0.0
 40
11.99999999999999
100
AcDbArc
 50
23.55646430910114
 51
30.00000000000014
  0
ARC
  5
104
330
4D
100
AcDbEntity
  8
1
  6
Continuous
 62
     7
100
AcDbCircle
 10
391.9999999999999
 20
766.1614610364331
 30
0.0
 40
12.00000000000004
100
AcDbArc
 50
203.5564643091016
 51
209.9999999999997
  0
ARC
  5
105
330
4D
100
AcDbEntity
  8
1
  6
Continuous
 62
     7
100
AcDbCircle
 10
392.9999999999999
 20
766.1614610364331
 30
0.0
 40
11.99999999999995
100
AcDbArc
 50
329.9999999999999
 51
336.4435356908989
  0
ARC
  5
106
330
4D
100
AcDbEntity
  8
1
  6
Continuous
 62
     7
100
AcDbCircle
 10
391.9999999999999
 20
766.1614610364331
 30
0.0
 40
12.0000000000001
100
AcDbArc
 50
150.0000000000003
 51
156.4435356908989
  0
CIRCLE
  5
107
330
4D
100
AcDbEntity
  8
1
  6
Continuous
 62
     7
100
AcDbCircle
 10
552.5
 20
766.2003125396432
 30
0.0
 40
4.835606911877903
  0
SPLINE
  5
108
330
4D
100
AcDbEntity
  8
0
  6
Continuous
 62
     7
100
AcDbSpline
210
0.0
220
0.0
230
1.0
 70
    11
 71
     3
 72
    79
 73
    75
 74
    73
 42
0.000000001
 43
0.0000000001
 44
0.00000001
 40
0.0
 40
0.0
 40
0.0
 40
0.0
 40
0.3706060660881541
 40
0.7412155659565783
 40
1.114842575177532
 40
1.488478804932509
 40
1.867722426157006
 40
2.246978581617041
 40
2.633663311835771
 40
3.020361276699115
 40
3.415339683975737
 40
3.810330133142838
 40
4.213433368451958
 40
4.616546403398044
 40
5.026662779317288
 40
5.436786259880499
 40
5.852032326859607
 40
6.267282665546207
 40
6.685233361527136
 40
7.103185479877953
 40
7.521137598219561
 40
7.939088294172821
 40
8.354338632812414
 40
8.769584699725197
 40
9.179708180202052
 40
9.589824556012946
 40
9.992937590829264
 40
10.39604082598368
 40
10.79103127497228
 40
11.1860096820409
 40
11.57270764666842
 40
11.95939237661458
 40
12.33864853176353
 40
12.71789215261803
 40
13.09152838191422
 40
13.46515539045951
 40
13.83576488884376
 40
14.20637096366533
 40
14.57697703848684
 40
14.94758653687098
 40
15.32121354541633
 40
15.69484977471247
 40
16.07409339556702
 40
16.45334955071606
 40
16.84003428066205
 40
17.22673224528963
 40
17.62171065235844
 40
18.01670110134693
 40
18.41980433650112
 40
18.82291737131761
 40
19.23303374712863
 40
19.6431572276054
 40
20.05840329451804
 40
20.47365363315774
 40
20.891604329111
 40
21.30955644745261
 40
21.72750856580343
 40
22.14545926178436
 40
22.56070960047106
 40
22.97595566745003
 40
23.38607914801324
 40
23.79619552393253
 40
24.19930855887849
 40
24.60241179418767
 40
24.99740224335477
 40
25.39238065063147
 40
25.77907861549478
 40
26.16576334571341
 40
26.54501950117344
 40
26.92426312239809
 40
27.2978993521531
 40
27.67152636137403
 40
28.0421358612424
 40
28.41274192733044
 40
28.41274192733044
 40
28.41274192733044
 40
28.41274192733044
 10
398.2499999999997
 20
770.9572925597458
 30
0.0
 10
398.3735842116499
 20
770.9537487865682
 30
0.0
 10
398.6207537801931
 20
770.9466612129985
 30
0.0
 10
398.9889091987166
 20
770.8897825945337
 30
0.0
 10
399.3508820208573
 20
770.7994140928632
 30
0.0
 10
399.7050938661369
 20
770.6728984180099
 30
0.0
 10
400.0472640308805
 20
770.5124163524409
 30
0.0
 10
400.3766284682703
 20
770.3183656862356
 30
0.0
 10
400.6886696498296
 20
770.0932737751664
 30
0.0
 10
400.9830996073893
 20
769.8375714153763
 30
0.0
 10
401.2556584967909
 20
769.5548173310426
 30
0.0
 10
401.5062010234095
 20
769.2453543247456
 30
0.0
 10
401.7311323747087
 20
768.9135253128252
 30
0.0
 10
401.9302269103459
 20
768.5598125324342
 30
0.0
 10
402.1008023435403
 20
768.1889221092385
 30
0.0
 10
402.2424875007722
 20
767.8017742095996
 30
0.0
 10
402.3535804836027
 20
767.4029887079943
 30
0.0
 10
402.4336529558646
 20
766.994189186317
 30
0.0
 10
402.4818915649126
 20
766.579516199198
 30
0.0
 10
402.4980152524608
 20
766.1614610459062
 30
0.0
 10
402.4818915652344
 20
765.743405892613
 30
0.0
 10
402.4336529565093
 20
765.3287329054781
 30
0.0
 10
402.3535804845733
 20
764.9199333838098
 30
0.0
 10
402.2424875020732
 20
764.5211478820906
 30
0.0
 10
402.1008023451779
 20
764.1339999827553
 30
0.0
 10
401.9302269123264
 20
763.7631095582872
 30
0.0
 10
401.7311323770419
 20
763.4093967823767
 30
0.0
 10
401.5062010261046
 20
763.0775677536739
 30
0.0
 10
401.2556584998607
 20
762.7681048085146
 30
0.0
 10
400.983099610847
 20
762.4853504982351
 30
0.0
 10
400.6886696536934
 20
762.2296489643459
 30
0.0
 10
400.3766284725619
 20
762.004554003937
 30
0.0
 10
400.0472640356338
 20
761.8105145082845
 30
0.0
 10
399.7050938714034
 20
761.649991128502
 30
0.0
 10
399.3508820267697
 20
761.523627461774
 30
0.0
 10
398.9889092056158
 20
761.4326949613733
 30
0.0
 10
398.6207537853265
 20
761.3779050442283
 30
0.0
 10
398.2499999999997
 20
761.3594917909157
 30
0.0
 10
397.879246214673
 20
761.3779050442283
 30
0.0
 10
397.511090794384
 20
761.4326949613735
 30
0.0
 10
397.1491179732297
 20
761.5236274617737
 30
0.0
 10
396.794906128596
 20
761.6499911285022
 30
0.0
 10
396.4527359643657
 20
761.8105145082844
 30
0.0
 10
396.1233715274376
 20
762.004554003937
 30
0.0
 10
395.8113303463059
 20
762.2296489643458
 30
0.0
 10
395.5169003891526
 20
762.4853504982352
 30
0.0
 10
395.2443415001388
 20
762.7681048085149
 30
0.0
 10
394.9937989738948
 20
763.0775677536736
 30
0.0
 10
394.7688676229578
 20
763.4093967823766
 30
0.0
 10
394.5697730876732
 20
763.7631095582873
 30
0.0
 10
394.3991976548218
 20
764.1339999827553
 30
0.0
 10
394.2575124979261
 20
764.5211478820905
 30
0.0
 10
394.1464195154263
 20
764.9199333838098
 30
0.0
 10
394.0663470434904
 20
765.3287329054779
 30
0.0
 10
394.0181084347653
 20
765.7434058926133
 30
0.0
 10
394.0019847475389
 20
766.1614610459062
 30
0.0
 10
394.0181084350869
 20
766.579516199198
 30
0.0
 10
394.0663470441351
 20
766.9941891863169
 30
0.0
 10
394.146419516397
 20
767.4029887079942
 30
0.0
 10
394.2575124992271
 20
767.8017742095998
 30
0.0
 10
394.3991976564593
 20
768.1889221092385
 30
0.0
 10
394.5697730896535
 20
768.5598125324342
 30
0.0
 10
394.768867625291
 20
768.9135253128251
 30
0.0
 10
394.9937989765897
 20
769.2453543247457
 30
0.0
 10
395.2443415032086
 20
769.5548173310427
 30
0.0
 10
395.5169003926104
 20
769.8375714153765
 30
0.0
 10
395.8113303501698
 20
770.0932737751665
 30
0.0
 10
396.1233715317292
 20
770.3183656862357
 30
0.0
 10
396.4527359691192
 20
770.5124163524409
 30
0.0
 10
396.7949061338627
 20
770.6728984180097
 30
0.0
 10
397.1491179791423
 20
770.7994140928635
 30
0.0
 10
397.511090801283
 20
770.8897825945337
 30
0.0
 10
397.8792462198065
 20
770.9466612129985
 30
0.0
 10
398.1264157883496
 20
770.9537487865686
 30
0.0
 10
398.2499999999997
 20
770.9572925597458
 30
0.0
 11
398.2499999999997
 21
770.9572925597458
 31
0.0
 11
398.6201533200706
 21
770.938979108917
 31
0.0
 11
398.9867268238137
 21
770.8844331027318
 31
0.0
 11
399.3491283919179
 21
770.793536210079
 31
0.0
 11
399.7010685758877
 21
770.6680685294224
 31
0.0
 11
400.0444868919682
 21
770.507166123359
 31
0.0
 11
400.3713203435593
 21
770.3147729678922
 31
0.0
 11
400.6850474574417
 21
770.0887190395543
 31
0.0
 11
400.977116866032
 21
769.8352811250015
 31
0.0
 11
401.251382385647
 21
769.551051698451
 31
0.0
 11
401.5000513225179
 21
769.2441621177625
 31
0.0
 11
401.7263799882894
 21
768.9105942036211
 31
0.0
 11
401.9242346141745
 21
768.5593767980894
 31
0.0
 11
402.0957255898437
 21
768.1868364820695
 31
0.0
 11
402.2367781463318
 21
767.8017320214021
 31
0.0
 11
402.3483047020061
 21
767.4017431171329
 31
0.0
 11
402.4281854419199
 21
766.9942484408539
 31
0.0
 11
402.4765216865254
 21
766.5791022114812
 31
0.0
 11
402.4926406871191
 21
766.1614610364331
 31
0.0
 11
402.4765216865255
 21
765.7438198613851
 31
0.0
 11
402.4281854419199
 21
765.3286736320122
 31
0.0
 11
402.3483047020061
 21
764.9211789557332
 31
0.0
 11
402.2367781463318
 21
764.5211900514639
 31
0.0
 11
402.0957255898438
 21
764.1360855907966
 31
0.0
 11
401.9242346141745
 21
763.7635452747767
 31
0.0
 11
401.7263799882894
 21
763.412327869245
 31
0.0
 11
401.5000513225179
 21
763.0787599551036
 31
0.0
 11
401.251382385647
 21
762.771870374415
 31
0.0
 11
400.977116866032
 21
762.4876409478645
 31
0.0
 11
400.6850474574417
 21
762.2342030333117
 31
0.0
 11
400.3713203435593
 21
762.0081491049739
 31
0.0
 11
400.0444868919682
 21
761.8157559495073
 31
0.0
 11
399.7010685758877
 21
761.6548535434438
 31
0.0
 11
399.3491283919179
 21
761.5293858627872
 31
0.0
 11
398.9867268238137
 21
761.4384889701344
 31
0.0
 11
398.6201533200706
 21
761.3839429639492
 31
0.0
 11
398.2499999999997
 21
761.3656295131204
 31
0.0
 11
397.8798466799288
 21
761.3839429639492
 31
0.0
 11
397.5132731761859
 21
761.4384889701344
 31
0.0
 11
397.1508716080817
 21
761.5293858627872
 31
0.0
 11
396.7989314241119
 21
761.6548535434438
 31
0.0
 11
396.4555131080314
 21
761.8157559495073
 31
0.0
 11
396.1286796564401
 21
762.0081491049739
 31
0.0
 11
395.8149525425578
 21
762.2342030333115
 31
0.0
 11
395.5228831339676
 21
762.4876409478645
 31
0.0
 11
395.2486176143524
 21
762.7718703744151
 31
0.0
 11
394.9999486774816
 21
763.0787599551036
 31
0.0
 11
394.7736200117101
 21
763.4123278692448
 31
0.0
 11
394.5757653858251
 21
763.7635452747767
 31
0.0
 11
394.4042744101558
 21
764.1360855907967
 31
0.0
 11
394.2632218536677
 21
764.5211900514639
 31
0.0
 11
394.1516952979935
 21
764.9211789557331
 31
0.0
 11
394.0718145580798
 21
765.3286736320122
 31
0.0
 11
394.0234783134742
 21
765.7438198613851
 31
0.0
 11
394.0073593128805
 21
766.1614610364331
 31
0.0
 11
394.0234783134742
 21
766.5791022114812
 31
0.0
 11
394.0718145580798
 21
766.9942484408539
 31
0.0
 11
394.1516952979935
 21
767.401743117133
 31
0.0
 11
394.2632218536677
 21
767.8017320214021
 31
0.0
 11
394.4042744101558
 21
768.1868364820695
 31
0.0
 11
394.5757653858251
 21
768.5593767980894
 31
0.0
 11
394.7736200117101
 21
768.910594203621
 31
0.0
 11
394.9999486774816
 21
769.2441621177625
 31
0.0
 11
395.2486176143524
 21
769.551051698451
 31
0.0
 11
395.5228831339676
 21
769.8352811250015
 31
0.0
 11
395.8149525425579
 21
770.0887190395543
 31
0.0
 11
396.1286796564401
 21
770.3147729678922
 31
0.0
 11
396.4555131080313
 21
770.5071661233588
 31
0.0
 11
396.7989314241119
 21
770.6680685294224
 31
0.0
 11
397.1508716080817
 21
770.7935362100791
 31
0.0
 11
397.5132731761859
 21
770.8844331027318
 31
0.0
 11
397.8798466799289
 21
770.938979108917
 31
0.0
 11
398.2499999999997
 21
770.9572925597458
 31
0.0
  0
SPLINE
  5
109
330
4D
100
AcDbEntity
  8
0
  6
Continuous
 62
     7
100
AcDbSpline
210
0.0
220
0.0
230
1.0
 70
    11
 71
     3
 72
    79
 73
    75
 74
    73
 42
0.000000001
 43
0.0000000001
 44
0.00000001
 40
0.0
 40
0.0
 40
0.0
 40
0.0
 40
0.3706060660881541
 40
0.7412155659565783
 40
1.114842575177532
 40
1.488478804932509
 40
1.867722426156954
 40
2.246978581617038
 40
2.633663311835676
 40
3.020361276699106
 40
3.415339683975928
 40
3.810330133142905
 40
4.213433368452025
 40
4.616546403398056
 40
5.026662779317324
 40
5.436786259880515
 40
5.852032326859608
 40
6.267282665546208
 40
6.685233361527143
 40
7.10318547987796
 40
7.52113759821957
 40
7.93908829417283
 40
8.354338632812413
 40
8.769584699725195
 40
9.17970818020205
 40
9.589824556012944
 40
9.992937590829234
 40
10.39604082598362
 40
10.79103127497222
 40
11.18600968204092
 40
11.57270764666843
 40
11.9593923766146
 40
12.33864853176354
 40
12.71789215261804
 40
13.09152838191418
 40
13.46515539045953
 40
13.83576488884378
 40
14.20637096366535
 40
14.57697703848686
 40
14.947586536871
 40
15.32121354541635
 40
15.69484977471248
 40
16.07409339556704
 40
16.45334955071608
 40
16.84003428066207
 40
17.22673224528964
 40
17.62171065235846
 40
18.01670110134695
 40
18.41980433650114
 40
18.82291737131763
 40
19.2330337471286
 40
19.64315722760537
 40
20.05840329451804
 40
20.47365363315775
 40
20.891604329111
 40
21.30955644745261
 40
21.72750856580342
 40
22.14545926178436
 40
22.56070960047107
 40
22.97595566745007
 40
23.38607914801328
 40
23.79619552393252
 40
24.19930855887848
 40
24.60241179418766
 40
24.99740224335476
 40
25.39238065063146
 40
25.77907861549476
 40
26.1657633457134
 40
26.54501950117343
 40
26.92426312239808
 40
27.29789935215315
 40
27.67152636137402
 40
28.04213586124233
 40
28.41274192733043
 40
28.41274192733043
 40
28.41274192733043
 40
28.41274192733043
 10
386.7499999999999
 20
770.9572925597458
 30
0.0
 10
386.6264157883495
 20
770.9537487865682
 30
0.0
 10
386.3792462198066
 20
770.9466612129985
 30
0.0
 10
386.0110908012831
 20
770.8897825945338
 30
0.0
 10
385.6491179791423
 20
770.7994140928631
 30
0.0
 10
385.2949061338629
 20
770.6728984180102
 30
0.0
 10
384.9527359691191
 20
770.5124163524408
 30
0.0
 10
384.6233715317294
 20
770.3183656862354
 30
0.0
 10
384.31133035017
 20
770.0932737751665
 30
0.0
 10
384.0169003926103
 20
769.8375714153763
 30
0.0
 10
383.7443415032087
 20
769.5548173310427
 30
0.0
 10
383.4937989765898
 20
769.2453543247454
 30
0.0
 10
383.2688676252909
 20
768.9135253128254
 30
0.0
 10
383.0697730896536
 20
768.5598125324341
 30
0.0
 10
382.8991976564593
 20
768.1889221092385
 30
0.0
 10
382.7575124992273
 20
767.8017742095997
 30
0.0
 10
382.646419516397
 20
767.4029887079942
 30
0.0
 10
382.566347044135
 20
766.9941891863168
 30
0.0
 10
382.518108435087
 20
766.5795161991983
 30
0.0
 10
382.5019847475388
 20
766.161461045906
 30
0.0
 10
382.5181084347654
 20
765.7434058926132
 30
0.0
 10
382.5663470434905
 20
765.3287329054782
 30
0.0
 10
382.6464195154263
 20
764.9199333838096
 30
0.0
 10
382.7575124979264
 20
764.5211478820909
 30
0.0
 10
382.8991976548216
 20
764.133999982755
 30
0.0
 10
383.0697730876732
 20
763.7631095582874
 30
0.0
 10
383.2688676229577
 20
763.4093967823765
 30
0.0
 10
383.4937989738949
 20
763.077567753674
 30
0.0
 10
383.7443415001387
 20
762.7681048085146
 30
0.0
 10
384.0169003891527
 20
762.4853504982354
 30
0.0
 10
384.311330346306
 20
762.229648964346
 30
0.0
 10
384.6233715274378
 20
762.004554003937
 30
0.0
 10
384.9527359643657
 20
761.8105145082847
 30
0.0
 10
385.2949061285962
 20
761.6499911285022
 30
0.0
 10
385.6491179732298
 20
761.5236274617737
 30
0.0
 10
386.011090794384
 20
761.4326949613735
 30
0.0
 10
386.3792462146731
 20
761.3779050442282
 30
0.0
 10
386.7499999999999
 20
761.3594917909161
 30
0.0
 10
387.1207537853266
 20
761.3779050442283
 30
0.0
 10
387.4889092056159
 20
761.4326949613735
 30
0.0
 10
387.8508820267697
 20
761.5236274617737
 30
0.0
 10
388.2050938714035
 20
761.6499911285022
 30
0.0
 10
388.5472640356339
 20
761.8105145082844
 30
0.0
 10
388.8766284725619
 20
762.004554003937
 30
0.0
 10
389.1886696536938
 20
762.2296489643458
 30
0.0
 10
389.4830996108469
 20
762.4853504982352
 30
0.0
 10
389.7556584998609
 20
762.7681048085149
 30
0.0
 10
390.0062010261047
 20
763.0775677536737
 30
0.0
 10
390.2311323770419
 20
763.4093967823763
 30
0.0
 10
390.4302269123265
 20
763.7631095582875
 30
0.0
 10
390.6008023451778
 20
764.1339999827553
 30
0.0
 10
390.7424875020732
 20
764.5211478820909
 30
0.0
 10
390.8535804845735
 20
764.9199333838096
 30
0.0
 10
390.9336529565091
 20
765.328732905478
 30
0.0
 10
390.9818915652343
 20
765.7434058926132
 30
0.0
 10
390.9980152524608
 20
766.1614610459061
 30
0.0
 10
390.9818915649128
 20
766.579516199198
 30
0.0
 10
390.9336529558646
 20
766.9941891863172
 30
0.0
 10
390.8535804836027
 20
767.402988707994
 30
0.0
 10
390.7424875007724
 20
767.8017742095999
 30
0.0
 10
390.6008023435402
 20
768.1889221092384
 30
0.0
 10
390.4302269103462
 20
768.5598125324345
 30
0.0
 10
390.2311323747086
 20
768.913525312825
 30
0.0
 10
390.0062010234097
 20
769.2453543247457
 30
0.0
 10
389.755658496791
 20
769.5548173310427
 30
0.0
 10
389.4830996073893
 20
769.8375714153765
 30
0.0
 10
389.1886696498296
 20
770.0932737751665
 30
0.0
 10
388.8766284682705
 20
770.3183656862357
 30
0.0
 10
388.5472640308805
 20
770.5124163524409
 30
0.0
 10
388.205093866137
 20
770.6728984180098
 30
0.0
 10
387.8508820208573
 20
770.7994140928633
 30
0.0
 10
387.4889091987166
 20
770.8897825945338
 30
0.0
 10
387.120753780193
 20
770.9466612129982
 30
0.0
 10
386.8735842116501
 20
770.9537487865682
 30
0.0
 10
386.7499999999999
 20
770.9572925597458
 30
0.0
 11
386.7499999999999
 21
770.9572925597458
 31
0.0
 11
386.379846679929
 21
770.938979108917
 31
0.0
 11
386.0132731761859
 21
770.8844331027318
 31
0.0
 11
385.6508716080817
 21
770.793536210079
 31
0.0
 11
385.2989314241119
 21
770.6680685294224
 31
0.0
 11
384.9555131080315
 21
770.507166123359
 31
0.0
 11
384.6286796564403
 21
770.3147729678922
 31
0.0
 11
384.314952542558
 21
770.0887190395543
 31
0.0
 11
384.0228831339676
 21
769.8352811250015
 31
0.0
 11
383.7486176143524
 21
769.5510516984509
 31
0.0
 11
383.4999486774816
 21
769.2441621177625
 31
0.0
 11
383.2736200117101
 21
768.9105942036211
 31
0.0
 11
383.0757653858251
 21
768.5593767980894
 31
0.0
 11
382.9042744101558
 21
768.1868364820695
 31
0.0
 11
382.7632218536678
 21
767.8017320214021
 31
0.0
 11
382.6516952979936
 21
767.4017431171329
 31
0.0
 11
382.5718145580798
 21
766.9942484408539
 31
0.0
 11
382.5234783134742
 21
766.5791022114812
 31
0.0
 11
382.5073593128805
 21
766.1614610364331
 31
0.0
 11
382.5234783134742
 21
765.7438198613851
 31
0.0
 11
382.5718145580798
 21
765.3286736320122
 31
0.0
 11
382.6516952979935
 21
764.9211789557332
 31
0.0
 11
382.7632218536678
 21
764.5211900514639
 31
0.0
 11
382.9042744101558
 21
764.1360855907966
 31
0.0
 11
383.0757653858251
 21
763.7635452747767
 31
0.0
 11
383.2736200117101
 21
763.412327869245
 31
0.0
 11
383.4999486774816
 21
763.0787599551036
 31
0.0
 11
383.7486176143524
 21
762.771870374415
 31
0.0
 11
384.0228831339676
 21
762.4876409478645
 31
0.0
 11
384.3149525425579
 21
762.2342030333117
 31
0.0
 11
384.6286796564403
 21
762.0081491049739
 31
0.0
 11
384.9555131080314
 21
761.8157559495073
 31
0.0
 11
385.2989314241119
 21
761.6548535434438
 31
0.0
 11
385.6508716080817
 21
761.5293858627872
 31
0.0
 11
386.0132731761859
 21
761.4384889701344
 31
0.0
 11
386.379846679929
 21
761.3839429639492
 31
0.0
 11
386.7499999999999
 21
761.3656295131204
 31
0.0
 11
387.1201533200708
 21
761.3839429639492
 31
0.0
 11
387.4867268238137
 21
761.4384889701344
 31
0.0
 11
387.8491283919179
 21
761.5293858627872
 31
0.0
 11
388.2010685758877
 21
761.6548535434438
 31
0.0
 11
388.5444868919682
 21
761.8157559495073
 31
0.0
 11
388.8713203435595
 21
762.0081491049739
 31
0.0
 11
389.1850474574418
 21
762.2342030333115
 31
0.0
 11
389.477116866032
 21
762.4876409478645
 31
0.0
 11
389.7513823856472
 21
762.7718703744151
 31
0.0
 11
390.000051322518
 21
763.0787599551036
 31
0.0
 11
390.2263799882895
 21
763.4123278692448
 31
0.0
 11
390.4242346141745
 21
763.7635452747767
 31
0.0
 11
390.5957255898437
 21
764.1360855907967
 31
0.0
 11
390.7367781463318
 21
764.5211900514639
 31
0.0
 11
390.8483047020061
 21
764.9211789557331
 31
0.0
 11
390.9281854419199
 21
765.3286736320122
 31
0.0
 11
390.9765216865254
 21
765.7438198613851
 31
0.0
 11
390.9926406871191
 21
766.1614610364331
 31
0.0
 11
390.9765216865255
 21
766.5791022114812
 31
0.0
 11
390.9281854419199
 21
766.9942484408539
 31
0.0
 11
390.8483047020061
 21
767.401743117133
 31
0.0
 11
390.7367781463318
 21
767.8017320214021
 31
0.0
 11
390.5957255898437
 21
768.1868364820695
 31
0.0
 11
390.4242346141745
 21
768.5593767980894
 31
0.0
 11
390.2263799882895
 21
768.910594203621
 31
0.0
 11
390.000051322518
 21
769.2441621177625
 31
0.0
 11
389.7513823856472
 21
769.551051698451
 31
0.0
 11
389.477116866032
 21
769.8352811250015
 31
0.0
 11
389.1850474574417
 21
770.0887190395543
 31
0.0
 11
388.8713203435595
 21
770.3147729678922
 31
0.0
 11
388.5444868919683
 21
770.5071661233588
 31
0.0
 11
388.2010685758877
 21
770.6680685294224
 31
0.0
 11
387.8491283919179
 21
770.7935362100791
 31
0.0
 11
387.4867268238137
 21
770.8844331027318
 31
0.0
 11
387.1201533200708
 21
770.938979108917
 31
0.0
 11
386.7499999999999
 21
770.9572925597458
 31
0.0
  0
SPLINE
  5
10A
330
4D
100
AcDbEntity
  8
1
  6
Continuous
 62
     7
100
AcDbSpline
210
0.0
220
0.0
230
1.0
 70
    11
 71
     3
 72
    79
 73
    75
 74
    73
 42
0.000000001
 43
0.0000000001
 44
0.00000001
 40
0.0
 40
0.0
 40
0.0
 40
0.0
 40
0.2164388449697537
 40
0.4330213861348762
 40
0.6664029419271222
 40
0.899955692996111
 40
1.162342901315323
 40
1.42479280930562
 40
1.721818246804695
 40
2.018877335816062
 40
2.350956322404527
 40
2.683053252371158
 40
3.046836482454613
 40
3.410630987512771
 40
3.800174951415775
 40
4.18972568391952
 40
4.597341507026921
 40
5.004961003975623
 40
5.421874688992181
 40
5.838789534383502
 40
6.255704379777747
 40
6.67261806480336
 40
7.080237561764992
 40
7.48785338488814
 40
7.877404117406333
 40
8.266948081319544
 40
8.630742586377881
 40
8.99452581644511
 40
9.32662274637327
 40
9.658701732887828
 40
9.955760821786635
 40
10.25278625910818
 40
10.51523616685834
 40
10.77762337482098
 40
11.01117612540813
 40
11.24455768039049
 40
11.46114021935164
 40
11.6775790703264
 40
11.89401792130104
 40
12.11060046026208
 40
12.34398201524454
 40
12.57753476583179
 40
12.83992197379425
 40
13.10237188154441
 40
13.39939731886597
 40
13.69645640776475
 40
14.02853539427941
 40
14.36063232420746
 40
14.72441555427465
 40
15.08821005933295
 40
15.47775402324616
 40
15.8673047557644
 40
16.27492057888744
 40
16.68254007584919
 40
17.09945376087468
 40
17.51636860626904
 40
17.93328345166037
 40
18.35019713667692
 40
18.75781663362551
 40
19.16543245673302
 40
19.55498318923668
 40
19.94452715313982
 40
20.30832165819805
 40
20.67210488828136
 40
21.0042018182481
 40
21.33628080483646
 40
21.63333989384783
 40
21.9303653313469
 40
22.19281523933712
 40
22.45520244765624
 40
22.68875519872523
 40
22.92213675451769
 40
23.1387192956827
 40
23.35515814065234
 40
23.35515814065234
 40
23.35515814065234
 40
23.35515814065234
 10
542.540707856479
 20
770.9572925597458
 30
0.0
 10
542.4684865324562
 20
770.9535499885553
 30
0.0
 10
542.3239959350249
 20
770.9460623722009
 30
0.0
 10
542.1080602836327
 20
770.8878496484037
 30
0.0
 10
541.898739970445
 20
770.7961194746238
 30
0.0
 10
541.6920114492815
 20
770.6667399929939
 30
0.0
 10
541.4959940870178
 20
770.5060942115001
 30
0.0
 10
541.304880269197
 20
770.3091542498635
 30
0.0
 10
541.126871921472
 20
770.085354811672
 30
0.0
 10
540.9566731514954
 20
769.8273997231594
 30
0.0
 10
540.8012571932247
 20
769.5468451671804
 30
0.0
 10
540.6567640053676
 20
769.2358860526328
 30
0.0
 10
540.5283521499864
 20
768.906580245893
 30
0.0
 10
540.413711237429
 20
768.5520963216438
 30
0.0
 10
540.3161626150553
 20
768.1836439781828
 30
0.0
 10
540.2346875866677
 20
767.7963946230838
 30
0.0
 10
540.171037831791
 20
767.3997176728847
 30
0.0
 10
540.1250623103723
 20
766.9914398741201
 30
0.0
 10
540.0973589102853
 20
766.5784107015477
 30
0.0
 10
540.088147711941
 20
766.1614610464148
 30
0.0
 10
540.0973589104126
 20
765.7445113912873
 30
0.0
 10
540.1250623106215
 20
765.3314822186992
 30
0.0
 10
540.1710378321498
 20
764.9232044199905
 30
0.0
 10
540.2346875871187
 20
764.5265274695878
 30
0.0
 10
540.3161626155738
 20
764.1392781152191
 30
0.0
 10
540.4137112379852
 20
763.7708257691233
 30
0.0
 10
540.5283521505431
 20
763.416341854096
 30
0.0
 10
540.6567640058825
 20
763.0870360144434
 30
0.0
 10
540.8012571936445
 20
762.7760770125606
 30
0.0
 10
540.9566731517662
 20
762.4955220589122
 30
0.0
 10
541.1268719215201
 20
762.2375683059016
 30
0.0
 10
541.3048802689532
 20
762.0137641935319
 30
0.0
 10
541.4959940863807
 20
761.8168397507335
 30
0.0
 10
541.6920114481456
 20
761.656139693911
 30
0.0
 10
541.8987399686184
 20
761.5269416451883
 30
0.0
 10
542.108060280495
 20
761.4345678036914
 30
0.0
 10
542.3239959325854
 20
761.3785928216452
 30
0.0
 10
542.540707856479
 20
761.3591500246413
 30
0.0
 10
542.7574197803726
 20
761.378592821645
 30
0.0
 10
542.9733554324629
 20
761.4345678036915
 30
0.0
 10
543.1826757443393
 20
761.5269416451882
 30
0.0
 10
543.3894042648125
 20
761.6561396939107
 30
0.0
 10
543.5854216265769
 20
761.8168397507338
 30
0.0
 10
543.7765354440047
 20
762.0137641935316
 30
0.0
 10
543.9545437914373
 20
762.2375683059022
 30
0.0
 10
544.1247425611919
 20
762.4955220589119
 30
0.0
 10
544.2801585193131
 20
762.7760770125608
 30
0.0
 10
544.4246517070756
 20
763.0870360144434
 30
0.0
 10
544.5530635624145
 20
763.4163418540959
 30
0.0
 10
544.6677044749722
 20
763.7708257691231
 30
0.0
 10
544.7652530973838
 20
764.1392781152192
 30
0.0
 10
544.846728125839
 20
764.5265274695873
 30
0.0
 10
544.910377880808
 20
764.9232044199905
 30
0.0
 10
544.9563534023363
 20
765.3314822186991
 30
0.0
 10
544.9840568025452
 20
765.7445113912871
 30
0.0
 10
544.9932680010168
 20
766.1614610464148
 30
0.0
 10
544.9840568026725
 20
766.5784107015477
 30
0.0
 10
544.9563534025857
 20
766.99143987412
 30
0.0
 10
544.9103778811668
 20
767.3997176728844
 30
0.0
 10
544.8467281262899
 20
767.7963946230839
 30
0.0
 10
544.7652530979025
 20
768.1836439781825
 30
0.0
 10
544.6677044755286
 20
768.5520963216437
 30
0.0
 10
544.5530635629714
 20
768.9065802458931
 30
0.0
 10
544.4246517075902
 20
769.235886052633
 30
0.0
 10
544.2801585197332
 20
769.5468451671804
 30
0.0
 10
544.1247425614624
 20
769.8273997231593
 30
0.0
 10
543.9545437914858
 20
770.0853548116722
 30
0.0
 10
543.7765354437608
 20
770.3091542498632
 30
0.0
 10
543.5854216259398
 20
770.5060942115
 30
0.0
 10
543.3894042636766
 20
770.6667399929937
 30
0.0
 10
543.182675742513
 20
770.7961194746238
 30
0.0
 10
542.9733554293252
 20
770.8878496484036
 30
0.0
 10
542.757419777933
 20
770.946062372201
 30
0.0
 10
542.6129291805017
 20
770.9535499885554
 30
0.0
 10
542.540707856479
 20
770.9572925597458
 30
0.0
 11
542.540707856479
 21
770.9572925597458
 31
0.0
 11
542.3250876747994
 21
770.9384852868529
 31
0.0
 11
542.1153584264307
 21
770.8844331027318
 31
0.0
 11
541.9014504485418
 21
770.7911039687551
 31
0.0
 11
541.7029330235775
 21
770.6680685294224
 31
0.0
 11
541.4994114363276
 21
770.5024605270041
 31
0.0
 11
541.3159629850873
 21
770.3147729678922
 31
0.0
 11
541.1304513944301
 21
770.0828040902908
 31
0.0
 11
540.9662061997635
 21
769.8352811250015
 31
0.0
 11
540.804766829963
 21
769.5450850134175
 31
0.0
 11
540.6642898505429
 21
769.2441621177625
 31
0.0
 11
540.531729147677
 21
768.9053909582193
 31
0.0
 11
540.4193875129192
 21
768.5593767980894
 31
0.0
 11
540.3194151660111
 21
768.1828797467447
 31
0.0
 11
540.2389404204948
 21
767.8017320214021
 31
0.0
 11
540.1742005950125
 21
767.3992902066642
 31
0.0
 11
540.1284313668621
 21
766.9942484408539
 31
0.0
 11
540.1004755307432
 21
766.5782730906441
 31
0.0
 11
540.0912181136957
 21
766.1614610364331
 31
0.0
 11
540.1004755307432
 21
765.7446489822222
 31
0.0
 11
540.1284313668621
 21
765.3286736320122
 31
0.0
 11
540.1742005950125
 21
764.923631866202
 31
0.0
 11
540.2389404204948
 21
764.5211900514639
 31
0.0
 11
540.3194151660111
 21
764.1400423261214
 31
0.0
 11
540.4193875129192
 21
763.7635452747767
 31
0.0
 11
540.531729147677
 21
763.4175311146466
 31
0.0
 11
540.6642898505429
 21
763.0787599551036
 31
0.0
 11
540.804766829963
 21
762.7778370594484
 31
0.0
 11
540.9662061997635
 21
762.4876409478645
 31
0.0
 11
541.13045139443
 21
762.2401179825754
 31
0.0
 11
541.3159629850873
 21
762.0081491049739
 31
0.0
 11
541.4994114363276
 21
761.820461545862
 31
0.0
 11
541.7029330235775
 21
761.6548535434438
 31
0.0
 11
541.9014504485417
 21
761.531818104111
 31
0.0
 11
542.1153584264307
 21
761.4384889701344
 31
0.0
 11
542.3250876747994
 21
761.3844367860133
 31
0.0
 11
542.540707856479
 21
761.3656295131203
 31
0.0
 11
542.7563280381585
 21
761.3844367860133
 31
0.0
 11
542.9660572865271
 21
761.4384889701344
 31
0.0
 11
543.1799652644162
 21
761.531818104111
 31
0.0
 11
543.3784826893805
 21
761.6548535434438
 31
0.0
 11
543.5820042766302
 21
761.820461545862
 31
0.0
 11
543.7654527278705
 21
762.0081491049739
 31
0.0
 11
543.9509643185277
 21
762.2401179825755
 31
0.0
 11
544.1152095131943
 21
762.4876409478645
 31
0.0
 11
544.2766488829948
 21
762.7778370594485
 31
0.0
 11
544.4171258624149
 21
763.0787599551036
 31
0.0
 11
544.5496865652807
 21
763.4175311146466
 31
0.0
 11
544.6620282000383
 21
763.7635452747767
 31
0.0
 11
544.7620005469464
 21
764.1400423261214
 31
0.0
 11
544.842475292463
 21
764.5211900514639
 31
0.0
 11
544.9072151179453
 21
764.9236318662018
 31
0.0
 11
544.9529843460957
 21
765.3286736320122
 31
0.0
 11
544.9809401822146
 21
765.7446489822221
 31
0.0
 11
544.990197599262
 21
766.1614610364331
 31
0.0
 11
544.9809401822146
 21
766.5782730906441
 31
0.0
 11
544.9529843460957
 21
766.9942484408539
 31
0.0
 11
544.9072151179453
 21
767.3992902066641
 31
0.0
 11
544.842475292463
 21
767.8017320214021
 31
0.0
 11
544.7620005469465
 21
768.1828797467446
 31
0.0
 11
544.6620282000383
 21
768.5593767980894
 31
0.0
 11
544.5496865652807
 21
768.9053909582194
 31
0.0
 11
544.4171258624149
 21
769.2441621177625
 31
0.0
 11
544.2766488829948
 21
769.5450850134176
 31
0.0
 11
544.1152095131943
 21
769.8352811250015
 31
0.0
 11
543.9509643185277
 21
770.0828040902908
 31
0.0
 11
543.7654527278705
 21
770.3147729678922
 31
0.0
 11
543.5820042766303
 21
770.5024605270041
 31
0.0
 11
543.3784826893805
 21
770.6680685294224
 31
0.0
 11
543.1799652644162
 21
770.7911039687551
 31
0.0
 11
542.9660572865271
 21
770.8844331027318
 31
0.0
 11
542.7563280381585
 21
770.9384852868529
 31
0.0
 11
542.540707856479
 21
770.9572925597458
 31
0.0
  0
SPLINE
  5
10B
330
4D
100
AcDbEntity
  8
1
  6
Continuous
 62
     7
100
AcDbSpline
210
0.0
220
0.0
230
1.0
 70
    11
 71
     3
 72
    79
 73
    75
 74
    73
 42
0.000000001
 43
0.0000000001
 44
0.00000001
 40
0.0
 40
0.0
 40
0.0
 40
0.0
 40
0.2164388449696405
 40
0.4330213861346529
 40
0.6664029419270618
 40
0.8999556929961106
 40
1.162342901315147
 40
1.424792809305443
 40
1.721818246804749
 40
2.018877335816022
 40
2.350956322404442
 40
2.683053252371128
 40
3.046836482454583
 40
3.410630987512741
 40
3.800174951415745
 40
4.18972568391949
 40
4.597341507026872
 40
5.004961003975561
 40
5.421874688992125
 40
5.83878953438345
 40
6.255704379777697
 40
6.672618064803318
 40
7.080237561764938
 40
7.487853384888068
 40
7.877404117406261
 40
8.266948081319471
 40
8.630742586377808
 40
8.994525816445037
 40
9.326622746373197
 40
9.658701732887755
 40
9.955760821786624
 40
10.25278625910824
 40
10.51523616685832
 40
10.77762337482087
 40
11.01117612540812
 40
11.24455768039058
 40
11.46114021935162
 40
11.67757907032626
 40
11.89401792130091
 40
12.11060046026194
 40
12.34398201524441
 40
12.57753476583165
 40
12.83992197379419
 40
13.10237188154426
 40
13.39939731886597
 40
13.69645640776475
 40
14.02853539427935
 40
14.36063232420736
 40
14.72441555427459
 40
15.08821005933292
 40
15.47775402324616
 40
15.86730475576438
 40
16.2749205788874
 40
16.68254007584913
 40
17.09945376087464
 40
17.516368606269
 40
17.93328345166033
 40
18.35019713667689
 40
18.75781663362558
 40
19.16543245673296
 40
19.55498318923684
 40
19.94452715313977
 40
20.30832165819793
 40
20.67210488828138
 40
21.00420181824802
 40
21.33628080483638
 40
21.63333989384766
 40
21.93036533134696
 40
22.19281523933718
 40
22.4552024476563
 40
22.68875519872529
 40
22.92213675451775
 40
23.13871929568276
 40
23.3551581406524
 40
23.3551581406524
 40
23.3551581406524
 40
23.3551581406524
 10
562.459292143521
 20
770.9572925597458
 30
0.0
 10
562.5315134675437
 20
770.9535499885553
 30
0.0
 10
562.6760040649752
 20
770.9460623722011
 30
0.0
 10
562.8919397163671
 20
770.8878496484035
 30
0.0
 10
563.1012600295549
 20
770.7961194746238
 30
0.0
 10
563.3079885507187
 20
770.6667399929939
 30
0.0
 10
563.5040059129819
 20
770.5060942115001
 30
0.0
 10
563.6951197308028
 20
770.3091542498634
 30
0.0
 10
563.8731280785278
 20
770.0853548116719
 30
0.0
 10
564.0433268485046
 20
769.8273997231593
 30
0.0
 10
564.1987428067754
 20
769.5468451671804
 30
0.0
 10
564.3432359946326
 20
769.2358860526328
 30
0.0
 10
564.4716478500137
 20
768.906580245893
 30
0.0
 10
564.586288762571
 20
768.552096321644
 30
0.0
 10
564.683837384945
 20
768.1836439781828
 30
0.0
 10
564.765312413332
 20
767.7963946230839
 30
0.0
 10
564.828962168209
 20
767.3997176728844
 30
0.0
 10
564.8749376896274
 20
766.99143987412
 30
0.0
 10
564.9026410897147
 20
766.5784107015479
 30
0.0
 10
564.9118522880591
 20
766.1614610464148
 30
0.0
 10
564.9026410895872
 20
765.744511391287
 30
0.0
 10
564.8749376893784
 20
765.3314822186994
 30
0.0
 10
564.82896216785
 20
764.9232044199905
 30
0.0
 10
564.7653124128813
 20
764.5265274695873
 30
0.0
 10
564.6838373844264
 20
764.1392781152194
 30
0.0
 10
564.5862887620149
 20
763.7708257691233
 30
0.0
 10
564.4716478494568
 20
763.4163418540959
 30
0.0
 10
564.3432359941175
 20
763.0870360144434
 30
0.0
 10
564.1987428063554
 20
762.7760770125607
 30
0.0
 10
564.043326848234
 20
762.4955220589119
 30
0.0
 10
563.8731280784796
 20
762.2375683059017
 30
0.0
 10
563.6951197310467
 20
762.0137641935319
 30
0.0
 10
563.504005913619
 20
761.8168397507333
 30
0.0
 10
563.3079885518545
 20
761.656139693911
 30
0.0
 10
563.1012600313813
 20
761.5269416451882
 30
0.0
 10
562.8919397195048
 20
761.4345678036914
 30
0.0
 10
562.6760040674146
 20
761.378592821645
 30
0.0
 10
562.459292143521
 20
761.3591500246412
 30
0.0
 10
562.2425802196275
 20
761.3785928216452
 30
0.0
 10
562.026644567537
 20
761.4345678036914
 30
0.0
 10
561.8173242556605
 20
761.5269416451883
 30
0.0
 10
561.6105957351874
 20
761.6561396939106
 30
0.0
 10
561.4145783734232
 20
761.8168397507338
 30
0.0
 10
561.2234645559951
 20
762.0137641935319
 30
0.0
 10
561.0454562085627
 20
762.237568305902
 30
0.0
 10
560.8752574388078
 20
762.4955220589122
 30
0.0
 10
560.7198414806869
 20
762.7760770125608
 30
0.0
 10
560.5753482929246
 20
763.0870360144436
 30
0.0
 10
560.4469364375855
 20
763.4163418540961
 30
0.0
 10
560.3322955250275
 20
763.7708257691233
 30
0.0
 10
560.2347469026159
 20
764.1392781152192
 30
0.0
 10
560.1532718741606
 20
764.5265274695874
 30
0.0
 10
560.089622119192
 20
764.9232044199906
 30
0.0
 10
560.0436465976638
 20
765.3314822186991
 30
0.0
 10
560.0159431974546
 20
765.7445113912869
 30
0.0
 10
560.0067319989829
 20
766.161461046415
 30
0.0
 10
560.0159431973274
 20
766.5784107015477
 30
0.0
 10
560.0436465974145
 20
766.9914398741201
 30
0.0
 10
560.0896221188327
 20
767.3997176728841
 30
0.0
 10
560.1532718737101
 20
767.7963946230842
 30
0.0
 10
560.2347469020971
 20
768.1836439781825
 30
0.0
 10
560.3322955244713
 20
768.5520963216441
 30
0.0
 10
560.4469364370285
 20
768.906580245893
 30
0.0
 10
560.5753482924097
 20
769.2358860526328
 30
0.0
 10
560.7198414802665
 20
769.5468451671804
 30
0.0
 10
560.8752574385373
 20
769.8273997231595
 30
0.0
 10
561.045456208514
 20
770.085354811672
 30
0.0
 10
561.2234645562392
 20
770.3091542498634
 30
0.0
 10
561.41457837406
 20
770.5060942115001
 30
0.0
 10
561.6105957363233
 20
770.6667399929937
 30
0.0
 10
561.8173242574871
 20
770.796119474624
 30
0.0
 10
562.0266445706748
 20
770.8878496484036
 30
0.0
 10
562.242580222067
 20
770.946062372201
 30
0.0
 10
562.3870708194984
 20
770.9535499885554
 30
0.0
 10
562.459292143521
 20
770.9572925597458
 30
0.0
 11
562.459292143521
 21
770.9572925597458
 31
0.0
 11
562.6749123252005
 21
770.9384852868529
 31
0.0
 11
562.8846415735691
 21
770.8844331027318
 31
0.0
 11
563.0985495514582
 21
770.7911039687552
 31
0.0
 11
563.2970669764225
 21
770.6680685294224
 31
0.0
 11
563.5005885636722
 21
770.5024605270041
 31
0.0
 11
563.6840370149125
 21
770.3147729678922
 31
0.0
 11
563.8695486055699
 21
770.0828040902907
 31
0.0
 11
564.0337938002365
 21
769.8352811250015
 31
0.0
 11
564.1952331700371
 21
769.5450850134176
 31
0.0
 11
564.3357101494571
 21
769.2441621177625
 31
0.0
 11
564.468270852323
 21
768.9053909582193
 31
0.0
 11
564.5806124870808
 21
768.5593767980894
 31
0.0
 11
564.6805848339889
 21
768.1828797467447
 31
0.0
 11
564.7610595795052
 21
767.8017320214021
 31
0.0
 11
564.8257994049874
 21
767.3992902066642
 31
0.0
 11
564.8715686331377
 21
766.9942484408539
 31
0.0
 11
564.8995244692567
 21
766.5782730906441
 31
0.0
 11
564.9087818863043
 21
766.1614610364331
 31
0.0
 11
564.8995244692567
 21
765.7446489822222
 31
0.0
 11
564.8715686331377
 21
765.3286736320122
 31
0.0
 11
564.8257994049874
 21
764.923631866202
 31
0.0
 11
564.7610595795052
 21
764.5211900514639
 31
0.0
 11
564.6805848339889
 21
764.1400423261214
 31
0.0
 11
564.5806124870808
 21
763.7635452747767
 31
0.0
 11
564.468270852323
 21
763.4175311146466
 31
0.0
 11
564.3357101494571
 21
763.0787599551036
 31
0.0
 11
564.195233170037
 21
762.7778370594484
 31
0.0
 11
564.0337938002365
 21
762.4876409478645
 31
0.0
 11
563.8695486055699
 21
762.2401179825754
 31
0.0
 11
563.6840370149125
 21
762.0081491049739
 31
0.0
 11
563.5005885636723
 21
761.820461545862
 31
0.0
 11
563.2970669764225
 21
761.6548535434438
 31
0.0
 11
563.0985495514582
 21
761.531818104111
 31
0.0
 11
562.8846415735691
 21
761.4384889701344
 31
0.0
 11
562.6749123252005
 21
761.3844367860133
 31
0.0
 11
562.459292143521
 21
761.3656295131203
 31
0.0
 11
562.2436719618415
 21
761.3844367860133
 31
0.0
 11
562.0339427134729
 21
761.4384889701344
 31
0.0
 11
561.8200347355838
 21
761.531818104111
 31
0.0
 11
561.6215173106195
 21
761.6548535434438
 31
0.0
 11
561.4179957233698
 21
761.8204615458621
 31
0.0
 11
561.2345472721295
 21
762.0081491049739
 31
0.0
 11
561.0490356814721
 21
762.2401179825755
 31
0.0
 11
560.8847904868055
 21
762.4876409478645
 31
0.0
 11
560.7233511170051
 21
762.7778370594485
 31
0.0
 11
560.5828741375851
 21
763.0787599551036
 31
0.0
 11
560.4503134347192
 21
763.4175311146466
 31
0.0
 11
560.3379717999615
 21
763.7635452747767
 31
0.0
 11
560.2379994530532
 21
764.1400423261214
 31
0.0
 11
560.1575247075368
 21
764.5211900514639
 31
0.0
 11
560.0927848820546
 21
764.9236318662018
 31
0.0
 11
560.0470156539043
 21
765.3286736320122
 31
0.0
 11
560.0190598177853
 21
765.7446489822221
 31
0.0
 11
560.0098024007377
 21
766.1614610364331
 31
0.0
 11
560.0190598177853
 21
766.5782730906441
 31
0.0
 11
560.0470156539043
 21
766.9942484408539
 31
0.0
 11
560.0927848820546
 21
767.3992902066642
 31
0.0
 11
560.1575247075368
 21
767.8017320214021
 31
0.0
 11
560.2379994530532
 21
768.1828797467448
 31
0.0
 11
560.3379717999615
 21
768.5593767980894
 31
0.0
 11
560.4503134347192
 21
768.9053909582193
 31
0.0
 11
560.5828741375851
 21
769.2441621177625
 31
0.0
 11
560.723351117005
 21
769.5450850134176
 31
0.0
 11
560.8847904868055
 21
769.8352811250015
 31
0.0
 11
561.0490356814721
 21
770.0828040902907
 31
0.0
 11
561.2345472721295
 21
770.3147729678922
 31
0.0
 11
561.4179957233697
 21
770.5024605270041
 31
0.0
 11
561.6215173106195
 21
770.6680685294224
 31
0.0
 11
561.8200347355838
 21
770.7911039687551
 31
0.0
 11
562.0339427134729
 21
770.8844331027318
 31
0.0
 11
562.2436719618415
 21
770.9384852868529
 31
0.0
 11
562.459292143521
 21
770.9572925597458
 31
0.0
  0
ENDBLK
  5
4F
330
4D
100
AcDbEntity
  8
0
100
AcDbBlockEnd
  0
BLOCK
  5
51
330
50
100
AcDbEntity
  8
0
100
AcDbBlockBegin
  2
V21-2-0A
 70
     0
 10
244.7691410709855
 20
1055.0
 30
0.0
  3
V21-2-0A
  1

  0
LINE
  5
10C
330
50
100
AcDbEntity
  8
1
  6
PHANTOM
 62
     4
100
AcDbLine
 10
567.9999999999999
 20
735.6614610364331
 30
0.0
 11
536.9999999999999
 21
735.6614610364331
 31
0.0
  0
LINE
  5
10D
330
50
100
AcDbEntity
  8
1
  6
Continuous
 62
     7
100
AcDbLine
 10
539.4999999999999
 20
702.9225680353633
 30
0.0
 11
539.4999999999999
 21
700.9114610364331
 31
0.0
  0
LINE
  5
10E
330
50
100
AcDbEntity
  8
1
  6
Continuous
 62
     7
100
AcDbLine
 10
539.4999999999999
 20
710.0641863754585
 30
0.0
 11
539.4999999999999
 21
702.9225680353633
 31
0.0
  0
LINE
  5
10F
330
50
100
AcDbEntity
  8
1
  6
Continuous
 62
     7
100
AcDbLine
 10
565.4999999999999
 20
700.9114610364331
 30
0.0
 11
565.2499999999999
 21
700.6614610364331
 31
0.0
  0
LINE
  5
110
330
50
100
AcDbEntity
  8
1
  6
Continuous
 62
     7
100
AcDbLine
 10
565.4999999999999
 20
710.0641863754586
 30
0.0
 11
565.4999999999999
 21
700.9114610364331
 31
0.0
  0
LINE
  5
111
330
50
100
AcDbEntity
  8
1
  6
Continuous
 62
     7
100
AcDbLine
 10
564.9999999999999
 20
712.2436358472288
 30
0.0
 11
564.9999999999999
 21
728.2781851520597
 31
0.0
  0
LINE
  5
112
330
50
100
AcDbEntity
  8
1
  6
Continuous
 62
     7
100
AcDbLine
 10
541.9999999999999
 20
754.6488179980381
 30
0.0
 11
541.9999999999999
 21
753.1614610364331
 31
0.0
  0
LINE
  5
113
330
50
100
AcDbEntity
  8
1
  6
Continuous
 62
     7
100
AcDbLine
 10
562.9775
 20
700.6614610364331
 30
0.0
 11
542.0224999999999
 21
700.6614610364331
 31
0.0
  0
LINE
  5
114
330
50
100
AcDbEntity
  8
1
  6
Continuous
 62
     7
100
AcDbLine
 10
562.9999999999999
 20
754.6488179980381
 30
0.0
 11
562.9999999999999
 21
753.1614610364331
 31
0.0
  0
LINE
  5
115
330
50
100
AcDbEntity
  8
1
  6
Continuous
 62
     2
100
AcDbLine
 10
543.1619999999999
 20
756.6614610364331
 30
0.0
 11
543.1619999999999
 21
760.1614610364331
 31
0.0
  0
LINE
  5
116
330
50
100
AcDbEntity
  8
1
  6
Continuous
 62
     7
100
AcDbLine
 10
541.9999999999999
 20
756.6614610364331
 30
0.0
 11
543.1619999999999
 21
756.6614610364331
 31
0.0
  0
LINE
  5
117
330
50
100
AcDbEntity
  8
1
  6
Continuous
 62
     2
100
AcDbLine
 10
541.9999999999999
 20
754.6488179980381
 30
0.0
 11
543.1619999999999
 21
756.6614610364331
 31
0.0
  0
LINE
  5
118
330
50
100
AcDbEntity
  8
1
  6
Continuous
 62
     2
100
AcDbLine
 10
561.838
 20
756.6614610364331
 30
0.0
 11
562.9999999999999
 21
754.6488179980381
 31
0.0
  0
LINE
  5
119
330
50
100
AcDbEntity
  8
1
  6
Continuous
 62
     7
100
AcDbLine
 10
562.9999999999999
 20
756.6614610364331
 30
0.0
 11
562.9999999999999
 21
754.6488179980381
 31
0.0
  0
LINE
  5
11A
330
50
100
AcDbEntity
  8
1
  6
Continuous
 62
     7
100
AcDbLine
 10
561.838
 20
756.6614610364331
 30
0.0
 11
562.9999999999999
 21
756.6614610364331
 31
0.0
  0
LINE
  5
11B
330
50
100
AcDbEntity
  8
1
  6
Continuous
 62
     7
100
AcDbLine
 10
541.9999999999999
 20
756.6614610364331
 30
0.0
 11
541.9999999999999
 21
754.6488179980381
 31
0.0
  0
LINE
  5
11C
330
50
100
AcDbEntity
  8
1
  6
Continuous
 62
     7
100
AcDbLine
 10
562.9775
 20
700.6614610364331
 30
0.0
 11
565.2499999999999
 21
700.6614610364331
 31
0.0
  0
LINE
  5
11D
330
50
100
AcDbEntity
  8
1
  6
Continuous
 62
     7
100
AcDbLine
 10
565.2499999999999
 20
700.6614610364331
 30
0.0
 11
562.9775
 21
700.6614610364331
 31
0.0
  0
LINE
  5
11E
330
50
100
AcDbEntity
  8
1
  6
Continuous
 62
     7
100
AcDbLine
 10
539.7499999999999
 20
700.6614610364331
 30
0.0
 11
539.4999999999999
 21
700.9114610364331
 31
0.0
  0
LINE
  5
11F
330
50
100
AcDbEntity
  8
1
  6
Continuous
 62
     7
100
AcDbLine
 10
539.7499999999999
 20
700.6614610364331
 30
0.0
 11
542.0224999999999
 21
700.6614610364331
 31
0.0
  0
LINE
  5
120
330
50
100
AcDbEntity
  8
1
  6
Continuous
 62
     7
100
AcDbLine
 10
384.9944465005348
 20
702.9225680353633
 30
0.0
 11
384.9944465005348
 21
707.6614610364331
 31
0.0
  0
LINE
  5
121
330
50
100
AcDbEntity
  8
1
  6
Continuous
 62
     7
100
AcDbLine
 10
400.005553499465
 20
702.9225680353633
 30
0.0
 11
400.005553499465
 21
707.6614610364331
 31
0.0
  0
LINE
  5
122
330
50
100
AcDbEntity
  8
1
  6
Continuous
 62
     7
100
AcDbLine
 10
414.0918426934465
 20
748.1614610364331
 30
0.0
 11
414.0918426934465
 21
723.1614610364331
 31
0.0
  0
LINE
  5
123
330
50
100
AcDbEntity
  8
1
  6
Continuous
 62
     7
100
AcDbLine
 10
415.9999999999999
 20
746.848461036433
 30
0.0
 11
415.9999999999999
 21
724.4744610364331
 31
0.0
  0
LINE
  5
124
330
50
100
AcDbEntity
  8
1
  6
Continuous
 62
     7
100
AcDbLine
 10
401.8379999999999
 20
756.6614610364331
 30
0.0
 11
383.1619999999999
 21
756.6614610364331
 31
0.0
  0
LINE
  5
125
330
50
100
AcDbEntity
  8
1
  6
PHANTOM
 62
     4
100
AcDbLine
 10
392.4999999999999
 20
768.6614610364331
 30
0.0
 11
392.4999999999999
 21
697.6614610364331
 31
0.0
  0
LINE
  5
126
330
50
100
AcDbEntity
  8
1
  6
PHANTOM
 62
     4
100
AcDbLine
 10
424.9999999999999
 20
735.6614610364331
 30
0.0
 11
376.9999999999999
 21
735.6614610364331
 31
0.0
  0
LINE
  5
127
330
50
100
AcDbEntity
  8
1
  6
Continuous
 62
     7
100
AcDbLine
 10
377.4888930010697
 20
702.9225680353633
 30
0.0
 11
377.4888930010697
 21
707.6614610364331
 31
0.0
  0
LINE
  5
128
330
50
100
AcDbEntity
  8
1
  6
Continuous
 62
     7
100
AcDbLine
 10
378.5355339059326
 20
708.708101941296
 30
0.0
 11
377.4888930010697
 21
707.6614610364331
 31
0.0
  0
LINE
  5
129
330
50
100
AcDbEntity
  8
1
  6
Continuous
 62
     7
100
AcDbLine
 10
377.4888930010697
 20
702.9225680353633
 30
0.0
 11
377.4888930010697
 21
707.6614610364331
 31
0.0
  0
LINE
  5
12A
330
50
100
AcDbEntity
  8
1
  6
Continuous
 62
     7
100
AcDbLine
 10
414.0918426934465
 20
723.1614610364331
 30
0.0
 11
409.9999999999999
 21
723.1614610364331
 31
0.0
  0
LINE
  5
12B
330
50
100
AcDbEntity
  8
1
  6
Continuous
 62
     7
100
AcDbLine
 10
414.5918426934465
 20
723.6614610364331
 30
0.0
 11
414.0918426934465
 21
723.1614610364331
 31
0.0
  0
LINE
  5
12C
330
50
100
AcDbEntity
  8
1
  6
Continuous
 62
     7
100
AcDbLine
 10
414.0918426934465
 20
748.1614610364331
 30
0.0
 11
407.9999999999999
 21
748.1614610364331
 31
0.0
  0
LINE
  5
12D
330
50
100
AcDbEntity
  8
1
  6
Continuous
 62
     7
100
AcDbLine
 10
414.5918426934465
 20
747.6614610364331
 30
0.0
 11
414.0918426934465
 21
748.1614610364331
 31
0.0
  0
LINE
  5
12E
330
50
100
AcDbEntity
  8
1
  6
Continuous
 62
     7
100
AcDbLine
 10
407.5111069989302
 20
707.6614610364331
 30
0.0
 11
406.4644660940673
 21
708.708101941296
 31
0.0
  0
LINE
  5
12F
330
50
100
AcDbEntity
  8
1
  6
Continuous
 62
     7
100
AcDbLine
 10
379.7499999999999
 20
700.6614610364331
 30
0.0
 11
382.0224999999999
 21
700.6614610364331
 31
0.0
  0
LINE
  5
130
330
50
100
AcDbEntity
  8
1
  6
Continuous
 62
     7
100
AcDbLine
 10
379.7499999999999
 20
700.6614610364331
 30
0.0
 11
377.4888930010697
 21
702.9225680353633
 31
0.0
  0
LINE
  5
131
330
50
100
AcDbEntity
  8
1
  6
Continuous
 62
     7
100
AcDbLine
 10
405.2499999999999
 20
700.6614610364331
 30
0.0
 11
402.9774999999999
 21
700.6614610364331
 31
0.0
  0
LINE
  5
132
330
50
100
AcDbEntity
  8
1
  6
Continuous
 62
     7
100
AcDbLine
 10
407.5111069989302
 20
702.9225680353633
 30
0.0
 11
405.2499999999999
 21
700.6614610364331
 31
0.0
  0
LINE
  5
133
330
50
100
AcDbEntity
  8
1
  6
Continuous
 62
     7
100
AcDbLine
 10
402.9774999999999
 20
700.6614610364331
 30
0.0
 11
405.2499999999999
 21
700.6614610364331
 31
0.0
  0
LINE
  5
134
330
50
100
AcDbEntity
  8
1
  6
Continuous
 62
     7
100
AcDbLine
 10
381.9999999999999
 20
756.6614610364331
 30
0.0
 11
381.9999999999999
 21
754.6488179980381
 31
0.0
  0
LINE
  5
135
330
50
100
AcDbEntity
  8
1
  6
Continuous
 62
     2
100
AcDbLine
 10
415.9999999999999
 20
746.848461036433
 30
0.0
 11
417.4999999999999
 21
746.848461036433
 31
0.0
  0
LINE
  5
136
330
50
100
AcDbEntity
  8
1
  6
Continuous
 62
     7
100
AcDbLine
 10
415.9999999999999
 20
747.6614610364331
 30
0.0
 11
415.9999999999999
 21
746.848461036433
 31
0.0
  0
LINE
  5
137
330
50
100
AcDbEntity
  8
1
  6
Continuous
 62
     7
100
AcDbLine
 10
415.9999999999999
 20
747.6614610364331
 30
0.0
 11
414.5918426934465
 21
747.6614610364331
 31
0.0
  0
LINE
  5
138
330
50
100
AcDbEntity
  8
1
  6
Continuous
 62
     2
100
AcDbLine
 10
415.9999999999999
 20
746.848461036433
 30
0.0
 11
414.5918426934465
 21
747.6614610364331
 31
0.0
  0
LINE
  5
139
330
50
100
AcDbEntity
  8
1
  6
Continuous
 62
     7
100
AcDbLine
 10
401.8379999999999
 20
756.6614610364331
 30
0.0
 11
402.9999999999999
 21
756.6614610364331
 31
0.0
  0
LINE
  5
13A
330
50
100
AcDbEntity
  8
1
  6
Continuous
 62
     7
100
AcDbLine
 10
402.9999999999999
 20
756.6614610364331
 30
0.0
 11
402.9999999999999
 21
754.6488179980381
 31
0.0
  0
LINE
  5
13B
330
50
100
AcDbEntity
  8
1
  6
Continuous
 62
     2
100
AcDbLine
 10
401.8379999999999
 20
756.6614610364331
 30
0.0
 11
402.9999999999999
 21
754.6488179980381
 31
0.0
  0
LINE
  5
13C
330
50
100
AcDbEntity
  8
1
  6
Continuous
 62
     2
100
AcDbLine
 10
383.1619999999999
 20
756.6614610364331
 30
0.0
 11
383.1619999999999
 21
760.1614610364331
 31
0.0
  0
LINE
  5
13D
330
50
100
AcDbEntity
  8
1
  6
Continuous
 62
     2
100
AcDbLine
 10
381.9999999999999
 20
754.6488179980381
 30
0.0
 11
383.1619999999999
 21
756.6614610364331
 31
0.0
  0
LINE
  5
13E
330
50
100
AcDbEntity
  8
1
  6
Continuous
 62
     7
100
AcDbLine
 10
381.9999999999999
 20
756.6614610364331
 30
0.0
 11
383.1619999999999
 21
756.6614610364331
 31
0.0
  0
LINE
  5
13F
330
50
100
AcDbEntity
  8
1
  6
Continuous
 62
     2
100
AcDbLine
 10
414.5918426934465
 20
723.6614610364331
 30
0.0
 11
415.9999999999999
 21
724.4744610364331
 31
0.0
  0
LINE
  5
140
330
50
100
AcDbEntity
  8
1
  6
Continuous
 62
     7
100
AcDbLine
 10
414.5918426934465
 20
723.6614610364331
 30
0.0
 11
415.9999999999999
 21
723.6614610364331
 31
0.0
  0
LINE
  5
141
330
50
100
AcDbEntity
  8
1
  6
Continuous
 62
     7
100
AcDbLine
 10
415.9999999999999
 20
724.4744610364331
 30
0.0
 11
415.9999999999999
 21
723.6614610364331
 31
0.0
  0
LINE
  5
142
330
50
100
AcDbEntity
  8
1
  6
Continuous
 62
     7
100
AcDbLine
 10
415.9999999999999
 20
723.6614610364331
 30
0.0
 11
417.4999999999999
 21
723.6614610364331
 31
0.0
  0
LINE
  5
143
330
50
100
AcDbEntity
  8
1
  6
Continuous
 62
     7
100
AcDbLine
 10
407.5111069989302
 20
707.6614610364331
 30
0.0
 11
407.5111069989302
 21
702.9225680353633
 31
0.0
  0
LINE
  5
144
330
50
100
AcDbEntity
  8
1
  6
Continuous
 62
     7
100
AcDbLine
 10
402.9999999999999
 20
754.6488179980381
 30
0.0
 11
402.9999999999999
 21
753.1614610364331
 31
0.0
  0
LINE
  5
145
330
50
100
AcDbEntity
  8
1
  6
Continuous
 62
     7
100
AcDbLine
 10
379.9999999999999
 20
735.6614610364331
 30
0.0
 11
379.9999999999999
 21
712.2436358472288
 31
0.0
  0
LINE
  5
146
330
50
100
AcDbEntity
  8
1
  6
Continuous
 62
     7
100
AcDbLine
 10
404.9999999999999
 20
718.1614610364331
 30
0.0
 11
404.9999999999999
 21
712.2436358472288
 31
0.0
  0
LINE
  5
147
330
50
100
AcDbEntity
  8
1
  6
Continuous
 62
     7
100
AcDbLine
 10
402.9774999999999
 20
700.6614610364331
 30
0.0
 11
382.0224999999999
 21
700.6614610364331
 31
0.0
  0
LINE
  5
148
330
50
100
AcDbEntity
  8
1
  6
Continuous
 62
     7
100
AcDbLine
 10
381.9999999999999
 20
754.6488179980381
 30
0.0
 11
381.9999999999999
 21
753.1614610364331
 31
0.0
  0
LINE
  5
149
330
50
100
AcDbEntity
  8
1
  6
Continuous
 62
     7
100
AcDbLine
 10
552.4999999999999
 20
702.9225680353633
 30
0.0
 11
552.4999999999999
 21
707.6614610364331
 31
0.0
  0
LINE
  5
14A
330
50
100
AcDbEntity
  8
1
  6
PHANTOM
 62
     4
100
AcDbLine
 10
552.4999999999999
 20
694.6614610364331
 30
0.0
 11
552.4999999999999
 21
771.6614610364331
 31
0.0
  0
LINE
  5
14B
330
50
100
AcDbEntity
  8
1
  6
Continuous
 62
     2
100
AcDbLine
 10
417.4999999999999
 20
724.4744610364331
 30
0.0
 11
415.9999999999999
 21
724.4744610364331
 31
0.0
  0
LINE
  5
14C
330
50
100
AcDbEntity
  8
1
  6
Continuous
 62
     7
100
AcDbLine
 10
417.4999999999999
 20
747.6614610364331
 30
0.0
 11
415.9999999999999
 21
747.6614610364331
 31
0.0
  0
LINE
  5
14D
330
50
100
AcDbEntity
  8
1
  6
Continuous
 62
     7
100
AcDbLine
 10
402.9999999999999
 20
760.1614610364331
 30
0.0
 11
402.9999999999999
 21
756.6614610364331
 31
0.0
  0
LINE
  5
14E
330
50
100
AcDbEntity
  8
1
  6
Continuous
 62
     2
100
AcDbLine
 10
401.8379999999999
 20
760.1614610364331
 30
0.0
 11
401.8379999999999
 21
756.6614610364331
 31
0.0
  0
LINE
  5
14F
330
50
100
AcDbEntity
  8
1
  6
Continuous
 62
     7
100
AcDbLine
 10
381.9999999999999
 20
760.1614610364331
 30
0.0
 11
381.9999999999999
 21
756.6614610364331
 31
0.0
  0
LINE
  5
150
330
50
100
AcDbEntity
  8
1
  6
Continuous
 62
     7
100
AcDbLine
 10
539.9999999999999
 20
728.2781851520599
 30
0.0
 11
539.9999999999999
 21
712.2436358472288
 31
0.0
  0
LINE
  5
151
330
50
100
AcDbEntity
  8
1
  6
Continuous
 62
     7
100
AcDbLine
 10
562.9999999999999
 20
760.1614610364331
 30
0.0
 11
562.9999999999999
 21
756.6614610364331
 31
0.0
  0
LINE
  5
152
330
50
100
AcDbEntity
  8
1
  6
Continuous
 62
     2
100
AcDbLine
 10
561.838
 20
760.1614610364331
 30
0.0
 11
561.838
 21
756.6614610364331
 31
0.0
  0
LINE
  5
153
330
50
100
AcDbEntity
  8
1
  6
Continuous
 62
     7
100
AcDbLine
 10
541.9999999999999
 20
760.1614610364331
 30
0.0
 11
541.9999999999999
 21
756.6614610364331
 31
0.0
  0
LINE
  5
154
330
50
100
AcDbEntity
  8
1
  6
Continuous
 62
     7
100
AcDbLine
 10
561.838
 20
756.6614610364331
 30
0.0
 11
543.1619999999999
 21
756.6614610364331
 31
0.0
  0
ARC
  5
155
330
50
100
AcDbEntity
  8
1
  6
Continuous
 62
     7
100
AcDbCircle
 10
595.5625000000005
 20
753.1614610364331
 30
0.0
 40
32.56250000000057
100
AcDbArc
 50
180.0
 51
193.0396035033141
  0
ARC
  5
156
330
50
100
AcDbEntity
  8
1
  6
Continuous
 62
     7
100
AcDbCircle
 10
519.9999999999999
 20
735.6614610364331
 30
0.0
 40
45.00000000000019
100
AcDbArc
 50
10.49111674242511
 51
13.03960350331369
  0
ARC
  5
157
330
50
100
AcDbEntity
  8
1
  6
Continuous
 62
     7
100
AcDbCircle
 10
509.4374999999994
 20
753.1614610364331
 30
0.0
 40
32.56250000000047
100
AcDbArc
 50
346.960396496686
 51
0.0
  0
ARC
  5
158
330
50
100
AcDbEntity
  8
1
  6
Continuous
 62
     7
100
AcDbCircle
 10
349.4374999999995
 20
753.1614610364331
 30
0.0
 40
32.56250000000041
100
AcDbArc
 50
346.960396496686
 51
0.0
  0
ARC
  5
159
330
50
100
AcDbEntity
  8
1
  6
Continuous
 62
     7
100
AcDbCircle
 10
424.9999999999999
 20
735.6614610364331
 30
0.0
 40
44.99999999999997
100
AcDbArc
 50
166.9603964966862
 51
180.0
  0
ARC
  5
15A
330
50
100
AcDbEntity
  8
1
  6
Continuous
 62
     7
100
AcDbCircle
 10
584.9999999999999
 20
735.6614610364331
 30
0.0
 40
45.00000000000003
100
AcDbArc
 50
166.9603964966863
 51
169.5088832575745
  0
SPLINE
  5
15B
330
50
100
AcDbEntity
  8
1
  6
Continuous
 62
     7
100
AcDbSpline
210
0.0
220
0.0
230
1.0
 70
     8
 71
     3
 72
    33
 73
    29
 74
    27
 42
0.000000001
 43
0.0000000001
 44
0.00000001
 40
0.0
 40
0.0
 40
0.0
 40
0.0
 40
0.5939249129345963
 40
1.187851597589413
 40
1.513819739508987
 40
1.839789279790172
 40
2.196317435514592
 40
2.552851932504598
 40
2.958199558378043
 40
3.363541509507828
 40
3.863542574906174
 40
4.363662703218115
 40
5.224160048598896
 40
6.084683374568942
 40
6.88362343399144
 40
7.682563493413711
 40
8.543086819383856
 40
9.403584164764636
 40
9.903704293076448
 40
10.40370535847472
 40
10.80904730960459
 40
11.21439493547805
 40
11.57092943246817
 40
11.92745758819263
 40
12.25342712847372
 40
12.5793952703935
 40
13.17332195504816
 40
13.76724686798266
 40
13.76724686798266
 40
13.76724686798266
 40
13.76724686798266
 10
552.4999999999999
 20
702.9225680353633
 30
0.0
 10
552.6721881948538
 20
702.8248444043504
 30
0.0
 10
553.0165651053666
 20
702.6293968635932
 30
0.0
 10
553.4640876453918
 20
702.3960094666597
 30
0.0
 10
553.8365748610098
 20
702.2123586311662
 30
0.0
 10
554.1408252072208
 20
702.0693658658897
 30
0.0
 10
554.4572167900476
 20
701.9284063793158
 30
0.0
 10
554.8011242561569
 20
701.7844123961672
 30
0.0
 10
555.1637840518662
 20
701.6433508170642
 30
0.0
 10
555.5754406191328
 20
701.4968238322838
 30
0.0
 10
556.0220698533004
 20
701.3549587454359
 30
0.0
 10
556.6205206693892
 20
701.191536234447
 30
0.0
 10
557.3459035672943
 20
701.0393270124243
 30
0.0
 10
558.1802986347979
 20
700.9340915198736
 30
0.0
 10
559.0
 20
700.9007317185112
 30
0.0
 10
559.8197013652018
 20
700.9340915198738
 30
0.0
 10
560.6540964327056
 20
701.0393270124241
 30
0.0
 10
561.3794793306108
 20
701.1915362344467
 30
0.0
 10
561.9779301466992
 20
701.3549587454362
 30
0.0
 10
562.4245593808671
 20
701.496823832284
 30
0.0
 10
562.8362159481333
 20
701.6433508170642
 30
0.0
 10
563.198875743843
 20
701.7844123961672
 30
0.0
 10
563.5427832099524
 20
701.9284063793157
 30
0.0
 10
563.8591747927787
 20
702.0693658658897
 30
0.0
 10
564.1634251389903
 20
702.2123586311665
 30
0.0
 10
564.5359123546082
 20
702.3960094666596
 30
0.0
 10
564.9834348946332
 20
702.6293968635932
 30
0.0
 10
565.3278118051463
 20
702.8248444043501
 30
0.0
 10
565.4999999999999
 20
702.9225680353633
 30
0.0
 11
552.4999999999999
 21
702.9225680353633
 31
0.0
 11
553.0182599299357
 21
702.6324758970322
 31
0.0
 11
553.5445890446754
 21
702.3572912856307
 31
0.0
 11
553.8370173136805
 21
702.2132741436855
 31
0.0
 11
554.1320432364445
 21
702.0746529107644
 31
0.0
 11
554.4577479776018
 21
701.929639988731
 31
0.0
 11
554.7866493038633
 21
701.7920145358981
 31
0.0
 11
555.164469489926
 21
701.6451860475738
 31
0.0
 11
555.5463827945404
 21
701.5093761610319
 31
0.0
 11
556.0229968945849
 21
701.3582468610531
 31
0.0
 11
556.5055168488288
 21
701.2267377861657
 31
0.0
 11
557.3478454045784
 21
701.0508449596172
 31
0.0
 11
558.2017223180319
 21
700.9440994112994
 31
0.0
 11
559.0
 21
700.9115730867801
 31
0.0
 11
559.7982776819679
 21
700.9440994112994
 31
0.0
 11
560.6521545954215
 21
701.050844959617
 31
0.0
 11
561.494483151171
 21
701.2267377861656
 31
0.0
 11
561.9770031054147
 21
701.3582468610533
 31
0.0
 11
562.4536172054593
 21
701.5093761610319
 31
0.0
 11
562.8355305100737
 21
701.645186047574
 31
0.0
 11
563.2133506961364
 21
701.7920145358981
 31
0.0
 11
563.5422520223981
 21
701.929639988731
 31
0.0
 11
563.8679567635554
 21
702.0746529107645
 31
0.0
 11
564.1629826863194
 21
702.2132741436853
 31
0.0
 11
564.4554109553246
 21
702.3572912856308
 31
0.0
 11
564.9817400700642
 21
702.6324758970322
 31
0.0
 11
565.4999999999999
 21
702.9225680353633
 31
0.0
  0
SPLINE
  5
15C
330
50
100
AcDbEntity
  8
1
  6
Continuous
 62
     7
100
AcDbSpline
210
0.0
220
0.0
230
1.0
 70
     8
 71
     3
 72
    33
 73
    29
 74
    27
 42
0.000000001
 43
0.0000000001
 44
0.00000001
 40
0.0
 40
0.0
 40
0.0
 40
0.0
 40
0.5939249129345407
 40
1.187851597589358
 40
1.513819739508982
 40
1.839789279790118
 40
2.196317435514539
 40
2.552851932504588
 40
2.958199558377952
 40
3.363541509507852
 40
3.863542574906094
 40
4.363662703218095
 40
5.224160048598899
 40
6.084683374568931
 40
6.883623433991424
 40
7.68256349341369
 40
8.543086819383849
 40
9.403584164764629
 40
9.90370429307638
 40
10.40370535847469
 40
10.80904730960452
 40
11.21439493547803
 40
11.57092943246814
 40
11.9274575881926
 40
12.25342712847374
 40
12.57939527039347
 40
13.17332195504823
 40
13.76724686798262
 40
13.76724686798262
 40
13.76724686798262
 40
13.76724686798262
 10
552.4999999999999
 20
707.6614610364331
 30
0.0
 10
552.6721881948536
 20
707.7591846674462
 30
0.0
 10
553.0165651053668
 20
707.9546322082031
 30
0.0
 10
553.4640876453916
 20
708.1880196051366
 30
0.0
 10
553.8365748610099
 20
708.37167044063
 30
0.0
 10
554.1408252072208
 20
708.5146632059066
 30
0.0
 10
554.4572167900474
 20
708.6556226924803
 30
0.0
 10
554.8011242561569
 20
708.7996166756295
 30
0.0
 10
555.1637840518663
 20
708.9406782547319
 30
0.0
 10
555.5754406191327
 20
709.087205239513
 30
0.0
 10
556.0220698533005
 20
709.2290703263604
 30
0.0
 10
556.620520669389
 20
709.3924928373493
 30
0.0
 10
557.3459035672943
 20
709.5447020593724
 30
0.0
 10
558.180298634798
 20
709.6499375519226
 30
0.0
 10
559.0
 20
709.6832973532852
 30
0.0
 10
559.8197013652016
 20
709.6499375519226
 30
0.0
 10
560.6540964327058
 20
709.5447020593723
 30
0.0
 10
561.3794793306106
 20
709.3924928373494
 30
0.0
 10
561.9779301466995
 20
709.2290703263604
 30
0.0
 10
562.4245593808668
 20
709.0872052395127
 30
0.0
 10
562.8362159481335
 20
708.9406782547319
 30
0.0
 10
563.1988757438429
 20
708.7996166756294
 30
0.0
 10
563.5427832099524
 20
708.6556226924804
 30
0.0
 10
563.859174792779
 20
708.5146632059069
 30
0.0
 10
564.1634251389901
 20
708.3716704406298
 30
0.0
 10
564.5359123546084
 20
708.1880196051369
 30
0.0
 10
564.9834348946331
 20
707.9546322082026
 30
0.0
 10
565.3278118051461
 20
707.759184667446
 30
0.0
 10
565.4999999999999
 20
707.6614610364331
 30
0.0
 11
552.4999999999999
 21
707.6614610364331
 31
0.0
 11
553.0182599299357
 21
707.9515531747641
 31
0.0
 11
553.5445890446754
 21
708.2267377861656
 31
0.0
 11
553.8370173136805
 21
708.370754928111
 31
0.0
 11
554.1320432364445
 21
708.5093761610319
 31
0.0
 11
554.4577479776018
 21
708.6543890830653
 31
0.0
 11
554.7866493038633
 21
708.7920145358983
 31
0.0
 11
555.164469489926
 21
708.9388430242224
 31
0.0
 11
555.5463827945404
 21
709.0746529107646
 31
0.0
 11
556.0229968945849
 21
709.2257822107431
 31
0.0
 11
556.5055168488288
 21
709.3572912856307
 31
0.0
 11
557.3478454045784
 21
709.5331841121794
 31
0.0
 11
558.2017223180319
 21
709.639929660497
 31
0.0
 11
559.0
 21
709.6724559850162
 31
0.0
 11
559.7982776819679
 21
709.639929660497
 31
0.0
 11
560.6521545954215
 21
709.5331841121792
 31
0.0
 11
561.494483151171
 21
709.3572912856307
 31
0.0
 11
561.9770031054147
 21
709.2257822107432
 31
0.0
 11
562.4536172054593
 21
709.0746529107645
 31
0.0
 11
562.8355305100737
 21
708.9388430242225
 31
0.0
 11
563.2133506961364
 21
708.7920145358983
 31
0.0
 11
563.5422520223981
 21
708.6543890830654
 31
0.0
 11
563.8679567635554
 21
708.5093761610319
 31
0.0
 11
564.1629826863194
 21
708.370754928111
 31
0.0
 11
564.4554109553246
 21
708.2267377861656
 31
0.0
 11
564.9817400700642
 21
707.951553174764
 31
0.0
 11
565.4999999999999
 21
707.6614610364331
 31
0.0
  0
SPLINE
  5
15D
330
50
100
AcDbEntity
  8
1
  6
Continuous
 62
     7
100
AcDbSpline
210
0.0
220
0.0
230
1.0
 70
     8
 71
     3
 72
    33
 73
    29
 74
    27
 42
0.000000001
 43
0.0000000001
 44
0.00000001
 40
0.0
 40
0.0
 40
0.0
 40
0.0
 40
0.5939249129343424
 40
1.187851597589159
 40
1.513819739508681
 40
1.83978927978992
 40
2.196317435514445
 40
2.552851932504599
 40
2.958199558377963
 40
3.363541509507756
 40
3.863542574906106
 40
4.363662703217888
 40
5.224160048598803
 40
6.084683374568722
 40
6.883623433991215
 40
7.682563493413709
 40
8.543086819383642
 40
9.403584164764535
 40
9.903704293076286
 40
10.40370535847471
 40
10.80904730960442
 40
11.21439493547793
 40
11.57092943246794
 40
11.92745758819241
 40
12.25342712847364
 40
12.57939527039337
 40
13.17332195504834
 40
13.76724686798263
 40
13.76724686798263
 40
13.76724686798263
 40
13.76724686798263
 10
552.4999999999999
 20
707.6614610364331
 30
0.0
 10
552.3278118051463
 20
707.7591846674462
 30
0.0
 10
551.9834348946334
 20
707.954632208203
 30
0.0
 10
551.5359123546083
 20
708.1880196051367
 30
0.0
 10
551.1634251389902
 20
708.3716704406299
 30
0.0
 10
550.859174792779
 20
708.5146632059066
 30
0.0
 10
550.5427832099522
 20
708.6556226924802
 30
0.0
 10
550.198875743843
 20
708.7996166756296
 30
0.0
 10
549.8362159481336
 20
708.9406782547319
 30
0.0
 10
549.424559380867
 20
709.0872052395129
 30
0.0
 10
548.9779301466995
 20
709.2290703263602
 30
0.0
 10
548.3794793306108
 20
709.3924928373496
 30
0.0
 10
547.6540964327057
 20
709.5447020593723
 30
0.0
 10
546.8197013652018
 20
709.6499375519227
 30
0.0
 10
546.0
 20
709.6832973532851
 30
0.0
 10
545.1802986347981
 20
709.6499375519228
 30
0.0
 10
544.3459035672942
 20
709.5447020593722
 30
0.0
 10
543.6205206693893
 20
709.3924928373494
 30
0.0
 10
543.0220698533005
 20
709.2290703263604
 30
0.0
 10
542.5754406191329
 20
709.0872052395126
 30
0.0
 10
542.1637840518664
 20
708.9406782547322
 30
0.0
 10
541.8011242561569
 20
708.7996166756292
 30
0.0
 10
541.4572167900477
 20
708.6556226924807
 30
0.0
 10
541.1408252072212
 20
708.5146632059066
 30
0.0
 10
540.8365748610097
 20
708.3716704406299
 30
0.0
 10
540.4640876453916
 20
708.1880196051367
 30
0.0
 10
540.0165651053667
 20
707.9546322082031
 30
0.0
 10
539.6721881948536
 20
707.7591846674463
 30
0.0
 10
539.4999999999999
 20
707.6614610364331
 30
0.0
 11
552.4999999999999
 21
707.6614610364331
 31
0.0
 11
551.9817400700643
 21
707.9515531747641
 31
0.0
 11
551.4554109553246
 21
708.2267377861656
 31
0.0
 11
551.1629826863197
 21
708.370754928111
 31
0.0
 11
550.8679567635555
 21
708.5093761610319
 31
0.0
 11
550.5422520223981
 21
708.6543890830653
 31
0.0
 11
550.2133506961364
 21
708.7920145358983
 31
0.0
 11
549.8355305100738
 21
708.9388430242224
 31
0.0
 11
549.4536172054595
 21
709.0746529107646
 31
0.0
 11
548.9770031054148
 21
709.2257822107431
 31
0.0
 11
548.4944831511712
 21
709.3572912856307
 31
0.0
 11
547.6521545954215
 21
709.5331841121794
 31
0.0
 11
546.7982776819681
 21
709.639929660497
 31
0.0
 11
546.0
 21
709.6724559850162
 31
0.0
 11
545.2017223180319
 21
709.639929660497
 31
0.0
 11
544.3478454045785
 21
709.5331841121792
 31
0.0
 11
543.5055168488288
 21
709.3572912856307
 31
0.0
 11
543.0229968945852
 21
709.2257822107432
 31
0.0
 11
542.5463827945405
 21
709.0746529107645
 31
0.0
 11
542.1644694899262
 21
708.9388430242225
 31
0.0
 11
541.7866493038634
 21
708.7920145358983
 31
0.0
 11
541.4577479776019
 21
708.6543890830654
 31
0.0
 11
541.1320432364446
 21
708.5093761610319
 31
0.0
 11
540.8370173136805
 21
708.370754928111
 31
0.0
 11
540.5445890446753
 21
708.2267377861656
 31
0.0
 11
540.0182599299354
 21
707.951553174764
 31
0.0
 11
539.4999999999999
 21
707.6614610364331
 31
0.0
  0
SPLINE
  5
15E
330
50
100
AcDbEntity
  8
1
  6
Continuous
 62
     7
100
AcDbSpline
210
0.0
220
0.0
230
1.0
 70
     8
 71
     3
 72
    33
 73
    29
 74
    27
 42
0.000000001
 43
0.0000000001
 44
0.00000001
 40
0.0
 40
0.0
 40
0.0
 40
0.0
 40
0.5939249129343979
 40
1.187851597589215
 40
1.513819739508687
 40
1.839789279789974
 40
2.196317435514498
 40
2.552851932504609
 40
2.958199558378055
 40
3.363541509507733
 40
3.863542574906186
 40
4.363662703217909
 40
5.2241600485988
 40
6.084683374568733
 40
6.883623433991231
 40
7.682563493413729
 40
8.54308681938365
 40
9.403584164764542
 40
9.903704293076354
 40
10.40370535847474
 40
10.80904730960449
 40
11.21439493547796
 40
11.57092943246797
 40
11.92745758819244
 40
12.25342712847363
 40
12.5793952703934
 40
13.17332195504827
 40
13.76724686798267
 40
13.76724686798267
 40
13.76724686798267
 40
13.76724686798267
 10
552.4999999999999
 20
702.9225680353633
 30
0.0
 10
552.3278118051463
 20
702.8248444043502
 30
0.0
 10
551.9834348946333
 20
702.6293968635933
 30
0.0
 10
551.5359123546082
 20
702.3960094666595
 30
0.0
 10
551.1634251389903
 20
702.2123586311664
 30
0.0
 10
550.859174792779
 20
702.0693658658895
 30
0.0
 10
550.5427832099525
 20
701.928406379316
 30
0.0
 10
550.1988757438428
 20
701.784412396167
 30
0.0
 10
549.8362159481337
 20
701.6433508170642
 30
0.0
 10
549.4245593808671
 20
701.4968238322839
 30
0.0
 10
548.9779301466994
 20
701.3549587454356
 30
0.0
 10
548.3794793306108
 20
701.1915362344471
 30
0.0
 10
547.6540964327056
 20
701.0393270124241
 30
0.0
 10
546.819701365202
 20
700.9340915198738
 30
0.0
 10
546.0
 20
700.9007317185111
 30
0.0
 10
545.1802986347981
 20
700.9340915198738
 30
0.0
 10
544.3459035672944
 20
701.0393270124242
 30
0.0
 10
543.6205206693891
 20
701.1915362344464
 30
0.0
 10
543.0220698533008
 20
701.3549587454365
 30
0.0
 10
542.5754406191329
 20
701.4968238322834
 30
0.0
 10
542.1637840518663
 20
701.6433508170646
 30
0.0
 10
541.801124256157
 20
701.7844123961668
 30
0.0
 10
541.4572167900478
 20
701.9284063793162
 30
0.0
 10
541.140825207221
 20
702.0693658658898
 30
0.0
 10
540.8365748610097
 20
702.2123586311661
 30
0.0
 10
540.4640876453917
 20
702.39600946666
 30
0.0
 10
540.0165651053665
 20
702.6293968635931
 30
0.0
 10
539.6721881948536
 20
702.8248444043502
 30
0.0
 10
539.4999999999999
 20
702.9225680353633
 30
0.0
 11
552.4999999999999
 21
702.9225680353633
 31
0.0
 11
551.9817400700643
 21
702.6324758970322
 31
0.0
 11
551.4554109553246
 21
702.3572912856307
 31
0.0
 11
551.1629826863197
 21
702.2132741436855
 31
0.0
 11
550.8679567635555
 21
702.0746529107644
 31
0.0
 11
550.5422520223981
 21
701.929639988731
 31
0.0
 11
550.2133506961364
 21
701.7920145358981
 31
0.0
 11
549.8355305100738
 21
701.6451860475738
 31
0.0
 11
549.4536172054595
 21
701.5093761610319
 31
0.0
 11
548.9770031054148
 21
701.3582468610531
 31
0.0
 11
548.4944831511712
 21
701.2267377861657
 31
0.0
 11
547.6521545954215
 21
701.0508449596172
 31
0.0
 11
546.7982776819681
 21
700.9440994112994
 31
0.0
 11
546.0
 21
700.9115730867801
 31
0.0
 11
545.2017223180319
 21
700.9440994112994
 31
0.0
 11
544.3478454045785
 21
701.050844959617
 31
0.0
 11
543.5055168488288
 21
701.2267377861656
 31
0.0
 11
543.0229968945852
 21
701.3582468610533
 31
0.0
 11
542.5463827945405
 21
701.5093761610319
 31
0.0
 11
542.1644694899262
 21
701.645186047574
 31
0.0
 11
541.7866493038634
 21
701.7920145358981
 31
0.0
 11
541.4577479776019
 21
701.929639988731
 31
0.0
 11
541.1320432364446
 21
702.0746529107645
 31
0.0
 11
540.8370173136805
 21
702.2132741436853
 31
0.0
 11
540.5445890446753
 21
702.3572912856308
 31
0.0
 11
540.0182599299354
 21
702.6324758970322
 31
0.0
 11
539.4999999999999
 21
702.9225680353633
 31
0.0
  0
SPLINE
  5
15F
330
50
100
AcDbEntity
  8
1
  6
Continuous
 62
     7
100
AcDbSpline
210
0.0
220
0.0
230
1.0
 70
     8
 71
     3
 72
    33
 73
    29
 74
    27
 42
0.000000001
 43
0.0000000001
 44
0.00000001
 40
0.0
 40
0.0
 40
0.0
 40
0.0
 40
0.4133568979875308
 40
0.826714895829289
 40
1.04747742609783
 40
1.268240269860422
 40
1.504227365470448
 40
1.740225678003526
 40
2.001195134575604
 40
2.262139226749105
 40
2.57302366000949
 40
2.8841479702693
 40
3.395079508021678
 40
3.905704149327948
 40
4.367715773749985
 40
4.829727398172013
 40
5.340352039478529
 40
5.851283577230815
 40
6.162407887490622
 40
6.473292320750957
 40
6.734236412924554
 40
6.995205869496585
 40
7.231204182029572
 40
7.467191277639553
 40
7.687954121402001
 40
7.908716651670733
 40
8.322074649512576
 40
8.735431547500106
 40
8.735431547500106
 40
8.735431547500106
 40
8.735431547500106
 10
377.4888930010697
 20
707.6614610364331
 30
0.0
 10
377.5871432021344
 20
707.758077489523
 30
0.0
 10
377.783643875622
 20
707.9513106425309
 30
0.0
 10
378.0426977395844
 20
708.1855876009463
 30
0.0
 10
378.2593805462511
 20
708.370680678021
 30
0.0
 10
378.4345155432195
 20
708.5133025578881
 30
0.0
 10
378.617312231609
 20
708.6544469599268
 30
0.0
 10
378.815088514655
 20
708.7979553553575
 30
0.0
 10
379.0246045597493
 20
708.9392382447153
 30
0.0
 10
379.2609029698281
 20
709.0850690481185
 30
0.0
 10
379.5187735213564
 20
709.2272911582726
 30
0.0
 10
379.8602393048235
 20
709.3891174537977
 30
0.0
 10
380.2784461104234
 20
709.5422815221348
 30
0.0
 10
380.7630302782575
 20
709.6495761814435
 30
0.0
 10
381.2416697508023
 20
709.6828919657071
 30
0.0
 10
381.7203092233469
 20
709.6495761814436
 30
0.0
 10
382.2048933911811
 20
709.5422815221348
 30
0.0
 10
382.6231001967813
 20
709.3891174537979
 30
0.0
 10
382.9645659802481
 20
709.2272911582728
 30
0.0
 10
383.2224365317765
 20
709.085069048118
 30
0.0
 10
383.4587349418553
 20
708.9392382447155
 30
0.0
 10
383.6682509869495
 20
708.7979553553575
 30
0.0
 10
383.8660272699955
 20
708.6544469599271
 30
0.0
 10
384.0488239583848
 20
708.513302557888
 30
0.0
 10
384.2239589553533
 20
708.3706806780212
 30
0.0
 10
384.4406417620199
 20
708.1855876009466
 30
0.0
 10
384.6996956259823
 20
707.9513106425308
 30
0.0
 10
384.8961962994703
 20
707.7580774895232
 30
0.0
 10
384.9944465005348
 20
707.6614610364331
 30
0.0
 11
377.4888930010697
 21
707.6614610364331
 31
0.0
 11
377.7856325893539
 21
707.9492275113478
 31
0.0
 11
378.0919867672054
 21
708.2267377861656
 31
0.0
 11
378.2599359368864
 21
708.3700178311304
 31
0.0
 11
378.4311536029599
 21
708.5093761610318
 31
0.0
 11
378.6180127820465
 21
708.6535065068939
 31
0.0
 11
378.8090905921974
 21
708.7920145358981
 31
0.0
 11
379.0255643930411
 21
708.9377682698164
 31
0.0
 11
379.2477229275522
 21
709.0746529107645
 31
0.0
 11
379.52015521961
 21
709.2244186521751
 31
0.0
 11
379.8014792319846
 21
709.3572912856306
 31
0.0
 11
380.2818198941638
 21
709.5314288323747
 31
0.0
 11
380.7807839162298
 21
709.6399296604969
 31
0.0
 11
381.2416697508022
 21
709.6721630158612
 31
0.0
 11
381.7025555853746
 21
709.639929660497
 31
0.0
 11
382.2015196074408
 21
709.5314288323747
 31
0.0
 11
382.68186026962
 21
709.3572912856307
 31
0.0
 11
382.9631842819945
 21
709.2244186521751
 31
0.0
 11
383.2356165740522
 21
709.0746529107645
 31
0.0
 11
383.4577751085635
 21
708.9377682698164
 31
0.0
 11
383.6742489094071
 21
708.7920145358981
 31
0.0
 11
383.8653267195579
 21
708.6535065068939
 31
0.0
 11
384.0521858986444
 21
708.5093761610318
 31
0.0
 11
384.2234035647179
 21
708.3700178311307
 31
0.0
 11
384.391352734399
 21
708.2267377861656
 31
0.0
 11
384.6977069122506
 21
707.9492275113478
 31
0.0
 11
384.9944465005348
 21
707.6614610364331
 31
0.0
  0
SPLINE
  5
160
330
50
100
AcDbEntity
  8
1
  6
Continuous
 62
     7
100
AcDbSpline
210
0.0
220
0.0
230
1.0
 70
     8
 71
     3
 72
    33
 73
    29
 74
    27
 42
0.000000001
 43
0.0000000001
 44
0.00000001
 40
0.0
 40
0.0
 40
0.0
 40
0.0
 40
0.6660942065947201
 40
1.332190221276429
 40
1.699632942691291
 40
2.067077051446446
 40
2.470589211701748
 40
2.874107005745411
 40
3.334983197926004
 40
3.795855498283333
 40
4.367402400501862
 40
4.939051288057258
 40
5.929102488372068
 40
6.919199819071089
 40
7.841546050681616
 40
8.7638922822922
 40
9.753989612991404
 40
10.74404081330608
 40
11.31568970086156
 40
11.88723660308009
 40
12.34810890343726
 40
12.80898509561776
 40
13.21250288966145
 40
13.61601504991683
 40
13.98345915867208
 40
14.35090188008685
 40
15.01699789476851
 40
15.68309210136328
 40
15.68309210136328
 40
15.68309210136328
 40
15.68309210136328
 10
400.005553499465
 20
707.6614610364331
 30
0.0
 10
399.8062772213358
 20
707.7593989499276
 30
0.0
 10
399.4077241177444
 20
707.9552750295501
 30
0.0
 10
398.8912771874688
 20
708.1884705005203
 30
0.0
 10
398.4617818052109
 20
708.3718493493782
 30
0.0
 10
398.1102905014804
 20
708.5149022985091
 30
0.0
 10
397.7450146278409
 20
708.6558237863271
 30
0.0
 10
397.347660698375
 20
708.7998920275038
 30
0.0
 10
396.9289664747786
 20
708.940909450316
 30
0.0
 10
396.4532297855193
 20
709.0875337973098
 30
0.0
 10
395.9375634249623
 20
709.2293324894092
 30
0.0
 10
395.2454217211177
 20
709.3929656855512
 30
0.0
 10
394.4078060178999
 20
709.5450413010594
 30
0.0
 10
393.4451308997388
 20
709.6499830470889
 30
0.0
 10
392.4999999999999
 20
709.6833308132801
 30
0.0
 10
391.5548691002609
 20
709.649983047089
 30
0.0
 10
390.5921939820998
 20
709.5450413010594
 30
0.0
 10
389.7545782788821
 20
709.3929656855511
 30
0.0
 10
389.0624365750375
 20
709.2293324894092
 30
0.0
 10
388.5467702144805
 20
709.0875337973101
 30
0.0
 10
388.0710335252213
 20
708.9409094503155
 30
0.0
 10
387.652339301625
 20
708.7998920275038
 30
0.0
 10
387.2549853721588
 20
708.6558237863273
 30
0.0
 10
386.8897094985193
 20
708.514902298509
 30
0.0
 10
386.5382181947891
 20
708.3718493493777
 30
0.0
 10
386.1087228125309
 20
708.1884705005208
 30
0.0
 10
385.5922758822556
 20
707.95527502955
 30
0.0
 10
385.193722778664
 20
707.7593989499276
 30
0.0
 10
384.9944465005348
 20
707.6614610364331
 30
0.0
 11
400.005553499465
 21
707.6614610364331
 31
0.0
 11
399.406163804902
 21
707.9520010293121
 31
0.0
 11
398.7993659671934
 21
708.2267377861657
 31
0.0
 11
398.4613794931431
 21
708.3708880446679
 31
0.0
 11
398.1210322956843
 21
708.5093761610319
 31
0.0
 11
397.7445359019909
 21
708.6545399621713
 31
0.0
 11
397.3651583172096
 21
708.7920145358983
 31
0.0
 11
396.928354670782
 21
708.9390160296786
 31
0.0
 11
396.4878936464998
 21
709.0746529107645
 31
0.0
 11
395.9367445558073
 21
709.2259821595942
 31
0.0
 11
395.3803810376352
 21
709.3572912856307
 31
0.0
 11
394.4061251256322
 21
709.5334355392067
 31
0.0
 11
393.4217716691443
 21
709.639929660497
 31
0.0
 11
392.4999999999999
 21
709.6724805702755
 31
0.0
 11
391.5782283308556
 21
709.639929660497
 31
0.0
 11
390.5938748743675
 21
709.5334355392066
 31
0.0
 11
389.6196189623646
 21
709.3572912856307
 31
0.0
 11
389.0632554441925
 21
709.2259821595941
 31
0.0
 11
388.5121063534999
 21
709.0746529107644
 31
0.0
 11
388.0716453292179
 21
708.9390160296784
 31
0.0
 11
387.6348416827904
 21
708.7920145358983
 31
0.0
 11
387.2554640980089
 21
708.6545399621715
 31
0.0
 11
386.8789677043155
 21
708.5093761610319
 31
0.0
 11
386.5386205068568
 21
708.3708880446677
 31
0.0
 11
386.2006340328065
 21
708.2267377861657
 31
0.0
 11
385.5938361950979
 21
707.9520010293121
 31
0.0
 11
384.9944465005348
 21
707.6614610364331
 31
0.0
  0
SPLINE
  5
161
330
50
100
AcDbEntity
  8
1
  6
Continuous
 62
     7
100
AcDbSpline
210
0.0
220
0.0
230
1.0
 70
     8
 71
     3
 72
    33
 73
    29
 74
    27
 42
0.000000001
 43
0.0000000001
 44
0.00000001
 40
0.0
 40
0.0
 40
0.0
 40
0.0
 40
0.4133568979875715
 40
0.826714895829372
 40
1.047477426097956
 40
1.268240269860548
 40
1.504227365470529
 40
1.740225678003561
 40
2.001195134575639
 40
2.262139226749188
 40
2.573023660009573
 40
2.884147970269332
 40
3.395079508021657
 40
3.905704149328093
 40
4.367715773750073
 40
4.829727398172102
 40
5.340352039478451
 40
5.85128357723079
 40
6.1624078874907
 40
6.473292320751035
 40
6.734236412924584
 40
6.995205869496615
 40
7.231204182029647
 40
7.467191277639628
 40
7.687954121402032
 40
7.908716651670764
 40
8.32207464951248
 40
8.735431547500133
 40
8.735431547500133
 40
8.735431547500133
 40
8.735431547500133
 10
407.5111069989302
 20
707.6614610364331
 30
0.0
 10
407.4128567978655
 20
707.758077489523
 30
0.0
 10
407.2163561243776
 20
707.9513106425304
 30
0.0
 10
406.9573022604152
 20
708.1855876009467
 30
0.0
 10
406.7406194537486
 20
708.370680678021
 30
0.0
 10
406.5654844567802
 20
708.513302557888
 30
0.0
 10
406.3826877683907
 20
708.6544469599268
 30
0.0
 10
406.184911485345
 20
708.7979553553579
 30
0.0
 10
405.9753954402505
 20
708.9392382447154
 30
0.0
 10
405.7390970301719
 20
709.0850690481184
 30
0.0
 10
405.4812264786433
 20
709.2272911582725
 30
0.0
 10
405.1397606951764
 20
709.3891174537977
 30
0.0
 10
404.7215538895764
 20
709.542281522135
 30
0.0
 10
404.2369697217421
 20
709.6495761814433
 30
0.0
 10
403.7583302491977
 20
709.6828919657071
 30
0.0
 10
403.2796907766527
 20
709.6495761814436
 30
0.0
 10
402.7951066088189
 20
709.5422815221348
 30
0.0
 10
402.3768998032187
 20
709.3891174537976
 30
0.0
 10
402.0354340197519
 20
709.2272911582729
 30
0.0
 10
401.777563468223
 20
709.085069048118
 30
0.0
 10
401.5412650581447
 20
708.9392382447154
 30
0.0
 10
401.3317490130503
 20
708.7979553553578
 30
0.0
 10
401.1339727300043
 20
708.6544469599269
 30
0.0
 10
400.951176041615
 20
708.513302557888
 30
0.0
 10
400.7760410446465
 20
708.3706806780214
 30
0.0
 10
400.5593582379801
 20
708.1855876009465
 30
0.0
 10
400.3003043740175
 20
707.9513106425306
 30
0.0
 10
400.1038037005298
 20
707.758077489523
 30
0.0
 10
400.005553499465
 20
707.6614610364331
 30
0.0
 11
407.5111069989302
 21
707.6614610364331
 31
0.0
 11
407.2143674106459
 21
707.9492275113478
 31
0.0
 11
406.9080132327944
 21
708.2267377861656
 31
0.0
 11
406.7400640631133
 21
708.3700178311304
 31
0.0
 11
406.5688463970398
 21
708.5093761610318
 31
0.0
 11
406.3819872179532
 21
708.6535065068939
 31
0.0
 11
406.1909094078024
 21
708.7920145358981
 31
0.0
 11
405.9744356069587
 21
708.9377682698164
 31
0.0
 11
405.7522770724476
 21
709.0746529107645
 31
0.0
 11
405.4798447803897
 21
709.2244186521751
 31
0.0
 11
405.1985207680152
 21
709.3572912856306
 31
0.0
 11
404.718180105836
 21
709.5314288323747
 31
0.0
 11
404.2192160837699
 21
709.6399296604969
 31
0.0
 11
403.7583302491976
 21
709.6721630158612
 31
0.0
 11
403.2974444146252
 21
709.639929660497
 31
0.0
 11
402.7984803925592
 21
709.5314288323747
 31
0.0
 11
402.3181397303799
 21
709.3572912856307
 31
0.0
 11
402.0368157180053
 21
709.2244186521751
 31
0.0
 11
401.7643834259475
 21
709.0746529107645
 31
0.0
 11
401.5422248914364
 21
708.9377682698164
 31
0.0
 11
401.3257510905927
 21
708.7920145358981
 31
0.0
 11
401.1346732804419
 21
708.6535065068939
 31
0.0
 11
400.9478141013553
 21
708.5093761610318
 31
0.0
 11
400.7765964352819
 21
708.3700178311307
 31
0.0
 11
400.6086472656008
 21
708.2267377861656
 31
0.0
 11
400.3022930877494
 21
707.9492275113478
 31
0.0
 11
400.005553499465
 21
707.6614610364331
 31
0.0
  0
SPLINE
  5
162
330
50
100
AcDbEntity
  8
1
  6
Continuous
 62
     7
100
AcDbSpline
210
0.0
220
0.0
230
1.0
 70
     8
 71
     3
 72
    33
 73
    29
 74
    27
 42
0.000000001
 43
0.0000000001
 44
0.00000001
 40
0.0
 40
0.0
 40
0.0
 40
0.0
 40
0.4133568979874516
 40
0.8267148958293626
 40
1.047477426098051
 40
1.268240269860571
 40
1.504227365470597
 40
1.740225678003675
 40
2.001195134575626
 40
2.262139226749186
 40
2.573023660009626
 40
2.884147970269437
 40
3.395079508021737
 40
3.905704149328031
 40
4.367715773750059
 40
4.829727398172087
 40
5.340352039478604
 40
5.851283577230889
 40
6.162407887490648
 40
6.473292320751038
 40
6.734236412924695
 40
6.995205869496662
 40
7.231204182029514
 40
7.467191277639495
 40
7.687954121402158
 40
7.908716651670742
 40
8.322074649512738
 40
8.73543154750019
 40
8.73543154750019
 40
8.73543154750019
 40
8.73543154750019
 10
377.4888930010697
 20
702.9225680353633
 30
0.0
 10
377.5871432021344
 20
702.8259515822734
 30
0.0
 10
377.7836438756223
 20
702.6327184292657
 30
0.0
 10
378.0426977395845
 20
702.3984414708499
 30
0.0
 10
378.2593805462511
 20
702.2133483937752
 30
0.0
 10
378.4345155432195
 20
702.070726513908
 30
0.0
 10
378.617312231609
 20
701.9295821118693
 30
0.0
 10
378.8150885146549
 20
701.7860737164385
 30
0.0
 10
379.0246045597494
 20
701.6447908270811
 30
0.0
 10
379.260902969828
 20
701.4989600236779
 30
0.0
 10
379.5187735213564
 20
701.3567379135235
 30
0.0
 10
379.8602393048234
 20
701.1949116179984
 30
0.0
 10
380.2784461104234
 20
701.0417475496617
 30
0.0
 10
380.7630302782574
 20
700.9344528903525
 30
0.0
 10
381.2416697508023
 20
700.9011371060895
 30
0.0
 10
381.7203092233469
 20
700.9344528903526
 30
0.0
 10
382.2048933911812
 20
701.0417475496617
 30
0.0
 10
382.623100196781
 20
701.1949116179985
 30
0.0
 10
382.9645659802482
 20
701.3567379135237
 30
0.0
 10
383.2224365317765
 20
701.4989600236781
 30
0.0
 10
383.4587349418551
 20
701.644790827081
 30
0.0
 10
383.6682509869495
 20
701.7860737164389
 30
0.0
 10
383.8660272699954
 20
701.9295821118692
 30
0.0
 10
384.0488239583849
 20
702.0707265139081
 30
0.0
 10
384.2239589553532
 20
702.2133483937755
 30
0.0
 10
384.4406417620201
 20
702.3984414708498
 30
0.0
 10
384.6996956259821
 20
702.6327184292657
 30
0.0
 10
384.8961962994702
 20
702.8259515822735
 30
0.0
 10
384.9944465005348
 20
702.9225680353633
 30
0.0
 11
377.4888930010697
 21
702.9225680353633
 31
0.0
 11
377.7856325893539
 21
702.6348015604488
 31
0.0
 11
378.0919867672054
 21
702.3572912856307
 31
0.0
 11
378.2599359368864
 21
702.2140112406656
 31
0.0
 11
378.4311536029599
 21
702.0746529107644
 31
0.0
 11
378.6180127820465
 21
701.9305225649023
 31
0.0
 11
378.8090905921974
 21
701.792014535898
 31
0.0
 11
379.0255643930411
 21
701.64626080198
 31
0.0
 11
379.2477229275522
 21
701.5093761610318
 31
0.0
 11
379.52015521961
 21
701.359610419621
 31
0.0
 11
379.8014792319846
 21
701.2267377861656
 31
0.0
 11
380.2818198941638
 21
701.0526002394217
 31
0.0
 11
380.7807839162298
 21
700.9440994112994
 31
0.0
 11
381.2416697508022
 21
700.9118660559352
 31
0.0
 11
381.7025555853746
 21
700.9440994112994
 31
0.0
 11
382.2015196074408
 21
701.0526002394217
 31
0.0
 11
382.68186026962
 21
701.2267377861657
 31
0.0
 11
382.9631842819945
 21
701.3596104196212
 31
0.0
 11
383.2356165740522
 21
701.5093761610319
 31
0.0
 11
383.4577751085635
 21
701.6462608019801
 31
0.0
 11
383.6742489094071
 21
701.7920145358983
 31
0.0
 11
383.8653267195579
 21
701.9305225649023
 31
0.0
 11
384.0521858986444
 21
702.0746529107644
 31
0.0
 11
384.2234035647179
 21
702.2140112406659
 31
0.0
 11
384.391352734399
 21
702.3572912856307
 31
0.0
 11
384.6977069122506
 21
702.6348015604488
 31
0.0
 11
384.9944465005348
 21
702.9225680353633
 31
0.0
  0
SPLINE
  5
163
330
50
100
AcDbEntity
  8
1
  6
Continuous
 62
     7
100
AcDbSpline
210
0.0
220
0.0
230
1.0
 70
     8
 71
     3
 72
    33
 73
    29
 74
    27
 42
0.000000001
 43
0.0000000001
 44
0.00000001
 40
0.0
 40
0.0
 40
0.0
 40
0.0
 40
0.6660942065947201
 40
1.332190221276429
 40
1.699632942691246
 40
2.067077051446445
 40
2.470589211701828
 40
2.874107005745376
 40
3.334983197925969
 40
3.795855498283331
 40
4.367402400501831
 40
4.939051288057279
 40
5.929102488372088
 40
6.919199819071097
 40
7.841546050681624
 40
8.763892282292208
 40
9.753989612991374
 40
10.74404081330611
 40
11.31568970086159
 40
11.88723660308009
 40
12.34810890343729
 40
12.80898509561783
 40
13.21250288966156
 40
13.61601504991686
 40
13.98345915867201
 40
14.35090188008692
 40
15.01699789476853
 40
15.6830921013633
 40
15.6830921013633
 40
15.6830921013633
 40
15.6830921013633
 10
400.005553499465
 20
702.9225680353633
 30
0.0
 10
399.8062772213358
 20
702.8246301218691
 30
0.0
 10
399.4077241177442
 20
702.6287540422463
 30
0.0
 10
398.891277187469
 20
702.3955585712756
 30
0.0
 10
398.4617818052106
 20
702.2121797224185
 30
0.0
 10
398.1102905014806
 20
702.0691267732874
 30
0.0
 10
397.745014627841
 20
701.9282052854691
 30
0.0
 10
397.3476606983749
 20
701.7841370442928
 30
0.0
 10
396.9289664747785
 20
701.6431196214808
 30
0.0
 10
396.4532297855194
 20
701.4964952744862
 30
0.0
 10
395.9375634249624
 20
701.3546965823875
 30
0.0
 10
395.2454217211176
 20
701.1910633862451
 30
0.0
 10
394.4078060178999
 20
701.0389877707368
 30
0.0
 10
393.4451308997388
 20
700.9340460247074
 30
0.0
 10
392.4999999999999
 20
700.9006982585162
 30
0.0
 10
391.554869100261
 20
700.9340460247074
 30
0.0
 10
390.5921939820998
 20
701.0389877707366
 30
0.0
 10
389.7545782788819
 20
701.191063386245
 30
0.0
 10
389.0624365750376
 20
701.3546965823875
 30
0.0
 10
388.5467702144803
 20
701.4964952744863
 30
0.0
 10
388.0710335252214
 20
701.6431196214808
 30
0.0
 10
387.6523393016248
 20
701.7841370442925
 30
0.0
 10
387.2549853721591
 20
701.9282052854694
 30
0.0
 10
386.8897094985193
 20
702.0691267732875
 30
0.0
 10
386.538218194789
 20
702.2121797224182
 30
0.0
 10
386.108722812531
 20
702.395558571276
 30
0.0
 10
385.5922758822555
 20
702.6287540422463
 30
0.0
 10
385.1937227786641
 20
702.824630121869
 30
0.0
 10
384.9944465005348
 20
702.9225680353633
 30
0.0
 11
400.005553499465
 21
702.9225680353633
 31
0.0
 11
399.406163804902
 21
702.6320280424843
 31
0.0
 11
398.7993659671934
 21
702.3572912856307
 31
0.0
 11
398.4613794931431
 21
702.2131410271286
 31
0.0
 11
398.1210322956843
 21
702.0746529107645
 31
0.0
 11
397.7445359019909
 21
701.9294891096249
 31
0.0
 11
397.3651583172096
 21
701.7920145358983
 31
0.0
 11
396.928354670782
 21
701.645013042118
 31
0.0
 11
396.4878936464998
 21
701.5093761610319
 31
0.0
 11
395.9367445558073
 21
701.3580469122023
 31
0.0
 11
395.3803810376352
 21
701.2267377861656
 31
0.0
 11
394.4061251256322
 21
701.0505935325896
 31
0.0
 11
393.4217716691443
 21
700.9440994112994
 31
0.0
 11
392.4999999999999
 21
700.9115485015209
 31
0.0
 11
391.5782283308556
 21
700.9440994112994
 31
0.0
 11
390.5938748743675
 21
701.0505935325895
 31
0.0
 11
389.6196189623646
 21
701.2267377861657
 31
0.0
 11
389.0632554441925
 21
701.3580469122023
 31
0.0
 11
388.5121063534999
 21
701.5093761610319
 31
0.0
 11
388.0716453292179
 21
701.645013042118
 31
0.0
 11
387.6348416827904
 21
701.7920145358983
 31
0.0
 11
387.2554640980089
 21
701.9294891096251
 31
0.0
 11
386.8789677043155
 21
702.0746529107645
 31
0.0
 11
386.5386205068568
 21
702.2131410271285
 31
0.0
 11
386.2006340328065
 21
702.3572912856308
 31
0.0
 11
385.5938361950979
 21
702.6320280424843
 31
0.0
 11
384.9944465005348
 21
702.9225680353633
 31
0.0
  0
SPLINE
  5
164
330
50
100
AcDbEntity
  8
1
  6
Continuous
 62
     7
100
AcDbSpline
210
0.0
220
0.0
230
1.0
 70
     8
 71
     3
 72
    33
 73
    29
 74
    27
 42
0.000000001
 43
0.0000000001
 44
0.00000001
 40
0.0
 40
0.0
 40
0.0
 40
0.0
 40
0.4133568979874924
 40
0.8267148958294455
 40
1.047477426098177
 40
1.268240269860697
 40
1.504227365470678
 40
1.74022567800371
 40
2.001195134575661
 40
2.26213922674927
 40
2.57302366000971
 40
2.884147970269469
 40
3.395079508021715
 40
3.905704149328176
 40
4.367715773750148
 40
4.829727398172176
 40
5.340352039478526
 40
5.851283577230864
 40
6.162407887490726
 40
6.473292320751116
 40
6.734236412924725
 40
6.995205869496692
 40
7.23120418202959
 40
7.467191277639571
 40
7.687954121402191
 40
7.908716651670775
 40
8.322074649512643
 40
8.735431547500218
 40
8.735431547500218
 40
8.735431547500218
 40
8.735431547500218
 10
407.5111069989302
 20
702.9225680353633
 30
0.0
 10
407.4128567978654
 20
702.8259515822734
 30
0.0
 10
407.2163561243776
 20
702.6327184292659
 30
0.0
 10
406.9573022604152
 20
702.3984414708497
 30
0.0
 10
406.7406194537488
 20
702.2133483937753
 30
0.0
 10
406.5654844567803
 20
702.0707265139083
 30
0.0
 10
406.3826877683907
 20
701.9295821118692
 30
0.0
 10
406.184911485345
 20
701.7860737164388
 30
0.0
 10
405.9753954402503
 20
701.6447908270811
 30
0.0
 10
405.7390970301719
 20
701.4989600236781
 30
0.0
 10
405.4812264786434
 20
701.3567379135235
 30
0.0
 10
405.1397606951764
 20
701.1949116179986
 30
0.0
 10
404.7215538895765
 20
701.0417475496617
 30
0.0
 10
404.2369697217422
 20
700.9344528903526
 30
0.0
 10
403.7583302491977
 20
700.9011371060894
 30
0.0
 10
403.2796907766527
 20
700.9344528903525
 30
0.0
 10
402.795106608819
 20
701.0417475496617
 30
0.0
 10
402.3768998032187
 20
701.1949116179985
 30
0.0
 10
402.0354340197517
 20
701.3567379135237
 30
0.0
 10
401.7775634682233
 20
701.4989600236783
 30
0.0
 10
401.5412650581446
 20
701.644790827081
 30
0.0
 10
401.3317490130503
 20
701.7860737164389
 30
0.0
 10
401.1339727300043
 20
701.9295821118692
 30
0.0
 10
400.951176041615
 20
702.0707265139083
 30
0.0
 10
400.7760410446465
 20
702.213348393775
 30
0.0
 10
400.5593582379799
 20
702.3984414708499
 30
0.0
 10
400.3003043740179
 20
702.6327184292659
 30
0.0
 10
400.1038037005297
 20
702.8259515822734
 30
0.0
 10
400.005553499465
 20
702.9225680353633
 30
0.0
 11
407.5111069989302
 21
702.9225680353633
 31
0.0
 11
407.2143674106459
 21
702.6348015604488
 31
0.0
 11
406.9080132327944
 21
702.3572912856307
 31
0.0
 11
406.7400640631133
 21
702.2140112406656
 31
0.0
 11
406.5688463970398
 21
702.0746529107644
 31
0.0
 11
406.3819872179532
 21
701.9305225649023
 31
0.0
 11
406.1909094078024
 21
701.792014535898
 31
0.0
 11
405.9744356069587
 21
701.64626080198
 31
0.0
 11
405.7522770724476
 21
701.5093761610318
 31
0.0
 11
405.4798447803897
 21
701.359610419621
 31
0.0
 11
405.1985207680152
 21
701.2267377861656
 31
0.0
 11
404.718180105836
 21
701.0526002394217
 31
0.0
 11
404.2192160837699
 21
700.9440994112994
 31
0.0
 11
403.7583302491976
 21
700.9118660559352
 31
0.0
 11
403.2974444146252
 21
700.9440994112994
 31
0.0
 11
402.7984803925592
 21
701.0526002394217
 31
0.0
 11
402.3181397303799
 21
701.2267377861657
 31
0.0
 11
402.0368157180053
 21
701.3596104196212
 31
0.0
 11
401.7643834259475
 21
701.5093761610319
 31
0.0
 11
401.5422248914364
 21
701.6462608019801
 31
0.0
 11
401.3257510905927
 21
701.7920145358983
 31
0.0
 11
401.1346732804419
 21
701.9305225649023
 31
0.0
 11
400.9478141013553
 21
702.0746529107644
 31
0.0
 11
400.7765964352819
 21
702.2140112406659
 31
0.0
 11
400.6086472656008
 21
702.3572912856307
 31
0.0
 11
400.3022930877494
 21
702.6348015604488
 31
0.0
 11
400.005553499465
 21
702.9225680353633
 31
0.0
  0
ARC
  5
165
330
50
100
AcDbEntity
  8
1
  6
Continuous
 62
     7
100
AcDbCircle
 10
569.9999999999999
 20
712.2436358472288
 30
0.0
 40
5.0
100
AcDbArc
 50
180.0
 51
205.841932763166
  0
ARC
  5
166
330
50
100
AcDbEntity
  8
1
  6
Continuous
 62
     7
100
AcDbCircle
 10
534.9999999999999
 20
712.2436358472288
 30
0.0
 40
5.000000000000002
100
AcDbArc
 50
334.1580672368328
 51
0.0
  0
ARC
  5
167
330
50
100
AcDbEntity
  8
1
  6
Continuous
 62
     7
100
AcDbCircle
 10
407.9999999999999
 20
753.1614610364331
 30
0.0
 40
5.0
100
AcDbArc
 50
180.0
 51
270.0
  0
ARC
  5
168
330
50
100
AcDbEntity
  8
1
  6
Continuous
 62
     7
100
AcDbCircle
 10
374.9999999999999
 20
712.2436358472288
 30
0.0
 40
5.0
100
AcDbArc
 50
314.9999999999995
 51
0.0
  0
ARC
  5
169
330
50
100
AcDbEntity
  8
1
  6
Continuous
 62
     7
100
AcDbCircle
 10
409.9999999999999
 20
712.2436358472288
 30
0.0
 40
5.0
100
AcDbArc
 50
180.0
 51
225.0000000000014
  0
ARC
  5
16A
330
50
100
AcDbEntity
  8
1
  6
Continuous
 62
     7
100
AcDbCircle
 10
409.9999999999999
 20
718.1614610364331
 30
0.0
 40
5.0
100
AcDbArc
 50
90.0
 51
180.0
  0
ENDBLK
  5
52
330
50
100
AcDbEntity
  8
0
100
AcDbBlockEnd
  0
BLOCK
  5
54
330
53
100
AcDbEntity
  8
0
100
AcDbBlockBegin
  2
78-167
 70
     0
 10
444.2175746076947
 20
1048.827422926999
 30
0.0
  3
78-167
  1

  0
LINE
  5
16B
330
53
100
AcDbEntity
  8
1
  6
Continuous
 62
     7
100
AcDbLine
 10
404.7041684766872
 20
324.6614610364332
 30
0.0
 11
380.2958315233126
 21
324.6614610364332
 31
0.0
  0
LINE
  5
16C
330
53
100
AcDbEntity
  8
1
  6
Continuous
 62
     7
100
AcDbLine
 10
381.6048071289706
 20
308.6614610364331
 30
0.0
 11
422.4999999999999
 21
308.6614610364331
 31
0.0
  0
LINE
  5
16D
330
53
100
AcDbEntity
  8
1
  6
Continuous
 62
     7
100
AcDbLine
 10
422.4999999999999
 20
308.6614610364331
 30
0.0
 11
422.4999999999999
 21
310.6614610364332
 31
0.0
  0
LINE
  5
16E
330
53
100
AcDbEntity
  8
1
  6
Continuous
 62
     7
100
AcDbLine
 10
362.4999999999999
 20
310.6614610364332
 30
0.0
 11
362.4999999999999
 21
308.6614610364331
 31
0.0
  0
LINE
  5
16F
330
53
100
AcDbEntity
  8
1
  6
Continuous
 62
     7
100
AcDbLine
 10
362.4999999999999
 20
308.6614610364331
 30
0.0
 11
381.6048071289706
 21
308.6614610364331
 31
0.0
  0
LINE
  5
170
330
53
100
AcDbEntity
  8
1
  6
Continuous
 62
     7
100
AcDbLine
 10
522.5
 20
308.6614610364331
 30
0.0
 11
541.6048071289707
 21
308.6614610364331
 31
0.0
  0
LINE
  5
171
330
53
100
AcDbEntity
  8
1
  6
Continuous
 62
     7
100
AcDbLine
 10
522.5
 20
310.6614610364332
 30
0.0
 11
522.5
 21
308.6614610364331
 31
0.0
  0
LINE
  5
172
330
53
100
AcDbEntity
  8
1
  6
Continuous
 62
     7
100
AcDbLine
 10
582.5
 20
308.6614610364331
 30
0.0
 11
582.5
 21
310.6614610364332
 31
0.0
  0
LINE
  5
173
330
53
100
AcDbEntity
  8
1
  6
Continuous
 62
     7
100
AcDbLine
 10
541.6048071289707
 20
308.6614610364331
 30
0.0
 11
582.5
 21
308.6614610364331
 31
0.0
  0
LINE
  5
174
330
53
100
AcDbEntity
  8
1
  6
Continuous
 62
     7
100
AcDbLine
 10
564.7041684766873
 20
324.6614610364332
 30
0.0
 11
540.2958315233127
 21
324.6614610364332
 31
0.0
  0
ARC
  5
175
330
53
100
AcDbEntity
  8
1
  6
Continuous
 62
     7
100
AcDbCircle
 10
404.7041684766872
 20
299.6614610364331
 30
0.0
 40
25.0000000000001
100
AcDbArc
 50
66.44353569089868
 51
90.0
  0
ARC
  5
176
330
53
100
AcDbEntity
  8
1
  6
Continuous
 62
     7
100
AcDbCircle
 10
409.4999999999999
 20
310.6614610364332
 30
0.0
 40
13.0
100
AcDbArc
 50
0.0
 51
66.44353569089833
  0
ARC
  5
177
330
53
100
AcDbEntity
  8
1
  6
Continuous
 62
     7
100
AcDbCircle
 10
375.4999999999999
 20
310.6614610364332
 30
0.0
 40
12.99999999999993
100
AcDbArc
 50
113.556464309101
 51
180.0
  0
ARC
  5
178
330
53
100
AcDbEntity
  8
1
  6
Continuous
 62
     7
100
AcDbCircle
 10
380.2958315233126
 20
299.6614610364331
 30
0.0
 40
25.00000000000011
100
AcDbArc
 50
90.0
 51
113.5564643091009
  0
ARC
  5
179
330
53
100
AcDbEntity
  8
1
  6
Continuous
 62
     7
100
AcDbCircle
 10
540.2958315233127
 20
299.6614610364331
 30
0.0
 40
25.00000000000011
100
AcDbArc
 50
90.0
 51
113.5564643091011
  0
ARC
  5
17A
330
53
100
AcDbEntity
  8
1
  6
Continuous
 62
     7
100
AcDbCircle
 10
535.5
 20
310.6614610364332
 30
0.0
 40
12.99999999999996
100
AcDbArc
 50
113.5564643091012
 51
180.0
  0
ARC
  5
17B
330
53
100
AcDbEntity
  8
1
  6
Continuous
 62
     7
100
AcDbCircle
 10
569.5
 20
310.6614610364332
 30
0.0
 40
13.0
100
AcDbArc
 50
0.0
 51
66.44353569089878
  0
ARC
  5
17C
330
53
100
AcDbEntity
  8
1
  6
Continuous
 62
     7
100
AcDbCircle
 10
564.7041684766873
 20
299.6614610364331
 30
0.0
 40
25.00000000000005
100
AcDbArc
 50
66.44353569089893
 51
90.0
  0
ARC
  5
17D
330
53
100
AcDbEntity
  8
1
  6
Continuous
 62
     7
100
AcDbCircle
 10
392.4999999999997
 20
1191.491060075283
 30
0.0
 40
29.99999999999966
100
AcDbArc
 50
25.67899703914918
 51
167.7799589289915
  0
ARC
  5
17E
330
53
100
AcDbEntity
  8
1
  6
Continuous
 62
     7
100
AcDbCircle
 10
392.4999999999997
 20
1191.491060075283
 30
0.0
 40
29.99999999999988
100
AcDbArc
 50
192.2200410710089
 51
334.3204197995215
  0
ENDBLK
  5
55
330
53
100
AcDbEntity
  8
0
100
AcDbBlockEnd
  0
BLOCK
  5
57
330
56
100
AcDbEntity
  8
0
100
AcDbBlockBegin
  2
64-7-13-420-M11
 70
     0
 10
180.0932952296897
 20
1825.736442941382
 30
0.0
  3
64-7-13-420-M11
  1

  0
LINE
  5
17F
330
56
100
AcDbEntity
  8
1
  6
Continuous
 62
     7
100
AcDbLine
 10
402.6377281761781
 20
700.661461036433
 30
0.0
 11
402.7449513205694
 21
695.6614610364329
 31
0.0
  0
LINE
  5
180
330
56
100
AcDbEntity
  8
1
  6
Continuous
 62
     2
100
AcDbLine
 10
401.4613254351664
 20
700.661461036433
 30
0.0
 11
401.5825554289414
 21
695.6614610364329
 31
0.0
  0
LINE
  5
181
330
56
100
AcDbEntity
  8
1
  6
Continuous
 62
     7
100
AcDbLine
 10
562.6377281761781
 20
700.661461036433
 30
0.0
 11
562.7449513205695
 21
695.6614610364329
 31
0.0
  0
LINE
  5
182
330
56
100
AcDbEntity
  8
1
  6
Continuous
 62
     2
100
AcDbLine
 10
561.4613254351665
 20
700.661461036433
 30
0.0
 11
561.5825554289415
 21
695.6614610364329
 31
0.0
  0
LINE
  5
183
330
56
100
AcDbEntity
  8
1
  6
Continuous
 62
     7
100
AcDbLine
 10
382.1999999999998
 20
305.7701368889055
 30
0.0
 11
382.1999999999997
 21
308.6614610364331
 31
0.0
  0
LINE
  5
184
330
56
100
AcDbEntity
  8
1
  6
Continuous
 62
     7
100
AcDbLine
 10
382.2550486794305
 20
695.6614610364329
 30
0.0
 11
382.3622718238218
 21
700.661461036433
 31
0.0
  0
LINE
  5
185
330
56
100
AcDbEntity
  8
1
  6
Continuous
 62
     7
100
AcDbLine
 10
401.5825554289414
 20
695.6614610364329
 30
0.0
 11
382.2550486794305
 21
695.6614610364329
 31
0.0
  0
LINE
  5
186
330
56
100
AcDbEntity
  8
1
  6
Continuous
 62
     7
100
AcDbLine
 10
382.1999999999998
 20
693.5527851839605
 30
0.0
 11
382.2550486794305
 21
695.6614610364329
 31
0.0
  0
LINE
  5
187
330
56
100
AcDbEntity
  8
1
  6
Continuous
 62
     2
100
AcDbLine
 10
383.4174445710584
 20
695.6614610364329
 30
0.0
 11
383.5386745648333
 21
700.661461036433
 31
0.0
  0
LINE
  5
188
330
56
100
AcDbEntity
  8
1
  6
Continuous
 62
     2
100
AcDbLine
 10
383.4174445710584
 20
695.6614610364329
 30
0.0
 11
382.1999999999998
 21
693.5527851839605
 31
0.0
  0
LINE
  5
189
330
56
100
AcDbEntity
  8
1
  6
Continuous
 62
     2
100
AcDbLine
 10
382.1999999999998
 20
305.7701368889055
 30
0.0
 11
383.4174445710584
 21
303.6614610364331
 31
0.0
  0
LINE
  5
18A
330
56
100
AcDbEntity
  8
1
  6
Continuous
 62
     2
100
AcDbLine
 10
383.7568885536285
 20
289.6614610364331
 30
0.0
 11
383.4174445710584
 21
303.6614610364331
 31
0.0
  0
LINE
  5
18B
330
56
100
AcDbEntity
  8
1
  6
Continuous
 62
     7
100
AcDbLine
 10
382.2550486794303
 20
303.6614610364331
 30
0.0
 11
382.1999999999998
 21
305.7701368889055
 31
0.0
  0
LINE
  5
18C
330
56
100
AcDbEntity
  8
1
  6
Continuous
 62
     7
100
AcDbLine
 10
383.7551879978474
 20
289.6614610364331
 30
0.0
 11
382.5303912394655
 21
290.8217629657329
 31
0.0
  0
LINE
  5
18D
330
56
100
AcDbEntity
  8
1
  6
Continuous
 62
     7
100
AcDbLine
 10
382.2550486794303
 20
303.6614610364331
 30
0.0
 11
401.5825554289414
 21
303.6614610364331
 31
0.0
  0
LINE
  5
18E
330
56
100
AcDbEntity
  8
1
  6
Continuous
 62
     7
100
AcDbLine
 10
382.5303912394655
 20
290.8217629657329
 30
0.0
 11
382.2550486794303
 21
303.6614610364331
 31
0.0
  0
LINE
  5
18F
330
56
100
AcDbEntity
  8
1
  6
Continuous
 62
     7
100
AcDbLine
 10
383.7551879978474
 20
289.6614610364331
 30
0.0
 11
383.7568885536285
 21
289.6614610364331
 31
0.0
  0
LINE
  5
190
330
56
100
AcDbEntity
  8
1
  6
Continuous
 62
     7
100
AcDbLine
 10
401.2431114463713
 20
289.6614610364331
 30
0.0
 11
401.2448120021524
 21
289.6614610364331
 31
0.0
  0
LINE
  5
191
330
56
100
AcDbEntity
  8
1
  6
Continuous
 62
     7
100
AcDbLine
 10
383.7568885536285
 20
289.6614610364331
 30
0.0
 11
401.2431114463713
 21
289.6614610364331
 31
0.0
  0
LINE
  5
192
330
56
100
AcDbEntity
  8
1
  6
Continuous
 62
     7
100
AcDbLine
 10
402.7449513205694
 20
303.6614610364331
 30
0.0
 11
402.4696087605343
 21
290.8217629657329
 31
0.0
  0
LINE
  5
193
330
56
100
AcDbEntity
  8
1
  6
Continuous
 62
     7
100
AcDbLine
 10
401.5825554289414
 20
303.6614610364331
 30
0.0
 11
402.7449513205694
 21
303.6614610364331
 31
0.0
  0
LINE
  5
194
330
56
100
AcDbEntity
  8
1
  6
Continuous
 62
     7
100
AcDbLine
 10
402.4696087605343
 20
290.8217629657329
 30
0.0
 11
401.2448120021524
 21
289.6614610364331
 31
0.0
  0
LINE
  5
195
330
56
100
AcDbEntity
  8
1
  6
Continuous
 62
     7
100
AcDbLine
 10
402.8000000000001
 20
305.7701368889055
 30
0.0
 11
402.7449513205694
 21
303.6614610364331
 31
0.0
  0
LINE
  5
196
330
56
100
AcDbEntity
  8
1
  6
Continuous
 62
     2
100
AcDbLine
 10
401.5825554289414
 20
303.6614610364331
 30
0.0
 11
401.2431114463713
 21
289.6614610364331
 31
0.0
  0
LINE
  5
197
330
56
100
AcDbEntity
  8
1
  6
Continuous
 62
     2
100
AcDbLine
 10
401.5825554289414
 20
303.6614610364331
 30
0.0
 11
402.8000000000001
 21
305.7701368889055
 31
0.0
  0
LINE
  5
198
330
56
100
AcDbEntity
  8
1
  6
Continuous
 62
     2
100
AcDbLine
 10
402.8000000000001
 20
693.5527851839605
 30
0.0
 11
401.5825554289414
 21
695.6614610364329
 31
0.0
  0
LINE
  5
199
330
56
100
AcDbEntity
  8
1
  6
Continuous
 62
     7
100
AcDbLine
 10
402.7449513205694
 20
695.6614610364329
 30
0.0
 11
402.8000000000001
 21
693.5527851839605
 31
0.0
  0
LINE
  5
19A
330
56
100
AcDbEntity
  8
1
  6
Continuous
 62
     7
100
AcDbLine
 10
402.7449513205694
 20
695.6614610364329
 30
0.0
 11
401.5825554289414
 21
695.6614610364329
 31
0.0
  0
LINE
  5
19B
330
56
100
AcDbEntity
  8
1
  6
Continuous
 62
     7
100
AcDbLine
 10
402.8000000000001
 20
693.5527851839605
 30
0.0
 11
402.8000000000001
 21
642.2066256559651
 31
0.0
  0
LINE
  5
19C
330
56
100
AcDbEntity
  8
1
  6
PHANTOM
 62
     4
100
AcDbLine
 10
392.4999999999999
 20
712.6614610364328
 30
0.0
 11
392.4999999999999
 21
286.6614610364331
 31
0.0
  0
LINE
  5
19D
330
56
100
AcDbEntity
  8
1
  6
Continuous
 62
     7
100
AcDbLine
 10
382.5303912394655
 20
290.8217629657329
 30
0.0
 11
402.4696087605343
 21
290.8217629657329
 31
0.0
  0
LINE
  5
19E
330
56
100
AcDbEntity
  8
1
  6
Continuous
 62
     7
100
AcDbLine
 10
382.1999999999999
 20
639.0416638733016
 30
0.0
 11
382.1999999999998
 21
693.5527851839605
 31
0.0
  0
LINE
  5
19F
330
56
100
AcDbEntity
  8
1
  6
Continuous
 62
     7
100
AcDbLine
 10
402.7999999999973
 20
640.2770938284342
 30
0.0
 11
402.7999999999989
 21
324.6614610364332
 31
0.0
  0
LINE
  5
1A0
330
56
100
AcDbEntity
  8
1
  6
Continuous
 62
     7
100
AcDbLine
 10
402.7999999999999
 20
308.6614610364331
 30
0.0
 11
402.8000000000001
 21
305.7701368889055
 31
0.0
  0
LINE
  5
1A1
330
56
100
AcDbEntity
  8
1
  6
Continuous
 62
     7
100
AcDbLine
 10
382.1999999999991
 20
324.661461036433
 30
0.0
 11
382.199999999998
 21
637.1121320457713
 31
0.0
  0
LINE
  5
1A2
330
56
100
AcDbEntity
  8
1
  6
Continuous
 62
     7
100
AcDbLine
 10
542.1999999999991
 20
324.6614610364332
 30
0.0
 11
542.1999999999981
 21
637.1121320457713
 31
0.0
  0
LINE
  5
1A3
330
56
100
AcDbEntity
  8
1
  6
Continuous
 62
     7
100
AcDbLine
 10
562.8000000000002
 20
308.6614610364331
 30
0.0
 11
562.8000000000002
 21
305.7701368889055
 31
0.0
  0
LINE
  5
1A4
330
56
100
AcDbEntity
  8
1
  6
Continuous
 62
     7
100
AcDbLine
 10
562.7999999999975
 20
640.2770938284342
 30
0.0
 11
562.799999999999
 21
324.6614610364333
 31
0.0
  0
LINE
  5
1A5
330
56
100
AcDbEntity
  8
1
  6
Continuous
 62
     7
100
AcDbLine
 10
542.1999999999998
 20
639.0416638733016
 30
0.0
 11
542.1999999999998
 21
693.5527851839605
 31
0.0
  0
LINE
  5
1A6
330
56
100
AcDbEntity
  8
1
  6
Continuous
 62
     7
100
AcDbLine
 10
542.5303912394656
 20
290.8217629657329
 30
0.0
 11
562.4696087605344
 21
290.8217629657329
 31
0.0
  0
LINE
  5
1A7
330
56
100
AcDbEntity
  8
1
  6
PHANTOM
 62
     4
100
AcDbLine
 10
552.5
 20
712.6614610364328
 30
0.0
 11
552.5
 21
286.6614610364331
 31
0.0
  0
LINE
  5
1A8
330
56
100
AcDbEntity
  8
1
  6
Continuous
 62
     7
100
AcDbLine
 10
562.8000000000002
 20
693.5527851839605
 30
0.0
 11
562.8000000000002
 21
642.2066256559651
 31
0.0
  0
LINE
  5
1A9
330
56
100
AcDbEntity
  8
1
  6
Continuous
 62
     7
100
AcDbLine
 10
562.7449513205695
 20
695.6614610364329
 30
0.0
 11
561.5825554289415
 21
695.6614610364329
 31
0.0
  0
LINE
  5
1AA
330
56
100
AcDbEntity
  8
1
  6
Continuous
 62
     7
100
AcDbLine
 10
562.7449513205695
 20
695.6614610364329
 30
0.0
 11
562.8000000000002
 21
693.5527851839605
 31
0.0
  0
LINE
  5
1AB
330
56
100
AcDbEntity
  8
1
  6
Continuous
 62
     2
100
AcDbLine
 10
562.8000000000002
 20
693.5527851839605
 30
0.0
 11
561.5825554289415
 21
695.6614610364329
 31
0.0
  0
LINE
  5
1AC
330
56
100
AcDbEntity
  8
1
  6
Continuous
 62
     2
100
AcDbLine
 10
561.5825554289415
 20
303.6614610364331
 30
0.0
 11
562.8000000000002
 21
305.7701368889055
 31
0.0
  0
LINE
  5
1AD
330
56
100
AcDbEntity
  8
1
  6
Continuous
 62
     2
100
AcDbLine
 10
561.5825554289415
 20
303.6614610364331
 30
0.0
 11
561.2431114463714
 21
289.6614610364331
 31
0.0
  0
LINE
  5
1AE
330
56
100
AcDbEntity
  8
1
  6
Continuous
 62
     7
100
AcDbLine
 10
562.8000000000002
 20
305.7701368889055
 30
0.0
 11
562.7449513205695
 21
303.6614610364331
 31
0.0
  0
LINE
  5
1AF
330
56
100
AcDbEntity
  8
1
  6
Continuous
 62
     7
100
AcDbLine
 10
562.4696087605344
 20
290.8217629657329
 30
0.0
 11
561.2448120021525
 21
289.6614610364331
 31
0.0
  0
LINE
  5
1B0
330
56
100
AcDbEntity
  8
1
  6
Continuous
 62
     7
100
AcDbLine
 10
561.5825554289415
 20
303.6614610364331
 30
0.0
 11
562.7449513205695
 21
303.6614610364331
 31
0.0
  0
LINE
  5
1B1
330
56
100
AcDbEntity
  8
1
  6
Continuous
 62
     7
100
AcDbLine
 10
562.7449513205695
 20
303.6614610364331
 30
0.0
 11
562.4696087605344
 21
290.8217629657329
 31
0.0
  0
LINE
  5
1B2
330
56
100
AcDbEntity
  8
1
  6
Continuous
 62
     7
100
AcDbLine
 10
543.7568885536286
 20
289.6614610364331
 30
0.0
 11
561.2431114463714
 21
289.6614610364331
 31
0.0
  0
LINE
  5
1B3
330
56
100
AcDbEntity
  8
1
  6
Continuous
 62
     7
100
AcDbLine
 10
561.2431114463714
 20
289.6614610364331
 30
0.0
 11
561.2448120021525
 21
289.6614610364331
 31
0.0
  0
LINE
  5
1B4
330
56
100
AcDbEntity
  8
1
  6
Continuous
 62
     7
100
AcDbLine
 10
543.7551879978475
 20
289.6614610364331
 30
0.0
 11
543.7568885536286
 21
289.6614610364331
 31
0.0
  0
LINE
  5
1B5
330
56
100
AcDbEntity
  8
1
  6
Continuous
 62
     7
100
AcDbLine
 10
542.5303912394656
 20
290.8217629657329
 30
0.0
 11
542.2550486794304
 21
303.6614610364331
 31
0.0
  0
LINE
  5
1B6
330
56
100
AcDbEntity
  8
1
  6
Continuous
 62
     7
100
AcDbLine
 10
542.2550486794304
 20
303.6614610364331
 30
0.0
 11
561.5825554289415
 21
303.6614610364331
 31
0.0
  0
LINE
  5
1B7
330
56
100
AcDbEntity
  8
1
  6
Continuous
 62
     7
100
AcDbLine
 10
543.7551879978475
 20
289.6614610364331
 30
0.0
 11
542.5303912394656
 21
290.8217629657329
 31
0.0
  0
LINE
  5
1B8
330
56
100
AcDbEntity
  8
1
  6
Continuous
 62
     7
100
AcDbLine
 10
542.2550486794304
 20
303.6614610364331
 30
0.0
 11
542.1999999999998
 21
305.7701368889055
 31
0.0
  0
LINE
  5
1B9
330
56
100
AcDbEntity
  8
1
  6
Continuous
 62
     2
100
AcDbLine
 10
543.7568885536286
 20
289.6614610364331
 30
0.0
 11
543.4174445710585
 21
303.6614610364331
 31
0.0
  0
LINE
  5
1BA
330
56
100
AcDbEntity
  8
1
  6
Continuous
 62
     2
100
AcDbLine
 10
542.1999999999998
 20
305.7701368889055
 30
0.0
 11
543.4174445710585
 21
303.6614610364331
 31
0.0
  0
LINE
  5
1BB
330
56
100
AcDbEntity
  8
1
  6
Continuous
 62
     2
100
AcDbLine
 10
543.4174445710585
 20
695.6614610364329
 30
0.0
 11
542.1999999999998
 21
693.5527851839605
 31
0.0
  0
LINE
  5
1BC
330
56
100
AcDbEntity
  8
1
  6
Continuous
 62
     2
100
AcDbLine
 10
543.4174445710585
 20
695.6614610364329
 30
0.0
 11
543.5386745648335
 21
700.661461036433
 31
0.0
  0
LINE
  5
1BD
330
56
100
AcDbEntity
  8
1
  6
Continuous
 62
     7
100
AcDbLine
 10
542.1999999999998
 20
693.5527851839605
 30
0.0
 11
542.2550486794306
 21
695.6614610364329
 31
0.0
  0
LINE
  5
1BE
330
56
100
AcDbEntity
  8
1
  6
Continuous
 62
     7
100
AcDbLine
 10
561.5825554289415
 20
695.6614610364329
 30
0.0
 11
542.2550486794306
 21
695.6614610364329
 31
0.0
  0
LINE
  5
1BF
330
56
100
AcDbEntity
  8
1
  6
Continuous
 62
     7
100
AcDbLine
 10
542.2550486794306
 20
695.6614610364329
 30
0.0
 11
542.3622718238219
 21
700.661461036433
 31
0.0
  0
LINE
  5
1C0
330
56
100
AcDbEntity
  8
1
  6
Continuous
 62
     7
100
AcDbLine
 10
542.1999999999998
 20
305.7701368889055
 30
0.0
 11
542.1999999999998
 21
308.6614610364331
 31
0.0
  0
LINE
  5
1C1
330
56
100
AcDbEntity
  8
1
  6
Continuous
 62
     7
100
AcDbLine
 10
402.8000000000001
 20
642.2066256559651
 30
0.0
 11
402.7999999999973
 21
640.2770938284342
 31
0.0
  0
LINE
  5
1C2
330
56
100
AcDbEntity
  8
1
  6
Continuous
 62
     7
100
AcDbLine
 10
382.199999999998
 20
637.1121320457713
 30
0.0
 11
382.1999999999999
 21
639.0416638733016
 31
0.0
  0
LINE
  5
1C3
330
56
100
AcDbEntity
  8
1
  6
Continuous
 62
     7
100
AcDbLine
 10
542.1999999999998
 20
639.0416638733016
 30
0.0
 11
542.1999999999981
 21
637.1121320457713
 31
0.0
  0
LINE
  5
1C4
330
56
100
AcDbEntity
  8
1
  6
Continuous
 62
     7
100
AcDbLine
 10
562.8000000000002
 20
642.2066256559651
 30
0.0
 11
562.7999999999975
 21
640.2770938284342
 31
0.0
  0
ENDBLK
  5
58
330
56
100
AcDbEntity
  8
0
100
AcDbBlockEnd
  0
BLOCK
  5
5A
330
59
100
AcDbEntity
  8
0
100
AcDbBlockBegin
  2
V21-2-0A-13-M1
 70
     0
 10
454.7691410709855
 20
1352.0
 30
0.0
  3
V21-2-0A-13-M1
  1

  0
LINE
  5
1C5
330
59
100
AcDbEntity
  8
1
  6
Continuous
 62
     7
100
AcDbLine
 10
400.2942286340596
 20
1178.991060075283
 30
0.0
 11
400.0055534994648
 21
1178.491060075283
 31
0.0
  0
LINE
  5
1C6
330
59
100
AcDbEntity
  8
1
  6
Continuous
 62
     7
100
AcDbLine
 10
414.0918426934462
 20
1178.991060075283
 30
0.0
 11
392.4999999999997
 21
1178.991060075283
 31
0.0
  0
LINE
  5
1C7
330
59
100
AcDbEntity
  8
1
  6
Continuous
 62
     7
100
AcDbLine
 10
414.5918426934462
 20
1179.491060075283
 30
0.0
 11
414.0918426934462
 21
1178.991060075283
 31
0.0
  0
LINE
  5
1C8
330
59
100
AcDbEntity
  8
1
  6
Continuous
 62
     7
100
AcDbLine
 10
414.0918426934462
 20
1203.991060075283
 30
0.0
 11
392.4999999999997
 21
1203.991060075283
 31
0.0
  0
LINE
  5
1C9
330
59
100
AcDbEntity
  8
1
  6
Continuous
 62
     7
100
AcDbLine
 10
414.5918426934462
 20
1203.491060075283
 30
0.0
 11
414.0918426934462
 21
1203.991060075283
 31
0.0
  0
LINE
  5
1CA
330
59
100
AcDbEntity
  8
1
  6
Continuous
 62
     7
100
AcDbLine
 10
392.4999999999997
 20
1204.491060075283
 30
0.0
 11
400.0055534994648
 21
1204.491060075283
 31
0.0
  0
LINE
  5
1CB
330
59
100
AcDbEntity
  8
1
  6
Continuous
 62
     7
100
AcDbLine
 10
400.0055534994648
 20
1204.491060075283
 30
0.0
 11
400.2942286340596
 21
1203.991060075283
 31
0.0
  0
LINE
  5
1CC
330
59
100
AcDbEntity
  8
1
  6
Continuous
 62
     7
100
AcDbLine
 10
400.0055534994648
 20
1178.491060075283
 30
0.0
 11
392.4999999999997
 21
1178.491060075283
 31
0.0
  0
LINE
  5
1CD
330
59
100
AcDbEntity
  8
1
  6
Continuous
 62
     7
100
AcDbLine
 10
384.9944465005346
 20
1204.491060075283
 30
0.0
 11
392.4999999999997
 21
1204.491060075283
 31
0.0
  0
LINE
  5
1CE
330
59
100
AcDbEntity
  8
1
  6
Continuous
 62
     7
100
AcDbLine
 10
384.9944465005346
 20
1178.491060075283
 30
0.0
 11
381.1550672104237
 21
1185.141060075283
 31
0.0
  0
LINE
  5
1CF
330
59
100
AcDbEntity
  8
1
  6
Continuous
 62
     7
100
AcDbLine
 10
392.4999999999997
 20
1178.491060075283
 30
0.0
 11
384.9944465005346
 21
1178.491060075283
 31
0.0
  0
LINE
  5
1D0
330
59
100
AcDbEntity
  8
1
  6
Continuous
 62
     2
100
AcDbLine
 10
415.9999999999999
 20
1202.678060075283
 30
0.0
 11
417.4999999999997
 21
1202.678060075283
 31
0.0
  0
LINE
  5
1D1
330
59
100
AcDbEntity
  8
1
  6
Continuous
 62
     7
100
AcDbLine
 10
415.9999999999999
 20
1203.491060075283
 30
0.0
 11
415.9999999999999
 21
1202.678060075283
 31
0.0
  0
LINE
  5
1D2
330
59
100
AcDbEntity
  8
1
  6
Continuous
 62
     7
100
AcDbLine
 10
415.9999999999999
 20
1203.491060075283
 30
0.0
 11
414.5918426934462
 21
1203.491060075283
 31
0.0
  0
LINE
  5
1D3
330
59
100
AcDbEntity
  8
1
  6
Continuous
 62
     2
100
AcDbLine
 10
415.9999999999999
 20
1202.678060075283
 30
0.0
 11
414.5918426934462
 21
1203.491060075283
 31
0.0
  0
LINE
  5
1D4
330
59
100
AcDbEntity
  8
1
  6
Continuous
 62
     2
100
AcDbLine
 10
414.5918426934462
 20
1179.491060075283
 30
0.0
 11
415.9999999999999
 21
1180.304060075283
 31
0.0
  0
LINE
  5
1D5
330
59
100
AcDbEntity
  8
1
  6
Continuous
 62
     7
100
AcDbLine
 10
414.5918426934462
 20
1179.491060075283
 30
0.0
 11
415.9999999999999
 21
1179.491060075283
 31
0.0
  0
LINE
  5
1D6
330
59
100
AcDbEntity
  8
1
  6
Continuous
 62
     7
100
AcDbLine
 10
415.9999999999999
 20
1180.304060075283
 30
0.0
 11
415.9999999999999
 21
1179.491060075283
 31
0.0
  0
LINE
  5
1D7
330
59
100
AcDbEntity
  8
1
  6
Continuous
 62
     7
100
AcDbLine
 10
415.9999999999999
 20
1179.491060075283
 30
0.0
 11
417.4999999999999
 21
1179.491060075283
 31
0.0
  0
LINE
  5
1D8
330
59
100
AcDbEntity
  8
1
  6
Continuous
 62
     7
100
AcDbLine
 10
415.9999999999999
 20
1180.304060075283
 30
0.0
 11
415.9999999999999
 21
1202.678060075283
 31
0.0
  0
LINE
  5
1D9
330
59
100
AcDbEntity
  8
1
  6
Continuous
 62
     7
100
AcDbLine
 10
414.0918426934462
 20
1203.991060075283
 30
0.0
 11
414.0918426934462
 21
1178.991060075283
 31
0.0
  0
LINE
  5
1DA
330
59
100
AcDbEntity
  8
1
  6
Continuous
 62
     7
100
AcDbLine
 10
414.5918426934462
 20
1203.491060075283
 30
0.0
 11
414.5918426934462
 21
1179.491060075283
 31
0.0
  0
LINE
  5
1DB
330
59
100
AcDbEntity
  8
1
  6
PHANTOM
 62
     4
100
AcDbLine
 10
424.9999999999999
 20
1191.491060075283
 30
0.0
 11
374.4888930010695
 21
1191.491060075283
 31
0.0
  0
LINE
  5
1DC
330
59
100
AcDbEntity
  8
1
  6
PHANTOM
 62
     4
100
AcDbLine
 10
392.4999999999997
 20
1207.491060075283
 30
0.0
 11
392.4999999999997
 21
1175.491060075283
 31
0.0
  0
LINE
  5
1DD
330
59
100
AcDbEntity
  8
1
  6
Continuous
 62
     2
100
AcDbLine
 10
417.4999999999999
 20
1180.304060075283
 30
0.0
 11
415.9999999999999
 21
1180.304060075283
 31
0.0
  0
LINE
  5
1DE
330
59
100
AcDbEntity
  8
1
  6
Continuous
 62
     7
100
AcDbLine
 10
417.4999999999997
 20
1203.491060075283
 30
0.0
 11
415.9999999999999
 21
1203.491060075283
 31
0.0
  0
LINE
  5
1DF
330
59
100
AcDbEntity
  8
1
  6
Continuous
 62
     7
100
AcDbLine
 10
381.1550672104235
 20
1197.841060075283
 30
0.0
 11
384.9944465005346
 21
1204.491060075283
 31
0.0
  0
ARC
  5
1E0
330
59
100
AcDbEntity
  8
1
  6
Continuous
 62
     7
100
AcDbCircle
 10
392.4999999999997
 20
1191.491060075283
 30
0.0
 40
12.50000000000006
100
AcDbArc
 50
210.530702338692
 51
270.0
  0
ARC
  5
1E1
330
59
100
AcDbEntity
  8
1
  6
Continuous
 62
     7
100
AcDbCircle
 10
392.4999999999997
 20
1191.491060075283
 30
0.0
 40
12.75
100
AcDbArc
 50
270.0
 51
281.3648769670322
  0
ARC
  5
1E2
330
59
100
AcDbEntity
  8
1
  6
Continuous
 62
     7
100
AcDbCircle
 10
392.4999999999997
 20
1191.491060075283
 30
0.0
 40
12.74999999999988
100
AcDbArc
 50
209.8703601200787
 51
270.0
  0
ARC
  5
1E3
330
59
100
AcDbEntity
  8
1
  6
Continuous
 62
     7
100
AcDbCircle
 10
392.4999999999997
 20
1191.491060075283
 30
0.0
 40
12.75000000000001
100
AcDbArc
 50
78.63512303296604
 51
150.1296398799227
  0
ARC
  5
1E4
330
59
100
AcDbEntity
  8
1
  6
Continuous
 62
     7
100
AcDbCircle
 10
392.4999999999997
 20
1191.491060075283
 30
0.0
 40
12.5
100
AcDbArc
 50
90.0
 51
149.4692976613093
  0
ENDBLK
  5
5B
330
59
100
AcDbEntity
  8
0
100
AcDbBlockEnd
  0
BLOCK
  5
5D
330
5C
100
AcDbEntity
  8
0
100
AcDbBlockBegin
  2
37-1-13
 70
     0
 10
275.0042941098554
 20
835.4626912532042
 30
0.0
  3
37-1-13
  1

  0
LINE
  5
1E5
330
5C
100
AcDbEntity
  8
1
  6
Continuous
 62
     7
100
AcDbLine
 10
546.0
 20
746.8849846296071
 30
0.0
 11
551.5621488653217
 21
750.0962927742735
 31
0.0
  0
LINE
  5
1E6
330
5C
100
AcDbEntity
  8
1
  6
Continuous
 62
     7
100
AcDbLine
 10
539.5
 20
735.6266543804094
 30
0.0
 11
539.5
 21
742.0492706697419
 31
0.0
  0
LINE
  5
1E7
330
5C
100
AcDbEntity
  8
1
  6
Continuous
 62
     7
100
AcDbLine
 10
546.0
 20
724.3683241312116
 30
0.0
 11
540.4378511346781
 21
727.5796322758779
 31
0.0
  0
LINE
  5
1E8
330
5C
100
AcDbEntity
  8
1
  6
Continuous
 62
     7
100
AcDbLine
 10
559.0
 20
724.3683241312116
 30
0.0
 11
553.4378511346781
 21
721.1570159865454
 31
0.0
  0
LINE
  5
1E9
330
5C
100
AcDbEntity
  8
1
  6
Continuous
 62
     7
100
AcDbLine
 10
565.5
 20
735.6266543804094
 30
0.0
 11
565.5
 21
729.2040380910769
 31
0.0
  0
LINE
  5
1EA
330
5C
100
AcDbEntity
  8
1
  6
Continuous
 62
     7
100
AcDbLine
 10
559.0
 20
746.8849846296071
 30
0.0
 11
564.5621488653217
 21
743.6736764849409
 31
0.0
  0
LINE
  5
1EB
330
5C
100
AcDbEntity
  8
1
  6
Continuous
 62
     7
100
AcDbLine
 10
540.4378511346781
 20
743.6736764849409
 30
0.0
 11
546.0
 21
746.8849846296071
 31
0.0
  0
LINE
  5
1EC
330
5C
100
AcDbEntity
  8
1
  6
Continuous
 62
     7
100
AcDbLine
 10
539.5
 20
729.2040380910769
 30
0.0
 11
539.5
 21
735.6266543804094
 31
0.0
  0
LINE
  5
1ED
330
5C
100
AcDbEntity
  8
1
  6
Continuous
 62
     7
100
AcDbLine
 10
551.5621488653217
 20
721.1570159865454
 30
0.0
 11
546.0
 21
724.3683241312116
 31
0.0
  0
LINE
  5
1EE
330
5C
100
AcDbEntity
  8
1
  6
Continuous
 62
     7
100
AcDbLine
 10
564.5621488653217
 20
727.5796322758779
 30
0.0
 11
559.0
 21
724.3683241312116
 31
0.0
  0
LINE
  5
1EF
330
5C
100
AcDbEntity
  8
1
  6
Continuous
 62
     7
100
AcDbLine
 10
565.5
 20
742.0492706697419
 30
0.0
 11
565.5
 21
735.6266543804094
 31
0.0
  0
LINE
  5
1F0
330
5C
100
AcDbEntity
  8
1
  6
Continuous
 62
     7
100
AcDbLine
 10
553.4378511346781
 20
750.0962927742735
 30
0.0
 11
559.0
 21
746.8849846296071
 31
0.0
  0
LINE
  5
1F1
330
5C
100
AcDbEntity
  8
1
  6
Continuous
 62
     7
100
AcDbLine
 10
431.4999999999999
 20
1197.490922482778
 30
0.0
 11
431.4999999999999
 21
1185.490922482778
 31
0.0
  0
LINE
  5
1F2
330
5C
100
AcDbEntity
  8
1
  6
Continuous
 62
     7
100
AcDbLine
 10
424.5707142142718
 20
1178.490922482778
 30
0.0
 11
424.2627507612432
 21
1178.490922482778
 31
0.0
  0
LINE
  5
1F3
330
5C
100
AcDbEntity
  8
1
  6
Continuous
 62
     7
100
AcDbLine
 10
424.9999999999999
 20
1191.490922482778
 30
0.0
 11
424.9999999999999
 21
1178.990922482778
 31
0.0
  0
LINE
  5
1F4
330
5C
100
AcDbEntity
  8
1
  6
Continuous
 62
     7
100
AcDbLine
 10
424.2627507612432
 20
1178.490922482778
 30
0.0
 11
417.4999999999999
 21
1178.490922482778
 31
0.0
  0
LINE
  5
1F5
330
5C
100
AcDbEntity
  8
1
  6
Continuous
 62
     7
100
AcDbLine
 10
424.9999999999999
 20
1203.990922482778
 30
0.0
 11
424.9999999999999
 21
1191.490922482778
 31
0.0
  0
LINE
  5
1F6
330
5C
100
AcDbEntity
  8
1
  6
Continuous
 62
     7
100
AcDbLine
 10
424.2628613985088
 20
1204.490922482778
 30
0.0
 11
417.4999999999999
 21
1204.490922482778
 31
0.0
  0
LINE
  5
1F7
330
5C
100
AcDbEntity
  8
1
  6
Continuous
 62
     7
100
AcDbLine
 10
417.4999999999999
 20
1178.490922482778
 30
0.0
 11
417.4999999999999
 21
1204.490922482778
 31
0.0
  0
LINE
  5
1F8
330
5C
100
AcDbEntity
  8
1
  6
Continuous
 62
     7
100
AcDbLine
 10
431.5
 20
729.6614610364331
 30
0.0
 11
431.5
 21
741.6614610364331
 31
0.0
  0
LINE
  5
1F9
330
5C
100
AcDbEntity
  8
1
  6
Continuous
 62
     7
100
AcDbLine
 10
417.4999999999999
 20
748.7321752507045
 30
0.0
 11
417.4999999999999
 21
722.5907468221616
 31
0.0
  0
LINE
  5
1FA
330
5C
100
AcDbEntity
  8
0
  6
Continuous
 62
     7
100
AcDbLine
 10
424.5707142142712
 20
740.5068078153299
 30
0.0
 11
424.5707142142712
 21
744.3367438429771
 31
0.0
  0
LINE
  5
1FB
330
5C
100
AcDbEntity
  8
0
  6
Continuous
 62
     7
100
AcDbLine
 10
424.5707142142712
 20
726.9861782298891
 30
0.0
 11
424.5707142142712
 21
730.8161142575361
 31
0.0
  0
ARC
  5
1FC
330
5C
100
AcDbEntity
  8
1
  6
Continuous
 62
     7
100
AcDbCircle
 10
552.5
 20
735.6266543804094
 30
0.0
 40
14.50000000000001
100
AcDbArc
 50
266.291555274729
 51
270.0
  0
ARC
  5
1FD
330
5C
100
AcDbEntity
  8
1
  6
Continuous
 62
     7
100
AcDbCircle
 10
552.5
 20
735.6266543804094
 30
0.0
 40
14.50000000000011
100
AcDbArc
 50
86.29155527472996
 51
90.0
  0
ARC
  5
1FE
330
5C
100
AcDbEntity
  8
1
  6
Continuous
 62
     7
100
AcDbCircle
 10
552.5
 20
735.6266543804094
 30
0.0
 40
14.5
100
AcDbArc
 50
90.0
 51
93.70844472527094
  0
ARC
  5
1FF
330
5C
100
AcDbEntity
  8
1
  6
Continuous
 62
     7
100
AcDbCircle
 10
552.5
 20
735.6266543804094
 30
0.0
 40
12.99999999999998
100
AcDbArc
 50
59.99999999999996
 51
120.0
  0
ARC
  5
200
330
5C
100
AcDbEntity
  8
1
  6
Continuous
 62
     7
100
AcDbCircle
 10
552.5
 20
735.6266543804094
 30
0.0
 40
14.50000000000016
100
AcDbArc
 50
146.2915552747294
 51
153.7084447252709
  0
ARC
  5
201
330
5C
100
AcDbEntity
  8
1
  6
Continuous
 62
     7
100
AcDbCircle
 10
552.5
 20
735.6266543804094
 30
0.0
 40
12.99999999999998
100
AcDbArc
 50
120.0
 51
180.0
  0
ARC
  5
202
330
5C
100
AcDbEntity
  8
1
  6
Continuous
 62
     7
100
AcDbCircle
 10
552.5
 20
735.6266543804094
 30
0.0
 40
14.49999999999997
100
AcDbArc
 50
206.2915552747291
 51
213.7084447252706
  0
ARC
  5
203
330
5C
100
AcDbEntity
  8
1
  6
Continuous
 62
     7
100
AcDbCircle
 10
552.5
 20
735.6266543804094
 30
0.0
 40
13.0
100
AcDbArc
 50
180.0
 51
240.0000000000002
  0
ARC
  5
204
330
5C
100
AcDbEntity
  8
1
  6
Continuous
 62
     7
100
AcDbCircle
 10
552.5
 20
735.6266543804094
 30
0.0
 40
14.5
100
AcDbArc
 50
270.0
 51
273.7084447252701
  0
ARC
  5
205
330
5C
100
AcDbEntity
  8
1
  6
Continuous
 62
     7
100
AcDbCircle
 10
552.5
 20
735.6266543804094
 30
0.0
 40
13.00000000000008
100
AcDbArc
 50
240.0000000000002
 51
299.9999999999998
  0
ARC
  5
206
330
5C
100
AcDbEntity
  8
1
  6
Continuous
 62
     7
100
AcDbCircle
 10
552.5
 20
735.6266543804094
 30
0.0
 40
14.49999999999997
100
AcDbArc
 50
326.2915552747289
 51
333.7084447252709
  0
ARC
  5
207
330
5C
100
AcDbEntity
  8
1
  6
Continuous
 62
     7
100
AcDbCircle
 10
552.5
 20
735.6266543804094
 30
0.0
 40
13.0
100
AcDbArc
 50
0.0
 51
59.99999999999996
  0
ARC
  5
208
330
5C
100
AcDbEntity
  8
1
  6
Continuous
 62
     7
100
AcDbCircle
 10
552.5
 20
735.6266543804094
 30
0.0
 40
13.00000000000008
100
AcDbArc
 50
299.9999999999998
 51
0.0
  0
ARC
  5
209
330
5C
100
AcDbEntity
  8
1
  6
Continuous
 62
     7
100
AcDbCircle
 10
552.5
 20
735.6266543804094
 30
0.0
 40
14.49999999999997
100
AcDbArc
 50
26.29155527472912
 51
33.70844472527106
  0
ARC
  5
20A
330
5C
100
AcDbEntity
  8
1
  6
Continuous
 62
     7
100
AcDbCircle
 10
420.9999999999999
 20
1181.990922482778
 30
0.0
 40
5.000000000000341
100
AcDbArc
 50
315.5729959991981
 51
323.130102354156
  0
ARC
  5
20B
330
5C
100
AcDbEntity
  8
1
  6
Continuous
 62
     7
100
AcDbCircle
 10
444.906455205115
 20
1165.584467277663
 30
0.0
 40
24.00000000000015
100
AcDbArc
 50
123.9591925000978
 51
146.0408074999026
  0
ARC
  5
20C
330
5C
100
AcDbEntity
  8
1
  6
Continuous
 62
     7
100
AcDbCircle
 10
420.9999999999999
 20
1200.990922482778
 30
0.0
 40
5.0
100
AcDbArc
 50
36.86989764584402
 51
44.42700400080735
  0
ARC
  5
20D
330
5C
100
AcDbEntity
  8
1
  6
Continuous
 62
     7
100
AcDbCircle
 10
444.906455205115
 20
1217.397377687893
 30
0.0
 40
24.00000000000017
100
AcDbArc
 50
213.9591925000974
 51
236.0408074999022
  0
ARC
  5
20E
330
5C
100
AcDbEntity
  8
1
  6
Continuous
 62
     7
100
AcDbCircle
 10
420.9999999999999
 20
726.1614610364331
 30
0.0
 40
5.000000000000098
100
AcDbArc
 50
225.5729959991954
 51
323.130102354156
  0
ARC
  5
20F
330
5C
100
AcDbEntity
  8
1
  6
Continuous
 62
     7
100
AcDbCircle
 10
444.9064552051146
 20
709.7550058313182
 30
0.0
 40
23.99999999999986
100
AcDbArc
 50
123.9591925000967
 51
146.0408074999021
  0
ARC
  5
210
330
5C
100
AcDbEntity
  8
1
  6
Continuous
 62
     7
100
AcDbCircle
 10
444.9064552051146
 20
761.567916241548
 30
0.0
 40
23.99999999999984
100
AcDbArc
 50
213.9591925000979
 51
236.0408074999031
  0
ARC
  5
211
330
5C
100
AcDbEntity
  8
1
  6
Continuous
 62
     7
100
AcDbCircle
 10
420.9999999999999
 20
745.1614610364331
 30
0.0
 40
4.999999999999932
100
AcDbArc
 50
36.86989764584298
 51
134.4270040008064
  0
CIRCLE
  5
212
330
5C
100
AcDbEntity
  8
1
  6
Continuous
 62
     7
100
AcDbCircle
 10
552.5
 20
735.6266543804094
 30
0.0
 40
5.0
  0
CIRCLE
  5
213
330
5C
100
AcDbEntity
  8
1
  6
Continuous
 62
     7
100
AcDbCircle
 10
552.5
 20
735.6266543804094
 30
0.0
 40
6.0
  0
SPLINE
  5
214
330
5C
100
AcDbEntity
  8
0
  6
Continuous
 62
     7
100
AcDbSpline
210
0.0
220
0.0
230
1.0
 70
    11
 71
     3
 72
    79
 73
    75
 74
    73
 42
0.000000001
 43
0.0000000001
 44
0.00000001
 40
0.0
 40
0.0
 40
0.0
 40
0.0
 40
0.2804298649001596
 40
0.5608615546298961
 40
0.8430390411885929
 40
1.125221498489913
 40
1.410656629591524
 40
1.696098719412551
 40
1.985866395263722
 40
2.275641679865541
 40
2.570259896478912
 40
2.864885276875357
 40
3.164276383431582
 40
3.463673493277277
 40
3.767200494706083
 40
4.070731947280191
 40
4.377293184817368
 40
4.683857138951441
 40
4.992021206918741
 40
5.300186186186868
 40
5.608351165444923
 40
5.916515233381895
 40
6.223079187465443
 40
6.529640424931011
 40
6.833171877412533
 40
7.136698878726119
 40
7.436095988434523
 40
7.735487094828275
 40
8.03011247503822
 40
8.324730691436525
 40
8.614505975795991
 40
8.904273651370072
 40
9.189715740876796
 40
9.47515087160856
 40
9.757333328453964
 40
10.03951081434915
 40
10.31994250264873
 40
10.60037237635084
 40
10.88080225005284
 40
11.16123393835231
 40
11.44341142424748
 40
11.7255938810929
 40
12.01102901182457
 40
12.29647110133139
 40
12.58623877690538
 40
12.87601406126493
 40
13.17063227766311
 40
13.46525765787317
 40
13.76464876426692
 40
14.06404587397533
 40
14.36757287528892
 40
14.67110432777044
 40
14.97766556523595
 40
15.28422951931956
 40
15.59239358725653
 40
15.90055856651458
 40
16.20872354578271
 40
16.51688761375001
 40
16.82345156788409
 40
17.13001280542126
 40
17.43354425799532
 40
17.73707125942418
 40
18.03646836926993
 40
18.33585947582609
 40
18.63048485622268
 40
18.92510307283589
 40
19.21487835743754
 40
19.5046460332889
 40
19.79008812310992
 40
20.07552325421154
 40
20.35770571151286
 40
20.63988319807155
 40
20.92031488780117
 40
21.20074475270122
 40
21.20074475270122
 40
21.20074475270122
 40
21.20074475270122
 10
424.5707142142712
 20
724.4031307872356
 30
0.0
 10
424.5681054359625
 20
724.3096189946826
 30
0.0
 10
424.5628878677807
 20
724.1225948008898
 30
0.0
 10
424.5209863234363
 20
723.8440627293962
 30
0.0
 10
424.4544065454132
 20
723.5701096856194
 30
0.0
 10
424.3612156132442
 20
723.3021327419276
 30
0.0
 10
424.2429400375293
 20
723.0431008256421
 30
0.0
 10
424.0999952935975
 20
722.7939025478929
 30
0.0
 10
423.9340555983009
 20
722.557625297981
 30
0.0
 10
423.7456693428272
 20
722.3348268188455
 30
0.0
 10
423.5371784566365
 20
722.1284123794024
 30
0.0
 10
423.30914402692
 20
721.9387917891999
 30
0.0
 10
423.0644391624928
 20
721.7684328236626
 30
0.0
 10
422.803751072882
 20
721.6177240055151
 30
0.0
 10
422.5302302967943
 20
721.4885322224875
 30
0.0
 10
422.2448523745194
 20
721.3812626226093
 30
0.0
 10
421.9507664574794
 20
721.2971269072742
 30
0.0
 10
421.6493838109637
 20
721.236493600142
 30
0.0
 10
421.34360210357
 20
721.199965866419
 30
0.0
 10
421.0353571165583
 20
721.1877510297545
 30
0.0
 10
420.7271121295446
 20
721.1999658660768
 30
0.0
 10
420.4213304221356
 20
721.2364935994563
 30
0.0
 10
420.1199477756197
 20
721.2971269062426
 30
0.0
 10
419.8258618584903
 20
721.3812626212284
 30
0.0
 10
419.540483936419
 20
721.4885322207526
 30
0.0
 10
419.26696315941
 20
721.6177240034208
 30
0.0
 10
419.0062750729858
 20
721.7684328212016
 30
0.0
 10
418.7615701965058
 20
721.9387917863642
 30
0.0
 10
418.5335358107785
 20
722.1284123761811
 30
0.0
 10
418.325044761502
 20
722.3348268152283
 30
0.0
 10
418.1366591046526
 20
722.5576252939513
 30
0.0
 10
417.970717193632
 20
722.7939025434328
 30
0.0
 10
417.8277806001452
 20
723.0431008207195
 30
0.0
 10
417.7094748174811
 20
723.302132736494
 30
0.0
 10
417.6163953908181
 20
723.5701096795477
 30
0.0
 10
417.5494013272606
 20
723.8440627223622
 30
0.0
 10
417.5090368165505
 20
724.122594795678
 30
0.0
 10
417.4954816213433
 20
724.4031307872357
 30
0.0
 10
417.5090368165505
 20
724.6836667787926
 30
0.0
 10
417.5494013272607
 20
724.9621988521089
 30
0.0
 10
417.616395390818
 20
725.2361518949233
 30
0.0
 10
417.7094748174811
 20
725.5041288379769
 30
0.0
 10
417.8277806001453
 20
725.7631607537514
 30
0.0
 10
417.970717193632
 20
726.0123590310382
 30
0.0
 10
418.1366591046525
 20
726.2486362805191
 30
0.0
 10
418.3250447615021
 20
726.4714347592426
 30
0.0
 10
418.5335358107785
 20
726.6778491982898
 30
0.0
 10
418.7615701965058
 20
726.8674697881071
 30
0.0
 10
419.0062750729858
 20
727.0378287532694
 30
0.0
 10
419.2669631594098
 20
727.1885375710501
 30
0.0
 10
419.5404839364192
 20
727.3177293537183
 30
0.0
 10
419.82586185849
 20
727.4249989532425
 30
0.0
 10
420.1199477756197
 20
727.5091346682283
 30
0.0
 10
420.4213304221357
 20
727.5697679750145
 30
0.0
 10
420.7271121295446
 20
727.6062957083941
 30
0.0
 10
421.0353571165582
 20
727.6185105447164
 30
0.0
 10
421.34360210357
 20
727.6062957080517
 30
0.0
 10
421.6493838109638
 20
727.5697679743291
 30
0.0
 10
421.9507664574795
 20
727.5091346671967
 30
0.0
 10
422.2448523745193
 20
727.4249989518617
 30
0.0
 10
422.5302302967943
 20
727.3177293519834
 30
0.0
 10
422.8037510728818
 20
727.188537568956
 30
0.0
 10
423.0644391624928
 20
727.0378287508079
 30
0.0
 10
423.3091440269201
 20
726.867469785271
 30
0.0
 10
423.5371784566362
 20
726.6778491950681
 30
0.0
 10
423.7456693428273
 20
726.4714347556252
 30
0.0
 10
423.9340555983009
 20
726.2486362764901
 30
0.0
 10
424.0999952935977
 20
726.0123590265779
 30
0.0
 10
424.2429400375293
 20
725.7631607488286
 30
0.0
 10
424.3612156132441
 20
725.5041288325434
 30
0.0
 10
424.4544065454132
 20
725.2361518888515
 30
0.0
 10
424.5209863234361
 20
724.9621988450751
 30
0.0
 10
424.5628878677807
 20
724.6836667735815
 30
0.0
 10
424.5681054359624
 20
724.4966425797883
 30
0.0
 10
424.5707142142712
 20
724.4031307872356
 30
0.0
 11
424.5707142142712
 21
724.4031307872356
 31
0.0
 11
424.5572231876008
 21
724.1230256170273
 31
0.0
 11
424.5170041959096
 21
723.8454929799873
 31
0.0
 11
424.4500542732639
 21
723.5713728575671
 31
0.0
 11
424.357506092554
 21
723.3047987153338
 31
0.0
 11
424.2390246412037
 21
723.0451155244086
 31
0.0
 11
424.0970661733649
 21
722.7974767149024
 31
0.0
 11
423.9306285548665
 21
722.5602767464015
 31
0.0
 11
423.7435977734981
 21
722.3389417009585
 31
0.0
 11
423.5343185239431
 21
722.1315722499021
 31
0.0
 11
423.3078408514195
 21
721.9431260278711
 31
0.0
 11
423.0621936693785
 21
721.7719755191814
 31
0.0
 11
422.8030356607034
 21
721.6220563545746
 31
0.0
 11
422.5286211191258
 21
721.4923439805782
 31
0.0
 11
422.2445204516256
 21
721.3854882206228
 31
0.0
 11
421.9498005996119
 21
721.3011081210473
 31
0.0
 11
421.6492654261915
 21
721.2406096290567
 31
0.0
 11
421.3432802618159
 21
721.2040285957687
 31
0.0
 11
421.0353571071355
 21
721.1918226425692
 31
0.0
 11
420.7274339524552
 21
721.2040285957687
 31
0.0
 11
420.4214487880796
 21
721.2406096290567
 31
0.0
 11
420.1209136146592
 21
721.3011081210473
 31
0.0
 11
419.8261937626455
 21
721.3854882206228
 31
0.0
 11
419.5420930951453
 21
721.4923439805782
 31
0.0
 11
419.2676785535677
 21
721.6220563545746
 31
0.0
 11
419.0085205448924
 21
721.7719755191815
 31
0.0
 11
418.7628733628514
 21
721.9431260278711
 31
0.0
 11
418.5363956903279
 21
722.1315722499022
 31
0.0
 11
418.327116440773
 21
722.3389417009585
 31
0.0
 11
418.1400856594045
 21
722.5602767464014
 31
0.0
 11
417.9736480409062
 21
722.7974767149024
 31
0.0
 11
417.8316895730674
 21
723.0451155244085
 31
0.0
 11
417.7132081217171
 21
723.3047987153338
 31
0.0
 11
417.6206599410072
 21
723.5713728575671
 31
0.0
 11
417.5537100183614
 21
723.8454929799873
 31
0.0
 11
417.5134910266703
 21
724.1230256170272
 31
0.0
 11
417.4999999999999
 21
724.4031307872356
 31
0.0
 11
417.5134910266703
 21
724.6832359574438
 31
0.0
 11
417.5537100183614
 21
724.9607685944836
 31
0.0
 11
417.6206599410071
 21
725.2348887169038
 31
0.0
 11
417.7132081217171
 21
725.5014628591371
 31
0.0
 11
417.8316895730674
 21
725.7611460500623
 31
0.0
 11
417.9736480409062
 21
726.0087848595686
 31
0.0
 11
418.1400856594045
 21
726.2459848280694
 31
0.0
 11
418.327116440773
 21
726.4673198735125
 31
0.0
 11
418.5363956903278
 21
726.6746893245686
 31
0.0
 11
418.7628733628514
 21
726.8631355465998
 31
0.0
 11
419.0085205448924
 21
727.0342860552894
 31
0.0
 11
419.2676785535677
 21
727.1842052198963
 31
0.0
 11
419.5420930951453
 21
727.3139175938927
 31
0.0
 11
419.8261937626455
 21
727.4207733538481
 31
0.0
 11
420.1209136146592
 21
727.5051534534236
 31
0.0
 11
420.4214487880796
 21
727.5656519454142
 31
0.0
 11
420.7274339524552
 21
727.6022329787022
 31
0.0
 11
421.0353571071355
 21
727.6144389319018
 31
0.0
 11
421.3432802618159
 21
727.6022329787022
 31
0.0
 11
421.6492654261915
 21
727.5656519454142
 31
0.0
 11
421.9498005996119
 21
727.5051534534236
 31
0.0
 11
422.2445204516256
 21
727.4207733538481
 31
0.0
 11
422.5286211191258
 21
727.3139175938927
 31
0.0
 11
422.8030356607034
 21
727.1842052198963
 31
0.0
 11
423.0621936693785
 21
727.0342860552894
 31
0.0
 11
423.3078408514195
 21
726.8631355465998
 31
0.0
 11
423.5343185239431
 21
726.6746893245686
 31
0.0
 11
423.7435977734981
 21
726.4673198735125
 31
0.0
 11
423.9306285548665
 21
726.2459848280696
 31
0.0
 11
424.0970661733649
 21
726.0087848595686
 31
0.0
 11
424.2390246412037
 21
725.7611460500623
 31
0.0
 11
424.357506092554
 21
725.5014628591371
 31
0.0
 11
424.4500542732639
 21
725.2348887169038
 31
0.0
 11
424.5170041959096
 21
724.9607685944836
 31
0.0
 11
424.5572231876007
 21
724.6832359574437
 31
0.0
 11
424.5707142142712
 21
724.4031307872356
 31
0.0
  0
SPLINE
  5
215
330
5C
100
AcDbEntity
  8
0
  6
Continuous
 62
     7
100
AcDbSpline
210
0.0
220
0.0
230
1.0
 70
    11
 71
     3
 72
    79
 73
    75
 74
    73
 42
0.000000001
 43
0.0000000001
 44
0.00000001
 40
0.0
 40
0.0
 40
0.0
 40
0.0
 40
0.3116700467791622
 40
0.6234686029075343
 40
0.9551731604826044
 40
1.287058856055144
 40
1.65358484416853
 40
2.020201090439559
 40
2.428997904310943
 40
2.837843040535025
 40
3.289957829814692
 40
3.742100122107713
 40
4.233747144528039
 40
4.725411053182558
 40
5.249371787104134
 40
5.773342759004263
 40
6.320057951009956
 40
6.866778678449389
 40
7.425225173656818
 40
7.983673423047763
 40
8.542121672440498
 40
9.100568167652392
 40
9.647288895097821
 40
10.19400408710949
 40
10.71797505901256
 40
11.2419357929301
 40
11.73359970156966
 40
12.22524672395684
 40
12.6773890161947
 40
13.12950380538352
 40
13.53834894147937
 40
13.9471457551597
 40
14.31376200118027
 40
14.68028798893267
 40
15.01217368402129
 40
15.34387824078779
 40
15.65567679471262
 40
15.96734684800641
 40
16.27901690130025
 40
16.59081545522514
 40
16.92252001199163
 40
17.25440570708025
 40
17.62093169483268
 40
17.9875479408532
 40
18.39634475453338
 40
18.80518989062925
 40
19.25730467981814
 40
19.70944697205605
 40
20.20109399444314
 40
20.69275790308279
 40
21.21671863700043
 40
21.74068960890338
 40
22.28740480091504
 40
22.83412552836047
 40
23.39257202357237
 40
23.95102027296511
 40
24.50946852235605
 40
25.06791501756349
 40
25.61463574500292
 40
26.16135093700862
 40
26.68532190890861
 40
27.2092826428303
 40
27.70094655148503
 40
28.19259357390515
 40
28.64473586619812
 40
29.09685065547794
 40
29.50569579170186
 40
29.91449260557326
 40
30.28110885184433
 40
30.64763483995769
 40
30.97952053553017
 40
31.31122509310529
 40
31.62302364923377
 40
31.93469369601293
 40
31.93469369601293
 40
31.93469369601293
 40
31.93469369601293
 10
421.0353571071355
 20
742.0840773257655
 30
0.0
 10
420.931371227024
 20
742.07912198441
 30
0.0
 10
420.7233565901203
 20
742.0692092685647
 30
0.0
 10
420.4126158117218
 20
741.9915963598764
 30
0.0
 10
420.1105162866069
 20
741.869016384885
 30
0.0
 10
419.8125138583501
 20
741.6963860068483
 30
0.0
 10
419.5291197118884
 20
741.4811352710892
 30
0.0
 10
419.2533042766095
 20
741.217843681482
 30
0.0
 10
418.9958687269682
 20
740.9177453521838
 30
0.0
 10
418.7501497973891
 20
740.5725432222115
 30
0.0
 10
418.5254646747168
 20
740.1963750120667
 30
0.0
 10
418.3168415234658
 20
739.7800658970059
 30
0.0
 10
418.1312726011685
 20
739.3386521129327
 30
0.0
 10
417.9657491775974
 20
738.863975095592
 30
0.0
 10
417.8248278245169
 20
738.3702115379928
 30
0.0
 10
417.7071875571564
 20
737.8515947994027
 30
0.0
 10
417.6152603038366
 20
737.3201099906223
 30
0.0
 10
417.5488724541004
 20
736.7732772102497
 30
0.0
 10
417.5088705261217
 20
736.2199633729234
 30
0.0
 10
417.495564731267
 20
735.6614610463931
 30
0.0
 10
417.5088705261925
 20
735.1029587198686
 30
0.0
 10
417.548872454237
 20
734.549644882525
 30
0.0
 10
417.6152603040275
 20
734.0028121022202
 30
0.0
 10
417.7071875573853
 20
733.4713272931979
 30
0.0
 10
417.8248278247613
 20
732.9527105554831
 30
0.0
 10
417.9657491778299
 20
732.4589469947246
 30
0.0
 10
418.1312726013539
 20
731.9842699884921
 30
0.0
 10
418.3168415235654
 20
731.5428561646355
 30
0.0
 10
418.5254646746817
 20
731.1265471866903
 30
0.0
 10
418.7501497971688
 20
730.7503784901062
 30
0.0
 10
418.9958687264963
 20
730.4051780103607
 30
0.0
 10
419.2533042758214
 20
730.1050738643136
 30
0.0
 10
419.529119710691
 20
729.8418018561638
 30
0.0
 10
419.8125138566454
 20
729.6264820335836
 30
0.0
 10
420.1105162842027
 20
729.4540863360911
 30
0.0
 10
420.4126158080172
 20
729.3306669125386
 30
0.0
 10
420.723356587212
 20
729.2560080706096
 30
0.0
 10
421.0353571071355
 20
729.230264869077
 30
0.0
 10
421.347357627059
 20
729.2560080706096
 30
0.0
 10
421.6580984062539
 20
729.3306669125391
 30
0.0
 10
421.9601979300683
 20
729.4540863360908
 30
0.0
 10
422.2582003576258
 20
729.6264820335837
 30
0.0
 10
422.5415945035801
 20
729.8418018561638
 30
0.0
 10
422.8174099384498
 20
730.1050738643135
 30
0.0
 10
423.074845487775
 20
730.4051780103609
 30
0.0
 10
423.3205644171019
 20
730.7503784901062
 30
0.0
 10
423.5452495395895
 20
731.1265471866907
 30
0.0
 10
423.7538726907056
 20
731.5428561646353
 30
0.0
 10
423.9394416129172
 20
731.9842699884919
 30
0.0
 10
424.1049650364413
 20
732.4589469947247
 30
0.0
 10
424.2458863895097
 20
732.952710555483
 30
0.0
 10
424.3635266568857
 20
733.471327293198
 30
0.0
 10
424.4554539102436
 20
734.0028121022201
 30
0.0
 10
424.521841760034
 20
734.549644882525
 30
0.0
 10
424.5618436880785
 20
735.1029587198685
 30
0.0
 10
424.5751494830041
 20
735.661461046393
 30
0.0
 10
424.5618436881495
 20
736.2199633729236
 30
0.0
 10
424.5218417601704
 20
736.7732772102496
 30
0.0
 10
424.4554539104344
 20
737.3201099906223
 30
0.0
 10
424.3635266571145
 20
737.8515947994027
 30
0.0
 10
424.2458863897543
 20
738.3702115379926
 30
0.0
 10
424.1049650366736
 20
738.8639750955923
 30
0.0
 10
423.9394416131028
 20
739.3386521129328
 30
0.0
 10
423.7538726908054
 20
739.7800658970059
 30
0.0
 10
423.545249539554
 20
740.1963750120666
 30
0.0
 10
423.3205644168819
 20
740.5725432222114
 30
0.0
 10
423.0748454873028
 20
740.9177453521837
 30
0.0
 10
422.8174099376617
 20
741.217843681482
 30
0.0
 10
422.5415945023828
 20
741.4811352710892
 30
0.0
 10
422.258200355921
 20
741.6963860068483
 30
0.0
 10
421.9601979276642
 20
741.8690163848846
 30
0.0
 10
421.6580984025493
 20
741.9915963598766
 30
0.0
 10
421.347357624151
 20
742.0692092685646
 30
0.0
 10
421.1393429872469
 20
742.07912198441
 30
0.0
 10
421.0353571071355
 20
742.0840773257655
 30
0.0
 11
421.0353571071355
 21
742.0840773257655
 31
0.0
 11
420.724695255918
 21
742.0590286452491
 31
0.0
 11
420.4214487880796
 21
741.9865033527904
 31
0.0
 11
420.1139601648058
 21
741.8620900913959
 31
0.0
 11
419.8261937626455
 21
741.6967461696581
 31
0.0
 11
419.5336437959166
 21
741.4759389760974
 31
0.0
 11
419.2676785535677
 21
741.2236099017548
 31
0.0
 11
419.000756854655
 21
740.9139849002242
 31
0.0
 11
418.7628733628514
 21
740.5814705551617
 31
0.0
 11
418.5303648133956
 21
740.1937237859112
 31
0.0
 11
418.327116440773
 21
739.789839208987
 31
0.0
 11
418.1360581587234
 21
739.3368342117764
 31
0.0
 11
417.9736480409062
 21
738.8727691810993
 31
0.0
 11
417.8294813353075
 21
738.3690323334424
 31
0.0
 11
417.713208121717
 21
737.8581251802364
 31
0.0
 11
417.6198111743369
 21
737.3194466941313
 31
0.0
 11
417.5537100183614
 21
736.7767366509296
 31
0.0
 11
417.5133669048955
 21
736.2197492891296
 31
0.0
 11
417.4999999999999
 21
735.6614610364331
 31
0.0
 11
417.5133669048955
 21
735.1031727837366
 31
0.0
 11
417.5537100183614
 21
734.5461854219366
 31
0.0
 11
417.6198111743369
 21
734.0034753787348
 31
0.0
 11
417.713208121717
 21
733.4647968926298
 31
0.0
 11
417.8294813353075
 21
732.9538897394236
 31
0.0
 11
417.9736480409062
 21
732.4501528917667
 31
0.0
 11
418.1360581587234
 21
731.9860878610897
 31
0.0
 11
418.327116440773
 21
731.5330828638791
 31
0.0
 11
418.5303648133956
 21
731.1291982869549
 31
0.0
 11
418.7628733628514
 21
730.7414515177044
 31
0.0
 11
419.000756854655
 21
730.4089371726421
 31
0.0
 11
419.2676785535677
 21
730.0993121711115
 31
0.0
 11
419.5336437959165
 21
729.8469830967686
 31
0.0
 11
419.8261937626455
 21
729.6261759032079
 31
0.0
 11
420.1139601648057
 21
729.4608319814704
 31
0.0
 11
420.4214487880796
 21
729.3364187200759
 31
0.0
 11
420.724695255918
 21
729.2638934276171
 31
0.0
 11
421.0353571071355
 21
729.2388447471005
 31
0.0
 11
421.346018958353
 21
729.2638934276171
 31
0.0
 11
421.6492654261915
 21
729.3364187200759
 31
0.0
 11
421.9567540494654
 21
729.4608319814704
 31
0.0
 11
422.2445204516256
 21
729.6261759032079
 31
0.0
 11
422.5370704183545
 21
729.8469830967687
 31
0.0
 11
422.8030356607034
 21
730.0993121711115
 31
0.0
 11
423.069957359616
 21
730.408937172642
 31
0.0
 11
423.3078408514195
 21
730.7414515177044
 31
0.0
 11
423.5403494008754
 21
731.1291982869549
 31
0.0
 11
423.7435977734981
 21
731.5330828638791
 31
0.0
 11
423.9346560555477
 21
731.9860878610896
 31
0.0
 11
424.0970661733649
 21
732.4501528917667
 31
0.0
 11
424.2412328789635
 21
732.9538897394237
 31
0.0
 11
424.357506092554
 21
733.4647968926298
 31
0.0
 11
424.4509030399341
 21
734.0034753787348
 31
0.0
 11
424.5170041959096
 21
734.5461854219366
 31
0.0
 11
424.5573473093756
 21
735.1031727837366
 31
0.0
 11
424.5707142142712
 21
735.6614610364331
 31
0.0
 11
424.5573473093756
 21
736.2197492891296
 31
0.0
 11
424.5170041959096
 21
736.7767366509296
 31
0.0
 11
424.4509030399341
 21
737.3194466941313
 31
0.0
 11
424.357506092554
 21
737.8581251802364
 31
0.0
 11
424.2412328789636
 21
738.3690323334423
 31
0.0
 11
424.0970661733649
 21
738.8727691810993
 31
0.0
 11
423.9346560555477
 21
739.3368342117766
 31
0.0
 11
423.7435977734981
 21
739.789839208987
 31
0.0
 11
423.5403494008754
 21
740.1937237859111
 31
0.0
 11
423.3078408514195
 21
740.5814705551617
 31
0.0
 11
423.069957359616
 21
740.9139849002241
 31
0.0
 11
422.8030356607034
 21
741.2236099017548
 31
0.0
 11
422.5370704183546
 21
741.4759389760975
 31
0.0
 11
422.2445204516256
 21
741.6967461696581
 31
0.0
 11
421.9567540494653
 21
741.8620900913958
 31
0.0
 11
421.6492654261915
 21
741.9865033527904
 31
0.0
 11
421.346018958353
 21
742.0590286452491
 31
0.0
 11
421.0353571071355
 21
742.0840773257655
 31
0.0
  0
SPLINE
  5
216
330
5C
100
AcDbEntity
  8
0
  6
Continuous
 62
     7
100
AcDbSpline
210
0.0
220
0.0
230
1.0
 70
    11
 71
     3
 72
    79
 73
    75
 74
    73
 42
0.000000001
 43
0.0000000001
 44
0.00000001
 40
0.0
 40
0.0
 40
0.0
 40
0.0
 40
0.2804298649001596
 40
0.5608615546298961
 40
0.8430390411885929
 40
1.125221498489913
 40
1.410656629591524
 40
1.696098719412551
 40
1.985866395263722
 40
2.275641679865454
 40
2.570259896478705
 40
2.864885276875179
 40
3.164276383431404
 40
3.463673493277213
 40
3.767200494705919
 40
4.07073194728008
 40
4.377293184817256
 40
4.68385713895133
 40
4.99202120691856
 40
5.300186186186748
 40
5.608351165444803
 40
5.916515233381775
 40
6.223079187465323
 40
6.529640424930891
 40
6.833171877412413
 40
7.136698878725951
 40
7.436095988434412
 40
7.735487094828228
 40
8.030112475038129
 40
8.324730691436395
 40
8.614505975795774
 40
8.904273651369856
 40
9.189715740876679
 40
9.47515087160834
 40
9.757333328453743
 40
10.03951081434893
 40
10.31994250264851
 40
10.60037237635062
 40
10.88080225005262
 40
11.16123393835232
 40
11.44341142424749
 40
11.72559388109291
 40
12.01102901182457
 40
12.29647110133129
 40
12.58623877690538
 40
12.87601406126484
 40
13.17063227766307
 40
13.46525765787309
 40
13.76464876426684
 40
14.0640458739753
 40
14.36757287528888
 40
14.67110432777037
 40
14.97766556523588
 40
15.28422951931946
 40
15.59239358725643
 40
15.90055856651449
 40
16.20872354578262
 40
16.51688761374993
 40
16.823451567884
 40
17.13001280542115
 40
17.43354425799526
 40
17.73707125942402
 40
18.03646836926983
 40
18.33585947582599
 40
18.63048485622251
 40
18.9251030728358
 40
19.21487835743753
 40
19.50464603328879
 40
19.79008812310982
 40
20.07552325421133
 40
20.35770571151265
 40
20.63988319807135
 40
20.92031488780107
 40
21.20074475270124
 40
21.20074475270124
 40
21.20074475270124
 40
21.20074475270124
 10
424.5707142142712
 20
746.9197912856307
 30
0.0
 10
424.5681054359625
 20
747.0133030781835
 30
0.0
 10
424.5628878677807
 20
747.2003272719763
 30
0.0
 10
424.5209863234363
 20
747.4788593434707
 30
0.0
 10
424.4544065454132
 20
747.7528123872466
 30
0.0
 10
424.3612156132442
 20
748.020789330939
 30
0.0
 10
424.2429400375293
 20
748.2798212472237
 30
0.0
 10
424.0999952935976
 20
748.529019524973
 30
0.0
 10
423.9340555983009
 20
748.7652967748855
 30
0.0
 10
423.7456693428274
 20
748.9880952540204
 30
0.0
 10
423.5371784566363
 20
749.1945096934637
 30
0.0
 10
423.30914402692
 20
749.3841302836661
 30
0.0
 10
423.0644391624929
 20
749.5544892492035
 30
0.0
 10
422.8037510728819
 20
749.7051980673514
 30
0.0
 10
422.5302302967942
 20
749.8343898503784
 30
0.0
 10
422.2448523745194
 20
749.9416594502572
 30
0.0
 10
421.9507664574794
 20
750.0257951655917
 30
0.0
 10
421.6493838109638
 20
750.086428472724
 30
0.0
 10
421.34360210357
 20
750.1229562064469
 30
0.0
 10
421.0353571165584
 20
750.1351710431119
 30
0.0
 10
420.7271121295447
 20
750.1229562067894
 30
0.0
 10
420.4213304221357
 20
750.0864284734098
 30
0.0
 10
420.1199477756197
 20
750.0257951666233
 30
0.0
 10
419.8258618584902
 20
749.9416594516379
 30
0.0
 10
419.5404839364191
 20
749.8343898521134
 30
0.0
 10
419.2669631594098
 20
749.7051980694457
 30
0.0
 10
419.0062750729859
 20
749.5544892516648
 30
0.0
 10
418.7615701965057
 20
749.3841302865019
 30
0.0
 10
418.5335358107787
 20
749.1945096966849
 30
0.0
 10
418.325044761502
 20
748.9880952576378
 30
0.0
 10
418.1366591046527
 20
748.7652967789146
 30
0.0
 10
417.970717193632
 20
748.5290195294338
 30
0.0
 10
417.8277806001453
 20
748.2798212521463
 30
0.0
 10
417.709474817481
 20
748.0207893363726
 30
0.0
 10
417.616395390818
 20
747.7528123933182
 30
0.0
 10
417.5494013272606
 20
747.4788593505045
 30
0.0
 10
417.5090368165506
 20
747.2003272771881
 30
0.0
 10
417.4954816213433
 20
746.9197912856307
 30
0.0
 10
417.5090368165505
 20
746.6392552940733
 30
0.0
 10
417.5494013272607
 20
746.3607232207571
 30
0.0
 10
417.616395390818
 20
746.086770177943
 30
0.0
 10
417.709474817481
 20
745.818793234889
 30
0.0
 10
417.8277806001453
 20
745.5597613191148
 30
0.0
 10
417.9707171936319
 20
745.3105630418279
 30
0.0
 10
418.1366591046528
 20
745.0742857923469
 30
0.0
 10
418.3250447615019
 20
744.8514873136236
 30
0.0
 10
418.5335358107785
 20
744.6450728745763
 30
0.0
 10
418.7615701965058
 20
744.4554522847595
 30
0.0
 10
419.0062750729859
 20
744.2850933195969
 30
0.0
 10
419.2669631594098
 20
744.1343845018157
 30
0.0
 10
419.5404839364191
 20
744.0051927191479
 30
0.0
 10
419.8258618584902
 20
743.8979231196236
 30
0.0
 10
420.1199477756197
 20
743.8137874046378
 30
0.0
 10
420.4213304221357
 20
743.7531540978518
 30
0.0
 10
420.7271121295446
 20
743.7166263644722
 30
0.0
 10
421.0353571165583
 20
743.7044115281496
 30
0.0
 10
421.3436021035702
 20
743.7166263648145
 30
0.0
 10
421.6493838109637
 20
743.7531540985375
 30
0.0
 10
421.9507664574795
 20
743.8137874056697
 30
0.0
 10
422.2448523745195
 20
743.8979231210046
 30
0.0
 10
422.5302302967942
 20
744.0051927208829
 30
0.0
 10
422.8037510728819
 20
744.13438450391
 30
0.0
 10
423.0644391624928
 20
744.2850933220583
 30
0.0
 10
423.30914402692
 20
744.4554522875951
 30
0.0
 10
423.5371784566364
 20
744.6450728777978
 30
0.0
 10
423.7456693428273
 20
744.8514873172409
 30
0.0
 10
423.9340555983008
 20
745.074285796376
 30
0.0
 10
424.0999952935977
 20
745.3105630462885
 30
0.0
 10
424.2429400375293
 20
745.5597613240376
 30
0.0
 10
424.3612156132441
 20
745.818793240323
 30
0.0
 10
424.4544065454133
 20
746.0867701840148
 30
0.0
 10
424.5209863234361
 20
746.360723227791
 30
0.0
 10
424.5628878677804
 20
746.639255299285
 30
0.0
 10
424.5681054359626
 20
746.826279493078
 30
0.0
 10
424.5707142142712
 20
746.9197912856307
 30
0.0
 11
424.5707142142712
 21
746.9197912856307
 31
0.0
 11
424.5572231876008
 21
747.1998964558389
 31
0.0
 11
424.5170041959096
 21
747.477429092879
 31
0.0
 11
424.4500542732639
 21
747.7515492152992
 31
0.0
 11
424.357506092554
 21
748.0181233575324
 31
0.0
 11
424.2390246412037
 21
748.2778065484576
 31
0.0
 11
424.0970661733649
 21
748.5254453579639
 31
0.0
 11
423.9306285548665
 21
748.7626453264647
 31
0.0
 11
423.7435977734981
 21
748.9839803719077
 31
0.0
 11
423.5343185239431
 21
749.1913498229638
 31
0.0
 11
423.3078408514195
 21
749.3797960449949
 31
0.0
 11
423.0621936693785
 21
749.5509465536846
 31
0.0
 11
422.8030356607034
 21
749.7008657182917
 31
0.0
 11
422.5286211191259
 21
749.830578092288
 31
0.0
 11
422.2445204516256
 21
749.9374338522433
 31
0.0
 11
421.9498005996119
 21
750.0218139518189
 31
0.0
 11
421.6492654261915
 21
750.0823124438094
 31
0.0
 11
421.3432802618159
 21
750.1188934770973
 31
0.0
 11
421.0353571071355
 21
750.131099430297
 31
0.0
 11
420.7274339524552
 21
750.1188934770975
 31
0.0
 11
420.4214487880796
 21
750.0823124438094
 31
0.0
 11
420.1209136146592
 21
750.0218139518189
 31
0.0
 11
419.8261937626455
 21
749.9374338522433
 31
0.0
 11
419.5420930951453
 21
749.830578092288
 31
0.0
 11
419.2676785535677
 21
749.7008657182917
 31
0.0
 11
419.0085205448924
 21
749.5509465536846
 31
0.0
 11
418.7628733628514
 21
749.3797960449949
 31
0.0
 11
418.5363956903279
 21
749.1913498229638
 31
0.0
 11
418.327116440773
 21
748.9839803719077
 31
0.0
 11
418.1400856594045
 21
748.7626453264648
 31
0.0
 11
417.9736480409062
 21
748.5254453579639
 31
0.0
 11
417.8316895730674
 21
748.2778065484576
 31
0.0
 11
417.7132081217171
 21
748.0181233575324
 31
0.0
 11
417.6206599410072
 21
747.7515492152992
 31
0.0
 11
417.5537100183614
 21
747.477429092879
 31
0.0
 11
417.5134910266703
 21
747.199896455839
 31
0.0
 11
417.4999999999999
 21
746.9197912856307
 31
0.0
 11
417.5134910266703
 21
746.6396861154225
 31
0.0
 11
417.5537100183614
 21
746.3621534783824
 31
0.0
 11
417.6206599410071
 21
746.0880333559622
 31
0.0
 11
417.7132081217171
 21
745.821459213729
 31
0.0
 11
417.8316895730674
 21
745.5617760228038
 31
0.0
 11
417.9736480409062
 21
745.3141372132976
 31
0.0
 11
418.1400856594045
 21
745.0769372447967
 31
0.0
 11
418.327116440773
 21
744.8556021993537
 31
0.0
 11
418.5363956903279
 21
744.6482327482976
 31
0.0
 11
418.7628733628514
 21
744.4597865262664
 31
0.0
 11
419.0085205448924
 21
744.2886360175768
 31
0.0
 11
419.2676785535677
 21
744.1387168529698
 31
0.0
 11
419.5420930951453
 21
744.0090044789733
 31
0.0
 11
419.8261937626455
 21
743.9021487190181
 31
0.0
 11
420.1209136146592
 21
743.8177686194425
 31
0.0
 11
420.4214487880796
 21
743.7572701274521
 31
0.0
 11
420.7274339524552
 21
743.7206890941641
 31
0.0
 11
421.0353571071355
 21
743.7084831409644
 31
0.0
 11
421.3432802618159
 21
743.720689094164
 31
0.0
 11
421.6492654261915
 21
743.7572701274521
 31
0.0
 11
421.9498005996119
 21
743.8177686194426
 31
0.0
 11
422.2445204516256
 21
743.9021487190181
 31
0.0
 11
422.5286211191258
 21
744.0090044789735
 31
0.0
 11
422.8030356607034
 21
744.1387168529698
 31
0.0
 11
423.0621936693785
 21
744.2886360175768
 31
0.0
 11
423.3078408514195
 21
744.4597865262664
 31
0.0
 11
423.5343185239431
 21
744.6482327482975
 31
0.0
 11
423.7435977734981
 21
744.8556021993537
 31
0.0
 11
423.9306285548665
 21
745.0769372447967
 31
0.0
 11
424.0970661733649
 21
745.3141372132976
 31
0.0
 11
424.2390246412037
 21
745.5617760228039
 31
0.0
 11
424.357506092554
 21
745.821459213729
 31
0.0
 11
424.4500542732639
 21
746.0880333559622
 31
0.0
 11
424.5170041959096
 21
746.3621534783824
 31
0.0
 11
424.5572231876007
 21
746.6396861154225
 31
0.0
 11
424.5707142142712
 21
746.9197912856307
 31
0.0
  0
SPLINE
  5
217
330
5C
100
AcDbEntity
  8
1
  6
Continuous
 62
     7
100
AcDbSpline
210
0.0
220
0.0
230
1.0
 70
    11
 71
     3
 72
    79
 73
    75
 74
    73
 42
0.000000001
 43
0.0000000001
 44
0.00000001
 40
0.0
 40
0.0
 40
0.0
 40
0.0
 40
0.3142650584352946
 40
0.6282865527610256
 40
0.9611940700550738
 40
1.293759066763255
 40
1.653345626572383
 40
2.012624926377822
 40
2.402527480380316
 40
2.792202152566643
 40
3.21204660037915
 40
3.631735865868725
 40
4.077938483287684
 40
4.524041244960464
 40
4.990653910206315
 40
5.457207549915947
 40
5.936678582613759
 40
6.416122251733873
 40
6.899971956020621
 40
7.38382166030649
 40
7.863265329424522
 40
8.342736362117693
 40
8.809290001818841
 40
9.275902667048806
 40
9.722005428696784
 40
10.16820804607601
 40
10.58789731150869
 40
11.00774175923641
 40
11.39741643130933
 40
11.78731898514996
 40
12.14659828474451
 40
12.50618484425335
 40
12.83874984054653
 40
13.171657357136
 40
13.48567884942516
 40
13.79994391525787
 40
14.10737582044635
 40
14.41480772563373
 40
14.72907279146292
 40
15.04309428374694
 40
15.37600180032927
 40
15.70856679661421
 40
16.06815335611342
 40
16.42743265569818
 40
16.8173352095281
 40
17.20700988159082
 40
17.6268543293079
 40
18.04654359473026
 40
18.4927462120998
 40
18.93884897373828
 40
19.40546163895965
 40
19.87201527865208
 40
20.35148631133753
 40
20.83092998044846
 40
21.31477968472847
 40
21.79862938901002
 40
22.27807305812616
 40
22.75754409082067
 40
23.22409773052794
 40
23.6907103957724
 40
24.13681315744473
 40
24.58301577486341
 40
25.00270504035263
 40
25.42254948816336
 40
25.81222416034608
 40
26.20212671433897
 40
26.56140601412416
 40
26.92099257388879
 40
27.25355757049544
 40
27.58646508749622
 40
27.90048658031794
 40
28.21475164694546
 40
28.5221835542614
 40
28.82961545227863
 40
28.82961545227863
 40
28.82961545227863
 40
28.82961545227863
 10
420.6931830694134
 20
1190.531380231927
 30
0.0
 10
420.5899156933349
 20
1190.512787696695
 30
0.0
 10
420.3834609745691
 20
1190.475617044479
 30
0.0
 10
420.0813887699974
 20
1190.364670387619
 30
0.0
 10
419.789206522726
 20
1190.217605353489
 30
0.0
 10
419.5043642834922
 20
1190.027450443746
 30
0.0
 10
419.2349353277255
 20
1189.802315688159
 30
0.0
 10
418.9761491398542
 20
1189.537679398119
 30
0.0
 10
418.736482208356
 20
1189.242619330138
 30
0.0
 10
418.5111537543225
 20
1188.91185318311
 30
0.0
 10
418.3075993333109
 20
1188.555786113918
 30
0.0
 10
418.1221151432234
 20
1188.169053024859
 30
0.0
 10
417.9603522275083
 20
1187.762379838049
 30
0.0
 10
417.8199907858688
 20
1187.331403682639
 30
0.0
 10
417.7047528312173
 20
1186.886030246662
 30
0.0
 10
417.61350347263
 20
1186.423817382291
 30
0.0
 10
417.548298810914
 20
1185.952898999738
 30
0.0
 10
417.5087100673991
 20
1185.473367562288
 30
0.0
 10
417.4956250482264
 20
1184.990922492728
 30
0.0
 10
417.5087100673829
 20
1184.508477423155
 30
0.0
 10
417.548298810885
 20
1184.02894598575
 30
0.0
 10
417.6135034725498
 20
1183.558027603036
 30
0.0
 10
417.7047528311801
 20
1183.09581473926
 30
0.0
 10
417.8199907854644
 20
1182.650441301114
 30
0.0
 10
417.9603522281218
 20
1182.219465153467
 30
0.0
 10
418.1221151397399
 20
1181.81279193853
 30
0.0
 10
418.3075993437221
 20
1181.426058948506
 30
0.0
 10
418.511153714066
 20
1181.069991523146
 30
0.0
 10
418.7364823434297
 20
1180.739226614655
 30
0.0
 10
418.9761486464486
 20
1180.444162114849
 30
0.0
 10
419.2349370041352
 20
1180.179541134944
 30
0.0
 10
419.5043581956156
 20
1179.954351606847
 30
0.0
 10
419.7892273537983
 20
1179.764386609684
 30
0.0
 10
420.0813125908773
 20
1179.616637194997
 30
0.0
 10
420.3837274947208
 20
1179.508108209594
 30
0.0
 10
420.6899493699398
 20
1179.443896556773
 30
0.0
 10
420.9998488021835
 20
1179.421295271933
 30
0.0
 10
421.3097482344274
 20
1179.443896556762
 30
0.0
 10
421.615970109645
 20
1179.508108209572
 30
0.0
 10
421.9183850134872
 20
1179.616637194963
 30
0.0
 10
422.210470250564
 20
1179.76438660964
 30
0.0
 10
422.4953394087432
 20
1179.954351606793
 30
0.0
 10
422.7647606002195
 20
1180.179541134881
 30
0.0
 10
423.0235489579009
 20
1180.444162114776
 30
0.0
 10
423.2632152609143
 20
1180.739226614575
 30
0.0
 10
423.4885438902708
 20
1181.069991523058
 30
0.0
 10
423.6920982606067
 20
1181.42605894841
 30
0.0
 10
423.8775824645797
 20
1181.812791938428
 30
0.0
 10
424.039345376187
 20
1182.219465153359
 30
0.0
 10
424.1797068188328
 20
1182.650441300999
 30
0.0
 10
424.2949447731029
 20
1183.095814739139
 30
0.0
 10
424.3861941317172
 20
1183.55802760291
 30
0.0
 10
424.4513987933633
 20
1184.028945985619
 30
0.0
 10
424.4909875368454
 20
1184.508477423018
 30
0.0
 10
424.5040725559787
 20
1184.990922492584
 30
0.0
 10
424.490987536782
 20
1185.473367562149
 30
0.0
 10
424.4513987932311
 20
1185.952898999552
 30
0.0
 10
424.3861941315088
 20
1186.423817382248
 30
0.0
 10
424.2949447727972
 20
1186.886030246059
 30
0.0
 10
424.1797068184387
 20
1187.331403684042
 30
0.0
 10
424.0393453755809
 20
1187.762379832228
 30
0.0
 10
423.8775824640957
 20
1188.169053045152
 30
0.0
 10
423.6920982589313
 20
1188.555786042187
 30
0.0
 10
423.4885438919501
 20
1188.911853442228
 30
0.0
 10
423.2632152498545
 20
1189.242618438619
 30
0.0
 10
423.0235489911291
 20
1189.537682623699
 30
0.0
 10
422.7647604789875
 20
1189.802304690592
 30
0.0
 10
422.4953398383469
 20
1190.02749032959
 30
0.0
 10
422.210468768307
 20
1190.217468810953
 30
0.0
 10
421.9183904185869
 20
1190.365169632499
 30
0.0
 10
421.6159511814534
 20
1190.473870279318
 30
0.0
 10
421.3098184028663
 20
1190.537453363067
 30
0.0
 10
420.9995932073201
 20
1190.562352853988
 30
0.0
 10
420.7953197812689
 20
1190.541704436166
 30
0.0
 10
420.6931830694134
 20
1190.531380231927
 30
0.0
 11
420.6931830694134
 21
1190.531380231927
 31
0.0
 11
420.3856338237769
 21
1190.466758306872
 31
0.0
 11
420.0897580622063
 21
1190.361558347681
 31
0.0
 11
419.7925051340756
 21
1190.211664680708
 31
0.0
 11
419.5153291252179
 21
1190.027890534156
 31
0.0
 11
419.2389666468579
 21
1189.797833422984
 31
0.0
 11
418.9872515714034
 21
1189.541472084323
 31
0.0
 11
418.7408377291467
 21
1189.239306202915
 31
0.0
 11
418.5209981937116
 21
1188.917565734905
 31
0.0
 11
418.3120531460866
 21
1188.553407352609
 31
0.0
 11
418.1302052512656
 21
1188.175160842122
 31
0.0
 11
417.9648038444785
 21
1187.760746616484
 31
0.0
 11
417.8264131300475
 21
1187.336652659767
 31
0.0
 11
417.7091704956953
 21
1186.885009499678
 31
0.0
 11
417.6186756519746
 21
1186.427316390723
 31
0.0
 11
417.5526855905886
 21
1185.952408206972
 31
0.0
 11
417.5132210855254
 21
1185.474591521725
 31
0.0
 11
417.4999999999998
 21
1184.990922482778
 31
0.0
 11
417.5132210855254
 21
1184.507253443831
 31
0.0
 11
417.5526855905886
 21
1184.029436758584
 31
0.0
 11
417.6186756519746
 21
1183.554528574833
 31
0.0
 11
417.7091704956954
 21
1183.096835465877
 31
0.0
 11
417.8264131300475
 21
1182.645192305789
 31
0.0
 11
417.9648038444784
 21
1182.221098349071
 31
0.0
 11
418.1302052512655
 21
1181.806684123433
 31
0.0
 11
418.3120531460867
 21
1181.428437612947
 31
0.0
 11
418.5209981937116
 21
1181.064279230651
 31
0.0
 11
418.7408377291466
 21
1180.742538762641
 31
0.0
 11
418.9872515714033
 21
1180.440372881233
 31
0.0
 11
419.2389666468579
 21
1180.184011542572
 31
0.0
 11
419.5153291252179
 21
1179.9539544314
 31
0.0
 11
419.7925051340756
 21
1179.770180284848
 31
0.0
 11
420.0897580622063
 21
1179.620286617875
 31
0.0
 11
420.3856338237768
 21
1179.515086658684
 31
0.0
 11
420.6931830694134
 21
1179.450464733629
 31
0.0
 11
420.9998488025724
 21
1179.428773617457
 31
0.0
 11
421.3065145357314
 21
1179.450464733629
 31
0.0
 11
421.6140637813679
 21
1179.515086658684
 31
0.0
 11
421.9099395429386
 21
1179.620286617875
 31
0.0
 11
422.2071924710695
 21
1179.770180284848
 31
0.0
 11
422.4843684799272
 21
1179.9539544314
 31
0.0
 11
422.7607309582871
 21
1180.184011542572
 31
0.0
 11
423.0124460337418
 21
1180.440372881233
 31
0.0
 11
423.2588598759985
 21
1180.742538762641
 31
0.0
 11
423.4786994114336
 21
1181.064279230651
 31
0.0
 11
423.6876444590584
 21
1181.428437612947
 31
0.0
 11
423.8694923538795
 21
1181.806684123433
 31
0.0
 11
424.0348937606667
 21
1182.221098349071
 31
0.0
 11
424.1732844750978
 21
1182.645192305789
 31
0.0
 11
424.29052710945
 21
1183.096835465877
 31
0.0
 11
424.3810219531704
 21
1183.554528574833
 31
0.0
 11
424.4470120145561
 21
1184.029436758584
 31
0.0
 11
424.4864765196195
 21
1184.50725344383
 31
0.0
 11
424.4996976051452
 21
1184.990922482778
 31
0.0
 11
424.4864765196195
 21
1185.474591521725
 31
0.0
 11
424.4470120145562
 21
1185.952408206972
 31
0.0
 11
424.3810219531704
 21
1186.427316390723
 31
0.0
 11
424.29052710945
 21
1186.885009499678
 31
0.0
 11
424.1732844750978
 21
1187.336652659767
 31
0.0
 11
424.0348937606667
 21
1187.760746616484
 31
0.0
 11
423.8694923538795
 21
1188.175160842122
 31
0.0
 11
423.6876444590584
 21
1188.553407352609
 31
0.0
 11
423.4786994114336
 21
1188.917565734905
 31
0.0
 11
423.2588598759985
 21
1189.239306202915
 31
0.0
 11
423.0124460337418
 21
1189.541472084323
 31
0.0
 11
422.7607309582871
 21
1189.797833422984
 31
0.0
 11
422.4843684799272
 21
1190.027890534156
 31
0.0
 11
422.2071924710694
 21
1190.211664680708
 31
0.0
 11
421.9099395429387
 21
1190.361558347681
 31
0.0
 11
421.614063781368
 21
1190.466758306872
 31
0.0
 11
421.3065145357314
 21
1190.531380231927
 31
0.0
 11
420.9998488025724
 21
1190.5530713481
 31
0.0
 11
420.6931830694134
 21
1190.531380231927
 31
0.0
  0
SPLINE
  5
218
330
5C
100
AcDbEntity
  8
1
  6
Continuous
 62
     7
100
AcDbSpline
210
0.0
220
0.0
230
1.0
 70
    11
 71
     3
 72
    79
 73
    75
 74
    73
 42
0.000000001
 43
0.0000000001
 44
0.00000001
 40
0.0
 40
0.0
 40
0.0
 40
0.0
 40
0.3142650584352946
 40
0.628286552760797
 40
0.9611940700547428
 40
1.293759066763176
 40
1.653345626572449
 40
2.012624926377726
 40
2.402527480380043
 40
2.792202152566746
 40
3.212046600379451
 40
3.631735865869025
 40
4.077938483287562
 40
4.524041244960341
 40
4.990653910205972
 40
5.457207549915827
 40
5.936678582613414
 40
6.416122251733755
 40
6.899971956020504
 40
7.383821660306372
 40
7.863265329424405
 40
8.342736362118025
 40
8.809290001819173
 40
9.275902667049138
 40
9.722005428696683
 40
10.16820804607569
 40
10.58789731150817
 40
11.00774175923649
 40
11.39741643130997
 40
11.78731898515024
 40
12.14659828474447
 40
12.50618484425345
 40
12.83874984054664
 40
13.17165735713621
 40
13.48567884942545
 40
13.7999439152582
 40
14.1073758204467
 40
14.41480772563409
 40
14.72907279146333
 40
15.04309428374743
 40
15.37600180032986
 40
15.70856679661467
 40
16.06815335611374
 40
16.42743265569834
 40
16.81733520952843
 40
17.20700988159152
 40
17.626854329309
 40
18.04654359473136
 40
18.49274621210026
 40
18.93884897373874
 40
19.40546163895968
 40
19.8720152786521
 40
20.35148631133755
 40
20.83092998044916
 40
21.31477968472963
 40
21.79862938901095
 40
22.27807305812709
 40
22.75754409082182
 40
23.2240977305291
 40
23.69071039577333
 40
24.13681315744545
 40
24.58301577486433
 40
25.00270504035315
 40
25.42254948816428
 40
25.81222416034699
 40
26.20212671433971
 40
26.56140601412506
 40
26.92099257388969
 40
27.25355757049634
 40
27.58646508749712
 40
27.90048658031884
 40
28.21475164694627
 40
28.52218355426221
 40
28.82961545227944
 40
28.82961545227944
 40
28.82961545227944
 40
28.82961545227944
 10
420.6931830694134
 20
1192.450739918639
 30
0.0
 10
420.5899156933349
 20
1192.469332453872
 30
0.0
 10
420.3834609745692
 20
1192.506503106088
 30
0.0
 10
420.0813887699973
 20
1192.617449762947
 30
0.0
 10
419.7892065227259
 20
1192.764514797076
 30
0.0
 10
419.5043642834924
 20
1192.95466970682
 30
0.0
 10
419.2349353277255
 20
1193.179804462408
 30
0.0
 10
418.9761491398542
 20
1193.444440752447
 30
0.0
 10
418.7364822083559
 20
1193.739500820428
 30
0.0
 10
418.5111537543227
 20
1194.070266967456
 30
0.0
 10
418.3075993333109
 20
1194.426334036648
 30
0.0
 10
418.1221151432236
 20
1194.813067125707
 30
0.0
 10
417.9603522275083
 20
1195.219740312517
 30
0.0
 10
417.8199907858686
 20
1195.650716467927
 30
0.0
 10
417.7047528312174
 20
1196.096089903904
 30
0.0
 10
417.6135034726298
 20
1196.558302768276
 30
0.0
 10
417.548298810914
 20
1197.029221150828
 30
0.0
 10
417.5087100673989
 20
1197.508752588278
 30
0.0
 10
417.4956250482263
 20
1197.991197657838
 30
0.0
 10
417.5087100673829
 20
1198.473642727412
 30
0.0
 10
417.5482988108852
 20
1198.953174164816
 30
0.0
 10
417.6135034725496
 20
1199.424092547531
 30
0.0
 10
417.7047528311804
 20
1199.886305411307
 30
0.0
 10
417.8199907854643
 20
1200.331678849452
 30
0.0
 10
417.9603522281218
 20
1200.762654997098
 30
0.0
 10
418.12211513974
 20
1201.169328212035
 30
0.0
 10
418.3075993437222
 20
1201.55606120206
 30
0.0
 10
418.5111537140663
 20
1201.91212862742
 30
0.0
 10
418.7364823434294
 20
1202.242893535912
 30
0.0
 10
418.9761486464487
 20
1202.537958035718
 30
0.0
 10
419.2349370041355
 20
1202.802579015622
 30
0.0
 10
419.5043581956156
 20
1203.02776854372
 30
0.0
 10
419.7892273537983
 20
1203.217733540883
 30
0.0
 10
420.0813125908772
 20
1203.36548295557
 30
0.0
 10
420.383727494721
 20
1203.474011940972
 30
0.0
 10
420.6899493699397
 20
1203.538223593794
 30
0.0
 10
420.9998488021836
 20
1203.560824878634
 30
0.0
 10
421.3097482344273
 20
1203.538223593805
 30
0.0
 10
421.615970109645
 20
1203.474011940995
 30
0.0
 10
421.9183850134872
 20
1203.365482955604
 30
0.0
 10
422.2104702505638
 20
1203.217733540927
 30
0.0
 10
422.4953394087431
 20
1203.027768543774
 30
0.0
 10
422.7647606002193
 20
1202.802579015686
 30
0.0
 10
423.0235489579011
 20
1202.53795803579
 30
0.0
 10
423.2632152609143
 20
1202.242893535992
 30
0.0
 10
423.4885438902708
 20
1201.912128627509
 30
0.0
 10
423.6920982606066
 20
1201.556061202156
 30
0.0
 10
423.8775824645796
 20
1201.169328212139
 30
0.0
 10
424.039345376187
 20
1200.762654997208
 30
0.0
 10
424.1797068188328
 20
1200.331678849568
 30
0.0
 10
424.2949447731031
 20
1199.886305411427
 30
0.0
 10
424.386194131717
 20
1199.424092547657
 30
0.0
 10
424.4513987933634
 20
1198.953174164948
 30
0.0
 10
424.4909875368454
 20
1198.473642727547
 30
0.0
 10
424.5040725559787
 20
1197.991197657982
 30
0.0
 10
424.490987536782
 20
1197.508752588417
 30
0.0
 10
424.451398793231
 20
1197.029221151014
 30
0.0
 10
424.386194131509
 20
1196.558302768317
 30
0.0
 10
424.2949447727971
 20
1196.096089904507
 30
0.0
 10
424.1797068184388
 20
1195.650716466524
 30
0.0
 10
424.0393453755807
 20
1195.219740318338
 30
0.0
 10
423.8775824640959
 20
1194.813067105414
 30
0.0
 10
423.6920982589311
 20
1194.426334108379
 30
0.0
 10
423.4885438919501
 20
1194.070266708338
 30
0.0
 10
423.2632152498546
 20
1193.739501711947
 30
0.0
 10
423.0235489911288
 20
1193.444437526867
 30
0.0
 10
422.7647604789879
 20
1193.179815459975
 30
0.0
 10
422.4953398383465
 20
1192.954629820976
 30
0.0
 10
422.2104687683072
 20
1192.764651339613
 30
0.0
 10
421.9183904185868
 20
1192.616950518068
 30
0.0
 10
421.6159511814533
 20
1192.508249871247
 30
0.0
 10
421.3098184028664
 20
1192.4446667875
 30
0.0
 10
420.9995932073201
 20
1192.419767296578
 30
0.0
 10
420.795319781269
 20
1192.440415714401
 30
0.0
 10
420.6931830694134
 20
1192.450739918639
 30
0.0
 11
420.6931830694134
 21
1192.450739918639
 31
0.0
 11
420.3856338237769
 21
1192.515361843694
 31
0.0
 11
420.0897580622063
 21
1192.620561802885
 31
0.0
 11
419.7925051340756
 21
1192.770455469858
 31
0.0
 11
419.5153291252179
 21
1192.95422961641
 31
0.0
 11
419.2389666468579
 21
1193.184286727582
 31
0.0
 11
418.9872515714034
 21
1193.440648066243
 31
0.0
 11
418.7408377291467
 21
1193.742813947651
 31
0.0
 11
418.5209981937116
 21
1194.064554415661
 31
0.0
 11
418.3120531460866
 21
1194.428712797958
 31
0.0
 11
418.1302052512656
 21
1194.806959308444
 31
0.0
 11
417.9648038444785
 21
1195.221373534082
 31
0.0
 11
417.8264131300475
 21
1195.6454674908
 31
0.0
 11
417.7091704956953
 21
1196.097110650888
 31
0.0
 11
417.6186756519746
 21
1196.554803759843
 31
0.0
 11
417.5526855905886
 21
1197.029711943594
 31
0.0
 11
417.5132210855254
 21
1197.507528628841
 31
0.0
 11
417.4999999999998
 21
1197.991197667788
 31
0.0
 11
417.5132210855254
 21
1198.474866706735
 31
0.0
 11
417.5526855905886
 21
1198.952683391982
 31
0.0
 11
417.6186756519746
 21
1199.427591575734
 31
0.0
 11
417.7091704956954
 21
1199.885284684689
 31
0.0
 11
417.8264131300475
 21
1200.336927844778
 31
0.0
 11
417.9648038444784
 21
1200.761021801495
 31
0.0
 11
418.1302052512655
 21
1201.175436027132
 31
0.0
 11
418.3120531460867
 21
1201.553682537619
 31
0.0
 11
418.5209981937116
 21
1201.917840919916
 31
0.0
 11
418.7408377291466
 21
1202.239581387926
 31
0.0
 11
418.9872515714033
 21
1202.541747269333
 31
0.0
 11
419.2389666468579
 21
1202.798108607994
 31
0.0
 11
419.5153291252179
 21
1203.028165719166
 31
0.0
 11
419.7925051340756
 21
1203.211939865718
 31
0.0
 11
420.0897580622063
 21
1203.361833532691
 31
0.0
 11
420.3856338237768
 21
1203.467033491883
 31
0.0
 11
420.6931830694134
 21
1203.531655416938
 31
0.0
 11
420.9998488025724
 21
1203.55334653311
 31
0.0
 11
421.3065145357314
 21
1203.531655416938
 31
0.0
 11
421.6140637813679
 21
1203.467033491883
 31
0.0
 11
421.9099395429386
 21
1203.361833532691
 31
0.0
 11
422.2071924710695
 21
1203.211939865718
 31
0.0
 11
422.4843684799272
 21
1203.028165719167
 31
0.0
 11
422.7607309582871
 21
1202.798108607995
 31
0.0
 11
423.0124460337418
 21
1202.541747269334
 31
0.0
 11
423.2588598759985
 21
1202.239581387926
 31
0.0
 11
423.4786994114336
 21
1201.917840919916
 31
0.0
 11
423.6876444590584
 21
1201.553682537619
 31
0.0
 11
423.8694923538795
 21
1201.175436027132
 31
0.0
 11
424.0348937606667
 21
1200.761021801495
 31
0.0
 11
424.1732844750978
 21
1200.336927844778
 31
0.0
 11
424.29052710945
 21
1199.88528468469
 31
0.0
 11
424.3810219531704
 21
1199.427591575734
 31
0.0
 11
424.4470120145561
 21
1198.952683391983
 31
0.0
 11
424.4864765196195
 21
1198.474866706736
 31
0.0
 11
424.4996976051452
 21
1197.991197667788
 31
0.0
 11
424.4864765196195
 21
1197.507528628841
 31
0.0
 11
424.4470120145562
 21
1197.029711943595
 31
0.0
 11
424.3810219531704
 21
1196.554803759843
 31
0.0
 11
424.29052710945
 21
1196.097110650888
 31
0.0
 11
424.1732844750978
 21
1195.6454674908
 31
0.0
 11
424.0348937606667
 21
1195.221373534082
 31
0.0
 11
423.8694923538795
 21
1194.806959308444
 31
0.0
 11
423.6876444590584
 21
1194.428712797958
 31
0.0
 11
423.4786994114336
 21
1194.064554415661
 31
0.0
 11
423.2588598759985
 21
1193.742813947651
 31
0.0
 11
423.0124460337418
 21
1193.440648066243
 31
0.0
 11
422.7607309582871
 21
1193.184286727582
 31
0.0
 11
422.4843684799272
 21
1192.95422961641
 31
0.0
 11
422.2071924710694
 21
1192.770455469858
 31
0.0
 11
421.9099395429387
 21
1192.620561802885
 31
0.0
 11
421.614063781368
 21
1192.515361843694
 31
0.0
 11
421.3065145357314
 21
1192.450739918639
 31
0.0
 11
420.9998488025724
 21
1192.429048802467
 31
0.0
 11
420.6931830694134
 21
1192.450739918639
 31
0.0
  0
ENDBLK
  5
5E
330
5C
100
AcDbEntity
  8
0
100
AcDbBlockEnd
  0
BLOCK
  5
60
330
5F
100
AcDbEntity
  8
0
100
AcDbBlockBegin
  2
36-3-13
 70
     0
 10
959.1063909061843
 20
896.0791858180944
 30
0.0
  3
36-3-13
  1

  0
LINE
  5
219
330
5F
100
AcDbEntity
  8
1
  6
Continuous
 62
     7
100
AcDbLine
 10
433.9999999999999
 20
1195.241060075283
 30
0.0
 11
432.9999999999999
 21
1196.241060075283
 31
0.0
  0
LINE
  5
21A
330
5F
100
AcDbEntity
  8
1
  6
Continuous
 62
     7
100
AcDbLine
 10
431.4999999999999
 20
1196.241060075283
 30
0.0
 11
432.9999999999999
 21
1196.241060075283
 31
0.0
  0
LINE
  5
21B
330
5F
100
AcDbEntity
  8
1
  6
Continuous
 62
     7
100
AcDbLine
 10
432.9999999999999
 20
1186.741060075283
 30
0.0
 11
432.9999999999999
 21
1196.241060075283
 31
0.0
  0
LINE
  5
21C
330
5F
100
AcDbEntity
  8
1
  6
Continuous
 62
     7
100
AcDbLine
 10
433.9999999999999
 20
1195.241060075283
 30
0.0
 11
433.9999999999999
 21
1187.741060075283
 31
0.0
  0
LINE
  5
21D
330
5F
100
AcDbEntity
  8
1
  6
Continuous
 62
     7
100
AcDbLine
 10
432.9999999999999
 20
1186.741060075283
 30
0.0
 11
433.9999999999999
 21
1187.741060075283
 31
0.0
  0
LINE
  5
21E
330
5F
100
AcDbEntity
  8
1
  6
Continuous
 62
     7
100
AcDbLine
 10
431.4999999999999
 20
1186.741060075283
 30
0.0
 11
432.9999999999999
 21
1186.741060075283
 31
0.0
  0
LINE
  5
21F
330
5F
100
AcDbEntity
  8
1
  6
Continuous
 62
     7
100
AcDbLine
 10
547.8095842401765
 20
736.4114610364331
 30
0.0
 11
548.8257653858252
 21
736.4114610364331
 31
0.0
  0
LINE
  5
220
330
5F
100
AcDbEntity
  8
1
  6
Continuous
 62
     7
100
AcDbLine
 10
548.8257653858252
 20
736.4114610364331
 30
0.0
 11
556.1742346141748
 21
736.4114610364331
 31
0.0
  0
LINE
  5
221
330
5F
100
AcDbEntity
  8
1
  6
Continuous
 62
     7
100
AcDbLine
 10
547.8095842401765
 20
734.9114610364331
 30
0.0
 11
548.8257653858252
 21
734.9114610364331
 31
0.0
  0
LINE
  5
222
330
5F
100
AcDbEntity
  8
1
  6
Continuous
 62
     7
100
AcDbLine
 10
548.8257653858252
 20
734.9114610364331
 30
0.0
 11
556.1742346141748
 21
734.9114610364331
 31
0.0
  0
LINE
  5
223
330
5F
100
AcDbEntity
  8
1
  6
Continuous
 62
     7
100
AcDbLine
 10
556.1742346141748
 20
736.4114610364331
 30
0.0
 11
557.1904157598233
 21
736.4114610364331
 31
0.0
  0
LINE
  5
224
330
5F
100
AcDbEntity
  8
1
  6
Continuous
 62
     7
100
AcDbLine
 10
556.1742346141748
 20
734.9114610364331
 30
0.0
 11
557.1904157598233
 21
734.9114610364331
 31
0.0
  0
LINE
  5
225
330
5F
100
AcDbEntity
  8
1
  6
Continuous
 62
     7
100
AcDbLine
 10
431.4999999999999
 20
736.5614610364331
 30
0.0
 11
433.9999999999999
 21
736.5614610364331
 31
0.0
  0
LINE
  5
226
330
5F
100
AcDbEntity
  8
1
  6
Continuous
 62
     7
100
AcDbLine
 10
431.4999999999999
 20
730.9114610364334
 30
0.0
 11
432.9999999999999
 21
730.9114610364334
 31
0.0
  0
LINE
  5
227
330
5F
100
AcDbEntity
  8
1
  6
Continuous
 62
     7
100
AcDbLine
 10
433.9999999999999
 20
739.4114610364331
 30
0.0
 11
432.9999999999999
 21
740.4114610364331
 31
0.0
  0
LINE
  5
228
330
5F
100
AcDbEntity
  8
1
  6
Continuous
 62
     7
100
AcDbLine
 10
433.9999999999999
 20
739.4114610364331
 30
0.0
 11
433.9999999999999
 21
736.5614610364331
 31
0.0
  0
LINE
  5
229
330
5F
100
AcDbEntity
  8
1
  6
Continuous
 62
     7
100
AcDbLine
 10
432.9999999999999
 20
730.9114610364334
 30
0.0
 11
433.9999999999999
 21
731.9114610364334
 31
0.0
  0
LINE
  5
22A
330
5F
100
AcDbEntity
  8
1
  6
Continuous
 62
     7
100
AcDbLine
 10
433.9999999999999
 20
734.761461036433
 30
0.0
 11
433.9999999999999
 21
731.9114610364334
 31
0.0
  0
LINE
  5
22B
330
5F
100
AcDbEntity
  8
1
  6
Continuous
 62
     7
100
AcDbLine
 10
432.9999999999999
 20
740.4114610364331
 30
0.0
 11
431.4999999999999
 21
740.4114610364331
 31
0.0
  0
LINE
  5
22C
330
5F
100
AcDbEntity
  8
1
  6
Continuous
 62
     7
100
AcDbLine
 10
432.9999999999999
 20
734.761461036433
 30
0.0
 11
432.9999999999999
 21
730.9114610364334
 31
0.0
  0
LINE
  5
22D
330
5F
100
AcDbEntity
  8
1
  6
Continuous
 62
     7
100
AcDbLine
 10
433.9999999999999
 20
734.761461036433
 30
0.0
 11
431.4999999999999
 21
734.761461036433
 31
0.0
  0
LINE
  5
22E
330
5F
100
AcDbEntity
  8
1
  6
Continuous
 62
     7
100
AcDbLine
 10
432.9999999999999
 20
736.5614610364331
 30
0.0
 11
432.9999999999999
 21
740.4114610364331
 31
0.0
  0
ARC
  5
22F
330
5F
100
AcDbEntity
  8
1
  6
Continuous
 62
     7
100
AcDbCircle
 10
552.5
 20
735.6614610364331
 30
0.0
 40
3.750000000000025
100
AcDbArc
 50
11.53695903281541
 51
168.4630409671846
  0
ARC
  5
230
330
5F
100
AcDbEntity
  8
1
  6
Continuous
 62
     7
100
AcDbCircle
 10
552.5
 20
735.6614610364331
 30
0.0
 40
3.750000000000025
100
AcDbArc
 50
191.5369590328154
 51
348.4630409671846
  0
ARC
  5
231
330
5F
100
AcDbEntity
  8
1
  6
Continuous
 62
     7
100
AcDbCircle
 10
552.5
 20
735.6614610364331
 30
0.0
 40
4.750000000000078
100
AcDbArc
 50
170.9152797126091
 51
189.0847202873909
  0
ARC
  5
232
330
5F
100
AcDbEntity
  8
1
  6
Continuous
 62
     7
100
AcDbCircle
 10
552.5
 20
735.6614610364331
 30
0.0
 40
4.749999999999853
100
AcDbArc
 50
9.08472028739136
 51
170.9152797126091
  0
ARC
  5
233
330
5F
100
AcDbEntity
  8
1
  6
Continuous
 62
     7
100
AcDbCircle
 10
552.5
 20
735.6614610364331
 30
0.0
 40
4.749999999999853
100
AcDbArc
 50
350.9152797126087
 51
9.08472028739136
  0
ARC
  5
234
330
5F
100
AcDbEntity
  8
1
  6
Continuous
 62
     7
100
AcDbCircle
 10
552.5
 20
735.6614610364331
 30
0.0
 40
4.750000000000078
100
AcDbArc
 50
189.0847202873909
 51
350.9152797126087
  0
ENDBLK
  5
61
330
5F
100
AcDbEntity
  8
0
100
AcDbBlockEnd
  0
BLOCK
  5
262
330
259
100
AcDbEntity
  8
0
100
AcDbBlockBegin
  2
*D10
 70
     1
 10
0.0
 20
0.0
 30
0.0
  3
*D10
  1

  0
LINE
  5
25A
330
259
100
AcDbEntity
  8
0
  6
Continuous
 62
     2
100
AcDbLine
 10
433.9999999999998
 20
647.064022103593
 30
0.0
 11
537.4383868047859
 21
647.064022103593
 31
0.0
  0
LINE
  5
25B
330
259
100
AcDbEntity
  8
0
  6
Continuous
 62
     2
100
AcDbLine
 10
392.4999999999998
 20
647.064022103593
 30
0.0
 11
433.9999999999998
 21
647.064022103593
 31
0.0
  0
LINE
  5
25C
330
259
100
AcDbEntity
  8
0
  6
Continuous
 62
     2
100
AcDbLine
 10
360.9999999999998
 20
647.064022103593
 30
0.0
 11
392.4999999999998
 21
647.064022103593
 31
0.0
  0
LINE
  5
25D
330
259
100
AcDbEntity
  8
0
  6
Continuous
 62
     2
100
AcDbLine
 10
433.9999999999998
 20
731.9114610364334
 30
0.0
 11
433.9999999999998
 21
642.564022103593
 31
0.0
  0
LINE
  5
25E
330
259
100
AcDbEntity
  8
0
  6
Continuous
 62
     2
100
AcDbLine
 10
392.4999999999998
 20
705.6614610364331
 30
0.0
 11
392.4999999999998
 21
642.564022103593
 31
0.0
  0
SOLID
  5
25F
330
259
100
AcDbEntity
  8
0
 62
     2
100
AcDbTrace
 10
376.7499999999998
 20
644.9904952665914
 30
0.0
 11
376.7499999999998
 21
649.1375489405945
 31
0.0
 12
392.4999999999998
 22
647.064022103593
 32
0.0
 13
392.4999999999998
 23
647.064022103593
 33
0.0
  0
SOLID
  5
260
330
259
100
AcDbEntity
  8
0
 62
     2
100
AcDbTrace
 10
449.7499999999998
 20
649.1375489405945
 30
0.0
 11
449.7499999999998
 21
644.9904952665914
 31
0.0
 12
433.9999999999998
 22
647.064022103593
 32
0.0
 13
433.9999999999998
 23
647.064022103593
 33
0.0
  0
MTEXT
  5
261
330
259
100
AcDbEntity
  8
0
 62
     7
100
AcDbMText
 10
452.3883868047859
 20
651.564022103593
 30
0.0
 40
15.75
 41
0.0
 71
     7
 72
     1
  1
42リフト5
  7
CONVERTER_11
 11
0.9999999999970619
 21
2.424068405545306E-6
 31
0.0
 73
     1
 44
0.45454545454545
  0
ENDBLK
  5
263
330
259
100
AcDbEntity
  8
0
100
AcDbBlockEnd
  0
BLOCK
  5
26D
330
266
100
AcDbEntity
  8
0
100
AcDbBlockBegin
  2
*D11
 70
     1
 10
0.0
 20
0.0
 30
0.0
  3
*D11
  1

  0
LINE
  5
267
330
266
100
AcDbEntity
  8
0
  6
Continuous
 62
     2
100
AcDbLine
 10
337.4999999999999
 20
847.8649034879562
 30
0.0
 11
392.4999999999998
 21
847.8649034879562
 31
0.0
  0
LINE
  5
268
330
266
100
AcDbEntity
  8
0
  6
Continuous
 62
     2
100
AcDbLine
 10
337.4999999999999
 20
1111.337911189721
 30
0.0
 11
337.4999999999999
 21
843.3649034879562
 31
0.0
  0
LINE
  5
269
330
266
100
AcDbEntity
  8
0
  6
Continuous
 62
     2
100
AcDbLine
 10
392.4999999999998
 20
906.0000000000003
 30
0.0
 11
392.4999999999998
 21
843.3649034879562
 31
0.0
  0
SOLID
  5
26A
330
266
100
AcDbEntity
  8
0
 62
     2
100
AcDbTrace
 10
353.2499999999999
 20
849.9384303249577
 30
0.0
 11
353.2499999999999
 21
845.7913766509547
 31
0.0
 12
337.4999999999999
 22
847.8649034879562
 32
0.0
 13
337.4999999999999
 23
847.8649034879562
 33
0.0
  0
SOLID
  5
26B
330
266
100
AcDbEntity
  8
0
 62
     2
100
AcDbTrace
 10
376.7499999999998
 20
845.7913766509547
 30
0.0
 11
376.7499999999998
 21
849.9384303249577
 31
0.0
 12
392.4999999999998
 22
847.8649034879562
 32
0.0
 13
392.4999999999998
 23
847.8649034879562
 33
0.0
  0
MTEXT
  5
26C
330
266
100
AcDbEntity
  8
0
 62
     7
100
AcDbMText
 10
351.6373993217019
 20
852.3649034879562
 30
0.0
 40
15.75
 41
0.0
 71
     7
 72
     1
  1
55
  7
CONVERTER_12
 11
0.9999999999970619
 21
2.424068405545306E-6
 31
0.0
 73
     1
 44
0.60024009603842
  0
ENDBLK
  5
26E
330
266
100
AcDbEntity
  8
0
100
AcDbBlockEnd
  0
BLOCK
  5
27A
330
271
100
AcDbEntity
  8
0
100
AcDbBlockBegin
  2
*D12
 70
     1
 10
0.0
 20
0.0
 30
0.0
  3
*D12
  1

  0
LINE
  5
272
330
271
100
AcDbEntity
  8
0
  6
Continuous
 62
     2
100
AcDbLine
 10
292.4999999999999
 20
1129.137911189721
 30
0.0
 11
292.4999999999999
 21
1160.637911189721
 31
0.0
  0
LINE
  5
273
330
271
100
AcDbEntity
  8
0
  6
Continuous
 62
     2
100
AcDbLine
 10
292.4999999999999
 20
1111.337911189721
 30
0.0
 11
292.4999999999999
 21
1129.137911189721
 31
0.0
  0
LINE
  5
274
330
271
100
AcDbEntity
  8
0
  6
Continuous
 62
     2
100
AcDbLine
 10
292.4999999999999
 20
1079.837911189721
 30
0.0
 11
292.4999999999999
 21
1111.337911189721
 31
0.0
  0
LINE
  5
275
330
271
100
AcDbEntity
  8
0
  6
Continuous
 62
     2
100
AcDbLine
 10
337.4999999999999
 20
1111.337911189721
 30
0.0
 11
287.9999999999999
 21
1111.337911189721
 31
0.0
  0
LINE
  5
276
330
271
100
AcDbEntity
  8
0
  6
Continuous
 62
     2
100
AcDbLine
 10
337.4999999999999
 20
1129.137911189721
 30
0.0
 11
287.9999999999999
 21
1129.137911189721
 31
0.0
  0
SOLID
  5
277
330
271
100
AcDbEntity
  8
0
 62
     2
100
AcDbTrace
 10
294.5735268370014
 20
1095.587911189721
 30
0.0
 11
290.4264731629984
 21
1095.587911189721
 31
0.0
 12
292.4999999999999
 22
1111.337911189721
 32
0.0
 13
292.4999999999999
 23
1111.337911189721
 33
0.0
  0
SOLID
  5
278
330
271
100
AcDbEntity
  8
0
 62
     2
100
AcDbTrace
 10
290.4264731629984
 20
1144.887911189721
 30
0.0
 11
294.5735268370015
 21
1144.887911189721
 31
0.0
 12
292.4999999999999
 22
1129.137911189721
 32
0.0
 13
292.4999999999999
 23
1129.137911189721
 33
0.0
  0
MTEXT
  5
279
330
271
100
AcDbEntity
  8
0
 62
     7
100
AcDbMText
 10
286.4249999999999
 20
1097.482711036433
 30
0.0
 40
15.75
 41
0.0
 71
     7
 72
     1
  1
\C7;{\Fgdt;n}\C7;17,8
  7
CONVERTER_12
 11
0.0
 21
1.0
 31
0.0
 73
     1
 44
0.60024009603842
  0
ENDBLK
  5
27B
330
271
100
AcDbEntity
  8
0
100
AcDbBlockEnd
  0
BLOCK
  5
285
330
27E
100
AcDbEntity
  8
0
100
AcDbBlockBegin
  2
*D13
 70
     1
 10
0.0
 20
0.0
 30
0.0
  3
*D13
  1

  0
LINE
  5
27F
330
27E
100
AcDbEntity
  8
0
  6
Continuous
 62
     2
100
AcDbLine
 10
627.4999999999998
 20
735.6614610364331
 30
0.0
 11
627.4999999999998
 21
1120.241461036433
 31
0.0
  0
LINE
  5
280
330
27E
100
AcDbEntity
  8
0
  6
Continuous
 62
     2
100
AcDbLine
 10
568.9999999999999
 20
735.6614610364331
 30
0.0
 11
631.9999999999998
 21
735.6614610364331
 31
0.0
  0
LINE
  5
281
330
27E
100
AcDbEntity
  8
0
  6
Continuous
 62
     2
100
AcDbLine
 10
564.8863203523299
 20
1120.241461036433
 30
0.0
 11
631.9999999999998
 21
1120.241461036433
 31
0.0
  0
SOLID
  5
282
330
27E
100
AcDbEntity
  8
0
 62
     2
100
AcDbTrace
 10
625.4264731629983
 20
751.4114610364331
 30
0.0
 11
629.5735268370013
 21
751.4114610364331
 31
0.0
 12
627.4999999999998
 22
735.6614610364331
 32
0.0
 13
627.4999999999998
 23
735.6614610364331
 33
0.0
  0
SOLID
  5
283
330
27E
100
AcDbEntity
  8
0
 62
     2
100
AcDbTrace
 10
629.5735268370013
 20
1104.491461036433
 30
0.0
 11
625.4264731629983
 21
1104.491461036433
 31
0.0
 12
627.4999999999998
 22
1120.241461036433
 32
0.0
 13
627.4999999999998
 23
1120.241461036433
 33
0.0
  0
MTEXT
  5
284
330
27E
100
AcDbEntity
  8
0
 62
     7
100
AcDbMText
 10
622.9999999999998
 20
909.051461036433
 30
0.0
 40
15.75
 41
0.0
 71
     7
 72
     1
  1
385
  7
CONVERTER_12
 11
0.0
 21
1.0
 31
0.0
 73
     1
 44
0.60024009603842
  0
ENDBLK
  5
286
330
27E
100
AcDbEntity
  8
0
100
AcDbBlockEnd
  0
BLOCK
  5
292
330
289
100
AcDbEntity
  8
0
100
AcDbBlockBegin
  2
*D14
 70
     1
 10
0.0
 20
0.0
 30
0.0
  3
*D14
  1

  0
LINE
  5
28A
330
289
100
AcDbEntity
  8
1
  6
Continuous
 62
     2
100
AcDbLine
 10
341.9914825707514
 20
783.9624262367207
 30
0.0
 11
373.4914825707514
 21
783.9624262367207
 31
0.0
  0
LINE
  5
28B
330
289
100
AcDbEntity
  8
1
  6
Continuous
 62
     2
100
AcDbLine
 10
373.4914825707514
 20
783.9624262367207
 30
0.0
 11
396.4914825707514
 21
783.9624262367207
 31
0.0
  0
LINE
  5
28C
330
289
100
AcDbEntity
  8
1
  6
Continuous
 62
     2
100
AcDbLine
 10
396.4914825707514
 20
783.9624262367207
 30
0.0
 11
427.9914825707514
 21
783.9624262367207
 31
0.0
  0
LINE
  5
28D
330
289
100
AcDbEntity
  8
1
  6
Continuous
 62
     2
100
AcDbLine
 10
403.9999999999999
 20
770.9572925597458
 30
0.0
 11
394.2414825707514
 21
787.8595405537507
 31
0.0
  0
LINE
  5
28E
330
289
100
AcDbEntity
  8
1
  6
Continuous
 62
     2
100
AcDbLine
 10
380.9999999999999
 20
770.9572925597458
 30
0.0
 11
371.2414825707514
 21
787.8595405537507
 31
0.0
  0
SOLID
  5
28F
330
289
100
AcDbEntity
  8
1
 62
     2
100
AcDbTrace
 10
357.7414825707514
 20
781.8888993997192
 30
0.0
 11
357.7414825707514
 21
786.0359530737222
 31
0.0
 12
373.4914825707514
 22
783.9624262367207
 32
0.0
 13
373.4914825707514
 23
783.9624262367207
 33
0.0
  0
SOLID
  5
290
330
289
100
AcDbEntity
  8
1
 62
     2
100
AcDbTrace
 10
412.2414825707514
 20
786.0359530737222
 30
0.0
 11
412.2414825707514
 21
781.8888993997192
 31
0.0
 12
396.4914825707514
 22
783.9624262367207
 32
0.0
 13
396.4914825707514
 23
783.9624262367207
 33
0.0
  0
MTEXT
  5
291
330
289
100
AcDbEntity
  8
1
 62
     7
100
AcDbMText
 10
345.0084311729969
 20
788.4624262367207
 30
0.0
 40
15.75
 41
0.0
 71
     7
 72
     1
  1
23
  7
CONVERTER_12
 11
0.9999999999970619
 21
2.424068405545306E-6
 31
0.0
 73
     1
 44
0.60024009603842
  0
ENDBLK
  5
293
330
289
100
AcDbEntity
  8
0
100
AcDbBlockEnd
  0
BLOCK
  5
29F
330
296
100
AcDbEntity
  8
0
100
AcDbBlockBegin
  2
*D15
 70
     1
 10
0.0
 20
0.0
 30
0.0
  3
*D15
  1

  0
LINE
  5
297
330
296
100
AcDbEntity
  8
1
  6
Continuous
 62
     2
100
AcDbLine
 10
398.85
 20
830.782354007254
 30
0.0
 11
472.272908279167
 21
830.782354007254
 31
0.0
  0
LINE
  5
298
330
296
100
AcDbEntity
  8
1
  6
Continuous
 62
     2
100
AcDbLine
 10
386.1499999999999
 20
830.782354007254
 30
0.0
 11
398.85
 21
830.782354007254
 31
0.0
  0
LINE
  5
299
330
296
100
AcDbEntity
  8
1
  6
Continuous
 62
     2
100
AcDbLine
 10
354.6499999999999
 20
830.782354007254
 30
0.0
 11
386.1499999999999
 21
830.782354007254
 31
0.0
  0
LINE
  5
29A
330
296
100
AcDbEntity
  8
1
  6
Continuous
 62
     2
100
AcDbLine
 10
386.1499999999999
 20
825.4710883460289
 30
0.0
 11
386.1499999999999
 21
835.282354007254
 31
0.0
  0
LINE
  5
29B
330
296
100
AcDbEntity
  8
1
  6
Continuous
 62
     2
100
AcDbLine
 10
398.85
 20
822.0681336021536
 30
0.0
 11
398.85
 21
835.282354007254
 31
0.0
  0
SOLID
  5
29C
330
296
100
AcDbEntity
  8
1
 62
     2
100
AcDbTrace
 10
370.3999999999999
 20
828.7088271702524
 30
0.0
 11
370.3999999999999
 21
832.8558808442555
 31
0.0
 12
386.1499999999999
 22
830.782354007254
 32
0.0
 13
386.1499999999999
 23
830.782354007254
 33
0.0
  0
SOLID
  5
29D
330
296
100
AcDbEntity
  8
1
 62
     2
100
AcDbTrace
 10
414.6
 20
832.8558808442555
 30
0.0
 11
414.6
 21
828.7088271702524
 31
0.0
 12
398.85
 22
830.782354007254
 32
0.0
 13
398.85
 23
830.782354007254
 33
0.0
  0
MTEXT
  5
29E
330
296
100
AcDbEntity
  8
1
 62
     7
100
AcDbMText
 10
420.770408279205
 20
836.8573227004106
 30
0.0
 40
15.75
 41
0.0
 71
     7
 72
     1
  1
\C7;{\Fgdt;n}\C7;12,7
  7
CONVERTER_12
 11
0.9999999999970619
 21
2.424068405545306E-6
 31
0.0
 73
     1
 44
0.60024009603842
  0
ENDBLK
  5
2A0
330
296
100
AcDbEntity
  8
0
100
AcDbBlockEnd
  0
BLOCK
  5
2AC
330
2A3
100
AcDbEntity
  8
0
100
AcDbBlockBegin
  2
*D16
 70
     1
 10
0.0
 20
0.0
 30
0.0
  3
*D16
  1

  0
LINE
  5
2A4
330
2A3
100
AcDbEntity
  8
1
  6
Continuous
 62
     2
100
AcDbLine
 10
517.9065750005049
 20
683.7527698065669
 30
0.0
 11
549.4065750005049
 21
683.7527698065669
 31
0.0
  0
LINE
  5
2A5
330
2A3
100
AcDbEntity
  8
1
  6
Continuous
 62
     2
100
AcDbLine
 10
549.4065750005049
 20
683.7527698065669
 30
0.0
 11
575.4065750005049
 21
683.7527698065669
 31
0.0
  0
LINE
  5
2A6
330
2A3
100
AcDbEntity
  8
1
  6
Continuous
 62
     2
100
AcDbLine
 10
575.4065750005049
 20
683.7527698065669
 30
0.0
 11
614.7538661524309
 21
683.7527698065669
 31
0.0
  0
LINE
  5
2A7
330
2A3
100
AcDbEntity
  8
1
  6
Continuous
 62
     2
100
AcDbLine
 10
565.4999999999999
 20
700.9114610364331
 30
0.0
 11
577.6565750005049
 21
679.855655489537
 31
0.0
  0
LINE
  5
2A8
330
2A3
100
AcDbEntity
  8
1
  6
Continuous
 62
     2
100
AcDbLine
 10
539.4999999999999
 20
700.9114610364331
 30
0.0
 11
551.6565750005049
 21
679.855655489537
 31
0.0
  0
SOLID
  5
2A9
330
2A3
100
AcDbEntity
  8
1
 62
     2
100
AcDbTrace
 10
533.6565750005049
 20
681.6792429695654
 30
0.0
 11
533.6565750005049
 21
685.8262966435684
 31
0.0
 12
549.4065750005049
 22
683.7527698065669
 32
0.0
 13
549.4065750005049
 23
683.7527698065669
 33
0.0
  0
SOLID
  5
2AA
330
2A3
100
AcDbEntity
  8
1
 62
     2
100
AcDbTrace
 10
591.1565750005049
 20
685.8262966435684
 30
0.0
 11
591.1565750005049
 21
681.6792429695654
 31
0.0
 12
575.4065750005049
 22
683.7527698065669
 32
0.0
 13
575.4065750005049
 23
683.7527698065669
 33
0.0
  0
MTEXT
  5
2AB
330
2A3
100
AcDbEntity
  8
1
 62
     7
100
AcDbMText
 10
591.1288661524309
 20
688.2527698065669
 30
0.0
 40
15.75
 41
0.0
 71
     7
 72
     1
  1
26
  7
CONVERTER_12
 11
0.9999999999970619
 21
2.424068405545306E-6
 31
0.0
 73
     1
 44
0.60024009603842
  0
ENDBLK
  5
2AD
330
2A3
100
AcDbEntity
  8
0
100
AcDbBlockEnd
  0
BLOCK
  5
2B9
330
2B0
100
AcDbEntity
  8
0
100
AcDbBlockBegin
  2
*D17
 70
     1
 10
0.0
 20
0.0
 30
0.0
  3
*D17
  1

  0
LINE
  5
2B1
330
2B0
100
AcDbEntity
  8
1
  6
Continuous
 62
     2
100
AcDbLine
 10
477.4999999999999
 20
308.6614610364331
 30
0.0
 11
477.4999999999999
 21
277.1614610364331
 31
0.0
  0
LINE
  5
2B2
330
2B0
100
AcDbEntity
  8
1
  6
Continuous
 62
     2
100
AcDbLine
 10
477.4999999999999
 20
324.6614610364331
 30
0.0
 11
477.4999999999999
 21
308.6614610364331
 31
0.0
  0
LINE
  5
2B3
330
2B0
100
AcDbEntity
  8
1
  6
Continuous
 62
     2
100
AcDbLine
 10
477.4999999999999
 20
356.1614610364331
 30
0.0
 11
477.4999999999999
 21
324.6614610364331
 31
0.0
  0
LINE
  5
2B4
330
2B0
100
AcDbEntity
  8
1
  6
Continuous
 62
     2
100
AcDbLine
 10
540.2958315233127
 20
324.6614610364331
 30
0.0
 11
472.9999999999999
 21
324.6614610364331
 31
0.0
  0
LINE
  5
2B5
330
2B0
100
AcDbEntity
  8
1
  6
Continuous
 62
     2
100
AcDbLine
 10
522.5
 20
308.6614610364331
 30
0.0
 11
472.9999999999999
 21
308.6614610364331
 31
0.0
  0
SOLID
  5
2B6
330
2B0
100
AcDbEntity
  8
1
 62
     2
100
AcDbTrace
 10
475.4264731629984
 20
340.4114610364331
 30
0.0
 11
479.5735268370014
 21
340.4114610364331
 31
0.0
 12
477.4999999999999
 22
324.6614610364331
 32
0.0
 13
477.4999999999999
 23
324.6614610364331
 33
0.0
  0
SOLID
  5
2B7
330
2B0
100
AcDbEntity
  8
1
 62
     2
100
AcDbTrace
 10
479.5735268370013
 20
292.9114610364331
 30
0.0
 11
475.4264731629984
 21
292.9114610364331
 31
0.0
 12
477.4999999999999
 22
308.6614610364331
 32
0.0
 13
477.4999999999999
 23
308.6614610364331
 33
0.0
  0
MTEXT
  5
2B8
330
2B0
100
AcDbEntity
  8
1
 62
     7
100
AcDbMText
 10
472.9999999999999
 20
307.2114610364331
 30
0.0
 40
15.75
 41
0.0
 71
     7
 72
     1
  1
16
  7
CONVERTER_12
 11
0.0
 21
1.0
 31
0.0
 73
     1
 44
0.60024009603842
  0
ENDBLK
  5
2BA
330
2B0
100
AcDbEntity
  8
0
100
AcDbBlockEnd
  0
BLOCK
  5
2C4
330
2BD
100
AcDbEntity
  8
0
100
AcDbBlockBegin
  2
*D18
 70
     1
 10
0.0
 20
0.0
 30
0.0
  3
*D18
  1

  0
LINE
  5
2BE
330
2BD
100
AcDbEntity
  8
1
  6
Continuous
 62
     2
100
AcDbLine
 10
522.5
 20
244.6614610364331
 30
0.0
 11
582.5
 21
244.6614610364331
 31
0.0
  0
LINE
  5
2BF
330
2BD
100
AcDbEntity
  8
1
  6
Continuous
 62
     2
100
AcDbLine
 10
522.5
 20
308.6614610364331
 30
0.0
 11
522.5
 21
240.1614610364331
 31
0.0
  0
LINE
  5
2C0
330
2BD
100
AcDbEntity
  8
1
  6
Continuous
 62
     2
100
AcDbLine
 10
582.5
 20
308.6614610364331
 30
0.0
 11
582.5
 21
240.1614610364331
 31
0.0
  0
SOLID
  5
2C1
330
2BD
100
AcDbEntity
  8
1
 62
     2
100
AcDbTrace
 10
538.25
 20
246.7349878734346
 30
0.0
 11
538.25
 21
242.5879341994316
 31
0.0
 12
522.5
 22
244.6614610364331
 32
0.0
 13
522.5
 23
244.6614610364331
 33
0.0
  0
SOLID
  5
2C2
330
2BD
100
AcDbEntity
  8
1
 62
     2
100
AcDbTrace
 10
566.75
 20
242.5879341994316
 30
0.0
 11
566.75
 21
246.7349878734346
 31
0.0
 12
582.5
 22
244.6614610364331
 32
0.0
 13
582.5
 23
244.6614610364331
 33
0.0
  0
MTEXT
  5
2C3
330
2BD
100
AcDbEntity
  8
1
 62
     7
100
AcDbMText
 10
532.8125
 20
249.1614610364331
 30
0.0
 40
15.75
 41
0.0
 71
     7
 72
     1
  1
{\Fgdt;n}60
  7
CONVERTER_12
 11
0.9999999999970619
 21
2.424068405545306E-6
 31
0.0
 73
     1
 44
0.60024009603842
  0
ENDBLK
  5
2C5
330
2BD
100
AcDbEntity
  8
0
100
AcDbBlockEnd
  0
BLOCK
  5
2CF
330
2C8
100
AcDbEntity
  8
0
100
AcDbBlockBegin
  2
*D19
 70
     1
 10
0.0
 20
0.0
 30
0.0
  3
*D19
  1

  0
LINE
  5
2C9
330
2C8
100
AcDbEntity
  8
1
  6
Continuous
 62
     2
100
AcDbLine
 10
627.4999999999998
 20
735.6614610364331
 30
0.0
 11
627.4999999999998
 21
289.6614610364331
 31
0.0
  0
LINE
  5
2CA
330
2C8
100
AcDbEntity
  8
1
  6
Continuous
 62
     2
100
AcDbLine
 10
561.2431114463714
 20
289.6614610364331
 30
0.0
 11
631.9999999999998
 21
289.6614610364331
 31
0.0
  0
LINE
  5
2CB
330
2C8
100
AcDbEntity
  8
1
  6
Continuous
 62
     2
100
AcDbLine
 10
568.9999999999999
 20
735.6614610364331
 30
0.0
 11
631.9999999999998
 21
735.6614610364331
 31
0.0
  0
SOLID
  5
2CC
330
2C8
100
AcDbEntity
  8
1
 62
     2
100
AcDbTrace
 10
629.5735268370013
 20
719.9114610364331
 30
0.0
 11
625.4264731629983
 21
719.9114610364331
 31
0.0
 12
627.4999999999998
 22
735.6614610364331
 32
0.0
 13
627.4999999999998
 23
735.6614610364331
 33
0.0
  0
SOLID
  5
2CD
330
2C8
100
AcDbEntity
  8
1
 62
     2
100
AcDbTrace
 10
625.4264731629983
 20
305.4114610364331
 30
0.0
 11
629.5735268370013
 21
305.4114610364331
 31
0.0
 12
627.4999999999998
 22
289.6614610364331
 32
0.0
 13
627.4999999999998
 23
289.6614610364331
 33
0.0
  0
MTEXT
  5
2CE
330
2C8
100
AcDbEntity
  8
1
 62
     7
100
AcDbMText
 10
622.9999999999998
 20
503.261461036433
 30
0.0
 40
15.75
 41
0.0
 71
     7
 72
     1
  1
446
  7
CONVERTER_12
 11
0.0
 21
1.0
 31
0.0
 73
     1
 44
0.60024009603842
  0
ENDBLK
  5
2D0
330
2C8
100
AcDbEntity
  8
0
100
AcDbBlockEnd
  0
ENDSEC
  0
SECTION
  2
ENTITIES
  0
INSERT
  5
62
330
1F
100
AcDbEntity
  8
1
100
AcDbBlockReference
  2
開示A4
 10
0.0
 20
0.0
 30
0.0
 41
4.5
 42
4.5
 43
4.5
  0
INSERT
  5
63
330
1F
100
AcDbEntity
  8
0
100
AcDbBlockReference
  2
66-6-55-360
 10
778.345180220794
 20
646.548982381179
 30
0.0
  0
INSERT
  5
64
330
1F
100
AcDbEntity
  8
0
100
AcDbBlockReference
  2
32-12-M2
 10
468.5356166437392
 20
804.7040673785477
 30
0.0
  0
INSERT
  5
65
330
1F
100
AcDbEntity
  8
1
100
AcDbBlockReference
  2
V21-2-0A
 10
244.7691410709855
 20
1055.0
 30
0.0
  0
INSERT
  5
66
330
1F
100
AcDbEntity
  8
0
100
AcDbBlockReference
  2
78-167
 10
444.2175746076947
 20
1048.827422926999
 30
0.0
  0
INSERT
  5
67
330
1F
100
AcDbEntity
  8
1
100
AcDbBlockReference
  2
64-7-13-420-M11
 10
180.0932952296897
 20
1825.736442941382
 30
0.0
  0
INSERT
  5
68
330
1F
100
AcDbEntity
  8
1
100
AcDbBlockReference
  2
V21-2-0A-13-M1
 10
454.7691410709855
 20
1352.0
 30
0.0
  0
INSERT
  5
69
330
1F
100
AcDbEntity
  8
0
100
AcDbBlockReference
  2
37-1-13
 10
275.0042941098554
 20
835.4626912532042
 30
0.0
  0
INSERT
  5
6A
330
1F
100
AcDbEntity
  8
0
100
AcDbBlockReference
  2
36-3-13
 10
959.1063909061843
 20
896.0791858180944
 30
0.0
  0
LINE
  5
235
330
1F
100
AcDbEntity
  8
1
  6
DASH_CENTER
 62
     2
100
AcDbLine
 10
392.4999999999998
 20
905.9999999999999
 30
0.0
 11
392.4999999999999
 21
765.6658730855919
 31
0.0
  0
LINE
  5
236
330
1F
100
AcDbEntity
  8
1
  6
Continuous
 62
     7
100
AcDbLine
 10
440.1474221678556
 20
802.2779724888298
 30
0.0
 11
436.7565183409035
 21
792.9615407928525
 31
0.0
  0
LINE
  5
237
330
1F
100
AcDbEntity
  8
1
  6
Continuous
 62
     7
100
AcDbLine
 10
443.538325994733
 20
792.9615407928525
 30
0.0
 11
440.1474221678556
 21
802.2779724888298
 31
0.0
  0
LINE
  5
238
330
1F
100
AcDbEntity
  8
1
  6
Continuous
 62
     7
100
AcDbLine
 10
438.5474221678555
 20
794.5049298528096
 30
0.0
 11
438.5474221678555
 21
786.7301283445655
 31
0.0
  0
LINE
  5
239
330
1F
100
AcDbEntity
  8
1
  6
Continuous
 62
     7
100
AcDbLine
 10
436.7565183409035
 20
792.9615407928525
 30
0.0
 11
438.5474221678555
 21
794.5049298528096
 31
0.0
  0
LINE
  5
23A
330
1F
100
AcDbEntity
  8
1
  6
Continuous
 62
     7
100
AcDbLine
 10
441.7474221678556
 20
794.5049298528096
 30
0.0
 11
443.538325994733
 21
792.9615407928525
 31
0.0
  0
LINE
  5
23B
330
1F
100
AcDbEntity
  8
1
  6
Continuous
 62
     7
100
AcDbLine
 10
438.5474221678555
 20
786.7301283445655
 30
0.0
 11
441.7474221678556
 21
786.7301283445655
 31
0.0
  0
LINE
  5
23C
330
1F
100
AcDbEntity
  8
1
  6
Continuous
 62
     7
100
AcDbLine
 10
441.7474221678556
 20
786.7301283445655
 30
0.0
 11
441.7474221678556
 21
794.5049298528096
 31
0.0
  0
LINE
  5
23D
330
1F
100
AcDbEntity
  8
1
  6
DASH_CENTER
 62
     2
100
AcDbLine
 10
392.4999999999999
 20
1080.241461036433
 30
0.0
 11
392.4999999999998
 21
905.9999999999999
 31
0.0
  0
LINE
  5
23E
330
1F
100
AcDbEntity
  8
0
  6
DASH_CENTER
 62
     2
100
AcDbLine
 10
539.8863203523299
 20
1120.241461036433
 30
0.0
 11
564.8863203523299
 21
1120.241461036433
 31
0.0
  0
LINE
  5
23F
330
1F
100
AcDbEntity
  8
1
  6
DASH_CENTER
 62
     2
100
AcDbLine
 10
352.4999999999999
 20
1120.241461036433
 30
0.0
 11
335.599898934845
 21
1120.241461036433
 31
0.0
  0
LINE
  5
240
330
1F
100
AcDbEntity
  8
1
  6
DASH_CENTER
 62
     2
100
AcDbLine
 10
416.5005546834925
 20
735.6614610364331
 30
0.0
 11
438.1768819248256
 21
735.6614610364331
 31
0.0
  0
LINE
  5
241
330
1F
100
AcDbEntity
  8
1
  6
DASH_CENTER
 62
     2
100
AcDbLine
 10
376.9095477822907
 20
735.6614610364331
 30
0.0
 11
392.4999999999999
 21
735.6614610364331
 31
0.0
  0
LINE
  5
242
330
1F
100
AcDbEntity
  8
0
  6
DASH_CENTER
 62
     2
100
AcDbLine
 10
552.4999999999999
 20
1133.197857846459
 30
0.0
 11
552.4999999999999
 21
276.1614610364331
 31
0.0
  0
LINE
  5
243
330
1F
100
AcDbEntity
  8
1
  6
DASH_CENTER
 62
     2
100
AcDbLine
 10
392.4999999999999
 20
276.1614610364331
 30
0.0
 11
392.4999999999999
 21
705.6614610364331
 31
0.0
  0
LINE
  5
244
330
1F
100
AcDbEntity
  8
1
  6
DASH_CENTER
 62
     2
100
AcDbLine
 10
534.4999999999999
 20
735.6614610364331
 30
0.0
 11
568.9999999999999
 21
735.6614610364331
 31
0.0
  0
LINE
  5
245
330
1F
100
AcDbEntity
  8
1
  6
DASH_CENTER
 62
     2
100
AcDbLine
 10
392.4999999999999
 20
705.6614610364331
 30
0.0
 11
392.4999999999999
 21
735.6614610364331
 31
0.0
  0
LINE
  5
246
330
1F
100
AcDbEntity
  8
1
  6
DASH_CENTER
 62
     2
100
AcDbLine
 10
392.4999999999999
 20
735.6614610364331
 30
0.0
 11
416.5005546834925
 21
735.6614610364331
 31
0.0
  0
LINE
  5
247
330
1F
100
AcDbEntity
  8
1
  6
DASH_CENTER
 62
     2
100
AcDbLine
 10
392.4999999999999
 20
735.6614610364331
 30
0.0
 11
392.4999999999999
 21
765.6658730855919
 31
0.0
  0
LINE
  5
248
330
1F
100
AcDbEntity
  8
1
  6
DASH_CENTER
 62
     2
100
AcDbLine
 10
392.4999999999997
 20
1227.491060075283
 30
0.0
 11
392.4999999999997
 21
1155.491060075283
 31
0.0
  0
LINE
  5
249
330
1F
100
AcDbEntity
  8
1
  6
DASH_CENTER
 62
     2
100
AcDbLine
 10
331.4999999999997
 20
1191.491060075283
 30
0.0
 11
438.9999999999999
 21
1191.491060075283
 31
0.0
  0
ARC
  5
24A
330
1F
100
AcDbEntity
  8
1
  6
DASH_CENTER
 62
     2
100
AcDbCircle
 10
352.4999999999999
 20
1080.241461036433
 30
0.0
 40
40.0
100
AcDbArc
 50
0.0
 51
90.0
  0
CIRCLE
  5
24B
102
{ACAD_REACTORS
330
24C
102
}
330
1F
100
AcDbEntity
  8
0
 62
     2
100
AcDbCircle
 10
404.2973665791716
 20
735.6614610364331
 30
0.0
 40
4.050000000000002
  0
HATCH
  5
24C
330
1F
100
AcDbEntity
  8
0
 62
     2
100
AcDbHatch
 10
0.0
 20
0.0
 30
0.0
210
0.0
220
0.0
230
1.0
  2
SOLID
 70
     1
 71
     1
 91
        1
 92
        1
 93
        1
 72
     2
 10
404.2973665791716
 20
735.6614610364331
 40
4.050000000000002
 50
0.0
 51
360.0
 73
     1
 97
        1
330
24B
 75
     0
 76
     1
 98
        0
  0
LEADER
  5
24D
330
1F
100
AcDbEntity
  8
0
  6
Continuous
 62
     2
100
AcDbLeader
  3
Standard
 71
     0
 76
     3
 10
404.2973665791716
 20
735.6614610364331
 30
0.0
 10
432.3782478556665
 20
784.2989741286319
 30
0.0
 10
447.9165964800446
 20
784.2989741286319
 30
0.0
  0
SOLID
  5
24E
330
1F
100
AcDbEntity
  8
1
 62
     2
100
AcDbTrace
 10
412.3006191705769
 20
284.3968633088959
 30
0.0
 11
408.7091653380327
 21
282.3233364718944
 31
0.0
 12
402.6298922543047
 22
297.0
 32
0.0
 13
402.6298922543047
 23
297.0
 33
0.0
  0
LEADER
  5
24F
330
1F
100
AcDbEntity
  8
1
  6
Continuous
 62
     2
100
AcDbLeader
  3
Standard
 71
     0
 76
     3
 10
402.6298922543047
 20
297.0
 30
0.0
 10
432.8475618139118
 20
244.6614610364331
 30
0.0
 10
486.0189482550743
 20
244.6614610364331
 30
0.0
  0
MTEXT
  5
251
330
1F
100
AcDbEntity
  8
1
 62
     7
100
AcDbMText
 10
152.9999999999999
 20
163.0000000000001
 30
0.0
 40
15.75
 41
0.0
 71
     4
 72
     1
  1
JIS
  7
CONVERTER_12
 73
     1
 44
1.32052821128451
  0
MTEXT
  5
252
330
1F
100
AcDbEntity
  8
1
 62
     7
100
AcDbMText
 10
256.4999999999999
 20
64.125
 30
0.0
 40
15.75
 41
0.0
 71
     5
 72
     1
  1
V213JD-13
  7
CONVERTER_12
 73
     1
 44
0.90036014405762
  0
MTEXT
  5
253
330
1F
100
AcDbEntity
  8
0
 62
     7
100
AcDbMText
 10
383.6249999999999
 20
76.5
 30
0.0
 40
15.75
 41
0.0
 71
     5
 72
     1
  1
1
  7
CONVERTER_12
 73
     1
 44
0.7202881152461
  0
MTEXT
  5
254
330
1F
100
AcDbEntity
  8
0
 62
     7
100
AcDbMText
 10
421.8749999999999
 20
76.5
 30
0.0
 40
15.75
 41
0.0
 71
     5
 72
     1
  1
4,5
  7
CONVERTER_12
 73
     1
 44
0.7202881152461
  0
MTEXT
  5
255
330
1F
100
AcDbEntity
  8
0
 62
     7
100
AcDbMText
 10
458.4332550344931
 20
258.161461036433
 30
0.0
 40
15.75
 41
0.0
 71
     5
 72
     1
  1
R1/2
  7
CONVERTER_12
 73
     1
 44
1.32052821128451
  0
MTEXT
  5
256
330
1F
100
AcDbEntity
  8
1
 62
     7
100
AcDbMText
 10
256.4999999999999
 20
111.375
 30
0.0
 40
15.75
 41
0.0
 71
     5
 72
     1
  1
D式L管付ストレート形
  7
CONVERTER_11
 73
     1
 44
0.54545454545455
  0
MTEXT
  5
257
330
1F
100
AcDbEntity
  8
1
 62
     7
100
AcDbMText
 10
256.4999999999999
 20
93.37500000000003
 30
0.0
 40
15.75
 41
0.0
 71
     5
 72
     1
  1
止水栓
  7
CONVERTER_11
 73
     1
 44
0.54545454545455
  0
MTEXT
  5
258
330
1F
100
AcDbEntity
  8
1
 62
     7
100
AcDbMText
 10
152.9999999999999
 20
143.0000000000001
 30
0.0
 40
15.75
 41
0.0
 71
     4
 72
     1
  1
共用形
  7
CONVERTER_11
 73
     1
 44
0.54545454545455
  0
DIMENSION
  5
265
330
1F
100
AcDbEntity
  8
0
100
AcDbDimension
  2
*D10
 10
392.4999999999998
 20
647.064022103593
 30
0.0
 11
494.9133868047859
 21
659.439022103593
 31
0.0
 70
    32
  1
42リフト5
 71
     5
 42
-1.0
 53
0.00013888888889
  3
ME10_DIM_10
100
AcDbAlignedDimension
 13
433.9999999999999
 23
731.9114610364334
 33
0.0
 14
392.4999999999999
 24
705.6614610364331
 34
0.0
100
AcDbRotatedDimension
  0
DIMENSION
  5
270
330
1F
100
AcDbEntity
  8
0
100
AcDbDimension
  2
*D11
 10
337.4999999999999
 20
847.8649034879562
 30
0.0
 11
363.4498993217019
 21
860.2399034879562
 31
0.0
 70
    32
  1
<>
 71
     5
 42
-1.0
 53
0.00013888888889
  3
ME10_DIM_11
100
AcDbAlignedDimension
 13
392.4999999999998
 23
905.9999999999999
 33
0.0
 14
337.4999999999999
 24
1111.337911189721
 34
0.0
100
AcDbRotatedDimension
  0
DIMENSION
  5
27D
330
1F
100
AcDbEntity
  8
0
100
AcDbDimension
  2
*D12
 10
292.4999999999999
 20
1111.337911189721
 30
0.0
 11
279.3374999999999
 21
1120.241461036433
 31
0.0
 70
    33
  1
<>
 71
     5
 42
-1.0
 53
90.0
  3
ME10_DIM_12
100
AcDbAlignedDimension
 13
337.4999999999999
 23
1129.137911189721
 33
0.0
 14
337.4999999999999
 24
1111.337911189721
 34
0.0
  0
DIMENSION
  5
288
330
1F
100
AcDbEntity
  8
0
100
AcDbDimension
  2
*D13
 10
627.4999999999998
 20
735.6614610364331
 30
0.0
 11
615.1249999999998
 21
927.951461036433
 31
0.0
 70
    32
  1
385
 71
     5
 42
-1.0
 53
90.0
  3
ME10_DIM_13
100
AcDbAlignedDimension
 13
564.8863203523299
 23
1120.241461036433
 33
0.0
 14
568.9999999999999
 24
735.6614610364331
 34
0.0
 50
90.0
100
AcDbRotatedDimension
  0
DIMENSION
  5
295
330
1F
100
AcDbEntity
  8
1
100
AcDbDimension
  2
*D14
 10
373.4914825707514
 20
783.9624262367207
 30
0.0
 11
356.8209311729969
 21
796.3374262367207
 31
0.0
 70
    33
  1
<>
 71
     5
 42
-1.0
 52
120.0
 53
0.00013888888889
  3
ME10_DIM_14
100
AcDbAlignedDimension
 13
403.9999999999998
 23
770.9572925597458
 33
0.0
 14
380.9999999999999
 24
770.9572925597458
 34
0.0
  0
DIMENSION
  5
2A2
330
1F
100
AcDbEntity
  8
1
100
AcDbDimension
  2
*D15
 10
386.1499999999999
 20
830.782354007254
 30
0.0
 11
443.529158279167
 21
843.944854007254
 31
0.0
 70
    32
  1
<>
 71
     5
 42
-1.0
 53
0.00013888888889
  3
ME10_DIM_15
100
AcDbAlignedDimension
 13
398.8499999999999
 23
822.0681336021536
 33
0.0
 14
386.1499999999997
 24
825.4710883460289
 34
0.0
100
AcDbRotatedDimension
  0
DIMENSION
  5
2AF
330
1F
100
AcDbEntity
  8
1
100
AcDbDimension
  2
*D16
 10
549.4065750005049
 20
683.7527698065669
 30
0.0
 11
602.9413661524309
 21
696.1277698065669
 31
0.0
 70
    33
  1
<>
 71
     5
 42
-1.0
 52
120.0
 53
0.00013888888889
  3
ME10_DIM_16
100
AcDbAlignedDimension
 13
565.4999999999998
 23
700.9114610364331
 33
0.0
 14
539.4999999999999
 24
700.9114610364331
 34
0.0
  0
DIMENSION
  5
2BC
330
1F
100
AcDbEntity
  8
1
100
AcDbDimension
  2
*D17
 10
477.4999999999999
 20
324.6614610364331
 30
0.0
 11
465.1249999999999
 21
316.6614610364331
 31
0.0
 70
    32
  1
<>
 71
     5
 42
-1.0
 53
90.0
  3
ME10_DIM_17
100
AcDbAlignedDimension
 13
522.5
 23
308.661461036433
 33
0.0
 14
540.2958315233127
 24
324.6614610364332
 34
0.0
 50
90.0
100
AcDbRotatedDimension
  0
DIMENSION
  5
2C7
330
1F
100
AcDbEntity
  8
1
100
AcDbDimension
  2
*D18
 10
522.5
 20
244.6614610364331
 30
0.0
 11
552.5
 21
257.0364610364331
 31
0.0
 70
    32
  1
60
 71
     5
 42
-1.0
 53
0.00013888888889
  3
ME10_DIM_18
100
AcDbAlignedDimension
 13
582.4999999999999
 23
308.661461036433
 33
0.0
 14
522.5
 24
308.661461036433
 34
0.0
100
AcDbRotatedDimension
  0
DIMENSION
  5
2D2
330
1F
100
AcDbEntity
  8
1
100
AcDbDimension
  2
*D19
 10
627.4999999999998
 20
735.6614610364331
 30
0.0
 11
615.1249999999998
 21
522.161461036433
 31
0.0
 70
    32
  1
<>
 71
     5
 42
-1.0
 53
90.0
  3
ME10_DIM_19
100
AcDbAlignedDimension
 13
561.2431114463714
 23
289.6614610364331
 33
0.0
 14
568.9999999999999
 24
735.6614610364331
 34
0.0
 50
90.0
100
AcDbRotatedDimension
  0
ENDSEC
  0
SECTION
  2
OBJECTS
  0
DICTIONARY
  5
C
330
0
100
AcDbDictionary
281
     1
  3
ACAD_GROUP
350
D
  3
ACAD_LAYOUT
350
1A
  3
ACAD_MATERIAL
350
3B
  3
ACAD_MLEADERSTYLE
350
2D5
  3
ACAD_MLINESTYLE
350
17
  3
ACAD_PLOTSETTINGS
350
19
  3
ACAD_PLOTSTYLENAME
350
E
  3
ACAD_VISUALSTYLE
350
2A
  3
AcDbVariableDictionary
350
2D3
  0
DICTIONARY
  5
D
102
{ACAD_REACTORS
330
C
102
}
330
C
100
AcDbDictionary
281
     1
  0
DICTIONARY
  5
1A
102
{ACAD_REACTORS
330
C
102
}
330
C
100
AcDbDictionary
281
     1
  3
Layout1
350
1E
  3
Layout2
350
26
  3
Model
350
22
  0
DICTIONARY
  5
3B
102
{ACAD_REACTORS
330
C
102
}
330
C
100
AcDbDictionary
281
     1
  3
ByBlock
350
3D
  3
ByLayer
350
3C
  3
Global
350
3E
  0
DICTIONARY
  5
2D5
102
{ACAD_REACTORS
330
C
102
}
330
C
100
AcDbDictionary
281
     1
  0
DICTIONARY
  5
17
102
{ACAD_REACTORS
330
C
102
}
330
C
100
AcDbDictionary
281
     1
  3
Standard
350
18
  0
DICTIONARY
  5
19
102
{ACAD_REACTORS
330
C
102
}
330
C
100
AcDbDictionary
281
     1
  0
ACDBDICTIONARYWDFLT
  5
E
102
{ACAD_REACTORS
330
C
102
}
330
C
100
AcDbDictionary
281
     1
  3
Normal
350
F
100
AcDbDictionaryWithDefault
340
F
  0
DICTIONARY
  5
2A
102
{ACAD_REACTORS
330
C
102
}
330
C
100
AcDbDictionary
281
     1
  3
2dWireframe
350
2F
  3
3D Hidden
350
31
  3
3dWireframe
350
30
  3
Basic
350
32
  3
Brighten
350
36
  3
ColorChange
350
3A
  3
Conceptual
350
34
  3
Dim
350
35
  3
Facepattern
350
39
  3
Flat
350
2B
  3
FlatWithEdges
350
2C
  3
Gouraud
350
2D
  3
GouraudWithEdges
350
2E
  3
Linepattern
350
38
  3
Realistic
350
33
  3
Thicken
350
37
  0
DICTIONARY
  5
2D3
102
{ACAD_REACTORS
330
C
102
}
330
C
100
AcDbDictionary
281
     1
  3
DIMASSOC
350
2D6
  3
HIDETEXT
350
2D7
  0
LAYOUT
  5
1E
102
{ACAD_REACTORS
330
1A
102
}
330
1A
100
AcDbPlotSettings
  1

  2
none_device
  4

  6

 40
0.0
 41
0.0
 42
0.0
 43
0.0
 44
0.0
 45
0.0
 46
0.0
 47
0.0
 48
0.0
 49
0.0
140
0.0
141
0.0
142
1.0
143
1.0
 70
   688
 72
     0
 73
     0
 74
     5
  7

 75
    16
147
1.0
148
0.0
149
0.0
100
AcDbLayout
  1
Layout1
 70
     1
 71
     1
 10
0.0
 20
0.0
 11
12.0
 21
9.0
 12
0.0
 22
0.0
 32
0.0
 14
1.00000000000000E+20
 24
1.00000000000000E+20
 34
1.00000000000000E+20
 15
-1.00000000000000E+20
 25
-1.00000000000000E+20
 35
-1.00000000000000E+20
146
0.0
 13
0.0
 23
0.0
 33
0.0
 16
1.0
 26
0.0
 36
0.0
 17
0.0
 27
1.0
 37
0.0
 76
     0
330
1B
  0
LAYOUT
  5
26
102
{ACAD_REACTORS
330
1A
102
}
330
1A
100
AcDbPlotSettings
  1

  2
none_device
  4

  6

 40
0.0
 41
0.0
 42
0.0
 43
0.0
 44
0.0
 45
0.0
 46
0.0
 47
0.0
 48
0.0
 49
0.0
140
0.0
141
0.0
142
1.0
143
1.0
 70
   688
 72
     0
 73
     0
 74
     5
  7

 75
    16
147
1.0
148
0.0
149
0.0
100
AcDbLayout
  1
Layout2
 70
     1
 71
     2
 10
0.0
 20
0.0
 11
0.0
 21
0.0
 12
0.0
 22
0.0
 32
0.0
 14
0.0
 24
0.0
 34
0.0
 15
0.0
 25
0.0
 35
0.0
146
0.0
 13
0.0
 23
0.0
 33
0.0
 16
1.0
 26
0.0
 36
0.0
 17
0.0
 27
1.0
 37
0.0
 76
     0
330
23
  0
LAYOUT
  5
22
102
{ACAD_REACTORS
330
1A
102
}
330
1A
100
AcDbPlotSettings
  1

  2
none_device
  4

  6

 40
0.0
 41
0.0
 42
0.0
 43
0.0
 44
0.0
 45
0.0
 46
0.0
 47
0.0
 48
0.0
 49
0.0
140
0.0
141
0.0
142
1.0
143
1.0
 70
  1712
 72
     0
 73
     0
 74
     0
  7

 75
     0
147
1.0
148
0.0
149
0.0
100
AcDbLayout
  1
Model
 70
     1
 71
     0
 10
0.0
 20
0.0
 11
12.0
 21
9.0
 12
0.0
 22
0.0
 32
0.0
 14
0.0
 24
0.0
 34
0.0
 15
945.0
 25
1336.5
 35
0.0
146
0.0
 13
0.0
 23
0.0
 33
0.0
 16
1.0
 26
0.0
 36
0.0
 17
0.0
 27
1.0
 37
0.0
 76
     0
330
1F
331
29
  0
MATERIAL
  5
3D
102
{ACAD_REACTORS
330
3B
102
}
102
{ACAD_XDICTIONARY
360
2FA
102
}
330
3B
100
AcDbMaterial
  1
ByBlock
  0
MATERIAL
  5
3C
102
{ACAD_REACTORS
330
3B
102
}
102
{ACAD_XDICTIONARY
360
2F8
102
}
330
3B
100
AcDbMaterial
  1
ByLayer
  0
MATERIAL
  5
3E
102
{ACAD_REACTORS
330
3B
102
}
102
{ACAD_XDICTIONARY
360
2FC
102
}
330
3B
100
AcDbMaterial
  1
Global
  0
MLINESTYLE
  5
18
102
{ACAD_REACTORS
330
17
102
}
330
17
100
AcDbMlineStyle
  2
Standard
 70
     0
  3

 62
   256
 51
90.0
 52
90.0
 71
     2
 49
0.5
 62
   256
  6
BYLAYER
 49
-0.5
 62
   256
  6
BYLAYER
  0
ACDBPLACEHOLDER
  5
F
102
{ACAD_REACTORS
330
E
102
}
330
E
  0
VISUALSTYLE
  5
2F
102
{ACAD_REACTORS
330
2A
102
}
102
{ACAD_XDICTIONARY
360
2E0
102
}
330
2A
100
AcDbVisualStyle
  2
2dWireframe
 70
     4
 71
     0
 72
     2
 73
     0
 90
        0
 40
-0.6
 41
-30.0
 62
     5
 63
     7
 74
     1
 91
        4
 64
     7
 65
   257
 75
     1
175
     1
 42
1.0
 92
        0
 66
   257
 43
1.0
 76
     1
 77
     6
 78
     2
 67
     7
 79
     5
170
     0
171
     0
290
     0
174
     0
 93
        1
 44
0.0
173
     0
291
     0
 45
0.0
1001
ACAD
1000
AcDbSavedByObjectVersion
1070
     0
  0
VISUALSTYLE
  5
31
102
{ACAD_REACTORS
330
2A
102
}
102
{ACAD_XDICTIONARY
360
2E4
102
}
330
2A
100
AcDbVisualStyle
  2
3D Hidden
 70
     6
 71
     1
 72
     2
 73
     2
 90
        0
 40
-0.6
 41
-30.0
 62
     5
 63
     7
 74
     2
 91
        2
 64
     7
 65
   257
 75
     2
175
     1
 42
40.0
 92
        0
 66
   257
 43
1.0
 76
     1
 77
     6
 78
     2
 67
     7
 79
     3
170
     0
171
     0
290
     0
174
     0
 93
        1
 44
0.0
173
     0
291
     0
 45
0.0
1001
ACAD
1000
AcDbSavedByObjectVersion
1070
     0
  0
VISUALSTYLE
  5
30
102
{ACAD_REACTORS
330
2A
102
}
102
{ACAD_XDICTIONARY
360
2E2
102
}
330
2A
100
AcDbVisualStyle
  2
3dWireframe
 70
     5
 71
     0
 72
     2
 73
     0
 90
        0
 40
-0.6
 41
-30.0
 62
     5
 63
     7
 74
     1
 91
        4
 64
     7
 65
   257
 75
     1
175
     1
 42
1.0
 92
        0
 66
   257
 43
1.0
 76
     1
 77
     6
 78
     2
 67
     7
 79
     5
170
     0
171
     0
290
     0
174
     0
 93
        1
 44
0.0
173
     0
291
     0
 45
0.0
1001
ACAD
1000
AcDbSavedByObjectVersion
1070
     0
  0
VISUALSTYLE
  5
32
102
{ACAD_REACTORS
330
2A
102
}
102
{ACAD_XDICTIONARY
360
2E6
102
}
330
2A
100
AcDbVisualStyle
  2
Basic
 70
     7
 71
     1
 72
     0
 73
     1
 90
        0
 40
-0.6
 41
-30.0
 62
     5
 63
     7
 74
     0
 91
        4
 64
     7
 65
   257
 75
     1
175
     1
 42
1.0
 92
        8
 66
     7
 43
1.0
 76
     1
 77
     6
 78
     2
 67
     7
 79
     5
170
     0
171
     0
290
     0
174
     0
 93
        1
 44
0.0
173
     0
291
     1
 45
0.0
1001
ACAD
1000
AcDbSavedByObjectVersion
1070
     0
  0
VISUALSTYLE
  5
36
102
{ACAD_REACTORS
330
2A
102
}
102
{ACAD_XDICTIONARY
360
2EE
102
}
330
2A
100
AcDbVisualStyle
  2
Brighten
 70
    12
 71
     2
 72
     2
 73
     0
 90
        0
 40
-0.6
 41
-30.0
 62
     5
 63
     7
 74
     1
 91
        4
 64
     7
 65
   257
 75
     1
175
     1
 42
1.0
 92
        8
 66
     7
 43
1.0
 76
     1
 77
     6
 78
     2
 67
     7
 79
     5
170
     0
171
     0
290
     0
174
     0
 93
        1
 44
50.0
173
     0
291
     1
 45
0.0
1001
ACAD
1000
AcDbSavedByObjectVersion
1070
     0
  0
VISUALSTYLE
  5
3A
102
{ACAD_REACTORS
330
2A
102
}
102
{ACAD_XDICTIONARY
360
2F6
102
}
330
2A
100
AcDbVisualStyle
  2
ColorChange
 70
    16
 71
     2
 72
     2
 73
     3
 90
        0
 40
-0.6
 41
-30.0
 62
     5
 63
     8
 74
     1
 91
        4
 64
     7
 65
   257
 75
     1
175
     1
 42
1.0
 92
        8
 66
     8
 43
1.0
 76
     1
 77
     6
 78
     2
 67
     7
 79
     5
170
     0
171
     0
290
     0
174
     0
 93
        1
 44
0.0
173
     0
291
     1
 45
0.0
1001
ACAD
1000
AcDbSavedByObjectVersion
1070
     0
  0
VISUALSTYLE
  5
34
102
{ACAD_REACTORS
330
2A
102
}
102
{ACAD_XDICTIONARY
360
2EA
102
}
330
2A
100
AcDbVisualStyle
  2
Conceptual
 70
     9
 71
     3
 72
     2
 73
     0
 90
        0
 40
-0.6
 41
-30.0
 62
     5
 63
     7
 74
     2
 91
        2
 64
     7
 65
   257
 75
     1
175
     1
 42
40.0
 92
        8
 66
     7
 43
1.0
 76
     1
 77
     6
 78
     2
 67
     7
 79
     3
170
     0
171
     0
290
     0
174
     0
 93
        1
 44
0.0
173
     0
291
     0
 45
0.0
1001
ACAD
1000
AcDbSavedByObjectVersion
1070
     0
  0
VISUALSTYLE
  5
35
102
{ACAD_REACTORS
330
2A
102
}
102
{ACAD_XDICTIONARY
360
2EC
102
}
330
2A
100
AcDbVisualStyle
  2
Dim
 70
    11
 71
     2
 72
     2
 73
     0
 90
        0
 40
-0.6
 41
-30.0
 62
     5
 63
     7
 74
     1
 91
        4
 64
     7
 65
   257
 75
     1
175
     1
 42
1.0
 92
        8
 66
     7
 43
1.0
 76
     1
 77
     6
 78
     2
 67
     7
 79
     5
170
     0
171
     0
290
     0
174
     0
 93
        1
 44
-50.0
173
     0
291
     1
 45
0.0
1001
ACAD
1000
AcDbSavedByObjectVersion
1070
     0
  0
VISUALSTYLE
  5
39
102
{ACAD_REACTORS
330
2A
102
}
102
{ACAD_XDICTIONARY
360
2F4
102
}
330
2A
100
AcDbVisualStyle
  2
Facepattern
 70
    15
 71
     2
 72
     2
 73
     0
 90
        0
 40
-0.6
 41
-30.0
 62
     5
 63
     7
 74
     1
 91
        4
 64
     7
 65
   257
 75
     1
175
     1
 42
1.0
 92
        8
 66
     7
 43
1.0
 76
     1
 77
     6
 78
     2
 67
     7
 79
     5
170
     0
171
     0
290
     0
174
     0
 93
        1
 44
0.0
173
     0
291
     1
 45
0.0
1001
ACAD
1000
AcDbSavedByObjectVersion
1070
     0
  0
VISUALSTYLE
  5
2B
102
{ACAD_REACTORS
330
2A
102
}
102
{ACAD_XDICTIONARY
360
2D8
102
}
330
2A
100
AcDbVisualStyle
  2
Flat
 70
     0
 71
     2
 72
     1
 73
     1
 90
        2
 40
-0.6
 41
30.0
 62
     5
 63
     7
 74
     0
 91
        4
 64
     7
 65
   257
 75
     1
175
     1
 42
1.0
 92
        8
 66
     7
 43
1.0
 76
     1
 77
     6
 78
     2
 67
     7
 79
     5
170
     0
171
     0
290
     0
174
     0
 93
       13
 44
0.0
173
     0
291
     1
 45
0.0
1001
ACAD
1000
AcDbSavedByObjectVersion
1070
     0
  0
VISUALSTYLE
  5
2C
102
{ACAD_REACTORS
330
2A
102
}
102
{ACAD_XDICTIONARY
360
2DA
102
}
330
2A
100
AcDbVisualStyle
  2
FlatWithEdges
 70
     1
 71
     2
 72
     1
 73
     1
 90
        2
 40
-0.6
 41
30.0
 62
     5
 63
     7
 74
     1
 91
        4
 64
     7
 65
   257
 75
     1
175
     1
 42
1.0
 92
        0
 66
   257
 43
1.0
 76
     1
 77
     6
 78
     2
 67
     7
 79
     5
170
     0
171
     0
290
     0
174
     0
 93
       13
 44
0.0
173
     0
291
     1
 45
0.0
1001
ACAD
1000
AcDbSavedByObjectVersion
1070
     0
  0
VISUALSTYLE
  5
2D
102
{ACAD_REACTORS
330
2A
102
}
102
{ACAD_XDICTIONARY
360
2DC
102
}
330
2A
100
AcDbVisualStyle
  2
Gouraud
 70
     2
 71
     2
 72
     2
 73
     1
 90
        2
 40
-0.6
 41
30.0
 62
     5
 63
     7
 74
     0
 91
        4
 64
     7
 65
   257
 75
     1
175
     1
 42
1.0
 92
        0
 66
     7
 43
1.0
 76
     1
 77
     6
 78
     2
 67
     7
 79
     5
170
     0
171
     0
290
     0
174
     0
 93
       13
 44
0.0
173
     0
291
     1
 45
0.0
1001
ACAD
1000
AcDbSavedByObjectVersion
1070
     0
  0
VISUALSTYLE
  5
2E
102
{ACAD_REACTORS
330
2A
102
}
102
{ACAD_XDICTIONARY
360
2DE
102
}
330
2A
100
AcDbVisualStyle
  2
GouraudWithEdges
 70
     3
 71
     2
 72
     2
 73
     1
 90
        2
 40
-0.6
 41
30.0
 62
     5
 63
     7
 74
     1
 91
        4
 64
     7
 65
   257
 75
     1
175
     1
 42
1.0
 92
        0
 66
   257
 43
1.0
 76
     1
 77
     6
 78
     2
 67
     7
 79
     5
170
     0
171
     0
290
     0
174
     0
 93
       13
 44
0.0
173
     0
291
     1
 45
0.0
1001
ACAD
1000
AcDbSavedByObjectVersion
1070
     0
  0
VISUALSTYLE
  5
38
102
{ACAD_REACTORS
330
2A
102
}
102
{ACAD_XDICTIONARY
360
2F2
102
}
330
2A
100
AcDbVisualStyle
  2
Linepattern
 70
    14
 71
     2
 72
     2
 73
     0
 90
        0
 40
-0.6
 41
-30.0
 62
     5
 63
     7
 74
     1
 91
        4
 64
     7
 65
   257
 75
     7
175
     7
 42
1.0
 92
        8
 66
     7
 43
1.0
 76
     1
 77
     6
 78
     2
 67
     7
 79
     5
170
     0
171
     0
290
     0
174
     0
 93
        1
 44
0.0
173
     0
291
     1
 45
0.0
1001
ACAD
1000
AcDbSavedByObjectVersion
1070
     0
  0
VISUALSTYLE
  5
33
102
{ACAD_REACTORS
330
2A
102
}
102
{ACAD_XDICTIONARY
360
2E8
102
}
330
2A
100
AcDbVisualStyle
  2
Realistic
 70
     8
 71
     2
 72
     2
 73
     0
 90
        0
 40
-0.6
 41
-30.0
 62
     5
 63
     7
 74
     1
 91
        0
 64
     7
 65
   257
 75
     1
175
     1
 42
1.0
 92
        8
 66
     8
 43
1.0
 76
     1
 77
     6
 78
     2
 67
     7
 79
     5
170
     0
171
     0
290
     0
174
     0
 93
       13
 44
0.0
173
     0
291
     0
 45
0.0
1001
ACAD
1000
AcDbSavedByObjectVersion
1070
     0
  0
VISUALSTYLE
  5
37
102
{ACAD_REACTORS
330
2A
102
}
102
{ACAD_XDICTIONARY
360
2F0
102
}
330
2A
100
AcDbVisualStyle
  2
Thicken
 70
    13
 71
     2
 72
     2
 73
     0
 90
        0
 40
-0.6
 41
-30.0
 62
     5
 63
     7
 74
     1
 91
        4
 64
     7
 65
   257
 75
     1
175
     1
 42
1.0
 92
       12
 66
     7
 43
1.0
 76
     1
 77
     6
 78
     2
 67
     7
 79
     5
170
     0
171
     0
290
     0
174
     0
 93
        1
 44
0.0
173
     0
291
     1
 45
0.0
1001
ACAD
1000
AcDbSavedByObjectVersion
1070
     0
  0
DICTIONARYVAR
  5
2D6
102
{ACAD_REACTORS
330
2D3
102
}
330
2D3
100
DictionaryVariables
280
     0
  1
2
  0
DICTIONARYVAR
  5
2D7
102
{ACAD_REACTORS
330
2D3
102
}
330
2D3
100
DictionaryVariables
280
     0
  1
1
  0
DICTIONARY
  5
2FA
330
3D
100
AcDbDictionary
280
     1
281
     1
  3
ACAD_XREC_ROUNDTRIP
360
2FB
  0
DICTIONARY
  5
2F8
330
3C
100
AcDbDictionary
280
     1
281
     1
  3
ACAD_XREC_ROUNDTRIP
360
2F9
  0
DICTIONARY
  5
2FC
330
3E
100
AcDbDictionary
280
     1
281
     1
  3
ACAD_XREC_ROUNDTRIP
360
2FD
  0
DICTIONARY
  5
2E0
330
2F
100
AcDbDictionary
280
     1
281
     1
  3
ACAD_XREC_ROUNDTRIP
360
2E1
  0
DICTIONARY
  5
2E4
330
31
100
AcDbDictionary
280
     1
281
     1
  3
ACAD_XREC_ROUNDTRIP
360
2E5
  0
DICTIONARY
  5
2E2
330
30
100
AcDbDictionary
280
     1
281
     1
  3
ACAD_XREC_ROUNDTRIP
360
2E3
  0
DICTIONARY
  5
2E6
330
32
100
AcDbDictionary
280
     1
281
     1
  3
ACAD_XREC_ROUNDTRIP
360
2E7
  0
DICTIONARY
  5
2EE
330
36
100
AcDbDictionary
280
     1
281
     1
  3
ACAD_XREC_ROUNDTRIP
360
2EF
  0
DICTIONARY
  5
2F6
330
3A
100
AcDbDictionary
280
     1
281
     1
  3
ACAD_XREC_ROUNDTRIP
360
2F7
  0
DICTIONARY
  5
2EA
330
34
100
AcDbDictionary
280
     1
281
     1
  3
ACAD_XREC_ROUNDTRIP
360
2EB
  0
DICTIONARY
  5
2EC
330
35
100
AcDbDictionary
280
     1
281
     1
  3
ACAD_XREC_ROUNDTRIP
360
2ED
  0
DICTIONARY
  5
2F4
330
39
100
AcDbDictionary
280
     1
281
     1
  3
ACAD_XREC_ROUNDTRIP
360
2F5
  0
DICTIONARY
  5
2D8
330
2B
100
AcDbDictionary
280
     1
281
     1
  3
ACAD_XREC_ROUNDTRIP
360
2D9
  0
DICTIONARY
  5
2DA
330
2C
100
AcDbDictionary
280
     1
281
     1
  3
ACAD_XREC_ROUNDTRIP
360
2DB
  0
DICTIONARY
  5
2DC
330
2D
100
AcDbDictionary
280
     1
281
     1
  3
ACAD_XREC_ROUNDTRIP
360
2DD
  0
DICTIONARY
  5
2DE
330
2E
100
AcDbDictionary
280
     1
281
     1
  3
ACAD_XREC_ROUNDTRIP
360
2DF
  0
DICTIONARY
  5
2F2
330
38
100
AcDbDictionary
280
     1
281
     1
  3
ACAD_XREC_ROUNDTRIP
360
2F3
  0
DICTIONARY
  5
2E8
330
33
100
AcDbDictionary
280
     1
281
     1
  3
ACAD_XREC_ROUNDTRIP
360
2E9
  0
DICTIONARY
  5
2F0
330
37
100
AcDbDictionary
280
     1
281
     1
  3
ACAD_XREC_ROUNDTRIP
360
2F1
  0
XRECORD
  5
2FB
102
{ACAD_REACTORS
330
2FA
102
}
330
2FA
100
AcDbXrecord
280
     1
102
MATERIAL
148
0.0
149
0.0
149
0.0
 93
        0
 94
      127
282
     0
 72
     1
 77
     1
171
     1
175
     1
179
     1
273
     0
  0
XRECORD
  5
2F9
102
{ACAD_REACTORS
330
2F8
102
}
330
2F8
100
AcDbXrecord
280
     1
102
MATERIAL
148
0.0
149
0.0
149
0.0
 93
        0
 94
      127
282
     0
 72
     1
 77
     1
171
     1
175
     1
179
     1
273
     0
  0
XRECORD
  5
2FD
102
{ACAD_REACTORS
330
2FC
102
}
330
2FC
100
AcDbXrecord
280
     1
102
MATERIAL
148
0.0
149
0.0
149
0.0
 93
        0
 94
      127
282
     0
 72
     1
 77
     1
171
     1
175
     1
179
     1
273
     0
  0
XRECORD
  5
2E1
102
{ACAD_REACTORS
330
2E0
102
}
330
2E0
100
AcDbXrecord
280
     1
102
RTVSPropertyOp0
 70
     1
102
RTVSPropertyOp1
 70
     1
102
RTVSPropertyOp2
 70
     1
102
RTVSPropertyOp3
 70
     1
102
RTVSPropertyOp4
 70
     1
102
RTVSPropertyOp5
 70
     1
102
RTVSPropertyOp6
 70
     1
102
RTVSPropertyOp7
 70
     1
102
RTVSPropertyOp8
 70
     1
102
RTVSPropertyOp9
 70
     1
102
RTVSPropertyOp10
 70
     1
102
RTVSPropertyOp11
 70
     1
102
RTVSPropertyOp12
 70
     1
102
RTVSPropertyOp13
 70
     1
102
RTVSPropertyOp14
 70
     1
102
RTVSPropertyOp15
 70
     1
102
RTVSPropertyOp16
 70
     1
102
RTVSPropertyOp17
 70
     1
102
RTVSPropertyOp18
 70
     1
102
RTVSPropertyOp19
 70
     1
102
RTVSPropertyOp20
 70
     1
102
RTVSPropertyOp21
 70
     1
102
RTVSPropertyOp22
 70
     1
102
RTVSPropertyOp23
 70
     1
102
RTVSPropertyOp24
 70
     1
102
RTVSPropertyOp25
 70
     1
102
RTVSPropertyOp26
 70
     1
102
RTVSPropertyOp27
 70
     1
102
RTVSPropertyOp28
 70
     1
102
RTVSPropertyOp29
 70
     1
102
RTVSPropertyOp30
 70
     1
102
RTVSPropertyOp31
 70
     1
102
RTVSPropertyOp32
 70
     1
  0
XRECORD
  5
2E5
102
{ACAD_REACTORS
330
2E4
102
}
330
2E4
100
AcDbXrecord
280
     1
102
RTVSPropertyOp0
 70
     1
102
RTVSPropertyOp1
 70
     1
102
RTVSPropertyOp2
 70
     1
102
RTVSPropertyOp3
 70
     1
102
RTVSPropertyOp4
 70
     1
102
RTVSPropertyOp5
 70
     1
102
RTVSPropertyOp6
 70
     1
102
RTVSPropertyOp7
 70
     1
102
RTVSPropertyOp8
 70
     1
102
RTVSPropertyOp9
 70
     1
102
RTVSPropertyOp10
 70
     1
102
RTVSPropertyOp11
 70
     1
102
RTVSPropertyOp12
 70
     1
102
RTVSPropertyOp13
 70
     1
102
RTVSPropertyOp14
 70
     1
102
RTVSPropertyOp15
 70
     1
102
RTVSPropertyOp16
 70
     1
102
RTVSPropertyOp17
 70
     1
102
RTVSPropertyOp18
 70
     1
102
RTVSPropertyOp19
 70
     1
102
RTVSPropertyOp20
 70
     1
102
RTVSPropertyOp21
 70
     1
102
RTVSPropertyOp22
 70
     1
102
RTVSPropertyOp23
 70
     1
102
RTVSPropertyOp24
 70
     1
102
RTVSPropertyOp25
 70
     1
102
RTVSPropertyOp26
 70
     1
102
RTVSPropertyOp27
 70
     1
102
RTVSPropertyOp28
 70
     1
102
RTVSPropertyOp29
 70
     1
102
RTVSPropertyOp30
 70
     1
102
RTVSPropertyOp31
 70
     1
102
RTVSPropertyOp32
 70
     1
  0
XRECORD
  5
2E3
102
{ACAD_REACTORS
330
2E2
102
}
330
2E2
100
AcDbXrecord
280
     1
102
RTVSPropertyOp0
 70
     1
102
RTVSPropertyOp1
 70
     1
102
RTVSPropertyOp2
 70
     1
102
RTVSPropertyOp3
 70
     1
102
RTVSPropertyOp4
 70
     1
102
RTVSPropertyOp5
 70
     1
102
RTVSPropertyOp6
 70
     1
102
RTVSPropertyOp7
 70
     1
102
RTVSPropertyOp8
 70
     1
102
RTVSPropertyOp9
 70
     1
102
RTVSPropertyOp10
 70
     1
102
RTVSPropertyOp11
 70
     1
102
RTVSPropertyOp12
 70
     1
102
RTVSPropertyOp13
 70
     1
102
RTVSPropertyOp14
 70
     1
102
RTVSPropertyOp15
 70
     1
102
RTVSPropertyOp16
 70
     1
102
RTVSPropertyOp17
 70
     1
102
RTVSPropertyOp18
 70
     1
102
RTVSPropertyOp19
 70
     1
102
RTVSPropertyOp20
 70
     1
102
RTVSPropertyOp21
 70
     1
102
RTVSPropertyOp22
 70
     1
102
RTVSPropertyOp23
 70
     1
102
RTVSPropertyOp24
 70
     1
102
RTVSPropertyOp25
 70
     1
102
RTVSPropertyOp26
 70
     1
102
RTVSPropertyOp27
 70
     1
102
RTVSPropertyOp28
 70
     1
102
RTVSPropertyOp29
 70
     1
102
RTVSPropertyOp30
 70
     1
102
RTVSPropertyOp31
 70
     1
102
RTVSPropertyOp32
 70
     1
  0
XRECORD
  5
2E7
102
{ACAD_REACTORS
330
2E6
102
}
330
2E6
100
AcDbXrecord
280
     1
102
RTVSPropertyOp0
 70
     1
102
RTVSPropertyOp1
 70
     1
102
RTVSPropertyOp2
 70
     1
102
RTVSPropertyOp3
 70
     1
102
RTVSPropertyOp4
 70
     1
102
RTVSPropertyOp5
 70
     1
102
RTVSPropertyOp6
 70
     1
102
RTVSPropertyOp7
 70
     1
102
RTVSPropertyOp8
 70
     1
102
RTVSPropertyOp9
 70
     1
102
RTVSPropertyOp10
 70
     1
102
RTVSPropertyOp11
 70
     1
102
RTVSPropertyOp12
 70
     1
102
RTVSPropertyOp13
 70
     1
102
RTVSPropertyOp14
 70
     1
102
RTVSPropertyOp15
 70
     1
102
RTVSPropertyOp16
 70
     1
102
RTVSPropertyOp17
 70
     1
102
RTVSPropertyOp18
 70
     1
102
RTVSPropertyOp19
 70
     1
102
RTVSPropertyOp20
 70
     1
102
RTVSPropertyOp21
 70
     1
102
RTVSPropertyOp22
 70
     1
102
RTVSPropertyOp23
 70
     1
102
RTVSPropertyOp24
 70
     1
102
RTVSPropertyOp25
 70
     1
102
RTVSPropertyOp26
 70
     1
102
RTVSPropertyOp27
 70
     1
102
RTVSPropertyOp28
 70
     1
102
RTVSPropertyOp29
 70
     1
102
RTVSPropertyOp30
 70
     1
102
RTVSPropertyOp31
 70
     1
102
RTVSPropertyOp32
 70
     1
  0
XRECORD
  5
2EF
102
{ACAD_REACTORS
330
2EE
102
}
330
2EE
100
AcDbXrecord
280
     1
102
RTVSPropertyOp0
 70
     1
102
RTVSPropertyOp1
 70
     1
102
RTVSPropertyOp2
 70
     1
102
RTVSPropertyOp3
 70
     1
102
RTVSPropertyOp4
 70
     1
102
RTVSPropertyOp5
 70
     1
102
RTVSPropertyOp6
 70
     1
102
RTVSPropertyOp7
 70
     1
102
RTVSPropertyOp8
 70
     1
102
RTVSPropertyOp9
 70
     1
102
RTVSPropertyOp10
 70
     1
102
RTVSPropertyOp11
 70
     1
102
RTVSPropertyOp12
 70
     1
102
RTVSPropertyOp13
 70
     1
102
RTVSPropertyOp14
 70
     1
102
RTVSPropertyOp15
 70
     1
102
RTVSPropertyOp16
 70
     1
102
RTVSPropertyOp17
 70
     1
102
RTVSPropertyOp18
 70
     1
102
RTVSPropertyOp19
 70
     1
102
RTVSPropertyOp20
 70
     1
102
RTVSPropertyOp21
 70
     1
102
RTVSPropertyOp22
 70
     1
102
RTVSPropertyOp23
 70
     1
102
RTVSPropertyOp24
 70
     1
102
RTVSPropertyOp25
 70
     1
102
RTVSPropertyOp26
 70
     1
102
RTVSPropertyOp27
 70
     1
102
RTVSPropertyOp28
 70
     1
102
RTVSPropertyOp29
 70
     1
102
RTVSPropertyOp30
 70
     1
102
RTVSPropertyOp31
 70
     1
102
RTVSPropertyOp32
 70
     1
  0
XRECORD
  5
2F7
102
{ACAD_REACTORS
330
2F6
102
}
330
2F6
100
AcDbXrecord
280
     1
102
RTVSPropertyOp0
 70
     1
102
RTVSPropertyOp1
 70
     1
102
RTVSPropertyOp2
 70
     1
102
RTVSPropertyOp3
 70
     1
102
RTVSPropertyOp4
 70
     1
102
RTVSPropertyOp5
 70
     1
102
RTVSPropertyOp6
 70
     1
102
RTVSPropertyOp7
 70
     1
102
RTVSPropertyOp8
 70
     1
102
RTVSPropertyOp9
 70
     1
102
RTVSPropertyOp10
 70
     1
102
RTVSPropertyOp11
 70
     1
102
RTVSPropertyOp12
 70
     1
102
RTVSPropertyOp13
 70
     1
102
RTVSPropertyOp14
 70
     1
102
RTVSPropertyOp15
 70
     1
102
RTVSPropertyOp16
 70
     1
102
RTVSPropertyOp17
 70
     1
102
RTVSPropertyOp18
 70
     1
102
RTVSPropertyOp19
 70
     1
102
RTVSPropertyOp20
 70
     1
102
RTVSPropertyOp21
 70
     1
102
RTVSPropertyOp22
 70
     1
102
RTVSPropertyOp23
 70
     1
102
RTVSPropertyOp24
 70
     1
102
RTVSPropertyOp25
 70
     1
102
RTVSPropertyOp26
 70
     1
102
RTVSPropertyOp27
 70
     1
102
RTVSPropertyOp28
 70
     1
102
RTVSPropertyOp29
 70
     1
102
RTVSPropertyOp30
 70
     1
102
RTVSPropertyOp31
 70
     1
102
RTVSPropertyOp32
 70
     1
  0
XRECORD
  5
2EB
102
{ACAD_REACTORS
330
2EA
102
}
330
2EA
100
AcDbXrecord
280
     1
102
RTVSPropertyOp0
 70
     1
102
RTVSPropertyOp1
 70
     1
102
RTVSPropertyOp2
 70
     1
102
RTVSPropertyOp3
 70
     1
102
RTVSPropertyOp4
 70
     1
102
RTVSPropertyOp5
 70
     1
102
RTVSPropertyOp6
 70
     1
102
RTVSPropertyOp7
 70
     1
102
RTVSPropertyOp8
 70
     1
102
RTVSPropertyOp9
 70
     1
102
RTVSPropertyOp10
 70
     1
102
RTVSPropertyOp11
 70
     1
102
RTVSPropertyOp12
 70
     1
102
RTVSPropertyOp13
 70
     1
102
RTVSPropertyOp14
 70
     1
102
RTVSPropertyOp15
 70
     1
102
RTVSPropertyOp16
 70
     1
102
RTVSPropertyOp17
 70
     1
102
RTVSPropertyOp18
 70
     1
102
RTVSPropertyOp19
 70
     1
102
RTVSPropertyOp20
 70
     1
102
RTVSPropertyOp21
 70
     1
102
RTVSPropertyOp22
 70
     1
102
RTVSPropertyOp23
 70
     1
102
RTVSPropertyOp24
 70
     1
102
RTVSPropertyOp25
 70
     1
102
RTVSPropertyOp26
 70
     1
102
RTVSPropertyOp27
 70
     1
102
RTVSPropertyOp28
 70
     1
102
RTVSPropertyOp29
 70
     1
102
RTVSPropertyOp30
 70
     1
102
RTVSPropertyOp31
 70
     1
102
RTVSPropertyOp32
 70
     1
  0
XRECORD
  5
2ED
102
{ACAD_REACTORS
330
2EC
102
}
330
2EC
100
AcDbXrecord
280
     1
102
RTVSPropertyOp0
 70
     1
102
RTVSPropertyOp1
 70
     1
102
RTVSPropertyOp2
 70
     1
102
RTVSPropertyOp3
 70
     1
102
RTVSPropertyOp4
 70
     1
102
RTVSPropertyOp5
 70
     1
102
RTVSPropertyOp6
 70
     1
102
RTVSPropertyOp7
 70
     1
102
RTVSPropertyOp8
 70
     1
102
RTVSPropertyOp9
 70
     1
102
RTVSPropertyOp10
 70
     1
102
RTVSPropertyOp11
 70
     1
102
RTVSPropertyOp12
 70
     1
102
RTVSPropertyOp13
 70
     1
102
RTVSPropertyOp14
 70
     1
102
RTVSPropertyOp15
 70
     1
102
RTVSPropertyOp16
 70
     1
102
RTVSPropertyOp17
 70
     1
102
RTVSPropertyOp18
 70
     1
102
RTVSPropertyOp19
 70
     1
102
RTVSPropertyOp20
 70
     1
102
RTVSPropertyOp21
 70
     1
102
RTVSPropertyOp22
 70
     1
102
RTVSPropertyOp23
 70
     1
102
RTVSPropertyOp24
 70
     1
102
RTVSPropertyOp25
 70
     1
102
RTVSPropertyOp26
 70
     1
102
RTVSPropertyOp27
 70
     1
102
RTVSPropertyOp28
 70
     1
102
RTVSPropertyOp29
 70
     1
102
RTVSPropertyOp30
 70
     1
102
RTVSPropertyOp31
 70
     1
102
RTVSPropertyOp32
 70
     1
  0
XRECORD
  5
2F5
102
{ACAD_REACTORS
330
2F4
102
}
330
2F4
100
AcDbXrecord
280
     1
102
RTVSPropertyOp0
 70
     1
102
RTVSPropertyOp1
 70
     1
102
RTVSPropertyOp2
 70
     1
102
RTVSPropertyOp3
 70
     1
102
RTVSPropertyOp4
 70
     1
102
RTVSPropertyOp5
 70
     1
102
RTVSPropertyOp6
 70
     1
102
RTVSPropertyOp7
 70
     1
102
RTVSPropertyOp8
 70
     1
102
RTVSPropertyOp9
 70
     1
102
RTVSPropertyOp10
 70
     1
102
RTVSPropertyOp11
 70
     1
102
RTVSPropertyOp12
 70
     1
102
RTVSPropertyOp13
 70
     1
102
RTVSPropertyOp14
 70
     1
102
RTVSPropertyOp15
 70
     1
102
RTVSPropertyOp16
 70
     1
102
RTVSPropertyOp17
 70
     1
102
RTVSPropertyOp18
 70
     1
102
RTVSPropertyOp19
 70
     1
102
RTVSPropertyOp20
 70
     1
102
RTVSPropertyOp21
 70
     1
102
RTVSPropertyOp22
 70
     1
102
RTVSPropertyOp23
 70
     1
102
RTVSPropertyOp24
 70
     1
102
RTVSPropertyOp25
 70
     1
102
RTVSPropertyOp26
 70
     1
102
RTVSPropertyOp27
 70
     1
102
RTVSPropertyOp28
 70
     1
102
RTVSPropertyOp29
 70
     1
102
RTVSPropertyOp30
 70
     1
102
RTVSPropertyOp31
 70
     1
102
RTVSPropertyOp32
 70
     1
  0
XRECORD
  5
2D9
102
{ACAD_REACTORS
330
2D8
102
}
330
2D8
100
AcDbXrecord
280
     1
102
RTVSPropertyOp0
 70
     1
102
RTVSPropertyOp1
 70
     1
102
RTVSPropertyOp2
 70
     1
102
RTVSPropertyOp3
 70
     1
102
RTVSPropertyOp4
 70
     1
102
RTVSPropertyOp5
 70
     1
102
RTVSPropertyOp6
 70
     1
102
RTVSPropertyOp7
 70
     1
102
RTVSPropertyOp8
 70
     1
102
RTVSPropertyOp9
 70
     1
102
RTVSPropertyOp10
 70
     1
102
RTVSPropertyOp11
 70
     1
102
RTVSPropertyOp12
 70
     1
102
RTVSPropertyOp13
 70
     1
102
RTVSPropertyOp14
 70
     1
102
RTVSPropertyOp15
 70
     1
102
RTVSPropertyOp16
 70
     1
102
RTVSPropertyOp17
 70
     1
102
RTVSPropertyOp18
 70
     1
102
RTVSPropertyOp19
 70
     1
102
RTVSPropertyOp20
 70
     1
102
RTVSPropertyOp21
 70
     1
102
RTVSPropertyOp22
 70
     1
102
RTVSPropertyOp23
 70
     1
102
RTVSPropertyOp24
 70
     1
102
RTVSPropertyOp25
 70
     1
102
RTVSPropertyOp26
 70
     1
102
RTVSPropertyOp27
 70
     1
102
RTVSPropertyOp28
 70
     1
102
RTVSPropertyOp29
 70
     1
102
RTVSPropertyOp30
 70
     1
102
RTVSPropertyOp31
 70
     1
102
RTVSPropertyOp32
 70
     1
  0
XRECORD
  5
2DB
102
{ACAD_REACTORS
330
2DA
102
}
330
2DA
100
AcDbXrecord
280
     1
102
RTVSPropertyOp0
 70
     1
102
RTVSPropertyOp1
 70
     1
102
RTVSPropertyOp2
 70
     1
102
RTVSPropertyOp3
 70
     1
102
RTVSPropertyOp4
 70
     1
102
RTVSPropertyOp5
 70
     1
102
RTVSPropertyOp6
 70
     1
102
RTVSPropertyOp7
 70
     1
102
RTVSPropertyOp8
 70
     1
102
RTVSPropertyOp9
 70
     1
102
RTVSPropertyOp10
 70
     1
102
RTVSPropertyOp11
 70
     1
102
RTVSPropertyOp12
 70
     1
102
RTVSPropertyOp13
 70
     1
102
RTVSPropertyOp14
 70
     1
102
RTVSPropertyOp15
 70
     1
102
RTVSPropertyOp16
 70
     1
102
RTVSPropertyOp17
 70
     1
102
RTVSPropertyOp18
 70
     1
102
RTVSPropertyOp19
 70
     1
102
RTVSPropertyOp20
 70
     1
102
RTVSPropertyOp21
 70
     1
102
RTVSPropertyOp22
 70
     1
102
RTVSPropertyOp23
 70
     1
102
RTVSPropertyOp24
 70
     1
102
RTVSPropertyOp25
 70
     1
102
RTVSPropertyOp26
 70
     1
102
RTVSPropertyOp27
 70
     1
102
RTVSPropertyOp28
 70
     1
102
RTVSPropertyOp29
 70
     1
102
RTVSPropertyOp30
 70
     1
102
RTVSPropertyOp31
 70
     1
102
RTVSPropertyOp32
 70
     1
  0
XRECORD
  5
2DD
102
{ACAD_REACTORS
330
2DC
102
}
330
2DC
100
AcDbXrecord
280
     1
102
RTVSPropertyOp0
 70
     1
102
RTVSPropertyOp1
 70
     1
102
RTVSPropertyOp2
 70
     1
102
RTVSPropertyOp3
 70
     1
102
RTVSPropertyOp4
 70
     1
102
RTVSPropertyOp5
 70
     1
102
RTVSPropertyOp6
 70
     1
102
RTVSPropertyOp7
 70
     1
102
RTVSPropertyOp8
 70
     1
102
RTVSPropertyOp9
 70
     1
102
RTVSPropertyOp10
 70
     1
102
RTVSPropertyOp11
 70
     1
102
RTVSPropertyOp12
 70
     1
102
RTVSPropertyOp13
 70
     1
102
RTVSPropertyOp14
 70
     1
102
RTVSPropertyOp15
 70
     1
102
RTVSPropertyOp16
 70
     1
102
RTVSPropertyOp17
 70
     1
102
RTVSPropertyOp18
 70
     1
102
RTVSPropertyOp19
 70
     1
102
RTVSPropertyOp20
 70
     1
102
RTVSPropertyOp21
 70
     1
102
RTVSPropertyOp22
 70
     1
102
RTVSPropertyOp23
 70
     1
102
RTVSPropertyOp24
 70
     1
102
RTVSPropertyOp25
 70
     1
102
RTVSPropertyOp26
 70
     1
102
RTVSPropertyOp27
 70
     1
102
RTVSPropertyOp28
 70
     1
102
RTVSPropertyOp29
 70
     1
102
RTVSPropertyOp30
 70
     1
102
RTVSPropertyOp31
 70
     1
102
RTVSPropertyOp32
 70
     1
  0
XRECORD
  5
2DF
102
{ACAD_REACTORS
330
2DE
102
}
330
2DE
100
AcDbXrecord
280
     1
102
RTVSPropertyOp0
 70
     1
102
RTVSPropertyOp1
 70
     1
102
RTVSPropertyOp2
 70
     1
102
RTVSPropertyOp3
 70
     1
102
RTVSPropertyOp4
 70
     1
102
RTVSPropertyOp5
 70
     1
102
RTVSPropertyOp6
 70
     1
102
RTVSPropertyOp7
 70
     1
102
RTVSPropertyOp8
 70
     1
102
RTVSPropertyOp9
 70
     1
102
RTVSPropertyOp10
 70
     1
102
RTVSPropertyOp11
 70
     1
102
RTVSPropertyOp12
 70
     1
102
RTVSPropertyOp13
 70
     1
102
RTVSPropertyOp14
 70
     1
102
RTVSPropertyOp15
 70
     1
102
RTVSPropertyOp16
 70
     1
102
RTVSPropertyOp17
 70
     1
102
RTVSPropertyOp18
 70
     1
102
RTVSPropertyOp19
 70
     1
102
RTVSPropertyOp20
 70
     1
102
RTVSPropertyOp21
 70
     1
102
RTVSPropertyOp22
 70
     1
102
RTVSPropertyOp23
 70
     1
102
RTVSPropertyOp24
 70
     1
102
RTVSPropertyOp25
 70
     1
102
RTVSPropertyOp26
 70
     1
102
RTVSPropertyOp27
 70
     1
102
RTVSPropertyOp28
 70
     1
102
RTVSPropertyOp29
 70
     1
102
RTVSPropertyOp30
 70
     1
102
RTVSPropertyOp31
 70
     1
102
RTVSPropertyOp32
 70
     1
  0
XRECORD
  5
2F3
102
{ACAD_REACTORS
330
2F2
102
}
330
2F2
100
AcDbXrecord
280
     1
102
RTVSPropertyOp0
 70
     1
102
RTVSPropertyOp1
 70
     1
102
RTVSPropertyOp2
 70
     1
102
RTVSPropertyOp3
 70
     1
102
RTVSPropertyOp4
 70
     1
102
RTVSPropertyOp5
 70
     1
102
RTVSPropertyOp6
 70
     1
102
RTVSPropertyOp7
 70
     1
102
RTVSPropertyOp8
 70
     1
102
RTVSPropertyOp9
 70
     1
102
RTVSPropertyOp10
 70
     1
102
RTVSPropertyOp11
 70
     1
102
RTVSPropertyOp12
 70
     1
102
RTVSPropertyOp13
 70
     1
102
RTVSPropertyOp14
 70
     1
102
RTVSPropertyOp15
 70
     1
102
RTVSPropertyOp16
 70
     1
102
RTVSPropertyOp17
 70
     1
102
RTVSPropertyOp18
 70
     1
102
RTVSPropertyOp19
 70
     1
102
RTVSPropertyOp20
 70
     1
102
RTVSPropertyOp21
 70
     1
102
RTVSPropertyOp22
 70
     1
102
RTVSPropertyOp23
 70
     1
102
RTVSPropertyOp24
 70
     1
102
RTVSPropertyOp25
 70
     1
102
RTVSPropertyOp26
 70
     1
102
RTVSPropertyOp27
 70
     1
102
RTVSPropertyOp28
 70
     1
102
RTVSPropertyOp29
 70
     1
102
RTVSPropertyOp30
 70
     1
102
RTVSPropertyOp31
 70
     1
102
RTVSPropertyOp32
 70
     1
  0
XRECORD
  5
2E9
102
{ACAD_REACTORS
330
2E8
102
}
330
2E8
100
AcDbXrecord
280
     1
102
RTVSPropertyOp0
 70
     1
102
RTVSPropertyOp1
 70
     1
102
RTVSPropertyOp2
 70
     1
102
RTVSPropertyOp3
 70
     1
102
RTVSPropertyOp4
 70
     1
102
RTVSPropertyOp5
 70
     1
102
RTVSPropertyOp6
 70
     1
102
RTVSPropertyOp7
 70
     1
102
RTVSPropertyOp8
 70
     1
102
RTVSPropertyOp9
 70
     1
102
RTVSPropertyOp10
 70
     1
102
RTVSPropertyOp11
 70
     1
102
RTVSPropertyOp12
 70
     1
102
RTVSPropertyOp13
 70
     1
102
RTVSPropertyOp14
 70
     1
102
RTVSPropertyOp15
 70
     1
102
RTVSPropertyOp16
 70
     1
102
RTVSPropertyOp17
 70
     1
102
RTVSPropertyOp18
 70
     1
102
RTVSPropertyOp19
 70
     1
102
RTVSPropertyOp20
 70
     1
102
RTVSPropertyOp21
 70
     1
102
RTVSPropertyOp22
 70
     1
102
RTVSPropertyOp23
 70
     1
102
RTVSPropertyOp24
 70
     1
102
RTVSPropertyOp25
 70
     1
102
RTVSPropertyOp26
 70
     1
102
RTVSPropertyOp27
 70
     1
102
RTVSPropertyOp28
 70
     1
102
RTVSPropertyOp29
 70
     1
102
RTVSPropertyOp30
 70
     1
102
RTVSPropertyOp31
 70
     1
102
RTVSPropertyOp32
 70
     1
  0
XRECORD
  5
2F1
102
{ACAD_REACTORS
330
2F0
102
}
330
2F0
100
AcDbXrecord
280
     1
102
RTVSPropertyOp0
 70
     1
102
RTVSPropertyOp1
 70
     1
102
RTVSPropertyOp2
 70
     1
102
RTVSPropertyOp3
 70
     1
102
RTVSPropertyOp4
 70
     1
102
RTVSPropertyOp5
 70
     1
102
RTVSPropertyOp6
 70
     1
102
RTVSPropertyOp7
 70
     1
102
RTVSPropertyOp8
 70
     1
102
RTVSPropertyOp9
 70
     1
102
RTVSPropertyOp10
 70
     1
102
RTVSPropertyOp11
 70
     1
102
RTVSPropertyOp12
 70
     1
102
RTVSPropertyOp13
 70
     1
102
RTVSPropertyOp14
 70
     1
102
RTVSPropertyOp15
 70
     1
102
RTVSPropertyOp16
 70
     1
102
RTVSPropertyOp17
 70
     1
102
RTVSPropertyOp18
 70
     1
102
RTVSPropertyOp19
 70
     1
102
RTVSPropertyOp20
 70
     1
102
RTVSPropertyOp21
 70
     1
102
RTVSPropertyOp22
 70
     1
102
RTVSPropertyOp23
 70
     1
102
RTVSPropertyOp24
 70
     1
102
RTVSPropertyOp25
 70
     1
102
RTVSPropertyOp26
 70
     1
102
RTVSPropertyOp27
 70
     1
102
RTVSPropertyOp28
 70
     1
102
RTVSPropertyOp29
 70
     1
102
RTVSPropertyOp30
 70
     1
102
RTVSPropertyOp31
 70
     1
102
RTVSPropertyOp32
 70
     1
  0
ENDSEC
  0
EOF
