  0
SECTION
  2
HEADER
  9
$ACADVER
  1
AC1015
  9
$ACADMAINTVER
 70
     6
  9
$DWGCODEPAGE
  3
ANSI_932
  9
$INSBASE
 10
0.0
 20
0.0
 30
0.0
  9
$EXTMIN
 10
0.0
 20
0.0
 30
0.0
  9
$EXTMAX
 10
630.0
 20
891.0
 30
0.0
  9
$LIMMIN
 10
0.0
 20
0.0
  9
$LIMMAX
 10
12.0
 20
9.0
  9
$ORTHOMODE
 70
     0
  9
$REGENMODE
 70
     1
  9
$FILLMODE
 70
     1
  9
$QTEXTMODE
 70
     0
  9
$MIRRTEXT
 70
     1
  9
$LTSCALE
 40
1.0
  9
$ATTMODE
 70
     1
  9
$TEXTSIZE
 40
0.2
  9
$TRACEWID
 40
0.05
  9
$TEXTSTYLE
  7
Standard
  9
$CLAYER
  8
0
  9
$CELTYPE
  6
ByLayer
  9
$CECOLOR
 62
   256
  9
$CELTSCALE
 40
1.0
  9
$DISPSILH
 70
     0
  9
$DIMSCALE
 40
1.0
  9
$DIMASZ
 40
0.18
  9
$DIMEXO
 40
0.0625
  9
$DIMDLI
 40
0.38
  9
$DIMRND
 40
0.0
  9
$DIMDLE
 40
0.0
  9
$DIMEXE
 40
0.18
  9
$DIMTP
 40
0.0
  9
$DIMTM
 40
0.0
  9
$DIMTXT
 40
0.18
  9
$DIMCEN
 40
0.09
  9
$DIMTSZ
 40
0.0
  9
$DIMTOL
 70
     0
  9
$DIMLIM
 70
     0
  9
$DIMTIH
 70
     1
  9
$DIMTOH
 70
     1
  9
$DIMSE1
 70
     0
  9
$DIMSE2
 70
     0
  9
$DIMTAD
 70
     0
  9
$DIMZIN
 70
     0
  9
$DIMBLK
  1

  9
$DIMASO
 70
     1
  9
$DIMSHO
 70
     1
  9
$DIMPOST
  1

  9
$DIMAPOST
  1

  9
$DIMALT
 70
     0
  9
$DIMALTD
 70
     2
  9
$DIMALTF
 40
25.4
  9
$DIMLFAC
 40
1.0
  9
$DIMTOFL
 70
     0
  9
$DIMTVP
 40
0.0
  9
$DIMTIX
 70
     0
  9
$DIMSOXD
 70
     0
  9
$DIMSAH
 70
     0
  9
$DIMBLK1
  1

  9
$DIMBLK2
  1

  9
$DIMSTYLE
  2
Standard
  9
$DIMCLRD
 70
     0
  9
$DIMCLRE
 70
     0
  9
$DIMCLRT
 70
     0
  9
$DIMTFAC
 40
1.0
  9
$DIMGAP
 40
0.09
  9
$DIMJUST
 70
     0
  9
$DIMSD1
 70
     0
  9
$DIMSD2
 70
     0
  9
$DIMTOLJ
 70
     1
  9
$DIMTZIN
 70
     0
  9
$DIMALTZ
 70
     0
  9
$DIMALTTZ
 70
     0
  9
$DIMUPT
 70
     0
  9
$DIMDEC
 70
     4
  9
$DIMTDEC
 70
     4
  9
$DIMALTU
 70
     2
  9
$DIMALTTD
 70
     2
  9
$DIMTXSTY
  7
Standard
  9
$DIMAUNIT
 70
     0
  9
$DIMADEC
 70
     0
  9
$DIMALTRND
 40
0.0
  9
$DIMAZIN
 70
     0
  9
$DIMDSEP
 70
    46
  9
$DIMATFIT
 70
     3
  9
$DIMFRAC
 70
     0
  9
$DIMLDRBLK
  1

  9
$DIMLUNIT
 70
     2
  9
$DIMLWD
 70
    -2
  9
$DIMLWE
 70
    -2
  9
$DIMTMOVE
 70
     0
  9
$LUNITS
 70
     2
  9
$LUPREC
 70
     4
  9
$SKETCHINC
 40
0.1
  9
$FILLETRAD
 40
0.5
  9
$AUNITS
 70
     0
  9
$AUPREC
 70
     0
  9
$MENU
  1
.
  9
$ELEVATION
 40
0.0
  9
$PELEVATION
 40
0.0
  9
$THICKNESS
 40
0.0
  9
$LIMCHECK
 70
     0
  9
$CHAMFERA
 40
0.5
  9
$CHAMFERB
 40
0.5
  9
$CHAMFERC
 40
1.0
  9
$CHAMFERD
 40
0.0
  9
$SKPOLY
 70
     0
  9
$TDCREATE
 40
2456563.499197998
  9
$TDUCREATE
 40
2456563.124197998
  9
$TDUPDATE
 40
2456563.499199086
  9
$TDUUPDATE
 40
2456563.124199086
  9
$TDINDWG
 40
0.0000000116
  9
$TDUSRTIMER
 40
0.0000000116
  9
$USRTIMER
 70
     1
  9
$ANGBASE
 50
0.0
  9
$ANGDIR
 70
     0
  9
$PDMODE
 70
     0
  9
$PDSIZE
 40
0.0
  9
$PLINEWID
 40
0.0
  9
$SPLFRAME
 70
     0
  9
$SPLINETYPE
 70
     6
  9
$SPLINESEGS
 70
     8
  9
$HANDSEED
  5
2A5
  9
$SURFTAB1
 70
     6
  9
$SURFTAB2
 70
     6
  9
$SURFTYPE
 70
     6
  9
$SURFU
 70
     6
  9
$SURFV
 70
     6
  9
$UCSBASE
  2

  9
$UCSNAME
  2

  9
$UCSORG
 10
0.0
 20
0.0
 30
0.0
  9
$UCSXDIR
 10
1.0
 20
0.0
 30
0.0
  9
$UCSYDIR
 10
0.0
 20
1.0
 30
0.0
  9
$UCSORTHOREF
  2

  9
$UCSORTHOVIEW
 70
     0
  9
$UCSORGTOP
 10
0.0
 20
0.0
 30
0.0
  9
$UCSORGBOTTOM
 10
0.0
 20
0.0
 30
0.0
  9
$UCSORGLEFT
 10
0.0
 20
0.0
 30
0.0
  9
$UCSORGRIGHT
 10
0.0
 20
0.0
 30
0.0
  9
$UCSORGFRONT
 10
0.0
 20
0.0
 30
0.0
  9
$UCSORGBACK
 10
0.0
 20
0.0
 30
0.0
  9
$PUCSBASE
  2

  9
$PUCSNAME
  2

  9
$PUCSORG
 10
0.0
 20
0.0
 30
0.0
  9
$PUCSXDIR
 10
1.0
 20
0.0
 30
0.0
  9
$PUCSYDIR
 10
0.0
 20
1.0
 30
0.0
  9
$PUCSORTHOREF
  2

  9
$PUCSORTHOVIEW
 70
     0
  9
$PUCSORGTOP
 10
0.0
 20
0.0
 30
0.0
  9
$PUCSORGBOTTOM
 10
0.0
 20
0.0
 30
0.0
  9
$PUCSORGLEFT
 10
0.0
 20
0.0
 30
0.0
  9
$PUCSORGRIGHT
 10
0.0
 20
0.0
 30
0.0
  9
$PUCSORGFRONT
 10
0.0
 20
0.0
 30
0.0
  9
$PUCSORGBACK
 10
0.0
 20
0.0
 30
0.0
  9
$USERI1
 70
     0
  9
$USERI2
 70
     0
  9
$USERI3
 70
     0
  9
$USERI4
 70
     0
  9
$USERI5
 70
     0
  9
$USERR1
 40
18.1
  9
$USERR2
 40
0.0
  9
$USERR3
 40
0.0
  9
$USERR4
 40
0.0
  9
$USERR5
 40
0.0
  9
$WORLDVIEW
 70
     1
  9
$SHADEDGE
 70
     3
  9
$SHADEDIF
 70
    70
  9
$TILEMODE
 70
     1
  9
$MAXACTVP
 70
    64
  9
$PINSBASE
 10
0.0
 20
0.0
 30
0.0
  9
$PLIMCHECK
 70
     0
  9
$PEXTMIN
 10
1.00000000000000E+20
 20
1.00000000000000E+20
 30
1.00000000000000E+20
  9
$PEXTMAX
 10
-1.00000000000000E+20
 20
-1.00000000000000E+20
 30
-1.00000000000000E+20
  9
$PLIMMIN
 10
0.0
 20
0.0
  9
$PLIMMAX
 10
12.0
 20
9.0
  9
$UNITMODE
 70
     0
  9
$VISRETAIN
 70
     1
  9
$PLINEGEN
 70
     0
  9
$PSLTSCALE
 70
     1
  9
$TREEDEPTH
 70
  3020
  9
$CMLSTYLE
  2
Standard
  9
$CMLJUST
 70
     0
  9
$CMLSCALE
 40
1.0
  9
$PROXYGRAPHICS
 70
     1
  9
$MEASUREMENT
 70
     1
  9
$CELWEIGHT
370
    -1
  9
$ENDCAPS
280
     0
  9
$JOINSTYLE
280
     0
  9
$LWDISPLAY
290
     0
  9
$INSUNITS
 70
     4
  9
$HYPERLINKBASE
  1

  9
$STYLESHEET
  1

  9
$XEDIT
290
     1
  9
$CEPSNTYPE
380
     0
  9
$PSTYLEMODE
290
     1
  9
$FINGERPRINTGUID
  2
{23D92493-4106-47EC-B1AF-8EAA7C25936C}
  9
$VERSIONGUID
  2
{FAEB1C32-E019-11D5-929B-00C0DF256EC4}
  9
$EXTNAMES
290
     1
  9
$PSVPSCALE
 40
0.0
  9
$OLESTARTUP
290
     0
  0
ENDSEC
  0
SECTION
  2
CLASSES
  0
CLASS
  1
ACDBDICTIONARYWDFLT
  2
AcDbDictionaryWithDefault
  3
ObjectDBX Classes
 90
        0
280
     0
281
     0
  0
CLASS
  1
VISUALSTYLE
  2
AcDbVisualStyle
  3
ObjectDBX Classes
 90
     4095
280
     0
281
     0
  0
CLASS
  1
MATERIAL
  2
AcDbMaterial
  3
ObjectDBX Classes
 90
     1153
280
     0
281
     0
  0
CLASS
  1
DICTIONARYVAR
  2
AcDbDictionaryVar
  3
ObjectDBX Classes
 90
        0
280
     0
281
     0
  0
CLASS
  1
ACDBPLACEHOLDER
  2
AcDbPlaceHolder
  3
ObjectDBX Classes
 90
        0
280
     0
281
     0
  0
CLASS
  1
LAYOUT
  2
AcDbLayout
  3
ObjectDBX Classes
 90
        0
280
     0
281
     0
  0
ENDSEC
  0
SECTION
  2
TABLES
  0
TABLE
  2
VPORT
  5
8
330
0
100
AcDbSymbolTable
 70
     1
  0
VPORT
  5
29
330
8
100
AcDbSymbolTableRecord
100
AcDbViewportTableRecord
  2
*Active
 70
     0
 10
0.0
 20
0.0
 11
1.0
 21
1.0
 12
315.0
 22
445.5
 13
0.0
 23
0.0
 14
0.5
 24
0.5
 15
0.5
 25
0.5
 16
0.0
 26
0.0
 36
1.0
 17
0.0
 27
0.0
 37
0.0
 40
980.1
 41
1.60267857142857
 42
50.0
 43
0.0
 44
0.0
 50
0.0
 51
0.0
 71
     0
 72
   100
 73
     1
 74
     3
 75
     0
 76
     0
 77
     0
 78
     0
281
     0
 65
     1
110
0.0
120
0.0
130
0.0
111
1.0
121
0.0
131
0.0
112
0.0
122
1.0
132
0.0
 79
     0
146
0.0
  0
ENDTAB
  0
TABLE
  2
LTYPE
  5
5
330
0
100
AcDbSymbolTable
 70
     8
  0
LTYPE
  5
14
330
5
100
AcDbSymbolTableRecord
100
AcDbLinetypeTableRecord
  2
ByBlock
 70
     0
  3

 72
    65
 73
     0
 40
0.0
  0
LTYPE
  5
15
330
5
100
AcDbSymbolTableRecord
100
AcDbLinetypeTableRecord
  2
ByLayer
 70
     0
  3

 72
    65
 73
     0
 40
0.0
  0
LTYPE
  5
16
330
5
100
AcDbSymbolTableRecord
100
AcDbLinetypeTableRecord
  2
Continuous
 70
     0
  3
Solid line
 72
    65
 73
     0
 40
0.0
  0
LTYPE
  5
3F
330
5
100
AcDbSymbolTableRecord
100
AcDbLinetypeTableRecord
  2
DASHED
 70
     0
  3
Dashed
 72
    65
 73
     2
 40
15.0
 49
7.0
 74
     0
 49
-8.0
 74
     0
  0
LTYPE
  5
40
330
5
100
AcDbSymbolTableRecord
100
AcDbLinetypeTableRecord
  2
DOTTED
 70
     0
  3
Dotted
 72
    65
 73
     2
 40
1.0
 49
0.0
 74
     0
 49
-1.0
 74
     0
  0
LTYPE
  5
41
330
5
100
AcDbSymbolTableRecord
100
AcDbLinetypeTableRecord
  2
DOT_CENTER
 70
     0
  3
Dot_Center
 72
    65
 73
     4
 40
14.0
 49
12.0
 74
     0
 49
-1.0
 74
     0
 49
0.0
 74
     0
 49
-1.0
 74
     0
  0
LTYPE
  5
42
330
5
100
AcDbSymbolTableRecord
100
AcDbLinetypeTableRecord
  2
LONG_DASHED
 70
     0
  3
Long_Dashed
 72
    65
 73
     2
 40
15.0
 49
10.0
 74
     0
 49
-5.0
 74
     0
  0
LTYPE
  5
43
330
5
100
AcDbSymbolTableRecord
100
AcDbLinetypeTableRecord
  2
DASH_CENTER
 70
     0
  3
Dash_Center
 72
    65
 73
     4
 40
14.0
 49
11.0
 74
     0
 49
-1.0
 74
     0
 49
1.0
 74
     0
 49
-1.0
 74
     0
  0
LTYPE
  5
44
330
5
100
AcDbSymbolTableRecord
100
AcDbLinetypeTableRecord
  2
PHANTOM
 70
     0
  3
Phantom
 72
    65
 73
     6
 40
13.0
 49
10.0
 74
     0
 49
-1.0
 74
     0
 49
0.0
 74
     0
 49
-1.0
 74
     0
 49
0.0
 74
     0
 49
-1.0
 74
     0
  0
LTYPE
  5
45
330
5
100
AcDbSymbolTableRecord
100
AcDbLinetypeTableRecord
  2
CENTER_DASH_DASH
 70
     0
  3
Center_Dash_Dash
 72
    65
 73
     6
 40
14.0
 49
9.0
 74
     0
 49
-1.0
 74
     0
 49
1.0
 74
     0
 49
-1.0
 74
     0
 49
1.0
 74
     0
 49
-1.0
 74
     0
  0
ENDTAB
  0
TABLE
  2
LAYER
  5
2
330
0
100
AcDbSymbolTable
 70
     2
  0
LAYER
  5
10
330
2
100
AcDbSymbolTableRecord
100
AcDbLayerTableRecord
  2
0
 70
     0
 62
     7
  6
Continuous
370
    -3
390
F
  0
LAYER
  5
46
330
2
100
AcDbSymbolTableRecord
100
AcDbLayerTableRecord
  2
1
 70
     0
 62
     7
  6
Continuous
370
    -3
390
F
  0
ENDTAB
  0
TABLE
  2
STYLE
  5
3
330
0
100
AcDbSymbolTable
 70
     3
  0
STYLE
  5
11
330
3
100
AcDbSymbolTableRecord
100
AcDbTextStyleTableRecord
  2
Standard
 70
     0
 40
0.0
 41
1.0
 50
0.0
 71
     0
 42
0.2
  3
txt
  4

  0
STYLE
  5
FC
330
3
100
AcDbSymbolTableRecord
100
AcDbTextStyleTableRecord
  2
CONVERTER_11
 70
     0
 40
0.0
 41
0.89
 50
0.0
 71
     0
 42
0.2
  3
MS Mincho.ttf
  4

1001
ACAD
1000
MS Mincho
1071
    32785
  0
STYLE
  5
21C
330
3
100
AcDbSymbolTableRecord
100
AcDbTextStyleTableRecord
  2
CONVERTER_12
 70
     0
 40
0.0
 41
0.9
 50
0.0
 71
     0
 42
0.2
  3
txt.shx
  4

  0
ENDTAB
  0
TABLE
  2
VIEW
  5
6
330
0
100
AcDbSymbolTable
 70
     0
  0
ENDTAB
  0
TABLE
  2
UCS
  5
7
330
0
100
AcDbSymbolTable
 70
     0
  0
ENDTAB
  0
TABLE
  2
APPID
  5
9
330
0
100
AcDbSymbolTable
 70
     1
  0
APPID
  5
12
330
9
100
AcDbSymbolTableRecord
100
AcDbRegAppTableRecord
  2
ACAD
 70
     0
  0
ENDTAB
  0
TABLE
  2
DIMSTYLE
  5
A
330
0
100
AcDbSymbolTable
 70
     8
100
AcDbDimStyleTable
  0
DIMSTYLE
105
27
330
A
100
AcDbSymbolTableRecord
100
AcDbDimStyleTableRecord
  2
Standard
 70
     0
178
     0
340
11
  0
DIMSTYLE
105
230
102
{ACAD_REACTORS
330
231
102
}
330
A
100
AcDbSymbolTableRecord
100
AcDbDimStyleTableRecord
  2
ME10_DIM_10
 70
     0
 41
10.5
 42
0.0
 44
3.0
 73
     0
 74
     0
 77
     1
 78
     8
140
10.5
147
3.0
172
     1
173
     1
174
     1
175
     1
176
     2
177
     2
271
     2
178
     7
271
     2
340
21C
  0
DIMSTYLE
105
23B
102
{ACAD_REACTORS
330
23C
102
}
330
A
100
AcDbSymbolTableRecord
100
AcDbDimStyleTableRecord
  2
ME10_DIM_11
 70
     0
 41
10.5
 42
0.0
 44
3.0
 73
     0
 74
     0
 77
     1
 78
     8
140
10.5
147
3.0
172
     1
173
     1
174
     1
175
     1
176
     2
177
     2
271
     2
178
     7
271
     2
340
21C
  0
DIMSTYLE
105
248
102
{ACAD_REACTORS
330
249
102
}
330
A
100
AcDbSymbolTableRecord
100
AcDbDimStyleTableRecord
  2
ME10_DIM_12
 70
     0
 41
10.5
 42
0.0
 44
3.0
 73
     0
 74
     0
 77
     1
 78
     8
140
10.5
147
3.0
172
     1
173
     1
174
     1
175
     1
176
     2
177
     2
271
     2
178
     7
271
     2
340
21C
  0
DIMSTYLE
105
253
102
{ACAD_REACTORS
330
254
102
}
330
A
100
AcDbSymbolTableRecord
100
AcDbDimStyleTableRecord
  2
ME10_DIM_13
 70
     0
 41
10.5
 42
0.0
 44
3.0
 73
     0
 74
     0
 77
     1
 78
     8
140
10.5
147
3.0
172
     1
173
     1
174
     1
175
     1
176
     2
177
     2
271
     2
178
     7
271
     2
340
21C
  0
DIMSTYLE
105
260
102
{ACAD_REACTORS
330
261
102
}
330
A
100
AcDbSymbolTableRecord
100
AcDbDimStyleTableRecord
  2
ME10_DIM_14
 70
     0
 41
10.5
 42
0.0
 44
3.0
 73
     0
 74
     0
 77
     1
 78
     8
140
10.5
147
3.0
172
     1
173
     1
174
     1
175
     1
176
     2
177
     2
271
     2
178
     7
271
     2
340
21C
  0
DIMSTYLE
105
26D
102
{ACAD_REACTORS
330
26E
102
}
330
A
100
AcDbSymbolTableRecord
100
AcDbDimStyleTableRecord
  2
ME10_DIM_15
 70
     0
 41
10.5
 42
0.0
 44
3.0
 73
     0
 74
     0
 77
     1
 78
     8
140
10.5
147
3.0
172
     1
173
     1
174
     1
175
     1
176
     2
177
     2
271
     2
178
     7
271
     2
340
21C
  0
DIMSTYLE
105
278
102
{ACAD_REACTORS
330
279
102
}
330
A
100
AcDbSymbolTableRecord
100
AcDbDimStyleTableRecord
  2
ME10_DIM_16
 70
     0
 41
10.5
 42
0.0
 44
3.0
 73
     0
 74
     0
 77
     1
 78
     8
140
10.5
147
3.0
172
     1
173
     1
174
     1
175
     1
176
     2
177
     2
271
     2
178
     7
271
     2
340
21C
  0
ENDTAB
  0
TABLE
  2
BLOCK_RECORD
  5
1
330
0
100
AcDbSymbolTable
 70
    22
  0
BLOCK_RECORD
  5
1F
330
1
100
AcDbSymbolTableRecord
100
AcDbBlockTableRecord
  2
*Model_Space
340
22
  0
BLOCK_RECORD
  5
1B
330
1
100
AcDbSymbolTableRecord
100
AcDbBlockTableRecord
  2
*Paper_Space
340
1E
  0
BLOCK_RECORD
  5
23
330
1
100
AcDbSymbolTableRecord
100
AcDbBlockTableRecord
  2
*Paper_Space0
340
26
  0
BLOCK_RECORD
  5
47
330
1
100
AcDbSymbolTableRecord
100
AcDbBlockTableRecord
  2
64-7-13-420-M11
340
0
102
{BLKREFS
331
77
102
}
  0
BLOCK_RECORD
  5
4A
330
1
100
AcDbSymbolTableRecord
100
AcDbBlockTableRecord
  2
開示A4
340
0
102
{BLKREFS
331
78
102
}
  0
BLOCK_RECORD
  5
4D
330
1
100
AcDbSymbolTableRecord
100
AcDbBlockTableRecord
  2
V2161-0-13-M1
340
0
102
{BLKREFS
331
79
102
}
  0
BLOCK_RECORD
  5
50
330
1
100
AcDbSymbolTableRecord
100
AcDbBlockTableRecord
  2
34-160-M11
340
0
102
{BLKREFS
331
7A
102
}
  0
BLOCK_RECORD
  5
53
330
1
100
AcDbSymbolTableRecord
100
AcDbBlockTableRecord
  2
31-81-M1
340
0
102
{BLKREFS
331
7B
102
}
  0
BLOCK_RECORD
  5
56
330
1
100
AcDbSymbolTableRecord
100
AcDbBlockTableRecord
  2
37-311-M11
340
0
102
{BLKREFS
331
7C
102
}
  0
BLOCK_RECORD
  5
59
330
1
100
AcDbSymbolTableRecord
100
AcDbBlockTableRecord
  2
57-11-M1
340
0
102
{BLKREFS
331
7D
102
}
  0
BLOCK_RECORD
  5
5C
330
1
100
AcDbSymbolTableRecord
100
AcDbBlockTableRecord
  2
30-219-C2
340
0
102
{BLKREFS
331
73
102
}
  0
BLOCK_RECORD
  5
5F
330
1
100
AcDbSymbolTableRecord
100
AcDbBlockTableRecord
  2
32-88
340
0
102
{BLKREFS
331
69
102
}
  0
BLOCK_RECORD
  5
62
330
1
100
AcDbSymbolTableRecord
100
AcDbBlockTableRecord
  2
91-1
340
0
102
{BLKREFS
331
6A
102
}
  0
BLOCK_RECORD
  5
65
330
1
100
AcDbSymbolTableRecord
100
AcDbBlockTableRecord
  2
41-7-15-C2
340
0
102
{BLKREFS
331
6B
102
}
  0
BLOCK_RECORD
  5
68
330
1
100
AcDbSymbolTableRecord
100
AcDbBlockTableRecord
  2
P82AT-2-15
340
0
102
{BLKREFS
331
6F
102
}
  0
BLOCK_RECORD
  5
6E
330
1
100
AcDbSymbolTableRecord
100
AcDbBlockTableRecord
  2
36-179-C2
340
0
102
{BLKREFS
331
74
102
}
  0
BLOCK_RECORD
  5
72
330
1
100
AcDbSymbolTableRecord
100
AcDbBlockTableRecord
  2
30-219X
340
0
102
{BLKREFS
331
7E
102
}
  0
BLOCK_RECORD
  5
227
330
1
100
AcDbSymbolTableRecord
100
AcDbBlockTableRecord
  2
*D15
340
0
  0
BLOCK_RECORD
  5
232
330
1
100
AcDbSymbolTableRecord
100
AcDbBlockTableRecord
  2
*D16
340
0
  0
BLOCK_RECORD
  5
23D
330
1
100
AcDbSymbolTableRecord
100
AcDbBlockTableRecord
  2
*D17
340
0
  0
BLOCK_RECORD
  5
24A
330
1
100
AcDbSymbolTableRecord
100
AcDbBlockTableRecord
  2
*D18
340
0
  0
BLOCK_RECORD
  5
255
330
1
100
AcDbSymbolTableRecord
100
AcDbBlockTableRecord
  2
*D19
340
0
  0
BLOCK_RECORD
  5
262
330
1
100
AcDbSymbolTableRecord
100
AcDbBlockTableRecord
  2
*D20
340
0
  0
BLOCK_RECORD
  5
26F
330
1
100
AcDbSymbolTableRecord
100
AcDbBlockTableRecord
  2
*D21
340
0
  0
ENDTAB
  0
ENDSEC
  0
SECTION
  2
BLOCKS
  0
BLOCK
  5
20
330
1F
100
AcDbEntity
  8
0
100
AcDbBlockBegin
  2
*Model_Space
 70
     0
 10
0.0
 20
0.0
 30
0.0
  3
*Model_Space
  1

  0
ENDBLK
  5
21
330
1F
100
AcDbEntity
  8
0
100
AcDbBlockEnd
  0
BLOCK
  5
1C
330
1B
100
AcDbEntity
 67
     1
  8
0
100
AcDbBlockBegin
  2
*Paper_Space
 70
     0
 10
0.0
 20
0.0
 30
0.0
  3
*Paper_Space
  1

  0
ENDBLK
  5
1D
330
1B
100
AcDbEntity
 67
     1
  8
0
100
AcDbBlockEnd
  0
BLOCK
  5
24
330
23
100
AcDbEntity
  8
0
100
AcDbBlockBegin
  2
*Paper_Space0
 70
     0
 10
0.0
 20
0.0
 30
0.0
  3
*Paper_Space0
  1

  0
ENDBLK
  5
25
330
23
100
AcDbEntity
  8
0
100
AcDbBlockEnd
  0
BLOCK
  5
48
330
47
100
AcDbEntity
  8
0
100
AcDbBlockBegin
  2
64-7-13-420-M11
 70
     0
 10
662.0
 20
1557.0
 30
0.0
  3
64-7-13-420-M11
  1

  0
LINE
  5
7F
330
47
100
AcDbEntity
  8
1
  6
PHANTOM
 62
     4
100
AcDbLine
 10
421.0102215444823
 20
610.193528974565
 30
0.0
 11
421.0102215444823
 21
184.1935289745647
 31
0.0
  0
LINE
  5
80
330
47
100
AcDbEntity
  8
1
  6
Continuous
 62
     7
100
AcDbLine
 10
431.3102215444824
 20
591.0848531220927
 30
0.0
 11
431.3102215444824
 21
222.1935289745647
 31
0.0
  0
LINE
  5
81
330
47
100
AcDbEntity
  8
1
  6
Continuous
 62
     7
100
AcDbLine
 10
431.2551728650518
 20
593.193528974565
 30
0.0
 11
431.3102215444824
 21
591.0848531220927
 31
0.0
  0
LINE
  5
82
330
47
100
AcDbEntity
  8
1
  6
Continuous
 62
     2
100
AcDbLine
 10
431.3102215444824
 20
591.0848531220927
 30
0.0
 11
430.0927769734237
 21
593.193528974565
 31
0.0
  0
LINE
  5
83
330
47
100
AcDbEntity
  8
1
  6
Continuous
 62
     2
100
AcDbLine
 10
430.0927769734237
 20
201.1935289745648
 30
0.0
 11
431.3102215444824
 21
203.3022048270372
 31
0.0
  0
LINE
  5
84
330
47
100
AcDbEntity
  8
1
  6
Continuous
 62
     2
100
AcDbLine
 10
430.0927769734237
 20
201.1935289745648
 30
0.0
 11
429.7533329908537
 21
187.1935289745648
 31
0.0
  0
LINE
  5
85
330
47
100
AcDbEntity
  8
1
  6
Continuous
 62
     7
100
AcDbLine
 10
431.3102215444824
 20
203.3022048270372
 30
0.0
 11
431.2551728650518
 21
201.1935289745648
 31
0.0
  0
LINE
  5
86
330
47
100
AcDbEntity
  8
1
  6
Continuous
 62
     7
100
AcDbLine
 10
430.9798303050167
 20
188.3538309038646
 30
0.0
 11
429.7550335466348
 21
187.1935289745648
 31
0.0
  0
LINE
  5
87
330
47
100
AcDbEntity
  8
1
  6
Continuous
 62
     7
100
AcDbLine
 10
410.7652702239126
 20
201.1935289745648
 30
0.0
 11
431.2551728650518
 21
201.1935289745648
 31
0.0
  0
LINE
  5
88
330
47
100
AcDbEntity
  8
1
  6
Continuous
 62
     7
100
AcDbLine
 10
431.2551728650518
 20
201.1935289745648
 30
0.0
 11
430.9798303050167
 21
188.3538309038646
 31
0.0
  0
LINE
  5
89
330
47
100
AcDbEntity
  8
1
  6
Continuous
 62
     7
100
AcDbLine
 10
429.7533329908537
 20
187.1935289745648
 30
0.0
 11
429.7550335466348
 21
187.1935289745648
 31
0.0
  0
LINE
  5
8A
330
47
100
AcDbEntity
  8
1
  6
Continuous
 62
     7
100
AcDbLine
 10
410.7102215444821
 20
203.3022048270372
 30
0.0
 11
410.7102215444821
 21
207.193528974565
 31
0.0
  0
LINE
  5
8B
330
47
100
AcDbEntity
  8
1
  6
Continuous
 62
     7
100
AcDbLine
 10
412.2654095423299
 20
187.1935289745648
 30
0.0
 11
412.267110098111
 21
187.1935289745648
 31
0.0
  0
LINE
  5
8C
330
47
100
AcDbEntity
  8
1
  6
Continuous
 62
     7
100
AcDbLine
 10
412.267110098111
 20
187.1935289745648
 30
0.0
 11
429.7533329908537
 21
187.1935289745648
 31
0.0
  0
LINE
  5
8D
330
47
100
AcDbEntity
  8
1
  6
Continuous
 62
     7
100
AcDbLine
 10
411.040612783948
 20
188.3538309038646
 30
0.0
 11
410.7652702239126
 21
201.1935289745648
 31
0.0
  0
LINE
  5
8E
330
47
100
AcDbEntity
  8
1
  6
Continuous
 62
     7
100
AcDbLine
 10
412.2654095423299
 20
187.1935289745648
 30
0.0
 11
411.040612783948
 21
188.3538309038646
 31
0.0
  0
LINE
  5
8F
330
47
100
AcDbEntity
  8
1
  6
Continuous
 62
     7
100
AcDbLine
 10
410.7652702239126
 20
201.1935289745648
 30
0.0
 11
410.7102215444821
 21
203.3022048270372
 31
0.0
  0
LINE
  5
90
330
47
100
AcDbEntity
  8
1
  6
Continuous
 62
     2
100
AcDbLine
 10
412.267110098111
 20
187.1935289745648
 30
0.0
 11
411.9276661155407
 21
201.1935289745648
 31
0.0
  0
LINE
  5
91
330
47
100
AcDbEntity
  8
1
  6
Continuous
 62
     2
100
AcDbLine
 10
410.7102215444821
 20
203.3022048270372
 30
0.0
 11
411.9276661155407
 21
201.1935289745648
 31
0.0
  0
LINE
  5
92
330
47
100
AcDbEntity
  8
1
  6
Continuous
 62
     2
100
AcDbLine
 10
411.9276661155407
 20
593.193528974565
 30
0.0
 11
410.7102215444821
 21
591.0848531220927
 31
0.0
  0
LINE
  5
93
330
47
100
AcDbEntity
  8
1
  6
Continuous
 62
     7
100
AcDbLine
 10
410.7102215444821
 20
591.0848531220927
 30
0.0
 11
410.7652702239129
 21
593.193528974565
 31
0.0
  0
LINE
  5
94
330
47
100
AcDbEntity
  8
1
  6
Continuous
 62
     7
100
AcDbLine
 10
431.2551728650518
 20
593.193528974565
 30
0.0
 11
410.7652702239129
 21
593.193528974565
 31
0.0
  0
LINE
  5
95
330
47
100
AcDbEntity
  8
1
  6
Continuous
 62
     7
100
AcDbLine
 10
410.7102215444821
 20
222.193528974565
 30
0.0
 11
410.7102215444821
 21
591.0848531220927
 31
0.0
  0
LINE
  5
96
330
47
100
AcDbEntity
  8
1
  6
Continuous
 62
     7
100
AcDbLine
 10
411.040612783948
 20
188.3538309038646
 30
0.0
 11
430.9798303050167
 21
188.3538309038646
 31
0.0
  0
LINE
  5
97
330
47
100
AcDbEntity
  8
1
  6
Continuous
 62
     7
100
AcDbLine
 10
431.3102215444824
 20
207.193528974565
 30
0.0
 11
431.3102215444824
 21
203.3022048270372
 31
0.0
  0
LINE
  5
98
330
47
100
AcDbEntity
  8
1
  6
Continuous
 62
     7
100
AcDbLine
 10
281.2897784555196
 20
207.193528974565
 30
0.0
 11
281.2897784555196
 21
203.3022048270372
 31
0.0
  0
LINE
  5
99
330
47
100
AcDbEntity
  8
1
  6
Continuous
 62
     7
100
AcDbLine
 10
261.0201696949849
 20
188.3538309038646
 30
0.0
 11
280.9593872160538
 21
188.3538309038646
 31
0.0
  0
LINE
  5
9A
330
47
100
AcDbEntity
  8
1
  6
Continuous
 62
     7
100
AcDbLine
 10
260.6897784555191
 20
222.193528974565
 30
0.0
 11
260.6897784555192
 21
591.0848531220927
 31
0.0
  0
LINE
  5
9B
330
47
100
AcDbEntity
  8
1
  6
Continuous
 62
     7
100
AcDbLine
 10
281.2347297760888
 20
593.193528974565
 30
0.0
 11
260.7448271349499
 21
593.193528974565
 31
0.0
  0
LINE
  5
9C
330
47
100
AcDbEntity
  8
1
  6
Continuous
 62
     7
100
AcDbLine
 10
260.6897784555192
 20
591.0848531220927
 30
0.0
 11
260.7448271349499
 21
593.193528974565
 31
0.0
  0
LINE
  5
9D
330
47
100
AcDbEntity
  8
1
  6
Continuous
 62
     2
100
AcDbLine
 10
261.9072230265779
 20
593.193528974565
 30
0.0
 11
260.6897784555192
 21
591.0848531220927
 31
0.0
  0
LINE
  5
9E
330
47
100
AcDbEntity
  8
1
  6
Continuous
 62
     2
100
AcDbLine
 10
260.6897784555192
 20
203.3022048270372
 30
0.0
 11
261.9072230265779
 21
201.1935289745648
 31
0.0
  0
LINE
  5
9F
330
47
100
AcDbEntity
  8
1
  6
Continuous
 62
     2
100
AcDbLine
 10
262.2466670091479
 20
187.1935289745648
 30
0.0
 11
261.9072230265779
 21
201.1935289745648
 31
0.0
  0
LINE
  5
A0
330
47
100
AcDbEntity
  8
1
  6
Continuous
 62
     7
100
AcDbLine
 10
260.7448271349497
 20
201.1935289745648
 30
0.0
 11
260.6897784555192
 21
203.3022048270372
 31
0.0
  0
LINE
  5
A1
330
47
100
AcDbEntity
  8
1
  6
Continuous
 62
     7
100
AcDbLine
 10
262.2449664533668
 20
187.1935289745648
 30
0.0
 11
261.0201696949849
 21
188.3538309038646
 31
0.0
  0
LINE
  5
A2
330
47
100
AcDbEntity
  8
1
  6
Continuous
 62
     7
100
AcDbLine
 10
261.0201696949849
 20
188.3538309038646
 30
0.0
 11
260.7448271349497
 21
201.1935289745648
 31
0.0
  0
LINE
  5
A3
330
47
100
AcDbEntity
  8
1
  6
Continuous
 62
     7
100
AcDbLine
 10
262.2466670091479
 20
187.1935289745648
 30
0.0
 11
279.7328899018908
 21
187.1935289745648
 31
0.0
  0
LINE
  5
A4
330
47
100
AcDbEntity
  8
1
  6
Continuous
 62
     7
100
AcDbLine
 10
262.2449664533668
 20
187.1935289745648
 30
0.0
 11
262.2466670091479
 21
187.1935289745648
 31
0.0
  0
LINE
  5
A5
330
47
100
AcDbEntity
  8
1
  6
Continuous
 62
     7
100
AcDbLine
 10
260.6897784555192
 20
203.3022048270372
 30
0.0
 11
260.6897784555191
 21
207.193528974565
 31
0.0
  0
LINE
  5
A6
330
47
100
AcDbEntity
  8
1
  6
Continuous
 62
     7
100
AcDbLine
 10
279.7328899018908
 20
187.1935289745648
 30
0.0
 11
279.7345904576719
 21
187.1935289745648
 31
0.0
  0
LINE
  5
A7
330
47
100
AcDbEntity
  8
1
  6
Continuous
 62
     7
100
AcDbLine
 10
281.2347297760888
 20
201.1935289745648
 30
0.0
 11
280.9593872160538
 21
188.3538309038646
 31
0.0
  0
LINE
  5
A8
330
47
100
AcDbEntity
  8
1
  6
Continuous
 62
     7
100
AcDbLine
 10
260.7448271349497
 20
201.1935289745648
 30
0.0
 11
281.2347297760888
 21
201.1935289745648
 31
0.0
  0
LINE
  5
A9
330
47
100
AcDbEntity
  8
1
  6
Continuous
 62
     7
100
AcDbLine
 10
280.9593872160538
 20
188.3538309038646
 30
0.0
 11
279.7345904576719
 21
187.1935289745648
 31
0.0
  0
LINE
  5
AA
330
47
100
AcDbEntity
  8
1
  6
Continuous
 62
     7
100
AcDbLine
 10
281.2897784555196
 20
203.3022048270372
 30
0.0
 11
281.2347297760888
 21
201.1935289745648
 31
0.0
  0
LINE
  5
AB
330
47
100
AcDbEntity
  8
1
  6
Continuous
 62
     2
100
AcDbLine
 10
280.0723338844608
 20
201.1935289745648
 30
0.0
 11
279.7328899018908
 21
187.1935289745648
 31
0.0
  0
LINE
  5
AC
330
47
100
AcDbEntity
  8
1
  6
Continuous
 62
     2
100
AcDbLine
 10
280.0723338844608
 20
201.1935289745648
 30
0.0
 11
281.2897784555196
 21
203.3022048270372
 31
0.0
  0
LINE
  5
AD
330
47
100
AcDbEntity
  8
1
  6
Continuous
 62
     2
100
AcDbLine
 10
281.2897784555196
 20
591.0848531220927
 30
0.0
 11
280.0723338844608
 21
593.193528974565
 31
0.0
  0
LINE
  5
AE
330
47
100
AcDbEntity
  8
1
  6
Continuous
 62
     7
100
AcDbLine
 10
281.2347297760888
 20
593.193528974565
 30
0.0
 11
281.2897784555196
 21
591.0848531220927
 31
0.0
  0
LINE
  5
AF
330
47
100
AcDbEntity
  8
1
  6
Continuous
 62
     7
100
AcDbLine
 10
281.2897784555196
 20
591.0848531220927
 30
0.0
 11
281.2897784555196
 21
222.1935289745647
 31
0.0
  0
LINE
  5
B0
330
47
100
AcDbEntity
  8
1
  6
PHANTOM
 62
     4
100
AcDbLine
 10
270.9897784555193
 20
610.193528974565
 30
0.0
 11
270.9897784555193
 21
184.1935289745647
 31
0.0
  0
ENDBLK
  5
49
330
47
100
AcDbEntity
  8
0
100
AcDbBlockEnd
  0
BLOCK
  5
4B
330
4A
100
AcDbEntity
  8
0
100
AcDbBlockBegin
  2
開示A4
 70
     0
 10
0.0
 20
0.0
 30
0.0
  3
開示A4
  1

  0
POINT
  5
B1
330
4A
100
AcDbEntity
  8
1
 62
     4
100
AcDbPoint
 10
34.0
 20
34.00000000000001
 30
0.0
  0
POINT
  5
B2
330
4A
100
AcDbEntity
  8
1
 62
     4
100
AcDbPoint
 10
57.0
 20
12.25
 30
0.0
  0
POINT
  5
B3
330
4A
100
AcDbEntity
  8
1
 62
     4
100
AcDbPoint
 10
57.0
 20
20.75000000000001
 30
0.0
  0
POINT
  5
B4
330
4A
100
AcDbEntity
  8
1
 62
     4
100
AcDbPoint
 10
57.0
 20
24.75000000000001
 30
0.0
  0
POINT
  5
B5
330
4A
100
AcDbEntity
  8
1
 62
     4
100
AcDbPoint
 10
57.0
 20
16.25
 30
0.0
  0
POINT
  5
B6
330
4A
100
AcDbEntity
  8
1
 62
     4
100
AcDbPoint
 10
157.5
 20
19.00000000000001
 30
0.0
  0
POINT
  5
B7
330
4A
100
AcDbEntity
  8
1
 62
     4
100
AcDbPoint
 10
47.5
 20
282.0000000000003
 30
0.0
  0
POINT
  5
B8
330
4A
100
AcDbEntity
  8
1
 62
     4
100
AcDbPoint
 10
57.0
 20
22.75000000000001
 30
0.0
  0
POINT
  5
B9
330
4A
100
AcDbEntity
  8
1
 62
     4
100
AcDbPoint
 10
57.0
 20
14.25
 30
0.0
  0
POINT
  5
BA
330
4A
100
AcDbEntity
  8
1
 62
     4
100
AcDbPoint
 10
157.5
 20
12.5
 30
0.0
  0
POINT
  5
BB
330
4A
100
AcDbEntity
  8
1
 62
     4
100
AcDbPoint
 10
163.25
 20
12.5
 30
0.0
  0
POINT
  5
BC
330
4A
100
AcDbEntity
  8
1
 62
     4
100
AcDbPoint
 10
151.75
 20
12.5
 30
0.0
  0
POINT
  5
BD
330
4A
100
AcDbEntity
  8
1
 62
     4
100
AcDbPoint
 10
134.75
 20
12.5
 30
0.0
  0
POINT
  5
BE
330
4A
100
AcDbEntity
  8
1
 62
     4
100
AcDbPoint
 10
146.25
 20
12.5
 30
0.0
  0
POINT
  5
BF
330
4A
100
AcDbEntity
  8
1
 62
     4
100
AcDbPoint
 10
140.5
 20
12.5
 30
0.0
  0
POINT
  5
C0
330
4A
100
AcDbEntity
  8
1
 62
     4
100
AcDbPoint
 10
140.5
 20
19.00000000000001
 30
0.0
  0
POINT
  5
C1
330
4A
100
AcDbEntity
  8
1
 62
     4
100
AcDbPoint
 10
117.75
 20
12.5
 30
0.0
  0
POINT
  5
C2
330
4A
100
AcDbEntity
  8
1
 62
     4
100
AcDbPoint
 10
129.25
 20
12.5
 30
0.0
  0
POINT
  5
C3
330
4A
100
AcDbEntity
  8
1
 62
     4
100
AcDbPoint
 10
123.5
 20
12.5
 30
0.0
  0
POINT
  5
C4
330
4A
100
AcDbEntity
  8
1
 62
     4
100
AcDbPoint
 10
123.5
 20
19.00000000000001
 30
0.0
  0
POINT
  5
C5
330
4A
100
AcDbEntity
  8
1
 62
     4
100
AcDbPoint
 10
100.75
 20
12.5
 30
0.0
  0
POINT
  5
C6
330
4A
100
AcDbEntity
  8
1
 62
     4
100
AcDbPoint
 10
112.25
 20
12.5
 30
0.0
  0
POINT
  5
C7
330
4A
100
AcDbEntity
  8
1
 62
     4
100
AcDbPoint
 10
106.5
 20
12.5
 30
0.0
  0
POINT
  5
C8
330
4A
100
AcDbEntity
  8
1
 62
     4
100
AcDbPoint
 10
106.5
 20
19.00000000000001
 30
0.0
  0
POINT
  5
C9
330
4A
100
AcDbEntity
  8
1
 62
     4
100
AcDbPoint
 10
85.25
 20
17.0
 30
0.0
  0
POINT
  5
CA
330
4A
100
AcDbEntity
  8
1
 62
     4
100
AcDbPoint
 10
93.75
 20
17.0
 30
0.0
  0
LINE
  5
CB
330
4A
100
AcDbEntity
  8
1
  6
Continuous
 62
     2
100
AcDbLine
 10
81.0
 20
27.00000000000001
 30
0.0
 11
81.0
 21
10.0
 31
0.0
  0
LINE
  5
CC
330
4A
100
AcDbEntity
  8
1
  6
DOT_CENTER
 62
     2
100
AcDbLine
 10
187.0
 20
26.50000000000001
 30
0.0
 11
187.0
 21
20.50000000000001
 31
0.0
  0
LINE
  5
CD
330
4A
100
AcDbEntity
  8
1
  6
DOT_CENTER
 62
     2
100
AcDbLine
 10
184.0
 20
23.50000000000001
 30
0.0
 11
197.0
 21
23.50000000000001
 31
0.0
  0
LINE
  5
CE
330
4A
100
AcDbEntity
  8
1
  6
Continuous
 62
     7
100
AcDbLine
 10
196.0
 20
21.50000000000001
 30
0.0
 11
191.0
 21
22.30000000000001
 31
0.0
  0
LINE
  5
CF
330
4A
100
AcDbEntity
  8
1
  6
Continuous
 62
     7
100
AcDbLine
 10
196.0
 20
25.50000000000001
 30
0.0
 11
196.0
 21
21.50000000000001
 31
0.0
  0
LINE
  5
D0
330
4A
100
AcDbEntity
  8
1
  6
Continuous
 62
     7
100
AcDbLine
 10
191.0
 20
24.70000000000001
 30
0.0
 11
196.0
 21
25.50000000000001
 31
0.0
  0
LINE
  5
D1
330
4A
100
AcDbEntity
  8
1
  6
Continuous
 62
     7
100
AcDbLine
 10
191.0
 20
24.70000000000001
 30
0.0
 11
191.0
 21
22.30000000000001
 31
0.0
  0
LINE
  5
D2
330
4A
100
AcDbEntity
  8
1
  6
Continuous
 62
     2
100
AcDbLine
 10
33.0
 20
27.0
 30
0.0
 11
33.0
 21
10.0
 31
0.0
  0
LINE
  5
D3
330
4A
100
AcDbEntity
  8
1
  6
Continuous
 62
     2
100
AcDbLine
 10
25.0
 20
18.50000000000001
 30
0.0
 11
81.0
 21
18.50000000000001
 31
0.0
  0
LINE
  5
D4
330
4A
100
AcDbEntity
  8
1
  6
Continuous
 62
     7
100
AcDbLine
 10
200.0
 20
287.0000000000003
 30
0.0
 11
105.0
 21
287.0000000000003
 31
0.0
  0
LINE
  5
D5
330
4A
100
AcDbEntity
  8
1
  6
Continuous
 62
     7
100
AcDbLine
 10
200.0
 20
10.0
 30
0.0
 11
200.0
 21
148.5
 31
0.0
  0
LINE
  5
D6
330
4A
100
AcDbEntity
  8
1
  6
Continuous
 62
     7
100
AcDbLine
 10
25.0
 20
10.0
 30
0.0
 11
105.0
 21
10.0
 31
0.0
  0
LINE
  5
D7
330
4A
100
AcDbEntity
  8
1
  6
PHANTOM
 62
     4
100
AcDbLine
 10
0.0
 20
297.0
 30
0.0
 11
0.0
 21
0.0
 31
0.0
  0
LINE
  5
D8
330
4A
100
AcDbEntity
  8
1
  6
PHANTOM
 62
     4
100
AcDbLine
 10
210.0
 20
297.0
 30
0.0
 11
0.0
 21
297.0
 31
0.0
  0
LINE
  5
D9
330
4A
100
AcDbEntity
  8
1
  6
PHANTOM
 62
     4
100
AcDbLine
 10
210.0
 20
0.0
 30
0.0
 11
210.0
 21
297.0
 31
0.0
  0
LINE
  5
DA
330
4A
100
AcDbEntity
  8
1
  6
PHANTOM
 62
     4
100
AcDbLine
 10
0.0
 20
0.0
 30
0.0
 11
210.0
 21
0.0
 31
0.0
  0
LINE
  5
DB
330
4A
100
AcDbEntity
  8
1
  6
Continuous
 62
     7
100
AcDbLine
 10
25.0
 20
41.0
 30
0.0
 11
200.0
 21
41.0
 31
0.0
  0
LINE
  5
DC
330
4A
100
AcDbEntity
  8
1
  6
Continuous
 62
     7
100
AcDbLine
 10
200.0
 20
27.00000000000001
 30
0.0
 11
25.0
 21
27.00000000000001
 31
0.0
  0
LINE
  5
DD
330
4A
100
AcDbEntity
  8
1
  6
Continuous
 62
     2
100
AcDbLine
 10
33.0
 20
41.00000000000001
 30
0.0
 11
33.0
 21
27.0
 31
0.0
  0
LINE
  5
DE
330
4A
100
AcDbEntity
  8
1
  6
Continuous
 62
     2
100
AcDbLine
 10
55.0
 20
287.0000000000003
 30
0.0
 11
55.0
 21
277.0000000000003
 31
0.0
  0
LINE
  5
DF
330
4A
100
AcDbEntity
  8
1
  6
Continuous
 62
     2
100
AcDbLine
 10
40.0
 20
287.0000000000003
 30
0.0
 11
40.0
 21
277.0000000000003
 31
0.0
  0
LINE
  5
E0
330
4A
100
AcDbEntity
  8
1
  6
Continuous
 62
     7
100
AcDbLine
 10
25.0
 20
10.0
 30
0.0
 11
25.0
 21
148.5
 31
0.0
  0
LINE
  5
E1
330
4A
100
AcDbEntity
  8
1
  6
Continuous
 62
     2
100
AcDbLine
 10
55.0
 20
277.0000000000003
 30
0.0
 11
25.0
 21
277.0000000000003
 31
0.0
  0
LINE
  5
E2
330
4A
100
AcDbEntity
  8
1
  6
Continuous
 62
     2
100
AcDbLine
 10
166.0
 20
27.00000000000001
 30
0.0
 11
166.0
 21
10.0
 31
0.0
  0
LINE
  5
E3
330
4A
100
AcDbEntity
  8
1
  6
Continuous
 62
     2
100
AcDbLine
 10
132.0
 20
27.00000000000001
 30
0.0
 11
132.0
 21
9.99999999999999
 31
0.0
  0
LINE
  5
E4
330
4A
100
AcDbEntity
  8
1
  6
Continuous
 62
     2
100
AcDbLine
 10
149.0
 20
27.00000000000001
 30
0.0
 11
149.0
 21
10.0
 31
0.0
  0
LINE
  5
E5
330
4A
100
AcDbEntity
  8
1
  6
Continuous
 62
     2
100
AcDbLine
 10
115.0
 20
27.00000000000001
 30
0.0
 11
115.0
 21
9.99999999999999
 31
0.0
  0
LINE
  5
E6
330
4A
100
AcDbEntity
  8
1
  6
Continuous
 62
     2
100
AcDbLine
 10
98.0
 20
27.00000000000001
 30
0.0
 11
98.0
 21
9.99999999999999
 31
0.0
  0
LINE
  5
E7
330
4A
100
AcDbEntity
  8
1
  6
Continuous
 62
     2
100
AcDbLine
 10
166.0
 20
20.00000000000001
 30
0.0
 11
200.0
 21
20.00000000000001
 31
0.0
  0
LINE
  5
E8
330
4A
100
AcDbEntity
  8
1
  6
Continuous
 62
     2
100
AcDbLine
 10
105.0
 20
287.0000000000003
 30
0.0
 11
105.0
 21
292.0000000000003
 31
0.0
  0
LINE
  5
E9
330
4A
100
AcDbEntity
  8
1
  6
Continuous
 62
     7
100
AcDbLine
 10
105.0
 20
287.0000000000003
 30
0.0
 11
25.0
 21
287.0000000000003
 31
0.0
  0
LINE
  5
EA
330
4A
100
AcDbEntity
  8
1
  6
Continuous
 62
     2
100
AcDbLine
 10
25.0
 20
148.5
 30
0.0
 11
20.0
 21
148.5
 31
0.0
  0
LINE
  5
EB
330
4A
100
AcDbEntity
  8
1
  6
Continuous
 62
     7
100
AcDbLine
 10
25.0
 20
148.5
 30
0.0
 11
25.0
 21
287.0000000000003
 31
0.0
  0
LINE
  5
EC
330
4A
100
AcDbEntity
  8
1
  6
Continuous
 62
     2
100
AcDbLine
 10
200.0
 20
148.5
 30
0.0
 11
205.0
 21
148.5
 31
0.0
  0
LINE
  5
ED
330
4A
100
AcDbEntity
  8
1
  6
Continuous
 62
     7
100
AcDbLine
 10
200.0
 20
148.5
 30
0.0
 11
200.0
 21
287.0000000000003
 31
0.0
  0
LINE
  5
EE
330
4A
100
AcDbEntity
  8
1
  6
Continuous
 62
     2
100
AcDbLine
 10
105.0
 20
10.0
 30
0.0
 11
105.0
 21
5.0
 31
0.0
  0
LINE
  5
EF
330
4A
100
AcDbEntity
  8
1
  6
Continuous
 62
     7
100
AcDbLine
 10
105.0
 20
10.0
 30
0.0
 11
200.0
 21
10.0
 31
0.0
  0
CIRCLE
  5
F0
330
4A
100
AcDbEntity
  8
1
  6
DOT_CENTER
 62
     7
100
AcDbCircle
 10
89.5
 20
18.0
 30
0.0
 40
0.1000000000000227
  0
CIRCLE
  5
F1
330
4A
100
AcDbEntity
  8
1
  6
DOT_CENTER
 62
     7
100
AcDbCircle
 10
89.5
 20
16.0
 30
0.0
 40
0.1000000000000227
  0
CIRCLE
  5
F2
330
4A
100
AcDbEntity
  8
1
  6
Continuous
 62
     7
100
AcDbCircle
 10
187.0
 20
23.50000000000001
 30
0.0
 40
2.0
  0
CIRCLE
  5
F3
330
4A
100
AcDbEntity
  8
1
  6
Continuous
 62
     7
100
AcDbCircle
 10
187.0
 20
23.50000000000001
 30
0.0
 40
1.200000000000102
  0
CIRCLE
  5
F4
330
4A
100
AcDbEntity
  8
1
  6
Continuous
 62
     7
100
AcDbCircle
 10
154.5
 20
12.5
 30
0.0
 40
0.3000000000000114
  0
CIRCLE
  5
F5
330
4A
100
AcDbEntity
  8
1
  6
Continuous
 62
     7
100
AcDbCircle
 10
160.5
 20
12.5
 30
0.0
 40
0.3000000000000114
  0
CIRCLE
  5
F6
330
4A
100
AcDbEntity
  8
1
  6
Continuous
 62
     7
100
AcDbCircle
 10
143.5
 20
12.5
 30
0.0
 40
0.3000000000000114
  0
CIRCLE
  5
F7
330
4A
100
AcDbEntity
  8
1
  6
Continuous
 62
     7
100
AcDbCircle
 10
137.5
 20
12.5
 30
0.0
 40
0.3000000000000114
  0
CIRCLE
  5
F8
330
4A
100
AcDbEntity
  8
1
  6
Continuous
 62
     7
100
AcDbCircle
 10
126.5
 20
12.5
 30
0.0
 40
0.2999999999999972
  0
CIRCLE
  5
F9
330
4A
100
AcDbEntity
  8
1
  6
Continuous
 62
     7
100
AcDbCircle
 10
120.5
 20
12.5
 30
0.0
 40
0.2999999999999972
  0
CIRCLE
  5
FA
330
4A
100
AcDbEntity
  8
1
  6
Continuous
 62
     7
100
AcDbCircle
 10
109.5
 20
12.5
 30
0.0
 40
0.2999999999999972
  0
CIRCLE
  5
FB
330
4A
100
AcDbEntity
  8
1
  6
Continuous
 62
     7
100
AcDbCircle
 10
103.5
 20
12.5
 30
0.0
 40
0.2999999999999972
  0
MTEXT
  5
FD
330
4A
100
AcDbEntity
  8
1
 62
   250
100
AcDbMText
 10
25.0
 20
5.0
 30
0.0
 40
3.5
 41
0.0
 71
     4
 72
     1
  1
備考欄の文字列 原点位置=4
  7
CONVERTER_11
 73
     1
 44
0.54545454545455
  0
MTEXT
  5
FE
330
4A
100
AcDbEntity
  8
1
 62
     2
100
AcDbMText
 10
89.5
 20
24.00000000000001
 30
0.0
 40
3.5
 41
0.0
 71
     5
 72
     1
  1
尺度
  7
CONVERTER_11
 73
     1
 44
0.54545454545455
  0
MTEXT
  5
FF
330
4A
100
AcDbEntity
  8
1
 62
     2
100
AcDbMText
 10
135.5
 20
25.00000000000001
 30
0.0
 40
3.0
 41
0.0
 71
     5
 72
     1
  1
製図
  7
CONVERTER_11
 73
     1
 44
0.59090909090909
  0
MTEXT
  5
100
330
4A
100
AcDbEntity
  8
1
 62
     2
100
AcDbMText
 10
152.5
 20
25.00000000000001
 30
0.0
 40
3.0
 41
0.0
 71
     5
 72
     1
  1
設計
  7
CONVERTER_11
 73
     1
 44
0.59090909090909
  0
MTEXT
  5
101
330
4A
100
AcDbEntity
  8
1
 62
     2
100
AcDbMText
 10
118.5
 20
25.00000000000001
 30
0.0
 40
3.0
 41
0.0
 71
     5
 72
     1
  1
検図
  7
CONVERTER_11
 73
     1
 44
0.59090909090909
  0
MTEXT
  5
102
330
4A
100
AcDbEntity
  8
1
 62
     2
100
AcDbMText
 10
175.0
 20
23.50000000000001
 30
0.0
 40
3.5
 41
0.0
 71
     5
 72
     1
  1
第三角法
  7
CONVERTER_11
 73
     1
 44
0.54545454545455
  0
MTEXT
  5
103
330
4A
100
AcDbEntity
  8
1
 62
     2
100
AcDbMText
 10
101.5
 20
25.00000000000001
 30
0.0
 40
3.0
 41
0.0
 71
     5
 72
     1
  1
承認
  7
CONVERTER_11
 73
     1
 44
0.59090909090909
  0
MTEXT
  5
104
330
4A
100
AcDbEntity
  8
1
 62
     2
100
AcDbMText
 10
29.0
 20
14.25
 30
0.0
 40
3.5
 41
0.0
 71
     5
 72
     1
  1
品番
  7
CONVERTER_11
 73
     1
 44
0.72727272727273
  0
MTEXT
  5
105
330
4A
100
AcDbEntity
  8
1
 62
     2
100
AcDbMText
 10
29.0
 20
22.75
 30
0.0
 40
3.5
 41
0.0
 71
     5
 72
     1
  1
品名
  7
CONVERTER_11
 73
     1
 44
0.72727272727273
  0
MTEXT
  5
106
330
4A
100
AcDbEntity
  8
1
 62
     2
100
AcDbMText
 10
29.0
 20
34.00000000000001
 30
0.0
 40
3.5
 41
0.0
 71
     5
 72
     1
  1
備考
  7
CONVERTER_11
 73
     1
 44
0.45454545454545
  0
MTEXT
  5
107
330
4A
100
AcDbEntity
  8
1
 62
     2
100
AcDbMText
 10
32.5
 20
282.0000000000003
 30
0.0
 40
5.0
 41
0.0
 71
     5
 72
     1
  1
図番
  7
CONVERTER_11
 73
     1
 44
0.45454545454545
  0
MTEXT
  5
108
330
4A
100
AcDbEntity
  8
1
 62
     7
100
AcDbMText
 10
171.5
 20
15.0
 30
0.0
 40
2.5
 41
0.0
 71
     5
 72
     1
  1
株式会社
  7
CONVERTER_11
 73
     1
 44
1.0
  0
MTEXT
  5
109
330
4A
100
AcDbEntity
  8
1
 62
     7
100
AcDbMText
 10
188.5
 20
15.0
 30
0.0
 40
3.0
 41
0.0
 71
     5
 72
     1
  1
三栄水栓製作所
  7
CONVERTER_11
 73
     1
 44
1.0
  0
ENDBLK
  5
4C
330
4A
100
AcDbEntity
  8
0
100
AcDbBlockEnd
  0
BLOCK
  5
4E
330
4D
100
AcDbEntity
  8
0
100
AcDbBlockBegin
  2
V2161-0-13-M1
 70
     0
 10
263.7799371300632
 20
1005.654650263271
 30
0.0
  3
V2161-0-13-M1
  1

  0
LINE
  5
10A
330
4D
100
AcDbEntity
  8
1
  6
Continuous
 62
     7
100
AcDbLine
 10
294.489778455517
 20
763.0974688977902
 30
0.0
 11
295.489778455517
 21
763.0974688977902
 31
0.0
  0
LINE
  5
10B
330
4D
100
AcDbEntity
  8
1
  6
Continuous
 62
     7
100
AcDbLine
 10
295.489778455517
 20
789.097468897791
 30
0.0
 11
295.489778455517
 21
763.0974688977902
 31
0.0
  0
LINE
  5
10C
330
4D
100
AcDbEntity
  8
1
  6
Continuous
 62
     7
100
AcDbLine
 10
294.489778455517
 20
789.097468897791
 30
0.0
 11
295.489778455517
 21
789.097468897791
 31
0.0
  0
LINE
  5
10D
330
4D
100
AcDbEntity
  8
1
  6
PHANTOM
 62
     4
100
AcDbLine
 10
270.9897784555186
 20
758.5974688977909
 30
0.0
 11
270.9897784555192
 21
793.5974688977902
 31
0.0
  0
LINE
  5
10E
330
4D
100
AcDbEntity
  8
1
  6
Continuous
 62
     7
100
AcDbLine
 10
270.9897784555192
 20
790.5974688977902
 30
0.0
 11
294.489778455517
 21
790.5974688977902
 31
0.0
  0
LINE
  5
10F
330
4D
100
AcDbEntity
  8
1
  6
Continuous
 62
     7
100
AcDbLine
 10
270.9897784555186
 20
761.5974688977909
 30
0.0
 11
294.489778455517
 21
761.5974688977902
 31
0.0
  0
LINE
  5
110
330
4D
100
AcDbEntity
  8
1
  6
Continuous
 62
     7
100
AcDbLine
 10
294.489778455517
 20
790.5974688977902
 30
0.0
 11
294.489778455517
 21
761.5974688977902
 31
0.0
  0
LINE
  5
111
330
4D
100
AcDbEntity
  8
1
  6
Continuous
 62
     7
100
AcDbLine
 10
408.9480847661177
 20
594.2038919456468
 30
0.0
 11
408.9480847661177
 21
603.193528974565
 31
0.0
  0
LINE
  5
112
330
4D
100
AcDbEntity
  8
1
  6
Continuous
 62
     7
100
AcDbLine
 10
422.9480847661181
 20
603.193528974565
 30
0.0
 11
432.072358322844
 21
603.193528974565
 31
0.0
  0
LINE
  5
113
330
4D
100
AcDbEntity
  8
1
  6
Continuous
 62
     7
100
AcDbLine
 10
419.072358322844
 20
603.193528974565
 30
0.0
 11
409.9480847661177
 21
603.193528974565
 31
0.0
  0
LINE
  5
114
330
4D
100
AcDbEntity
  8
1
  6
Continuous
 62
     7
100
AcDbLine
 10
257.0201470400639
 20
603.193528974565
 30
0.0
 11
262.4427493725789
 21
603.193528974565
 31
0.0
  0
LINE
  5
115
330
4D
100
AcDbEntity
  8
1
  6
Continuous
 62
     7
100
AcDbLine
 10
284.9594098709738
 20
603.193528974565
 30
0.0
 11
279.5368075384589
 21
603.193528974565
 31
0.0
  0
LINE
  5
116
330
4D
100
AcDbEntity
  8
1
  6
Continuous
 62
     7
100
AcDbLine
 10
265.5671761230042
 20
603.193528974565
 30
0.0
 11
276.4123807880335
 21
603.193528974565
 31
0.0
  0
LINE
  5
117
330
4D
100
AcDbEntity
  8
1
  6
Continuous
 62
     7
100
AcDbLine
 10
256.4897784555191
 20
605.7916051859171
 30
0.0
 11
256.5201470400639
 21
605.7916051859171
 31
0.0
  0
LINE
  5
118
330
4D
100
AcDbEntity
  8
1
  6
Continuous
 62
     7
100
AcDbLine
 10
256.4897784555191
 20
605.7916051859171
 30
0.0
 11
256.4897784555192
 21
603.193528974565
 31
0.0
  0
LINE
  5
119
330
4D
100
AcDbEntity
  8
1
  6
Continuous
 62
     7
100
AcDbLine
 10
256.4897784555192
 20
603.193528974565
 30
0.0
 11
256.5201470400639
 21
603.193528974565
 31
0.0
  0
LINE
  5
11A
330
4D
100
AcDbEntity
  8
1
  6
Continuous
 62
     7
100
AcDbLine
 10
256.4897784555192
 20
594.2038919456465
 30
0.0
 11
256.5201470400639
 21
594.2038919456465
 31
0.0
  0
LINE
  5
11B
330
4D
100
AcDbEntity
  8
1
  6
Continuous
 62
     7
100
AcDbLine
 10
285.4897784555186
 20
594.2038919456465
 30
0.0
 11
285.4594098709738
 21
594.2038919456465
 31
0.0
  0
LINE
  5
11C
330
4D
100
AcDbEntity
  8
1
  6
Continuous
 62
     7
100
AcDbLine
 10
285.4897784555186
 20
605.7916051859158
 30
0.0
 11
285.4897784555186
 21
603.193528974565
 31
0.0
  0
LINE
  5
11D
330
4D
100
AcDbEntity
  8
1
  6
Continuous
 62
     7
100
AcDbLine
 10
285.4594098709738
 20
594.2038919456465
 30
0.0
 11
285.4594098709738
 21
603.193528974565
 31
0.0
  0
LINE
  5
11E
330
4D
100
AcDbEntity
  8
1
  6
Continuous
 62
     7
100
AcDbLine
 10
285.4897784555186
 20
603.193528974565
 30
0.0
 11
285.4594098709738
 21
603.193528974565
 31
0.0
  0
LINE
  5
11F
330
4D
100
AcDbEntity
  8
1
  6
Continuous
 62
     7
100
AcDbLine
 10
285.4897784555192
 20
614.693528974565
 30
0.0
 11
285.4897784555186
 21
605.7916051859158
 31
0.0
  0
LINE
  5
120
330
4D
100
AcDbEntity
  8
1
  6
Continuous
 62
     7
100
AcDbLine
 10
285.4897784555186
 20
605.7916051859158
 30
0.0
 11
285.4594098709738
 21
605.7916051859158
 31
0.0
  0
LINE
  5
121
330
4D
100
AcDbEntity
  8
1
  6
Continuous
 62
     7
100
AcDbLine
 10
262.9427493725789
 20
594.2038919456465
 30
0.0
 11
264.5671761230042
 21
594.2038919456465
 31
0.0
  0
LINE
  5
122
330
4D
100
AcDbEntity
  8
1
  6
Continuous
 62
     7
100
AcDbLine
 10
277.4123807880335
 20
594.2038919456465
 30
0.0
 11
279.0368075384589
 21
594.2038919456465
 31
0.0
  0
LINE
  5
123
330
4D
100
AcDbEntity
  8
1
  6
Continuous
 62
     7
100
AcDbLine
 10
434.0102215444812
 20
593.3378665418622
 30
0.0
 11
433.7602215444812
 21
593.193528974565
 31
0.0
  0
LINE
  5
124
330
4D
100
AcDbEntity
  8
1
  6
Continuous
 62
     7
100
AcDbLine
 10
433.7602215444812
 20
593.193528974565
 30
0.0
 11
408.2602215444811
 21
593.193528974565
 31
0.0
  0
LINE
  5
125
330
4D
100
AcDbEntity
  8
1
  6
Continuous
 62
     7
100
AcDbLine
 10
434.0102215444812
 20
594.2038919456468
 30
0.0
 11
434.0102215444812
 21
593.3378665418622
 31
0.0
  0
LINE
  5
126
330
4D
100
AcDbEntity
  8
1
  6
Continuous
 62
     7
100
AcDbLine
 10
408.0102215444811
 20
593.3378665418622
 30
0.0
 11
408.0102215444811
 21
594.2038919456468
 31
0.0
  0
LINE
  5
127
330
4D
100
AcDbEntity
  8
1
  6
Continuous
 62
     7
100
AcDbLine
 10
408.9480847661177
 20
594.2038919456468
 30
0.0
 11
408.0102215444811
 21
594.2038919456468
 31
0.0
  0
LINE
  5
128
330
4D
100
AcDbEntity
  8
1
  6
Continuous
 62
     7
100
AcDbLine
 10
433.072358322844
 20
594.2038919456468
 30
0.0
 11
434.0102215444812
 21
594.2038919456468
 31
0.0
  0
LINE
  5
129
330
4D
100
AcDbEntity
  8
1
  6
Continuous
 62
     7
100
AcDbLine
 10
420.072358322844
 20
594.2038919456468
 30
0.0
 11
421.9480847661177
 21
594.2038919456468
 31
0.0
  0
LINE
  5
12A
330
4D
100
AcDbEntity
  8
1
  6
Continuous
 62
     7
100
AcDbLine
 10
434.2781707369119
 20
603.6576305897026
 30
0.0
 11
435.5102215444812
 21
605.7916051859183
 31
0.0
  0
LINE
  5
12B
330
4D
100
AcDbEntity
  8
1
  6
Continuous
 62
     7
100
AcDbLine
 10
407.7422723520497
 20
603.6576305897029
 30
0.0
 11
406.5102215444811
 21
605.7916051859175
 31
0.0
  0
LINE
  5
12C
330
4D
100
AcDbEntity
  8
1
  6
Continuous
 62
     7
100
AcDbLine
 10
406.5102215444811
 20
605.7916051859175
 30
0.0
 11
406.5102215444811
 21
658.193528974565
 31
0.0
  0
LINE
  5
12D
330
4D
100
AcDbEntity
  8
1
  6
PHANTOM
 62
     5
100
AcDbLine
 10
434.0102215444812
 20
602.6576305897029
 30
0.0
 11
434.0102215444812
 21
603.193528974565
 31
0.0
  0
LINE
  5
12E
330
4D
100
AcDbEntity
  8
1
  6
Continuous
 62
     7
100
AcDbLine
 10
433.072358322844
 20
603.193528974565
 30
0.0
 11
433.072358322844
 21
594.2038919456468
 31
0.0
  0
LINE
  5
12F
330
4D
100
AcDbEntity
  8
1
  6
Continuous
 62
     7
100
AcDbLine
 10
421.9480847661177
 20
594.2038919456468
 30
0.0
 11
421.9480847661181
 21
603.193528974565
 31
0.0
  0
LINE
  5
130
330
4D
100
AcDbEntity
  8
1
  6
Continuous
 62
     7
100
AcDbLine
 10
420.072358322844
 20
603.193528974565
 30
0.0
 11
420.072358322844
 21
594.2038919456468
 31
0.0
  0
LINE
  5
131
330
4D
100
AcDbEntity
  8
1
  6
Continuous
 62
     7
100
AcDbLine
 10
408.0102215444811
 20
602.6576305897026
 30
0.0
 11
408.0102215444811
 21
594.2038919456468
 31
0.0
  0
LINE
  5
132
330
4D
100
AcDbEntity
  8
1
  6
Continuous
 62
     2
100
AcDbLine
 10
430.3482215444813
 20
661.2061720129602
 30
0.0
 11
431.5102277264954
 21
659.1935182670024
 31
0.0
  0
LINE
  5
133
330
4D
100
AcDbEntity
  8
1
  6
Continuous
 62
     2
100
AcDbLine
 10
430.3482215444813
 20
670.193528974565
 30
0.0
 11
430.3482215444813
 21
661.2061720129602
 31
0.0
  0
LINE
  5
134
330
4D
100
AcDbEntity
  8
1
  6
Continuous
 62
     2
100
AcDbLine
 10
410.5102215444811
 20
659.1935182670024
 30
0.0
 11
411.6722215444813
 21
661.2061613053976
 31
0.0
  0
LINE
  5
135
330
4D
100
AcDbEntity
  8
1
  6
Continuous
 62
     2
100
AcDbLine
 10
411.6722215444813
 20
661.2061613053976
 30
0.0
 11
411.6722215444813
 21
670.193528974565
 31
0.0
  0
LINE
  5
136
330
4D
100
AcDbEntity
  8
1
  6
Continuous
 62
     7
100
AcDbLine
 10
430.3482215444813
 20
670.193528974565
 30
0.0
 11
411.6722215444813
 21
670.193528974565
 31
0.0
  0
LINE
  5
137
330
4D
100
AcDbEntity
  8
1
  6
Continuous
 62
     7
100
AcDbLine
 10
406.5102215444811
 20
658.193528974565
 30
0.0
 11
410.5102215444811
 21
658.193528974565
 31
0.0
  0
LINE
  5
138
330
4D
100
AcDbEntity
  8
1
  6
Continuous
 62
     7
100
AcDbLine
 10
435.5102215444812
 20
605.7916051859183
 30
0.0
 11
435.5102215444812
 21
658.193528974565
 31
0.0
  0
LINE
  5
139
330
4D
100
AcDbEntity
  8
1
  6
Continuous
 62
     7
100
AcDbLine
 10
431.5102277264954
 20
658.193528974565
 30
0.0
 11
435.5102215444812
 21
658.193528974565
 31
0.0
  0
LINE
  5
13A
330
4D
100
AcDbEntity
  8
1
  6
Continuous
 62
     7
100
AcDbLine
 10
408.2602215444811
 20
593.193528974565
 30
0.0
 11
408.0102215444811
 21
593.3378665418622
 31
0.0
  0
LINE
  5
13B
330
4D
100
AcDbEntity
  8
1
  6
PHANTOM
 62
     4
100
AcDbLine
 10
403.5102215444811
 20
631.193528974565
 30
0.0
 11
438.5102215444812
 21
631.193528974565
 31
0.0
  0
LINE
  5
13C
330
4D
100
AcDbEntity
  8
1
  6
Continuous
 62
     7
100
AcDbLine
 10
431.5102215444812
 20
669.0315289745649
 30
0.0
 11
410.5102215444811
 21
669.0315289745649
 31
0.0
  0
LINE
  5
13D
330
4D
100
AcDbEntity
  8
1
  6
Continuous
 62
     7
100
AcDbLine
 10
430.3482215444813
 20
670.193528974565
 30
0.0
 11
431.5102215444812
 21
669.0315289745649
 31
0.0
  0
LINE
  5
13E
330
4D
100
AcDbEntity
  8
1
  6
Continuous
 62
     7
100
AcDbLine
 10
411.6722215444813
 20
670.193528974565
 30
0.0
 11
410.5102215444811
 21
669.0315289745649
 31
0.0
  0
LINE
  5
13F
330
4D
100
AcDbEntity
  8
1
  6
Continuous
 62
     7
100
AcDbLine
 10
417.5102215444811
 20
661.2061613053976
 30
0.0
 11
410.5102215444811
 21
661.2061613053976
 31
0.0
  0
LINE
  5
140
330
4D
100
AcDbEntity
  8
1
  6
Continuous
 62
     7
100
AcDbLine
 10
431.5102215444812
 20
660.2061720129602
 30
0.0
 11
431.5102277264954
 21
658.193528974565
 31
0.0
  0
LINE
  5
141
330
4D
100
AcDbEntity
  8
1
  6
Continuous
 62
     7
100
AcDbLine
 10
431.5102215444812
 20
669.0315289745649
 30
0.0
 11
431.5102215444812
 21
660.2061720129602
 31
0.0
  0
LINE
  5
142
330
4D
100
AcDbEntity
  8
1
  6
Continuous
 62
     7
100
AcDbLine
 10
410.5102215444811
 20
660.2061720129602
 30
0.0
 11
410.5102215444811
 21
669.0315289745649
 31
0.0
  0
LINE
  5
143
330
4D
100
AcDbEntity
  8
1
  6
Continuous
 62
     7
100
AcDbLine
 10
410.5102215444811
 20
658.193528974565
 30
0.0
 11
410.5102215444811
 21
660.2061720129602
 31
0.0
  0
LINE
  5
144
330
4D
100
AcDbEntity
  8
1
  6
Continuous
 62
     7
100
AcDbLine
 10
417.5102215444811
 20
658.193528974565
 30
0.0
 11
410.5102215444811
 21
658.193528974565
 31
0.0
  0
LINE
  5
145
330
4D
100
AcDbEntity
  8
1
  6
PHANTOM
 62
     4
100
AcDbLine
 10
421.0102215444811
 20
673.1808859361698
 30
0.0
 11
421.0102215444811
 21
590.193528974565
 31
0.0
  0
LINE
  5
146
330
4D
100
AcDbEntity
  8
1
  6
PHANTOM
 62
     5
100
AcDbLine
 10
434.2781707369119
 20
603.6576305897026
 30
0.0
 11
434.0102215444812
 21
603.193528974565
 31
0.0
  0
LINE
  5
147
330
4D
100
AcDbEntity
  8
1
  6
Continuous
 62
     7
100
AcDbLine
 10
434.0102215444812
 20
594.2038919456468
 30
0.0
 11
434.0102215444812
 21
602.6576305897029
 31
0.0
  0
LINE
  5
148
330
4D
100
AcDbEntity
  8
1
  6
PHANTOM
 62
     5
100
AcDbLine
 10
407.7422723520497
 20
603.6576305897029
 30
0.0
 11
408.0102215444811
 21
603.193528974565
 31
0.0
  0
LINE
  5
149
330
4D
100
AcDbEntity
  8
1
  6
PHANTOM
 62
     5
100
AcDbLine
 10
408.0102215444811
 20
603.193528974565
 30
0.0
 11
408.0102215444811
 21
602.6576305897026
 31
0.0
  0
LINE
  5
14A
330
4D
100
AcDbEntity
  8
1
  6
Continuous
 62
     7
100
AcDbLine
 10
431.5102277264954
 20
658.193528974565
 30
0.0
 11
424.5102215444792
 21
658.193528974565
 31
0.0
  0
LINE
  5
14B
330
4D
100
AcDbEntity
  8
1
  6
Continuous
 62
     7
100
AcDbLine
 10
431.5102215444812
 20
661.2061613053976
 30
0.0
 11
424.5102215444792
 21
661.2061613053976
 31
0.0
  0
LINE
  5
14C
330
4D
100
AcDbEntity
  8
1
  6
Continuous
 62
     7
100
AcDbLine
 10
259.4897784555192
 20
593.193528974565
 30
0.0
 11
282.4897784555192
 21
593.193528974565
 31
0.0
  0
LINE
  5
14D
330
4D
100
AcDbEntity
  8
1
  6
Continuous
 62
     7
100
AcDbLine
 10
259.4897784555192
 20
593.193528974565
 30
0.0
 11
258.2397784555192
 21
593.193528974565
 31
0.0
  0
LINE
  5
14E
330
4D
100
AcDbEntity
  8
1
  6
Continuous
 62
     7
100
AcDbLine
 10
281.4897784555192
 20
659.1808752286075
 30
0.0
 11
281.4897784555192
 21
658.193528974565
 31
0.0
  0
LINE
  5
14F
330
4D
100
AcDbEntity
  8
1
  6
Continuous
 62
     7
100
AcDbLine
 10
260.489772273505
 20
659.1808752286075
 30
0.0
 11
260.489772273505
 21
658.193528974565
 31
0.0
  0
LINE
  5
150
330
4D
100
AcDbEntity
  8
1
  6
Continuous
 62
     7
100
AcDbLine
 10
294.4897784555167
 20
645.693528974565
 30
0.0
 11
294.4897784555167
 21
644.193528974566
 31
0.0
  0
LINE
  5
151
330
4D
100
AcDbEntity
  8
1
  6
Continuous
 62
     7
100
AcDbLine
 10
294.4897784555167
 20
616.6935289745646
 30
0.0
 11
294.4897784555167
 21
618.193528974565
 31
0.0
  0
LINE
  5
152
330
4D
100
AcDbEntity
  8
1
  6
Continuous
 62
     7
100
AcDbLine
 10
281.4897722735049
 20
661.1935182670023
 30
0.0
 11
281.4897722735049
 21
669.0315351565791
 31
0.0
  0
LINE
  5
153
330
4D
100
AcDbEntity
  8
0
  6
Continuous
 62
     7
100
AcDbLine
 10
280.3277784555193
 20
661.1935182670023
 30
0.0
 11
281.4897722735049
 21
661.1935182670023
 31
0.0
  0
LINE
  5
154
330
4D
100
AcDbEntity
  8
1
  6
Continuous
 62
     2
100
AcDbLine
 10
261.651778455519
 20
669.0315227925508
 30
0.0
 11
261.651778455519
 21
670.193528974565
 31
0.0
  0
LINE
  5
155
330
4D
100
AcDbEntity
  8
1
  6
Continuous
 62
     2
100
AcDbLine
 10
260.489772273505
 20
659.1808752286075
 30
0.0
 11
261.651778455519
 21
661.193528974565
 31
0.0
  0
LINE
  5
156
330
4D
100
AcDbEntity
  8
1
  6
Continuous
 62
     2
100
AcDbLine
 10
261.651778455519
 20
661.193528974565
 30
0.0
 11
261.651778455519
 21
669.0315227925508
 31
0.0
  0
LINE
  5
157
330
4D
100
AcDbEntity
  8
1
  6
Continuous
 62
     7
100
AcDbLine
 10
281.4897722735049
 20
659.1808752286075
 30
0.0
 11
281.4897722735049
 21
661.1935182670023
 31
0.0
  0
LINE
  5
158
330
4D
100
AcDbEntity
  8
1
  6
Continuous
 62
     7
100
AcDbLine
 10
260.489772273505
 20
669.0315227925508
 30
0.0
 11
260.489772273505
 21
661.193528974565
 31
0.0
  0
LINE
  5
159
330
4D
100
AcDbEntity
  8
1
  6
Continuous
 62
     7
100
AcDbLine
 10
260.489772273505
 20
669.0315227925508
 30
0.0
 11
261.651778455519
 21
669.0315227925508
 31
0.0
  0
LINE
  5
15A
330
4D
100
AcDbEntity
  8
1
  6
Continuous
 62
     2
100
AcDbLine
 10
280.3277784555193
 20
661.1935182670023
 30
0.0
 11
281.4897784555192
 21
659.1808752286075
 31
0.0
  0
LINE
  5
15B
330
4D
100
AcDbEntity
  8
1
  6
Continuous
 62
     2
100
AcDbLine
 10
280.3277784555187
 20
661.193528974565
 30
0.0
 11
280.3277784555193
 21
661.1935182670023
 31
0.0
  0
LINE
  5
15C
330
4D
100
AcDbEntity
  8
1
  6
Continuous
 62
     7
100
AcDbLine
 10
281.4897722735049
 20
669.0315351565791
 30
0.0
 11
280.3277784555193
 21
669.0315351565791
 31
0.0
  0
LINE
  5
15D
330
4D
100
AcDbEntity
  8
1
  6
Continuous
 62
     2
100
AcDbLine
 10
280.3277784555187
 20
670.193528974565
 30
0.0
 11
280.3277784555193
 21
669.0315351565791
 31
0.0
  0
LINE
  5
15E
330
4D
100
AcDbEntity
  8
1
  6
Continuous
 62
     7
100
AcDbLine
 10
280.3277784555187
 20
670.193528974565
 30
0.0
 11
277.4897784555192
 21
670.193528974565
 31
0.0
  0
LINE
  5
15F
330
4D
100
AcDbEntity
  8
1
  6
Continuous
 62
     7
100
AcDbLine
 10
281.4897722735049
 20
669.0315351565791
 30
0.0
 11
280.3277784555187
 21
670.193528974565
 31
0.0
  0
LINE
  5
160
330
4D
100
AcDbEntity
  8
1
  6
Continuous
 62
     7
100
AcDbLine
 10
261.651778455519
 20
670.193528974565
 30
0.0
 11
260.489772273505
 21
669.0315227925508
 31
0.0
  0
LINE
  5
161
330
4D
100
AcDbEntity
  8
1
  6
Continuous
 62
     7
100
AcDbLine
 10
281.4897784555192
 20
658.193528974565
 30
0.0
 11
285.4897784555192
 21
658.193528974565
 31
0.0
  0
LINE
  5
162
330
4D
100
AcDbEntity
  8
1
  6
Continuous
 62
     7
100
AcDbLine
 10
285.4897784555192
 20
658.193528974565
 30
0.0
 11
285.4897784555192
 21
647.693528974565
 31
0.0
  0
LINE
  5
163
330
4D
100
AcDbEntity
  8
1
  6
Continuous
 62
     7
100
AcDbLine
 10
283.7397784555192
 20
593.193528974565
 30
0.0
 11
282.4897784555192
 21
593.193528974565
 31
0.0
  0
LINE
  5
164
330
4D
100
AcDbEntity
  8
1
  6
Continuous
 62
     7
100
AcDbLine
 10
285.4897784555186
 20
603.193528974565
 30
0.0
 11
285.4897784555186
 21
594.2038919456465
 31
0.0
  0
LINE
  5
165
330
4D
100
AcDbEntity
  8
1
  6
PHANTOM
 62
     4
100
AcDbLine
 10
270.9897784555192
 20
590.193528974565
 30
0.0
 11
270.9897784555192
 21
672.1808859361698
 31
0.0
  0
LINE
  5
166
330
4D
100
AcDbEntity
  8
1
  6
Continuous
 62
     7
100
AcDbLine
 10
258.2397784555192
 20
593.193528974565
 30
0.0
 11
256.4897784555192
 21
594.2038919456465
 31
0.0
  0
LINE
  5
167
330
4D
100
AcDbEntity
  8
1
  6
Continuous
 62
     7
100
AcDbLine
 10
285.4897784555186
 20
594.2038919456465
 30
0.0
 11
283.7397784555192
 21
593.193528974565
 31
0.0
  0
LINE
  5
168
330
4D
100
AcDbEntity
  8
1
  6
PHANTOM
 62
     4
100
AcDbLine
 10
297.289778455517
 20
631.193528974565
 30
0.0
 11
253.4897784555191
 21
631.193528974565
 31
0.0
  0
LINE
  5
169
330
4D
100
AcDbEntity
  8
1
  6
Continuous
 62
     7
100
AcDbLine
 10
287.4897784555191
 20
616.693528974565
 30
0.0
 11
294.4897784555167
 21
616.6935289745646
 31
0.0
  0
LINE
  5
16A
330
4D
100
AcDbEntity
  8
1
  6
Continuous
 62
     7
100
AcDbLine
 10
287.4897784555191
 20
645.693528974565
 30
0.0
 11
294.4897784555167
 21
645.693528974565
 31
0.0
  0
LINE
  5
16B
330
4D
100
AcDbEntity
  8
1
  6
Continuous
 62
     7
100
AcDbLine
 10
260.489772273505
 20
661.193528974565
 30
0.0
 11
260.489772273505
 21
659.1808752286075
 31
0.0
  0
LINE
  5
16C
330
4D
100
AcDbEntity
  8
0
  6
Continuous
 62
     7
100
AcDbLine
 10
261.651778455519
 20
661.193528974565
 30
0.0
 11
260.489772273505
 21
661.193528974565
 31
0.0
  0
LINE
  5
16D
330
4D
100
AcDbEntity
  8
1
  6
Continuous
 62
     7
100
AcDbLine
 10
256.4897784555186
 20
658.193528974565
 30
0.0
 11
260.489772273505
 21
658.193528974565
 31
0.0
  0
LINE
  5
16E
330
4D
100
AcDbEntity
  8
1
  6
Continuous
 62
     7
100
AcDbLine
 10
277.4897784555192
 20
670.193528974565
 30
0.0
 11
261.651778455519
 21
670.193528974565
 31
0.0
  0
LINE
  5
16F
330
4D
100
AcDbEntity
  8
1
  6
Continuous
 62
     7
100
AcDbLine
 10
294.4897784555167
 20
618.193528974565
 30
0.0
 11
294.989778455515
 21
618.193528974565
 31
0.0
  0
LINE
  5
170
330
4D
100
AcDbEntity
  8
1
  6
Continuous
 62
     7
100
AcDbLine
 10
294.4897784555167
 20
644.193528974566
 30
0.0
 11
294.989778455515
 21
644.193528974566
 31
0.0
  0
LINE
  5
171
330
4D
100
AcDbEntity
  8
1
  6
Continuous
 62
     7
100
AcDbLine
 10
279.0368075384589
 20
594.2038919456465
 30
0.0
 11
279.0368075384589
 21
603.193528974565
 31
0.0
  0
LINE
  5
172
330
4D
100
AcDbEntity
  8
1
  6
Continuous
 62
     7
100
AcDbLine
 10
277.4123807880335
 20
603.193528974565
 30
0.0
 11
277.4123807880335
 21
594.2038919456465
 31
0.0
  0
LINE
  5
173
330
4D
100
AcDbEntity
  8
1
  6
Continuous
 62
     7
100
AcDbLine
 10
264.5671761230042
 20
594.2038919456465
 30
0.0
 11
264.5671761230042
 21
603.193528974565
 31
0.0
  0
LINE
  5
174
330
4D
100
AcDbEntity
  8
1
  6
Continuous
 62
     7
100
AcDbLine
 10
262.9427493725789
 20
594.2038919456465
 30
0.0
 11
262.9427493725789
 21
603.193528974565
 31
0.0
  0
LINE
  5
175
330
4D
100
AcDbEntity
  8
1
  6
Continuous
 62
     7
100
AcDbLine
 10
256.4897784555192
 20
603.193528974565
 30
0.0
 11
256.4897784555192
 21
594.2038919456465
 31
0.0
  0
LINE
  5
176
330
4D
100
AcDbEntity
  8
1
  6
Continuous
 62
     7
100
AcDbLine
 10
256.5201470400639
 20
603.193528974565
 30
0.0
 11
256.5201470400639
 21
594.2038919456465
 31
0.0
  0
LINE
  5
177
330
4D
100
AcDbEntity
  8
1
  6
Continuous
 62
     7
100
AcDbLine
 10
285.4594098709738
 20
603.193528974565
 30
0.0
 11
285.4594098709738
 21
605.7916051859158
 31
0.0
  0
LINE
  5
178
330
4D
100
AcDbEntity
  8
0
  6
Continuous
 62
     7
100
AcDbLine
 10
281.4897784555192
 20
658.193528974565
 30
0.0
 11
260.489772273505
 21
658.193528974565
 31
0.0
  0
LINE
  5
179
330
4D
100
AcDbEntity
  8
0
  6
Continuous
 62
     7
100
AcDbLine
 10
280.3277784555187
 20
661.193528974565
 30
0.0
 11
261.651778455519
 21
661.193528974565
 31
0.0
  0
LINE
  5
17A
330
4D
100
AcDbEntity
  8
1
  6
Continuous
 62
     2
100
AcDbLine
 10
280.3277784555187
 20
669.0315227925508
 30
0.0
 11
280.3277784555187
 21
661.193528974565
 31
0.0
  0
LINE
  5
17B
330
4D
100
AcDbEntity
  8
0
  6
Continuous
 62
     7
100
AcDbLine
 10
261.651778455519
 20
669.0315227925508
 30
0.0
 11
280.3277784555187
 21
669.0315227925508
 31
0.0
  0
LINE
  5
17C
330
4D
100
AcDbEntity
  8
1
  6
Continuous
 62
     2
100
AcDbLine
 10
280.3277784555193
 20
669.0315351565791
 30
0.0
 11
280.3277784555187
 21
669.0315227925508
 31
0.0
  0
LINE
  5
17D
330
4D
100
AcDbEntity
  8
1
  6
Continuous
 62
     7
100
AcDbLine
 10
256.4897784555186
 20
658.193528974565
 30
0.0
 11
256.4897784555191
 21
605.7916051859171
 31
0.0
  0
LINE
  5
17E
330
4D
100
AcDbEntity
  8
0
  6
Continuous
 62
     7
100
AcDbLine
 10
294.4897784555167
 20
644.193528974566
 30
0.0
 11
294.4897784555167
 21
618.193528974565
 31
0.0
  0
LINE
  5
17F
330
4D
100
AcDbEntity
  8
0
  6
Continuous
 62
     7
100
AcDbLine
 10
283.9897784555201
 20
644.193528974566
 30
0.0
 11
277.8897784555182
 21
638.0935289745644
 31
0.0
  0
LINE
  5
180
330
4D
100
AcDbEntity
  8
0
  6
Continuous
 62
     7
100
AcDbLine
 10
277.8897784555182
 20
624.2935289745656
 30
0.0
 11
283.9897784555201
 21
618.1935289745641
 31
0.0
  0
LINE
  5
181
330
4D
100
AcDbEntity
  8
1
  6
Continuous
 62
     7
100
AcDbLine
 10
269.7897784555188
 20
785.3580436099772
 30
0.0
 11
269.7897784555188
 21
766.8368941856032
 31
0.0
  0
ARC
  5
182
330
4D
100
AcDbEntity
  8
1
  6
Continuous
 62
     7
100
AcDbCircle
 10
270.9897784555192
 20
776.0974688977902
 30
0.0
 40
14.50000000000011
100
AcDbArc
 50
0.0
 51
90.0
  0
ARC
  5
183
330
4D
100
AcDbEntity
  8
1
  6
Continuous
 62
     7
100
AcDbCircle
 10
270.9897784555192
 20
776.0974688977902
 30
0.0
 40
14.49999999999932
100
AcDbArc
 50
269.9999999999978
 51
0.0
  0
ARC
  5
184
330
4D
100
AcDbEntity
  8
1
  6
Continuous
 62
     7
100
AcDbCircle
 10
270.9897784555192
 20
776.0974688977902
 30
0.0
 40
14.5
100
AcDbArc
 50
90.0
 51
269.9999999999978
  0
ARC
  5
185
330
4D
100
AcDbEntity
  8
1
  6
Continuous
 62
     7
100
AcDbCircle
 10
414.5102215444811
 20
598.5386683058281
 30
0.0
 40
7.252936880090092
100
AcDbArc
 50
39.92540773157177
 51
140.0745922684308
  0
ARC
  5
186
330
4D
100
AcDbEntity
  8
0
  6
Continuous
 62
     7
100
AcDbCircle
 10
282.2481087047166
 20
604.2663471260528
 30
0.0
 40
10.56245518040633
100
AcDbArc
 50
252.3001959490126
 51
287.6998040509845
  0
ARC
  5
187
330
4D
100
AcDbEntity
  8
0
  6
Continuous
 62
     7
100
AcDbCircle
 10
259.7314482063212
 20
604.2663471260528
 30
0.0
 40
10.56245518040621
100
AcDbArc
 50
252.3001959490146
 51
287.6998040509871
  0
ARC
  5
188
330
4D
100
AcDbEntity
  8
0
  6
Continuous
 62
     7
100
AcDbCircle
 10
282.2481087047166
 20
602.5079341554381
 30
0.0
 40
3.283671030480706
100
AcDbArc
 50
12.05140163715756
 51
167.9485983628445
  0
ARC
  5
189
330
4D
100
AcDbEntity
  8
0
  6
Continuous
 62
     7
100
AcDbCircle
 10
259.7314482063212
 20
602.5079341554381
 30
0.0
 40
3.283671030481206
100
AcDbArc
 50
12.0514016371557
 51
167.9485983628431
  0
ARC
  5
18A
330
4D
100
AcDbEntity
  8
1
  6
Continuous
 62
     7
100
AcDbCircle
 10
427.5102215444812
 20
598.5386683058265
 30
0.0
 40
7.252936880091025
100
AcDbArc
 50
39.925407731582
 51
140.0745922684197
  0
ARC
  5
18B
330
4D
100
AcDbEntity
  8
1
  6
Continuous
 62
     7
100
AcDbCircle
 10
427.5102215444812
 20
624.8912574868665
 30
0.0
 40
31.18736554121979
100
AcDbArc
 50
259.7265757667749
 51
280.2734242332237
  0
ARC
  5
18C
330
4D
100
AcDbEntity
  8
1
  6
Continuous
 62
     7
100
AcDbCircle
 10
414.5102215444811
 20
624.8912574868665
 30
0.0
 40
31.18736554121977
100
AcDbArc
 50
259.7265757667751
 51
280.2734242332239
  0
ARC
  5
18D
330
4D
100
AcDbEntity
  8
1
  6
Continuous
 62
     7
100
AcDbCircle
 10
270.9897784555186
 20
596.5540353810259
 30
0.0
 40
9.23756980489308
100
AcDbArc
 50
45.95128775927898
 51
134.048712240719
  0
ARC
  5
18E
330
4D
100
AcDbEntity
  8
1
  6
Continuous
 62
     7
100
AcDbCircle
 10
270.9897784555186
 20
635.2037126672734
 30
0.0
 40
41.49982072162678
100
AcDbArc
 50
261.0969968097316
 51
278.903003190269
  0
ARC
  5
18F
330
4D
100
AcDbEntity
  8
1
  6
Continuous
 62
     2
100
AcDbCircle
 10
270.9897784555192
 20
776.0974688977902
 30
0.0
 40
9.337999999999916
100
AcDbArc
 50
97.38333618159935
 51
262.6166638184006
  0
ARC
  5
190
330
4D
100
AcDbEntity
  8
1
  6
Continuous
 62
     2
100
AcDbCircle
 10
270.9897784555192
 20
776.0974688977902
 30
0.0
 40
9.337999999999948
100
AcDbArc
 50
48.39789103684407
 51
97.38333618159935
  0
ARC
  5
191
330
4D
100
AcDbEntity
  8
1
  6
Continuous
 62
     2
100
AcDbCircle
 10
270.9897784555192
 20
776.0974688977902
 30
0.0
 40
9.338000000000033
100
AcDbArc
 50
311.6021089631554
 51
48.39789103684407
  0
ARC
  5
192
330
4D
100
AcDbEntity
  8
1
  6
Continuous
 62
     2
100
AcDbCircle
 10
270.9897784555192
 20
776.0974688977902
 30
0.0
 40
9.337999999999916
100
AcDbArc
 50
262.6166638184006
 51
311.6021089631554
  0
CIRCLE
  5
193
330
4D
100
AcDbEntity
  8
1
  6
Continuous
 62
     7
100
AcDbCircle
 10
270.9897784555192
 20
776.0974688977902
 30
0.0
 40
10.50000618201403
  0
ARC
  5
194
330
4D
100
AcDbEntity
  8
1
  6
Continuous
 62
     7
100
AcDbCircle
 10
436.0102215444812
 20
602.6576305897029
 30
0.0
 40
2.000000000000297
100
AcDbArc
 50
150.0000000000124
 51
180.0
  0
ARC
  5
195
330
4D
100
AcDbEntity
  8
1
  6
Continuous
 62
     7
100
AcDbCircle
 10
406.0102215444811
 20
602.6576305897026
 30
0.0
 40
2.0
100
AcDbArc
 50
0.0
 51
30.00000000000945
  0
ARC
  5
196
330
4D
100
AcDbEntity
  8
1
  6
Continuous
 62
     7
100
AcDbCircle
 10
287.4897784555191
 20
614.693528974565
 30
0.0
 40
2.0
100
AcDbArc
 50
90.0
 51
180.0
  0
ARC
  5
197
330
4D
100
AcDbEntity
  8
1
  6
Continuous
 62
     7
100
AcDbCircle
 10
287.4897784555191
 20
647.693528974565
 30
0.0
 40
1.999999999999943
100
AcDbArc
 50
180.0
 51
270.0
  0
ENDBLK
  5
4F
330
4D
100
AcDbEntity
  8
0
100
AcDbBlockEnd
  0
BLOCK
  5
51
330
50
100
AcDbEntity
  8
0
100
AcDbBlockBegin
  2
34-160-M11
 70
     0
 10
480.6040267084097
 20
786.0735726087049
 30
0.0
  3
34-160-M11
  1

  0
LINE
  5
198
330
50
100
AcDbEntity
  8
1
  6
Continuous
 62
     7
100
AcDbLine
 10
424.5102215444817
 20
662.8935289745652
 30
0.0
 11
424.3102215444819
 21
662.6935289745651
 31
0.0
  0
LINE
  5
199
330
50
100
AcDbEntity
  8
1
  6
Continuous
 62
     7
100
AcDbLine
 10
417.5102215444819
 20
662.8935289745652
 30
0.0
 11
417.7102215444817
 21
662.6935289745651
 31
0.0
  0
LINE
  5
19A
330
50
100
AcDbEntity
  8
1
  6
Continuous
 62
     7
100
AcDbLine
 10
424.5102215444817
 20
662.8935289745652
 30
0.0
 11
424.5102215444821
 21
664.1935289745651
 31
0.0
  0
LINE
  5
19B
330
50
100
AcDbEntity
  8
1
  6
Continuous
 62
     7
100
AcDbLine
 10
417.5102215444819
 20
662.8935289745652
 30
0.0
 11
417.5102215444821
 21
664.1935289745651
 31
0.0
  0
LINE
  5
19C
330
50
100
AcDbEntity
  8
1
  6
Continuous
 62
     7
100
AcDbLine
 10
418.0102215444821
 20
664.6935289745651
 30
0.0
 11
424.0102215444821
 21
664.6935289745651
 31
0.0
  0
LINE
  5
19D
330
50
100
AcDbEntity
  8
1
  6
Continuous
 62
     7
100
AcDbLine
 10
417.7102215444817
 20
662.6935289745651
 30
0.0
 11
424.3102215444819
 21
662.6935289745651
 31
0.0
  0
LINE
  5
19E
330
50
100
AcDbEntity
  8
1
  6
Continuous
 62
     7
100
AcDbLine
 10
309.6897784555126
 20
662.693528974565
 30
0.0
 11
316.2897784555128
 21
662.693528974565
 31
0.0
  0
LINE
  5
19F
330
50
100
AcDbEntity
  8
1
  6
Continuous
 62
     7
100
AcDbLine
 10
309.9897784555125
 20
664.693528974565
 30
0.0
 11
315.9897784555125
 21
664.693528974565
 31
0.0
  0
LINE
  5
1A0
330
50
100
AcDbEntity
  8
1
  6
Continuous
 62
     7
100
AcDbLine
 10
316.4897784555125
 20
664.193528974565
 30
0.0
 11
316.4897784555126
 21
662.8935289745651
 31
0.0
  0
LINE
  5
1A1
330
50
100
AcDbEntity
  8
1
  6
Continuous
 62
     7
100
AcDbLine
 10
309.4897784555125
 20
664.193528974565
 30
0.0
 11
309.4897784555126
 21
662.8935289745651
 31
0.0
  0
LINE
  5
1A2
330
50
100
AcDbEntity
  8
1
  6
Continuous
 62
     7
100
AcDbLine
 10
316.2897784555128
 20
662.693528974565
 30
0.0
 11
316.4897784555126
 21
662.8935289745651
 31
0.0
  0
LINE
  5
1A3
330
50
100
AcDbEntity
  8
1
  6
Continuous
 62
     7
100
AcDbLine
 10
309.6897784555126
 20
662.693528974565
 30
0.0
 11
309.4897784555126
 21
662.8935289745651
 31
0.0
  0
LINE
  5
1A4
330
50
100
AcDbEntity
  8
1
  6
PHANTOM
 62
     4
100
AcDbLine
 10
312.9897784555126
 20
667.693528974565
 30
0.0
 11
312.9897784555129
 21
656.093528974565
 31
0.0
  0
ARC
  5
1A5
330
50
100
AcDbEntity
  8
1
  6
Continuous
 62
     7
100
AcDbCircle
 10
418.0102215444821
 20
664.1935289745651
 30
0.0
 40
0.5
100
AcDbArc
 50
90.0
 51
180.0
  0
ARC
  5
1A6
330
50
100
AcDbEntity
  8
1
  6
Continuous
 62
     7
100
AcDbCircle
 10
424.0102215444821
 20
664.1935289745651
 30
0.0
 40
0.5
100
AcDbArc
 50
0.0
 51
90.0
  0
ARC
  5
1A7
330
50
100
AcDbEntity
  8
1
  6
Continuous
 62
     7
100
AcDbCircle
 10
309.9897784555125
 20
664.193528974565
 30
0.0
 40
0.5
100
AcDbArc
 50
90.0
 51
180.0
  0
ARC
  5
1A8
330
50
100
AcDbEntity
  8
1
  6
Continuous
 62
     7
100
AcDbCircle
 10
315.9897784555125
 20
664.193528974565
 30
0.0
 40
0.5
100
AcDbArc
 50
0.0
 51
90.0
  0
ENDBLK
  5
52
330
50
100
AcDbEntity
  8
0
100
AcDbBlockEnd
  0
BLOCK
  5
54
330
53
100
AcDbEntity
  8
0
100
AcDbBlockBegin
  2
31-81-M1
 70
     0
 10
480.6040267084097
 20
786.0735726087049
 30
0.0
  3
31-81-M1
  1

  0
LINE
  5
1A9
330
53
100
AcDbEntity
  8
1
  6
PHANTOM
 62
     4
100
AcDbLine
 10
313.4897784555162
 20
782.0974688977902
 30
0.0
 11
313.4897784555162
 21
770.0974688977902
 31
0.0
  0
LINE
  5
1AA
330
53
100
AcDbEntity
  8
1
  6
Continuous
 62
     7
100
AcDbLine
 10
312.98977845552
 20
761.5974688977902
 30
0.0
 11
295.489778455517
 21
761.5974688977902
 31
0.0
  0
LINE
  5
1AB
330
53
100
AcDbEntity
  8
1
  6
Continuous
 62
     7
100
AcDbLine
 10
295.489778455517
 20
790.5974688977902
 30
0.0
 11
323.0897784555169
 21
790.5974688977902
 31
0.0
  0
LINE
  5
1AC
330
53
100
AcDbEntity
  8
1
  6
Continuous
 62
     7
100
AcDbLine
 10
295.489778455517
 20
761.5974688977902
 30
0.0
 11
295.489778455517
 21
790.5974688977902
 31
0.0
  0
LINE
  5
1AD
330
53
100
AcDbEntity
  8
1
  6
Continuous
 62
     7
100
AcDbLine
 10
318.3897784555144
 20
761.5974688977902
 30
0.0
 11
312.98977845552
 21
761.5974688977902
 31
0.0
  0
LINE
  5
1AE
330
53
100
AcDbEntity
  8
1
  6
Continuous
 62
     7
100
AcDbLine
 10
295.489778455517
 20
762.8974688977897
 30
0.0
 11
295.489778455517
 21
762.5974688977894
 31
0.0
  0
LINE
  5
1AF
330
53
100
AcDbEntity
  8
1
  6
Continuous
 62
     7
100
AcDbLine
 10
323.0897784555169
 20
761.5974688977902
 30
0.0
 11
318.3897784555144
 21
761.5974688977902
 31
0.0
  0
LINE
  5
1B0
330
53
100
AcDbEntity
  8
1
  6
Continuous
 62
     7
100
AcDbLine
 10
323.9897784555171
 20
789.6974688977905
 30
0.0
 11
323.9897784555171
 21
762.4974688977903
 31
0.0
  0
LINE
  5
1B1
330
53
100
AcDbEntity
  8
1
  6
Continuous
 62
     7
100
AcDbLine
 10
295.489778455517
 20
763.0974688977898
 30
0.0
 11
295.489778455517
 21
762.5974688977894
 31
0.0
  0
LINE
  5
1B2
330
53
100
AcDbEntity
  8
1
  6
Continuous
 62
     7
100
AcDbLine
 10
294.9897784555146
 20
618.1935289745643
 30
0.0
 11
294.9897784555146
 21
617.6935289745642
 31
0.0
  0
LINE
  5
1B3
330
53
100
AcDbEntity
  8
1
  6
Continuous
 62
     7
100
AcDbLine
 10
323.4897784555146
 20
644.793528974565
 30
0.0
 11
323.4897784555146
 21
617.593528974565
 31
0.0
  0
LINE
  5
1B4
330
53
100
AcDbEntity
  8
1
  6
Continuous
 62
     7
100
AcDbLine
 10
322.5897784555147
 20
616.693528974565
 30
0.0
 11
317.8897784555122
 21
616.693528974565
 31
0.0
  0
LINE
  5
1B5
330
53
100
AcDbEntity
  8
1
  6
Continuous
 62
     7
100
AcDbLine
 10
294.9897784555146
 20
617.9935289745641
 30
0.0
 11
294.9897784555146
 21
617.6935289745642
 31
0.0
  0
LINE
  5
1B6
330
53
100
AcDbEntity
  8
1
  6
Continuous
 62
     7
100
AcDbLine
 10
317.8897784555122
 20
616.693528974565
 30
0.0
 11
312.4897784555175
 21
616.693528974565
 31
0.0
  0
LINE
  5
1B7
330
53
100
AcDbEntity
  8
1
  6
Continuous
 62
     7
100
AcDbLine
 10
294.9897784555146
 20
616.693528974565
 30
0.0
 11
294.9897784555146
 21
645.693528974565
 31
0.0
  0
LINE
  5
1B8
330
53
100
AcDbEntity
  8
1
  6
Continuous
 62
     7
100
AcDbLine
 10
294.9897784555146
 20
645.693528974565
 30
0.0
 11
309.4897784555137
 21
645.693528974565
 31
0.0
  0
LINE
  5
1B9
330
53
100
AcDbEntity
  8
1
  6
Continuous
 62
     7
100
AcDbLine
 10
312.4897784555175
 20
616.693528974565
 30
0.0
 11
294.9897784555146
 21
616.693528974565
 31
0.0
  0
LINE
  5
1BA
330
53
100
AcDbEntity
  8
1
  6
PHANTOM
 62
     4
100
AcDbLine
 10
293.3897784555097
 20
631.193528974565
 30
0.0
 11
324.9897784555146
 21
631.193528974565
 31
0.0
  0
LINE
  5
1BB
330
53
100
AcDbEntity
  8
1
  6
PHANTOM
 62
     4
100
AcDbLine
 10
312.9897784555137
 20
647.193528974565
 30
0.0
 11
312.9897784555137
 21
638.0935289745644
 31
0.0
  0
LINE
  5
1BC
330
53
100
AcDbEntity
  8
1
  6
Continuous
 62
     7
100
AcDbLine
 10
316.4897784555117
 20
645.693528974565
 30
0.0
 11
322.5897784555147
 21
645.693528974565
 31
0.0
  0
ARC
  5
1BD
330
53
100
AcDbEntity
  8
0
  6
Continuous
 62
     7
100
AcDbCircle
 10
312.9897784555129
 20
659.7647762540274
 30
0.0
 40
14.49999999999221
100
AcDbArc
 50
256.0320373253444
 51
283.967962674654
  0
CIRCLE
  5
1BE
330
53
100
AcDbEntity
  8
1
  6
Continuous
 62
     7
100
AcDbCircle
 10
313.4897784555162
 20
776.0974688977902
 30
0.0
 40
2.999999999995509
  0
CIRCLE
  5
1BF
330
53
100
AcDbEntity
  8
1
  6
Continuous
 62
     7
100
AcDbCircle
 10
421.0102215444808
 20
631.193528974565
 30
0.0
 40
14.5
  0
ARC
  5
1C0
330
53
100
AcDbEntity
  8
1
  6
Continuous
 62
     7
100
AcDbCircle
 10
323.0897784555169
 20
762.4974688977903
 30
0.0
 40
0.900000000000091
100
AcDbArc
 50
270.0
 51
0.0
  0
ARC
  5
1C1
330
53
100
AcDbEntity
  8
1
  6
Continuous
 62
     7
100
AcDbCircle
 10
323.0897784555169
 20
789.6974688977905
 30
0.0
 40
0.9000000000002046
100
AcDbArc
 50
0.0
 51
90.0
  0
ARC
  5
1C2
330
53
100
AcDbEntity
  8
1
  6
Continuous
 62
     7
100
AcDbCircle
 10
322.5897784555147
 20
644.793528974565
 30
0.0
 40
0.8999999999999204
100
AcDbArc
 50
0.0
 51
90.0
  0
ARC
  5
1C3
330
53
100
AcDbEntity
  8
1
  6
Continuous
 62
     7
100
AcDbCircle
 10
322.5897784555147
 20
617.593528974565
 30
0.0
 40
0.8999999999999773
100
AcDbArc
 50
270.0
 51
0.0
  0
ENDBLK
  5
55
330
53
100
AcDbEntity
  8
0
100
AcDbBlockEnd
  0
BLOCK
  5
57
330
56
100
AcDbEntity
  8
0
100
AcDbBlockBegin
  2
37-311-M11
 70
     0
 10
480.6040267084097
 20
786.0735726087049
 30
0.0
  3
37-311-M11
  1

  0
LINE
  5
1C4
330
56
100
AcDbEntity
  8
0
  6
PHANTOM
 62
     4
100
AcDbLine
 10
421.0102215444808
 20
634.6935289745652
 30
0.0
 11
421.010221544482
 21
665.6935289745651
 31
0.0
  0
LINE
  5
1C5
330
56
100
AcDbEntity
  8
1
  6
Continuous
 62
     7
100
AcDbLine
 10
417.7102215444832
 20
662.6935289745651
 30
0.0
 11
417.510221544483
 21
662.4935289745652
 31
0.0
  0
LINE
  5
1C6
330
56
100
AcDbEntity
  8
1
  6
Continuous
 62
     7
100
AcDbLine
 10
417.510221544483
 20
662.4935289745652
 30
0.0
 11
417.5102215444828
 21
645.264776254036
 31
0.0
  0
LINE
  5
1C7
330
56
100
AcDbEntity
  8
1
  6
Continuous
 62
     7
100
AcDbLine
 10
424.5102215444808
 20
645.2647762540354
 30
0.0
 11
424.5102215444808
 21
662.4935289745652
 31
0.0
  0
LINE
  5
1C8
330
56
100
AcDbEntity
  8
1
  6
Continuous
 62
     7
100
AcDbLine
 10
417.7102215444832
 20
662.6935289745651
 30
0.0
 11
424.3102215444807
 21
662.6935289745651
 31
0.0
  0
LINE
  5
1C9
330
56
100
AcDbEntity
  8
1
  6
Continuous
 62
     7
100
AcDbLine
 10
424.5102215444808
 20
662.4935289745652
 30
0.0
 11
424.3102215444807
 21
662.6935289745651
 31
0.0
  0
LINE
  5
1CA
330
56
100
AcDbEntity
  8
1
  6
Continuous
 62
     7
100
AcDbLine
 10
316.4897784555117
 20
662.493528974565
 30
0.0
 11
316.2897784555116
 21
662.693528974565
 31
0.0
  0
LINE
  5
1CB
330
56
100
AcDbEntity
  8
1
  6
Continuous
 62
     7
100
AcDbLine
 10
309.6897784555139
 20
662.693528974565
 30
0.0
 11
316.2897784555116
 21
662.693528974565
 31
0.0
  0
LINE
  5
1CC
330
56
100
AcDbEntity
  8
0
  6
PHANTOM
 62
     4
100
AcDbLine
 10
312.9897784555126
 20
665.693528974565
 30
0.0
 11
312.9897784555138
 21
634.6935289745651
 31
0.0
  0
LINE
  5
1CD
330
56
100
AcDbEntity
  8
1
  6
Continuous
 62
     7
100
AcDbLine
 10
309.6897784555139
 20
662.693528974565
 30
0.0
 11
309.4897784555138
 21
662.493528974565
 31
0.0
  0
LINE
  5
1CE
330
56
100
AcDbEntity
  8
1
  6
Continuous
 62
     7
100
AcDbLine
 10
316.4897784555117
 20
645.693528974565
 30
0.0
 11
316.4897784555117
 21
662.493528974565
 31
0.0
  0
LINE
  5
1CF
330
56
100
AcDbEntity
  8
1
  6
Continuous
 62
     7
100
AcDbLine
 10
309.4897784555138
 20
662.493528974565
 30
0.0
 11
309.4897784555137
 21
645.693528974565
 31
0.0
  0
ENDBLK
  5
58
330
56
100
AcDbEntity
  8
0
100
AcDbBlockEnd
  0
BLOCK
  5
5A
330
59
100
AcDbEntity
  8
0
100
AcDbBlockBegin
  2
57-11-M1
 70
     0
 10
-8777.869272491545
 20
2610.378468581473
 30
0.0
  3
57-11-M1
  1

  0
LINE
  5
1D0
330
59
100
AcDbEntity
  8
1
  6
Continuous
 62
     7
100
AcDbLine
 10
449.0102215444811
 20
222.1935289745647
 30
0.0
 11
393.0102215444808
 21
222.1935289745649
 31
0.0
  0
LINE
  5
1D1
330
59
100
AcDbEntity
  8
1
  6
Continuous
 62
     7
100
AcDbLine
 10
391.0102215444808
 20
207.1935289745649
 30
0.0
 11
391.0102215444808
 21
220.1935289745649
 31
0.0
  0
LINE
  5
1D2
330
59
100
AcDbEntity
  8
1
  6
Continuous
 62
     7
100
AcDbLine
 10
451.0102215444811
 20
207.1935289745647
 30
0.0
 11
451.0102215444811
 21
220.1935289745647
 31
0.0
  0
LINE
  5
1D3
330
59
100
AcDbEntity
  8
1
  6
PHANTOM
 62
     4
100
AcDbLine
 10
421.0102215444811
 20
225.1935289745647
 30
0.0
 11
421.0102215444811
 21
204.1935289745649
 31
0.0
  0
LINE
  5
1D4
330
59
100
AcDbEntity
  8
1
  6
Continuous
 62
     7
100
AcDbLine
 10
451.0102215444811
 20
207.1935289745647
 30
0.0
 11
391.0102215444808
 21
207.1935289745649
 31
0.0
  0
LINE
  5
1D5
330
59
100
AcDbEntity
  8
1
  6
Continuous
 62
     7
100
AcDbLine
 10
300.9897784555191
 20
207.1935289745647
 30
0.0
 11
240.989778455519
 21
207.1935289745648
 31
0.0
  0
LINE
  5
1D6
330
59
100
AcDbEntity
  8
1
  6
PHANTOM
 62
     4
100
AcDbLine
 10
270.9897784555189
 20
225.1935289745647
 30
0.0
 11
270.9897784555189
 21
204.1935289745648
 31
0.0
  0
LINE
  5
1D7
330
59
100
AcDbEntity
  8
1
  6
Continuous
 62
     7
100
AcDbLine
 10
300.9897784555191
 20
207.1935289745647
 30
0.0
 11
300.9897784555191
 21
220.1935289745647
 31
0.0
  0
LINE
  5
1D8
330
59
100
AcDbEntity
  8
1
  6
Continuous
 62
     7
100
AcDbLine
 10
240.989778455519
 20
207.1935289745648
 30
0.0
 11
240.989778455519
 21
220.1935289745648
 31
0.0
  0
LINE
  5
1D9
330
59
100
AcDbEntity
  8
1
  6
Continuous
 62
     7
100
AcDbLine
 10
298.9897784555191
 20
222.1935289745647
 30
0.0
 11
242.989778455519
 21
222.1935289745648
 31
0.0
  0
ARC
  5
1DA
330
59
100
AcDbEntity
  8
1
  6
Continuous
 62
     7
100
AcDbCircle
 10
270.9897784555192
 20
776.0974688977902
 30
0.0
 40
30.00000000000005
100
AcDbArc
 50
28.90333453984725
 51
331.0966654601527
  0
ARC
  5
1DB
330
59
100
AcDbEntity
  8
1
  6
Continuous
 62
     7
100
AcDbCircle
 10
449.0102215444811
 20
220.1935289745647
 30
0.0
 40
2.0
100
AcDbArc
 50
0.0
 51
90.0
  0
ARC
  5
1DC
330
59
100
AcDbEntity
  8
1
  6
Continuous
 62
     7
100
AcDbCircle
 10
393.0102215444828
 20
220.1935289745649
 30
0.0
 40
2.0
100
AcDbArc
 50
90.000000000057
 51
180.0
  0
ARC
  5
1DD
330
59
100
AcDbEntity
  8
1
  6
Continuous
 62
     7
100
AcDbCircle
 10
242.9897784555211
 20
220.1935289745648
 30
0.0
 40
2.0
100
AcDbArc
 50
90.00000000006025
 51
180.0
  0
ARC
  5
1DE
330
59
100
AcDbEntity
  8
1
  6
Continuous
 62
     7
100
AcDbCircle
 10
298.9897784555191
 20
220.1935289745647
 30
0.0
 40
2.0
100
AcDbArc
 50
0.0
 51
90.0
  0
ENDBLK
  5
5B
330
59
100
AcDbEntity
  8
0
100
AcDbBlockEnd
  0
BLOCK
  5
5D
330
5C
100
AcDbEntity
  8
0
100
AcDbBlockBegin
  2
30-219-C2
 70
     0
 10
864.4901586745466
 20
102.0388787112945
 30
0.0
  3
30-219-C2
  1

  0
LINE
  5
1DF
330
5C
100
AcDbEntity
  8
1
  6
Continuous
 62
     7
100
AcDbLine
 10
277.1897784555201
 20
783.0801792598193
 30
0.0
 11
277.1897784555201
 21
769.1147585357612
 31
0.0
  0
ENDBLK
  5
5E
330
5C
100
AcDbEntity
  8
0
100
AcDbBlockEnd
  0
BLOCK
  5
60
330
5F
100
AcDbEntity
  8
0
100
AcDbBlockBegin
  2
32-88
 70
     0
 10
619.5975325252195
 20
1441.765384672541
 30
0.0
  3
32-88
  1

  0
LINE
  5
1E0
330
5F
100
AcDbEntity
  8
1
  6
Continuous
 62
     7
100
AcDbLine
 10
270.3919075789451
 20
778.6914583552964
 30
0.0
 11
270.3919075789451
 21
776.1005196690694
 31
0.0
  0
LINE
  5
1E1
330
5F
100
AcDbEntity
  8
1
  6
Continuous
 62
     7
100
AcDbLine
 10
272.8919075789451
 20
779.5646212842071
 30
0.0
 11
272.8897784555185
 21
779.5646212842071
 31
0.0
  0
LINE
  5
1E2
330
5F
100
AcDbEntity
  8
1
  6
Continuous
 62
     7
100
AcDbLine
 10
270.8560091940828
 20
779.5646212842071
 30
0.0
 11
270.3919075789451
 21
779.1005196690693
 31
0.0
  0
LINE
  5
1E3
330
5F
100
AcDbEntity
  8
1
  6
Continuous
 62
     7
100
AcDbLine
 10
272.8919075789451
 20
777.8325704766382
 30
0.0
 11
270.8560091940828
 21
777.8325704766382
 31
0.0
  0
LINE
  5
1E4
330
5F
100
AcDbEntity
  8
1
  6
Continuous
 62
     7
100
AcDbLine
 10
270.3919075789451
 20
778.7354633048035
 30
0.0
 11
270.3919075789451
 21
779.1005196690693
 31
0.0
  0
LINE
  5
1E5
330
5F
100
AcDbEntity
  8
1
  6
Continuous
 62
     7
100
AcDbLine
 10
270.3919075789451
 20
776.1005196690694
 30
0.0
 11
270.3919075789451
 21
773.5095809828424
 31
0.0
  0
LINE
  5
1E6
330
5F
100
AcDbEntity
  8
1
  6
Continuous
 62
     7
100
AcDbLine
 10
270.8560091940828
 20
772.6364180539315
 30
0.0
 11
272.8897784555185
 21
772.6364180539315
 31
0.0
  0
LINE
  5
1E7
330
5F
100
AcDbEntity
  8
1
  6
Continuous
 62
     7
100
AcDbLine
 10
270.3919075789451
 20
773.1005196690693
 30
0.0
 11
270.8560091940828
 21
772.6364180539315
 31
0.0
  0
LINE
  5
1E8
330
5F
100
AcDbEntity
  8
1
  6
Continuous
 62
     7
100
AcDbLine
 10
270.8560091940828
 20
774.3684688615006
 30
0.0
 11
272.8919075789451
 21
774.3684688615003
 31
0.0
  0
LINE
  5
1E9
330
5F
100
AcDbEntity
  8
1
  6
Continuous
 62
     7
100
AcDbLine
 10
270.3919075789451
 20
773.1005196690693
 30
0.0
 11
270.3919075789451
 21
773.4655760333351
 31
0.0
  0
LINE
  5
1EA
330
5F
100
AcDbEntity
  8
0
  6
Continuous
 62
     7
100
AcDbLine
 10
272.8897784555185
 20
772.6364180539315
 30
0.0
 11
272.8897784555185
 21
779.5646212842071
 31
0.0
  0
LINE
  5
1EB
330
5F
100
AcDbEntity
  8
1
  6
Continuous
 62
     7
100
AcDbLine
 10
272.8897784555185
 20
779.5646212842071
 30
0.0
 11
270.8560091940828
 21
779.5646212842071
 31
0.0
  0
LINE
  5
1EC
330
5F
100
AcDbEntity
  8
1
  6
Continuous
 62
     7
100
AcDbLine
 10
272.8897784555185
 20
772.6364180539315
 30
0.0
 11
272.8919075789451
 21
772.6364180539315
 31
0.0
  0
ARC
  5
1ED
330
5F
100
AcDbEntity
  8
1
  6
Continuous
 62
     7
100
AcDbCircle
 10
273.6487855660484
 20
776.1560450728537
 30
0.0
 40
3.257351269566179
100
AcDbArc
 50
149.0232783881066
 51
180.9767216118873
  0
ARC
  5
1EE
330
5F
100
AcDbEntity
  8
1
  6
Continuous
 62
     7
100
AcDbCircle
 10
271.4319162035887
 20
778.6985958804225
 30
0.0
 40
1.040033116587172
100
AcDbArc
 50
146.3760885320341
 51
236.3760885320262
  0
ARC
  5
1EF
330
5F
100
AcDbEntity
  8
1
  6
Continuous
 62
     7
100
AcDbCircle
 10
273.6487855660484
 20
776.0449942652849
 30
0.0
 40
3.257351269566017
100
AcDbArc
 50
179.0232783881087
 51
210.97672161189
  0
ARC
  5
1F0
330
5F
100
AcDbEntity
  8
1
  6
Continuous
 62
     7
100
AcDbCircle
 10
271.4319162035887
 20
773.502443457716
 30
0.0
 40
1.040033116587251
100
AcDbArc
 50
123.6239114679668
 51
213.6239114679659
  0
ENDBLK
  5
61
330
5F
100
AcDbEntity
  8
0
100
AcDbBlockEnd
  0
BLOCK
  5
63
330
62
100
AcDbEntity
  8
0
100
AcDbBlockBegin
  2
91-1
 70
     0
 10
103.5435427077906
 20
815.1689812889479
 30
0.0
  3
91-1
  1

  0
LINE
  5
1F1
330
62
100
AcDbEntity
  8
1
  6
Continuous
 62
     7
100
AcDbLine
 10
275.8897784555185
 20
783.0974688977901
 30
0.0
 11
272.8897784555185
 21
783.0974688977901
 31
0.0
  0
LINE
  5
1F2
330
62
100
AcDbEntity
  8
1
  6
Continuous
 62
     7
100
AcDbLine
 10
272.8897784555185
 20
769.0974688977901
 30
0.0
 11
275.8897784555185
 21
769.0974688977901
 31
0.0
  0
LINE
  5
1F3
330
62
100
AcDbEntity
  8
1
  6
Continuous
 62
     7
100
AcDbLine
 10
272.8897784555185
 20
783.0974688977901
 30
0.0
 11
272.8897784555185
 21
769.0974688977901
 31
0.0
  0
LINE
  5
1F4
330
62
100
AcDbEntity
  8
1
  6
Continuous
 62
     7
100
AcDbLine
 10
275.8897784555185
 20
769.0974688977901
 30
0.0
 11
275.8897784555185
 21
783.0974688977901
 31
0.0
  0
ENDBLK
  5
64
330
62
100
AcDbEntity
  8
0
100
AcDbBlockEnd
  0
BLOCK
  5
66
330
65
100
AcDbEntity
  8
0
100
AcDbBlockBegin
  2
41-7-15-C2
 70
     0
 10
108.6021323370321
 20
780.9736858817324
 30
0.0
  3
41-7-15-C2
  1

  0
LINE
  5
1F5
330
65
100
AcDbEntity
  8
1
  6
Continuous
 62
     7
100
AcDbLine
 10
275.8897784555185
 20
768.5974688977901
 30
0.0
 11
275.8897784555185
 21
783.5974688977901
 31
0.0
  0
LINE
  5
1F6
330
65
100
AcDbEntity
  8
1
  6
Continuous
 62
     2
100
AcDbLine
 10
270.3897784555185
 20
774.47646889779
 30
0.0
 11
269.7897784555188
 21
774.4764688977899
 31
0.0
  0
LINE
  5
1F7
330
65
100
AcDbEntity
  8
1
  6
Continuous
 62
     7
100
AcDbLine
 10
270.3897784555185
 20
774.0974688977901
 30
0.0
 11
269.7897784555188
 21
774.0974688977901
 31
0.0
  0
LINE
  5
1F8
330
65
100
AcDbEntity
  8
1
  6
Continuous
 62
     2
100
AcDbLine
 10
269.7897784555188
 20
777.71846889779
 30
0.0
 11
270.3897784555185
 21
777.71846889779
 31
0.0
  0
LINE
  5
1F9
330
65
100
AcDbEntity
  8
1
  6
Continuous
 62
     7
100
AcDbLine
 10
269.7897784555188
 20
778.0974688977901
 30
0.0
 11
270.3897784555185
 21
778.0974688977901
 31
0.0
  0
LINE
  5
1FA
330
65
100
AcDbEntity
  8
1
  6
Continuous
 62
     7
100
AcDbLine
 10
276.5528930507796
 20
783.59746889779
 30
0.0
 11
275.8897784555185
 21
783.5974688977901
 31
0.0
  0
LINE
  5
1FB
330
65
100
AcDbEntity
  8
1
  6
Continuous
 62
     7
100
AcDbLine
 10
276.5528930507793
 20
768.59746889779
 30
0.0
 11
275.8897784555185
 21
768.5974688977901
 31
0.0
  0
ENDBLK
  5
67
330
65
100
AcDbEntity
  8
0
100
AcDbBlockEnd
  0
BLOCK
  5
6C
330
68
100
AcDbEntity
  8
0
100
AcDbBlockBegin
  2
P82AT-2-15
 70
     0
 10
567.8901586745462
 20
312.0388787112945
 30
0.0
  3
P82AT-2-15
  1

  0
INSERT
  5
69
330
68
100
AcDbEntity
  8
0
100
AcDbBlockReference
  2
32-88
 10
619.5975325252195
 20
1441.765384672541
 30
0.0
  0
INSERT
  5
6A
330
68
100
AcDbEntity
  8
0
100
AcDbBlockReference
  2
91-1
 10
103.5435427077906
 20
815.1689812889479
 30
0.0
  0
INSERT
  5
6B
330
68
100
AcDbEntity
  8
0
100
AcDbBlockReference
  2
41-7-15-C2
 10
108.6021323370321
 20
780.9736858817324
 30
0.0
  0
LINE
  5
1FC
330
68
100
AcDbEntity
  8
1
  6
PHANTOM
 62
     4
100
AcDbLine
 10
265.8897784555185
 20
776.0974688977901
 30
0.0
 11
296.8909668396915
 21
776.0974688977901
 31
0.0
  0
ENDBLK
  5
6D
330
68
100
AcDbEntity
  8
0
100
AcDbBlockEnd
  0
BLOCK
  5
70
330
6E
100
AcDbEntity
  8
0
100
AcDbBlockBegin
  2
36-179-C2
 70
     0
 10
742.7413728117654
 20
232.1391355152525
 30
0.0
  3
36-179-C2
  1

  0
INSERT
  5
6F
330
6E
100
AcDbEntity
  8
1
100
AcDbBlockReference
  2
P82AT-2-15
 10
567.8901586745462
 20
312.0388787112945
 30
0.0
  0
ENDBLK
  5
71
330
6E
100
AcDbEntity
  8
0
100
AcDbBlockEnd
  0
BLOCK
  5
75
330
72
100
AcDbEntity
  8
0
100
AcDbBlockBegin
  2
30-219X
 70
     0
 10
868.5803173490883
 20
628.0
 30
0.0
  3
30-219X
  1

  0
INSERT
  5
73
330
72
100
AcDbEntity
  8
1
100
AcDbBlockReference
  2
30-219-C2
 10
864.4901586745466
 20
102.0388787112945
 30
0.0
  0
INSERT
  5
74
330
72
100
AcDbEntity
  8
1
100
AcDbBlockReference
  2
36-179-C2
 10
742.7413728117654
 20
232.1391355152525
 30
0.0
  0
ENDBLK
  5
76
330
72
100
AcDbEntity
  8
0
100
AcDbBlockEnd
  0
BLOCK
  5
22E
330
227
100
AcDbEntity
  8
0
100
AcDbBlockBegin
  2
*D15
 70
     1
 10
0.0
 20
0.0
 30
0.0
  3
*D15
  1

  0
LINE
  5
228
330
227
100
AcDbEntity
  8
1
  6
Continuous
 62
     2
100
AcDbLine
 10
210.9897784555189
 20
631.193528974565
 30
0.0
 11
210.9897784555189
 21
187.1935289745648
 31
0.0
  0
LINE
  5
229
330
227
100
AcDbEntity
  8
1
  6
Continuous
 62
     2
100
AcDbLine
 10
253.489778455519
 20
631.193528974565
 30
0.0
 11
207.9897784555189
 21
631.193528974565
 31
0.0
  0
LINE
  5
22A
330
227
100
AcDbEntity
  8
1
  6
Continuous
 62
     2
100
AcDbLine
 10
262.2449664533668
 20
187.1935289745648
 30
0.0
 11
207.9897784555189
 21
187.1935289745648
 31
0.0
  0
SOLID
  5
22B
330
227
100
AcDbEntity
  8
1
 62
     2
100
AcDbTrace
 10
212.3721296801865
 20
620.693528974565
 30
0.0
 11
209.6074272308512
 21
620.693528974565
 31
0.0
 12
210.9897784555189
 22
631.193528974565
 32
0.0
 13
210.9897784555189
 23
631.193528974565
 33
0.0
  0
SOLID
  5
22C
330
227
100
AcDbEntity
  8
1
 62
     2
100
AcDbTrace
 10
209.6074272308512
 20
197.6935289745648
 30
0.0
 11
212.3721296801865
 21
197.6935289745648
 31
0.0
 12
210.9897784555189
 22
187.1935289745648
 32
0.0
 13
210.9897784555189
 23
187.1935289745648
 33
0.0
  0
MTEXT
  5
22D
330
227
100
AcDbEntity
  8
1
 62
     7
100
AcDbMText
 10
207.9897784555189
 20
396.5935289745648
 30
0.0
 40
10.5
 41
0.0
 71
     7
 72
     1
  1
444
  7
CONVERTER_12
 11
0.0
 21
1.0
 31
0.0
 73
     1
 44
0.60024009603842
  0
ENDBLK
  5
22F
330
227
100
AcDbEntity
  8
0
100
AcDbBlockEnd
  0
BLOCK
  5
239
330
232
100
AcDbEntity
  8
0
100
AcDbBlockBegin
  2
*D16
 70
     1
 10
0.0
 20
0.0
 30
0.0
  3
*D16
  1

  0
LINE
  5
233
330
232
100
AcDbEntity
  8
1
  6
Continuous
 62
     2
100
AcDbLine
 10
240.989778455519
 20
157.1935289745648
 30
0.0
 11
300.989778455519
 21
157.1935289745648
 31
0.0
  0
LINE
  5
234
330
232
100
AcDbEntity
  8
1
  6
Continuous
 62
     2
100
AcDbLine
 10
240.989778455519
 20
207.1935289745648
 30
0.0
 11
240.989778455519
 21
154.1935289745648
 31
0.0
  0
LINE
  5
235
330
232
100
AcDbEntity
  8
1
  6
Continuous
 62
     2
100
AcDbLine
 10
300.989778455519
 20
207.1935289745647
 30
0.0
 11
300.989778455519
 21
154.1935289745648
 31
0.0
  0
SOLID
  5
236
330
232
100
AcDbEntity
  8
1
 62
     2
100
AcDbTrace
 10
251.489778455519
 20
158.5758801992324
 30
0.0
 11
251.489778455519
 21
155.8111777498972
 31
0.0
 12
240.989778455519
 22
157.1935289745648
 32
0.0
 13
240.989778455519
 23
157.1935289745648
 33
0.0
  0
SOLID
  5
237
330
232
100
AcDbEntity
  8
1
 62
     2
100
AcDbTrace
 10
290.489778455519
 20
155.8111777498972
 30
0.0
 11
290.489778455519
 21
158.5758801992324
 31
0.0
 12
300.989778455519
 22
157.1935289745648
 32
0.0
 13
300.989778455519
 23
157.1935289745648
 33
0.0
  0
MTEXT
  5
238
330
232
100
AcDbEntity
  8
1
 62
     7
100
AcDbMText
 10
257.8647784555193
 20
160.1935289745648
 30
0.0
 40
10.5
 41
0.0
 71
     7
 72
     1
  1
{\Fgdt;n}60
  7
CONVERTER_12
 11
0.9999999999970619
 21
2.424068405545306E-6
 31
0.0
 73
     1
 44
0.60024009603842
  0
ENDBLK
  5
23A
330
232
100
AcDbEntity
  8
0
100
AcDbBlockEnd
  0
BLOCK
  5
246
330
23D
100
AcDbEntity
  8
0
100
AcDbBlockBegin
  2
*D17
 70
     1
 10
0.0
 20
0.0
 30
0.0
  3
*D17
  1

  0
LINE
  5
23E
330
23D
100
AcDbEntity
  8
1
  6
Continuous
 62
     2
100
AcDbLine
 10
330.9897784555191
 20
243.1935289745647
 30
0.0
 11
330.9897784555191
 21
222.1935289745647
 31
0.0
  0
LINE
  5
23F
330
23D
100
AcDbEntity
  8
1
  6
Continuous
 62
     2
100
AcDbLine
 10
330.9897784555191
 20
222.1935289745647
 30
0.0
 11
330.9897784555191
 21
207.1935289745647
 31
0.0
  0
LINE
  5
240
330
23D
100
AcDbEntity
  8
1
  6
Continuous
 62
     2
100
AcDbLine
 10
330.9897784555191
 20
207.1935289745647
 30
0.0
 11
330.9897784555191
 21
186.1935289745647
 31
0.0
  0
LINE
  5
241
330
23D
100
AcDbEntity
  8
1
  6
Continuous
 62
     2
100
AcDbLine
 10
300.9897784555191
 20
207.1935289745647
 30
0.0
 11
333.9897784555191
 21
207.1935289745647
 31
0.0
  0
LINE
  5
242
330
23D
100
AcDbEntity
  8
1
  6
Continuous
 62
     2
100
AcDbLine
 10
298.9897784555191
 20
222.1935289745647
 30
0.0
 11
333.9897784555191
 21
222.1935289745647
 31
0.0
  0
SOLID
  5
243
330
23D
100
AcDbEntity
  8
1
 62
     2
100
AcDbTrace
 10
329.6074272308514
 20
232.6935289745647
 30
0.0
 11
332.3721296801868
 21
232.6935289745647
 31
0.0
 12
330.9897784555191
 22
222.1935289745647
 32
0.0
 13
330.9897784555191
 23
222.1935289745647
 33
0.0
  0
SOLID
  5
244
330
23D
100
AcDbEntity
  8
1
 62
     2
100
AcDbTrace
 10
332.3721296801868
 20
196.6935289745647
 30
0.0
 11
329.6074272308514
 21
196.6935289745647
 31
0.0
 12
330.9897784555191
 22
207.1935289745647
 32
0.0
 13
330.9897784555191
 23
207.1935289745647
 33
0.0
  0
MTEXT
  5
245
330
23D
100
AcDbEntity
  8
1
 62
     7
100
AcDbMText
 10
327.9897784555191
 20
208.3935289745647
 30
0.0
 40
10.5
 41
0.0
 71
     7
 72
     1
  1
15
  7
CONVERTER_12
 11
0.0
 21
1.0
 31
0.0
 73
     1
 44
0.60024009603842
  0
ENDBLK
  5
247
330
23D
100
AcDbEntity
  8
0
100
AcDbBlockEnd
  0
BLOCK
  5
251
330
24A
100
AcDbEntity
  8
0
100
AcDbBlockBegin
  2
*D18
 70
     1
 10
0.0
 20
0.0
 30
0.0
  3
*D18
  1

  0
LINE
  5
24B
330
24A
100
AcDbEntity
  8
1
  6
Continuous
 62
     2
100
AcDbLine
 10
210.9897784555189
 20
670.193528974565
 30
0.0
 11
210.9897784555189
 21
631.193528974565
 31
0.0
  0
LINE
  5
24C
330
24A
100
AcDbEntity
  8
1
  6
Continuous
 62
     2
100
AcDbLine
 10
253.4897784555189
 20
631.193528974565
 30
0.0
 11
207.9897784555189
 21
631.193528974565
 31
0.0
  0
LINE
  5
24D
330
24A
100
AcDbEntity
  8
1
  6
Continuous
 62
     2
100
AcDbLine
 10
261.6517784555189
 20
670.193528974565
 30
0.0
 11
207.9897784555189
 21
670.193528974565
 31
0.0
  0
SOLID
  5
24E
330
24A
100
AcDbEntity
  8
1
 62
     2
100
AcDbTrace
 10
212.3721296801865
 20
659.693528974565
 30
0.0
 11
209.6074272308512
 21
659.693528974565
 31
0.0
 12
210.9897784555189
 22
670.193528974565
 32
0.0
 13
210.9897784555189
 23
670.193528974565
 33
0.0
  0
SOLID
  5
24F
330
24A
100
AcDbEntity
  8
1
 62
     2
100
AcDbTrace
 10
209.6074272308512
 20
641.693528974565
 30
0.0
 11
212.3721296801865
 21
641.693528974565
 31
0.0
 12
210.9897784555189
 22
631.193528974565
 32
0.0
 13
210.9897784555189
 23
631.193528974565
 33
0.0
  0
MTEXT
  5
250
330
24A
100
AcDbEntity
  8
1
 62
     7
100
AcDbMText
 10
207.9897784555189
 20
642.818528974565
 30
0.0
 40
10.5
 41
0.0
 71
     7
 72
     1
  1
39
  7
CONVERTER_12
 11
0.0
 21
1.0
 31
0.0
 73
     1
 44
0.60024009603842
  0
ENDBLK
  5
252
330
24A
100
AcDbEntity
  8
0
100
AcDbBlockEnd
  0
BLOCK
  5
25E
330
255
100
AcDbEntity
  8
0
100
AcDbBlockBegin
  2
*D19
 70
     1
 10
0.0
 20
0.0
 30
0.0
  3
*D19
  1

  0
LINE
  5
256
330
255
100
AcDbEntity
  8
1
  6
Continuous
 62
     2
100
AcDbLine
 10
385.5102215444812
 20
700.193528974565
 30
0.0
 11
406.5102215444812
 21
700.193528974565
 31
0.0
  0
LINE
  5
257
330
255
100
AcDbEntity
  8
1
  6
Continuous
 62
     2
100
AcDbLine
 10
406.5102215444812
 20
700.193528974565
 30
0.0
 11
435.5102215444814
 21
700.193528974565
 31
0.0
  0
LINE
  5
258
330
255
100
AcDbEntity
  8
1
  6
Continuous
 62
     2
100
AcDbLine
 10
435.5102215444814
 20
700.193528974565
 30
0.0
 11
456.5102215444814
 21
700.193528974565
 31
0.0
  0
LINE
  5
259
330
255
100
AcDbEntity
  8
1
  6
Continuous
 62
     2
100
AcDbLine
 10
435.5102215444814
 20
658.193528974565
 30
0.0
 11
435.5102215444814
 21
703.193528974565
 31
0.0
  0
LINE
  5
25A
330
255
100
AcDbEntity
  8
1
  6
Continuous
 62
     2
100
AcDbLine
 10
406.5102215444812
 20
658.193528974565
 30
0.0
 11
406.5102215444812
 21
703.193528974565
 31
0.0
  0
SOLID
  5
25B
330
255
100
AcDbEntity
  8
1
 62
     2
100
AcDbTrace
 10
396.0102215444812
 20
698.8111777498973
 30
0.0
 11
396.0102215444812
 21
701.5758801992326
 31
0.0
 12
406.5102215444812
 22
700.193528974565
 32
0.0
 13
406.5102215444812
 23
700.193528974565
 33
0.0
  0
SOLID
  5
25C
330
255
100
AcDbEntity
  8
1
 62
     2
100
AcDbTrace
 10
446.0102215444814
 20
701.5758801992326
 30
0.0
 11
446.0102215444814
 21
698.8111777498973
 31
0.0
 12
435.5102215444814
 22
700.193528974565
 32
0.0
 13
435.5102215444814
 23
700.193528974565
 33
0.0
  0
MTEXT
  5
25D
330
255
100
AcDbEntity
  8
1
 62
     7
100
AcDbMText
 10
407.8852215444811
 20
703.193528974565
 30
0.0
 40
10.5
 41
0.0
 71
     7
 72
     1
  1
{\Fgdt;n}29
  7
CONVERTER_12
 11
0.9999999999970619
 21
2.424068405545306E-6
 31
0.0
 73
     1
 44
0.60024009603842
  0
ENDBLK
  5
25F
330
255
100
AcDbEntity
  8
0
100
AcDbBlockEnd
  0
BLOCK
  5
26B
330
262
100
AcDbEntity
  8
0
100
AcDbBlockBegin
  2
*D20
 70
     1
 10
0.0
 20
0.0
 30
0.0
  3
*D20
  1

  0
LINE
  5
263
330
262
100
AcDbEntity
  8
1
  6
Continuous
 62
     2
100
AcDbLine
 10
259.8279258313745
 20
552.048984128566
 30
0.0
 11
280.8279258313745
 21
552.048984128566
 31
0.0
  0
LINE
  5
264
330
262
100
AcDbEntity
  8
1
  6
Continuous
 62
     2
100
AcDbLine
 10
280.8279258313745
 20
552.048984128566
 30
0.0
 11
309.8279258313739
 21
552.048984128566
 31
0.0
  0
LINE
  5
265
330
262
100
AcDbEntity
  8
1
  6
Continuous
 62
     2
100
AcDbLine
 10
309.8279258313739
 20
552.048984128566
 30
0.0
 11
339.330294946627
 21
552.048984128566
 31
0.0
  0
LINE
  5
266
330
262
100
AcDbEntity
  8
1
  6
Continuous
 62
     2
100
AcDbLine
 10
285.4897784555186
 20
594.2038919456465
 30
0.0
 11
311.3279258313739
 21
549.4509079172126
 31
0.0
  0
LINE
  5
267
330
262
100
AcDbEntity
  8
1
  6
Continuous
 62
     2
100
AcDbLine
 10
256.4897784555192
 20
594.2038919456465
 30
0.0
 11
282.3279258313745
 21
549.4509079172126
 31
0.0
  0
SOLID
  5
268
330
262
100
AcDbEntity
  8
1
 62
     2
100
AcDbTrace
 10
270.3279258313745
 20
550.6666329038983
 30
0.0
 11
270.3279258313745
 21
553.4313353532336
 31
0.0
 12
280.8279258313745
 22
552.048984128566
 32
0.0
 13
280.8279258313745
 23
552.048984128566
 33
0.0
  0
SOLID
  5
269
330
262
100
AcDbEntity
  8
1
 62
     2
100
AcDbTrace
 10
320.3279258313739
 20
553.4313353532336
 30
0.0
 11
320.3279258313739
 21
550.6666329038983
 31
0.0
 12
309.8279258313739
 22
552.048984128566
 32
0.0
 13
309.8279258313739
 23
552.048984128566
 33
0.0
  0
MTEXT
  5
26A
330
262
100
AcDbEntity
  8
1
 62
     7
100
AcDbMText
 10
323.580294946627
 20
555.048984128566
 30
0.0
 40
10.5
 41
0.0
 71
     7
 72
     1
  1
29
  7
CONVERTER_12
 11
0.9999999999970619
 21
2.424068405545306E-6
 31
0.0
 73
     1
 44
0.60024009603842
  0
ENDBLK
  5
26C
330
262
100
AcDbEntity
  8
0
100
AcDbBlockEnd
  0
BLOCK
  5
276
330
26F
100
AcDbEntity
  8
0
100
AcDbBlockBegin
  2
*D21
 70
     1
 10
0.0
 20
0.0
 30
0.0
  3
*D21
  1

  0
LINE
  5
270
330
26F
100
AcDbEntity
  8
1
  6
Continuous
 62
     2
100
AcDbLine
 10
270.9897784555189
 20
700.193528974565
 30
0.0
 11
323.4897784555146
 21
700.193528974565
 31
0.0
  0
LINE
  5
271
330
26F
100
AcDbEntity
  8
1
  6
Continuous
 62
     2
100
AcDbLine
 10
323.4897784555146
 20
644.793528974565
 30
0.0
 11
323.4897784555146
 21
703.193528974565
 31
0.0
  0
LINE
  5
272
330
26F
100
AcDbEntity
  8
1
  6
Continuous
 62
     2
100
AcDbLine
 10
270.9897784555189
 20
679.193528974565
 30
0.0
 11
270.9897784555189
 21
703.193528974565
 31
0.0
  0
SOLID
  5
273
330
26F
100
AcDbEntity
  8
1
 62
     2
100
AcDbTrace
 10
281.4897784555189
 20
701.5758801992326
 30
0.0
 11
281.4897784555189
 21
698.8111777498973
 31
0.0
 12
270.9897784555189
 22
700.193528974565
 32
0.0
 13
270.9897784555189
 23
700.193528974565
 33
0.0
  0
SOLID
  5
274
330
26F
100
AcDbEntity
  8
1
 62
     2
100
AcDbTrace
 10
312.9897784555146
 20
698.8111777498973
 30
0.0
 11
312.9897784555146
 21
701.5758801992326
 31
0.0
 12
323.4897784555146
 22
700.193528974565
 32
0.0
 13
323.4897784555146
 23
700.193528974565
 33
0.0
  0
MTEXT
  5
275
330
26F
100
AcDbEntity
  8
1
 62
     7
100
AcDbMText
 10
289.3647784555169
 20
703.193528974565
 30
0.0
 40
10.5
 41
0.0
 71
     7
 72
     1
  1
53
  7
CONVERTER_12
 11
0.9999999999970619
 21
2.424068405545306E-6
 31
0.0
 73
     1
 44
0.60024009603842
  0
ENDBLK
  5
277
330
26F
100
AcDbEntity
  8
0
100
AcDbBlockEnd
  0
ENDSEC
  0
SECTION
  2
ENTITIES
  0
INSERT
  5
77
330
1F
100
AcDbEntity
  8
1
100
AcDbBlockReference
  2
64-7-13-420-M11
 10
662.0
 20
1557.0
 30
0.0
  0
INSERT
  5
78
330
1F
100
AcDbEntity
  8
1
100
AcDbBlockReference
  2
開示A4
 10
0.0
 20
0.0
 30
0.0
 41
3.0
 42
3.0
 43
3.0
  0
INSERT
  5
79
330
1F
100
AcDbEntity
  8
1
100
AcDbBlockReference
  2
V2161-0-13-M1
 10
263.7799371300632
 20
1005.654650263271
 30
0.0
  0
INSERT
  5
7A
330
1F
100
AcDbEntity
  8
1
100
AcDbBlockReference
  2
34-160-M11
 10
480.6040267084097
 20
786.0735726087049
 30
0.0
  0
INSERT
  5
7B
330
1F
100
AcDbEntity
  8
1
100
AcDbBlockReference
  2
31-81-M1
 10
480.6040267084097
 20
786.0735726087049
 30
0.0
  0
INSERT
  5
7C
330
1F
100
AcDbEntity
  8
1
100
AcDbBlockReference
  2
37-311-M11
 10
480.6040267084097
 20
786.0735726087049
 30
0.0
  0
INSERT
  5
7D
330
1F
100
AcDbEntity
  8
1
100
AcDbBlockReference
  2
57-11-M1
 10
-8777.869272491545
 20
2610.378468581473
 30
0.0
  0
INSERT
  5
7E
330
1F
100
AcDbEntity
  8
1
100
AcDbBlockReference
  2
30-219X
 10
868.5803173490883
 20
628.0
 30
0.0
  0
LINE
  5
1FD
330
1F
100
AcDbEntity
  8
0
  6
Continuous
 62
     7
100
AcDbLine
 10
304.4241684637048
 20
590.6935289745652
 30
0.0
 11
303.4241684637048
 21
590.6935289745652
 31
0.0
  0
LINE
  5
1FE
330
1F
100
AcDbEntity
  8
0
  6
Continuous
 62
     7
100
AcDbLine
 10
303.4241684637048
 20
590.6935289745652
 30
0.0
 11
303.4241684637048
 21
586.6935289745652
 31
0.0
  0
LINE
  5
1FF
330
1F
100
AcDbEntity
  8
0
  6
Continuous
 62
     7
100
AcDbLine
 10
303.4241684637048
 20
586.6935289745652
 30
0.0
 11
301.4241684637048
 21
586.6935289745652
 31
0.0
  0
LINE
  5
200
330
1F
100
AcDbEntity
  8
0
  6
Continuous
 62
     7
100
AcDbLine
 10
301.4241684637048
 20
586.6935289745652
 30
0.0
 11
301.4241684637048
 21
590.6935289745652
 31
0.0
  0
LINE
  5
201
330
1F
100
AcDbEntity
  8
0
  6
Continuous
 62
     7
100
AcDbLine
 10
301.4241684637048
 20
590.6935289745652
 30
0.0
 11
300.4241684637048
 21
590.6935289745652
 31
0.0
  0
LINE
  5
202
330
1F
100
AcDbEntity
  8
0
  6
Continuous
 62
     7
100
AcDbLine
 10
300.4241684637048
 20
590.6935289745652
 30
0.0
 11
302.4241684637048
 21
592.6935289745652
 31
0.0
  0
LINE
  5
203
330
1F
100
AcDbEntity
  8
0
  6
Continuous
 62
     7
100
AcDbLine
 10
302.4241684637048
 20
592.6935289745652
 30
0.0
 11
304.4241684637048
 21
590.6935289745652
 31
0.0
  0
LINE
  5
204
330
1F
100
AcDbEntity
  8
1
  6
DASH_CENTER
 62
     2
100
AcDbLine
 10
421.0102215444811
 20
612.243528974565
 30
0.0
 11
421.0102215444811
 21
673.193528974565
 31
0.0
  0
LINE
  5
205
330
1F
100
AcDbEntity
  8
1
  6
DASH_CENTER
 62
     2
100
AcDbLine
 10
421.0102215444811
 20
178.1935289745648
 30
0.0
 11
421.0102215444811
 21
612.243528974565
 31
0.0
  0
LINE
  5
206
330
1F
100
AcDbEntity
  8
1
  6
DASH_CENTER
 62
     2
100
AcDbLine
 10
403.5102215444808
 20
631.193528974565
 30
0.0
 11
438.5102215444811
 21
631.193528974565
 31
0.0
  0
LINE
  5
207
330
1F
100
AcDbEntity
  8
1
  6
DASH_CENTER
 62
     2
100
AcDbLine
 10
270.9897784555189
 20
679.193528974565
 30
0.0
 11
270.9897784555193
 21
178.1935289745648
 31
0.0
  0
LINE
  5
208
330
1F
100
AcDbEntity
  8
1
  6
DASH_CENTER
 62
     2
100
AcDbLine
 10
326.4897784555149
 20
631.193528974565
 30
0.0
 11
253.489778455519
 21
631.193528974565
 31
0.0
  0
LINE
  5
209
330
1F
100
AcDbEntity
  8
1
  6
DASH_CENTER
 62
     2
100
AcDbLine
 10
312.9897784555126
 20
667.693528974565
 30
0.0
 11
312.9897784555139
 21
613.693528974565
 31
0.0
  0
LINE
  5
20A
330
1F
100
AcDbEntity
  8
1
  6
Continuous
 62
     2
100
AcDbLine
 10
442.3049858607971
 20
651.1348800232236
 30
0.0
 11
449.664208523771
 21
651.1348800232236
 31
0.0
  0
LINE
  5
20B
330
1F
100
AcDbEntity
  8
1
  6
Continuous
 62
     2
100
AcDbLine
 10
442.3049858607971
 20
596.6092113568317
 30
0.0
 11
449.664208523771
 21
596.6092113568317
 31
0.0
  0
LINE
  5
20C
330
1F
100
AcDbEntity
  8
1
  6
DASH_CENTER
 62
     2
100
AcDbLine
 10
328.4897784555216
 20
776.0974688977902
 30
0.0
 11
236.4897784555147
 21
776.0974688977902
 31
0.0
  0
LINE
  5
20D
330
1F
100
AcDbEntity
  8
1
  6
DASH_CENTER
 62
     2
100
AcDbLine
 10
270.9897784555188
 20
810.5974688977947
 30
0.0
 11
270.9897784555188
 21
741.5974688977857
 31
0.0
  0
LINE
  5
20E
330
1F
100
AcDbEntity
  8
1
  6
DASH_CENTER
 62
     2
100
AcDbLine
 10
313.4897784555162
 20
770.0974688977991
 30
0.0
 11
313.4897784555162
 21
782.0974688977815
 31
0.0
  0
ARC
  5
20F
330
1F
100
AcDbEntity
  8
1
  6
Continuous
 62
     2
100
AcDbCircle
 10
429.0102215444811
 20
631.213972063527
 30
0.0
 40
17.99999999999992
100
AcDbArc
 50
311.8103148957788
 51
48.1896851042219
  0
SOLID
  5
210
330
1F
100
AcDbEntity
  8
1
 62
     2
100
AcDbTrace
 10
446.6439979422892
 20
626.765365401044
 30
0.0
 11
448.773069410566
 21
625.0016663574626
 31
0.0
 12
441.0102215444811
 22
617.7975641985283
 32
0.0
 13
441.0102215444811
 23
617.7975641985283
 33
0.0
  0
LEADER
  5
211
330
1F
100
AcDbEntity
  8
1
  6
Continuous
 62
     2
100
AcDbLeader
  3
Standard
 71
     0
 76
     2
 10
441.0102215444811
 20
617.7975641985283
 30
0.0
 10
442.0340690893369
 20
619.0335146309737
 30
0.0
  0
SOLID
  5
212
330
1F
100
AcDbEntity
  8
1
 62
     2
100
AcDbTrace
 10
448.3827756011396
 20
637.0273317509863
 30
0.0
 11
446.1637482443405
 21
635.3782419344093
 31
0.0
 12
441.0102215444811
 22
644.6303799285259
 32
0.0
 13
441.0102215444811
 23
644.6303799285259
 33
0.0
  0
LEADER
  5
213
330
1F
100
AcDbEntity
  8
1
  6
Continuous
 62
     2
100
AcDbLeader
  3
Standard
 71
     0
 76
     2
 10
441.0102215444811
 20
644.6303799285259
 30
0.0
 10
442.4315611529888
 20
642.7178149227416
 30
0.0
  0
SOLID
  5
214
330
1F
100
AcDbEntity
  8
1
 62
     2
100
AcDbTrace
 10
290.0166422661415
 20
188.5032015469516
 30
0.0
 11
288.2395257872387
 21
186.3853165987609
 31
0.0
 12
281.0846173739409
 22
194.1935289745649
 32
0.0
 13
281.0846173739409
 23
194.1935289745649
 33
0.0
  0
LEADER
  5
215
330
1F
100
AcDbEntity
  8
1
  6
Continuous
 62
     2
100
AcDbLeader
  3
Standard
 71
     0
 76
     3
 10
281.0846173739409
 20
194.1935289745649
 30
0.0
 10
325.8708972962951
 20
156.613378009915
 30
0.0
 10
359.0664598035722
 20
156.613378009915
 30
0.0
  0
SOLID
  5
216
330
1F
100
AcDbEntity
  8
1
 62
     2
100
AcDbTrace
 10
254.0426209959902
 20
672.5082901379818
 30
0.0
 11
256.4369235510197
 21
673.8906413626495
 31
0.0
 12
260.489772273505
 22
664.1061990105791
 32
0.0
 13
260.489772273505
 23
664.1061990105791
 33
0.0
  0
LEADER
  5
217
330
1F
100
AcDbEntity
  8
1
  6
Continuous
 62
     2
100
AcDbLeader
  3
Standard
 71
     0
 76
     3
 10
260.489772273505
 20
664.1061990105791
 30
0.0
 10
239.6547426044627
 20
700.193528974565
 30
0.0
 10
196.747367440081
 20
700.193528974565
 30
0.0
  0
CIRCLE
  5
218
102
{ACAD_REACTORS
330
219
102
}
330
1F
100
AcDbEntity
  8
1
 62
     2
100
AcDbCircle
 10
270.9897784555192
 20
631.193528974565
 30
0.0
 40
2.625
  0
HATCH
  5
219
330
1F
100
AcDbEntity
  8
1
 62
     2
100
AcDbHatch
 10
0.0
 20
0.0
 30
0.0
210
0.0
220
0.0
230
1.0
  2
SOLID
 70
     1
 71
     1
 91
        1
 92
        1
 93
        1
 72
     2
 10
270.9897784555192
 20
631.193528974565
 40
2.625
 50
0.0
 51
360.0
 73
     1
 97
        1
330
218
 75
     0
 76
     1
 98
        0
  0
LEADER
  5
21A
330
1F
100
AcDbEntity
  8
1
  6
Continuous
 62
     2
100
AcDbLeader
  3
Standard
 71
     0
 76
     3
 10
270.9897784555192
 20
631.193528974565
 30
0.0
 10
297.5478908382419
 20
585.1935289745651
 30
0.0
 10
307.300446089168
 20
585.1935289745651
 30
0.0
  0
MTEXT
  5
21B
330
1F
100
AcDbEntity
  8
0
 62
     7
100
AcDbMText
 10
445.7792038815692
 20
605.6092113568317
 30
0.0
 40
10.5
 41
0.0
 71
     5
 72
     1
  1
閉
  7
CONVERTER_11
 73
     1
 44
1.0
  0
MTEXT
  5
21D
330
1F
100
AcDbEntity
  8
1
 62
     7
100
AcDbMText
 10
343.4587029651445
 20
165.613378009915
 30
0.0
 40
10.5
 41
0.0
 71
     5
 72
     1
  1
R1/2
  7
CONVERTER_12
 73
     1
 44
0.7202881152461
  0
MTEXT
  5
21E
330
1F
100
AcDbEntity
  8
1
 62
     7
100
AcDbMText
 10
217.7010550222719
 20
709.193528974565
 30
0.0
 40
10.5
 41
0.0
 71
     5
 72
     1
  1
PJ1/2
  7
CONVERTER_12
 73
     1
 44
0.7202881152461
  0
MTEXT
  5
21F
330
1F
100
AcDbEntity
  8
0
 62
     7
100
AcDbMText
 10
445.7792038815692
 20
660.1348800232236
 30
0.0
 40
10.5
 41
0.0
 71
     5
 72
     1
  1
開
  7
CONVERTER_11
 73
     1
 44
1.0
  0
MTEXT
  5
220
330
1F
100
AcDbEntity
  8
1
 62
     7
100
AcDbMText
 10
171.0
 20
42.75000000000006
 30
0.0
 40
10.5
 41
0.0
 71
     5
 72
     1
  1
V2161-X2-13
  7
CONVERTER_12
 73
     1
 44
0.7202881152461
  0
MTEXT
  5
221
330
1F
100
AcDbEntity
  8
1
 62
     7
100
AcDbMText
 10
102.0
 20
115.125
 30
0.0
 40
10.5
 41
0.0
 71
     4
 72
     1
  1
JIS
  7
CONVERTER_12
 73
     1
 44
0.7202881152461
  0
MTEXT
  5
222
330
1F
100
AcDbEntity
  8
0
 62
     7
100
AcDbMText
 10
255.75
 20
51.00000000000006
 30
0.0
 40
10.5
 41
0.0
 71
     5
 72
     1
  1
1
  7
CONVERTER_12
 73
     1
 44
0.7202881152461
  0
MTEXT
  5
223
330
1F
100
AcDbEntity
  8
0
 62
     7
100
AcDbMText
 10
281.25
 20
51.0
 30
0.0
 40
10.5
 41
0.0
 71
     5
 72
     1
  1
3
  7
CONVERTER_12
 73
     1
 44
0.7202881152461
  0
MTEXT
  5
224
330
1F
100
AcDbEntity
  8
1
 62
     7
100
AcDbMText
 10
171.0
 20
68.25000000000006
 30
0.0
 40
10.5
 41
0.0
 71
     5
 72
     1
  1
ストレート形止水栓
  7
CONVERTER_11
 73
     1
 44
0.54545454545455
  0
MTEXT
  5
225
330
1F
100
AcDbEntity
  8
1
 62
     7
100
AcDbMText
 10
102.0
 20
102.0
 30
0.0
 40
10.5
 41
0.0
 71
     4
 72
     1
  1
共用形
  7
CONVERTER_11
 73
     1
 44
0.54545454545455
  0
MTEXT
  5
226
330
1F
100
AcDbEntity
  8
1
 62
     7
100
AcDbMText
 10
102.0
 20
88.87500000000003
 30
0.0
 40
10.5
 41
0.0
 71
     4
 72
     1
  1
へリューズナシ
  7
CONVERTER_11
 73
     1
 44
0.54545454545455
  0
DIMENSION
  5
231
330
1F
100
AcDbEntity
  8
1
100
AcDbDimension
  2
*D15
 10
210.9897784555189
 20
631.193528974565
 30
0.0
 11
202.7397784555189
 21
409.1935289745648
 31
0.0
 70
    32
  1
<>
 71
     5
 42
-1.0
 53
90.0
  3
ME10_DIM_10
100
AcDbAlignedDimension
 13
262.2449664533668
 23
187.1935289745648
 33
0.0
 14
253.489778455519
 24
631.193528974565
 34
0.0
 50
90.0
100
AcDbRotatedDimension
  0
DIMENSION
  5
23C
330
1F
100
AcDbEntity
  8
1
100
AcDbDimension
  2
*D16
 10
240.989778455519
 20
157.1935289745648
 30
0.0
 11
270.9897784555193
 21
165.4435289745648
 31
0.0
 70
    32
  1
60
 71
     5
 42
-1.0
 53
0.00013888888889
  3
ME10_DIM_11
100
AcDbAlignedDimension
 13
300.9897784555191
 23
207.1935289745647
 33
0.0
 14
240.989778455519
 24
207.1935289745648
 34
0.0
100
AcDbRotatedDimension
  0
DIMENSION
  5
249
330
1F
100
AcDbEntity
  8
1
100
AcDbDimension
  2
*D17
 10
330.9897784555191
 20
222.1935289745647
 30
0.0
 11
322.7397784555191
 21
214.6935289745647
 31
0.0
 70
    32
  1
<>
 71
     5
 42
-1.0
 53
90.0
  3
ME10_DIM_12
100
AcDbAlignedDimension
 13
300.9897784555191
 23
207.1935289745647
 33
0.0
 14
298.9897784555191
 24
222.1935289745647
 34
0.0
 50
90.0
100
AcDbRotatedDimension
  0
DIMENSION
  5
254
330
1F
100
AcDbEntity
  8
1
100
AcDbDimension
  2
*D18
 10
210.9897784555189
 20
670.193528974565
 30
0.0
 11
202.7397784555189
 21
650.693528974565
 31
0.0
 70
    32
  1
<>
 71
     5
 42
-1.0
 53
90.0
  3
ME10_DIM_13
100
AcDbAlignedDimension
 13
253.489778455519
 23
631.193528974565
 33
0.0
 14
261.651778455519
 24
670.193528974565
 34
0.0
 50
90.0
100
AcDbRotatedDimension
  0
DIMENSION
  5
261
330
1F
100
AcDbEntity
  8
1
100
AcDbDimension
  2
*D19
 10
406.5102215444812
 20
700.193528974565
 30
0.0
 11
421.0102215444811
 21
708.443528974565
 31
0.0
 70
    33
  1
29
 71
     5
 42
-1.0
 53
0.00013888888889
  3
ME10_DIM_14
100
AcDbAlignedDimension
 13
435.5102215444812
 23
658.193528974565
 33
0.0
 14
406.5102215444811
 24
658.193528974565
 34
0.0
  0
DIMENSION
  5
26E
330
1F
100
AcDbEntity
  8
1
100
AcDbDimension
  2
*D20
 10
280.8279258313745
 20
552.048984128566
 30
0.0
 11
331.455294946627
 21
560.298984128566
 31
0.0
 70
    33
  1
<>
 71
     5
 42
-1.0
 52
120.0
 53
0.00013888888889
  3
ME10_DIM_15
100
AcDbAlignedDimension
 13
285.4897784555186
 23
594.2038919456465
 33
0.0
 14
256.4897784555192
 24
594.2038919456465
 34
0.0
  0
DIMENSION
  5
279
330
1F
100
AcDbEntity
  8
1
100
AcDbDimension
  2
*D21
 10
270.9897784555189
 20
700.193528974565
 30
0.0
 11
297.2397784555169
 21
708.443528974565
 31
0.0
 70
    32
  1
53
 71
     5
 42
-1.0
 53
0.00013888888889
  3
ME10_DIM_16
100
AcDbAlignedDimension
 13
323.4897784555146
 23
644.793528974565
 33
0.0
 14
270.9897784555189
 24
679.193528974565
 34
0.0
100
AcDbRotatedDimension
  0
ENDSEC
  0
SECTION
  2
OBJECTS
  0
DICTIONARY
  5
C
330
0
100
AcDbDictionary
281
     1
  3
ACAD_GROUP
350
D
  3
ACAD_LAYOUT
350
1A
  3
ACAD_MATERIAL
350
3B
  3
ACAD_MLEADERSTYLE
350
27C
  3
ACAD_MLINESTYLE
350
17
  3
ACAD_PLOTSETTINGS
350
19
  3
ACAD_PLOTSTYLENAME
350
E
  3
ACAD_VISUALSTYLE
350
2A
  3
AcDbVariableDictionary
350
27A
  0
DICTIONARY
  5
D
102
{ACAD_REACTORS
330
C
102
}
330
C
100
AcDbDictionary
281
     1
  0
DICTIONARY
  5
1A
102
{ACAD_REACTORS
330
C
102
}
330
C
100
AcDbDictionary
281
     1
  3
Layout1
350
1E
  3
Layout2
350
26
  3
Model
350
22
  0
DICTIONARY
  5
3B
102
{ACAD_REACTORS
330
C
102
}
330
C
100
AcDbDictionary
281
     1
  3
ByBlock
350
3D
  3
ByLayer
350
3C
  3
Global
350
3E
  0
DICTIONARY
  5
27C
102
{ACAD_REACTORS
330
C
102
}
330
C
100
AcDbDictionary
281
     1
  0
DICTIONARY
  5
17
102
{ACAD_REACTORS
330
C
102
}
330
C
100
AcDbDictionary
281
     1
  3
Standard
350
18
  0
DICTIONARY
  5
19
102
{ACAD_REACTORS
330
C
102
}
330
C
100
AcDbDictionary
281
     1
  0
ACDBDICTIONARYWDFLT
  5
E
102
{ACAD_REACTORS
330
C
102
}
330
C
100
AcDbDictionary
281
     1
  3
Normal
350
F
100
AcDbDictionaryWithDefault
340
F
  0
DICTIONARY
  5
2A
102
{ACAD_REACTORS
330
C
102
}
330
C
100
AcDbDictionary
281
     1
  3
2dWireframe
350
2F
  3
3D Hidden
350
31
  3
3dWireframe
350
30
  3
Basic
350
32
  3
Brighten
350
36
  3
ColorChange
350
3A
  3
Conceptual
350
34
  3
Dim
350
35
  3
Facepattern
350
39
  3
Flat
350
2B
  3
FlatWithEdges
350
2C
  3
Gouraud
350
2D
  3
GouraudWithEdges
350
2E
  3
Linepattern
350
38
  3
Realistic
350
33
  3
Thicken
350
37
  0
DICTIONARY
  5
27A
102
{ACAD_REACTORS
330
C
102
}
330
C
100
AcDbDictionary
281
     1
  3
DIMASSOC
350
27D
  3
HIDETEXT
350
27E
  0
LAYOUT
  5
1E
102
{ACAD_REACTORS
330
1A
102
}
330
1A
100
AcDbPlotSettings
  1

  2
none_device
  4

  6

 40
0.0
 41
0.0
 42
0.0
 43
0.0
 44
0.0
 45
0.0
 46
0.0
 47
0.0
 48
0.0
 49
0.0
140
0.0
141
0.0
142
1.0
143
1.0
 70
   688
 72
     0
 73
     0
 74
     5
  7

 75
    16
147
1.0
148
0.0
149
0.0
100
AcDbLayout
  1
Layout1
 70
     1
 71
     1
 10
0.0
 20
0.0
 11
12.0
 21
9.0
 12
0.0
 22
0.0
 32
0.0
 14
1.00000000000000E+20
 24
1.00000000000000E+20
 34
1.00000000000000E+20
 15
-1.00000000000000E+20
 25
-1.00000000000000E+20
 35
-1.00000000000000E+20
146
0.0
 13
0.0
 23
0.0
 33
0.0
 16
1.0
 26
0.0
 36
0.0
 17
0.0
 27
1.0
 37
0.0
 76
     0
330
1B
  0
LAYOUT
  5
26
102
{ACAD_REACTORS
330
1A
102
}
330
1A
100
AcDbPlotSettings
  1

  2
none_device
  4

  6

 40
0.0
 41
0.0
 42
0.0
 43
0.0
 44
0.0
 45
0.0
 46
0.0
 47
0.0
 48
0.0
 49
0.0
140
0.0
141
0.0
142
1.0
143
1.0
 70
   688
 72
     0
 73
     0
 74
     5
  7

 75
    16
147
1.0
148
0.0
149
0.0
100
AcDbLayout
  1
Layout2
 70
     1
 71
     2
 10
0.0
 20
0.0
 11
0.0
 21
0.0
 12
0.0
 22
0.0
 32
0.0
 14
0.0
 24
0.0
 34
0.0
 15
0.0
 25
0.0
 35
0.0
146
0.0
 13
0.0
 23
0.0
 33
0.0
 16
1.0
 26
0.0
 36
0.0
 17
0.0
 27
1.0
 37
0.0
 76
     0
330
23
  0
LAYOUT
  5
22
102
{ACAD_REACTORS
330
1A
102
}
330
1A
100
AcDbPlotSettings
  1

  2
none_device
  4

  6

 40
0.0
 41
0.0
 42
0.0
 43
0.0
 44
0.0
 45
0.0
 46
0.0
 47
0.0
 48
0.0
 49
0.0
140
0.0
141
0.0
142
1.0
143
1.0
 70
  1712
 72
     0
 73
     0
 74
     0
  7

 75
     0
147
1.0
148
0.0
149
0.0
100
AcDbLayout
  1
Model
 70
     1
 71
     0
 10
0.0
 20
0.0
 11
12.0
 21
9.0
 12
0.0
 22
0.0
 32
0.0
 14
0.0
 24
0.0
 34
0.0
 15
630.0
 25
891.0
 35
0.0
146
0.0
 13
0.0
 23
0.0
 33
0.0
 16
1.0
 26
0.0
 36
0.0
 17
0.0
 27
1.0
 37
0.0
 76
     0
330
1F
331
29
  0
MATERIAL
  5
3D
102
{ACAD_REACTORS
330
3B
102
}
102
{ACAD_XDICTIONARY
360
2A1
102
}
330
3B
100
AcDbMaterial
  1
ByBlock
  0
MATERIAL
  5
3C
102
{ACAD_REACTORS
330
3B
102
}
102
{ACAD_XDICTIONARY
360
29F
102
}
330
3B
100
AcDbMaterial
  1
ByLayer
  0
MATERIAL
  5
3E
102
{ACAD_REACTORS
330
3B
102
}
102
{ACAD_XDICTIONARY
360
2A3
102
}
330
3B
100
AcDbMaterial
  1
Global
  0
MLINESTYLE
  5
18
102
{ACAD_REACTORS
330
17
102
}
330
17
100
AcDbMlineStyle
  2
Standard
 70
     0
  3

 62
   256
 51
90.0
 52
90.0
 71
     2
 49
0.5
 62
   256
  6
BYLAYER
 49
-0.5
 62
   256
  6
BYLAYER
  0
ACDBPLACEHOLDER
  5
F
102
{ACAD_REACTORS
330
E
102
}
330
E
  0
VISUALSTYLE
  5
2F
102
{ACAD_REACTORS
330
2A
102
}
102
{ACAD_XDICTIONARY
360
287
102
}
330
2A
100
AcDbVisualStyle
  2
2dWireframe
 70
     4
 71
     0
 72
     2
 73
     0
 90
        0
 40
-0.6
 41
-30.0
 62
     5
 63
     7
 74
     1
 91
        4
 64
     7
 65
   257
 75
     1
175
     1
 42
1.0
 92
        0
 66
   257
 43
1.0
 76
     1
 77
     6
 78
     2
 67
     7
 79
     5
170
     0
171
     0
290
     0
174
     0
 93
        1
 44
0.0
173
     0
291
     0
 45
0.0
1001
ACAD
1000
AcDbSavedByObjectVersion
1070
     0
  0
VISUALSTYLE
  5
31
102
{ACAD_REACTORS
330
2A
102
}
102
{ACAD_XDICTIONARY
360
28B
102
}
330
2A
100
AcDbVisualStyle
  2
3D Hidden
 70
     6
 71
     1
 72
     2
 73
     2
 90
        0
 40
-0.6
 41
-30.0
 62
     5
 63
     7
 74
     2
 91
        2
 64
     7
 65
   257
 75
     2
175
     1
 42
40.0
 92
        0
 66
   257
 43
1.0
 76
     1
 77
     6
 78
     2
 67
     7
 79
     3
170
     0
171
     0
290
     0
174
     0
 93
        1
 44
0.0
173
     0
291
     0
 45
0.0
1001
ACAD
1000
AcDbSavedByObjectVersion
1070
     0
  0
VISUALSTYLE
  5
30
102
{ACAD_REACTORS
330
2A
102
}
102
{ACAD_XDICTIONARY
360
289
102
}
330
2A
100
AcDbVisualStyle
  2
3dWireframe
 70
     5
 71
     0
 72
     2
 73
     0
 90
        0
 40
-0.6
 41
-30.0
 62
     5
 63
     7
 74
     1
 91
        4
 64
     7
 65
   257
 75
     1
175
     1
 42
1.0
 92
        0
 66
   257
 43
1.0
 76
     1
 77
     6
 78
     2
 67
     7
 79
     5
170
     0
171
     0
290
     0
174
     0
 93
        1
 44
0.0
173
     0
291
     0
 45
0.0
1001
ACAD
1000
AcDbSavedByObjectVersion
1070
     0
  0
VISUALSTYLE
  5
32
102
{ACAD_REACTORS
330
2A
102
}
102
{ACAD_XDICTIONARY
360
28D
102
}
330
2A
100
AcDbVisualStyle
  2
Basic
 70
     7
 71
     1
 72
     0
 73
     1
 90
        0
 40
-0.6
 41
-30.0
 62
     5
 63
     7
 74
     0
 91
        4
 64
     7
 65
   257
 75
     1
175
     1
 42
1.0
 92
        8
 66
     7
 43
1.0
 76
     1
 77
     6
 78
     2
 67
     7
 79
     5
170
     0
171
     0
290
     0
174
     0
 93
        1
 44
0.0
173
     0
291
     1
 45
0.0
1001
ACAD
1000
AcDbSavedByObjectVersion
1070
     0
  0
VISUALSTYLE
  5
36
102
{ACAD_REACTORS
330
2A
102
}
102
{ACAD_XDICTIONARY
360
295
102
}
330
2A
100
AcDbVisualStyle
  2
Brighten
 70
    12
 71
     2
 72
     2
 73
     0
 90
        0
 40
-0.6
 41
-30.0
 62
     5
 63
     7
 74
     1
 91
        4
 64
     7
 65
   257
 75
     1
175
     1
 42
1.0
 92
        8
 66
     7
 43
1.0
 76
     1
 77
     6
 78
     2
 67
     7
 79
     5
170
     0
171
     0
290
     0
174
     0
 93
        1
 44
50.0
173
     0
291
     1
 45
0.0
1001
ACAD
1000
AcDbSavedByObjectVersion
1070
     0
  0
VISUALSTYLE
  5
3A
102
{ACAD_REACTORS
330
2A
102
}
102
{ACAD_XDICTIONARY
360
29D
102
}
330
2A
100
AcDbVisualStyle
  2
ColorChange
 70
    16
 71
     2
 72
     2
 73
     3
 90
        0
 40
-0.6
 41
-30.0
 62
     5
 63
     8
 74
     1
 91
        4
 64
     7
 65
   257
 75
     1
175
     1
 42
1.0
 92
        8
 66
     8
 43
1.0
 76
     1
 77
     6
 78
     2
 67
     7
 79
     5
170
     0
171
     0
290
     0
174
     0
 93
        1
 44
0.0
173
     0
291
     1
 45
0.0
1001
ACAD
1000
AcDbSavedByObjectVersion
1070
     0
  0
VISUALSTYLE
  5
34
102
{ACAD_REACTORS
330
2A
102
}
102
{ACAD_XDICTIONARY
360
291
102
}
330
2A
100
AcDbVisualStyle
  2
Conceptual
 70
     9
 71
     3
 72
     2
 73
     0
 90
        0
 40
-0.6
 41
-30.0
 62
     5
 63
     7
 74
     2
 91
        2
 64
     7
 65
   257
 75
     1
175
     1
 42
40.0
 92
        8
 66
     7
 43
1.0
 76
     1
 77
     6
 78
     2
 67
     7
 79
     3
170
     0
171
     0
290
     0
174
     0
 93
        1
 44
0.0
173
     0
291
     0
 45
0.0
1001
ACAD
1000
AcDbSavedByObjectVersion
1070
     0
  0
VISUALSTYLE
  5
35
102
{ACAD_REACTORS
330
2A
102
}
102
{ACAD_XDICTIONARY
360
293
102
}
330
2A
100
AcDbVisualStyle
  2
Dim
 70
    11
 71
     2
 72
     2
 73
     0
 90
        0
 40
-0.6
 41
-30.0
 62
     5
 63
     7
 74
     1
 91
        4
 64
     7
 65
   257
 75
     1
175
     1
 42
1.0
 92
        8
 66
     7
 43
1.0
 76
     1
 77
     6
 78
     2
 67
     7
 79
     5
170
     0
171
     0
290
     0
174
     0
 93
        1
 44
-50.0
173
     0
291
     1
 45
0.0
1001
ACAD
1000
AcDbSavedByObjectVersion
1070
     0
  0
VISUALSTYLE
  5
39
102
{ACAD_REACTORS
330
2A
102
}
102
{ACAD_XDICTIONARY
360
29B
102
}
330
2A
100
AcDbVisualStyle
  2
Facepattern
 70
    15
 71
     2
 72
     2
 73
     0
 90
        0
 40
-0.6
 41
-30.0
 62
     5
 63
     7
 74
     1
 91
        4
 64
     7
 65
   257
 75
     1
175
     1
 42
1.0
 92
        8
 66
     7
 43
1.0
 76
     1
 77
     6
 78
     2
 67
     7
 79
     5
170
     0
171
     0
290
     0
174
     0
 93
        1
 44
0.0
173
     0
291
     1
 45
0.0
1001
ACAD
1000
AcDbSavedByObjectVersion
1070
     0
  0
VISUALSTYLE
  5
2B
102
{ACAD_REACTORS
330
2A
102
}
102
{ACAD_XDICTIONARY
360
27F
102
}
330
2A
100
AcDbVisualStyle
  2
Flat
 70
     0
 71
     2
 72
     1
 73
     1
 90
        2
 40
-0.6
 41
30.0
 62
     5
 63
     7
 74
     0
 91
        4
 64
     7
 65
   257
 75
     1
175
     1
 42
1.0
 92
        8
 66
     7
 43
1.0
 76
     1
 77
     6
 78
     2
 67
     7
 79
     5
170
     0
171
     0
290
     0
174
     0
 93
       13
 44
0.0
173
     0
291
     1
 45
0.0
1001
ACAD
1000
AcDbSavedByObjectVersion
1070
     0
  0
VISUALSTYLE
  5
2C
102
{ACAD_REACTORS
330
2A
102
}
102
{ACAD_XDICTIONARY
360
281
102
}
330
2A
100
AcDbVisualStyle
  2
FlatWithEdges
 70
     1
 71
     2
 72
     1
 73
     1
 90
        2
 40
-0.6
 41
30.0
 62
     5
 63
     7
 74
     1
 91
        4
 64
     7
 65
   257
 75
     1
175
     1
 42
1.0
 92
        0
 66
   257
 43
1.0
 76
     1
 77
     6
 78
     2
 67
     7
 79
     5
170
     0
171
     0
290
     0
174
     0
 93
       13
 44
0.0
173
     0
291
     1
 45
0.0
1001
ACAD
1000
AcDbSavedByObjectVersion
1070
     0
  0
VISUALSTYLE
  5
2D
102
{ACAD_REACTORS
330
2A
102
}
102
{ACAD_XDICTIONARY
360
283
102
}
330
2A
100
AcDbVisualStyle
  2
Gouraud
 70
     2
 71
     2
 72
     2
 73
     1
 90
        2
 40
-0.6
 41
30.0
 62
     5
 63
     7
 74
     0
 91
        4
 64
     7
 65
   257
 75
     1
175
     1
 42
1.0
 92
        0
 66
     7
 43
1.0
 76
     1
 77
     6
 78
     2
 67
     7
 79
     5
170
     0
171
     0
290
     0
174
     0
 93
       13
 44
0.0
173
     0
291
     1
 45
0.0
1001
ACAD
1000
AcDbSavedByObjectVersion
1070
     0
  0
VISUALSTYLE
  5
2E
102
{ACAD_REACTORS
330
2A
102
}
102
{ACAD_XDICTIONARY
360
285
102
}
330
2A
100
AcDbVisualStyle
  2
GouraudWithEdges
 70
     3
 71
     2
 72
     2
 73
     1
 90
        2
 40
-0.6
 41
30.0
 62
     5
 63
     7
 74
     1
 91
        4
 64
     7
 65
   257
 75
     1
175
     1
 42
1.0
 92
        0
 66
   257
 43
1.0
 76
     1
 77
     6
 78
     2
 67
     7
 79
     5
170
     0
171
     0
290
     0
174
     0
 93
       13
 44
0.0
173
     0
291
     1
 45
0.0
1001
ACAD
1000
AcDbSavedByObjectVersion
1070
     0
  0
VISUALSTYLE
  5
38
102
{ACAD_REACTORS
330
2A
102
}
102
{ACAD_XDICTIONARY
360
299
102
}
330
2A
100
AcDbVisualStyle
  2
Linepattern
 70
    14
 71
     2
 72
     2
 73
     0
 90
        0
 40
-0.6
 41
-30.0
 62
     5
 63
     7
 74
     1
 91
        4
 64
     7
 65
   257
 75
     7
175
     7
 42
1.0
 92
        8
 66
     7
 43
1.0
 76
     1
 77
     6
 78
     2
 67
     7
 79
     5
170
     0
171
     0
290
     0
174
     0
 93
        1
 44
0.0
173
     0
291
     1
 45
0.0
1001
ACAD
1000
AcDbSavedByObjectVersion
1070
     0
  0
VISUALSTYLE
  5
33
102
{ACAD_REACTORS
330
2A
102
}
102
{ACAD_XDICTIONARY
360
28F
102
}
330
2A
100
AcDbVisualStyle
  2
Realistic
 70
     8
 71
     2
 72
     2
 73
     0
 90
        0
 40
-0.6
 41
-30.0
 62
     5
 63
     7
 74
     1
 91
        0
 64
     7
 65
   257
 75
     1
175
     1
 42
1.0
 92
        8
 66
     8
 43
1.0
 76
     1
 77
     6
 78
     2
 67
     7
 79
     5
170
     0
171
     0
290
     0
174
     0
 93
       13
 44
0.0
173
     0
291
     0
 45
0.0
1001
ACAD
1000
AcDbSavedByObjectVersion
1070
     0
  0
VISUALSTYLE
  5
37
102
{ACAD_REACTORS
330
2A
102
}
102
{ACAD_XDICTIONARY
360
297
102
}
330
2A
100
AcDbVisualStyle
  2
Thicken
 70
    13
 71
     2
 72
     2
 73
     0
 90
        0
 40
-0.6
 41
-30.0
 62
     5
 63
     7
 74
     1
 91
        4
 64
     7
 65
   257
 75
     1
175
     1
 42
1.0
 92
       12
 66
     7
 43
1.0
 76
     1
 77
     6
 78
     2
 67
     7
 79
     5
170
     0
171
     0
290
     0
174
     0
 93
        1
 44
0.0
173
     0
291
     1
 45
0.0
1001
ACAD
1000
AcDbSavedByObjectVersion
1070
     0
  0
DICTIONARYVAR
  5
27D
102
{ACAD_REACTORS
330
27A
102
}
330
27A
100
DictionaryVariables
280
     0
  1
2
  0
DICTIONARYVAR
  5
27E
102
{ACAD_REACTORS
330
27A
102
}
330
27A
100
DictionaryVariables
280
     0
  1
1
  0
DICTIONARY
  5
2A1
330
3D
100
AcDbDictionary
280
     1
281
     1
  3
ACAD_XREC_ROUNDTRIP
360
2A2
  0
DICTIONARY
  5
29F
330
3C
100
AcDbDictionary
280
     1
281
     1
  3
ACAD_XREC_ROUNDTRIP
360
2A0
  0
DICTIONARY
  5
2A3
330
3E
100
AcDbDictionary
280
     1
281
     1
  3
ACAD_XREC_ROUNDTRIP
360
2A4
  0
DICTIONARY
  5
287
330
2F
100
AcDbDictionary
280
     1
281
     1
  3
ACAD_XREC_ROUNDTRIP
360
288
  0
DICTIONARY
  5
28B
330
31
100
AcDbDictionary
280
     1
281
     1
  3
ACAD_XREC_ROUNDTRIP
360
28C
  0
DICTIONARY
  5
289
330
30
100
AcDbDictionary
280
     1
281
     1
  3
ACAD_XREC_ROUNDTRIP
360
28A
  0
DICTIONARY
  5
28D
330
32
100
AcDbDictionary
280
     1
281
     1
  3
ACAD_XREC_ROUNDTRIP
360
28E
  0
DICTIONARY
  5
295
330
36
100
AcDbDictionary
280
     1
281
     1
  3
ACAD_XREC_ROUNDTRIP
360
296
  0
DICTIONARY
  5
29D
330
3A
100
AcDbDictionary
280
     1
281
     1
  3
ACAD_XREC_ROUNDTRIP
360
29E
  0
DICTIONARY
  5
291
330
34
100
AcDbDictionary
280
     1
281
     1
  3
ACAD_XREC_ROUNDTRIP
360
292
  0
DICTIONARY
  5
293
330
35
100
AcDbDictionary
280
     1
281
     1
  3
ACAD_XREC_ROUNDTRIP
360
294
  0
DICTIONARY
  5
29B
330
39
100
AcDbDictionary
280
     1
281
     1
  3
ACAD_XREC_ROUNDTRIP
360
29C
  0
DICTIONARY
  5
27F
330
2B
100
AcDbDictionary
280
     1
281
     1
  3
ACAD_XREC_ROUNDTRIP
360
280
  0
DICTIONARY
  5
281
330
2C
100
AcDbDictionary
280
     1
281
     1
  3
ACAD_XREC_ROUNDTRIP
360
282
  0
DICTIONARY
  5
283
330
2D
100
AcDbDictionary
280
     1
281
     1
  3
ACAD_XREC_ROUNDTRIP
360
284
  0
DICTIONARY
  5
285
330
2E
100
AcDbDictionary
280
     1
281
     1
  3
ACAD_XREC_ROUNDTRIP
360
286
  0
DICTIONARY
  5
299
330
38
100
AcDbDictionary
280
     1
281
     1
  3
ACAD_XREC_ROUNDTRIP
360
29A
  0
DICTIONARY
  5
28F
330
33
100
AcDbDictionary
280
     1
281
     1
  3
ACAD_XREC_ROUNDTRIP
360
290
  0
DICTIONARY
  5
297
330
37
100
AcDbDictionary
280
     1
281
     1
  3
ACAD_XREC_ROUNDTRIP
360
298
  0
XRECORD
  5
2A2
102
{ACAD_REACTORS
330
2A1
102
}
330
2A1
100
AcDbXrecord
280
     1
102
MATERIAL
148
0.0
149
0.0
149
0.0
 93
        0
 94
      127
282
     0
 72
     1
 77
     1
171
     1
175
     1
179
     1
273
     0
  0
XRECORD
  5
2A0
102
{ACAD_REACTORS
330
29F
102
}
330
29F
100
AcDbXrecord
280
     1
102
MATERIAL
148
0.0
149
0.0
149
0.0
 93
        0
 94
      127
282
     0
 72
     1
 77
     1
171
     1
175
     1
179
     1
273
     0
  0
XRECORD
  5
2A4
102
{ACAD_REACTORS
330
2A3
102
}
330
2A3
100
AcDbXrecord
280
     1
102
MATERIAL
148
0.0
149
0.0
149
0.0
 93
        0
 94
      127
282
     0
 72
     1
 77
     1
171
     1
175
     1
179
     1
273
     0
  0
XRECORD
  5
288
102
{ACAD_REACTORS
330
287
102
}
330
287
100
AcDbXrecord
280
     1
102
RTVSPropertyOp0
 70
     1
102
RTVSPropertyOp1
 70
     1
102
RTVSPropertyOp2
 70
     1
102
RTVSPropertyOp3
 70
     1
102
RTVSPropertyOp4
 70
     1
102
RTVSPropertyOp5
 70
     1
102
RTVSPropertyOp6
 70
     1
102
RTVSPropertyOp7
 70
     1
102
RTVSPropertyOp8
 70
     1
102
RTVSPropertyOp9
 70
     1
102
RTVSPropertyOp10
 70
     1
102
RTVSPropertyOp11
 70
     1
102
RTVSPropertyOp12
 70
     1
102
RTVSPropertyOp13
 70
     1
102
RTVSPropertyOp14
 70
     1
102
RTVSPropertyOp15
 70
     1
102
RTVSPropertyOp16
 70
     1
102
RTVSPropertyOp17
 70
     1
102
RTVSPropertyOp18
 70
     1
102
RTVSPropertyOp19
 70
     1
102
RTVSPropertyOp20
 70
     1
102
RTVSPropertyOp21
 70
     1
102
RTVSPropertyOp22
 70
     1
102
RTVSPropertyOp23
 70
     1
102
RTVSPropertyOp24
 70
     1
102
RTVSPropertyOp25
 70
     1
102
RTVSPropertyOp26
 70
     1
102
RTVSPropertyOp27
 70
     1
102
RTVSPropertyOp28
 70
     1
102
RTVSPropertyOp29
 70
     1
102
RTVSPropertyOp30
 70
     1
102
RTVSPropertyOp31
 70
     1
102
RTVSPropertyOp32
 70
     1
  0
XRECORD
  5
28C
102
{ACAD_REACTORS
330
28B
102
}
330
28B
100
AcDbXrecord
280
     1
102
RTVSPropertyOp0
 70
     1
102
RTVSPropertyOp1
 70
     1
102
RTVSPropertyOp2
 70
     1
102
RTVSPropertyOp3
 70
     1
102
RTVSPropertyOp4
 70
     1
102
RTVSPropertyOp5
 70
     1
102
RTVSPropertyOp6
 70
     1
102
RTVSPropertyOp7
 70
     1
102
RTVSPropertyOp8
 70
     1
102
RTVSPropertyOp9
 70
     1
102
RTVSPropertyOp10
 70
     1
102
RTVSPropertyOp11
 70
     1
102
RTVSPropertyOp12
 70
     1
102
RTVSPropertyOp13
 70
     1
102
RTVSPropertyOp14
 70
     1
102
RTVSPropertyOp15
 70
     1
102
RTVSPropertyOp16
 70
     1
102
RTVSPropertyOp17
 70
     1
102
RTVSPropertyOp18
 70
     1
102
RTVSPropertyOp19
 70
     1
102
RTVSPropertyOp20
 70
     1
102
RTVSPropertyOp21
 70
     1
102
RTVSPropertyOp22
 70
     1
102
RTVSPropertyOp23
 70
     1
102
RTVSPropertyOp24
 70
     1
102
RTVSPropertyOp25
 70
     1
102
RTVSPropertyOp26
 70
     1
102
RTVSPropertyOp27
 70
     1
102
RTVSPropertyOp28
 70
     1
102
RTVSPropertyOp29
 70
     1
102
RTVSPropertyOp30
 70
     1
102
RTVSPropertyOp31
 70
     1
102
RTVSPropertyOp32
 70
     1
  0
XRECORD
  5
28A
102
{ACAD_REACTORS
330
289
102
}
330
289
100
AcDbXrecord
280
     1
102
RTVSPropertyOp0
 70
     1
102
RTVSPropertyOp1
 70
     1
102
RTVSPropertyOp2
 70
     1
102
RTVSPropertyOp3
 70
     1
102
RTVSPropertyOp4
 70
     1
102
RTVSPropertyOp5
 70
     1
102
RTVSPropertyOp6
 70
     1
102
RTVSPropertyOp7
 70
     1
102
RTVSPropertyOp8
 70
     1
102
RTVSPropertyOp9
 70
     1
102
RTVSPropertyOp10
 70
     1
102
RTVSPropertyOp11
 70
     1
102
RTVSPropertyOp12
 70
     1
102
RTVSPropertyOp13
 70
     1
102
RTVSPropertyOp14
 70
     1
102
RTVSPropertyOp15
 70
     1
102
RTVSPropertyOp16
 70
     1
102
RTVSPropertyOp17
 70
     1
102
RTVSPropertyOp18
 70
     1
102
RTVSPropertyOp19
 70
     1
102
RTVSPropertyOp20
 70
     1
102
RTVSPropertyOp21
 70
     1
102
RTVSPropertyOp22
 70
     1
102
RTVSPropertyOp23
 70
     1
102
RTVSPropertyOp24
 70
     1
102
RTVSPropertyOp25
 70
     1
102
RTVSPropertyOp26
 70
     1
102
RTVSPropertyOp27
 70
     1
102
RTVSPropertyOp28
 70
     1
102
RTVSPropertyOp29
 70
     1
102
RTVSPropertyOp30
 70
     1
102
RTVSPropertyOp31
 70
     1
102
RTVSPropertyOp32
 70
     1
  0
XRECORD
  5
28E
102
{ACAD_REACTORS
330
28D
102
}
330
28D
100
AcDbXrecord
280
     1
102
RTVSPropertyOp0
 70
     1
102
RTVSPropertyOp1
 70
     1
102
RTVSPropertyOp2
 70
     1
102
RTVSPropertyOp3
 70
     1
102
RTVSPropertyOp4
 70
     1
102
RTVSPropertyOp5
 70
     1
102
RTVSPropertyOp6
 70
     1
102
RTVSPropertyOp7
 70
     1
102
RTVSPropertyOp8
 70
     1
102
RTVSPropertyOp9
 70
     1
102
RTVSPropertyOp10
 70
     1
102
RTVSPropertyOp11
 70
     1
102
RTVSPropertyOp12
 70
     1
102
RTVSPropertyOp13
 70
     1
102
RTVSPropertyOp14
 70
     1
102
RTVSPropertyOp15
 70
     1
102
RTVSPropertyOp16
 70
     1
102
RTVSPropertyOp17
 70
     1
102
RTVSPropertyOp18
 70
     1
102
RTVSPropertyOp19
 70
     1
102
RTVSPropertyOp20
 70
     1
102
RTVSPropertyOp21
 70
     1
102
RTVSPropertyOp22
 70
     1
102
RTVSPropertyOp23
 70
     1
102
RTVSPropertyOp24
 70
     1
102
RTVSPropertyOp25
 70
     1
102
RTVSPropertyOp26
 70
     1
102
RTVSPropertyOp27
 70
     1
102
RTVSPropertyOp28
 70
     1
102
RTVSPropertyOp29
 70
     1
102
RTVSPropertyOp30
 70
     1
102
RTVSPropertyOp31
 70
     1
102
RTVSPropertyOp32
 70
     1
  0
XRECORD
  5
296
102
{ACAD_REACTORS
330
295
102
}
330
295
100
AcDbXrecord
280
     1
102
RTVSPropertyOp0
 70
     1
102
RTVSPropertyOp1
 70
     1
102
RTVSPropertyOp2
 70
     1
102
RTVSPropertyOp3
 70
     1
102
RTVSPropertyOp4
 70
     1
102
RTVSPropertyOp5
 70
     1
102
RTVSPropertyOp6
 70
     1
102
RTVSPropertyOp7
 70
     1
102
RTVSPropertyOp8
 70
     1
102
RTVSPropertyOp9
 70
     1
102
RTVSPropertyOp10
 70
     1
102
RTVSPropertyOp11
 70
     1
102
RTVSPropertyOp12
 70
     1
102
RTVSPropertyOp13
 70
     1
102
RTVSPropertyOp14
 70
     1
102
RTVSPropertyOp15
 70
     1
102
RTVSPropertyOp16
 70
     1
102
RTVSPropertyOp17
 70
     1
102
RTVSPropertyOp18
 70
     1
102
RTVSPropertyOp19
 70
     1
102
RTVSPropertyOp20
 70
     1
102
RTVSPropertyOp21
 70
     1
102
RTVSPropertyOp22
 70
     1
102
RTVSPropertyOp23
 70
     1
102
RTVSPropertyOp24
 70
     1
102
RTVSPropertyOp25
 70
     1
102
RTVSPropertyOp26
 70
     1
102
RTVSPropertyOp27
 70
     1
102
RTVSPropertyOp28
 70
     1
102
RTVSPropertyOp29
 70
     1
102
RTVSPropertyOp30
 70
     1
102
RTVSPropertyOp31
 70
     1
102
RTVSPropertyOp32
 70
     1
  0
XRECORD
  5
29E
102
{ACAD_REACTORS
330
29D
102
}
330
29D
100
AcDbXrecord
280
     1
102
RTVSPropertyOp0
 70
     1
102
RTVSPropertyOp1
 70
     1
102
RTVSPropertyOp2
 70
     1
102
RTVSPropertyOp3
 70
     1
102
RTVSPropertyOp4
 70
     1
102
RTVSPropertyOp5
 70
     1
102
RTVSPropertyOp6
 70
     1
102
RTVSPropertyOp7
 70
     1
102
RTVSPropertyOp8
 70
     1
102
RTVSPropertyOp9
 70
     1
102
RTVSPropertyOp10
 70
     1
102
RTVSPropertyOp11
 70
     1
102
RTVSPropertyOp12
 70
     1
102
RTVSPropertyOp13
 70
     1
102
RTVSPropertyOp14
 70
     1
102
RTVSPropertyOp15
 70
     1
102
RTVSPropertyOp16
 70
     1
102
RTVSPropertyOp17
 70
     1
102
RTVSPropertyOp18
 70
     1
102
RTVSPropertyOp19
 70
     1
102
RTVSPropertyOp20
 70
     1
102
RTVSPropertyOp21
 70
     1
102
RTVSPropertyOp22
 70
     1
102
RTVSPropertyOp23
 70
     1
102
RTVSPropertyOp24
 70
     1
102
RTVSPropertyOp25
 70
     1
102
RTVSPropertyOp26
 70
     1
102
RTVSPropertyOp27
 70
     1
102
RTVSPropertyOp28
 70
     1
102
RTVSPropertyOp29
 70
     1
102
RTVSPropertyOp30
 70
     1
102
RTVSPropertyOp31
 70
     1
102
RTVSPropertyOp32
 70
     1
  0
XRECORD
  5
292
102
{ACAD_REACTORS
330
291
102
}
330
291
100
AcDbXrecord
280
     1
102
RTVSPropertyOp0
 70
     1
102
RTVSPropertyOp1
 70
     1
102
RTVSPropertyOp2
 70
     1
102
RTVSPropertyOp3
 70
     1
102
RTVSPropertyOp4
 70
     1
102
RTVSPropertyOp5
 70
     1
102
RTVSPropertyOp6
 70
     1
102
RTVSPropertyOp7
 70
     1
102
RTVSPropertyOp8
 70
     1
102
RTVSPropertyOp9
 70
     1
102
RTVSPropertyOp10
 70
     1
102
RTVSPropertyOp11
 70
     1
102
RTVSPropertyOp12
 70
     1
102
RTVSPropertyOp13
 70
     1
102
RTVSPropertyOp14
 70
     1
102
RTVSPropertyOp15
 70
     1
102
RTVSPropertyOp16
 70
     1
102
RTVSPropertyOp17
 70
     1
102
RTVSPropertyOp18
 70
     1
102
RTVSPropertyOp19
 70
     1
102
RTVSPropertyOp20
 70
     1
102
RTVSPropertyOp21
 70
     1
102
RTVSPropertyOp22
 70
     1
102
RTVSPropertyOp23
 70
     1
102
RTVSPropertyOp24
 70
     1
102
RTVSPropertyOp25
 70
     1
102
RTVSPropertyOp26
 70
     1
102
RTVSPropertyOp27
 70
     1
102
RTVSPropertyOp28
 70
     1
102
RTVSPropertyOp29
 70
     1
102
RTVSPropertyOp30
 70
     1
102
RTVSPropertyOp31
 70
     1
102
RTVSPropertyOp32
 70
     1
  0
XRECORD
  5
294
102
{ACAD_REACTORS
330
293
102
}
330
293
100
AcDbXrecord
280
     1
102
RTVSPropertyOp0
 70
     1
102
RTVSPropertyOp1
 70
     1
102
RTVSPropertyOp2
 70
     1
102
RTVSPropertyOp3
 70
     1
102
RTVSPropertyOp4
 70
     1
102
RTVSPropertyOp5
 70
     1
102
RTVSPropertyOp6
 70
     1
102
RTVSPropertyOp7
 70
     1
102
RTVSPropertyOp8
 70
     1
102
RTVSPropertyOp9
 70
     1
102
RTVSPropertyOp10
 70
     1
102
RTVSPropertyOp11
 70
     1
102
RTVSPropertyOp12
 70
     1
102
RTVSPropertyOp13
 70
     1
102
RTVSPropertyOp14
 70
     1
102
RTVSPropertyOp15
 70
     1
102
RTVSPropertyOp16
 70
     1
102
RTVSPropertyOp17
 70
     1
102
RTVSPropertyOp18
 70
     1
102
RTVSPropertyOp19
 70
     1
102
RTVSPropertyOp20
 70
     1
102
RTVSPropertyOp21
 70
     1
102
RTVSPropertyOp22
 70
     1
102
RTVSPropertyOp23
 70
     1
102
RTVSPropertyOp24
 70
     1
102
RTVSPropertyOp25
 70
     1
102
RTVSPropertyOp26
 70
     1
102
RTVSPropertyOp27
 70
     1
102
RTVSPropertyOp28
 70
     1
102
RTVSPropertyOp29
 70
     1
102
RTVSPropertyOp30
 70
     1
102
RTVSPropertyOp31
 70
     1
102
RTVSPropertyOp32
 70
     1
  0
XRECORD
  5
29C
102
{ACAD_REACTORS
330
29B
102
}
330
29B
100
AcDbXrecord
280
     1
102
RTVSPropertyOp0
 70
     1
102
RTVSPropertyOp1
 70
     1
102
RTVSPropertyOp2
 70
     1
102
RTVSPropertyOp3
 70
     1
102
RTVSPropertyOp4
 70
     1
102
RTVSPropertyOp5
 70
     1
102
RTVSPropertyOp6
 70
     1
102
RTVSPropertyOp7
 70
     1
102
RTVSPropertyOp8
 70
     1
102
RTVSPropertyOp9
 70
     1
102
RTVSPropertyOp10
 70
     1
102
RTVSPropertyOp11
 70
     1
102
RTVSPropertyOp12
 70
     1
102
RTVSPropertyOp13
 70
     1
102
RTVSPropertyOp14
 70
     1
102
RTVSPropertyOp15
 70
     1
102
RTVSPropertyOp16
 70
     1
102
RTVSPropertyOp17
 70
     1
102
RTVSPropertyOp18
 70
     1
102
RTVSPropertyOp19
 70
     1
102
RTVSPropertyOp20
 70
     1
102
RTVSPropertyOp21
 70
     1
102
RTVSPropertyOp22
 70
     1
102
RTVSPropertyOp23
 70
     1
102
RTVSPropertyOp24
 70
     1
102
RTVSPropertyOp25
 70
     1
102
RTVSPropertyOp26
 70
     1
102
RTVSPropertyOp27
 70
     1
102
RTVSPropertyOp28
 70
     1
102
RTVSPropertyOp29
 70
     1
102
RTVSPropertyOp30
 70
     1
102
RTVSPropertyOp31
 70
     1
102
RTVSPropertyOp32
 70
     1
  0
XRECORD
  5
280
102
{ACAD_REACTORS
330
27F
102
}
330
27F
100
AcDbXrecord
280
     1
102
RTVSPropertyOp0
 70
     1
102
RTVSPropertyOp1
 70
     1
102
RTVSPropertyOp2
 70
     1
102
RTVSPropertyOp3
 70
     1
102
RTVSPropertyOp4
 70
     1
102
RTVSPropertyOp5
 70
     1
102
RTVSPropertyOp6
 70
     1
102
RTVSPropertyOp7
 70
     1
102
RTVSPropertyOp8
 70
     1
102
RTVSPropertyOp9
 70
     1
102
RTVSPropertyOp10
 70
     1
102
RTVSPropertyOp11
 70
     1
102
RTVSPropertyOp12
 70
     1
102
RTVSPropertyOp13
 70
     1
102
RTVSPropertyOp14
 70
     1
102
RTVSPropertyOp15
 70
     1
102
RTVSPropertyOp16
 70
     1
102
RTVSPropertyOp17
 70
     1
102
RTVSPropertyOp18
 70
     1
102
RTVSPropertyOp19
 70
     1
102
RTVSPropertyOp20
 70
     1
102
RTVSPropertyOp21
 70
     1
102
RTVSPropertyOp22
 70
     1
102
RTVSPropertyOp23
 70
     1
102
RTVSPropertyOp24
 70
     1
102
RTVSPropertyOp25
 70
     1
102
RTVSPropertyOp26
 70
     1
102
RTVSPropertyOp27
 70
     1
102
RTVSPropertyOp28
 70
     1
102
RTVSPropertyOp29
 70
     1
102
RTVSPropertyOp30
 70
     1
102
RTVSPropertyOp31
 70
     1
102
RTVSPropertyOp32
 70
     1
  0
XRECORD
  5
282
102
{ACAD_REACTORS
330
281
102
}
330
281
100
AcDbXrecord
280
     1
102
RTVSPropertyOp0
 70
     1
102
RTVSPropertyOp1
 70
     1
102
RTVSPropertyOp2
 70
     1
102
RTVSPropertyOp3
 70
     1
102
RTVSPropertyOp4
 70
     1
102
RTVSPropertyOp5
 70
     1
102
RTVSPropertyOp6
 70
     1
102
RTVSPropertyOp7
 70
     1
102
RTVSPropertyOp8
 70
     1
102
RTVSPropertyOp9
 70
     1
102
RTVSPropertyOp10
 70
     1
102
RTVSPropertyOp11
 70
     1
102
RTVSPropertyOp12
 70
     1
102
RTVSPropertyOp13
 70
     1
102
RTVSPropertyOp14
 70
     1
102
RTVSPropertyOp15
 70
     1
102
RTVSPropertyOp16
 70
     1
102
RTVSPropertyOp17
 70
     1
102
RTVSPropertyOp18
 70
     1
102
RTVSPropertyOp19
 70
     1
102
RTVSPropertyOp20
 70
     1
102
RTVSPropertyOp21
 70
     1
102
RTVSPropertyOp22
 70
     1
102
RTVSPropertyOp23
 70
     1
102
RTVSPropertyOp24
 70
     1
102
RTVSPropertyOp25
 70
     1
102
RTVSPropertyOp26
 70
     1
102
RTVSPropertyOp27
 70
     1
102
RTVSPropertyOp28
 70
     1
102
RTVSPropertyOp29
 70
     1
102
RTVSPropertyOp30
 70
     1
102
RTVSPropertyOp31
 70
     1
102
RTVSPropertyOp32
 70
     1
  0
XRECORD
  5
284
102
{ACAD_REACTORS
330
283
102
}
330
283
100
AcDbXrecord
280
     1
102
RTVSPropertyOp0
 70
     1
102
RTVSPropertyOp1
 70
     1
102
RTVSPropertyOp2
 70
     1
102
RTVSPropertyOp3
 70
     1
102
RTVSPropertyOp4
 70
     1
102
RTVSPropertyOp5
 70
     1
102
RTVSPropertyOp6
 70
     1
102
RTVSPropertyOp7
 70
     1
102
RTVSPropertyOp8
 70
     1
102
RTVSPropertyOp9
 70
     1
102
RTVSPropertyOp10
 70
     1
102
RTVSPropertyOp11
 70
     1
102
RTVSPropertyOp12
 70
     1
102
RTVSPropertyOp13
 70
     1
102
RTVSPropertyOp14
 70
     1
102
RTVSPropertyOp15
 70
     1
102
RTVSPropertyOp16
 70
     1
102
RTVSPropertyOp17
 70
     1
102
RTVSPropertyOp18
 70
     1
102
RTVSPropertyOp19
 70
     1
102
RTVSPropertyOp20
 70
     1
102
RTVSPropertyOp21
 70
     1
102
RTVSPropertyOp22
 70
     1
102
RTVSPropertyOp23
 70
     1
102
RTVSPropertyOp24
 70
     1
102
RTVSPropertyOp25
 70
     1
102
RTVSPropertyOp26
 70
     1
102
RTVSPropertyOp27
 70
     1
102
RTVSPropertyOp28
 70
     1
102
RTVSPropertyOp29
 70
     1
102
RTVSPropertyOp30
 70
     1
102
RTVSPropertyOp31
 70
     1
102
RTVSPropertyOp32
 70
     1
  0
XRECORD
  5
286
102
{ACAD_REACTORS
330
285
102
}
330
285
100
AcDbXrecord
280
     1
102
RTVSPropertyOp0
 70
     1
102
RTVSPropertyOp1
 70
     1
102
RTVSPropertyOp2
 70
     1
102
RTVSPropertyOp3
 70
     1
102
RTVSPropertyOp4
 70
     1
102
RTVSPropertyOp5
 70
     1
102
RTVSPropertyOp6
 70
     1
102
RTVSPropertyOp7
 70
     1
102
RTVSPropertyOp8
 70
     1
102
RTVSPropertyOp9
 70
     1
102
RTVSPropertyOp10
 70
     1
102
RTVSPropertyOp11
 70
     1
102
RTVSPropertyOp12
 70
     1
102
RTVSPropertyOp13
 70
     1
102
RTVSPropertyOp14
 70
     1
102
RTVSPropertyOp15
 70
     1
102
RTVSPropertyOp16
 70
     1
102
RTVSPropertyOp17
 70
     1
102
RTVSPropertyOp18
 70
     1
102
RTVSPropertyOp19
 70
     1
102
RTVSPropertyOp20
 70
     1
102
RTVSPropertyOp21
 70
     1
102
RTVSPropertyOp22
 70
     1
102
RTVSPropertyOp23
 70
     1
102
RTVSPropertyOp24
 70
     1
102
RTVSPropertyOp25
 70
     1
102
RTVSPropertyOp26
 70
     1
102
RTVSPropertyOp27
 70
     1
102
RTVSPropertyOp28
 70
     1
102
RTVSPropertyOp29
 70
     1
102
RTVSPropertyOp30
 70
     1
102
RTVSPropertyOp31
 70
     1
102
RTVSPropertyOp32
 70
     1
  0
XRECORD
  5
29A
102
{ACAD_REACTORS
330
299
102
}
330
299
100
AcDbXrecord
280
     1
102
RTVSPropertyOp0
 70
     1
102
RTVSPropertyOp1
 70
     1
102
RTVSPropertyOp2
 70
     1
102
RTVSPropertyOp3
 70
     1
102
RTVSPropertyOp4
 70
     1
102
RTVSPropertyOp5
 70
     1
102
RTVSPropertyOp6
 70
     1
102
RTVSPropertyOp7
 70
     1
102
RTVSPropertyOp8
 70
     1
102
RTVSPropertyOp9
 70
     1
102
RTVSPropertyOp10
 70
     1
102
RTVSPropertyOp11
 70
     1
102
RTVSPropertyOp12
 70
     1
102
RTVSPropertyOp13
 70
     1
102
RTVSPropertyOp14
 70
     1
102
RTVSPropertyOp15
 70
     1
102
RTVSPropertyOp16
 70
     1
102
RTVSPropertyOp17
 70
     1
102
RTVSPropertyOp18
 70
     1
102
RTVSPropertyOp19
 70
     1
102
RTVSPropertyOp20
 70
     1
102
RTVSPropertyOp21
 70
     1
102
RTVSPropertyOp22
 70
     1
102
RTVSPropertyOp23
 70
     1
102
RTVSPropertyOp24
 70
     1
102
RTVSPropertyOp25
 70
     1
102
RTVSPropertyOp26
 70
     1
102
RTVSPropertyOp27
 70
     1
102
RTVSPropertyOp28
 70
     1
102
RTVSPropertyOp29
 70
     1
102
RTVSPropertyOp30
 70
     1
102
RTVSPropertyOp31
 70
     1
102
RTVSPropertyOp32
 70
     1
  0
XRECORD
  5
290
102
{ACAD_REACTORS
330
28F
102
}
330
28F
100
AcDbXrecord
280
     1
102
RTVSPropertyOp0
 70
     1
102
RTVSPropertyOp1
 70
     1
102
RTVSPropertyOp2
 70
     1
102
RTVSPropertyOp3
 70
     1
102
RTVSPropertyOp4
 70
     1
102
RTVSPropertyOp5
 70
     1
102
RTVSPropertyOp6
 70
     1
102
RTVSPropertyOp7
 70
     1
102
RTVSPropertyOp8
 70
     1
102
RTVSPropertyOp9
 70
     1
102
RTVSPropertyOp10
 70
     1
102
RTVSPropertyOp11
 70
     1
102
RTVSPropertyOp12
 70
     1
102
RTVSPropertyOp13
 70
     1
102
RTVSPropertyOp14
 70
     1
102
RTVSPropertyOp15
 70
     1
102
RTVSPropertyOp16
 70
     1
102
RTVSPropertyOp17
 70
     1
102
RTVSPropertyOp18
 70
     1
102
RTVSPropertyOp19
 70
     1
102
RTVSPropertyOp20
 70
     1
102
RTVSPropertyOp21
 70
     1
102
RTVSPropertyOp22
 70
     1
102
RTVSPropertyOp23
 70
     1
102
RTVSPropertyOp24
 70
     1
102
RTVSPropertyOp25
 70
     1
102
RTVSPropertyOp26
 70
     1
102
RTVSPropertyOp27
 70
     1
102
RTVSPropertyOp28
 70
     1
102
RTVSPropertyOp29
 70
     1
102
RTVSPropertyOp30
 70
     1
102
RTVSPropertyOp31
 70
     1
102
RTVSPropertyOp32
 70
     1
  0
XRECORD
  5
298
102
{ACAD_REACTORS
330
297
102
}
330
297
100
AcDbXrecord
280
     1
102
RTVSPropertyOp0
 70
     1
102
RTVSPropertyOp1
 70
     1
102
RTVSPropertyOp2
 70
     1
102
RTVSPropertyOp3
 70
     1
102
RTVSPropertyOp4
 70
     1
102
RTVSPropertyOp5
 70
     1
102
RTVSPropertyOp6
 70
     1
102
RTVSPropertyOp7
 70
     1
102
RTVSPropertyOp8
 70
     1
102
RTVSPropertyOp9
 70
     1
102
RTVSPropertyOp10
 70
     1
102
RTVSPropertyOp11
 70
     1
102
RTVSPropertyOp12
 70
     1
102
RTVSPropertyOp13
 70
     1
102
RTVSPropertyOp14
 70
     1
102
RTVSPropertyOp15
 70
     1
102
RTVSPropertyOp16
 70
     1
102
RTVSPropertyOp17
 70
     1
102
RTVSPropertyOp18
 70
     1
102
RTVSPropertyOp19
 70
     1
102
RTVSPropertyOp20
 70
     1
102
RTVSPropertyOp21
 70
     1
102
RTVSPropertyOp22
 70
     1
102
RTVSPropertyOp23
 70
     1
102
RTVSPropertyOp24
 70
     1
102
RTVSPropertyOp25
 70
     1
102
RTVSPropertyOp26
 70
     1
102
RTVSPropertyOp27
 70
     1
102
RTVSPropertyOp28
 70
     1
102
RTVSPropertyOp29
 70
     1
102
RTVSPropertyOp30
 70
     1
102
RTVSPropertyOp31
 70
     1
102
RTVSPropertyOp32
 70
     1
  0
ENDSEC
  0
EOF
