  0
SECTION
  2
HEADER
  9
$ACADVER
  1
AC1015
  9
$ACADMAINTVER
 70
     6
  9
$DWGCODEPAGE
  3
ANSI_932
  9
$INSBASE
 10
0.0
 20
0.0
 30
0.0
  9
$EXTMIN
 10
0.0
 20
0.0
 30
0.0
  9
$EXTMAX
 10
315.0
 20
445.5
 30
0.0
  9
$LIMMIN
 10
0.0
 20
0.0
  9
$LIMMAX
 10
12.0
 20
9.0
  9
$ORTHOMODE
 70
     0
  9
$REGENMODE
 70
     1
  9
$FILLMODE
 70
     1
  9
$QTEXTMODE
 70
     0
  9
$MIRRTEXT
 70
     1
  9
$LTSCALE
 40
1.0
  9
$ATTMODE
 70
     1
  9
$TEXTSIZE
 40
0.2
  9
$TRACEWID
 40
0.05
  9
$TEXTSTYLE
  7
Standard
  9
$CLAYER
  8
0
  9
$CELTYPE
  6
ByLayer
  9
$CECOLOR
 62
   256
  9
$CELTSCALE
 40
1.0
  9
$DISPSILH
 70
     0
  9
$DIMSCALE
 40
1.0
  9
$DIMASZ
 40
0.18
  9
$DIMEXO
 40
0.0625
  9
$DIMDLI
 40
0.38
  9
$DIMRND
 40
0.0
  9
$DIMDLE
 40
0.0
  9
$DIMEXE
 40
0.18
  9
$DIMTP
 40
0.0
  9
$DIMTM
 40
0.0
  9
$DIMTXT
 40
0.18
  9
$DIMCEN
 40
0.09
  9
$DIMTSZ
 40
0.0
  9
$DIMTOL
 70
     0
  9
$DIMLIM
 70
     0
  9
$DIMTIH
 70
     1
  9
$DIMTOH
 70
     1
  9
$DIMSE1
 70
     0
  9
$DIMSE2
 70
     0
  9
$DIMTAD
 70
     0
  9
$DIMZIN
 70
     0
  9
$DIMBLK
  1

  9
$DIMASO
 70
     1
  9
$DIMSHO
 70
     1
  9
$DIMPOST
  1

  9
$DIMAPOST
  1

  9
$DIMALT
 70
     0
  9
$DIMALTD
 70
     2
  9
$DIMALTF
 40
25.4
  9
$DIMLFAC
 40
1.0
  9
$DIMTOFL
 70
     0
  9
$DIMTVP
 40
0.0
  9
$DIMTIX
 70
     0
  9
$DIMSOXD
 70
     0
  9
$DIMSAH
 70
     0
  9
$DIMBLK1
  1

  9
$DIMBLK2
  1

  9
$DIMSTYLE
  2
Standard
  9
$DIMCLRD
 70
     0
  9
$DIMCLRE
 70
     0
  9
$DIMCLRT
 70
     0
  9
$DIMTFAC
 40
1.0
  9
$DIMGAP
 40
0.09
  9
$DIMJUST
 70
     0
  9
$DIMSD1
 70
     0
  9
$DIMSD2
 70
     0
  9
$DIMTOLJ
 70
     1
  9
$DIMTZIN
 70
     0
  9
$DIMALTZ
 70
     0
  9
$DIMALTTZ
 70
     0
  9
$DIMUPT
 70
     0
  9
$DIMDEC
 70
     4
  9
$DIMTDEC
 70
     4
  9
$DIMALTU
 70
     2
  9
$DIMALTTD
 70
     2
  9
$DIMTXSTY
  7
Standard
  9
$DIMAUNIT
 70
     0
  9
$DIMADEC
 70
     0
  9
$DIMALTRND
 40
0.0
  9
$DIMAZIN
 70
     0
  9
$DIMDSEP
 70
    46
  9
$DIMATFIT
 70
     3
  9
$DIMFRAC
 70
     0
  9
$DIMLDRBLK
  1

  9
$DIMLUNIT
 70
     2
  9
$DIMLWD
 70
    -2
  9
$DIMLWE
 70
    -2
  9
$DIMTMOVE
 70
     0
  9
$LUNITS
 70
     2
  9
$LUPREC
 70
     4
  9
$SKETCHINC
 40
0.1
  9
$FILLETRAD
 40
0.5
  9
$AUNITS
 70
     0
  9
$AUPREC
 70
     0
  9
$MENU
  1
.
  9
$ELEVATION
 40
0.0
  9
$PELEVATION
 40
0.0
  9
$THICKNESS
 40
0.0
  9
$LIMCHECK
 70
     0
  9
$CHAMFERA
 40
0.5
  9
$CHAMFERB
 40
0.5
  9
$CHAMFERC
 40
1.0
  9
$CHAMFERD
 40
0.0
  9
$SKPOLY
 70
     0
  9
$TDCREATE
 40
2457206.727783796
  9
$TDUCREATE
 40
2457206.352783796
  9
$TDUPDATE
 40
2457206.727784514
  9
$TDUUPDATE
 40
2457206.352784514
  9
$TDINDWG
 40
0.0000000116
  9
$TDUSRTIMER
 40
0.0000000116
  9
$USRTIMER
 70
     1
  9
$ANGBASE
 50
0.0
  9
$ANGDIR
 70
     0
  9
$PDMODE
 70
     0
  9
$PDSIZE
 40
0.0
  9
$PLINEWID
 40
0.0
  9
$SPLFRAME
 70
     0
  9
$SPLINETYPE
 70
     6
  9
$SPLINESEGS
 70
     8
  9
$HANDSEED
  5
24B
  9
$SURFTAB1
 70
     6
  9
$SURFTAB2
 70
     6
  9
$SURFTYPE
 70
     6
  9
$SURFU
 70
     6
  9
$SURFV
 70
     6
  9
$UCSBASE
  2

  9
$UCSNAME
  2

  9
$UCSORG
 10
0.0
 20
0.0
 30
0.0
  9
$UCSXDIR
 10
1.0
 20
0.0
 30
0.0
  9
$UCSYDIR
 10
0.0
 20
1.0
 30
0.0
  9
$UCSORTHOREF
  2

  9
$UCSORTHOVIEW
 70
     0
  9
$UCSORGTOP
 10
0.0
 20
0.0
 30
0.0
  9
$UCSORGBOTTOM
 10
0.0
 20
0.0
 30
0.0
  9
$UCSORGLEFT
 10
0.0
 20
0.0
 30
0.0
  9
$UCSORGRIGHT
 10
0.0
 20
0.0
 30
0.0
  9
$UCSORGFRONT
 10
0.0
 20
0.0
 30
0.0
  9
$UCSORGBACK
 10
0.0
 20
0.0
 30
0.0
  9
$PUCSBASE
  2

  9
$PUCSNAME
  2

  9
$PUCSORG
 10
0.0
 20
0.0
 30
0.0
  9
$PUCSXDIR
 10
1.0
 20
0.0
 30
0.0
  9
$PUCSYDIR
 10
0.0
 20
1.0
 30
0.0
  9
$PUCSORTHOREF
  2

  9
$PUCSORTHOVIEW
 70
     0
  9
$PUCSORGTOP
 10
0.0
 20
0.0
 30
0.0
  9
$PUCSORGBOTTOM
 10
0.0
 20
0.0
 30
0.0
  9
$PUCSORGLEFT
 10
0.0
 20
0.0
 30
0.0
  9
$PUCSORGRIGHT
 10
0.0
 20
0.0
 30
0.0
  9
$PUCSORGFRONT
 10
0.0
 20
0.0
 30
0.0
  9
$PUCSORGBACK
 10
0.0
 20
0.0
 30
0.0
  9
$USERI1
 70
     0
  9
$USERI2
 70
     0
  9
$USERI3
 70
     0
  9
$USERI4
 70
     0
  9
$USERI5
 70
     0
  9
$USERR1
 40
18.1
  9
$USERR2
 40
0.0
  9
$USERR3
 40
0.0
  9
$USERR4
 40
0.0
  9
$USERR5
 40
0.0
  9
$WORLDVIEW
 70
     1
  9
$SHADEDGE
 70
     3
  9
$SHADEDIF
 70
    70
  9
$TILEMODE
 70
     1
  9
$MAXACTVP
 70
    64
  9
$PINSBASE
 10
0.0
 20
0.0
 30
0.0
  9
$PLIMCHECK
 70
     0
  9
$PEXTMIN
 10
1.00000000000000E+20
 20
1.00000000000000E+20
 30
1.00000000000000E+20
  9
$PEXTMAX
 10
-1.00000000000000E+20
 20
-1.00000000000000E+20
 30
-1.00000000000000E+20
  9
$PLIMMIN
 10
0.0
 20
0.0
  9
$PLIMMAX
 10
12.0
 20
9.0
  9
$UNITMODE
 70
     0
  9
$VISRETAIN
 70
     1
  9
$PLINEGEN
 70
     0
  9
$PSLTSCALE
 70
     1
  9
$TREEDEPTH
 70
  3020
  9
$CMLSTYLE
  2
Standard
  9
$CMLJUST
 70
     0
  9
$CMLSCALE
 40
1.0
  9
$PROXYGRAPHICS
 70
     1
  9
$MEASUREMENT
 70
     1
  9
$CELWEIGHT
370
    -1
  9
$ENDCAPS
280
     0
  9
$JOINSTYLE
280
     0
  9
$LWDISPLAY
290
     0
  9
$INSUNITS
 70
     4
  9
$HYPERLINKBASE
  1

  9
$STYLESHEET
  1

  9
$XEDIT
290
     1
  9
$CEPSNTYPE
380
     0
  9
$PSTYLEMODE
290
     1
  9
$FINGERPRINTGUID
  2
{C6F7A5A0-A1E2-467A-B3B0-8D772316181B}
  9
$VERSIONGUID
  2
{FAEB1C32-E019-11D5-929B-00C0DF256EC4}
  9
$EXTNAMES
290
     1
  9
$PSVPSCALE
 40
0.0
  9
$OLESTARTUP
290
     0
  0
ENDSEC
  0
SECTION
  2
CLASSES
  0
CLASS
  1
ACDBDICTIONARYWDFLT
  2
AcDbDictionaryWithDefault
  3
ObjectDBX Classes
 90
        0
280
     0
281
     0
  0
CLASS
  1
VISUALSTYLE
  2
AcDbVisualStyle
  3
ObjectDBX Classes
 90
     4095
280
     0
281
     0
  0
CLASS
  1
MATERIAL
  2
AcDbMaterial
  3
ObjectDBX Classes
 90
     1153
280
     0
281
     0
  0
CLASS
  1
DICTIONARYVAR
  2
AcDbDictionaryVar
  3
ObjectDBX Classes
 90
        0
280
     0
281
     0
  0
CLASS
  1
ACDBPLACEHOLDER
  2
AcDbPlaceHolder
  3
ObjectDBX Classes
 90
        0
280
     0
281
     0
  0
CLASS
  1
LAYOUT
  2
AcDbLayout
  3
ObjectDBX Classes
 90
        0
280
     0
281
     0
  0
ENDSEC
  0
SECTION
  2
TABLES
  0
TABLE
  2
VPORT
  5
8
330
0
100
AcDbSymbolTable
 70
     1
  0
VPORT
  5
29
330
8
100
AcDbSymbolTableRecord
100
AcDbViewportTableRecord
  2
*Active
 70
     0
 10
0.0
 20
0.0
 11
1.0
 21
1.0
 12
157.5
 22
222.75
 13
0.0
 23
0.0
 14
0.5
 24
0.5
 15
0.5
 25
0.5
 16
0.0
 26
0.0
 36
1.0
 17
0.0
 27
0.0
 37
0.0
 40
490.05
 41
1.60267857142857
 42
50.0
 43
0.0
 44
0.0
 50
0.0
 51
0.0
 71
     0
 72
   100
 73
     1
 74
     3
 75
     0
 76
     0
 77
     0
 78
     0
281
     0
 65
     1
110
0.0
120
0.0
130
0.0
111
1.0
121
0.0
131
0.0
112
0.0
122
1.0
132
0.0
 79
     0
146
0.0
  0
ENDTAB
  0
TABLE
  2
LTYPE
  5
5
330
0
100
AcDbSymbolTable
 70
     8
  0
LTYPE
  5
14
330
5
100
AcDbSymbolTableRecord
100
AcDbLinetypeTableRecord
  2
ByBlock
 70
     0
  3

 72
    65
 73
     0
 40
0.0
  0
LTYPE
  5
15
330
5
100
AcDbSymbolTableRecord
100
AcDbLinetypeTableRecord
  2
ByLayer
 70
     0
  3

 72
    65
 73
     0
 40
0.0
  0
LTYPE
  5
16
330
5
100
AcDbSymbolTableRecord
100
AcDbLinetypeTableRecord
  2
Continuous
 70
     0
  3
Solid line
 72
    65
 73
     0
 40
0.0
  0
LTYPE
  5
3F
330
5
100
AcDbSymbolTableRecord
100
AcDbLinetypeTableRecord
  2
DASHED
 70
     0
  3
Dashed
 72
    65
 73
     2
 40
15.0
 49
7.0
 74
     0
 49
-8.0
 74
     0
  0
LTYPE
  5
40
330
5
100
AcDbSymbolTableRecord
100
AcDbLinetypeTableRecord
  2
DOTTED
 70
     0
  3
Dotted
 72
    65
 73
     2
 40
1.0
 49
0.0
 74
     0
 49
-1.0
 74
     0
  0
LTYPE
  5
41
330
5
100
AcDbSymbolTableRecord
100
AcDbLinetypeTableRecord
  2
DOT_CENTER
 70
     0
  3
Dot_Center
 72
    65
 73
     4
 40
14.0
 49
12.0
 74
     0
 49
-1.0
 74
     0
 49
0.0
 74
     0
 49
-1.0
 74
     0
  0
LTYPE
  5
42
330
5
100
AcDbSymbolTableRecord
100
AcDbLinetypeTableRecord
  2
LONG_DASHED
 70
     0
  3
Long_Dashed
 72
    65
 73
     2
 40
15.0
 49
10.0
 74
     0
 49
-5.0
 74
     0
  0
LTYPE
  5
43
330
5
100
AcDbSymbolTableRecord
100
AcDbLinetypeTableRecord
  2
DASH_CENTER
 70
     0
  3
Dash_Center
 72
    65
 73
     4
 40
14.0
 49
11.0
 74
     0
 49
-1.0
 74
     0
 49
1.0
 74
     0
 49
-1.0
 74
     0
  0
LTYPE
  5
44
330
5
100
AcDbSymbolTableRecord
100
AcDbLinetypeTableRecord
  2
PHANTOM
 70
     0
  3
Phantom
 72
    65
 73
     6
 40
13.0
 49
10.0
 74
     0
 49
-1.0
 74
     0
 49
0.0
 74
     0
 49
-1.0
 74
     0
 49
0.0
 74
     0
 49
-1.0
 74
     0
  0
LTYPE
  5
45
330
5
100
AcDbSymbolTableRecord
100
AcDbLinetypeTableRecord
  2
CENTER_DASH_DASH
 70
     0
  3
Center_Dash_Dash
 72
    65
 73
     6
 40
14.0
 49
9.0
 74
     0
 49
-1.0
 74
     0
 49
1.0
 74
     0
 49
-1.0
 74
     0
 49
1.0
 74
     0
 49
-1.0
 74
     0
  0
ENDTAB
  0
TABLE
  2
LAYER
  5
2
330
0
100
AcDbSymbolTable
 70
     2
  0
LAYER
  5
10
330
2
100
AcDbSymbolTableRecord
100
AcDbLayerTableRecord
  2
0
 70
     0
 62
     7
  6
Continuous
370
    -3
390
F
  0
LAYER
  5
46
330
2
100
AcDbSymbolTableRecord
100
AcDbLayerTableRecord
  2
1
 70
     0
 62
     7
  6
Continuous
370
    -3
390
F
  0
ENDTAB
  0
TABLE
  2
STYLE
  5
3
330
0
100
AcDbSymbolTable
 70
     3
  0
STYLE
  5
11
330
3
100
AcDbSymbolTableRecord
100
AcDbTextStyleTableRecord
  2
Standard
 70
     0
 40
0.0
 41
1.0
 50
0.0
 71
     0
 42
0.2
  3
txt
  4

  0
STYLE
  5
1B2
330
3
100
AcDbSymbolTableRecord
100
AcDbTextStyleTableRecord
  2
CONVERTER_11
 70
     0
 40
0.0
 41
0.89
 50
0.0
 71
     0
 42
0.2
  3
MS Mincho.ttf
  4

1001
ACAD
1000
MS Mincho
1071
    32785
  0
STYLE
  5
1E4
330
3
100
AcDbSymbolTableRecord
100
AcDbTextStyleTableRecord
  2
CONVERTER_12
 70
     0
 40
0.0
 41
0.9
 50
0.0
 71
     0
 42
0.2
  3
txt.shx
  4

  0
ENDTAB
  0
TABLE
  2
VIEW
  5
6
330
0
100
AcDbSymbolTable
 70
     0
  0
ENDTAB
  0
TABLE
  2
UCS
  5
7
330
0
100
AcDbSymbolTable
 70
     0
  0
ENDTAB
  0
TABLE
  2
APPID
  5
9
330
0
100
AcDbSymbolTable
 70
     1
  0
APPID
  5
12
330
9
100
AcDbSymbolTableRecord
100
AcDbRegAppTableRecord
  2
ACAD
 70
     0
  0
ENDTAB
  0
TABLE
  2
DIMSTYLE
  5
A
330
0
100
AcDbSymbolTable
 70
     5
100
AcDbDimStyleTable
  0
DIMSTYLE
105
27
330
A
100
AcDbSymbolTableRecord
100
AcDbDimStyleTableRecord
  2
Standard
 70
     0
178
     0
340
11
  0
DIMSTYLE
105
1FD
102
{ACAD_REACTORS
330
1FE
102
}
330
A
100
AcDbSymbolTableRecord
100
AcDbDimStyleTableRecord
  2
ME10_DIM_10
 70
     0
 41
5.25
 42
0.0
 44
1.5
 73
     0
 74
     0
 77
     1
 78
     8
140
5.25
147
1.5
172
     1
173
     1
174
     1
175
     1
176
     2
177
     2
271
     2
178
     7
271
     2
340
1B2
  0
DIMSTYLE
105
208
102
{ACAD_REACTORS
330
209
102
}
330
A
100
AcDbSymbolTableRecord
100
AcDbDimStyleTableRecord
  2
ME10_DIM_11
 70
     0
 41
5.25
 42
0.0
 44
1.5
 73
     0
 74
     0
 77
     1
 78
     8
140
5.25
147
1.5
172
     1
173
     1
174
     1
175
     1
176
     2
177
     2
271
     2
178
     7
271
     2
340
1E4
  0
DIMSTYLE
105
213
102
{ACAD_REACTORS
330
214
102
}
330
A
100
AcDbSymbolTableRecord
100
AcDbDimStyleTableRecord
  2
ME10_DIM_12
 70
     0
 41
5.25
 42
0.0
 44
1.5
 73
     0
 74
     0
 77
     1
 78
     8
140
5.25
147
1.5
172
     1
173
     1
174
     1
175
     1
176
     2
177
     2
271
     2
178
     7
271
     2
340
1E4
  0
DIMSTYLE
105
21E
102
{ACAD_REACTORS
330
21F
102
}
330
A
100
AcDbSymbolTableRecord
100
AcDbDimStyleTableRecord
  2
ME10_DIM_13
 70
     0
 41
5.25
 42
0.0
 44
1.5
 73
     0
 74
     0
 77
     1
 78
     8
140
5.25
147
1.5
172
     1
173
     1
174
     1
175
     1
176
     2
177
     2
271
     2
178
     7
271
     2
340
1E4
  0
ENDTAB
  0
TABLE
  2
BLOCK_RECORD
  5
1
330
0
100
AcDbSymbolTable
 70
    12
  0
BLOCK_RECORD
  5
1F
330
1
100
AcDbSymbolTableRecord
100
AcDbBlockTableRecord
  2
*Model_Space
340
22
  0
BLOCK_RECORD
  5
1B
330
1
100
AcDbSymbolTableRecord
100
AcDbBlockTableRecord
  2
*Paper_Space
340
1E
  0
BLOCK_RECORD
  5
23
330
1
100
AcDbSymbolTableRecord
100
AcDbBlockTableRecord
  2
*Paper_Space0
340
26
  0
BLOCK_RECORD
  5
47
330
1
100
AcDbSymbolTableRecord
100
AcDbBlockTableRecord
  2
91-1
340
0
102
{BLKREFS
331
5C
102
}
  0
BLOCK_RECORD
  5
4A
330
1
100
AcDbSymbolTableRecord
100
AcDbBlockTableRecord
  2
V21-1-0-13-M11
340
0
102
{BLKREFS
331
5D
102
}
  0
BLOCK_RECORD
  5
4D
330
1
100
AcDbSymbolTableRecord
100
AcDbBlockTableRecord
  2
37-1-13
340
0
102
{BLKREFS
331
5E
102
}
  0
BLOCK_RECORD
  5
50
330
1
100
AcDbSymbolTableRecord
100
AcDbBlockTableRecord
  2
21-1C
340
0
102
{BLKREFS
331
5F
102
}
  0
BLOCK_RECORD
  5
53
330
1
100
AcDbSymbolTableRecord
100
AcDbBlockTableRecord
  2
42-15
340
0
102
{BLKREFS
331
60
102
}
  0
BLOCK_RECORD
  5
56
330
1
100
AcDbSymbolTableRecord
100
AcDbBlockTableRecord
  2
36-54-M4
340
0
102
{BLKREFS
331
61
102
}
  0
BLOCK_RECORD
  5
59
330
1
100
AcDbSymbolTableRecord
100
AcDbBlockTableRecord
  2
開示A4
340
0
102
{BLKREFS
331
62
102
}
  0
BLOCK_RECORD
  5
1F4
330
1
100
AcDbSymbolTableRecord
100
AcDbBlockTableRecord
  2
*D8
340
0
  0
BLOCK_RECORD
  5
1FF
330
1
100
AcDbSymbolTableRecord
100
AcDbBlockTableRecord
  2
*D9
340
0
  0
BLOCK_RECORD
  5
20A
330
1
100
AcDbSymbolTableRecord
100
AcDbBlockTableRecord
  2
*D10
340
0
  0
BLOCK_RECORD
  5
215
330
1
100
AcDbSymbolTableRecord
100
AcDbBlockTableRecord
  2
*D11
340
0
  0
ENDTAB
  0
ENDSEC
  0
SECTION
  2
BLOCKS
  0
BLOCK
  5
20
330
1F
100
AcDbEntity
  8
0
100
AcDbBlockBegin
  2
*Model_Space
 70
     0
 10
0.0
 20
0.0
 30
0.0
  3
*Model_Space
  1

  0
ENDBLK
  5
21
330
1F
100
AcDbEntity
  8
0
100
AcDbBlockEnd
  0
BLOCK
  5
1C
330
1B
100
AcDbEntity
 67
     1
  8
0
100
AcDbBlockBegin
  2
*Paper_Space
 70
     0
 10
0.0
 20
0.0
 30
0.0
  3
*Paper_Space
  1

  0
ENDBLK
  5
1D
330
1B
100
AcDbEntity
 67
     1
  8
0
100
AcDbBlockEnd
  0
BLOCK
  5
24
330
23
100
AcDbEntity
  8
0
100
AcDbBlockBegin
  2
*Paper_Space0
 70
     0
 10
0.0
 20
0.0
 30
0.0
  3
*Paper_Space0
  1

  0
ENDBLK
  5
25
330
23
100
AcDbEntity
  8
0
100
AcDbBlockEnd
  0
BLOCK
  5
48
330
47
100
AcDbEntity
  8
0
100
AcDbBlockBegin
  2
91-1
 70
     0
 10
512.4074296573444
 20
434.7208387782338
 30
0.0
  3
91-1
  1

  0
LINE
  5
63
330
47
100
AcDbEntity
  8
1
  6
Continuous
 62
     7
100
AcDbLine
 10
85.511206465943
 20
163.6849632348043
 30
0.0
 11
98.16031710661684
 21
163.6849632348043
 31
0.0
  0
ENDBLK
  5
49
330
47
100
AcDbEntity
  8
0
100
AcDbBlockEnd
  0
BLOCK
  5
4B
330
4A
100
AcDbEntity
  8
0
100
AcDbBlockBegin
  2
V21-1-0-13-M11
 70
     0
 10
318.613460676723
 20
0.9033651691809
 30
0.0
  3
V21-1-0-13-M11
  1

  0
LINE
  5
64
330
4A
100
AcDbEntity
  8
1
  6
Continuous
 62
     7
100
AcDbLine
 10
87.22384721638576
 20
253.3469632348046
 30
0.0
 11
81.33576178628007
 21
253.3469632348046
 31
0.0
  0
LINE
  5
65
330
4A
100
AcDbEntity
  8
1
  6
Continuous
 62
     7
100
AcDbLine
 10
102.3357617862801
 20
253.3469632348046
 30
0.0
 11
96.4476763561741
 21
253.3469632348046
 31
0.0
  0
LINE
  5
66
330
4A
100
AcDbEntity
  8
1
  6
Continuous
 62
     7
100
AcDbLine
 10
194.011999999999
 20
172.6849632348046
 30
0.0
 11
194.011999999999
 21
151.6849632348046
 31
0.0
  0
LINE
  5
67
330
4A
100
AcDbEntity
  8
1
  6
Continuous
 62
     7
100
AcDbLine
 10
235.8499999999991
 20
183.276805928251
 30
0.0
 11
209.8499999999988
 21
183.276805928251
 31
0.0
  0
LINE
  5
68
330
4A
100
AcDbEntity
  8
1
  6
Continuous
 62
     7
100
AcDbLine
 10
255.3388930010714
 20
147.1738562358753
 30
0.0
 11
257.8499999999991
 21
149.6849632348029
 31
0.0
  0
LINE
  5
69
330
4A
100
AcDbEntity
  8
1
  6
Continuous
 62
     7
100
AcDbLine
 10
257.8499999999991
 20
174.6849632348039
 30
0.0
 11
255.3388930010684
 21
177.1960702337347
 31
0.0
  0
LINE
  5
6A
330
4A
100
AcDbEntity
  8
1
  6
PHANTOM
 62
     4
100
AcDbLine
 10
189.8499999999989
 20
162.1849632348046
 30
0.0
 11
260.8499999999989
 21
162.1849632348046
 31
0.0
  0
LINE
  5
6B
330
4A
100
AcDbEntity
  8
1
  6
PHANTOM
 62
     4
100
AcDbLine
 10
222.8499999999989
 20
194.6849632348046
 30
0.0
 11
222.8499999999989
 21
146.6849632348046
 31
0.0
  0
LINE
  5
6C
330
4A
100
AcDbEntity
  8
1
  6
Continuous
 62
     7
100
AcDbLine
 10
257.8499999999991
 20
149.6849632348029
 30
0.0
 11
257.8499999999989
 21
151.7074632348047
 31
0.0
  0
LINE
  5
6D
330
4A
100
AcDbEntity
  8
1
  6
Continuous
 62
     7
100
AcDbLine
 10
201.8499999999989
 20
151.6849632348046
 30
0.0
 11
203.862643038394
 21
151.6849632348046
 31
0.0
  0
LINE
  5
6E
330
4A
100
AcDbEntity
  8
1
  6
Continuous
 62
     2
100
AcDbLine
 10
211.6629999999989
 20
185.6849632348046
 30
0.0
 11
211.6629999999989
 21
187.1156122264513
 31
0.0
  0
LINE
  5
6F
330
4A
100
AcDbEntity
  8
1
  6
Continuous
 62
     2
100
AcDbLine
 10
194.011999999999
 20
152.8469632348046
 30
0.0
 11
192.8499999999989
 21
152.8469632348046
 31
0.0
  0
LINE
  5
70
330
4A
100
AcDbEntity
  8
1
  6
Continuous
 62
     2
100
AcDbLine
 10
194.011999999999
 20
152.8469632348046
 30
0.0
 11
192.8499999999989
 21
152.8469632348046
 31
0.0
  0
LINE
  5
71
330
4A
100
AcDbEntity
  8
1
  6
Continuous
 62
     2
100
AcDbLine
 10
192.8499999999989
 20
171.5229632348046
 30
0.0
 11
201.8499999999989
 21
171.5229632348046
 31
0.0
  0
LINE
  5
72
330
4A
100
AcDbEntity
  8
1
  6
Continuous
 62
     7
100
AcDbLine
 10
194.011999999999
 20
172.6849632348046
 30
0.0
 11
201.8499999999989
 21
172.6849632348046
 31
0.0
  0
LINE
  5
73
330
4A
100
AcDbEntity
  8
1
  6
Continuous
 62
     7
100
AcDbLine
 10
192.8499999999989
 20
171.5229632348046
 30
0.0
 11
194.011999999999
 21
172.6849632348046
 31
0.0
  0
LINE
  5
74
330
4A
100
AcDbEntity
  8
1
  6
Continuous
 62
     7
100
AcDbLine
 10
194.011999999999
 20
151.6849632348046
 30
0.0
 11
201.8499999999989
 21
151.6849632348046
 31
0.0
  0
LINE
  5
75
330
4A
100
AcDbEntity
  8
1
  6
Continuous
 62
     7
100
AcDbLine
 10
192.8499999999989
 20
152.8469632348046
 30
0.0
 11
194.011999999999
 21
151.6849632348046
 31
0.0
  0
LINE
  5
76
330
4A
100
AcDbEntity
  8
1
  6
Continuous
 62
     7
100
AcDbLine
 10
210.8499999999989
 20
185.6849632348046
 30
0.0
 11
234.8499999999989
 21
185.6849632348046
 31
0.0
  0
LINE
  5
77
330
4A
100
AcDbEntity
  8
1
  6
Continuous
 62
     7
100
AcDbLine
 10
210.8499999999989
 20
185.6849632348046
 30
0.0
 11
210.8499999999989
 21
184.2768059282511
 31
0.0
  0
LINE
  5
78
330
4A
100
AcDbEntity
  8
1
  6
Continuous
 62
     2
100
AcDbLine
 10
211.6629999999989
 20
185.6849632348046
 30
0.0
 11
210.8499999999989
 21
184.2768059282511
 31
0.0
  0
LINE
  5
79
330
4A
100
AcDbEntity
  8
1
  6
Continuous
 62
     7
100
AcDbLine
 10
201.8499999999989
 20
172.6849632348046
 30
0.0
 11
203.862643038394
 21
172.6849632348046
 31
0.0
  0
LINE
  5
7A
330
4A
100
AcDbEntity
  8
1
  6
Continuous
 62
     2
100
AcDbLine
 10
201.8499999999989
 20
171.5229632348046
 30
0.0
 11
203.862643038394
 21
172.6849632348046
 31
0.0
  0
LINE
  5
7B
330
4A
100
AcDbEntity
  8
1
  6
Continuous
 62
     2
100
AcDbLine
 10
201.8499999999989
 20
152.8469632348046
 30
0.0
 11
194.011999999999
 21
152.8469632348046
 31
0.0
  0
LINE
  5
7C
330
4A
100
AcDbEntity
  8
1
  6
Continuous
 62
     2
100
AcDbLine
 10
203.862643038394
 20
151.6849632348046
 30
0.0
 11
201.8499999999989
 21
152.8469632348046
 31
0.0
  0
LINE
  5
7D
330
4A
100
AcDbEntity
  8
1
  6
Continuous
 62
     7
100
AcDbLine
 10
201.8499999999989
 20
151.6849632348046
 30
0.0
 11
201.8499999999989
 21
172.6849632348046
 31
0.0
  0
LINE
  5
7E
330
4A
100
AcDbEntity
  8
1
  6
Continuous
 62
     2
100
AcDbLine
 10
201.8499999999989
 20
152.8469632348046
 30
0.0
 11
194.011999999999
 21
152.8469632348046
 31
0.0
  0
LINE
  5
7F
330
4A
100
AcDbEntity
  8
1
  6
Continuous
 62
     7
100
AcDbLine
 10
192.8499999999989
 20
152.8469632348046
 30
0.0
 11
192.8499999999989
 21
171.5229632348046
 31
0.0
  0
LINE
  5
80
330
4A
100
AcDbEntity
  8
1
  6
Continuous
 62
     2
100
AcDbLine
 10
234.8499999999989
 20
184.2768059282511
 30
0.0
 11
234.036999999999
 21
185.6849632348046
 31
0.0
  0
LINE
  5
81
330
4A
100
AcDbEntity
  8
1
  6
Continuous
 62
     7
100
AcDbLine
 10
234.8499999999989
 20
184.2768059282511
 30
0.0
 11
234.8499999999989
 21
185.6849632348046
 31
0.0
  0
LINE
  5
82
330
4A
100
AcDbEntity
  8
1
  6
Continuous
 62
     7
100
AcDbLine
 10
234.8499999999989
 20
185.6849632348046
 30
0.0
 11
234.8499999999989
 21
187.1147367796658
 31
0.0
  0
LINE
  5
83
330
4A
100
AcDbEntity
  8
1
  6
Continuous
 62
     7
100
AcDbLine
 10
203.862643038394
 20
172.6849632348046
 30
0.0
 11
204.362643038394
 21
173.1849632348046
 31
0.0
  0
LINE
  5
84
330
4A
100
AcDbEntity
  8
1
  6
Continuous
 62
     7
100
AcDbLine
 10
204.362643038394
 20
173.1849632348046
 30
0.0
 11
205.3499999999989
 21
173.1849632348046
 31
0.0
  0
LINE
  5
85
330
4A
100
AcDbEntity
  8
1
  6
Continuous
 62
     7
100
AcDbLine
 10
203.862643038394
 20
151.6849632348046
 30
0.0
 11
204.3773981581789
 21
151.1702081150197
 31
0.0
  0
LINE
  5
86
330
4A
100
AcDbEntity
  8
1
  6
Continuous
 62
     7
100
AcDbLine
 10
222.8499999999989
 20
149.1849632348045
 30
0.0
 11
245.767825189204
 21
149.1849632348045
 31
0.0
  0
LINE
  5
87
330
4A
100
AcDbEntity
  8
1
  6
Continuous
 62
     7
100
AcDbLine
 10
249.3033590951371
 20
147.7204971407371
 30
0.0
 11
249.8499999999991
 21
147.1738562358746
 31
0.0
  0
LINE
  5
88
330
4A
100
AcDbEntity
  8
1
  6
Continuous
 62
     7
100
AcDbLine
 10
255.3388930010714
 20
147.1738562358753
 30
0.0
 11
249.8499999999991
 21
147.1738562358746
 31
0.0
  0
LINE
  5
89
330
4A
100
AcDbEntity
  8
1
  6
Continuous
 62
     7
100
AcDbLine
 10
249.8499999999991
 20
177.1960702337347
 30
0.0
 11
255.3388930010684
 21
177.1960702337347
 31
0.0
  0
LINE
  5
8A
330
4A
100
AcDbEntity
  8
1
  6
Continuous
 62
     7
100
AcDbLine
 10
249.8499999999991
 20
177.1960702337347
 30
0.0
 11
249.3033590951371
 21
176.6494293288721
 31
0.0
  0
LINE
  5
8B
330
4A
100
AcDbEntity
  8
1
  6
Continuous
 62
     7
100
AcDbLine
 10
245.767825189204
 20
175.1849632348047
 30
0.0
 11
240.8499999999991
 21
175.1849632348047
 31
0.0
  0
LINE
  5
8C
330
4A
100
AcDbEntity
  8
1
  6
Continuous
 62
     7
100
AcDbLine
 10
209.8499999999988
 20
183.276805928251
 30
0.0
 11
209.8499999999988
 21
177.6849632348046
 31
0.0
  0
LINE
  5
8D
330
4A
100
AcDbEntity
  8
1
  6
Continuous
 62
     7
100
AcDbLine
 10
210.8499999999989
 20
184.2768059282511
 30
0.0
 11
209.8499999999988
 21
183.276805928251
 31
0.0
  0
LINE
  5
8E
330
4A
100
AcDbEntity
  8
1
  6
Continuous
 62
     7
100
AcDbLine
 10
235.8499999999991
 20
183.276805928251
 30
0.0
 11
234.8499999999989
 21
184.2768059282511
 31
0.0
  0
LINE
  5
8F
330
4A
100
AcDbEntity
  8
1
  6
Continuous
 62
     7
100
AcDbLine
 10
235.8499999999991
 20
180.1849632348047
 30
0.0
 11
235.8499999999991
 21
183.276805928251
 31
0.0
  0
LINE
  5
90
330
4A
100
AcDbEntity
  8
1
  6
Continuous
 62
     7
100
AcDbLine
 10
257.8499999999989
 20
172.6624632348046
 30
0.0
 11
257.8499999999989
 21
151.7074632348047
 31
0.0
  0
LINE
  5
91
330
4A
100
AcDbEntity
  8
1
  6
Continuous
 62
     7
100
AcDbLine
 10
257.8499999999989
 20
172.6624632348046
 30
0.0
 11
257.8499999999991
 21
174.6849632348039
 31
0.0
  0
LINE
  5
92
330
4A
100
AcDbEntity
  8
1
  6
Continuous
 62
     7
100
AcDbLine
 10
249.849999999999
 20
169.6905989909461
 30
0.0
 11
255.3388930010683
 21
169.6905989909461
 31
0.0
  0
LINE
  5
93
330
4A
100
AcDbEntity
  8
1
  6
Continuous
 62
     7
100
AcDbLine
 10
255.3388930010683
 20
154.679491992016
 30
0.0
 11
249.849999999999
 21
154.679491992016
 31
0.0
  0
LINE
  5
94
330
4A
100
AcDbEntity
  8
1
  6
Continuous
 62
     7
100
AcDbLine
 10
98.31650248468782
 20
162.6849632348043
 30
0.0
 11
85.35502108787205
 21
162.6849632348043
 31
0.0
  0
LINE
  5
95
330
4A
100
AcDbEntity
  8
1
  6
Continuous
 62
     7
100
AcDbLine
 10
79.83576178627993
 20
184.2768059282515
 30
0.0
 11
78.83576178627982
 21
183.2768059282514
 31
0.0
  0
LINE
  5
96
330
4A
100
AcDbEntity
  8
1
  6
Continuous
 62
     7
100
AcDbLine
 10
78.83576178627982
 20
183.2768059282514
 30
0.0
 11
78.83576178627993
 21
169.6905167342699
 31
0.0
  0
LINE
  5
97
330
4A
100
AcDbEntity
  8
1
  6
Continuous
 62
     7
100
AcDbLine
 10
104.8357617862799
 20
169.6905167342702
 30
0.0
 11
104.8357617862801
 21
183.2768059282514
 31
0.0
  0
LINE
  5
98
330
4A
100
AcDbEntity
  8
1
  6
Continuous
 62
     7
100
AcDbLine
 10
104.8357617862801
 20
183.2768059282514
 30
0.0
 11
103.8357617862799
 21
184.2768059282515
 31
0.0
  0
LINE
  5
99
330
4A
100
AcDbEntity
  8
1
  6
PHANTOM
 62
     4
100
AcDbLine
 10
91.83576178627993
 20
194.684963234805
 30
0.0
 11
91.83576178627993
 21
144.1738562358747
 31
0.0
  0
LINE
  5
9A
330
4A
100
AcDbEntity
  8
1
  6
Continuous
 62
     7
100
AcDbLine
 10
78.83576178627993
 20
169.6905167342699
 30
0.0
 11
78.83576178627993
 21
154.6794097353397
 31
0.0
  0
LINE
  5
9B
330
4A
100
AcDbEntity
  8
1
  6
Continuous
 62
     7
100
AcDbLine
 10
78.83576178627993
 20
154.6794097353397
 30
0.0
 11
91.83576178627993
 21
147.1738562358748
 31
0.0
  0
LINE
  5
9C
330
4A
100
AcDbEntity
  8
1
  6
Continuous
 62
     7
100
AcDbLine
 10
91.83576178627993
 20
147.1738562358748
 30
0.0
 11
104.8357617862799
 21
154.67940973534
 31
0.0
  0
LINE
  5
9D
330
4A
100
AcDbEntity
  8
1
  6
Continuous
 62
     7
100
AcDbLine
 10
104.8357617862799
 20
154.67940973534
 30
0.0
 11
104.8357617862799
 21
169.6905167342702
 31
0.0
  0
LINE
  5
9E
330
4A
100
AcDbEntity
  8
1
  6
Continuous
 62
     2
100
AcDbLine
 10
80.64876178627992
 20
185.684963234805
 30
0.0
 11
80.64876178627992
 21
187.6146545229893
 31
0.0
  0
LINE
  5
9F
330
4A
100
AcDbEntity
  8
1
  6
Continuous
 62
     7
100
AcDbLine
 10
79.83576178627993
 20
185.684963234805
 30
0.0
 11
80.64876178627992
 21
185.684963234805
 31
0.0
  0
LINE
  5
A0
330
4A
100
AcDbEntity
  8
1
  6
Continuous
 62
     7
100
AcDbLine
 10
79.83576178627993
 20
185.684963234805
 30
0.0
 11
79.83576178627993
 21
184.2768059282515
 31
0.0
  0
LINE
  5
A1
330
4A
100
AcDbEntity
  8
1
  6
Continuous
 62
     2
100
AcDbLine
 10
80.64876178627992
 20
185.684963234805
 30
0.0
 11
79.83576178627993
 21
184.2768059282515
 31
0.0
  0
LINE
  5
A2
330
4A
100
AcDbEntity
  8
1
  6
Continuous
 62
     2
100
AcDbLine
 10
103.8357617862799
 20
184.2768059282515
 30
0.0
 11
103.0227617862799
 21
185.684963234805
 31
0.0
  0
LINE
  5
A3
330
4A
100
AcDbEntity
  8
1
  6
Continuous
 62
     7
100
AcDbLine
 10
103.8357617862799
 20
184.2768059282515
 30
0.0
 11
103.8357617862799
 21
185.684963234805
 31
0.0
  0
LINE
  5
A4
330
4A
100
AcDbEntity
  8
1
  6
Continuous
 62
     7
100
AcDbLine
 10
103.0227617862799
 20
185.684963234805
 30
0.0
 11
103.8357617862799
 21
185.684963234805
 31
0.0
  0
LINE
  5
A5
330
4A
100
AcDbEntity
  8
1
  6
Continuous
 62
     7
100
AcDbLine
 10
103.8357617862799
 20
185.684963234805
 30
0.0
 11
103.8357617862799
 21
187.6146545229893
 31
0.0
  0
LINE
  5
A6
330
4A
100
AcDbEntity
  8
1
  6
Continuous
 62
     7
100
AcDbLine
 10
103.0227617862799
 20
185.684963234805
 30
0.0
 11
80.64876178627992
 21
185.684963234805
 31
0.0
  0
LINE
  5
A7
330
4A
100
AcDbEntity
  8
1
  6
PHANTOM
 62
     4
100
AcDbLine
 10
75.83576178627993
 20
162.184963234805
 30
0.0
 11
107.8357617862799
 21
162.1849632348036
 31
0.0
  0
LINE
  5
A8
330
4A
100
AcDbEntity
  8
1
  6
Continuous
 62
     7
100
AcDbLine
 10
78.83576178627982
 20
183.2768059282514
 30
0.0
 11
104.8357617862801
 21
183.2768059282514
 31
0.0
  0
LINE
  5
A9
330
4A
100
AcDbEntity
  8
1
  6
Continuous
 62
     7
100
AcDbLine
 10
103.8357617862799
 20
184.2768059282515
 30
0.0
 11
79.83576178627993
 21
184.2768059282515
 31
0.0
  0
LINE
  5
AA
330
4A
100
AcDbEntity
  8
1
  6
Continuous
 62
     2
100
AcDbLine
 10
103.0227617862799
 20
187.6146545229893
 30
0.0
 11
103.0227617862799
 21
185.684963234805
 31
0.0
  0
LINE
  5
AB
330
4A
100
AcDbEntity
  8
1
  6
Continuous
 62
     7
100
AcDbLine
 10
79.83576178627993
 20
187.6146545229893
 30
0.0
 11
79.83576178627993
 21
185.684963234805
 31
0.0
  0
LINE
  5
AC
330
4A
100
AcDbEntity
  8
1
  6
Continuous
 62
     7
100
AcDbLine
 10
101.1737617862801
 20
252.1849632348045
 30
0.0
 11
95.15238657663525
 21
252.1849632348043
 31
0.0
  0
LINE
  5
AD
330
4A
100
AcDbEntity
  8
1
  6
Continuous
 62
     2
100
AcDbLine
 10
101.1737617862801
 20
261.1849632348045
 30
0.0
 11
101.1737617862801
 21
253.3469632348046
 31
0.0
  0
LINE
  5
AE
330
4A
100
AcDbEntity
  8
1
  6
Continuous
 62
     7
100
AcDbLine
 10
102.3357617862801
 20
261.1849632348045
 30
0.0
 11
99.11921563846494
 21
261.1849632348043
 31
0.0
  0
LINE
  5
AF
330
4A
100
AcDbEntity
  8
1
  6
Continuous
 62
     2
100
AcDbLine
 10
102.3357617862801
 20
263.1976062731995
 30
0.0
 11
101.1737617862801
 21
261.1849632348045
 31
0.0
  0
LINE
  5
B0
330
4A
100
AcDbEntity
  8
1
  6
Continuous
 62
     2
100
AcDbLine
 10
101.1737617862801
 20
261.1849632348045
 30
0.0
 11
101.1737617862801
 21
253.3469632348046
 31
0.0
  0
LINE
  5
B1
330
4A
100
AcDbEntity
  8
1
  6
Continuous
 62
     2
100
AcDbLine
 10
82.49776178628011
 20
261.1849632348045
 30
0.0
 11
81.33576178628007
 21
263.1976062731995
 31
0.0
  0
LINE
  5
B2
330
4A
100
AcDbEntity
  8
1
  6
Continuous
 62
     7
100
AcDbLine
 10
81.33576178628007
 20
261.1849632348045
 30
0.0
 11
81.33576178628007
 21
263.1976062731995
 31
0.0
  0
LINE
  5
B3
330
4A
100
AcDbEntity
  8
1
  6
Continuous
 62
     7
100
AcDbLine
 10
101.1737617862801
 20
252.1849632348045
 30
0.0
 11
102.3357617862801
 21
253.3469632348046
 31
0.0
  0
LINE
  5
B4
330
4A
100
AcDbEntity
  8
1
  6
Continuous
 62
     7
100
AcDbLine
 10
102.3357617862801
 20
253.3469632348046
 30
0.0
 11
102.3357617862801
 21
261.1849632348045
 31
0.0
  0
LINE
  5
B5
330
4A
100
AcDbEntity
  8
1
  6
Continuous
 62
     7
100
AcDbLine
 10
82.49776178628011
 20
252.1849632348045
 30
0.0
 11
81.33576178628007
 21
253.3469632348046
 31
0.0
  0
LINE
  5
B6
330
4A
100
AcDbEntity
  8
1
  6
Continuous
 62
     7
100
AcDbLine
 10
81.33576178628007
 20
253.3469632348046
 30
0.0
 11
81.33576178628007
 21
261.1849632348045
 31
0.0
  0
LINE
  5
B7
330
4A
100
AcDbEntity
  8
1
  6
Continuous
 62
     2
100
AcDbLine
 10
82.49776178628011
 20
252.1849632348045
 30
0.0
 11
82.49776178628011
 21
261.1849632348045
 31
0.0
  0
LINE
  5
B8
330
4A
100
AcDbEntity
  8
1
  6
Continuous
 62
     2
100
AcDbLine
 10
101.1737617862801
 20
253.3469632348046
 30
0.0
 11
101.1737617862801
 21
252.1849632348045
 31
0.0
  0
LINE
  5
B9
330
4A
100
AcDbEntity
  8
1
  6
Continuous
 62
     2
100
AcDbLine
 10
101.1737617862801
 20
253.3469632348046
 30
0.0
 11
101.1737617862801
 21
252.1849632348045
 31
0.0
  0
LINE
  5
BA
330
4A
100
AcDbEntity
  8
1
  6
Continuous
 62
     7
100
AcDbLine
 10
102.3357617862801
 20
261.1849632348045
 30
0.0
 11
102.3357617862801
 21
263.1976062731995
 31
0.0
  0
LINE
  5
BB
330
4A
100
AcDbEntity
  8
1
  6
Continuous
 62
     7
100
AcDbLine
 10
91.83576178628228
 20
314.6738562358739
 30
0.0
 11
91.83576178628228
 21
309.1849632348046
 31
0.0
  0
LINE
  5
BC
330
4A
100
AcDbEntity
  8
1
  6
Continuous
 62
     7
100
AcDbLine
 10
104.83576178628
 20
309.1849632348046
 30
0.0
 11
104.83576178628
 21
314.6738562358739
 31
0.0
  0
LINE
  5
BD
330
4A
100
AcDbEntity
  8
1
  6
Continuous
 62
     7
100
AcDbLine
 10
104.8357617862801
 20
314.673856235877
 30
0.0
 11
102.3246547873524
 21
317.1849632348046
 31
0.0
  0
LINE
  5
BE
330
4A
100
AcDbEntity
  8
1
  6
Continuous
 62
     7
100
AcDbLine
 10
81.34686878520773
 20
317.1849632348046
 30
0.0
 11
78.8357617862801
 21
314.673856235877
 31
0.0
  0
LINE
  5
BF
330
4A
100
AcDbEntity
  8
1
  6
Continuous
 62
     7
100
AcDbLine
 10
78.83576178628012
 20
314.6738562358739
 30
0.0
 11
78.83576178628012
 21
309.1849632348046
 31
0.0
  0
LINE
  5
C0
330
4A
100
AcDbEntity
  8
1
  6
Continuous
 62
     7
100
AcDbLine
 10
91.83576178627787
 20
309.1849632348046
 30
0.0
 11
91.83576178627787
 21
314.6738562358739
 31
0.0
  0
LINE
  5
C1
330
4A
100
AcDbEntity
  8
1
  6
Continuous
 62
     7
100
AcDbLine
 10
81.34686878520773
 20
317.1849632348046
 30
0.0
 11
102.3246547873524
 21
317.1849632348046
 31
0.0
  0
LINE
  5
C2
330
4A
100
AcDbEntity
  8
1
  6
Continuous
 62
     7
100
AcDbLine
 10
104.83576178628
 20
309.1849632348046
 30
0.0
 11
104.83576178628
 21
298.5786896296475
 31
0.0
  0
LINE
  5
C3
330
4A
100
AcDbEntity
  8
1
  6
Continuous
 62
     7
100
AcDbLine
 10
78.83576178627982
 20
298.5786896296475
 30
0.0
 11
78.83576178628012
 21
309.1849632348046
 31
0.0
  0
LINE
  5
C4
330
4A
100
AcDbEntity
  8
1
  6
Continuous
 62
     7
100
AcDbLine
 10
78.83576178628
 20
275.0594363750604
 30
0.0
 11
78.83576178627982
 21
276.9606717249857
 31
0.0
  0
LINE
  5
C5
330
4A
100
AcDbEntity
  8
1
  6
Continuous
 62
     7
100
AcDbLine
 10
80.83576178628006
 20
263.6976062731996
 30
0.0
 11
81.33576178628007
 21
263.1976062731995
 31
0.0
  0
LINE
  5
C6
330
4A
100
AcDbEntity
  8
1
  6
Continuous
 62
     7
100
AcDbLine
 10
84.55230793409494
 20
261.1849632348045
 30
0.0
 11
81.33576178628007
 21
261.1849632348045
 31
0.0
  0
LINE
  5
C7
330
4A
100
AcDbEntity
  8
1
  6
Continuous
 62
     7
100
AcDbLine
 10
88.51913699592419
 20
252.1849632348045
 30
0.0
 11
82.49776178628011
 21
252.1849632348045
 31
0.0
  0
LINE
  5
C8
330
4A
100
AcDbEntity
  8
1
  6
Continuous
 62
     7
100
AcDbLine
 10
80.83576178628006
 20
263.6976062731996
 30
0.0
 11
80.83576178628005
 21
266.1976062731995
 31
0.0
  0
LINE
  5
C9
330
4A
100
AcDbEntity
  8
1
  6
Continuous
 62
     7
100
AcDbLine
 10
102.8357617862801
 20
266.1976062731995
 30
0.0
 11
102.8357617862801
 21
263.6976062731996
 31
0.0
  0
LINE
  5
CA
330
4A
100
AcDbEntity
  8
1
  6
Continuous
 62
     7
100
AcDbLine
 10
104.8357617862803
 20
276.9606717249857
 30
0.0
 11
104.8357617862801
 21
275.0594363750604
 31
0.0
  0
LINE
  5
CB
330
4A
100
AcDbEntity
  8
1
  6
Continuous
 62
     7
100
AcDbLine
 10
102.3357617862801
 20
263.1976062731995
 30
0.0
 11
102.8357617862801
 21
263.6976062731996
 31
0.0
  0
LINE
  5
CC
330
4A
100
AcDbEntity
  8
1
  6
Continuous
 62
     2
100
AcDbLine
 10
234.0369999999989
 20
187.1147367796658
 30
0.0
 11
234.036999999999
 21
185.6849632348046
 31
0.0
  0
LINE
  5
CD
330
4A
100
AcDbEntity
  8
1
  6
Continuous
 62
     7
100
AcDbLine
 10
210.8499999999989
 20
187.1147367796657
 30
0.0
 11
210.8499999999989
 21
185.6849632348046
 31
0.0
  0
ARC
  5
CE
330
4A
100
AcDbEntity
  8
1
  6
Continuous
 62
     7
100
AcDbCircle
 10
205.3499999999989
 20
119.1224632348042
 30
0.0
 40
32.06250000000036
100
AcDbArc
 50
76.96039649668599
 51
91.73830894651098
  0
ARC
  5
CF
330
4A
100
AcDbEntity
  8
1
  6
Continuous
 62
     7
100
AcDbCircle
 10
222.8499999999989
 20
194.6849632348046
 30
0.0
 40
45.50000000000002
100
AcDbArc
 50
256.9603964966861
 51
270.0
  0
ARC
  5
D0
330
4A
100
AcDbEntity
  8
1
  6
Continuous
 62
     7
100
AcDbCircle
 10
205.3499999999989
 20
177.6849632348046
 30
0.0
 40
4.5
100
AcDbArc
 50
270.0
 51
0.0
  0
ARC
  5
D1
330
4A
100
AcDbEntity
  8
1
  6
Continuous
 62
     7
100
AcDbCircle
 10
257.7388888888876
 20
162.185045491481
 30
0.0
 40
10.88888888888865
100
AcDbArc
 50
136.4264214034753
 51
223.5735785965242
  0
ARC
  5
D2
330
4A
100
AcDbEntity
  8
1
  6
Continuous
 62
     7
100
AcDbCircle
 10
250.6972222222212
 20
173.4433757406788
 30
0.0
 40
3.847222222221539
100
AcDbArc
 50
148.2483572488915
 51
257.2782443498858
  0
ARC
  5
D3
330
4A
100
AcDbEntity
  8
1
  6
Continuous
 62
     7
100
AcDbCircle
 10
245.3776139726241
 20
162.185045491481
 30
0.0
 40
12.47238602737477
100
AcDbArc
 50
323.0029667834863
 51
36.99703321651426
  0
ARC
  5
D4
330
4A
100
AcDbEntity
  8
1
  6
Continuous
 62
     7
100
AcDbCircle
 10
253.7902383685562
 20
173.4433757406787
 30
0.0
 40
4.059761631442747
100
AcDbArc
 50
292.4244219901574
 51
22.42442199016718
  0
ARC
  5
D5
330
4A
100
AcDbEntity
  8
1
  6
Continuous
 62
     7
100
AcDbCircle
 10
253.7902383685562
 20
150.9267152422837
 30
0.0
 40
4.059761631442417
100
AcDbArc
 50
337.5755780098328
 51
67.57557800984102
  0
ARC
  5
D6
330
4A
100
AcDbEntity
  8
1
  6
Continuous
 62
     7
100
AcDbCircle
 10
250.6972222222212
 20
150.9267152422837
 30
0.0
 40
3.847222222221962
100
AcDbArc
 50
102.7217556501154
 51
211.75164275111
  0
ARC
  5
D7
330
4A
100
AcDbEntity
  8
1
  6
Continuous
 62
     7
100
AcDbCircle
 10
98.33576178628006
 20
307.5167853404263
 30
0.0
 40
9.668177894642973
100
AcDbArc
 50
47.75449847681809
 51
132.2455015231821
  0
ARC
  5
D8
330
4A
100
AcDbEntity
  8
1
  6
Continuous
 62
     7
100
AcDbCircle
 10
98.33576178628006
 20
314.7266299023557
 30
0.0
 40
8.54166666724043
100
AcDbArc
 50
220.4497188668505
 51
319.5502811331493
  0
ARC
  5
D9
330
4A
100
AcDbEntity
  8
1
  6
Continuous
 62
     7
100
AcDbCircle
 10
85.33576178628009
 20
314.7266299023557
 30
0.0
 40
8.541666667240419
100
AcDbArc
 50
220.4497188668506
 51
319.5502811331495
  0
ARC
  5
DA
330
4A
100
AcDbEntity
  8
1
  6
Continuous
 62
     7
100
AcDbCircle
 10
85.33576178628009
 20
307.5167853404263
 30
0.0
 40
9.668177894643001
100
AcDbArc
 50
47.7544984768179
 51
132.245501523182
  0
ARC
  5
DB
330
4A
100
AcDbEntity
  8
1
  6
Continuous
 62
     7
100
AcDbCircle
 10
60.96004796353149
 20
263.9713987275681
 30
0.0
 40
20.0000000000006
100
AcDbArc
 50
6.39085858319151
 51
21.69102774832399
  0
ARC
  5
DC
330
4A
100
AcDbEntity
  8
1
  6
Continuous
 62
     7
100
AcDbCircle
 10
122.7114756090286
 20
263.9713987275681
 30
0.0
 40
19.99999999999993
100
AcDbArc
 50
158.3089722516759
 51
173.6091414168085
  0
CIRCLE
  5
DD
330
4A
100
AcDbEntity
  8
1
  6
Continuous
 62
     7
100
AcDbCircle
 10
91.83576178627993
 20
162.184963234805
 30
0.0
 40
6.500000000000043
  0
CIRCLE
  5
DE
330
4A
100
AcDbEntity
  8
1
  6
Continuous
 62
     2
100
AcDbCircle
 10
91.83576178627993
 20
162.184963234805
 30
0.0
 40
9.278119354839063
  0
CIRCLE
  5
DF
330
4A
100
AcDbEntity
  8
1
  6
Continuous
 62
     7
100
AcDbCircle
 10
91.83576178627993
 20
162.184963234805
 30
0.0
 40
10.5
  0
ARC
  5
E0
330
4A
100
AcDbEntity
  8
1
  6
Continuous
 62
     7
100
AcDbCircle
 10
245.767825189204
 20
144.1849632348045
 30
0.0
 40
5.000000000000161
100
AcDbArc
 50
44.99999999999586
 51
90.0
  0
ARC
  5
E1
330
4A
100
AcDbEntity
  8
1
  6
Continuous
 62
     7
100
AcDbCircle
 10
245.767825189204
 20
180.1849632348047
 30
0.0
 40
5.0
100
AcDbArc
 50
270.0
 51
315.0000000000039
  0
ARC
  5
E2
330
4A
100
AcDbEntity
  8
1
  6
Continuous
 62
     7
100
AcDbCircle
 10
240.8499999999991
 20
180.1849632348047
 30
0.0
 40
5.0
100
AcDbArc
 50
180.0
 51
270.0
  0
ARC
  5
E3
330
4A
100
AcDbEntity
  8
1
  6
Continuous
 62
     7
100
AcDbCircle
 10
88.83576178628
 20
275.0594363750614
 30
0.0
 40
10.0
100
AcDbArc
 50
180.0000000000058
 51
201.6910277483244
  0
ARC
  5
E4
330
4A
100
AcDbEntity
  8
1
  6
Continuous
 62
     7
100
AcDbCircle
 10
94.83576178628012
 20
275.0594363750614
 30
0.0
 40
10.00000000000007
100
AcDbArc
 50
338.3089722516756
 51
359.9999999999941
  0
ENDBLK
  5
4C
330
4A
100
AcDbEntity
  8
0
100
AcDbBlockEnd
  0
BLOCK
  5
4E
330
4D
100
AcDbEntity
  8
0
100
AcDbBlockBegin
  2
37-1-13
 70
     0
 10
416.2185127454422
 20
160.2710041279541
 30
0.0
  3
37-1-13
  1

  0
LINE
  5
E5
330
4D
100
AcDbEntity
  8
1
  6
Continuous
 62
     7
100
AcDbLine
 10
228.8499999999989
 20
201.1147367796657
 30
0.0
 11
216.849999999999
 21
201.1147367796657
 31
0.0
  0
LINE
  5
E6
330
4D
100
AcDbEntity
  8
1
  6
Continuous
 62
     7
100
AcDbLine
 10
209.7792857857276
 20
187.1147367796657
 30
0.0
 11
235.9207142142704
 21
187.1147367796658
 31
0.0
  0
LINE
  5
E7
330
4D
100
AcDbEntity
  8
1
  6
Continuous
 62
     7
100
AcDbLine
 10
97.83576178627996
 20
201.6146545229892
 30
0.0
 11
85.83576178627997
 21
201.6146545229892
 31
0.0
  0
LINE
  5
E8
330
4D
100
AcDbEntity
  8
1
  6
Continuous
 62
     7
100
AcDbLine
 10
104.83576178628
 20
194.6853687372608
 30
0.0
 11
104.83576178628
 21
187.6146545229893
 31
0.0
  0
LINE
  5
E9
330
4D
100
AcDbEntity
  8
1
  6
Continuous
 62
     7
100
AcDbLine
 10
104.83576178628
 20
187.6146545229893
 30
0.0
 11
91.83576178627997
 21
187.6146545229893
 31
0.0
  0
LINE
  5
EA
330
4D
100
AcDbEntity
  8
1
  6
Continuous
 62
     7
100
AcDbLine
 10
91.83576178627997
 20
187.6146545229893
 30
0.0
 11
78.83576178627997
 21
187.6146545229893
 31
0.0
  0
LINE
  5
EB
330
4D
100
AcDbEntity
  8
1
  6
Continuous
 62
     7
100
AcDbLine
 10
78.83576178627997
 20
194.6853687372608
 30
0.0
 11
78.83576178627997
 21
187.6146545229893
 31
0.0
  0
LINE
  5
EC
330
4D
100
AcDbEntity
  8
1
  6
Continuous
 62
     7
100
AcDbLine
 10
78.83576178627987
 20
275.7623469454717
 30
0.0
 11
78.83576178627987
 21
276.9606717249853
 31
0.0
  0
LINE
  5
ED
330
4D
100
AcDbEntity
  8
1
  6
Continuous
 62
     7
100
AcDbLine
 10
80.81139262200126
 20
273.538778740516
 30
0.0
 11
79.77361292095817
 21
274.1379411302729
 31
0.0
  0
LINE
  5
EE
330
4D
100
AcDbEntity
  8
1
  6
Continuous
 62
     7
100
AcDbLine
 10
89.86013095055857
 20
296.0554392389115
 30
0.0
 11
90.89791065160158
 21
296.6546016286683
 31
0.0
  0
LINE
  5
EF
330
4D
100
AcDbEntity
  8
1
  6
Continuous
 62
     7
100
AcDbLine
 10
92.77361292095817
 20
296.6546016286683
 30
0.0
 11
93.81139262200126
 21
296.0554392389115
 31
0.0
  0
LINE
  5
F0
330
4D
100
AcDbEntity
  8
1
  6
Continuous
 62
     7
100
AcDbLine
 10
103.8979106516016
 20
274.1379411302729
 30
0.0
 11
102.8601309505585
 21
273.538778740516
 31
0.0
  0
LINE
  5
F1
330
4D
100
AcDbEntity
  8
1
  6
Continuous
 62
     7
100
AcDbLine
 10
104.8357617862799
 20
276.9606717249852
 30
0.0
 11
104.8357617862799
 21
275.7623469454717
 31
0.0
  0
ARC
  5
F2
330
4D
100
AcDbEntity
  8
1
  6
Continuous
 62
     7
100
AcDbCircle
 10
196.9435447948841
 20
214.5211919847808
 30
0.0
 40
24.00000000000017
100
AcDbArc
 50
303.9591925000977
 51
326.040807499902
  0
ARC
  5
F3
330
4D
100
AcDbEntity
  8
1
  6
Continuous
 62
     7
100
AcDbCircle
 10
248.7564552051138
 20
214.5211919847806
 30
0.0
 40
23.99999999999999
100
AcDbArc
 50
213.9591925000974
 51
236.0408074999021
  0
ARC
  5
F4
330
4D
100
AcDbEntity
  8
1
  6
Continuous
 62
     7
100
AcDbCircle
 10
213.349999999999
 20
190.6147367796657
 30
0.0
 40
4.999999999999972
100
AcDbArc
 50
126.8698976458414
 51
224.427004000806
  0
ARC
  5
F5
330
4D
100
AcDbEntity
  8
1
  6
Continuous
 62
     7
100
AcDbCircle
 10
232.349999999999
 20
190.6147367796657
 30
0.0
 40
4.999999999999896
100
AcDbArc
 50
315.572995999195
 51
53.13010235415858
  0
ARC
  5
F6
330
4D
100
AcDbEntity
  8
1
  6
Continuous
 62
     7
100
AcDbCircle
 10
65.92930658116506
 20
215.0211097281043
 30
0.0
 40
24.00000000000012
100
AcDbArc
 50
303.9591925000975
 51
326.0408074999021
  0
ARC
  5
F7
330
4D
100
AcDbEntity
  8
1
  6
Continuous
 62
     7
100
AcDbCircle
 10
117.7422169913949
 20
215.0211097281043
 30
0.0
 40
24.00000000000011
100
AcDbArc
 50
213.9591925000978
 51
236.0408074999025
  0
ARC
  5
F8
330
4D
100
AcDbEntity
  8
1
  6
Continuous
 62
     7
100
AcDbCircle
 10
82.33576178627997
 20
191.1146545229893
 30
0.0
 40
4.99999999999994
100
AcDbArc
 50
126.8698976458431
 51
134.4270040008051
  0
ARC
  5
F9
330
4D
100
AcDbEntity
  8
1
  6
Continuous
 62
     7
100
AcDbCircle
 10
91.83576178627997
 20
282.1849632348045
 30
0.0
 40
14.50000000000021
100
AcDbArc
 50
206.2915552747301
 51
213.7084447252711
  0
ARC
  5
FA
330
4D
100
AcDbEntity
  8
1
  6
Continuous
 62
     7
100
AcDbCircle
 10
91.83576178627997
 20
282.1849632348045
 30
0.0
 40
14.49999999999966
100
AcDbArc
 50
90.0000000000004
 51
93.70844472527126
  0
ARC
  5
FB
330
4D
100
AcDbEntity
  8
1
  6
Continuous
 62
     7
100
AcDbCircle
 10
91.83576178627997
 20
282.1849632348045
 30
0.0
 40
14.49999999999977
100
AcDbArc
 50
86.29155527472953
 51
90.0000000000004
  0
ARC
  5
FC
330
4D
100
AcDbEntity
  8
1
  6
Continuous
 62
     7
100
AcDbCircle
 10
91.83576178627997
 20
282.1849632348045
 30
0.0
 40
14.50000000000001
100
AcDbArc
 50
326.2915552747285
 51
333.7084447252695
  0
SPLINE
  5
FD
330
4D
100
AcDbEntity
  8
1
  6
Continuous
 62
     7
100
AcDbSpline
210
0.0
220
0.0
230
1.0
 70
    11
 71
     3
 72
    79
 73
    75
 74
    73
 42
0.000000001
 43
0.0000000001
 44
0.00000001
 40
0.0
 40
0.0
 40
0.0
 40
0.0
 40
0.3105305852300407
 40
0.6211096995127543
 40
0.9446853825174706
 40
1.268350829332523
 40
1.615177937220507
 40
1.962073587500615
 40
2.337982250496419
 40
2.713934410282973
 40
3.120408255190355
 40
3.526909439089162
 40
3.96181626405158
 40
4.396740380766675
 40
4.85520200346045
 40
5.313674294823768
 40
5.788867662508624
 40
6.264066850589945
 40
6.747928777579645
 40
7.231792556800823
 40
7.715656336020711
 40
8.199518263006135
 40
8.674717451079374
 40
9.149910818750483
 40
9.608383110092559
 40
10.06684473275363
 40
10.50176884942254
 40
10.93667567431773
 40
11.34317685812703
 40
11.74965070290933
 40
12.12560286253655
 40
12.50151152531583
 40
12.84840717532568
 40
13.19523428284655
 40
13.51889972917784
 40
13.84247541139052
 40
14.15305452357889
 40
14.46358511619976
 40
14.77411570882081
 40
15.08469482100932
 40
15.40827050322195
 40
15.73193594955319
 40
16.07876305707403
 40
16.4256587070839
 40
16.8015673698631
 40
17.17751952949027
 40
17.58399337427264
 40
17.99049455808198
 40
18.42540138297714
 40
18.86032549964604
 40
19.31878712230712
 40
19.77725941364922
 40
20.25245278132033
 40
20.72765196939356
 40
21.21151389637898
 40
21.69537767559887
 40
22.17924145482004
 40
22.66310338180974
 40
23.13830256989104
 40
23.61349593757592
 40
24.07196822893927
 40
24.53042985163303
 40
24.9653539683481
 40
25.40026079331051
 40
25.80676197720937
 40
26.21323582211681
 40
26.58918798190328
 40
26.96509664489896
 40
27.31199229517909
 40
27.65881940306711
 40
27.98248484988209
 40
28.30606053288678
 40
28.61663964716967
 40
28.92717023239985
 40
28.92717023239985
 40
28.92717023239985
 40
28.92717023239985
 10
90.89791065160178
 20
191.1500116301251
 30
0.0
 10
90.893694600985
 20
191.2535966619432
 30
0.0
 10
90.88526184954564
 20
191.4607829141196
 30
0.0
 10
90.81853391640045
 20
191.7700025095469
 30
0.0
 10
90.71282653554172
 20
192.0720076568797
 30
0.0
 10
90.56430366744287
 20
192.3691678461987
 30
0.0
 10
90.37783593219982
 20
192.6533145119566
 30
0.0
 10
90.15066487678308
 20
192.9289140974062
 30
0.0
 10
89.8902314187856
 20
193.1872792175059
 30
0.0
 10
89.59182530783187
 20
193.4330471951689
 30
0.0
 10
89.26531158845165
 20
193.6584798478602
 30
0.0
 10
88.90508473021983
 20
193.8672255772919
 30
0.0
 10
88.52207152299528
 20
194.0532943716272
 30
0.0
 10
88.11112176525232
 20
194.2189433213237
 30
0.0
 10
87.68287245759731
 20
194.3601577420441
 30
0.0
 10
87.23373219560646
 20
194.4779038641641
 30
0.0
 10
86.77294552479054
 20
194.5699749463782
 30
0.0
 10
86.29924665598944
 20
194.6364365199267
 30
0.0
 10
85.81968783715556
 20
194.676480173373
 30
0.0
 10
85.3357617961637
 20
194.6898130254197
 30
0.0
 10
84.85183575517632
 20
194.6764801734179
 30
0.0
 10
84.3722769363302
 20
194.6364365200209
 30
0.0
 10
83.89857806757611
 20
194.569974946531
 30
0.0
 10
83.43779139659112
 20
194.4779038643889
 30
0.0
 10
82.98865113521212
 20
194.3601577423596
 30
0.0
 10
82.56040182532793
 20
194.2189433217523
 30
0.0
 10
82.14945207548654
 20
194.0532943721979
 30
0.0
 10
81.76643883971697
 20
193.8672255780355
 30
0.0
 10
81.40621208133592
 20
193.6584798488174
 30
0.0
 10
81.07969800383522
 20
193.4330471963792
 30
0.0
 10
80.78129313368706
 20
193.1872792190235
 30
0.0
 10
80.52085524000657
 20
192.9289140992824
 30
0.0
 10
80.29369952226347
 20
192.6533145142673
 30
0.0
 10
80.10717679602861
 20
192.3691678490281
 30
0.0
 10
79.95884610716097
 20
192.0720076604136
 30
0.0
 10
79.85244174779803
 20
191.7700025143283
 30
0.0
 10
79.78821562205351
 20
191.460782917858
 30
0.0
 10
79.76631215577387
 20
191.150011630125
 30
0.0
 10
79.78821562205346
 20
190.8392403423921
 30
0.0
 10
79.852441747798
 20
190.5300207459217
 30
0.0
 10
79.95884610716098
 20
190.2280155998364
 30
0.0
 10
80.10717679602861
 20
189.9308554112218
 30
0.0
 10
80.29369952226347
 20
189.6467087459828
 30
0.0
 10
80.52085524000655
 20
189.3711091609676
 30
0.0
 10
80.78129313368706
 20
189.1127440412267
 30
0.0
 10
81.07969800383532
 20
188.866976063871
 30
0.0
 10
81.40621208133587
 20
188.6415434114326
 30
0.0
 10
81.7664388397169
 20
188.4327976822144
 30
0.0
 10
82.14945207548658
 20
188.2467288880522
 30
0.0
 10
82.56040182532792
 20
188.0810799384979
 30
0.0
 10
82.98865113521215
 20
187.9398655178905
 30
0.0
 10
83.43779139659108
 20
187.8221193958611
 30
0.0
 10
83.89857806757614
 20
187.730048313719
 30
0.0
 10
84.37227693633018
 20
187.6635867402291
 30
0.0
 10
84.85183575517632
 20
187.6235430868323
 30
0.0
 10
85.33576179616367
 20
187.6102102348304
 30
0.0
 10
85.81968783715556
 20
187.6235430868771
 30
0.0
 10
86.29924665598944
 20
187.6635867403233
 30
0.0
 10
86.77294552479053
 20
187.7300483138717
 30
0.0
 10
87.23373219560646
 20
187.8221193960859
 30
0.0
 10
87.68287245759731
 20
187.9398655182061
 30
0.0
 10
88.1111217652523
 20
188.0810799389263
 30
0.0
 10
88.52207152299528
 20
188.2467288886228
 30
0.0
 10
88.90508473021983
 20
188.4327976829582
 30
0.0
 10
89.26531158845171
 20
188.6415434123898
 30
0.0
 10
89.59182530783181
 20
188.8669760650814
 30
0.0
 10
89.89023141878555
 20
189.1127440427443
 30
0.0
 10
90.150664876783
 20
189.3711091628439
 30
0.0
 10
90.37783593219984
 20
189.6467087482933
 30
0.0
 10
90.56430366744281
 20
189.9308554140513
 30
0.0
 10
90.71282653554175
 20
190.2280156033703
 30
0.0
 10
90.81853391640044
 20
190.530020750703
 30
0.0
 10
90.88526184954571
 20
190.8392403461304
 30
0.0
 10
90.89369460098503
 20
191.046426598307
 30
0.0
 10
90.89791065160178
 20
191.1500116301251
 30
0.0
 11
90.89791065160178
 21
191.1500116301251
 31
0.0
 11
90.87640403938842
 21
191.4597965791997
 31
0.0
 11
90.81340911225688
 21
191.7639199491809
 31
0.0
 11
90.70652002997807
 21
192.0693310594811
 31
0.0
 11
90.56247203073558
 21
192.359174974615
 31
0.0
 11
90.37280234670953
 21
192.6495444867025
 31
0.0
 11
90.15272400327947
 21
192.9176901836929
 31
0.0
 11
89.88637180374973
 21
193.1829519951592
 31
0.0
 11
89.59661501636027
 21
193.4224953744092
 31
0.0
 11
89.26246537392794
 21
193.6539365181231
 31
0.0
 11
88.91104216014087
 21
193.8582522964875
 31
0.0
 11
88.52005595232596
 21
194.0487089363644
 31
0.0
 11
88.11683621894088
 21
194.2117206963545
 31
0.0
 11
87.68153644221705
 21
194.3555996866856
 31
0.0
 11
87.23812873839607
 21
194.4721606155434
 31
0.0
 11
86.77218403435438
 21
194.5654572900068
 31
0.0
 11
86.30161880065528
 21
194.6316587188991
 31
0.0
 11
85.81944052249203
 21
194.6719882671168
 31
0.0
 11
85.33576178627997
 21
194.6853687372608
 31
0.0
 11
84.8520830500679
 21
194.6719882671168
 31
0.0
 11
84.36990477190467
 21
194.6316587188991
 31
0.0
 11
83.89933953820557
 21
194.5654572900068
 31
0.0
 11
83.43339483416388
 21
194.4721606155434
 31
0.0
 11
82.98998713034294
 21
194.3555996866855
 31
0.0
 11
82.55468735361917
 21
194.2117206963545
 31
0.0
 11
82.15146762023407
 21
194.0487089363645
 31
0.0
 11
81.76048141241917
 21
193.8582522964875
 31
0.0
 11
81.4090581986321
 21
193.6539365181231
 31
0.0
 11
81.07490855619977
 21
193.4224953744092
 31
0.0
 11
80.78515176881031
 21
193.1829519951592
 31
0.0
 11
80.51879956928057
 21
192.9176901836929
 31
0.0
 11
80.29872122585053
 21
192.6495444867025
 31
0.0
 11
80.10905154182447
 21
192.359174974615
 31
0.0
 11
79.96500354258191
 21
192.0693310594811
 31
0.0
 11
79.85811446030307
 21
191.7639199491809
 31
0.0
 11
79.79511953317159
 21
191.4597965791997
 31
0.0
 11
79.77361292095827
 21
191.1500116301251
 31
0.0
 11
79.79511953317156
 21
190.8402266810503
 31
0.0
 11
79.85811446030307
 21
190.536103311069
 31
0.0
 11
79.96500354258191
 21
190.2306922007689
 31
0.0
 11
80.10905154182447
 21
189.940848285635
 31
0.0
 11
80.29872122585051
 21
189.6504787735476
 31
0.0
 11
80.51879956928057
 21
189.3823330765571
 31
0.0
 11
80.78515176881032
 21
189.1170712650909
 31
0.0
 11
81.07490855619977
 21
188.877527885841
 31
0.0
 11
81.40905819863208
 21
188.6460867421269
 31
0.0
 11
81.76048141241917
 21
188.4417709637625
 31
0.0
 11
82.15146762023407
 21
188.2513143238856
 31
0.0
 11
82.55468735361917
 21
188.0883025638956
 31
0.0
 11
82.98998713034294
 21
187.9444235735646
 31
0.0
 11
83.43339483416388
 21
187.8278626447066
 31
0.0
 11
83.89933953820557
 21
187.7345659702432
 31
0.0
 11
84.36990477190467
 21
187.6683645413509
 31
0.0
 11
84.8520830500679
 21
187.6280349931333
 31
0.0
 11
85.33576178627997
 21
187.6146545229893
 31
0.0
 11
85.81944052249203
 21
187.6280349931333
 31
0.0
 11
86.30161880065528
 21
187.6683645413509
 31
0.0
 11
86.77218403435437
 21
187.7345659702432
 31
0.0
 11
87.23812873839607
 21
187.8278626447066
 31
0.0
 11
87.68153644221705
 21
187.9444235735646
 31
0.0
 11
88.11683621894088
 21
188.0883025638956
 31
0.0
 11
88.52005595232596
 21
188.2513143238856
 31
0.0
 11
88.91104216014087
 21
188.4417709637625
 31
0.0
 11
89.26246537392795
 21
188.646086742127
 31
0.0
 11
89.59661501636027
 21
188.877527885841
 31
0.0
 11
89.88637180374967
 21
189.1170712650909
 31
0.0
 11
90.15272400327937
 21
189.3823330765571
 31
0.0
 11
90.3728023467095
 21
189.6504787735475
 31
0.0
 11
90.56247203073558
 21
189.940848285635
 31
0.0
 11
90.70652002997807
 21
190.2306922007688
 31
0.0
 11
90.81340911225688
 21
190.536103311069
 31
0.0
 11
90.87640403938845
 21
190.8402266810503
 31
0.0
 11
90.89791065160178
 21
191.1500116301251
 31
0.0
  0
SPLINE
  5
FE
330
4D
100
AcDbEntity
  8
1
  6
Continuous
 62
     7
100
AcDbSpline
210
0.0
220
0.0
230
1.0
 70
    11
 71
     3
 72
    79
 73
    75
 74
    73
 42
0.000000001
 43
0.0000000001
 44
0.00000001
 40
0.0
 40
0.0
 40
0.0
 40
0.0
 40
0.3105305852300377
 40
0.6211096995127399
 40
0.9446853825174073
 40
1.268350829332549
 40
1.615177937220533
 40
1.96207358750064
 40
2.337982250496484
 40
2.713934410283002
 40
3.120408255190362
 40
3.526909439089181
 40
3.961816264051612
 40
4.396740380766706
 40
4.855202003460467
 40
5.313674294823785
 40
5.788867662508613
 40
6.264066850589878
 40
6.747928777579607
 40
7.231792556800841
 40
7.715656336020716
 40
8.199518263006155
 40
8.674717451079351
 40
9.149910818750445
 40
9.60838311009259
 40
10.06684473275369
 40
10.50176884942259
 40
10.93667567431778
 40
11.34317685812709
 40
11.74965070290939
 40
12.12560286253659
 40
12.50151152531589
 40
12.84840717532575
 40
13.19523428284661
 40
13.51889972917789
 40
13.84247541139058
 40
14.15305452357895
 40
14.46358511619983
 40
14.77411570882087
 40
15.08469482100938
 40
15.40827050322201
 40
15.73193594955325
 40
16.07876305707408
 40
16.42565870708397
 40
16.80156736986316
 40
17.17751952949033
 40
17.58399337427271
 40
17.99049455808205
 40
18.42540138297719
 40
18.8603254996461
 40
19.31878712230723
 40
19.77725941364937
 40
20.25245278132047
 40
20.72765196939366
 40
21.21151389637907
 40
21.69537767559896
 40
22.1792414548202
 40
22.66310338180992
 40
23.13830256989118
 40
23.61349593757602
 40
24.07196822893937
 40
24.53042985163311
 40
24.9653539683482
 40
25.40026079331061
 40
25.80676197720944
 40
26.21323582211689
 40
26.58918798190342
 40
26.96509664489912
 40
27.31199229517924
 40
27.65881940306721
 40
27.98248484988225
 40
28.30606053288691
 40
28.61663964716978
 40
28.92717023239996
 40
28.92717023239996
 40
28.92717023239996
 40
28.92717023239996
 10
92.77361292095817
 20
191.1500116301251
 30
0.0
 10
92.77782897157495
 20
191.2535966619433
 30
0.0
 10
92.78626172301425
 20
191.4607829141196
 30
0.0
 10
92.8529896561594
 20
191.7700025095469
 30
0.0
 10
92.95869703701817
 20
192.0720076568796
 30
0.0
 10
93.1072199051171
 20
192.3691678461986
 30
0.0
 10
93.2936876403601
 20
192.6533145119568
 30
0.0
 10
93.52085869577688
 20
192.9289140974061
 30
0.0
 10
93.78129215377429
 20
193.187279217506
 30
0.0
 10
94.07969826472808
 20
193.4330471951688
 30
0.0
 10
94.40621198410824
 20
193.6584798478603
 30
0.0
 10
94.76643884234015
 20
193.8672255772919
 30
0.0
 10
95.14945204956466
 20
194.0532943716272
 30
0.0
 10
95.56040180730761
 20
194.2189433213237
 30
0.0
 10
95.98865111496262
 20
194.3601577420441
 30
0.0
 10
96.43779137695347
 20
194.4779038641641
 30
0.0
 10
96.89857804776938
 20
194.5699749463783
 30
0.0
 10
97.37227691657043
 20
194.6364365199267
 30
0.0
 10
97.85183573540434
 20
194.676480173373
 30
0.0
 10
98.3357617763962
 20
194.6898130254197
 30
0.0
 10
98.81968781738361
 20
194.6764801734178
 30
0.0
 10
99.29924663622973
 20
194.636436520021
 30
0.0
 10
99.77294550498377
 20
194.569974946531
 30
0.0
 10
100.2337321759688
 20
194.4779038643888
 30
0.0
 10
100.6828724373478
 20
194.3601577423597
 30
0.0
 10
101.1111217472321
 20
194.2189433217522
 30
0.0
 10
101.5220714970734
 20
194.053294372198
 30
0.0
 10
101.905084732843
 20
193.8672255780355
 30
0.0
 10
102.2653114912241
 20
193.6584798488174
 30
0.0
 10
102.5918255687247
 20
193.4330471963793
 30
0.0
 10
102.890230438873
 20
193.1872792190234
 30
0.0
 10
103.1506683325534
 20
192.9289140992825
 30
0.0
 10
103.3778240502966
 20
192.6533145142673
 30
0.0
 10
103.5643467765314
 20
192.3691678490282
 30
0.0
 10
103.712677465399
 20
192.0720076604136
 30
0.0
 10
103.8190818247619
 20
191.7700025143283
 30
0.0
 10
103.8833079505065
 20
191.460782917858
 30
0.0
 10
103.9052114167861
 20
191.1500116301251
 30
0.0
 10
103.8833079505065
 20
190.8392403423921
 30
0.0
 10
103.819081824762
 20
190.5300207459216
 30
0.0
 10
103.712677465399
 20
190.2280155998364
 30
0.0
 10
103.5643467765314
 20
189.9308554112218
 30
0.0
 10
103.3778240502965
 20
189.6467087459828
 30
0.0
 10
103.1506683325535
 20
189.3711091609676
 30
0.0
 10
102.8902304388729
 20
189.1127440412267
 30
0.0
 10
102.5918255687247
 20
188.8669760638709
 30
0.0
 10
102.2653114912241
 20
188.6415434114326
 30
0.0
 10
101.9050847328431
 20
188.4327976822146
 30
0.0
 10
101.5220714970734
 20
188.2467288880521
 30
0.0
 10
101.1111217472321
 20
188.0810799384979
 30
0.0
 10
100.6828724373478
 20
187.9398655178904
 30
0.0
 10
100.2337321759688
 20
187.8221193958612
 30
0.0
 10
99.77294550498377
 20
187.730048313719
 30
0.0
 10
99.2992466362297
 20
187.6635867402291
 30
0.0
 10
98.8196878173836
 20
187.6235430868322
 30
0.0
 10
98.33576177639625
 20
187.6102102348304
 30
0.0
 10
97.85183573540432
 20
187.6235430868771
 30
0.0
 10
97.37227691657043
 20
187.6635867403232
 30
0.0
 10
96.89857804776936
 20
187.7300483138717
 30
0.0
 10
96.43779137695341
 20
187.8221193960858
 30
0.0
 10
95.98865111496265
 20
187.9398655182061
 30
0.0
 10
95.56040180730761
 20
188.0810799389264
 30
0.0
 10
95.14945204956467
 20
188.2467288886229
 30
0.0
 10
94.76643884234011
 20
188.4327976829581
 30
0.0
 10
94.40621198410825
 20
188.6415434123898
 30
0.0
 10
94.07969826472812
 20
188.8669760650814
 30
0.0
 10
93.78129215377432
 20
189.1127440427442
 30
0.0
 10
93.52085869577685
 20
189.3711091628439
 30
0.0
 10
93.29368764036012
 20
189.6467087482933
 30
0.0
 10
93.1072199051171
 20
189.9308554140514
 30
0.0
 10
92.95869703701823
 20
190.2280156033703
 30
0.0
 10
92.85298965615932
 20
190.530020750703
 30
0.0
 10
92.78626172301428
 20
190.8392403461305
 30
0.0
 10
92.77782897157492
 20
191.0464265983069
 30
0.0
 10
92.77361292095817
 20
191.1500116301251
 30
0.0
 11
92.77361292095817
 21
191.1500116301251
 31
0.0
 11
92.79511953317149
 21
191.4597965791997
 31
0.0
 11
92.85811446030297
 21
191.7639199491809
 31
0.0
 11
92.9650035425818
 21
192.0693310594811
 31
0.0
 11
93.10905154182437
 21
192.359174974615
 31
0.0
 11
93.29872122585041
 21
192.6495444867025
 31
0.0
 11
93.51879956928047
 21
192.9176901836929
 31
0.0
 11
93.78515176881022
 21
193.1829519951593
 31
0.0
 11
94.07490855619967
 21
193.4224953744092
 31
0.0
 11
94.40905819863198
 21
193.6539365181231
 31
0.0
 11
94.76048141241907
 21
193.8582522964875
 31
0.0
 11
95.15146762023399
 21
194.0487089363644
 31
0.0
 11
95.55468735361907
 21
194.2117206963545
 31
0.0
 11
95.98998713034288
 21
194.3555996866856
 31
0.0
 11
96.43339483416386
 21
194.4721606155434
 31
0.0
 11
96.89933953820552
 21
194.5654572900068
 31
0.0
 11
97.36990477190457
 21
194.6316587188991
 31
0.0
 11
97.85208305006785
 21
194.6719882671168
 31
0.0
 11
98.33576178627996
 21
194.6853687372608
 31
0.0
 11
98.81944052249202
 21
194.6719882671168
 31
0.0
 11
99.30161880065526
 21
194.6316587188991
 31
0.0
 11
99.77218403435432
 21
194.5654572900068
 31
0.0
 11
100.238128738396
 21
194.4721606155434
 31
0.0
 11
100.681536442217
 21
194.3555996866855
 31
0.0
 11
101.1168362189408
 21
194.2117206963545
 31
0.0
 11
101.5200559523259
 21
194.0487089363645
 31
0.0
 11
101.9110421601408
 21
193.8582522964875
 31
0.0
 11
102.2624653739279
 21
193.6539365181231
 31
0.0
 11
102.5966150163602
 21
193.4224953744092
 31
0.0
 11
102.8863718037497
 21
193.1829519951592
 31
0.0
 11
103.1527240032794
 21
192.9176901836929
 31
0.0
 11
103.3728023467095
 21
192.6495444867025
 31
0.0
 11
103.5624720307355
 21
192.359174974615
 31
0.0
 11
103.7065200299781
 21
192.0693310594811
 31
0.0
 11
103.8134091122569
 21
191.7639199491809
 31
0.0
 11
103.8764040393884
 21
191.4597965791997
 31
0.0
 11
103.8979106516017
 21
191.1500116301251
 31
0.0
 11
103.8764040393884
 21
190.8402266810503
 31
0.0
 11
103.8134091122569
 21
190.536103311069
 31
0.0
 11
103.7065200299781
 21
190.2306922007689
 31
0.0
 11
103.5624720307355
 21
189.940848285635
 31
0.0
 11
103.3728023467095
 21
189.6504787735476
 31
0.0
 11
103.1527240032794
 21
189.3823330765571
 31
0.0
 11
102.8863718037497
 21
189.1170712650909
 31
0.0
 11
102.5966150163602
 21
188.877527885841
 31
0.0
 11
102.2624653739279
 21
188.6460867421269
 31
0.0
 11
101.9110421601408
 21
188.4417709637625
 31
0.0
 11
101.5200559523259
 21
188.2513143238856
 31
0.0
 11
101.1168362189408
 21
188.0883025638956
 31
0.0
 11
100.681536442217
 21
187.9444235735646
 31
0.0
 11
100.238128738396
 21
187.8278626447066
 31
0.0
 11
99.77218403435432
 21
187.7345659702432
 31
0.0
 11
99.30161880065526
 21
187.6683645413509
 31
0.0
 11
98.81944052249203
 21
187.6280349931333
 31
0.0
 11
98.33576178627996
 21
187.6146545229893
 31
0.0
 11
97.85208305006785
 21
187.6280349931333
 31
0.0
 11
97.36990477190457
 21
187.6683645413509
 31
0.0
 11
96.89933953820552
 21
187.7345659702432
 31
0.0
 11
96.43339483416386
 21
187.8278626447066
 31
0.0
 11
95.98998713034288
 21
187.9444235735646
 31
0.0
 11
95.55468735361907
 21
188.0883025638956
 31
0.0
 11
95.15146762023397
 21
188.2513143238856
 31
0.0
 11
94.76048141241907
 21
188.4417709637625
 31
0.0
 11
94.40905819863201
 21
188.646086742127
 31
0.0
 11
94.07490855619967
 21
188.877527885841
 31
0.0
 11
93.78515176881021
 21
189.1170712650909
 31
0.0
 11
93.51879956928047
 21
189.3823330765571
 31
0.0
 11
93.29872122585041
 21
189.6504787735476
 31
0.0
 11
93.10905154182437
 21
189.940848285635
 31
0.0
 11
92.96500354258184
 21
190.2306922007689
 31
0.0
 11
92.85811446030297
 21
190.536103311069
 31
0.0
 11
92.79511953317146
 21
190.8402266810503
 31
0.0
 11
92.77361292095817
 21
191.1500116301251
 31
0.0
  0
SPLINE
  5
FF
330
4D
100
AcDbEntity
  8
0
  6
Continuous
 62
     7
100
AcDbSpline
210
0.0
220
0.0
230
1.0
 70
    11
 71
     3
 72
    79
 73
    75
 74
    73
 42
0.000000001
 43
0.0000000001
 44
0.00000001
 40
0.0
 40
0.0
 40
0.0
 40
0.0
 40
0.3116700467789708
 40
0.6234686029073968
 40
0.9551731604825411
 40
1.287058856054978
 40
1.653584844168284
 40
2.02020109043935
 40
2.428997904310818
 40
2.837843040534937
 40
3.289957829814623
 40
3.742100122107682
 40
4.233747144527878
 40
4.725411053182515
 40
5.249371787103993
 40
5.773342759004126
 40
6.32005795100982
 40
6.866778678449245
 40
7.425225173656769
 40
7.9836734230478
 40
8.54212167244045
 40
9.100568167652327
 40
9.647288895097828
 40
10.19400408710938
 40
10.71797505901238
 40
11.24193579292995
 40
11.73359970156954
 40
12.22524672395677
 40
12.6773890161946
 40
13.12950380538333
 40
13.53834894147936
 40
13.94714575515983
 40
14.31376200118019
 40
14.68028798893249
 40
15.0121736840213
 40
15.34387824078781
 40
15.65567679471257
 40
15.96734684800624
 40
16.27901690130009
 40
16.59081545522498
 40
16.92252001199138
 40
17.25440570708012
 40
17.62093169483251
 40
17.98754794085302
 40
18.3963447545334
 40
18.80518989062939
 40
19.25730467981817
 40
19.70944697205606
 40
20.20109399444323
 40
20.69275790308278
 40
21.21671863700038
 40
21.74068960890337
 40
22.28740480091493
 40
22.83412552836043
 40
23.3925720235723
 40
23.95102027296495
 40
24.50946852235598
 40
25.0679150175635
 40
25.61463574500292
 40
26.16135093700862
 40
26.68532190890871
 40
27.20928264283025
 40
27.70094655148478
 40
28.19259357390498
 40
28.64473586619807
 40
29.09685065547783
 40
29.50569579170186
 40
29.91449260557329
 40
30.28110885184446
 40
30.6476348399579
 40
30.97952053553027
 40
31.3112250931053
 40
31.62302364923383
 40
31.934693696013
 40
31.934693696013
 40
31.934693696013
 40
31.934693696013
 10
216.4273837106664
 20
190.6500938868014
 30
0.0
 10
216.4323390520218
 20
190.54610800669
 30
0.0
 10
216.4422517678676
 20
190.3380933697862
 30
0.0
 10
216.5198646765557
 20
190.0273525913879
 30
0.0
 10
216.6424446515474
 20
189.7252530662729
 30
0.0
 10
216.8150750295834
 20
189.427250638016
 30
0.0
 10
217.0303257653427
 20
189.1438564915543
 30
0.0
 10
217.29361735495
 20
188.8680410562756
 30
0.0
 10
217.5937156842484
 20
188.6106055066343
 30
0.0
 10
217.9389178142204
 20
188.3648865770549
 30
0.0
 10
218.3150860243655
 20
188.1402014543829
 30
0.0
 10
218.7313951394261
 20
187.9315783031317
 30
0.0
 10
219.1728089234993
 20
187.7460093808344
 30
0.0
 10
219.6474859408399
 20
187.5804859572634
 30
0.0
 10
220.1412494984393
 20
187.4395646041827
 30
0.0
 10
220.6598662370292
 20
187.3219243368226
 30
0.0
 10
221.1913510458098
 20
187.2299970835027
 30
0.0
 10
221.7381838261823
 20
187.1636092337664
 30
0.0
 10
222.2914976635085
 20
187.1236073057875
 30
0.0
 10
222.8499999900392
 20
187.1103015109328
 30
0.0
 10
223.4085023165633
 20
187.1236073058584
 30
0.0
 10
223.9618161539073
 20
187.1636092339029
 30
0.0
 10
224.5086489342118
 20
187.2299970836935
 30
0.0
 10
225.0401337432342
 20
187.3219243370514
 30
0.0
 10
225.5587504809488
 20
187.4395646044272
 30
0.0
 10
226.0525140417074
 20
187.5804859574956
 30
0.0
 10
226.52719104794
 20
187.7460093810198
 30
0.0
 10
226.9686048717966
 20
187.9315783032314
 30
0.0
 10
227.3849138497415
 20
188.1402014543477
 30
0.0
 10
227.7610825463256
 20
188.3648865768347
 30
0.0
 10
228.1062830260713
 20
188.6106055061622
 30
0.0
 10
228.4063871721187
 20
188.8680410554873
 30
0.0
 10
228.6696591802681
 20
189.1438564903571
 30
0.0
 10
228.8849790028484
 20
189.4272506363114
 30
0.0
 10
229.0573747003411
 20
189.7252530638688
 30
0.0
 10
229.1807941238933
 20
190.0273525876833
 30
0.0
 10
229.2554529658225
 20
190.338093366878
 30
0.0
 10
229.2811961673549
 20
190.6500938868014
 30
0.0
 10
229.2554529658224
 20
190.962094406725
 30
0.0
 10
229.1807941238934
 20
191.2728351859197
 30
0.0
 10
229.057374700341
 20
191.5749347097341
 30
0.0
 10
228.8849790028483
 20
191.8729371372915
 30
0.0
 10
228.6696591802682
 20
192.156331283246
 30
0.0
 10
228.4063871721187
 20
192.4321467181158
 30
0.0
 10
228.1062830260715
 20
192.689582267441
 30
0.0
 10
227.7610825463256
 20
192.9353011967682
 30
0.0
 10
227.3849138497415
 20
193.1599863192555
 30
0.0
 10
226.9686048717967
 20
193.3686094703718
 30
0.0
 10
226.52719104794
 20
193.5541783925835
 30
0.0
 10
226.0525140417074
 20
193.7197018161073
 30
0.0
 10
225.5587504809489
 20
193.8606231691758
 30
0.0
 10
225.0401337432341
 20
193.9782634365516
 30
0.0
 10
224.5086489342119
 20
194.0701906899095
 30
0.0
 10
223.9618161539073
 20
194.1365785397002
 30
0.0
 10
223.4085023165633
 20
194.1765804677445
 30
0.0
 10
222.8499999900392
 20
194.1898862626701
 30
0.0
 10
222.2914976635084
 20
194.1765804678155
 30
0.0
 10
221.7381838261823
 20
194.1365785398366
 30
0.0
 10
221.1913510458098
 20
194.0701906901004
 30
0.0
 10
220.6598662370292
 20
193.9782634367804
 30
0.0
 10
220.1412494984393
 20
193.8606231694202
 30
0.0
 10
219.64748594084
 20
193.7197018163396
 30
0.0
 10
219.1728089234994
 20
193.5541783927687
 30
0.0
 10
218.7313951394261
 20
193.3686094704715
 30
0.0
 10
218.3150860243654
 20
193.1599863192203
 30
0.0
 10
217.9389178142206
 20
192.935301196548
 30
0.0
 10
217.5937156842483
 20
192.6895822669689
 30
0.0
 10
217.29361735495
 20
192.4321467173276
 30
0.0
 10
217.0303257653427
 20
192.1563312820487
 30
0.0
 10
216.8150750295835
 20
191.8729371355869
 30
0.0
 10
216.6424446515475
 20
191.57493470733
 30
0.0
 10
216.5198646765556
 20
191.2728351822152
 30
0.0
 10
216.4422517678676
 20
190.9620944038168
 30
0.0
 10
216.4323390520218
 20
190.7540797669128
 30
0.0
 10
216.4273837106664
 20
190.6500938868014
 30
0.0
 11
216.4273837106664
 21
190.6500938868014
 31
0.0
 11
216.4524323911829
 21
190.3394320355841
 31
0.0
 11
216.5249576836418
 21
190.0361855677457
 31
0.0
 11
216.6493709450363
 21
189.7286969444718
 31
0.0
 11
216.8147148667738
 21
189.4409305423115
 31
0.0
 11
217.0355220603344
 21
189.1483805755826
 31
0.0
 11
217.2878511346772
 21
188.8824153332338
 31
0.0
 11
217.5974761362079
 21
188.615493634321
 31
0.0
 11
217.9299904812703
 21
188.3776101425173
 31
0.0
 11
218.3177372505209
 21
188.1451015930616
 31
0.0
 11
218.7216218274451
 21
187.941853220439
 31
0.0
 11
219.1746268246556
 21
187.7507949383893
 31
0.0
 11
219.6386918553327
 21
187.588384820572
 31
0.0
 11
220.1424287029895
 21
187.4442181149734
 31
0.0
 11
220.6533358561956
 21
187.3279449013831
 31
0.0
 11
221.1920143423006
 21
187.234547954003
 31
0.0
 11
221.7347243855024
 21
187.1684467980274
 31
0.0
 11
222.2917117473025
 21
187.1281036845613
 31
0.0
 11
222.849999999999
 21
187.1147367796657
 31
0.0
 11
223.4082882526955
 21
187.1281036845612
 31
0.0
 11
223.9652756144955
 21
187.1684467980274
 31
0.0
 11
224.5079856576972
 21
187.2345479540029
 31
0.0
 11
225.0466641438022
 21
187.3279449013831
 31
0.0
 11
225.5575712970083
 21
187.4442181149734
 31
0.0
 11
226.0613081446653
 21
187.588384820572
 31
0.0
 11
226.5253731753424
 21
187.7507949383893
 31
0.0
 11
226.9783781725529
 21
187.941853220439
 31
0.0
 11
227.3822627494771
 21
188.1451015930616
 31
0.0
 11
227.7700095187276
 21
188.3776101425173
 31
0.0
 11
228.10252386379
 21
188.615493634321
 31
0.0
 11
228.4121488653206
 21
188.8824153332338
 31
0.0
 11
228.6644779396634
 21
189.1483805755826
 31
0.0
 11
228.885285133224
 21
189.4409305423115
 31
0.0
 11
229.0506290549616
 21
189.7286969444718
 31
0.0
 11
229.1750423163562
 21
190.0361855677457
 31
0.0
 11
229.2475676088151
 21
190.3394320355841
 31
0.0
 11
229.2726162893315
 21
190.6500938868014
 31
0.0
 11
229.2475676088151
 21
190.9607557380189
 31
0.0
 11
229.1750423163562
 21
191.2640022058574
 31
0.0
 11
229.0506290549616
 21
191.5714908291311
 31
0.0
 11
228.885285133224
 21
191.8592572312914
 31
0.0
 11
228.6644779396634
 21
192.1518071980204
 31
0.0
 11
228.4121488653206
 21
192.4177724403694
 31
0.0
 11
228.10252386379
 21
192.6846941392821
 31
0.0
 11
227.7700095187276
 21
192.9225776310857
 31
0.0
 11
227.3822627494771
 21
193.1550861805416
 31
0.0
 11
226.9783781725529
 21
193.3583345531642
 31
0.0
 11
226.5253731753424
 21
193.5493928352138
 31
0.0
 11
226.0613081446653
 21
193.7118029530309
 31
0.0
 11
225.5575712970083
 21
193.8559696586295
 31
0.0
 11
225.0466641438022
 21
193.9722428722199
 31
0.0
 11
224.5079856576972
 21
194.0656398196001
 31
0.0
 11
223.9652756144955
 21
194.1317409755756
 31
0.0
 11
223.4082882526955
 21
194.1720840890416
 31
0.0
 11
222.849999999999
 21
194.1854509939372
 31
0.0
 11
222.2917117473025
 21
194.1720840890417
 31
0.0
 11
221.7347243855024
 21
194.1317409755756
 31
0.0
 11
221.1920143423006
 21
194.0656398196001
 31
0.0
 11
220.6533358561956
 21
193.9722428722199
 31
0.0
 11
220.1424287029896
 21
193.8559696586295
 31
0.0
 11
219.6386918553327
 21
193.7118029530309
 31
0.0
 11
219.1746268246556
 21
193.5493928352138
 31
0.0
 11
218.7216218274451
 21
193.3583345531642
 31
0.0
 11
218.3177372505209
 21
193.1550861805416
 31
0.0
 11
217.9299904812703
 21
192.9225776310857
 31
0.0
 11
217.5974761362079
 21
192.6846941392821
 31
0.0
 11
217.2878511346772
 21
192.4177724403694
 31
0.0
 11
217.0355220603344
 21
192.1518071980204
 31
0.0
 11
216.8147148667738
 21
191.8592572312914
 31
0.0
 11
216.6493709450363
 21
191.5714908291311
 31
0.0
 11
216.5249576836418
 21
191.2640022058574
 31
0.0
 11
216.4524323911829
 21
190.9607557380189
 31
0.0
 11
216.4273837106664
 21
190.6500938868014
 31
0.0
  0
SPLINE
  5
100
330
4D
100
AcDbEntity
  8
0
  6
Continuous
 62
     7
100
AcDbSpline
210
0.0
220
0.0
230
1.0
 70
    11
 71
     3
 72
    79
 73
    75
 74
    73
 42
0.000000001
 43
0.0000000001
 44
0.00000001
 40
0.0
 40
0.0
 40
0.0
 40
0.0
 40
0.2804298649002974
 40
0.5608615546298692
 40
0.8430390411885444
 40
1.125221498489937
 40
1.410656629591651
 40
1.696098719412632
 40
1.985866395263803
 40
2.275641679865464
 40
2.570259896478673
 40
2.86488527687506
 40
3.164276383431388
 40
3.463673493277262
 40
3.767200494706206
 40
4.07073194728037
 40
4.377293184817516
 40
4.683857138951462
 40
4.99202120691869
 40
5.300186186186903
 40
5.608351165444904
 40
5.916515233381748
 40
6.223079187465262
 40
6.529640424930928
 40
6.83317187741233
 40
7.136698878725891
 40
7.436095988434461
 40
7.735487094828308
 40
8.030112475038278
 40
8.324730691436503
 40
8.614505975795966
 40
8.90427365137002
 40
9.1897157408768
 40
9.475150871608466
 40
9.757333328453843
 40
10.0395108143491
 40
10.3199425026487
 40
10.60037237635078
 40
10.88080225005278
 40
11.16123393835239
 40
11.44341142424761
 40
11.72559388109302
 40
12.01102901182459
 40
12.29647110133128
 40
12.58623877690534
 40
12.87601406126489
 40
13.17063227766321
 40
13.46525765787322
 40
13.76464876426704
 40
14.06404587397551
 40
14.36757287528905
 40
14.67110432777052
 40
14.97766556523615
 40
15.2842295193197
 40
15.59239358725657
 40
15.90055856651454
 40
16.20872354578275
 40
16.51688761374998
 40
16.82345156788395
 40
17.13001280542107
 40
17.43354425799528
 40
17.73707125942422
 40
18.03646836927003
 40
18.3358594758263
 40
18.63048485622272
 40
18.92510307283603
 40
19.21487835743775
 40
19.50464603328895
 40
19.79008812310979
 40
20.07552325421147
 40
20.35770571151284
 40
20.63988319807154
 40
20.92031488780111
 40
21.20074475270132
 40
21.20074475270132
 40
21.20074475270132
 40
21.20074475270132
 10
234.1083302491965
 20
194.1854509939372
 30
0.0
 10
234.2018420417495
 20
194.1828422156286
 30
0.0
 10
234.3888662355422
 20
194.1776246474466
 30
0.0
 10
234.6673983070363
 20
194.1357231031022
 30
0.0
 10
234.9413513508125
 20
194.0691433250791
 30
0.0
 10
235.2093282945046
 20
193.9759523929099
 30
0.0
 10
235.4683602107897
 20
193.8576768171952
 30
0.0
 10
235.7175584885391
 20
193.7147320732637
 30
0.0
 10
235.9538357384512
 20
193.5487923779668
 30
0.0
 10
236.1766342175863
 20
193.3604061224933
 30
0.0
 10
236.3830486570295
 20
193.1519152363024
 30
0.0
 10
236.5726692472321
 20
192.9238808065863
 30
0.0
 10
236.7430282127693
 20
192.679175942159
 30
0.0
 10
236.8937370309171
 20
192.4184878525478
 30
0.0
 10
237.0229288139447
 20
192.1449670764603
 30
0.0
 10
237.1301984138229
 20
191.8595891541852
 30
0.0
 10
237.2143341291578
 20
191.5655032371454
 30
0.0
 10
237.2749674362898
 20
191.2641205906295
 30
0.0
 10
237.3114951700131
 20
190.9583388832361
 30
0.0
 10
237.3237100066776
 20
190.6500938962242
 30
0.0
 10
237.3114951703553
 20
190.3418489092105
 30
0.0
 10
237.2749674369755
 20
190.0360672018019
 30
0.0
 10
237.2143341301895
 20
189.7346845552858
 30
0.0
 10
237.1301984152036
 20
189.4405986381562
 30
0.0
 10
237.0229288156795
 20
189.1552207160851
 30
0.0
 10
236.8937370330115
 20
188.881699939076
 30
0.0
 10
236.7430282152306
 20
188.6210118526518
 30
0.0
 10
236.572669250068
 20
188.3763069761716
 30
0.0
 10
236.3830486602507
 20
188.1482725904446
 30
0.0
 10
236.1766342212036
 20
187.9397815411679
 30
0.0
 10
235.9538357424804
 20
187.7513958843187
 30
0.0
 10
235.7175584929994
 20
187.5854539732977
 30
0.0
 10
235.4683602157125
 20
187.4425173798111
 30
0.0
 10
235.2093282999382
 20
187.3242115971472
 30
0.0
 10
234.9413513568843
 20
187.2311321704839
 30
0.0
 10
234.66739831407
 20
187.1641381069266
 30
0.0
 10
234.3888662407538
 20
187.1237735962164
 30
0.0
 10
234.1083302491966
 20
187.1102184010091
 30
0.0
 10
233.8277942576392
 20
187.1237735962163
 30
0.0
 10
233.5492621843231
 20
187.1641381069267
 30
0.0
 10
233.2753091415088
 20
187.2311321704839
 30
0.0
 10
233.0073321984549
 20
187.3242115971471
 30
0.0
 10
232.7483002826807
 20
187.4425173798112
 30
0.0
 10
232.4991020053938
 20
187.5854539732977
 30
0.0
 10
232.2628247559129
 20
187.7513958843187
 30
0.0
 10
232.0400262771896
 20
187.9397815411679
 30
0.0
 10
231.8336118381424
 20
188.1482725904446
 30
0.0
 10
231.643991248325
 20
188.3763069761716
 30
0.0
 10
231.4736322831624
 20
188.6210118526519
 30
0.0
 10
231.3229234653818
 20
188.881699939076
 30
0.0
 10
231.1937316827137
 20
189.1552207160851
 30
0.0
 10
231.0864620831894
 20
189.4405986381562
 30
0.0
 10
231.0023263682037
 20
189.7346845552857
 30
0.0
 10
230.9416930614176
 20
190.0360672018018
 30
0.0
 10
230.9051653280378
 20
190.3418489092105
 30
0.0
 10
230.8929504917155
 20
190.6500938962242
 30
0.0
 10
230.9051653283801
 20
190.9583388832361
 30
0.0
 10
230.9416930621033
 20
191.2641205906296
 30
0.0
 10
231.0023263692354
 20
191.5655032371453
 30
0.0
 10
231.0864620845703
 20
191.8595891541852
 30
0.0
 10
231.1937316844486
 20
192.1449670764603
 30
0.0
 10
231.3229234674761
 20
192.4184878525478
 30
0.0
 10
231.4736322856238
 20
192.6791759421589
 30
0.0
 10
231.643991251161
 20
192.9238808065862
 30
0.0
 10
231.8336118413635
 20
193.1519152363024
 30
0.0
 10
232.0400262808069
 20
193.3604061224932
 30
0.0
 10
232.262824759942
 20
193.5487923779668
 30
0.0
 10
232.4991020098542
 20
193.7147320732636
 30
0.0
 10
232.7483002876034
 20
193.8576768171952
 30
0.0
 10
233.0073322038887
 20
193.9759523929099
 30
0.0
 10
233.2753091475805
 20
194.0691433250792
 30
0.0
 10
233.5492621913569
 20
194.1357231031021
 30
0.0
 10
233.8277942628508
 20
194.1776246474467
 30
0.0
 10
234.0148184566436
 20
194.1828422156286
 30
0.0
 10
234.1083302491965
 20
194.1854509939372
 30
0.0
 11
234.1083302491965
 21
194.1854509939372
 31
0.0
 11
234.3884354194048
 21
194.1719599672668
 31
0.0
 11
234.6659680564448
 21
194.1317409755756
 31
0.0
 11
234.940088178865
 21
194.0647910529298
 31
0.0
 11
235.2066623210982
 21
193.9722428722198
 31
0.0
 11
235.4663455120235
 21
193.8537614208696
 31
0.0
 11
235.7139843215298
 21
193.7118029530309
 31
0.0
 11
235.9511842900306
 21
193.5453653345325
 31
0.0
 11
236.1725193354735
 21
193.358334553164
 31
0.0
 11
236.3798887865297
 21
193.1490553036091
 31
0.0
 11
236.5683350085608
 21
192.9225776310857
 31
0.0
 11
236.7394855172506
 21
192.6769304490447
 31
0.0
 11
236.8894046818575
 21
192.4177724403694
 31
0.0
 11
237.019117055854
 21
192.1433578987917
 31
0.0
 11
237.1259728158092
 21
191.8592572312914
 31
0.0
 11
237.2103529153848
 21
191.5645373792777
 31
0.0
 11
237.2708514073752
 21
191.2640022058574
 31
0.0
 11
237.3074324406634
 21
190.9580170414818
 31
0.0
 11
237.3196383938629
 21
190.6500938868014
 31
0.0
 11
237.3074324406633
 21
190.3421707321211
 31
0.0
 11
237.2708514073752
 21
190.0361855677457
 31
0.0
 11
237.2103529153848
 21
189.7356503943253
 31
0.0
 11
237.1259728158092
 21
189.4409305423115
 31
0.0
 11
237.019117055854
 21
189.1568298748114
 31
0.0
 11
236.8894046818575
 21
188.8824153332338
 31
0.0
 11
236.7394855172506
 21
188.6232573245584
 31
0.0
 11
236.5683350085608
 21
188.3776101425173
 31
0.0
 11
236.3798887865297
 21
188.1511324699939
 31
0.0
 11
236.1725193354735
 21
187.941853220439
 31
0.0
 11
235.9511842900306
 21
187.7548224390704
 31
0.0
 11
235.7139843215298
 21
187.588384820572
 31
0.0
 11
235.4663455120235
 21
187.4464263527333
 31
0.0
 11
235.2066623210982
 21
187.3279449013831
 31
0.0
 11
234.940088178865
 21
187.2353967206731
 31
0.0
 11
234.6659680564448
 21
187.1684467980274
 31
0.0
 11
234.3884354194048
 21
187.1282278063362
 31
0.0
 11
234.1083302491965
 21
187.1147367796657
 31
0.0
 11
233.8282250789883
 21
187.1282278063361
 31
0.0
 11
233.5506924419483
 21
187.1684467980274
 31
0.0
 11
233.2765723195281
 21
187.2353967206731
 31
0.0
 11
233.0099981772949
 21
187.3279449013831
 31
0.0
 11
232.7503149863697
 21
187.4464263527333
 31
0.0
 11
232.5026761768635
 21
187.588384820572
 31
0.0
 11
232.2654762083627
 21
187.7548224390704
 31
0.0
 11
232.0441411629197
 21
187.941853220439
 31
0.0
 11
231.8367717118634
 21
188.1511324699939
 31
0.0
 11
231.6483254898322
 21
188.3776101425173
 31
0.0
 11
231.4771749811425
 21
188.6232573245584
 31
0.0
 11
231.3272558165357
 21
188.8824153332338
 31
0.0
 11
231.1975434425393
 21
189.1568298748114
 31
0.0
 11
231.0906876825839
 21
189.4409305423115
 31
0.0
 11
231.0063075830084
 21
189.7356503943253
 31
0.0
 11
230.9458090910179
 21
190.0361855677457
 31
0.0
 11
230.9092280577298
 21
190.3421707321211
 31
0.0
 11
230.8970221045302
 21
190.6500938868014
 31
0.0
 11
230.9092280577298
 21
190.9580170414818
 31
0.0
 11
230.9458090910179
 21
191.2640022058574
 31
0.0
 11
231.0063075830084
 21
191.5645373792777
 31
0.0
 11
231.0906876825839
 21
191.8592572312914
 31
0.0
 11
231.1975434425392
 21
192.1433578987917
 31
0.0
 11
231.3272558165357
 21
192.4177724403694
 31
0.0
 11
231.4771749811426
 21
192.6769304490446
 31
0.0
 11
231.6483254898322
 21
192.9225776310857
 31
0.0
 11
231.8367717118634
 21
193.1490553036091
 31
0.0
 11
232.0441411629197
 21
193.358334553164
 31
0.0
 11
232.2654762083627
 21
193.5453653345325
 31
0.0
 11
232.5026761768635
 21
193.7118029530309
 31
0.0
 11
232.7503149863697
 21
193.8537614208696
 31
0.0
 11
233.0099981772949
 21
193.9722428722198
 31
0.0
 11
233.2765723195281
 21
194.0647910529298
 31
0.0
 11
233.5506924419483
 21
194.1317409755756
 31
0.0
 11
233.8282250789883
 21
194.1719599672668
 31
0.0
 11
234.1083302491965
 21
194.1854509939372
 31
0.0
  0
SPLINE
  5
101
330
4D
100
AcDbEntity
  8
0
  6
Continuous
 62
     7
100
AcDbSpline
210
0.0
220
0.0
230
1.0
 70
    11
 71
     3
 72
    79
 73
    75
 74
    73
 42
0.000000001
 43
0.0000000001
 44
0.00000001
 40
0.0
 40
0.0
 40
0.0
 40
0.0
 40
0.280429864900269
 40
0.560861554629869
 40
0.8430390411885167
 40
1.125221498489829
 40
1.410656629591517
 40
1.696098719412449
 40
1.985866395263713
 40
2.275641679865439
 40
2.570259896478648
 40
2.864885276875035
 40
3.164276383431298
 40
3.463673493277116
 40
3.767200494706021
 40
4.070731947280262
 40
4.377293184817399
 40
4.683857138951351
 40
4.992021206918603
 40
5.30018618618679
 40
5.608351165444791
 40
5.916515233381632
 40
6.223079187465146
 40
6.529640424930812
 40
6.833171877412264
 40
7.136698878725812
 40
7.43609598843434
 40
7.735487094828105
 40
8.030112475038075
 40
8.3247306914363
 40
8.61450597579583
 40
8.904273651369977
 40
9.189715740876743
 40
9.475150871608344
 40
9.757333328453667
 40
10.03951081434887
 40
10.31994250264849
 40
10.60037237635055
 40
10.88080225005264
 40
11.16123393835227
 40
11.44341142424749
 40
11.7255938810929
 40
12.0110290118245
 40
12.29647110133124
 40
12.58623877690536
 40
12.87601406126485
 40
13.17063227766307
 40
13.46525765787304
 40
13.76464876426688
 40
14.0640458739754
 40
14.36757287528893
 40
14.67110432777036
 40
14.97766556523599
 40
15.28422951931954
 40
15.59239358725641
 40
15.90055856651438
 40
16.2087235457826
 40
16.51688761374982
 40
16.82345156788377
 40
17.13001280542091
 40
17.43354425799508
 40
17.73707125942402
 40
18.03646836926981
 40
18.33585947582616
 40
18.63048485622254
 40
18.92510307283575
 40
19.21487835743743
 40
19.50464603328868
 40
19.7900881231096
 40
20.07552325421127
 40
20.35770571151258
 40
20.63988319807134
 40
20.92031488780097
 40
21.20074475270124
 40
21.20074475270124
 40
21.20074475270124
 40
21.20074475270124
 10
211.5916697508013
 20
194.1854509939372
 30
0.0
 10
211.4981579582484
 20
194.1828422156286
 30
0.0
 10
211.3111337644555
 20
194.1776246474467
 30
0.0
 10
211.0326016929616
 20
194.1357231031022
 30
0.0
 10
210.7586486491853
 20
194.0691433250791
 30
0.0
 10
210.4906717054934
 20
193.9759523929099
 30
0.0
 10
210.2316397892082
 20
193.8576768171951
 30
0.0
 10
209.9824415114588
 20
193.7147320732637
 30
0.0
 10
209.7461642615467
 20
193.5487923779668
 30
0.0
 10
209.5233657824115
 20
193.3604061224933
 30
0.0
 10
209.3169513429683
 20
193.1519152363024
 30
0.0
 10
209.1273307527657
 20
192.9238808065862
 30
0.0
 10
208.9569717872287
 20
192.679175942159
 30
0.0
 10
208.8062629690809
 20
192.4184878525479
 30
0.0
 10
208.6770711860534
 20
192.1449670764601
 30
0.0
 10
208.569801586175
 20
191.8595891541853
 30
0.0
 10
208.4856658708403
 20
191.5655032371453
 30
0.0
 10
208.425032563708
 20
191.2641205906295
 30
0.0
 10
208.388504829985
 20
190.958338883236
 30
0.0
 10
208.3762899933203
 20
190.6500938962242
 30
0.0
 10
208.3885048296427
 20
190.3418489092105
 30
0.0
 10
208.4250325630224
 20
190.0360672018019
 30
0.0
 10
208.4856658698085
 20
189.7346845552858
 30
0.0
 10
208.5698015847942
 20
189.4405986381563
 30
0.0
 10
208.6770711843186
 20
189.1552207160852
 30
0.0
 10
208.8062629669866
 20
188.881699939076
 30
0.0
 10
208.9569717847673
 20
188.6210118526519
 30
0.0
 10
209.1273307499298
 20
188.3763069761716
 30
0.0
 10
209.316951339747
 20
188.1482725904446
 30
0.0
 10
209.5233657787942
 20
187.9397815411679
 30
0.0
 10
209.7461642575174
 20
187.7513958843187
 30
0.0
 10
209.9824415069986
 20
187.5854539732978
 30
0.0
 10
210.2316397842854
 20
187.4425173798112
 30
0.0
 10
210.4906717000598
 20
187.3242115971471
 30
0.0
 10
210.7586486431135
 20
187.2311321704839
 30
0.0
 10
211.0326016859278
 20
187.1641381069267
 30
0.0
 10
211.311133759244
 20
187.1237735962164
 30
0.0
 10
211.5916697508012
 20
187.1102184010091
 30
0.0
 10
211.8722057423586
 20
187.1237735962163
 30
0.0
 10
212.1507378156749
 20
187.1641381069267
 30
0.0
 10
212.424690858489
 20
187.2311321704839
 30
0.0
 10
212.692667801543
 20
187.3242115971471
 30
0.0
 10
212.9516997173172
 20
187.4425173798112
 30
0.0
 10
213.2008979946042
 20
187.5854539732977
 30
0.0
 10
213.4371752440852
 20
187.7513958843186
 30
0.0
 10
213.6599737228085
 20
187.9397815411679
 30
0.0
 10
213.8663881618555
 20
188.1482725904446
 30
0.0
 10
214.0560087516728
 20
188.3763069761716
 30
0.0
 10
214.2263677168353
 20
188.6210118526519
 30
0.0
 10
214.3770765346161
 20
188.881699939076
 30
0.0
 10
214.5062683172842
 20
189.1552207160851
 30
0.0
 10
214.6135379168084
 20
189.4405986381563
 30
0.0
 10
214.6976736317941
 20
189.7346845552857
 30
0.0
 10
214.7583069385802
 20
190.0360672018018
 30
0.0
 10
214.79483467196
 20
190.3418489092106
 30
0.0
 10
214.8070495082823
 20
190.6500938962242
 30
0.0
 10
214.7948346716177
 20
190.9583388832361
 30
0.0
 10
214.7583069378946
 20
191.2641205906296
 30
0.0
 10
214.6976736307624
 20
191.5655032371452
 30
0.0
 10
214.6135379154276
 20
191.8595891541852
 30
0.0
 10
214.5062683155493
 20
192.1449670764603
 30
0.0
 10
214.3770765325218
 20
192.4184878525477
 30
0.0
 10
214.2263677143741
 20
192.679175942159
 30
0.0
 10
214.0560087488368
 20
192.9238808065861
 30
0.0
 10
213.8663881586344
 20
193.1519152363025
 30
0.0
 10
213.659973719191
 20
193.3604061224932
 30
0.0
 10
213.437175240056
 20
193.5487923779669
 30
0.0
 10
213.2008979901439
 20
193.7147320732636
 30
0.0
 10
212.9516997123944
 20
193.8576768171952
 30
0.0
 10
212.6926677961094
 20
193.9759523929099
 30
0.0
 10
212.4246908524174
 20
194.0691433250792
 30
0.0
 10
212.150737808641
 20
194.1357231031021
 30
0.0
 10
211.8722057371471
 20
194.1776246474467
 30
0.0
 10
211.6851815433542
 20
194.1828422156286
 30
0.0
 10
211.5916697508013
 20
194.1854509939372
 30
0.0
 11
211.5916697508013
 21
194.1854509939372
 31
0.0
 11
211.311564580593
 21
194.1719599672668
 31
0.0
 11
211.034031943553
 21
194.1317409755756
 31
0.0
 11
210.7599118211329
 21
194.0647910529298
 31
0.0
 11
210.4933376788997
 21
193.9722428722198
 31
0.0
 11
210.2336544879745
 21
193.8537614208696
 31
0.0
 11
209.9860156784682
 21
193.7118029530309
 31
0.0
 11
209.7488157099673
 21
193.5453653345325
 31
0.0
 11
209.5274806645243
 21
193.358334553164
 31
0.0
 11
209.3201112134681
 21
193.1490553036091
 31
0.0
 11
209.131664991437
 21
192.9225776310857
 31
0.0
 11
208.9605144827474
 21
192.6769304490447
 31
0.0
 11
208.8105953181405
 21
192.4177724403694
 31
0.0
 11
208.6808829441441
 21
192.1433578987917
 31
0.0
 11
208.5740271841887
 21
191.8592572312914
 31
0.0
 11
208.4896470846132
 21
191.5645373792777
 31
0.0
 11
208.4291485926227
 21
191.2640022058574
 31
0.0
 11
208.3925675593346
 21
190.9580170414818
 31
0.0
 11
208.380361606135
 21
190.6500938868014
 31
0.0
 11
208.3925675593346
 21
190.3421707321211
 31
0.0
 11
208.4291485926227
 21
190.0361855677457
 31
0.0
 11
208.4896470846132
 21
189.7356503943253
 31
0.0
 11
208.5740271841887
 21
189.4409305423115
 31
0.0
 11
208.6808829441441
 21
189.1568298748114
 31
0.0
 11
208.8105953181405
 21
188.8824153332338
 31
0.0
 11
208.9605144827474
 21
188.6232573245584
 31
0.0
 11
209.131664991437
 21
188.3776101425173
 31
0.0
 11
209.3201112134681
 21
188.1511324699939
 31
0.0
 11
209.5274806645243
 21
187.941853220439
 31
0.0
 11
209.7488157099673
 21
187.7548224390704
 31
0.0
 11
209.9860156784682
 21
187.588384820572
 31
0.0
 11
210.2336544879745
 21
187.4464263527333
 31
0.0
 11
210.4933376788997
 21
187.3279449013831
 31
0.0
 11
210.7599118211328
 21
187.2353967206731
 31
0.0
 11
211.034031943553
 21
187.1684467980274
 31
0.0
 11
211.311564580593
 21
187.1282278063362
 31
0.0
 11
211.5916697508013
 21
187.1147367796657
 31
0.0
 11
211.8717749210096
 21
187.1282278063361
 31
0.0
 11
212.1493075580496
 21
187.1684467980274
 31
0.0
 11
212.4234276804698
 21
187.2353967206731
 31
0.0
 11
212.690001822703
 21
187.3279449013831
 31
0.0
 11
212.9496850136283
 21
187.4464263527333
 31
0.0
 11
213.1973238231345
 21
187.588384820572
 31
0.0
 11
213.4345237916354
 21
187.7548224390704
 31
0.0
 11
213.6558588370783
 21
187.941853220439
 31
0.0
 11
213.8632282881345
 21
188.1511324699939
 31
0.0
 11
214.0516745101656
 21
188.3776101425173
 31
0.0
 11
214.2228250188553
 21
188.6232573245584
 31
0.0
 11
214.3727441834622
 21
188.8824153332338
 31
0.0
 11
214.5024565574587
 21
189.1568298748114
 31
0.0
 11
214.6093123174139
 21
189.4409305423115
 31
0.0
 11
214.6936924169894
 21
189.7356503943253
 31
0.0
 11
214.7541909089799
 21
190.0361855677457
 31
0.0
 11
214.790771942268
 21
190.3421707321211
 31
0.0
 11
214.8029778954676
 21
190.6500938868014
 31
0.0
 11
214.790771942268
 21
190.9580170414818
 31
0.0
 11
214.7541909089799
 21
191.2640022058574
 31
0.0
 11
214.6936924169894
 21
191.5645373792777
 31
0.0
 11
214.6093123174139
 21
191.8592572312914
 31
0.0
 11
214.5024565574587
 21
192.1433578987917
 31
0.0
 11
214.3727441834622
 21
192.4177724403694
 31
0.0
 11
214.2228250188554
 21
192.6769304490446
 31
0.0
 11
214.0516745101656
 21
192.9225776310857
 31
0.0
 11
213.8632282881345
 21
193.1490553036091
 31
0.0
 11
213.6558588370783
 21
193.358334553164
 31
0.0
 11
213.4345237916354
 21
193.5453653345325
 31
0.0
 11
213.1973238231345
 21
193.7118029530309
 31
0.0
 11
212.9496850136283
 21
193.8537614208696
 31
0.0
 11
212.690001822703
 21
193.9722428722198
 31
0.0
 11
212.4234276804698
 21
194.0647910529298
 31
0.0
 11
212.1493075580496
 21
194.1317409755756
 31
0.0
 11
211.8717749210096
 21
194.1719599672668
 31
0.0
 11
211.5916697508013
 21
194.1854509939372
 31
0.0
  0
ENDBLK
  5
4F
330
4D
100
AcDbEntity
  8
0
100
AcDbBlockEnd
  0
BLOCK
  5
51
330
50
100
AcDbEntity
  8
0
100
AcDbBlockBegin
  2
21-1C
 70
     0
 10
338.2924209201342
 20
151.124867509813
 30
0.0
  3
21-1C
  1

  0
LINE
  5
102
330
50
100
AcDbEntity
  8
1
  6
Continuous
 62
     7
100
AcDbLine
 10
86.04020682854556
 20
255.6320489641892
 30
0.0
 11
82.38879761707507
 21
269.259293660622
 31
0.0
  0
LINE
  5
103
330
50
100
AcDbEntity
  8
1
  6
Continuous
 62
     7
100
AcDbLine
 10
65.94248600454966
 20
290.4423225476851
 30
0.0
 11
75.91832148951207
 21
280.4664870627228
 31
0.0
  0
LINE
  5
104
330
50
100
AcDbEntity
  8
1
  6
Continuous
 62
     7
100
AcDbLine
 10
71.73804096228427
 20
300.4805181925387
 30
0.0
 11
85.36528565871707
 21
296.8291089810682
 31
0.0
  0
LINE
  5
105
330
50
100
AcDbEntity
  8
1
  6
Continuous
 62
     7
100
AcDbLine
 10
112.6939875128962
 20
300.6842948670359
 30
0.0
 11
98.306237913843
 21
296.8291089810682
 31
0.0
  0
LINE
  5
106
330
50
100
AcDbEntity
  8
1
  6
Continuous
 62
     7
100
AcDbLine
 10
117.7290375680102
 20
290.4423225476851
 30
0.0
 11
107.7532020830479
 21
280.4664870627228
 31
0.0
  0
LINE
  5
107
330
50
100
AcDbEntity
  8
1
  6
Continuous
 62
     7
100
AcDbLine
 10
97.63131674401433
 20
255.6320489641892
 30
0.0
 11
101.2827259554849
 21
269.259293660622
 31
0.0
  0
LINE
  5
108
330
50
100
AcDbEntity
  8
0
  6
Continuous
 62
     7
100
AcDbLine
 10
64.18512669166898
 20
204.6849632348043
 30
0.0
 11
86.04020682854556
 21
204.6849632348043
 31
0.0
  0
LINE
  5
109
330
50
100
AcDbEntity
  8
0
  6
Continuous
 62
     7
100
AcDbLine
 10
97.63131674401438
 20
204.6849632348043
 30
0.0
 11
119.4863968808909
 21
204.6849632348043
 31
0.0
  0
LINE
  5
10A
330
50
100
AcDbEntity
  8
0
  6
Continuous
 62
     7
100
AcDbLine
 10
86.04020682854556
 20
204.6849632348043
 30
0.0
 11
97.63131674401438
 21
204.6849632348043
 31
0.0
  0
LINE
  5
10B
330
50
100
AcDbEntity
  8
1
  6
Continuous
 62
     7
100
AcDbLine
 10
192.3819582682311
 20
207.9701252468314
 30
0.0
 11
191.9300501692387
 21
204.7546320419608
 31
0.0
  0
LINE
  5
10C
330
50
100
AcDbEntity
  8
1
  6
Continuous
 62
     7
100
AcDbLine
 10
240.6526858543502
 20
209.1441220972245
 30
0.0
 11
241.2699033483577
 21
204.7546674241935
 31
0.0
  0
LINE
  5
10D
330
50
100
AcDbEntity
  8
1
  6
Continuous
 62
     7
100
AcDbLine
 10
192.4251842036094
 20
204.1850454914808
 30
0.0
 11
240.7747742879246
 21
204.1850454914808
 31
0.0
  0
ARC
  5
10E
330
50
100
AcDbEntity
  8
1
  6
Continuous
 62
     7
100
AcDbCircle
 10
91.83576178627997
 20
257.1849632348043
 30
0.0
 40
5.999999999999988
100
AcDbArc
 50
194.9999999999995
 51
269.999999999999
  0
ARC
  5
10F
330
50
100
AcDbEntity
  8
1
  6
Continuous
 62
     7
100
AcDbCircle
 10
70.18512669166897
 20
294.6849632348043
 30
0.0
 40
6.000000000000033
100
AcDbArc
 50
74.99999999999831
 51
224.9999999999993
  0
ARC
  5
110
330
50
100
AcDbEntity
  8
1
  6
Continuous
 62
     7
100
AcDbCircle
 10
113.4863968808909
 20
294.6849632348043
 30
0.0
 40
5.999999999999958
100
AcDbArc
 50
315.0000000000007
 51
97.52424107894032
  0
ARC
  5
111
330
50
100
AcDbEntity
  8
1
  6
Continuous
 62
     7
100
AcDbCircle
 10
91.83576178627997
 20
257.1849632348043
 30
0.0
 40
6.0
100
AcDbArc
 50
269.999999999999
 51
345.0000000000003
  0
ARC
  5
112
330
50
100
AcDbEntity
  8
1
  6
Continuous
 62
     7
100
AcDbCircle
 10
222.849999999999
 20
65.18504549148082
 30
0.0
 40
150.0533238552217
100
AcDbArc
 50
90.97173327389841
 51
99.80290179376779
  0
ARC
  5
113
330
50
100
AcDbEntity
  8
1
  6
Continuous
 62
     7
100
AcDbCircle
 10
223.2141956652457
 20
140.2732244827816
 30
0.0
 40
75.00000000000011
100
AcDbArc
 50
80.40850751733493
 51
92.22284679764455
  0
SPLINE
  5
114
330
50
100
AcDbEntity
  8
0
  6
Continuous
 62
     7
100
AcDbSpline
210
0.0
220
0.0
230
1.0
 70
     8
 71
     3
 72
    27
 73
    23
 74
    21
 42
0.000000001
 43
0.0000000001
 44
0.00000001
 40
0.0
 40
0.0
 40
0.0
 40
0.0
 40
4.618703476093657
 40
9.231168904026882
 40
14.16779432066427
 40
19.11374070271294
 40
19.52821633187686
 40
19.94144217534843
 40
20.3586786256641
 40
20.7769195997746
 40
21.19949484179304
 40
21.62164873037815
 40
22.04927937800888
 40
22.47707342564171
 40
23.010061043958
 40
23.54331037797867
 40
23.88091938438416
 40
24.21795786693047
 40
24.65811334484683
 40
25.09931765306985
 40
27.47512395611198
 40
29.84763482454809
 40
29.84763482454809
 40
29.84763482454809
 40
29.84763482454809
 10
95.83576178627997
 20
215.6849632348043
 30
0.0
 10
97.37449275567953
 20
215.6344160684916
 30
0.0
 10
100.4498764751744
 20
215.5333900005332
 30
0.0
 10
105.1641658763012
 20
215.2142213540521
 30
0.0
 10
109.9531926382473
 20
214.5404597194957
 30
0.0
 10
113.3141907906876
 20
213.831453476088
 30
0.0
 10
115.1830223795165
 20
213.3716933679355
 30
0.0
 10
115.5798896092971
 20
213.2482957884172
 30
0.0
 10
115.9611597642784
 20
213.0790054579561
 30
0.0
 10
116.3261312851906
 20
212.871414718009
 30
0.0
 10
116.6736235177182
 20
212.6328608211971
 30
0.0
 10
117.001543832849
 20
212.3630170569852
 30
0.0
 10
117.3052859000953
 20
212.0637119888939
 30
0.0
 10
117.6055294937114
 20
211.7107698835694
 30
0.0
 10
117.8904002014284
 20
211.3011302628112
 30
0.0
 10
118.1175175522991
 20
210.8910880729372
 30
0.0
 10
118.2843286656593
 20
210.5243751819795
 30
0.0
 10
118.4141197651414
 20
210.1757438546108
 30
0.0
 10
118.5200341740219
 20
209.7831267616982
 30
0.0
 10
118.7446012544565
 20
208.7208699378627
 30
0.0
 10
119.07226758125
 20
207.0221623044365
 30
0.0
 10
119.3484176698791
 20
205.463669049444
 30
0.0
 10
119.4863968808909
 20
204.6849632348043
 30
0.0
 11
95.83576178627997
 21
215.6849632348043
 31
0.0
 11
100.4510181609307
 21
215.5065527244779
 31
0.0
 11
105.0510533938423
 21
215.1681547457708
 31
0.0
 11
109.9402818823447
 21
214.4857213487483
 31
0.0
 11
114.7808635829719
 21
213.4702635828521
 31
0.0
 11
115.1824102862172
 21
213.3675489658451
 31
0.0
 11
115.5758451833145
 21
213.24119794795
 31
0.0
 11
115.9576807507395
 21
213.0730080100678
 31
0.0
 11
116.3217596162161
 21
212.8671631839762
 31
0.0
 11
116.6700585037936
 21
212.6278773290322
 31
0.0
 11
116.9959426490837
 21
212.3595241479634
 31
0.0
 11
117.3006511941119
 21
212.059489693818
 31
0.0
 11
117.577909571617
 21
211.7337051951431
 31
0.0
 11
117.8826531071746
 21
211.2964327637832
 31
0.0
 11
118.1414360564734
 21
210.8301857930068
 31
0.0
 11
118.2807454768337
 21
210.5226590027343
 31
0.0
 11
118.3978032257543
 21
210.2066013778639
 31
0.0
 11
118.5159899102976
 21
209.7826099246033
 31
0.0
 11
118.6108179035637
 21
209.3517167901416
 31
0.0
 11
119.0665527989461
 21
207.0200304271379
 31
0.0
 11
119.4863968808909
 21
204.6849632348043
 31
0.0
  0
SPLINE
  5
115
330
50
100
AcDbEntity
  8
0
  6
Continuous
 62
     7
100
AcDbSpline
210
0.0
220
0.0
230
1.0
 70
     8
 71
     3
 72
    27
 73
    23
 74
    21
 42
0.000000001
 43
0.0000000001
 44
0.00000001
 40
0.0
 40
0.0
 40
0.0
 40
0.0
 40
4.618703476093657
 40
9.231168904026966
 40
14.16779432066426
 40
19.11374070271291
 40
19.52821633187682
 40
19.9414421753484
 40
20.35867862566406
 40
20.77691959977457
 40
21.19949484179301
 40
21.62164873037812
 40
22.04927937800883
 40
22.47707342564168
 40
23.01006104395795
 40
23.54331037797871
 40
23.88091938438417
 40
24.2179578669305
 40
24.65811334484684
 40
25.09931765306986
 40
27.47512395611198
 40
29.84763482454812
 40
29.84763482454812
 40
29.84763482454812
 40
29.84763482454812
 10
87.83576178627997
 20
215.6849632348043
 30
0.0
 10
86.29703081688044
 20
215.6344160684916
 30
0.0
 10
83.2216470973855
 20
215.5333900005334
 30
0.0
 10
78.50735769625875
 20
215.214221354052
 30
0.0
 10
73.71833093431272
 20
214.5404597194959
 30
0.0
 10
70.35733278187223
 20
213.8314534760876
 30
0.0
 10
68.48850119304353
 20
213.3716933679355
 30
0.0
 10
68.09163396326292
 20
213.2482957884173
 30
0.0
 10
67.71036380828153
 20
213.0790054579561
 30
0.0
 10
67.34539228736939
 20
212.871414718009
 30
0.0
 10
66.9979000548418
 20
212.6328608211972
 30
0.0
 10
66.66997973971094
 20
212.3630170569852
 30
0.0
 10
66.36623767246472
 20
212.0637119888939
 30
0.0
 10
66.0659940788486
 20
211.7107698835694
 30
0.0
 10
65.78112337113143
 20
211.3011302628112
 30
0.0
 10
65.55400602026083
 20
210.8910880729373
 30
0.0
 10
65.38719490690053
 20
210.5243751819796
 30
0.0
 10
65.2574038074185
 20
210.1757438546107
 30
0.0
 10
65.151489398538
 20
209.7831267616983
 30
0.0
 10
64.92692231810354
 20
208.7208699378627
 30
0.0
 10
64.59925599131
 20
207.0221623044365
 30
0.0
 10
64.32310590268078
 20
205.4636690494441
 30
0.0
 10
64.18512669166898
 20
204.6849632348043
 30
0.0
 11
87.83576178627997
 21
215.6849632348043
 31
0.0
 11
83.22050541162923
 21
215.5065527244779
 31
0.0
 11
78.62047017871757
 21
215.1681547457708
 31
0.0
 11
73.73124169021526
 21
214.4857213487483
 31
0.0
 11
68.89065998958807
 21
213.4702635828521
 31
0.0
 11
68.48911328634277
 21
213.3675489658451
 31
0.0
 11
68.09567838924548
 21
213.24119794795
 31
0.0
 11
67.71384282182052
 21
213.0730080100678
 31
0.0
 11
67.34976395634388
 21
212.8671631839762
 31
0.0
 11
67.00146506876638
 21
212.6278773290322
 31
0.0
 11
66.67558092347628
 21
212.3595241479634
 31
0.0
 11
66.37087237844815
 21
212.059489693818
 31
0.0
 11
66.09361400094298
 21
211.7337051951431
 31
0.0
 11
65.78887046538533
 21
211.2964327637833
 31
0.0
 11
65.53008751608647
 21
210.8301857930068
 31
0.0
 11
65.39077809572612
 21
210.5226590027343
 31
0.0
 11
65.27372034680556
 21
210.2066013778639
 31
0.0
 11
65.1555336622623
 21
209.7826099246033
 31
0.0
 11
65.06070566899626
 21
209.3517167901416
 31
0.0
 11
64.60497077361387
 21
207.0200304271379
 31
0.0
 11
64.18512669166898
 21
204.6849632348043
 31
0.0
  0
ARC
  5
116
330
50
100
AcDbEntity
  8
1
  6
Continuous
 62
     7
100
AcDbCircle
 10
58.24065195984838
 20
262.7888175330591
 30
0.0
 40
24.99999999999995
100
AcDbArc
 50
14.99999999999975
 51
45.00000000000005
  0
ARC
  5
117
330
50
100
AcDbEntity
  8
1
  6
Continuous
 62
     7
100
AcDbCircle
 10
91.83576178627987
 20
320.9772546382949
 30
0.0
 40
24.99999999999991
100
AcDbArc
 50
255.0000000000004
 51
285.0000000000003
  0
ARC
  5
118
330
50
100
AcDbEntity
  8
1
  6
Continuous
 62
     7
100
AcDbCircle
 10
125.4308716127116
 20
262.7888175330591
 30
0.0
 40
25.00000000000003
100
AcDbArc
 50
135.0
 51
165.0000000000003
  0
ARC
  5
119
330
50
100
AcDbEntity
  8
1
  6
Continuous
 62
     7
100
AcDbCircle
 10
192.4251842036094
 20
204.6850454914808
 30
0.0
 40
0.4999999999999059
100
AcDbArc
 50
172.000000000001
 51
270.0
  0
ARC
  5
11A
330
50
100
AcDbEntity
  8
1
  6
Continuous
 62
     7
100
AcDbCircle
 10
198.3235666806805
 20
207.1350866410712
 30
0.0
 40
6.000000000000019
100
AcDbArc
 50
99.8029017937678
 51
172.0000000000019
  0
ARC
  5
11B
330
50
100
AcDbEntity
  8
1
  6
Continuous
 62
     7
100
AcDbCircle
 10
234.711137129153
 20
208.3086589046731
 30
0.0
 40
6.000000000000063
100
AcDbArc
 50
8.00409437170091
 51
80.4085075173346
  0
ARC
  5
11C
330
50
100
AcDbEntity
  8
1
  6
Continuous
 62
     7
100
AcDbCircle
 10
240.7747742879246
 20
204.6850454914808
 30
0.0
 40
0.5
100
AcDbArc
 50
270.0
 51
8.00409437171274
  0
ENDBLK
  5
52
330
50
100
AcDbEntity
  8
0
100
AcDbBlockEnd
  0
BLOCK
  5
54
330
53
100
AcDbEntity
  8
0
100
AcDbBlockBegin
  2
42-15
 70
     0
 10
661.8896737530338
 20
417.4947002308412
 30
0.0
  3
42-15
  1

  0
LINE
  5
11D
330
53
100
AcDbEntity
  8
1
  6
Continuous
 62
     2
100
AcDbLine
 10
93.33576178627997
 20
216.6225570631736
 30
0.0
 11
93.33576178627997
 21
217.7712833930262
 31
0.0
  0
LINE
  5
11E
330
53
100
AcDbEntity
  8
1
  6
Continuous
 62
     2
100
AcDbLine
 10
94.33576178627997
 20
216.2985124254819
 30
0.0
 11
94.33576178627997
 21
218.0165063620904
 31
0.0
  0
LINE
  5
11F
330
53
100
AcDbEntity
  8
1
  6
Continuous
 62
     2
100
AcDbLine
 10
95.33576178627997
 20
215.9394359350665
 30
0.0
 11
95.33576178627997
 21
218.2091815520693
 31
0.0
  0
LINE
  5
120
330
53
100
AcDbEntity
  8
1
  6
Continuous
 62
     2
100
AcDbLine
 10
96.33576178627999
 20
215.7905505609919
 30
0.0
 11
96.33576178627999
 21
218.3405509997822
 31
0.0
  0
LINE
  5
121
330
53
100
AcDbEntity
  8
1
  6
Continuous
 62
     2
100
AcDbLine
 10
97.33576178627999
 20
215.6849632348045
 30
0.0
 11
97.33576178627999
 21
218.4849632348044
 31
0.0
  0
LINE
  5
122
330
53
100
AcDbEntity
  8
1
  6
Continuous
 62
     2
100
AcDbLine
 10
98.33576178627999
 20
215.6849632348045
 30
0.0
 11
98.33576178627999
 21
218.4849632348044
 31
0.0
  0
LINE
  5
123
330
53
100
AcDbEntity
  8
1
  6
Continuous
 62
     2
100
AcDbLine
 10
97.83576178627999
 20
215.6849632348045
 30
0.0
 11
97.83576178627999
 21
218.4849632348044
 31
0.0
  0
LINE
  5
124
330
53
100
AcDbEntity
  8
1
  6
Continuous
 62
     2
100
AcDbLine
 10
96.83576178627999
 20
215.6849632348045
 30
0.0
 11
96.83576178627999
 21
218.4849632348044
 31
0.0
  0
LINE
  5
125
330
53
100
AcDbEntity
  8
1
  6
Continuous
 62
     2
100
AcDbLine
 10
95.83576178627997
 20
215.851011547256
 30
0.0
 11
95.83576178627997
 21
218.2950368263523
 31
0.0
  0
LINE
  5
126
330
53
100
AcDbEntity
  8
1
  6
Continuous
 62
     2
100
AcDbLine
 10
94.83576178627997
 20
216.0456637150422
 30
0.0
 11
94.83576178627997
 21
218.1814897284768
 31
0.0
  0
LINE
  5
127
330
53
100
AcDbEntity
  8
1
  6
Continuous
 62
     2
100
AcDbLine
 10
93.83576178627997
 20
216.4025260226503
 30
0.0
 11
93.83576178627997
 21
217.9706165467084
 31
0.0
  0
LINE
  5
128
330
53
100
AcDbEntity
  8
1
  6
Continuous
 62
     2
100
AcDbLine
 10
92.83576178627997
 20
216.6620622463651
 30
0.0
 11
92.83576178627997
 21
217.7273013369756
 31
0.0
  0
LINE
  5
129
330
53
100
AcDbEntity
  8
1
  6
Continuous
 62
     7
100
AcDbLine
 10
98.83576178628005
 20
218.4849632348044
 30
0.0
 11
97.58576178628005
 21
218.8147289550082
 31
0.0
  0
LINE
  5
12A
330
53
100
AcDbEntity
  8
1
  6
Continuous
 62
     7
100
AcDbLine
 10
98.83576178628005
 20
218.4849632348044
 30
0.0
 11
98.83576178628005
 21
215.6849632348045
 31
0.0
  0
LINE
  5
12B
330
53
100
AcDbEntity
  8
1
  6
Continuous
 62
     2
100
AcDbLine
 10
90.33576178628007
 20
217.7712833930262
 30
0.0
 11
90.33576178628007
 21
216.6225570631736
 31
0.0
  0
LINE
  5
12C
330
53
100
AcDbEntity
  8
1
  6
Continuous
 62
     2
100
AcDbLine
 10
89.33576178628007
 20
218.0165063620904
 30
0.0
 11
89.33576178628007
 21
216.2985124254819
 31
0.0
  0
LINE
  5
12D
330
53
100
AcDbEntity
  8
1
  6
Continuous
 62
     2
100
AcDbLine
 10
88.33576178628007
 20
218.2091815520693
 30
0.0
 11
88.33576178628007
 21
215.9394359350665
 31
0.0
  0
LINE
  5
12E
330
53
100
AcDbEntity
  8
1
  6
Continuous
 62
     2
100
AcDbLine
 10
87.33576178628007
 20
218.3405509997822
 30
0.0
 11
87.33576178628007
 21
215.7905505609919
 31
0.0
  0
LINE
  5
12F
330
53
100
AcDbEntity
  8
1
  6
Continuous
 62
     7
100
AcDbLine
 10
84.83576178628007
 20
215.6849632348045
 30
0.0
 11
98.83576178628005
 21
215.6849632348045
 31
0.0
  0
LINE
  5
130
330
53
100
AcDbEntity
  8
1
  6
Continuous
 62
     2
100
AcDbLine
 10
86.33576178628007
 20
218.4849632348044
 30
0.0
 11
86.33576178628007
 21
215.6849632348045
 31
0.0
  0
LINE
  5
131
330
53
100
AcDbEntity
  8
1
  6
Continuous
 62
     2
100
AcDbLine
 10
85.33576178628007
 20
218.4849632348044
 30
0.0
 11
85.33576178628007
 21
215.6849632348045
 31
0.0
  0
LINE
  5
132
330
53
100
AcDbEntity
  8
1
  6
Continuous
 62
     7
100
AcDbLine
 10
84.83576178628007
 20
215.6849632348045
 30
0.0
 11
84.83576178628007
 21
218.4849632348044
 31
0.0
  0
LINE
  5
133
330
53
100
AcDbEntity
  8
1
  6
Continuous
 62
     7
100
AcDbLine
 10
84.83576178628007
 20
218.4849632348044
 30
0.0
 11
85.83576178627997
 21
218.7542854338278
 31
0.0
  0
LINE
  5
134
330
53
100
AcDbEntity
  8
1
  6
Continuous
 62
     2
100
AcDbLine
 10
85.83576178628007
 20
218.4849632348044
 30
0.0
 11
85.83576178628007
 21
215.6849632348045
 31
0.0
  0
LINE
  5
135
330
53
100
AcDbEntity
  8
1
  6
Continuous
 62
     2
100
AcDbLine
 10
86.83576178628007
 20
218.4849632348044
 30
0.0
 11
86.83576178628007
 21
215.6849632348045
 31
0.0
  0
LINE
  5
136
330
53
100
AcDbEntity
  8
1
  6
Continuous
 62
     2
100
AcDbLine
 10
87.83576178628007
 20
218.2950368263523
 30
0.0
 11
87.83576178628007
 21
215.851011547256
 31
0.0
  0
LINE
  5
137
330
53
100
AcDbEntity
  8
1
  6
Continuous
 62
     2
100
AcDbLine
 10
88.83576178628007
 20
218.1814897284768
 30
0.0
 11
88.83576178628007
 21
216.0456637150422
 31
0.0
  0
LINE
  5
138
330
53
100
AcDbEntity
  8
1
  6
Continuous
 62
     2
100
AcDbLine
 10
89.83576178628007
 20
217.9706165467084
 30
0.0
 11
89.83576178628007
 21
216.4025260226503
 31
0.0
  0
LINE
  5
139
330
53
100
AcDbEntity
  8
1
  6
Continuous
 62
     2
100
AcDbLine
 10
90.83576178628007
 20
217.7273013369756
 30
0.0
 11
90.83576178628007
 21
216.6620622463651
 31
0.0
  0
LINE
  5
13A
330
53
100
AcDbEntity
  8
1
  6
Continuous
 62
     7
100
AcDbLine
 10
98.83576178628005
 20
218.4849632348044
 30
0.0
 11
84.83576178628007
 21
218.4849632348044
 31
0.0
  0
LINE
  5
13B
330
53
100
AcDbEntity
  8
1
  6
Continuous
 62
     2
100
AcDbLine
 10
224.3499999999989
 20
216.3226393198502
 30
0.0
 11
224.3499999999989
 21
217.4713656497028
 31
0.0
  0
LINE
  5
13C
330
53
100
AcDbEntity
  8
1
  6
Continuous
 62
     2
100
AcDbLine
 10
225.3499999999989
 20
215.9985946821585
 30
0.0
 11
225.3499999999989
 21
217.716588618767
 31
0.0
  0
LINE
  5
13D
330
53
100
AcDbEntity
  8
1
  6
Continuous
 62
     2
100
AcDbLine
 10
226.3499999999989
 20
215.6395181917431
 30
0.0
 11
226.3499999999989
 21
217.9092638087459
 31
0.0
  0
LINE
  5
13E
330
53
100
AcDbEntity
  8
1
  6
Continuous
 62
     2
100
AcDbLine
 10
227.3499999999989
 20
215.4906328176685
 30
0.0
 11
227.3499999999989
 21
218.0406332564588
 31
0.0
  0
LINE
  5
13F
330
53
100
AcDbEntity
  8
1
  6
Continuous
 62
     2
100
AcDbLine
 10
228.3499999999989
 20
215.3850454914811
 30
0.0
 11
228.3499999999989
 21
218.185045491481
 31
0.0
  0
LINE
  5
140
330
53
100
AcDbEntity
  8
1
  6
Continuous
 62
     2
100
AcDbLine
 10
229.3499999999989
 20
215.3850454914811
 30
0.0
 11
229.3499999999989
 21
218.185045491481
 31
0.0
  0
LINE
  5
141
330
53
100
AcDbEntity
  8
1
  6
Continuous
 62
     2
100
AcDbLine
 10
228.8499999999989
 20
215.3850454914811
 30
0.0
 11
228.8499999999989
 21
218.185045491481
 31
0.0
  0
LINE
  5
142
330
53
100
AcDbEntity
  8
1
  6
Continuous
 62
     2
100
AcDbLine
 10
227.8499999999989
 20
215.3850454914811
 30
0.0
 11
227.8499999999989
 21
218.185045491481
 31
0.0
  0
LINE
  5
143
330
53
100
AcDbEntity
  8
1
  6
Continuous
 62
     2
100
AcDbLine
 10
226.8499999999989
 20
215.5510938039326
 30
0.0
 11
226.8499999999989
 21
217.9951190830289
 31
0.0
  0
LINE
  5
144
330
53
100
AcDbEntity
  8
1
  6
Continuous
 62
     2
100
AcDbLine
 10
225.8499999999989
 20
215.7457459717188
 30
0.0
 11
225.8499999999989
 21
217.8815719851534
 31
0.0
  0
LINE
  5
145
330
53
100
AcDbEntity
  8
1
  6
Continuous
 62
     2
100
AcDbLine
 10
224.8499999999989
 20
216.1026082793269
 30
0.0
 11
224.8499999999989
 21
217.670698803385
 31
0.0
  0
LINE
  5
146
330
53
100
AcDbEntity
  8
1
  6
Continuous
 62
     2
100
AcDbLine
 10
223.8499999999989
 20
216.3621445030417
 30
0.0
 11
223.8499999999989
 21
217.4273835936522
 31
0.0
  0
LINE
  5
147
330
53
100
AcDbEntity
  8
1
  6
Continuous
 62
     7
100
AcDbLine
 10
229.8499999999989
 20
218.185045491481
 30
0.0
 11
228.5999999999989
 21
218.5148112116848
 31
0.0
  0
LINE
  5
148
330
53
100
AcDbEntity
  8
1
  6
Continuous
 62
     7
100
AcDbLine
 10
229.8499999999989
 20
218.185045491481
 30
0.0
 11
229.8499999999989
 21
215.3850454914811
 31
0.0
  0
LINE
  5
149
330
53
100
AcDbEntity
  8
1
  6
Continuous
 62
     2
100
AcDbLine
 10
221.3499999999989
 20
217.4713656497028
 30
0.0
 11
221.3499999999989
 21
216.3226393198502
 31
0.0
  0
LINE
  5
14A
330
53
100
AcDbEntity
  8
1
  6
Continuous
 62
     2
100
AcDbLine
 10
220.3499999999989
 20
217.716588618767
 30
0.0
 11
220.3499999999989
 21
215.9985946821585
 31
0.0
  0
LINE
  5
14B
330
53
100
AcDbEntity
  8
1
  6
Continuous
 62
     2
100
AcDbLine
 10
219.3499999999989
 20
217.9092638087459
 30
0.0
 11
219.3499999999989
 21
215.6395181917431
 31
0.0
  0
LINE
  5
14C
330
53
100
AcDbEntity
  8
1
  6
Continuous
 62
     2
100
AcDbLine
 10
218.3499999999989
 20
218.0406332564588
 30
0.0
 11
218.3499999999989
 21
215.4906328176685
 31
0.0
  0
LINE
  5
14D
330
53
100
AcDbEntity
  8
1
  6
Continuous
 62
     7
100
AcDbLine
 10
215.8499999999989
 20
215.3850454914811
 30
0.0
 11
229.8499999999989
 21
215.3850454914811
 31
0.0
  0
LINE
  5
14E
330
53
100
AcDbEntity
  8
1
  6
Continuous
 62
     2
100
AcDbLine
 10
217.3499999999989
 20
218.185045491481
 30
0.0
 11
217.3499999999989
 21
215.3850454914811
 31
0.0
  0
LINE
  5
14F
330
53
100
AcDbEntity
  8
1
  6
Continuous
 62
     2
100
AcDbLine
 10
216.3499999999989
 20
218.185045491481
 30
0.0
 11
216.3499999999989
 21
215.3850454914811
 31
0.0
  0
LINE
  5
150
330
53
100
AcDbEntity
  8
1
  6
Continuous
 62
     7
100
AcDbLine
 10
215.8499999999989
 20
215.3850454914811
 30
0.0
 11
215.8499999999989
 21
218.185045491481
 31
0.0
  0
LINE
  5
151
330
53
100
AcDbEntity
  8
1
  6
Continuous
 62
     7
100
AcDbLine
 10
215.8499999999989
 20
218.185045491481
 30
0.0
 11
216.8499999999988
 21
218.4543676905044
 31
0.0
  0
LINE
  5
152
330
53
100
AcDbEntity
  8
1
  6
Continuous
 62
     2
100
AcDbLine
 10
216.8499999999989
 20
218.185045491481
 30
0.0
 11
216.8499999999989
 21
215.3850454914811
 31
0.0
  0
LINE
  5
153
330
53
100
AcDbEntity
  8
1
  6
Continuous
 62
     2
100
AcDbLine
 10
217.8499999999989
 20
218.185045491481
 30
0.0
 11
217.8499999999989
 21
215.3850454914811
 31
0.0
  0
LINE
  5
154
330
53
100
AcDbEntity
  8
1
  6
Continuous
 62
     2
100
AcDbLine
 10
218.8499999999989
 20
217.9951190830289
 30
0.0
 11
218.8499999999989
 21
215.5510938039326
 31
0.0
  0
LINE
  5
155
330
53
100
AcDbEntity
  8
1
  6
Continuous
 62
     2
100
AcDbLine
 10
219.8499999999989
 20
217.8815719851534
 30
0.0
 11
219.8499999999989
 21
215.7457459717188
 31
0.0
  0
LINE
  5
156
330
53
100
AcDbEntity
  8
1
  6
Continuous
 62
     2
100
AcDbLine
 10
220.8499999999989
 20
217.670698803385
 30
0.0
 11
220.8499999999989
 21
216.1026082793269
 31
0.0
  0
LINE
  5
157
330
53
100
AcDbEntity
  8
1
  6
Continuous
 62
     2
100
AcDbLine
 10
221.8499999999989
 20
217.4273835936522
 30
0.0
 11
221.8499999999989
 21
216.3621445030417
 31
0.0
  0
LINE
  5
158
330
53
100
AcDbEntity
  8
1
  6
Continuous
 62
     7
100
AcDbLine
 10
229.8499999999989
 20
218.185045491481
 30
0.0
 11
215.8499999999989
 21
218.185045491481
 31
0.0
  0
ARC
  5
159
330
53
100
AcDbEntity
  8
1
  6
Continuous
 62
     7
100
AcDbCircle
 10
91.83576178628007
 20
194.4849632348044
 30
0.0
 40
25.00000000000018
100
AcDbArc
 50
76.11345963737105
 51
76.70292825279104
  0
ARC
  5
15A
330
53
100
AcDbEntity
  8
1
  6
Continuous
 62
     7
100
AcDbCircle
 10
91.83576178628007
 20
194.4849632348044
 30
0.0
 40
25.00000000000007
100
AcDbArc
 50
76.70292825279104
 51
90.0
  0
ARC
  5
15B
330
53
100
AcDbEntity
  8
1
  6
Continuous
 62
     7
100
AcDbCircle
 10
91.83576178628007
 20
194.4849632348044
 30
0.0
 40
25.00000000000007
100
AcDbArc
 50
103.297071747209
 51
103.8865403626291
  0
ARC
  5
15C
330
53
100
AcDbEntity
  8
1
  6
Continuous
 62
     7
100
AcDbCircle
 10
91.83576178628007
 20
194.4849632348044
 30
0.0
 40
25.0
100
AcDbArc
 50
90.0
 51
103.297071747209
  0
ARC
  5
15D
330
53
100
AcDbEntity
  8
1
  6
Continuous
 62
     7
100
AcDbCircle
 10
222.8499999999989
 20
194.185045491481
 30
0.0
 40
25.00000000000023
100
AcDbArc
 50
76.11345963737088
 51
76.70292825279098
  0
ARC
  5
15E
330
53
100
AcDbEntity
  8
1
  6
Continuous
 62
     7
100
AcDbCircle
 10
222.8499999999989
 20
194.185045491481
 30
0.0
 40
25.00000000000007
100
AcDbArc
 50
76.70292825279098
 51
90.0
  0
ARC
  5
15F
330
53
100
AcDbEntity
  8
1
  6
Continuous
 62
     7
100
AcDbCircle
 10
222.8499999999989
 20
194.185045491481
 30
0.0
 40
25.00000000000007
100
AcDbArc
 50
103.297071747209
 51
103.8865403626291
  0
ARC
  5
160
330
53
100
AcDbEntity
  8
1
  6
Continuous
 62
     7
100
AcDbCircle
 10
222.8499999999989
 20
194.185045491481
 30
0.0
 40
25.0
100
AcDbArc
 50
90.0
 51
103.297071747209
  0
CIRCLE
  5
161
330
53
100
AcDbEntity
  8
1
  6
Continuous
 62
     7
100
AcDbCircle
 10
91.83576178628017
 20
282.1849632348045
 30
0.0
 40
7.000000000000156
  0
ENDBLK
  5
55
330
53
100
AcDbEntity
  8
0
100
AcDbBlockEnd
  0
BLOCK
  5
57
330
56
100
AcDbEntity
  8
0
100
AcDbBlockBegin
  2
36-54-M4
 70
     0
 10
480.6034346507156
 20
160.0185550168892
 30
0.0
  3
36-54-M4
  1

  0
LINE
  5
162
330
56
100
AcDbEntity
  8
1
  6
Continuous
 62
     7
100
AcDbLine
 10
227.599999999999
 20
204.1850454914808
 30
0.0
 11
227.599999999999
 21
201.1147367796657
 31
0.0
  0
LINE
  5
163
330
56
100
AcDbEntity
  8
1
  6
Continuous
 62
     7
100
AcDbLine
 10
218.0999999999989
 20
201.1147367796657
 30
0.0
 11
218.099999999999
 21
204.1850454914808
 31
0.0
  0
LINE
  5
164
330
56
100
AcDbEntity
  8
1
  6
Continuous
 62
     7
100
AcDbLine
 10
96.58576178627996
 20
204.6849632348043
 30
0.0
 11
96.58576178627996
 21
201.6146545229892
 31
0.0
  0
LINE
  5
165
330
56
100
AcDbEntity
  8
1
  6
Continuous
 62
     7
100
AcDbLine
 10
87.08576178627997
 20
201.6146545229892
 30
0.0
 11
87.08576178627997
 21
204.6849632348043
 31
0.0
  0
LINE
  5
166
330
56
100
AcDbEntity
  8
1
  6
Continuous
 62
     7
100
AcDbLine
 10
97.60204308361557
 20
165.1849632348045
 30
0.0
 11
86.0694804889443
 21
165.1849632348045
 31
0.0
  0
ENDBLK
  5
58
330
56
100
AcDbEntity
  8
0
100
AcDbBlockEnd
  0
BLOCK
  5
5A
330
59
100
AcDbEntity
  8
0
100
AcDbBlockBegin
  2
開示A4
 70
     0
 10
0.0
 20
0.0
 30
0.0
  3
開示A4
  1

  0
POINT
  5
167
330
59
100
AcDbEntity
  8
1
 62
     4
100
AcDbPoint
 10
34.0
 20
34.00000000000001
 30
0.0
  0
POINT
  5
168
330
59
100
AcDbEntity
  8
1
 62
     4
100
AcDbPoint
 10
57.0
 20
12.25
 30
0.0
  0
POINT
  5
169
330
59
100
AcDbEntity
  8
1
 62
     4
100
AcDbPoint
 10
57.0
 20
20.75000000000001
 30
0.0
  0
POINT
  5
16A
330
59
100
AcDbEntity
  8
1
 62
     4
100
AcDbPoint
 10
57.0
 20
24.75000000000001
 30
0.0
  0
POINT
  5
16B
330
59
100
AcDbEntity
  8
1
 62
     4
100
AcDbPoint
 10
57.0
 20
16.25
 30
0.0
  0
POINT
  5
16C
330
59
100
AcDbEntity
  8
1
 62
     4
100
AcDbPoint
 10
157.5
 20
19.00000000000001
 30
0.0
  0
POINT
  5
16D
330
59
100
AcDbEntity
  8
1
 62
     4
100
AcDbPoint
 10
47.5
 20
282.0000000000003
 30
0.0
  0
POINT
  5
16E
330
59
100
AcDbEntity
  8
1
 62
     4
100
AcDbPoint
 10
57.0
 20
22.75000000000001
 30
0.0
  0
POINT
  5
16F
330
59
100
AcDbEntity
  8
1
 62
     4
100
AcDbPoint
 10
57.0
 20
14.25
 30
0.0
  0
POINT
  5
170
330
59
100
AcDbEntity
  8
1
 62
     4
100
AcDbPoint
 10
157.5
 20
12.5
 30
0.0
  0
POINT
  5
171
330
59
100
AcDbEntity
  8
1
 62
     4
100
AcDbPoint
 10
163.25
 20
12.5
 30
0.0
  0
POINT
  5
172
330
59
100
AcDbEntity
  8
1
 62
     4
100
AcDbPoint
 10
151.75
 20
12.5
 30
0.0
  0
POINT
  5
173
330
59
100
AcDbEntity
  8
1
 62
     4
100
AcDbPoint
 10
134.75
 20
12.5
 30
0.0
  0
POINT
  5
174
330
59
100
AcDbEntity
  8
1
 62
     4
100
AcDbPoint
 10
146.25
 20
12.5
 30
0.0
  0
POINT
  5
175
330
59
100
AcDbEntity
  8
1
 62
     4
100
AcDbPoint
 10
140.5
 20
12.5
 30
0.0
  0
POINT
  5
176
330
59
100
AcDbEntity
  8
1
 62
     4
100
AcDbPoint
 10
140.5
 20
19.00000000000001
 30
0.0
  0
POINT
  5
177
330
59
100
AcDbEntity
  8
1
 62
     4
100
AcDbPoint
 10
117.75
 20
12.5
 30
0.0
  0
POINT
  5
178
330
59
100
AcDbEntity
  8
1
 62
     4
100
AcDbPoint
 10
129.25
 20
12.5
 30
0.0
  0
POINT
  5
179
330
59
100
AcDbEntity
  8
1
 62
     4
100
AcDbPoint
 10
123.5
 20
12.5
 30
0.0
  0
POINT
  5
17A
330
59
100
AcDbEntity
  8
1
 62
     4
100
AcDbPoint
 10
123.5
 20
19.00000000000001
 30
0.0
  0
POINT
  5
17B
330
59
100
AcDbEntity
  8
1
 62
     4
100
AcDbPoint
 10
100.75
 20
12.5
 30
0.0
  0
POINT
  5
17C
330
59
100
AcDbEntity
  8
1
 62
     4
100
AcDbPoint
 10
112.25
 20
12.5
 30
0.0
  0
POINT
  5
17D
330
59
100
AcDbEntity
  8
1
 62
     4
100
AcDbPoint
 10
106.5
 20
12.5
 30
0.0
  0
POINT
  5
17E
330
59
100
AcDbEntity
  8
1
 62
     4
100
AcDbPoint
 10
106.5
 20
19.00000000000001
 30
0.0
  0
POINT
  5
17F
330
59
100
AcDbEntity
  8
1
 62
     4
100
AcDbPoint
 10
85.25
 20
17.0
 30
0.0
  0
POINT
  5
180
330
59
100
AcDbEntity
  8
1
 62
     4
100
AcDbPoint
 10
93.75
 20
17.0
 30
0.0
  0
LINE
  5
181
330
59
100
AcDbEntity
  8
1
  6
Continuous
 62
     2
100
AcDbLine
 10
81.0
 20
27.00000000000001
 30
0.0
 11
81.0
 21
10.0
 31
0.0
  0
LINE
  5
182
330
59
100
AcDbEntity
  8
1
  6
DOT_CENTER
 62
     2
100
AcDbLine
 10
187.0
 20
26.50000000000001
 30
0.0
 11
187.0
 21
20.50000000000001
 31
0.0
  0
LINE
  5
183
330
59
100
AcDbEntity
  8
1
  6
DOT_CENTER
 62
     2
100
AcDbLine
 10
184.0
 20
23.50000000000001
 30
0.0
 11
197.0
 21
23.50000000000001
 31
0.0
  0
LINE
  5
184
330
59
100
AcDbEntity
  8
1
  6
Continuous
 62
     7
100
AcDbLine
 10
196.0
 20
21.50000000000001
 30
0.0
 11
191.0
 21
22.30000000000001
 31
0.0
  0
LINE
  5
185
330
59
100
AcDbEntity
  8
1
  6
Continuous
 62
     7
100
AcDbLine
 10
196.0
 20
25.50000000000001
 30
0.0
 11
196.0
 21
21.50000000000001
 31
0.0
  0
LINE
  5
186
330
59
100
AcDbEntity
  8
1
  6
Continuous
 62
     7
100
AcDbLine
 10
191.0
 20
24.70000000000001
 30
0.0
 11
196.0
 21
25.50000000000001
 31
0.0
  0
LINE
  5
187
330
59
100
AcDbEntity
  8
1
  6
Continuous
 62
     7
100
AcDbLine
 10
191.0
 20
24.70000000000001
 30
0.0
 11
191.0
 21
22.30000000000001
 31
0.0
  0
LINE
  5
188
330
59
100
AcDbEntity
  8
1
  6
Continuous
 62
     2
100
AcDbLine
 10
33.0
 20
27.0
 30
0.0
 11
33.0
 21
10.0
 31
0.0
  0
LINE
  5
189
330
59
100
AcDbEntity
  8
1
  6
Continuous
 62
     2
100
AcDbLine
 10
25.0
 20
18.50000000000001
 30
0.0
 11
81.0
 21
18.50000000000001
 31
0.0
  0
LINE
  5
18A
330
59
100
AcDbEntity
  8
1
  6
Continuous
 62
     7
100
AcDbLine
 10
200.0
 20
287.0000000000003
 30
0.0
 11
105.0
 21
287.0000000000003
 31
0.0
  0
LINE
  5
18B
330
59
100
AcDbEntity
  8
1
  6
Continuous
 62
     7
100
AcDbLine
 10
200.0
 20
10.0
 30
0.0
 11
200.0
 21
148.5
 31
0.0
  0
LINE
  5
18C
330
59
100
AcDbEntity
  8
1
  6
Continuous
 62
     7
100
AcDbLine
 10
25.0
 20
10.0
 30
0.0
 11
105.0
 21
10.0
 31
0.0
  0
LINE
  5
18D
330
59
100
AcDbEntity
  8
1
  6
PHANTOM
 62
     4
100
AcDbLine
 10
0.0
 20
297.0
 30
0.0
 11
0.0
 21
0.0
 31
0.0
  0
LINE
  5
18E
330
59
100
AcDbEntity
  8
1
  6
PHANTOM
 62
     4
100
AcDbLine
 10
210.0
 20
297.0
 30
0.0
 11
0.0
 21
297.0
 31
0.0
  0
LINE
  5
18F
330
59
100
AcDbEntity
  8
1
  6
PHANTOM
 62
     4
100
AcDbLine
 10
210.0
 20
0.0
 30
0.0
 11
210.0
 21
297.0
 31
0.0
  0
LINE
  5
190
330
59
100
AcDbEntity
  8
1
  6
PHANTOM
 62
     4
100
AcDbLine
 10
0.0
 20
0.0
 30
0.0
 11
210.0
 21
0.0
 31
0.0
  0
LINE
  5
191
330
59
100
AcDbEntity
  8
1
  6
Continuous
 62
     7
100
AcDbLine
 10
25.0
 20
41.0
 30
0.0
 11
200.0
 21
41.0
 31
0.0
  0
LINE
  5
192
330
59
100
AcDbEntity
  8
1
  6
Continuous
 62
     7
100
AcDbLine
 10
200.0
 20
27.00000000000001
 30
0.0
 11
25.0
 21
27.00000000000001
 31
0.0
  0
LINE
  5
193
330
59
100
AcDbEntity
  8
1
  6
Continuous
 62
     2
100
AcDbLine
 10
33.0
 20
41.00000000000001
 30
0.0
 11
33.0
 21
27.0
 31
0.0
  0
LINE
  5
194
330
59
100
AcDbEntity
  8
1
  6
Continuous
 62
     2
100
AcDbLine
 10
55.0
 20
287.0000000000003
 30
0.0
 11
55.0
 21
277.0000000000003
 31
0.0
  0
LINE
  5
195
330
59
100
AcDbEntity
  8
1
  6
Continuous
 62
     2
100
AcDbLine
 10
40.0
 20
287.0000000000003
 30
0.0
 11
40.0
 21
277.0000000000003
 31
0.0
  0
LINE
  5
196
330
59
100
AcDbEntity
  8
1
  6
Continuous
 62
     7
100
AcDbLine
 10
25.0
 20
10.0
 30
0.0
 11
25.0
 21
148.5
 31
0.0
  0
LINE
  5
197
330
59
100
AcDbEntity
  8
1
  6
Continuous
 62
     2
100
AcDbLine
 10
55.0
 20
277.0000000000003
 30
0.0
 11
25.0
 21
277.0000000000003
 31
0.0
  0
LINE
  5
198
330
59
100
AcDbEntity
  8
1
  6
Continuous
 62
     2
100
AcDbLine
 10
166.0
 20
27.00000000000001
 30
0.0
 11
166.0
 21
10.0
 31
0.0
  0
LINE
  5
199
330
59
100
AcDbEntity
  8
1
  6
Continuous
 62
     2
100
AcDbLine
 10
132.0
 20
27.00000000000001
 30
0.0
 11
132.0
 21
9.99999999999999
 31
0.0
  0
LINE
  5
19A
330
59
100
AcDbEntity
  8
1
  6
Continuous
 62
     2
100
AcDbLine
 10
149.0
 20
27.00000000000001
 30
0.0
 11
149.0
 21
10.0
 31
0.0
  0
LINE
  5
19B
330
59
100
AcDbEntity
  8
1
  6
Continuous
 62
     2
100
AcDbLine
 10
115.0
 20
27.00000000000001
 30
0.0
 11
115.0
 21
9.99999999999999
 31
0.0
  0
LINE
  5
19C
330
59
100
AcDbEntity
  8
1
  6
Continuous
 62
     2
100
AcDbLine
 10
98.0
 20
27.00000000000001
 30
0.0
 11
98.0
 21
9.99999999999999
 31
0.0
  0
LINE
  5
19D
330
59
100
AcDbEntity
  8
1
  6
Continuous
 62
     2
100
AcDbLine
 10
166.0
 20
20.00000000000001
 30
0.0
 11
200.0
 21
20.00000000000001
 31
0.0
  0
LINE
  5
19E
330
59
100
AcDbEntity
  8
1
  6
Continuous
 62
     2
100
AcDbLine
 10
105.0
 20
287.0000000000003
 30
0.0
 11
105.0
 21
292.0000000000003
 31
0.0
  0
LINE
  5
19F
330
59
100
AcDbEntity
  8
1
  6
Continuous
 62
     7
100
AcDbLine
 10
105.0
 20
287.0000000000003
 30
0.0
 11
25.0
 21
287.0000000000003
 31
0.0
  0
LINE
  5
1A0
330
59
100
AcDbEntity
  8
1
  6
Continuous
 62
     2
100
AcDbLine
 10
25.0
 20
148.5
 30
0.0
 11
20.0
 21
148.5
 31
0.0
  0
LINE
  5
1A1
330
59
100
AcDbEntity
  8
1
  6
Continuous
 62
     7
100
AcDbLine
 10
25.0
 20
148.5
 30
0.0
 11
25.0
 21
287.0000000000003
 31
0.0
  0
LINE
  5
1A2
330
59
100
AcDbEntity
  8
1
  6
Continuous
 62
     2
100
AcDbLine
 10
200.0
 20
148.5
 30
0.0
 11
205.0
 21
148.5
 31
0.0
  0
LINE
  5
1A3
330
59
100
AcDbEntity
  8
1
  6
Continuous
 62
     7
100
AcDbLine
 10
200.0
 20
148.5
 30
0.0
 11
200.0
 21
287.0000000000003
 31
0.0
  0
LINE
  5
1A4
330
59
100
AcDbEntity
  8
1
  6
Continuous
 62
     2
100
AcDbLine
 10
105.0
 20
10.0
 30
0.0
 11
105.0
 21
5.0
 31
0.0
  0
LINE
  5
1A5
330
59
100
AcDbEntity
  8
1
  6
Continuous
 62
     7
100
AcDbLine
 10
105.0
 20
10.0
 30
0.0
 11
200.0
 21
10.0
 31
0.0
  0
CIRCLE
  5
1A6
330
59
100
AcDbEntity
  8
1
  6
DOT_CENTER
 62
     7
100
AcDbCircle
 10
89.5
 20
18.0
 30
0.0
 40
0.1000000000000227
  0
CIRCLE
  5
1A7
330
59
100
AcDbEntity
  8
1
  6
DOT_CENTER
 62
     7
100
AcDbCircle
 10
89.5
 20
16.0
 30
0.0
 40
0.1000000000000227
  0
CIRCLE
  5
1A8
330
59
100
AcDbEntity
  8
1
  6
Continuous
 62
     7
100
AcDbCircle
 10
187.0
 20
23.50000000000001
 30
0.0
 40
2.0
  0
CIRCLE
  5
1A9
330
59
100
AcDbEntity
  8
1
  6
Continuous
 62
     7
100
AcDbCircle
 10
187.0
 20
23.50000000000001
 30
0.0
 40
1.200000000000102
  0
CIRCLE
  5
1AA
330
59
100
AcDbEntity
  8
1
  6
Continuous
 62
     7
100
AcDbCircle
 10
154.5
 20
12.5
 30
0.0
 40
0.3000000000000114
  0
CIRCLE
  5
1AB
330
59
100
AcDbEntity
  8
1
  6
Continuous
 62
     7
100
AcDbCircle
 10
160.5
 20
12.5
 30
0.0
 40
0.3000000000000114
  0
CIRCLE
  5
1AC
330
59
100
AcDbEntity
  8
1
  6
Continuous
 62
     7
100
AcDbCircle
 10
143.5
 20
12.5
 30
0.0
 40
0.3000000000000114
  0
CIRCLE
  5
1AD
330
59
100
AcDbEntity
  8
1
  6
Continuous
 62
     7
100
AcDbCircle
 10
137.5
 20
12.5
 30
0.0
 40
0.3000000000000114
  0
CIRCLE
  5
1AE
330
59
100
AcDbEntity
  8
1
  6
Continuous
 62
     7
100
AcDbCircle
 10
126.5
 20
12.5
 30
0.0
 40
0.2999999999999972
  0
CIRCLE
  5
1AF
330
59
100
AcDbEntity
  8
1
  6
Continuous
 62
     7
100
AcDbCircle
 10
120.5
 20
12.5
 30
0.0
 40
0.2999999999999972
  0
CIRCLE
  5
1B0
330
59
100
AcDbEntity
  8
1
  6
Continuous
 62
     7
100
AcDbCircle
 10
109.5
 20
12.5
 30
0.0
 40
0.2999999999999972
  0
CIRCLE
  5
1B1
330
59
100
AcDbEntity
  8
1
  6
Continuous
 62
     7
100
AcDbCircle
 10
103.5
 20
12.5
 30
0.0
 40
0.2999999999999972
  0
MTEXT
  5
1B3
330
59
100
AcDbEntity
  8
1
 62
   250
100
AcDbMText
 10
25.0
 20
5.0
 30
0.0
 40
3.5
 41
0.0
 71
     4
 72
     1
  1
備考欄の文字列 原点位置=4
  7
CONVERTER_11
 73
     1
 44
0.54545454545455
  0
MTEXT
  5
1B4
330
59
100
AcDbEntity
  8
1
 62
     2
100
AcDbMText
 10
89.5
 20
24.00000000000001
 30
0.0
 40
3.5
 41
0.0
 71
     5
 72
     1
  1
尺度
  7
CONVERTER_11
 73
     1
 44
0.54545454545455
  0
MTEXT
  5
1B5
330
59
100
AcDbEntity
  8
1
 62
     2
100
AcDbMText
 10
135.5
 20
25.00000000000001
 30
0.0
 40
3.0
 41
0.0
 71
     5
 72
     1
  1
製図
  7
CONVERTER_11
 73
     1
 44
0.59090909090909
  0
MTEXT
  5
1B6
330
59
100
AcDbEntity
  8
1
 62
     2
100
AcDbMText
 10
152.5
 20
25.00000000000001
 30
0.0
 40
3.0
 41
0.0
 71
     5
 72
     1
  1
設計
  7
CONVERTER_11
 73
     1
 44
0.59090909090909
  0
MTEXT
  5
1B7
330
59
100
AcDbEntity
  8
1
 62
     2
100
AcDbMText
 10
118.5
 20
25.00000000000001
 30
0.0
 40
3.0
 41
0.0
 71
     5
 72
     1
  1
検図
  7
CONVERTER_11
 73
     1
 44
0.59090909090909
  0
MTEXT
  5
1B8
330
59
100
AcDbEntity
  8
1
 62
     2
100
AcDbMText
 10
175.0
 20
23.50000000000001
 30
0.0
 40
3.5
 41
0.0
 71
     5
 72
     1
  1
第三角法
  7
CONVERTER_11
 73
     1
 44
0.54545454545455
  0
MTEXT
  5
1B9
330
59
100
AcDbEntity
  8
1
 62
     2
100
AcDbMText
 10
101.5
 20
25.00000000000001
 30
0.0
 40
3.0
 41
0.0
 71
     5
 72
     1
  1
承認
  7
CONVERTER_11
 73
     1
 44
0.59090909090909
  0
MTEXT
  5
1BA
330
59
100
AcDbEntity
  8
1
 62
     2
100
AcDbMText
 10
29.0
 20
14.25
 30
0.0
 40
3.5
 41
0.0
 71
     5
 72
     1
  1
品番
  7
CONVERTER_11
 73
     1
 44
0.72727272727273
  0
MTEXT
  5
1BB
330
59
100
AcDbEntity
  8
1
 62
     2
100
AcDbMText
 10
29.0
 20
22.75
 30
0.0
 40
3.5
 41
0.0
 71
     5
 72
     1
  1
品名
  7
CONVERTER_11
 73
     1
 44
0.72727272727273
  0
MTEXT
  5
1BC
330
59
100
AcDbEntity
  8
1
 62
     2
100
AcDbMText
 10
29.0
 20
34.00000000000001
 30
0.0
 40
3.5
 41
0.0
 71
     5
 72
     1
  1
備考
  7
CONVERTER_11
 73
     1
 44
0.45454545454545
  0
MTEXT
  5
1BD
330
59
100
AcDbEntity
  8
1
 62
     2
100
AcDbMText
 10
32.5
 20
282.0000000000003
 30
0.0
 40
5.0
 41
0.0
 71
     5
 72
     1
  1
図番
  7
CONVERTER_11
 73
     1
 44
0.45454545454545
  0
MTEXT
  5
1BE
330
59
100
AcDbEntity
  8
1
 62
     7
100
AcDbMText
 10
171.5
 20
15.0
 30
0.0
 40
2.5
 41
0.0
 71
     5
 72
     1
  1
株式会社
  7
CONVERTER_11
 73
     1
 44
1.0
  0
MTEXT
  5
1BF
330
59
100
AcDbEntity
  8
1
 62
     7
100
AcDbMText
 10
188.5
 20
15.0
 30
0.0
 40
3.0
 41
0.0
 71
     5
 72
     1
  1
三栄水栓製作所
  7
CONVERTER_11
 73
     1
 44
1.0
  0
ENDBLK
  5
5B
330
59
100
AcDbEntity
  8
0
100
AcDbBlockEnd
  0
BLOCK
  5
1FB
330
1F4
100
AcDbEntity
  8
0
100
AcDbBlockBegin
  2
*D8
 70
     1
 10
0.0
 20
0.0
 30
0.0
  3
*D8
  1

  0
LINE
  5
1F5
330
1F4
100
AcDbEntity
  8
1
  6
Continuous
 62
     2
100
AcDbLine
 10
177.8499999999989
 20
162.1849632348043
 30
0.0
 11
177.8499999999989
 21
219.185045491481
 31
0.0
  0
LINE
  5
1F6
330
1F4
100
AcDbEntity
  8
1
  6
Continuous
 62
     2
100
AcDbLine
 10
188.3499999999989
 20
162.1849632348043
 30
0.0
 11
176.3499999999989
 21
162.1849632348043
 31
0.0
  0
LINE
  5
1F7
330
1F4
100
AcDbEntity
  8
1
  6
Continuous
 62
     2
100
AcDbLine
 10
222.8499999999988
 20
219.185045491481
 30
0.0
 11
176.3499999999989
 21
219.185045491481
 31
0.0
  0
SOLID
  5
1F8
330
1F4
100
AcDbEntity
  8
1
 62
     2
100
AcDbTrace
 10
177.158824387665
 20
167.4349632348043
 30
0.0
 11
178.5411756123327
 21
167.4349632348043
 31
0.0
 12
177.8499999999989
 22
162.1849632348043
 32
0.0
 13
177.8499999999989
 23
162.1849632348043
 33
0.0
  0
SOLID
  5
1F9
330
1F4
100
AcDbEntity
  8
1
 62
     2
100
AcDbTrace
 10
178.5411756123327
 20
213.935045491481
 30
0.0
 11
177.158824387665
 21
213.935045491481
 31
0.0
 12
177.8499999999989
 22
219.185045491481
 32
0.0
 13
177.8499999999989
 23
219.185045491481
 33
0.0
  0
MTEXT
  5
1FA
330
1F4
100
AcDbEntity
  8
1
 62
     7
100
AcDbMText
 10
176.3499999999989
 20
176.5099569888397
 30
0.0
 40
5.25
 41
0.0
 71
     7
 72
     1
  1
57リフト5
  7
CONVERTER_11
 11
0.0
 21
1.0
 31
0.0
 73
     1
 44
0.45454545454545
  0
ENDBLK
  5
1FC
330
1F4
100
AcDbEntity
  8
0
100
AcDbBlockEnd
  0
BLOCK
  5
206
330
1FF
100
AcDbEntity
  8
0
100
AcDbBlockBegin
  2
*D9
 70
     1
 10
0.0
 20
0.0
 30
0.0
  3
*D9
  1

  0
LINE
  5
200
330
1FF
100
AcDbEntity
  8
1
  6
Continuous
 62
     2
100
AcDbLine
 10
78.83576178628012
 20
332.1849632348046
 30
0.0
 11
104.83576178628
 21
332.1849632348046
 31
0.0
  0
LINE
  5
201
330
1FF
100
AcDbEntity
  8
1
  6
Continuous
 62
     2
100
AcDbLine
 10
78.83576178628012
 20
314.6738562358739
 30
0.0
 11
78.83576178628012
 21
333.6849632348046
 31
0.0
  0
LINE
  5
202
330
1FF
100
AcDbEntity
  8
1
  6
Continuous
 62
     2
100
AcDbLine
 10
104.83576178628
 20
314.6738562358739
 30
0.0
 11
104.83576178628
 21
333.6849632348046
 31
0.0
  0
SOLID
  5
203
330
1FF
100
AcDbEntity
  8
1
 62
     2
100
AcDbTrace
 10
84.08576178628012
 20
332.8761388471385
 30
0.0
 11
84.08576178628012
 21
331.4937876224708
 31
0.0
 12
78.83576178628012
 22
332.1849632348046
 32
0.0
 13
78.83576178628012
 23
332.1849632348046
 33
0.0
  0
SOLID
  5
204
330
1FF
100
AcDbEntity
  8
1
 62
     2
100
AcDbTrace
 10
99.58576178628003
 20
331.4937876224708
 30
0.0
 11
99.58576178628003
 21
332.8761388471385
 31
0.0
 12
104.83576178628
 22
332.1849632348046
 32
0.0
 13
104.83576178628
 23
332.1849632348046
 33
0.0
  0
MTEXT
  5
205
330
1FF
100
AcDbEntity
  8
1
 62
     7
100
AcDbMText
 10
87.89826178628007
 20
333.6849632348046
 30
0.0
 40
5.25
 41
0.0
 71
     7
 72
     1
  1
26
  7
CONVERTER_12
 11
0.9999999999970619
 21
2.424068405545306E-6
 31
0.0
 73
     1
 44
0.60024009603842
  0
ENDBLK
  5
207
330
1FF
100
AcDbEntity
  8
0
100
AcDbBlockEnd
  0
BLOCK
  5
211
330
20A
100
AcDbEntity
  8
0
100
AcDbBlockBegin
  2
*D10
 70
     1
 10
0.0
 20
0.0
 30
0.0
  3
*D10
  1

  0
LINE
  5
20B
330
20A
100
AcDbEntity
  8
1
  6
Continuous
 62
     2
100
AcDbLine
 10
192.8499999999989
 20
132.1738562358694
 30
0.0
 11
222.8499999999989
 21
132.1738562358694
 31
0.0
  0
LINE
  5
20C
330
20A
100
AcDbEntity
  8
1
  6
Continuous
 62
     2
100
AcDbLine
 10
192.8499999999989
 20
152.8469632348046
 30
0.0
 11
192.8499999999989
 21
130.6738562358694
 31
0.0
  0
LINE
  5
20D
330
20A
100
AcDbEntity
  8
1
  6
Continuous
 62
     2
100
AcDbLine
 10
222.8499999999989
 20
144.640413325502
 30
0.0
 11
222.8499999999989
 21
130.6738562358694
 31
0.0
  0
SOLID
  5
20E
330
20A
100
AcDbEntity
  8
1
 62
     2
100
AcDbTrace
 10
198.0999999999989
 20
132.8650318482032
 30
0.0
 11
198.0999999999989
 21
131.4826806235356
 31
0.0
 12
192.8499999999989
 22
132.1738562358694
 32
0.0
 13
192.8499999999989
 23
132.1738562358694
 33
0.0
  0
SOLID
  5
20F
330
20A
100
AcDbEntity
  8
1
 62
     2
100
AcDbTrace
 10
217.5999999999989
 20
131.4826806235356
 30
0.0
 11
217.5999999999989
 21
132.8650318482032
 31
0.0
 12
222.8499999999989
 22
132.1738562358694
 32
0.0
 13
222.8499999999989
 23
132.1738562358694
 33
0.0
  0
MTEXT
  5
210
330
20A
100
AcDbEntity
  8
1
 62
     7
100
AcDbMText
 10
203.9124999999989
 20
133.6738562358694
 30
0.0
 40
5.25
 41
0.0
 71
     7
 72
     1
  1
30
  7
CONVERTER_12
 11
0.9999999999970619
 21
2.424068405545306E-6
 31
0.0
 73
     1
 44
0.60024009603842
  0
ENDBLK
  5
212
330
20A
100
AcDbEntity
  8
0
100
AcDbBlockEnd
  0
BLOCK
  5
21C
330
215
100
AcDbEntity
  8
0
100
AcDbBlockBegin
  2
*D11
 70
     1
 10
0.0
 20
0.0
 30
0.0
  3
*D11
  1

  0
LINE
  5
216
330
215
100
AcDbEntity
  8
1
  6
Continuous
 62
     2
100
AcDbLine
 10
192.849999999999
 20
120.1738562358715
 30
0.0
 11
257.8499999999991
 21
120.1738562358715
 31
0.0
  0
LINE
  5
217
330
215
100
AcDbEntity
  8
1
  6
Continuous
 62
     2
100
AcDbLine
 10
192.849999999999
 20
152.8469632348046
 30
0.0
 11
192.849999999999
 21
118.6738562358715
 31
0.0
  0
LINE
  5
218
330
215
100
AcDbEntity
  8
1
  6
Continuous
 62
     2
100
AcDbLine
 10
257.8499999999991
 20
149.6849632348029
 30
0.0
 11
257.8499999999991
 21
118.6738562358715
 31
0.0
  0
SOLID
  5
219
330
215
100
AcDbEntity
  8
1
 62
     2
100
AcDbTrace
 10
198.099999999999
 20
120.8650318482053
 30
0.0
 11
198.099999999999
 21
119.4826806235377
 31
0.0
 12
192.849999999999
 22
120.1738562358715
 32
0.0
 13
192.849999999999
 23
120.1738562358715
 33
0.0
  0
SOLID
  5
21A
330
215
100
AcDbEntity
  8
1
 62
     2
100
AcDbTrace
 10
252.5999999999991
 20
119.4826806235377
 30
0.0
 11
252.5999999999991
 21
120.8650318482053
 31
0.0
 12
257.8499999999991
 22
120.1738562358715
 32
0.0
 13
257.8499999999991
 23
120.1738562358715
 33
0.0
  0
MTEXT
  5
21B
330
215
100
AcDbEntity
  8
1
 62
     7
100
AcDbMText
 10
221.4125531645746
 20
121.6738562358715
 30
0.0
 40
5.25
 41
0.0
 71
     7
 72
     1
  1
65
  7
CONVERTER_12
 11
0.9999999999970619
 21
2.424068405545306E-6
 31
0.0
 73
     1
 44
0.60024009603842
  0
ENDBLK
  5
21D
330
215
100
AcDbEntity
  8
0
100
AcDbBlockEnd
  0
ENDSEC
  0
SECTION
  2
ENTITIES
  0
INSERT
  5
5C
330
1F
100
AcDbEntity
  8
0
100
AcDbBlockReference
  2
91-1
 10
512.4074296573444
 20
434.7208387782338
 30
0.0
  0
INSERT
  5
5D
330
1F
100
AcDbEntity
  8
1
100
AcDbBlockReference
  2
V21-1-0-13-M11
 10
318.613460676723
 20
0.9033651691809
 30
0.0
  0
INSERT
  5
5E
330
1F
100
AcDbEntity
  8
1
100
AcDbBlockReference
  2
37-1-13
 10
416.2185127454422
 20
160.2710041279541
 30
0.0
  0
INSERT
  5
5F
330
1F
100
AcDbEntity
  8
0
100
AcDbBlockReference
  2
21-1C
 10
338.2924209201342
 20
151.124867509813
 30
0.0
  0
INSERT
  5
60
330
1F
100
AcDbEntity
  8
1
100
AcDbBlockReference
  2
42-15
 10
661.8896737530338
 20
417.4947002308412
 30
0.0
  0
INSERT
  5
61
330
1F
100
AcDbEntity
  8
0
100
AcDbBlockReference
  2
36-54-M4
 10
480.6034346507156
 20
160.0185550168892
 30
0.0
  0
INSERT
  5
62
330
1F
100
AcDbEntity
  8
1
100
AcDbBlockReference
  2
開示A4
 10
0.0
 20
0.0
 30
0.0
 41
1.5
 42
1.5
 43
1.5
  0
LINE
  5
1C0
330
1F
100
AcDbEntity
  8
1
  6
DASH_CENTER
 62
     2
100
AcDbLine
 10
107.6773508351307
 20
273.0388175330591
 30
0.0
 11
61.09185995193239
 21
299.9349632348043
 31
0.0
  0
LINE
  5
1C1
330
1F
100
AcDbEntity
  8
1
  6
DASH_CENTER
 62
     2
100
AcDbLine
 10
122.5796636206275
 20
299.9349632348043
 30
0.0
 11
75.99417273742935
 21
273.0388175330592
 31
0.0
  0
LINE
  5
1C2
330
1F
100
AcDbEntity
  8
1
  6
DASH_CENTER
 62
     2
100
AcDbLine
 10
69.69984531743034
 20
282.1849632348045
 30
0.0
 11
113.9716782551296
 21
282.1849632348045
 31
0.0
  0
LINE
  5
1C3
330
1F
100
AcDbEntity
  8
1
  6
DASH_CENTER
 62
     2
100
AcDbLine
 10
188.3499999999989
 20
162.1849632348043
 30
0.0
 11
262.3499999999989
 21
162.1849632348043
 31
0.0
  0
LINE
  5
1C4
330
1F
100
AcDbEntity
  8
1
  6
DASH_CENTER
 62
     2
100
AcDbLine
 10
78.83576178627997
 20
162.1849632348043
 30
0.0
 11
107.83576178628
 21
162.1849632348043
 31
0.0
  0
LINE
  5
1C5
330
1F
100
AcDbEntity
  8
1
  6
DASH_CENTER
 62
     2
100
AcDbLine
 10
91.83576178627997
 20
222.6849632348043
 30
0.0
 11
91.83576178627997
 21
142.6738562358748
 31
0.0
  0
LINE
  5
1C6
330
1F
100
AcDbEntity
  8
1
  6
DASH_CENTER
 62
     2
100
AcDbLine
 10
75.83576178627997
 20
162.1849632348043
 30
0.0
 11
78.83576178627997
 21
162.1849632348043
 31
0.0
  0
LINE
  5
1C7
330
1F
100
AcDbEntity
  8
1
  6
DASH_CENTER
 62
     2
100
AcDbLine
 10
222.8499999999989
 20
144.640413325502
 30
0.0
 11
222.8499999999989
 21
223.9849632348045
 31
0.0
  0
LINE
  5
1C8
330
1F
100
AcDbEntity
  8
1
  6
DASH_CENTER
 62
     2
100
AcDbLine
 10
91.83576178628007
 20
247.6849632348043
 30
0.0
 11
91.83576178628007
 21
321.6849632348043
 31
0.0
  0
LINE
  5
1C9
330
1F
100
AcDbEntity
  8
1
  6
Continuous
 62
     7
100
AcDbLine
 10
277.8872818615483
 20
385.0543274319432
 30
0.0
 11
277.8872818615483
 21
364.0543274319432
 31
0.0
  0
LINE
  5
1CA
330
1F
100
AcDbEntity
  8
1
  6
Continuous
 62
     7
100
AcDbLine
 10
199.8872818615483
 20
385.0543274319432
 30
0.0
 11
199.8872818615483
 21
364.0543274319432
 31
0.0
  0
LINE
  5
1CB
330
1F
100
AcDbEntity
  8
1
  6
Continuous
 62
     2
100
AcDbLine
 10
199.8872818615483
 20
385.0543274319432
 30
0.0
 11
277.8872818615483
 21
385.0543274319432
 31
0.0
  0
LINE
  5
1CC
330
1F
100
AcDbEntity
  8
1
  6
Continuous
 62
     7
100
AcDbLine
 10
277.8872818615483
 20
395.5543274319432
 30
0.0
 11
277.8872818615483
 21
385.0543274319432
 31
0.0
  0
LINE
  5
1CD
330
1F
100
AcDbEntity
  8
1
  6
Continuous
 62
     7
100
AcDbLine
 10
199.8872818615483
 20
395.5543274319432
 30
0.0
 11
199.8872818615483
 21
385.0543274319432
 31
0.0
  0
LINE
  5
1CE
330
1F
100
AcDbEntity
  8
1
  6
Continuous
 62
     2
100
AcDbLine
 10
199.8872818615483
 20
395.5543274319432
 30
0.0
 11
277.8872818615483
 21
395.5543274319432
 31
0.0
  0
LINE
  5
1CF
330
1F
100
AcDbEntity
  8
1
  6
Continuous
 62
     7
100
AcDbLine
 10
277.8872818615483
 20
406.0543274319432
 30
0.0
 11
277.8872818615483
 21
395.5543274319432
 31
0.0
  0
LINE
  5
1D0
330
1F
100
AcDbEntity
  8
1
  6
Continuous
 62
     2
100
AcDbLine
 10
199.8872818615483
 20
374.5543274319432
 30
0.0
 11
277.8872818615483
 21
374.5543274319432
 31
0.0
  0
LINE
  5
1D1
330
1F
100
AcDbEntity
  8
1
  6
Continuous
 62
     7
100
AcDbLine
 10
199.8872818615483
 20
406.0543274319432
 30
0.0
 11
277.8872818615483
 21
406.0543274319432
 31
0.0
  0
LINE
  5
1D2
330
1F
100
AcDbEntity
  8
1
  6
Continuous
 62
     2
100
AcDbLine
 10
249.8872818615483
 20
406.0543274319432
 30
0.0
 11
249.8872818615483
 21
364.0543274319432
 31
0.0
  0
LINE
  5
1D3
330
1F
100
AcDbEntity
  8
1
  6
Continuous
 62
     7
100
AcDbLine
 10
199.8872818615483
 20
406.0543274319432
 30
0.0
 11
199.8872818615483
 21
395.5543274319432
 31
0.0
  0
LINE
  5
1D4
330
1F
100
AcDbEntity
  8
1
  6
Continuous
 62
     7
100
AcDbLine
 10
199.8872818615483
 20
364.0543274319432
 30
0.0
 11
249.8872818615483
 21
364.0543274319432
 31
0.0
  0
LINE
  5
1D5
330
1F
100
AcDbEntity
  8
1
  6
Continuous
 62
     7
100
AcDbLine
 10
249.8872818615483
 20
364.0543274319432
 30
0.0
 11
277.8872818615483
 21
364.0543274319432
 31
0.0
  0
LINE
  5
1D6
330
1F
100
AcDbEntity
  8
1
  6
Continuous
 62
     7
100
AcDbLine
 10
244.9707855223947
 20
133.5560409139848
 30
0.0
 11
242.5707855223947
 21
134.9416815600398
 31
0.0
  0
LINE
  5
1D7
330
1F
100
AcDbEntity
  8
1
  6
Continuous
 62
     7
100
AcDbLine
 10
248.5707855223947
 20
134.4916815600399
 30
0.0
 11
244.9707855223947
 21
134.4916815600399
 31
0.0
  0
LINE
  5
1D8
330
1F
100
AcDbEntity
  8
1
  6
Continuous
 62
     7
100
AcDbLine
 10
248.5707855223947
 20
135.3916815600399
 30
0.0
 11
244.9707855223947
 21
135.3916815600399
 31
0.0
  0
LINE
  5
1D9
330
1F
100
AcDbEntity
  8
1
  6
Continuous
 62
     7
100
AcDbLine
 10
244.9707855223947
 20
134.4916815600399
 30
0.0
 11
244.9707855223947
 21
133.5560409139848
 31
0.0
  0
LINE
  5
1DA
330
1F
100
AcDbEntity
  8
1
  6
Continuous
 62
     7
100
AcDbLine
 10
248.5707855223947
 20
135.3916815600399
 30
0.0
 11
248.5707855223947
 21
134.4916815600399
 31
0.0
  0
LINE
  5
1DB
330
1F
100
AcDbEntity
  8
1
  6
Continuous
 62
     7
100
AcDbLine
 10
244.9707855223947
 20
136.3273222060949
 30
0.0
 11
244.9707855223947
 21
135.3916815600399
 31
0.0
  0
LINE
  5
1DC
330
1F
100
AcDbEntity
  8
1
  6
Continuous
 62
     7
100
AcDbLine
 10
242.5707855223947
 20
134.9416815600398
 30
0.0
 11
244.9707855223947
 21
136.3273222060949
 31
0.0
  0
SOLID
  5
1DD
330
1F
100
AcDbEntity
  8
1
 62
     2
100
AcDbTrace
 10
261.0735756387562
 20
147.4839176711029
 30
0.0
 11
259.8764243612415
 21
146.7927420587691
 31
0.0
 12
257.8499999999989
 22
151.6849632348043
 32
0.0
 13
257.8499999999989
 23
151.6849632348043
 33
0.0
  0
LEADER
  5
1DE
330
1F
100
AcDbEntity
  8
1
  6
Continuous
 62
     2
100
AcDbLeader
  3
Standard
 71
     0
 76
     3
 10
257.8499999999989
 20
151.6849632348043
 30
0.0
 10
269.1147428780172
 20
132.173856235877
 30
0.0
 10
292.0030559317325
 20
132.173856235877
 30
0.0
  0
SOLID
  5
1DF
330
1F
100
AcDbEntity
  8
1
 62
     2
100
AcDbTrace
 10
195.3353434645629
 20
146.7927420587691
 30
0.0
 11
194.1381921870482
 21
147.4839176711029
 31
0.0
 12
197.3617678258055
 22
151.6849632348043
 32
0.0
 13
197.3617678258055
 23
151.6849632348043
 33
0.0
  0
LEADER
  5
1E0
330
1F
100
AcDbEntity
  8
1
  6
Continuous
 62
     2
100
AcDbLeader
  3
Standard
 71
     0
 76
     3
 10
197.3617678258055
 20
151.6849632348043
 30
0.0
 10
186.0970249477813
 20
132.1738562358667
 30
0.0
 10
163.708007834807
 20
132.1738562358667
 30
0.0
  0
SOLID
  5
1E1
330
1F
100
AcDbEntity
  8
1
 62
     2
100
AcDbTrace
 10
226.0735756387563
 20
157.9839176711031
 30
0.0
 11
224.8764243612416
 21
157.2927420587693
 31
0.0
 12
222.849999999999
 22
162.1849632348045
 32
0.0
 13
222.849999999999
 23
162.1849632348045
 33
0.0
  0
LEADER
  5
1E2
330
1F
100
AcDbEntity
  8
1
  6
Continuous
 62
     2
100
AcDbLeader
  3
Standard
 71
     0
 76
     3
 10
222.849999999999
 20
162.1849632348045
 30
0.0
 10
240.1769207045105
 20
132.1738562358734
 30
0.0
 10
250.1210850040219
 20
132.1738562358734
 30
0.0
  0
MTEXT
  5
1E3
330
1F
100
AcDbEntity
  8
1
 62
     7
100
AcDbMText
 10
51.0
 20
45.75000000000001
 30
0.0
 40
5.25
 41
0.0
 71
     4
 72
     1
  1
共用形
  7
CONVERTER_11
 73
     1
 44
0.54545454545455
  0
MTEXT
  5
1E5
330
1F
100
AcDbEntity
  8
0
 62
     7
100
AcDbMText
 10
281.1416642710834
 20
136.673856235877
 30
0.0
 40
5.25
 41
0.0
 71
     5
 72
     1
  1
Rc1/2
  7
CONVERTER_12
 73
     1
 44
1.32052821128451
  0
MTEXT
  5
1E6
330
1F
100
AcDbEntity
  8
1
 62
     7
100
AcDbMText
 10
174.9733804557442
 20
136.6738562358667
 30
0.0
 40
5.25
 41
0.0
 71
     5
 72
     1
  1
PJ1/2
  7
CONVERTER_12
 73
     1
 44
1.32052821128451
  0
MTEXT
  5
1E7
330
1F
100
AcDbEntity
  8
0
 62
     7
100
AcDbMText
 10
51.0
 20
56.25
 30
0.0
 40
5.25
 41
0.0
 71
     4
 72
     1
  1
JIS
  7
CONVERTER_12
 73
     1
 44
1.32052821128451
  0
MTEXT
  5
1E8
330
1F
100
AcDbEntity
  8
0
 62
     7
100
AcDbMText
 10
85.5
 20
34.12500000000003
 30
0.0
 40
5.25
 41
0.0
 71
     5
 72
     1
  1
化粧バルブ
  7
CONVERTER_11
 73
     1
 44
1.0
  0
MTEXT
  5
1E9
330
1F
100
AcDbEntity
  8
0
 62
     7
100
AcDbMText
 10
85.50000000000001
 20
21.375
 30
0.0
 40
5.25
 41
0.0
 71
     5
 72
     1
  1
V21A-13-(色)
  7
CONVERTER_11
 73
     1
 44
1.0
  0
MTEXT
  5
1EA
330
1F
100
AcDbEntity
  8
0
 62
     7
100
AcDbMText
 10
127.8750000001278
 20
25.5000000000255
 30
0.0
 40
5.25
 41
0.0
 71
     5
 72
     1
  1
1
  7
CONVERTER_12
 73
     1
 44
0.7202881152461
  0
MTEXT
  5
1EB
330
1F
100
AcDbEntity
  8
0
 62
     7
100
AcDbMText
 10
140.6250000001406
 20
25.5000000000255
 30
0.0
 40
5.25
 41
0.0
 71
     5
 72
     1
  1
1,5
  7
CONVERTER_12
 73
     1
 44
0.7202881152461
  0
MTEXT
  5
1EC
330
1F
100
AcDbEntity
  8
1
 62
     7
100
AcDbMText
 10
263.8872818615483
 20
369.3043274319432
 30
0.0
 40
5.25
 41
0.0
 71
     5
 72
     1
  1
赤
  7
CONVERTER_11
 73
     1
 44
0.54545454545455
  0
MTEXT
  5
1ED
330
1F
100
AcDbEntity
  8
1
 62
     7
100
AcDbMText
 10
263.8872818615483
 20
379.8043274319432
 30
0.0
 40
5.25
 41
0.0
 71
     5
 72
     1
  1
青
  7
CONVERTER_11
 73
     1
 44
0.54545454545455
  0
MTEXT
  5
1EE
330
1F
100
AcDbEntity
  8
1
 62
     7
100
AcDbMText
 10
224.8872818615483
 20
369.3043274319432
 30
0.0
 40
5.25
 41
0.0
 71
     5
 72
     1
  1
V21A-13-R
  7
CONVERTER_12
 73
     1
 44
0.7202881152461
  0
MTEXT
  5
1EF
330
1F
100
AcDbEntity
  8
1
 62
     7
100
AcDbMText
 10
224.8872818615483
 20
379.8043274319432
 30
0.0
 40
5.25
 41
0.0
 71
     5
 72
     1
  1
V21A-13-B
  7
CONVERTER_12
 73
     1
 44
0.7202881152461
  0
MTEXT
  5
1F0
330
1F
100
AcDbEntity
  8
1
 62
     7
100
AcDbMText
 10
263.8872818615483
 20
400.8043274319432
 30
0.0
 40
5.25
 41
0.0
 71
     5
 72
     1
  1
ビスの色
  7
CONVERTER_11
 73
     1
 44
0.54545454545455
  0
MTEXT
  5
1F1
330
1F
100
AcDbEntity
  8
1
 62
     7
100
AcDbMText
 10
224.8872818615483
 20
400.8043274319432
 30
0.0
 40
5.25
 41
0.0
 71
     5
 72
     1
  1
品番
  7
CONVERTER_11
 73
     1
 44
0.54545454545455
  0
MTEXT
  5
1F2
330
1F
100
AcDbEntity
  8
1
 62
     7
100
AcDbMText
 10
224.8872818615483
 20
390.3043274319432
 30
0.0
 40
5.25
 41
0.0
 71
     5
 72
     1
  1
V21A-13
  7
CONVERTER_12
 73
     1
 44
0.7202881152461
  0
MTEXT
  5
1F3
330
1F
100
AcDbEntity
  8
1
 62
     7
100
AcDbMText
 10
263.8872818615483
 20
390.3043274319432
 30
0.0
 40
5.25
 41
0.0
 71
     5
 72
     1
  1
無地
  7
CONVERTER_11
 73
     1
 44
0.54545454545455
  0
DIMENSION
  5
1FE
330
1F
100
AcDbEntity
  8
1
100
AcDbDimension
  2
*D8
 10
177.8499999999989
 20
162.1849632348043
 30
0.0
 11
173.7249999999989
 21
190.6849569888397
 31
0.0
 70
    32
  1
57リフト5
 71
     5
 42
-1.0
 53
90.0
  3
ME10_DIM_10
100
AcDbAlignedDimension
 13
222.8499999999989
 23
219.185045491481
 33
0.0
 14
188.3499999999989
 24
162.1849632348043
 34
0.0
 50
90.0
100
AcDbRotatedDimension
  0
DIMENSION
  5
209
330
1F
100
AcDbEntity
  8
1
100
AcDbDimension
  2
*D9
 10
78.83576178628012
 20
332.1849632348046
 30
0.0
 11
91.83576178628007
 21
336.3099632348046
 31
0.0
 70
    32
  1
<>
 71
     5
 42
-1.0
 53
0.00013888888889
  3
ME10_DIM_11
100
AcDbAlignedDimension
 13
104.83576178628
 23
314.6738562358739
 33
0.0
 14
78.83576178628012
 24
314.6738562358739
 34
0.0
100
AcDbRotatedDimension
  0
DIMENSION
  5
214
330
1F
100
AcDbEntity
  8
1
100
AcDbDimension
  2
*D10
 10
192.8499999999989
 20
132.1738562358694
 30
0.0
 11
207.8499999999989
 21
136.2988562358694
 31
0.0
 70
    32
  1
<>
 71
     5
 42
-1.0
 53
0.00013888888889
  3
ME10_DIM_12
100
AcDbAlignedDimension
 13
222.8499999999989
 23
144.640413325502
 33
0.0
 14
192.8499999999989
 24
152.8469632348046
 34
0.0
100
AcDbRotatedDimension
  0
DIMENSION
  5
21F
330
1F
100
AcDbEntity
  8
1
100
AcDbDimension
  2
*D11
 10
192.849999999999
 20
120.1738562358715
 30
0.0
 11
225.3500531645746
 21
124.2988562358715
 31
0.0
 70
    32
  1
<>
 71
     5
 42
-1.0
 53
0.00013888888889
  3
ME10_DIM_13
100
AcDbAlignedDimension
 13
257.8499999999991
 23
149.6849632348029
 33
0.0
 14
192.8499999999989
 24
152.8469632348046
 34
0.0
100
AcDbRotatedDimension
  0
ENDSEC
  0
SECTION
  2
OBJECTS
  0
DICTIONARY
  5
C
330
0
100
AcDbDictionary
281
     1
  3
ACAD_GROUP
350
D
  3
ACAD_LAYOUT
350
1A
  3
ACAD_MATERIAL
350
3B
  3
ACAD_MLEADERSTYLE
350
222
  3
ACAD_MLINESTYLE
350
17
  3
ACAD_PLOTSETTINGS
350
19
  3
ACAD_PLOTSTYLENAME
350
E
  3
ACAD_VISUALSTYLE
350
2A
  3
AcDbVariableDictionary
350
220
  0
DICTIONARY
  5
D
102
{ACAD_REACTORS
330
C
102
}
330
C
100
AcDbDictionary
281
     1
  0
DICTIONARY
  5
1A
102
{ACAD_REACTORS
330
C
102
}
330
C
100
AcDbDictionary
281
     1
  3
Layout1
350
1E
  3
Layout2
350
26
  3
Model
350
22
  0
DICTIONARY
  5
3B
102
{ACAD_REACTORS
330
C
102
}
330
C
100
AcDbDictionary
281
     1
  3
ByBlock
350
3D
  3
ByLayer
350
3C
  3
Global
350
3E
  0
DICTIONARY
  5
222
102
{ACAD_REACTORS
330
C
102
}
330
C
100
AcDbDictionary
281
     1
  0
DICTIONARY
  5
17
102
{ACAD_REACTORS
330
C
102
}
330
C
100
AcDbDictionary
281
     1
  3
Standard
350
18
  0
DICTIONARY
  5
19
102
{ACAD_REACTORS
330
C
102
}
330
C
100
AcDbDictionary
281
     1
  0
ACDBDICTIONARYWDFLT
  5
E
102
{ACAD_REACTORS
330
C
102
}
330
C
100
AcDbDictionary
281
     1
  3
Normal
350
F
100
AcDbDictionaryWithDefault
340
F
  0
DICTIONARY
  5
2A
102
{ACAD_REACTORS
330
C
102
}
330
C
100
AcDbDictionary
281
     1
  3
2dWireframe
350
2F
  3
3D Hidden
350
31
  3
3dWireframe
350
30
  3
Basic
350
32
  3
Brighten
350
36
  3
ColorChange
350
3A
  3
Conceptual
350
34
  3
Dim
350
35
  3
Facepattern
350
39
  3
Flat
350
2B
  3
FlatWithEdges
350
2C
  3
Gouraud
350
2D
  3
GouraudWithEdges
350
2E
  3
Linepattern
350
38
  3
Realistic
350
33
  3
Thicken
350
37
  0
DICTIONARY
  5
220
102
{ACAD_REACTORS
330
C
102
}
330
C
100
AcDbDictionary
281
     1
  3
DIMASSOC
350
223
  3
HIDETEXT
350
224
  0
LAYOUT
  5
1E
102
{ACAD_REACTORS
330
1A
102
}
330
1A
100
AcDbPlotSettings
  1

  2
none_device
  4

  6

 40
0.0
 41
0.0
 42
0.0
 43
0.0
 44
0.0
 45
0.0
 46
0.0
 47
0.0
 48
0.0
 49
0.0
140
0.0
141
0.0
142
1.0
143
1.0
 70
   688
 72
     0
 73
     0
 74
     5
  7

 75
    16
147
1.0
148
0.0
149
0.0
100
AcDbLayout
  1
Layout1
 70
     1
 71
     1
 10
0.0
 20
0.0
 11
12.0
 21
9.0
 12
0.0
 22
0.0
 32
0.0
 14
1.00000000000000E+20
 24
1.00000000000000E+20
 34
1.00000000000000E+20
 15
-1.00000000000000E+20
 25
-1.00000000000000E+20
 35
-1.00000000000000E+20
146
0.0
 13
0.0
 23
0.0
 33
0.0
 16
1.0
 26
0.0
 36
0.0
 17
0.0
 27
1.0
 37
0.0
 76
     0
330
1B
  0
LAYOUT
  5
26
102
{ACAD_REACTORS
330
1A
102
}
330
1A
100
AcDbPlotSettings
  1

  2
none_device
  4

  6

 40
0.0
 41
0.0
 42
0.0
 43
0.0
 44
0.0
 45
0.0
 46
0.0
 47
0.0
 48
0.0
 49
0.0
140
0.0
141
0.0
142
1.0
143
1.0
 70
   688
 72
     0
 73
     0
 74
     5
  7

 75
    16
147
1.0
148
0.0
149
0.0
100
AcDbLayout
  1
Layout2
 70
     1
 71
     2
 10
0.0
 20
0.0
 11
0.0
 21
0.0
 12
0.0
 22
0.0
 32
0.0
 14
0.0
 24
0.0
 34
0.0
 15
0.0
 25
0.0
 35
0.0
146
0.0
 13
0.0
 23
0.0
 33
0.0
 16
1.0
 26
0.0
 36
0.0
 17
0.0
 27
1.0
 37
0.0
 76
     0
330
23
  0
LAYOUT
  5
22
102
{ACAD_REACTORS
330
1A
102
}
330
1A
100
AcDbPlotSettings
  1

  2
none_device
  4

  6

 40
0.0
 41
0.0
 42
0.0
 43
0.0
 44
0.0
 45
0.0
 46
0.0
 47
0.0
 48
0.0
 49
0.0
140
0.0
141
0.0
142
1.0
143
1.0
 70
  1712
 72
     0
 73
     0
 74
     0
  7

 75
     0
147
1.0
148
0.0
149
0.0
100
AcDbLayout
  1
Model
 70
     1
 71
     0
 10
0.0
 20
0.0
 11
12.0
 21
9.0
 12
0.0
 22
0.0
 32
0.0
 14
0.0
 24
0.0
 34
0.0
 15
315.0
 25
445.5
 35
0.0
146
0.0
 13
0.0
 23
0.0
 33
0.0
 16
1.0
 26
0.0
 36
0.0
 17
0.0
 27
1.0
 37
0.0
 76
     0
330
1F
331
29
  0
MATERIAL
  5
3D
102
{ACAD_REACTORS
330
3B
102
}
102
{ACAD_XDICTIONARY
360
247
102
}
330
3B
100
AcDbMaterial
  1
ByBlock
  0
MATERIAL
  5
3C
102
{ACAD_REACTORS
330
3B
102
}
102
{ACAD_XDICTIONARY
360
245
102
}
330
3B
100
AcDbMaterial
  1
ByLayer
  0
MATERIAL
  5
3E
102
{ACAD_REACTORS
330
3B
102
}
102
{ACAD_XDICTIONARY
360
249
102
}
330
3B
100
AcDbMaterial
  1
Global
  0
MLINESTYLE
  5
18
102
{ACAD_REACTORS
330
17
102
}
330
17
100
AcDbMlineStyle
  2
Standard
 70
     0
  3

 62
   256
 51
90.0
 52
90.0
 71
     2
 49
0.5
 62
   256
  6
BYLAYER
 49
-0.5
 62
   256
  6
BYLAYER
  0
ACDBPLACEHOLDER
  5
F
102
{ACAD_REACTORS
330
E
102
}
330
E
  0
VISUALSTYLE
  5
2F
102
{ACAD_REACTORS
330
2A
102
}
102
{ACAD_XDICTIONARY
360
22D
102
}
330
2A
100
AcDbVisualStyle
  2
2dWireframe
 70
     4
 71
     0
 72
     2
 73
     0
 90
        0
 40
-0.6
 41
-30.0
 62
     5
 63
     7
 74
     1
 91
        4
 64
     7
 65
   257
 75
     1
175
     1
 42
1.0
 92
        0
 66
   257
 43
1.0
 76
     1
 77
     6
 78
     2
 67
     7
 79
     5
170
     0
171
     0
290
     0
174
     0
 93
        1
 44
0.0
173
     0
291
     0
 45
0.0
1001
ACAD
1000
AcDbSavedByObjectVersion
1070
     0
  0
VISUALSTYLE
  5
31
102
{ACAD_REACTORS
330
2A
102
}
102
{ACAD_XDICTIONARY
360
231
102
}
330
2A
100
AcDbVisualStyle
  2
3D Hidden
 70
     6
 71
     1
 72
     2
 73
     2
 90
        0
 40
-0.6
 41
-30.0
 62
     5
 63
     7
 74
     2
 91
        2
 64
     7
 65
   257
 75
     2
175
     1
 42
40.0
 92
        0
 66
   257
 43
1.0
 76
     1
 77
     6
 78
     2
 67
     7
 79
     3
170
     0
171
     0
290
     0
174
     0
 93
        1
 44
0.0
173
     0
291
     0
 45
0.0
1001
ACAD
1000
AcDbSavedByObjectVersion
1070
     0
  0
VISUALSTYLE
  5
30
102
{ACAD_REACTORS
330
2A
102
}
102
{ACAD_XDICTIONARY
360
22F
102
}
330
2A
100
AcDbVisualStyle
  2
3dWireframe
 70
     5
 71
     0
 72
     2
 73
     0
 90
        0
 40
-0.6
 41
-30.0
 62
     5
 63
     7
 74
     1
 91
        4
 64
     7
 65
   257
 75
     1
175
     1
 42
1.0
 92
        0
 66
   257
 43
1.0
 76
     1
 77
     6
 78
     2
 67
     7
 79
     5
170
     0
171
     0
290
     0
174
     0
 93
        1
 44
0.0
173
     0
291
     0
 45
0.0
1001
ACAD
1000
AcDbSavedByObjectVersion
1070
     0
  0
VISUALSTYLE
  5
32
102
{ACAD_REACTORS
330
2A
102
}
102
{ACAD_XDICTIONARY
360
233
102
}
330
2A
100
AcDbVisualStyle
  2
Basic
 70
     7
 71
     1
 72
     0
 73
     1
 90
        0
 40
-0.6
 41
-30.0
 62
     5
 63
     7
 74
     0
 91
        4
 64
     7
 65
   257
 75
     1
175
     1
 42
1.0
 92
        8
 66
     7
 43
1.0
 76
     1
 77
     6
 78
     2
 67
     7
 79
     5
170
     0
171
     0
290
     0
174
     0
 93
        1
 44
0.0
173
     0
291
     1
 45
0.0
1001
ACAD
1000
AcDbSavedByObjectVersion
1070
     0
  0
VISUALSTYLE
  5
36
102
{ACAD_REACTORS
330
2A
102
}
102
{ACAD_XDICTIONARY
360
23B
102
}
330
2A
100
AcDbVisualStyle
  2
Brighten
 70
    12
 71
     2
 72
     2
 73
     0
 90
        0
 40
-0.6
 41
-30.0
 62
     5
 63
     7
 74
     1
 91
        4
 64
     7
 65
   257
 75
     1
175
     1
 42
1.0
 92
        8
 66
     7
 43
1.0
 76
     1
 77
     6
 78
     2
 67
     7
 79
     5
170
     0
171
     0
290
     0
174
     0
 93
        1
 44
50.0
173
     0
291
     1
 45
0.0
1001
ACAD
1000
AcDbSavedByObjectVersion
1070
     0
  0
VISUALSTYLE
  5
3A
102
{ACAD_REACTORS
330
2A
102
}
102
{ACAD_XDICTIONARY
360
243
102
}
330
2A
100
AcDbVisualStyle
  2
ColorChange
 70
    16
 71
     2
 72
     2
 73
     3
 90
        0
 40
-0.6
 41
-30.0
 62
     5
 63
     8
 74
     1
 91
        4
 64
     7
 65
   257
 75
     1
175
     1
 42
1.0
 92
        8
 66
     8
 43
1.0
 76
     1
 77
     6
 78
     2
 67
     7
 79
     5
170
     0
171
     0
290
     0
174
     0
 93
        1
 44
0.0
173
     0
291
     1
 45
0.0
1001
ACAD
1000
AcDbSavedByObjectVersion
1070
     0
  0
VISUALSTYLE
  5
34
102
{ACAD_REACTORS
330
2A
102
}
102
{ACAD_XDICTIONARY
360
237
102
}
330
2A
100
AcDbVisualStyle
  2
Conceptual
 70
     9
 71
     3
 72
     2
 73
     0
 90
        0
 40
-0.6
 41
-30.0
 62
     5
 63
     7
 74
     2
 91
        2
 64
     7
 65
   257
 75
     1
175
     1
 42
40.0
 92
        8
 66
     7
 43
1.0
 76
     1
 77
     6
 78
     2
 67
     7
 79
     3
170
     0
171
     0
290
     0
174
     0
 93
        1
 44
0.0
173
     0
291
     0
 45
0.0
1001
ACAD
1000
AcDbSavedByObjectVersion
1070
     0
  0
VISUALSTYLE
  5
35
102
{ACAD_REACTORS
330
2A
102
}
102
{ACAD_XDICTIONARY
360
239
102
}
330
2A
100
AcDbVisualStyle
  2
Dim
 70
    11
 71
     2
 72
     2
 73
     0
 90
        0
 40
-0.6
 41
-30.0
 62
     5
 63
     7
 74
     1
 91
        4
 64
     7
 65
   257
 75
     1
175
     1
 42
1.0
 92
        8
 66
     7
 43
1.0
 76
     1
 77
     6
 78
     2
 67
     7
 79
     5
170
     0
171
     0
290
     0
174
     0
 93
        1
 44
-50.0
173
     0
291
     1
 45
0.0
1001
ACAD
1000
AcDbSavedByObjectVersion
1070
     0
  0
VISUALSTYLE
  5
39
102
{ACAD_REACTORS
330
2A
102
}
102
{ACAD_XDICTIONARY
360
241
102
}
330
2A
100
AcDbVisualStyle
  2
Facepattern
 70
    15
 71
     2
 72
     2
 73
     0
 90
        0
 40
-0.6
 41
-30.0
 62
     5
 63
     7
 74
     1
 91
        4
 64
     7
 65
   257
 75
     1
175
     1
 42
1.0
 92
        8
 66
     7
 43
1.0
 76
     1
 77
     6
 78
     2
 67
     7
 79
     5
170
     0
171
     0
290
     0
174
     0
 93
        1
 44
0.0
173
     0
291
     1
 45
0.0
1001
ACAD
1000
AcDbSavedByObjectVersion
1070
     0
  0
VISUALSTYLE
  5
2B
102
{ACAD_REACTORS
330
2A
102
}
102
{ACAD_XDICTIONARY
360
225
102
}
330
2A
100
AcDbVisualStyle
  2
Flat
 70
     0
 71
     2
 72
     1
 73
     1
 90
        2
 40
-0.6
 41
30.0
 62
     5
 63
     7
 74
     0
 91
        4
 64
     7
 65
   257
 75
     1
175
     1
 42
1.0
 92
        8
 66
     7
 43
1.0
 76
     1
 77
     6
 78
     2
 67
     7
 79
     5
170
     0
171
     0
290
     0
174
     0
 93
       13
 44
0.0
173
     0
291
     1
 45
0.0
1001
ACAD
1000
AcDbSavedByObjectVersion
1070
     0
  0
VISUALSTYLE
  5
2C
102
{ACAD_REACTORS
330
2A
102
}
102
{ACAD_XDICTIONARY
360
227
102
}
330
2A
100
AcDbVisualStyle
  2
FlatWithEdges
 70
     1
 71
     2
 72
     1
 73
     1
 90
        2
 40
-0.6
 41
30.0
 62
     5
 63
     7
 74
     1
 91
        4
 64
     7
 65
   257
 75
     1
175
     1
 42
1.0
 92
        0
 66
   257
 43
1.0
 76
     1
 77
     6
 78
     2
 67
     7
 79
     5
170
     0
171
     0
290
     0
174
     0
 93
       13
 44
0.0
173
     0
291
     1
 45
0.0
1001
ACAD
1000
AcDbSavedByObjectVersion
1070
     0
  0
VISUALSTYLE
  5
2D
102
{ACAD_REACTORS
330
2A
102
}
102
{ACAD_XDICTIONARY
360
229
102
}
330
2A
100
AcDbVisualStyle
  2
Gouraud
 70
     2
 71
     2
 72
     2
 73
     1
 90
        2
 40
-0.6
 41
30.0
 62
     5
 63
     7
 74
     0
 91
        4
 64
     7
 65
   257
 75
     1
175
     1
 42
1.0
 92
        0
 66
     7
 43
1.0
 76
     1
 77
     6
 78
     2
 67
     7
 79
     5
170
     0
171
     0
290
     0
174
     0
 93
       13
 44
0.0
173
     0
291
     1
 45
0.0
1001
ACAD
1000
AcDbSavedByObjectVersion
1070
     0
  0
VISUALSTYLE
  5
2E
102
{ACAD_REACTORS
330
2A
102
}
102
{ACAD_XDICTIONARY
360
22B
102
}
330
2A
100
AcDbVisualStyle
  2
GouraudWithEdges
 70
     3
 71
     2
 72
     2
 73
     1
 90
        2
 40
-0.6
 41
30.0
 62
     5
 63
     7
 74
     1
 91
        4
 64
     7
 65
   257
 75
     1
175
     1
 42
1.0
 92
        0
 66
   257
 43
1.0
 76
     1
 77
     6
 78
     2
 67
     7
 79
     5
170
     0
171
     0
290
     0
174
     0
 93
       13
 44
0.0
173
     0
291
     1
 45
0.0
1001
ACAD
1000
AcDbSavedByObjectVersion
1070
     0
  0
VISUALSTYLE
  5
38
102
{ACAD_REACTORS
330
2A
102
}
102
{ACAD_XDICTIONARY
360
23F
102
}
330
2A
100
AcDbVisualStyle
  2
Linepattern
 70
    14
 71
     2
 72
     2
 73
     0
 90
        0
 40
-0.6
 41
-30.0
 62
     5
 63
     7
 74
     1
 91
        4
 64
     7
 65
   257
 75
     7
175
     7
 42
1.0
 92
        8
 66
     7
 43
1.0
 76
     1
 77
     6
 78
     2
 67
     7
 79
     5
170
     0
171
     0
290
     0
174
     0
 93
        1
 44
0.0
173
     0
291
     1
 45
0.0
1001
ACAD
1000
AcDbSavedByObjectVersion
1070
     0
  0
VISUALSTYLE
  5
33
102
{ACAD_REACTORS
330
2A
102
}
102
{ACAD_XDICTIONARY
360
235
102
}
330
2A
100
AcDbVisualStyle
  2
Realistic
 70
     8
 71
     2
 72
     2
 73
     0
 90
        0
 40
-0.6
 41
-30.0
 62
     5
 63
     7
 74
     1
 91
        0
 64
     7
 65
   257
 75
     1
175
     1
 42
1.0
 92
        8
 66
     8
 43
1.0
 76
     1
 77
     6
 78
     2
 67
     7
 79
     5
170
     0
171
     0
290
     0
174
     0
 93
       13
 44
0.0
173
     0
291
     0
 45
0.0
1001
ACAD
1000
AcDbSavedByObjectVersion
1070
     0
  0
VISUALSTYLE
  5
37
102
{ACAD_REACTORS
330
2A
102
}
102
{ACAD_XDICTIONARY
360
23D
102
}
330
2A
100
AcDbVisualStyle
  2
Thicken
 70
    13
 71
     2
 72
     2
 73
     0
 90
        0
 40
-0.6
 41
-30.0
 62
     5
 63
     7
 74
     1
 91
        4
 64
     7
 65
   257
 75
     1
175
     1
 42
1.0
 92
       12
 66
     7
 43
1.0
 76
     1
 77
     6
 78
     2
 67
     7
 79
     5
170
     0
171
     0
290
     0
174
     0
 93
        1
 44
0.0
173
     0
291
     1
 45
0.0
1001
ACAD
1000
AcDbSavedByObjectVersion
1070
     0
  0
DICTIONARYVAR
  5
223
102
{ACAD_REACTORS
330
220
102
}
330
220
100
DictionaryVariables
280
     0
  1
2
  0
DICTIONARYVAR
  5
224
102
{ACAD_REACTORS
330
220
102
}
330
220
100
DictionaryVariables
280
     0
  1
1
  0
DICTIONARY
  5
247
330
3D
100
AcDbDictionary
280
     1
281
     1
  3
ACAD_XREC_ROUNDTRIP
360
248
  0
DICTIONARY
  5
245
330
3C
100
AcDbDictionary
280
     1
281
     1
  3
ACAD_XREC_ROUNDTRIP
360
246
  0
DICTIONARY
  5
249
330
3E
100
AcDbDictionary
280
     1
281
     1
  3
ACAD_XREC_ROUNDTRIP
360
24A
  0
DICTIONARY
  5
22D
330
2F
100
AcDbDictionary
280
     1
281
     1
  3
ACAD_XREC_ROUNDTRIP
360
22E
  0
DICTIONARY
  5
231
330
31
100
AcDbDictionary
280
     1
281
     1
  3
ACAD_XREC_ROUNDTRIP
360
232
  0
DICTIONARY
  5
22F
330
30
100
AcDbDictionary
280
     1
281
     1
  3
ACAD_XREC_ROUNDTRIP
360
230
  0
DICTIONARY
  5
233
330
32
100
AcDbDictionary
280
     1
281
     1
  3
ACAD_XREC_ROUNDTRIP
360
234
  0
DICTIONARY
  5
23B
330
36
100
AcDbDictionary
280
     1
281
     1
  3
ACAD_XREC_ROUNDTRIP
360
23C
  0
DICTIONARY
  5
243
330
3A
100
AcDbDictionary
280
     1
281
     1
  3
ACAD_XREC_ROUNDTRIP
360
244
  0
DICTIONARY
  5
237
330
34
100
AcDbDictionary
280
     1
281
     1
  3
ACAD_XREC_ROUNDTRIP
360
238
  0
DICTIONARY
  5
239
330
35
100
AcDbDictionary
280
     1
281
     1
  3
ACAD_XREC_ROUNDTRIP
360
23A
  0
DICTIONARY
  5
241
330
39
100
AcDbDictionary
280
     1
281
     1
  3
ACAD_XREC_ROUNDTRIP
360
242
  0
DICTIONARY
  5
225
330
2B
100
AcDbDictionary
280
     1
281
     1
  3
ACAD_XREC_ROUNDTRIP
360
226
  0
DICTIONARY
  5
227
330
2C
100
AcDbDictionary
280
     1
281
     1
  3
ACAD_XREC_ROUNDTRIP
360
228
  0
DICTIONARY
  5
229
330
2D
100
AcDbDictionary
280
     1
281
     1
  3
ACAD_XREC_ROUNDTRIP
360
22A
  0
DICTIONARY
  5
22B
330
2E
100
AcDbDictionary
280
     1
281
     1
  3
ACAD_XREC_ROUNDTRIP
360
22C
  0
DICTIONARY
  5
23F
330
38
100
AcDbDictionary
280
     1
281
     1
  3
ACAD_XREC_ROUNDTRIP
360
240
  0
DICTIONARY
  5
235
330
33
100
AcDbDictionary
280
     1
281
     1
  3
ACAD_XREC_ROUNDTRIP
360
236
  0
DICTIONARY
  5
23D
330
37
100
AcDbDictionary
280
     1
281
     1
  3
ACAD_XREC_ROUNDTRIP
360
23E
  0
XRECORD
  5
248
102
{ACAD_REACTORS
330
247
102
}
330
247
100
AcDbXrecord
280
     1
102
MATERIAL
148
0.0
149
0.0
149
0.0
 93
        0
 94
      127
282
     0
 72
     1
 77
     1
171
     1
175
     1
179
     1
273
     0
  0
XRECORD
  5
246
102
{ACAD_REACTORS
330
245
102
}
330
245
100
AcDbXrecord
280
     1
102
MATERIAL
148
0.0
149
0.0
149
0.0
 93
        0
 94
      127
282
     0
 72
     1
 77
     1
171
     1
175
     1
179
     1
273
     0
  0
XRECORD
  5
24A
102
{ACAD_REACTORS
330
249
102
}
330
249
100
AcDbXrecord
280
     1
102
MATERIAL
148
0.0
149
0.0
149
0.0
 93
        0
 94
      127
282
     0
 72
     1
 77
     1
171
     1
175
     1
179
     1
273
     0
  0
XRECORD
  5
22E
102
{ACAD_REACTORS
330
22D
102
}
330
22D
100
AcDbXrecord
280
     1
102
RTVSPropertyOp0
 70
     1
102
RTVSPropertyOp1
 70
     1
102
RTVSPropertyOp2
 70
     1
102
RTVSPropertyOp3
 70
     1
102
RTVSPropertyOp4
 70
     1
102
RTVSPropertyOp5
 70
     1
102
RTVSPropertyOp6
 70
     1
102
RTVSPropertyOp7
 70
     1
102
RTVSPropertyOp8
 70
     1
102
RTVSPropertyOp9
 70
     1
102
RTVSPropertyOp10
 70
     1
102
RTVSPropertyOp11
 70
     1
102
RTVSPropertyOp12
 70
     1
102
RTVSPropertyOp13
 70
     1
102
RTVSPropertyOp14
 70
     1
102
RTVSPropertyOp15
 70
     1
102
RTVSPropertyOp16
 70
     1
102
RTVSPropertyOp17
 70
     1
102
RTVSPropertyOp18
 70
     1
102
RTVSPropertyOp19
 70
     1
102
RTVSPropertyOp20
 70
     1
102
RTVSPropertyOp21
 70
     1
102
RTVSPropertyOp22
 70
     1
102
RTVSPropertyOp23
 70
     1
102
RTVSPropertyOp24
 70
     1
102
RTVSPropertyOp25
 70
     1
102
RTVSPropertyOp26
 70
     1
102
RTVSPropertyOp27
 70
     1
102
RTVSPropertyOp28
 70
     1
102
RTVSPropertyOp29
 70
     1
102
RTVSPropertyOp30
 70
     1
102
RTVSPropertyOp31
 70
     1
102
RTVSPropertyOp32
 70
     1
  0
XRECORD
  5
232
102
{ACAD_REACTORS
330
231
102
}
330
231
100
AcDbXrecord
280
     1
102
RTVSPropertyOp0
 70
     1
102
RTVSPropertyOp1
 70
     1
102
RTVSPropertyOp2
 70
     1
102
RTVSPropertyOp3
 70
     1
102
RTVSPropertyOp4
 70
     1
102
RTVSPropertyOp5
 70
     1
102
RTVSPropertyOp6
 70
     1
102
RTVSPropertyOp7
 70
     1
102
RTVSPropertyOp8
 70
     1
102
RTVSPropertyOp9
 70
     1
102
RTVSPropertyOp10
 70
     1
102
RTVSPropertyOp11
 70
     1
102
RTVSPropertyOp12
 70
     1
102
RTVSPropertyOp13
 70
     1
102
RTVSPropertyOp14
 70
     1
102
RTVSPropertyOp15
 70
     1
102
RTVSPropertyOp16
 70
     1
102
RTVSPropertyOp17
 70
     1
102
RTVSPropertyOp18
 70
     1
102
RTVSPropertyOp19
 70
     1
102
RTVSPropertyOp20
 70
     1
102
RTVSPropertyOp21
 70
     1
102
RTVSPropertyOp22
 70
     1
102
RTVSPropertyOp23
 70
     1
102
RTVSPropertyOp24
 70
     1
102
RTVSPropertyOp25
 70
     1
102
RTVSPropertyOp26
 70
     1
102
RTVSPropertyOp27
 70
     1
102
RTVSPropertyOp28
 70
     1
102
RTVSPropertyOp29
 70
     1
102
RTVSPropertyOp30
 70
     1
102
RTVSPropertyOp31
 70
     1
102
RTVSPropertyOp32
 70
     1
  0
XRECORD
  5
230
102
{ACAD_REACTORS
330
22F
102
}
330
22F
100
AcDbXrecord
280
     1
102
RTVSPropertyOp0
 70
     1
102
RTVSPropertyOp1
 70
     1
102
RTVSPropertyOp2
 70
     1
102
RTVSPropertyOp3
 70
     1
102
RTVSPropertyOp4
 70
     1
102
RTVSPropertyOp5
 70
     1
102
RTVSPropertyOp6
 70
     1
102
RTVSPropertyOp7
 70
     1
102
RTVSPropertyOp8
 70
     1
102
RTVSPropertyOp9
 70
     1
102
RTVSPropertyOp10
 70
     1
102
RTVSPropertyOp11
 70
     1
102
RTVSPropertyOp12
 70
     1
102
RTVSPropertyOp13
 70
     1
102
RTVSPropertyOp14
 70
     1
102
RTVSPropertyOp15
 70
     1
102
RTVSPropertyOp16
 70
     1
102
RTVSPropertyOp17
 70
     1
102
RTVSPropertyOp18
 70
     1
102
RTVSPropertyOp19
 70
     1
102
RTVSPropertyOp20
 70
     1
102
RTVSPropertyOp21
 70
     1
102
RTVSPropertyOp22
 70
     1
102
RTVSPropertyOp23
 70
     1
102
RTVSPropertyOp24
 70
     1
102
RTVSPropertyOp25
 70
     1
102
RTVSPropertyOp26
 70
     1
102
RTVSPropertyOp27
 70
     1
102
RTVSPropertyOp28
 70
     1
102
RTVSPropertyOp29
 70
     1
102
RTVSPropertyOp30
 70
     1
102
RTVSPropertyOp31
 70
     1
102
RTVSPropertyOp32
 70
     1
  0
XRECORD
  5
234
102
{ACAD_REACTORS
330
233
102
}
330
233
100
AcDbXrecord
280
     1
102
RTVSPropertyOp0
 70
     1
102
RTVSPropertyOp1
 70
     1
102
RTVSPropertyOp2
 70
     1
102
RTVSPropertyOp3
 70
     1
102
RTVSPropertyOp4
 70
     1
102
RTVSPropertyOp5
 70
     1
102
RTVSPropertyOp6
 70
     1
102
RTVSPropertyOp7
 70
     1
102
RTVSPropertyOp8
 70
     1
102
RTVSPropertyOp9
 70
     1
102
RTVSPropertyOp10
 70
     1
102
RTVSPropertyOp11
 70
     1
102
RTVSPropertyOp12
 70
     1
102
RTVSPropertyOp13
 70
     1
102
RTVSPropertyOp14
 70
     1
102
RTVSPropertyOp15
 70
     1
102
RTVSPropertyOp16
 70
     1
102
RTVSPropertyOp17
 70
     1
102
RTVSPropertyOp18
 70
     1
102
RTVSPropertyOp19
 70
     1
102
RTVSPropertyOp20
 70
     1
102
RTVSPropertyOp21
 70
     1
102
RTVSPropertyOp22
 70
     1
102
RTVSPropertyOp23
 70
     1
102
RTVSPropertyOp24
 70
     1
102
RTVSPropertyOp25
 70
     1
102
RTVSPropertyOp26
 70
     1
102
RTVSPropertyOp27
 70
     1
102
RTVSPropertyOp28
 70
     1
102
RTVSPropertyOp29
 70
     1
102
RTVSPropertyOp30
 70
     1
102
RTVSPropertyOp31
 70
     1
102
RTVSPropertyOp32
 70
     1
  0
XRECORD
  5
23C
102
{ACAD_REACTORS
330
23B
102
}
330
23B
100
AcDbXrecord
280
     1
102
RTVSPropertyOp0
 70
     1
102
RTVSPropertyOp1
 70
     1
102
RTVSPropertyOp2
 70
     1
102
RTVSPropertyOp3
 70
     1
102
RTVSPropertyOp4
 70
     1
102
RTVSPropertyOp5
 70
     1
102
RTVSPropertyOp6
 70
     1
102
RTVSPropertyOp7
 70
     1
102
RTVSPropertyOp8
 70
     1
102
RTVSPropertyOp9
 70
     1
102
RTVSPropertyOp10
 70
     1
102
RTVSPropertyOp11
 70
     1
102
RTVSPropertyOp12
 70
     1
102
RTVSPropertyOp13
 70
     1
102
RTVSPropertyOp14
 70
     1
102
RTVSPropertyOp15
 70
     1
102
RTVSPropertyOp16
 70
     1
102
RTVSPropertyOp17
 70
     1
102
RTVSPropertyOp18
 70
     1
102
RTVSPropertyOp19
 70
     1
102
RTVSPropertyOp20
 70
     1
102
RTVSPropertyOp21
 70
     1
102
RTVSPropertyOp22
 70
     1
102
RTVSPropertyOp23
 70
     1
102
RTVSPropertyOp24
 70
     1
102
RTVSPropertyOp25
 70
     1
102
RTVSPropertyOp26
 70
     1
102
RTVSPropertyOp27
 70
     1
102
RTVSPropertyOp28
 70
     1
102
RTVSPropertyOp29
 70
     1
102
RTVSPropertyOp30
 70
     1
102
RTVSPropertyOp31
 70
     1
102
RTVSPropertyOp32
 70
     1
  0
XRECORD
  5
244
102
{ACAD_REACTORS
330
243
102
}
330
243
100
AcDbXrecord
280
     1
102
RTVSPropertyOp0
 70
     1
102
RTVSPropertyOp1
 70
     1
102
RTVSPropertyOp2
 70
     1
102
RTVSPropertyOp3
 70
     1
102
RTVSPropertyOp4
 70
     1
102
RTVSPropertyOp5
 70
     1
102
RTVSPropertyOp6
 70
     1
102
RTVSPropertyOp7
 70
     1
102
RTVSPropertyOp8
 70
     1
102
RTVSPropertyOp9
 70
     1
102
RTVSPropertyOp10
 70
     1
102
RTVSPropertyOp11
 70
     1
102
RTVSPropertyOp12
 70
     1
102
RTVSPropertyOp13
 70
     1
102
RTVSPropertyOp14
 70
     1
102
RTVSPropertyOp15
 70
     1
102
RTVSPropertyOp16
 70
     1
102
RTVSPropertyOp17
 70
     1
102
RTVSPropertyOp18
 70
     1
102
RTVSPropertyOp19
 70
     1
102
RTVSPropertyOp20
 70
     1
102
RTVSPropertyOp21
 70
     1
102
RTVSPropertyOp22
 70
     1
102
RTVSPropertyOp23
 70
     1
102
RTVSPropertyOp24
 70
     1
102
RTVSPropertyOp25
 70
     1
102
RTVSPropertyOp26
 70
     1
102
RTVSPropertyOp27
 70
     1
102
RTVSPropertyOp28
 70
     1
102
RTVSPropertyOp29
 70
     1
102
RTVSPropertyOp30
 70
     1
102
RTVSPropertyOp31
 70
     1
102
RTVSPropertyOp32
 70
     1
  0
XRECORD
  5
238
102
{ACAD_REACTORS
330
237
102
}
330
237
100
AcDbXrecord
280
     1
102
RTVSPropertyOp0
 70
     1
102
RTVSPropertyOp1
 70
     1
102
RTVSPropertyOp2
 70
     1
102
RTVSPropertyOp3
 70
     1
102
RTVSPropertyOp4
 70
     1
102
RTVSPropertyOp5
 70
     1
102
RTVSPropertyOp6
 70
     1
102
RTVSPropertyOp7
 70
     1
102
RTVSPropertyOp8
 70
     1
102
RTVSPropertyOp9
 70
     1
102
RTVSPropertyOp10
 70
     1
102
RTVSPropertyOp11
 70
     1
102
RTVSPropertyOp12
 70
     1
102
RTVSPropertyOp13
 70
     1
102
RTVSPropertyOp14
 70
     1
102
RTVSPropertyOp15
 70
     1
102
RTVSPropertyOp16
 70
     1
102
RTVSPropertyOp17
 70
     1
102
RTVSPropertyOp18
 70
     1
102
RTVSPropertyOp19
 70
     1
102
RTVSPropertyOp20
 70
     1
102
RTVSPropertyOp21
 70
     1
102
RTVSPropertyOp22
 70
     1
102
RTVSPropertyOp23
 70
     1
102
RTVSPropertyOp24
 70
     1
102
RTVSPropertyOp25
 70
     1
102
RTVSPropertyOp26
 70
     1
102
RTVSPropertyOp27
 70
     1
102
RTVSPropertyOp28
 70
     1
102
RTVSPropertyOp29
 70
     1
102
RTVSPropertyOp30
 70
     1
102
RTVSPropertyOp31
 70
     1
102
RTVSPropertyOp32
 70
     1
  0
XRECORD
  5
23A
102
{ACAD_REACTORS
330
239
102
}
330
239
100
AcDbXrecord
280
     1
102
RTVSPropertyOp0
 70
     1
102
RTVSPropertyOp1
 70
     1
102
RTVSPropertyOp2
 70
     1
102
RTVSPropertyOp3
 70
     1
102
RTVSPropertyOp4
 70
     1
102
RTVSPropertyOp5
 70
     1
102
RTVSPropertyOp6
 70
     1
102
RTVSPropertyOp7
 70
     1
102
RTVSPropertyOp8
 70
     1
102
RTVSPropertyOp9
 70
     1
102
RTVSPropertyOp10
 70
     1
102
RTVSPropertyOp11
 70
     1
102
RTVSPropertyOp12
 70
     1
102
RTVSPropertyOp13
 70
     1
102
RTVSPropertyOp14
 70
     1
102
RTVSPropertyOp15
 70
     1
102
RTVSPropertyOp16
 70
     1
102
RTVSPropertyOp17
 70
     1
102
RTVSPropertyOp18
 70
     1
102
RTVSPropertyOp19
 70
     1
102
RTVSPropertyOp20
 70
     1
102
RTVSPropertyOp21
 70
     1
102
RTVSPropertyOp22
 70
     1
102
RTVSPropertyOp23
 70
     1
102
RTVSPropertyOp24
 70
     1
102
RTVSPropertyOp25
 70
     1
102
RTVSPropertyOp26
 70
     1
102
RTVSPropertyOp27
 70
     1
102
RTVSPropertyOp28
 70
     1
102
RTVSPropertyOp29
 70
     1
102
RTVSPropertyOp30
 70
     1
102
RTVSPropertyOp31
 70
     1
102
RTVSPropertyOp32
 70
     1
  0
XRECORD
  5
242
102
{ACAD_REACTORS
330
241
102
}
330
241
100
AcDbXrecord
280
     1
102
RTVSPropertyOp0
 70
     1
102
RTVSPropertyOp1
 70
     1
102
RTVSPropertyOp2
 70
     1
102
RTVSPropertyOp3
 70
     1
102
RTVSPropertyOp4
 70
     1
102
RTVSPropertyOp5
 70
     1
102
RTVSPropertyOp6
 70
     1
102
RTVSPropertyOp7
 70
     1
102
RTVSPropertyOp8
 70
     1
102
RTVSPropertyOp9
 70
     1
102
RTVSPropertyOp10
 70
     1
102
RTVSPropertyOp11
 70
     1
102
RTVSPropertyOp12
 70
     1
102
RTVSPropertyOp13
 70
     1
102
RTVSPropertyOp14
 70
     1
102
RTVSPropertyOp15
 70
     1
102
RTVSPropertyOp16
 70
     1
102
RTVSPropertyOp17
 70
     1
102
RTVSPropertyOp18
 70
     1
102
RTVSPropertyOp19
 70
     1
102
RTVSPropertyOp20
 70
     1
102
RTVSPropertyOp21
 70
     1
102
RTVSPropertyOp22
 70
     1
102
RTVSPropertyOp23
 70
     1
102
RTVSPropertyOp24
 70
     1
102
RTVSPropertyOp25
 70
     1
102
RTVSPropertyOp26
 70
     1
102
RTVSPropertyOp27
 70
     1
102
RTVSPropertyOp28
 70
     1
102
RTVSPropertyOp29
 70
     1
102
RTVSPropertyOp30
 70
     1
102
RTVSPropertyOp31
 70
     1
102
RTVSPropertyOp32
 70
     1
  0
XRECORD
  5
226
102
{ACAD_REACTORS
330
225
102
}
330
225
100
AcDbXrecord
280
     1
102
RTVSPropertyOp0
 70
     1
102
RTVSPropertyOp1
 70
     1
102
RTVSPropertyOp2
 70
     1
102
RTVSPropertyOp3
 70
     1
102
RTVSPropertyOp4
 70
     1
102
RTVSPropertyOp5
 70
     1
102
RTVSPropertyOp6
 70
     1
102
RTVSPropertyOp7
 70
     1
102
RTVSPropertyOp8
 70
     1
102
RTVSPropertyOp9
 70
     1
102
RTVSPropertyOp10
 70
     1
102
RTVSPropertyOp11
 70
     1
102
RTVSPropertyOp12
 70
     1
102
RTVSPropertyOp13
 70
     1
102
RTVSPropertyOp14
 70
     1
102
RTVSPropertyOp15
 70
     1
102
RTVSPropertyOp16
 70
     1
102
RTVSPropertyOp17
 70
     1
102
RTVSPropertyOp18
 70
     1
102
RTVSPropertyOp19
 70
     1
102
RTVSPropertyOp20
 70
     1
102
RTVSPropertyOp21
 70
     1
102
RTVSPropertyOp22
 70
     1
102
RTVSPropertyOp23
 70
     1
102
RTVSPropertyOp24
 70
     1
102
RTVSPropertyOp25
 70
     1
102
RTVSPropertyOp26
 70
     1
102
RTVSPropertyOp27
 70
     1
102
RTVSPropertyOp28
 70
     1
102
RTVSPropertyOp29
 70
     1
102
RTVSPropertyOp30
 70
     1
102
RTVSPropertyOp31
 70
     1
102
RTVSPropertyOp32
 70
     1
  0
XRECORD
  5
228
102
{ACAD_REACTORS
330
227
102
}
330
227
100
AcDbXrecord
280
     1
102
RTVSPropertyOp0
 70
     1
102
RTVSPropertyOp1
 70
     1
102
RTVSPropertyOp2
 70
     1
102
RTVSPropertyOp3
 70
     1
102
RTVSPropertyOp4
 70
     1
102
RTVSPropertyOp5
 70
     1
102
RTVSPropertyOp6
 70
     1
102
RTVSPropertyOp7
 70
     1
102
RTVSPropertyOp8
 70
     1
102
RTVSPropertyOp9
 70
     1
102
RTVSPropertyOp10
 70
     1
102
RTVSPropertyOp11
 70
     1
102
RTVSPropertyOp12
 70
     1
102
RTVSPropertyOp13
 70
     1
102
RTVSPropertyOp14
 70
     1
102
RTVSPropertyOp15
 70
     1
102
RTVSPropertyOp16
 70
     1
102
RTVSPropertyOp17
 70
     1
102
RTVSPropertyOp18
 70
     1
102
RTVSPropertyOp19
 70
     1
102
RTVSPropertyOp20
 70
     1
102
RTVSPropertyOp21
 70
     1
102
RTVSPropertyOp22
 70
     1
102
RTVSPropertyOp23
 70
     1
102
RTVSPropertyOp24
 70
     1
102
RTVSPropertyOp25
 70
     1
102
RTVSPropertyOp26
 70
     1
102
RTVSPropertyOp27
 70
     1
102
RTVSPropertyOp28
 70
     1
102
RTVSPropertyOp29
 70
     1
102
RTVSPropertyOp30
 70
     1
102
RTVSPropertyOp31
 70
     1
102
RTVSPropertyOp32
 70
     1
  0
XRECORD
  5
22A
102
{ACAD_REACTORS
330
229
102
}
330
229
100
AcDbXrecord
280
     1
102
RTVSPropertyOp0
 70
     1
102
RTVSPropertyOp1
 70
     1
102
RTVSPropertyOp2
 70
     1
102
RTVSPropertyOp3
 70
     1
102
RTVSPropertyOp4
 70
     1
102
RTVSPropertyOp5
 70
     1
102
RTVSPropertyOp6
 70
     1
102
RTVSPropertyOp7
 70
     1
102
RTVSPropertyOp8
 70
     1
102
RTVSPropertyOp9
 70
     1
102
RTVSPropertyOp10
 70
     1
102
RTVSPropertyOp11
 70
     1
102
RTVSPropertyOp12
 70
     1
102
RTVSPropertyOp13
 70
     1
102
RTVSPropertyOp14
 70
     1
102
RTVSPropertyOp15
 70
     1
102
RTVSPropertyOp16
 70
     1
102
RTVSPropertyOp17
 70
     1
102
RTVSPropertyOp18
 70
     1
102
RTVSPropertyOp19
 70
     1
102
RTVSPropertyOp20
 70
     1
102
RTVSPropertyOp21
 70
     1
102
RTVSPropertyOp22
 70
     1
102
RTVSPropertyOp23
 70
     1
102
RTVSPropertyOp24
 70
     1
102
RTVSPropertyOp25
 70
     1
102
RTVSPropertyOp26
 70
     1
102
RTVSPropertyOp27
 70
     1
102
RTVSPropertyOp28
 70
     1
102
RTVSPropertyOp29
 70
     1
102
RTVSPropertyOp30
 70
     1
102
RTVSPropertyOp31
 70
     1
102
RTVSPropertyOp32
 70
     1
  0
XRECORD
  5
22C
102
{ACAD_REACTORS
330
22B
102
}
330
22B
100
AcDbXrecord
280
     1
102
RTVSPropertyOp0
 70
     1
102
RTVSPropertyOp1
 70
     1
102
RTVSPropertyOp2
 70
     1
102
RTVSPropertyOp3
 70
     1
102
RTVSPropertyOp4
 70
     1
102
RTVSPropertyOp5
 70
     1
102
RTVSPropertyOp6
 70
     1
102
RTVSPropertyOp7
 70
     1
102
RTVSPropertyOp8
 70
     1
102
RTVSPropertyOp9
 70
     1
102
RTVSPropertyOp10
 70
     1
102
RTVSPropertyOp11
 70
     1
102
RTVSPropertyOp12
 70
     1
102
RTVSPropertyOp13
 70
     1
102
RTVSPropertyOp14
 70
     1
102
RTVSPropertyOp15
 70
     1
102
RTVSPropertyOp16
 70
     1
102
RTVSPropertyOp17
 70
     1
102
RTVSPropertyOp18
 70
     1
102
RTVSPropertyOp19
 70
     1
102
RTVSPropertyOp20
 70
     1
102
RTVSPropertyOp21
 70
     1
102
RTVSPropertyOp22
 70
     1
102
RTVSPropertyOp23
 70
     1
102
RTVSPropertyOp24
 70
     1
102
RTVSPropertyOp25
 70
     1
102
RTVSPropertyOp26
 70
     1
102
RTVSPropertyOp27
 70
     1
102
RTVSPropertyOp28
 70
     1
102
RTVSPropertyOp29
 70
     1
102
RTVSPropertyOp30
 70
     1
102
RTVSPropertyOp31
 70
     1
102
RTVSPropertyOp32
 70
     1
  0
XRECORD
  5
240
102
{ACAD_REACTORS
330
23F
102
}
330
23F
100
AcDbXrecord
280
     1
102
RTVSPropertyOp0
 70
     1
102
RTVSPropertyOp1
 70
     1
102
RTVSPropertyOp2
 70
     1
102
RTVSPropertyOp3
 70
     1
102
RTVSPropertyOp4
 70
     1
102
RTVSPropertyOp5
 70
     1
102
RTVSPropertyOp6
 70
     1
102
RTVSPropertyOp7
 70
     1
102
RTVSPropertyOp8
 70
     1
102
RTVSPropertyOp9
 70
     1
102
RTVSPropertyOp10
 70
     1
102
RTVSPropertyOp11
 70
     1
102
RTVSPropertyOp12
 70
     1
102
RTVSPropertyOp13
 70
     1
102
RTVSPropertyOp14
 70
     1
102
RTVSPropertyOp15
 70
     1
102
RTVSPropertyOp16
 70
     1
102
RTVSPropertyOp17
 70
     1
102
RTVSPropertyOp18
 70
     1
102
RTVSPropertyOp19
 70
     1
102
RTVSPropertyOp20
 70
     1
102
RTVSPropertyOp21
 70
     1
102
RTVSPropertyOp22
 70
     1
102
RTVSPropertyOp23
 70
     1
102
RTVSPropertyOp24
 70
     1
102
RTVSPropertyOp25
 70
     1
102
RTVSPropertyOp26
 70
     1
102
RTVSPropertyOp27
 70
     1
102
RTVSPropertyOp28
 70
     1
102
RTVSPropertyOp29
 70
     1
102
RTVSPropertyOp30
 70
     1
102
RTVSPropertyOp31
 70
     1
102
RTVSPropertyOp32
 70
     1
  0
XRECORD
  5
236
102
{ACAD_REACTORS
330
235
102
}
330
235
100
AcDbXrecord
280
     1
102
RTVSPropertyOp0
 70
     1
102
RTVSPropertyOp1
 70
     1
102
RTVSPropertyOp2
 70
     1
102
RTVSPropertyOp3
 70
     1
102
RTVSPropertyOp4
 70
     1
102
RTVSPropertyOp5
 70
     1
102
RTVSPropertyOp6
 70
     1
102
RTVSPropertyOp7
 70
     1
102
RTVSPropertyOp8
 70
     1
102
RTVSPropertyOp9
 70
     1
102
RTVSPropertyOp10
 70
     1
102
RTVSPropertyOp11
 70
     1
102
RTVSPropertyOp12
 70
     1
102
RTVSPropertyOp13
 70
     1
102
RTVSPropertyOp14
 70
     1
102
RTVSPropertyOp15
 70
     1
102
RTVSPropertyOp16
 70
     1
102
RTVSPropertyOp17
 70
     1
102
RTVSPropertyOp18
 70
     1
102
RTVSPropertyOp19
 70
     1
102
RTVSPropertyOp20
 70
     1
102
RTVSPropertyOp21
 70
     1
102
RTVSPropertyOp22
 70
     1
102
RTVSPropertyOp23
 70
     1
102
RTVSPropertyOp24
 70
     1
102
RTVSPropertyOp25
 70
     1
102
RTVSPropertyOp26
 70
     1
102
RTVSPropertyOp27
 70
     1
102
RTVSPropertyOp28
 70
     1
102
RTVSPropertyOp29
 70
     1
102
RTVSPropertyOp30
 70
     1
102
RTVSPropertyOp31
 70
     1
102
RTVSPropertyOp32
 70
     1
  0
XRECORD
  5
23E
102
{ACAD_REACTORS
330
23D
102
}
330
23D
100
AcDbXrecord
280
     1
102
RTVSPropertyOp0
 70
     1
102
RTVSPropertyOp1
 70
     1
102
RTVSPropertyOp2
 70
     1
102
RTVSPropertyOp3
 70
     1
102
RTVSPropertyOp4
 70
     1
102
RTVSPropertyOp5
 70
     1
102
RTVSPropertyOp6
 70
     1
102
RTVSPropertyOp7
 70
     1
102
RTVSPropertyOp8
 70
     1
102
RTVSPropertyOp9
 70
     1
102
RTVSPropertyOp10
 70
     1
102
RTVSPropertyOp11
 70
     1
102
RTVSPropertyOp12
 70
     1
102
RTVSPropertyOp13
 70
     1
102
RTVSPropertyOp14
 70
     1
102
RTVSPropertyOp15
 70
     1
102
RTVSPropertyOp16
 70
     1
102
RTVSPropertyOp17
 70
     1
102
RTVSPropertyOp18
 70
     1
102
RTVSPropertyOp19
 70
     1
102
RTVSPropertyOp20
 70
     1
102
RTVSPropertyOp21
 70
     1
102
RTVSPropertyOp22
 70
     1
102
RTVSPropertyOp23
 70
     1
102
RTVSPropertyOp24
 70
     1
102
RTVSPropertyOp25
 70
     1
102
RTVSPropertyOp26
 70
     1
102
RTVSPropertyOp27
 70
     1
102
RTVSPropertyOp28
 70
     1
102
RTVSPropertyOp29
 70
     1
102
RTVSPropertyOp30
 70
     1
102
RTVSPropertyOp31
 70
     1
102
RTVSPropertyOp32
 70
     1
  0
ENDSEC
  0
EOF
