  0
SECTION
  2
HEADER
  9
$ACADVER
  1
AC1015
  9
$ACADMAINTVER
 70
     6
  9
$DWGCODEPAGE
  3
DOS932
  9
$INSBASE
 10
0.0
 20
0.0
 30
0.0
  9
$EXTMIN
 10
0.0
 20
0.0
 30
0.0
  9
$EXTMAX
 10
210.0
 20
297.0
 30
0.0
  9
$LIMMIN
 10
0.0
 20
0.0
  9
$LIMMAX
 10
12.0
 20
9.0
  9
$ORTHOMODE
 70
     0
  9
$REGENMODE
 70
     1
  9
$FILLMODE
 70
     1
  9
$QTEXTMODE
 70
     0
  9
$MIRRTEXT
 70
     1
  9
$LTSCALE
 40
1.0
  9
$ATTMODE
 70
     1
  9
$TEXTSIZE
 40
0.2
  9
$TRACEWID
 40
0.05
  9
$TEXTSTYLE
  7
Standard
  9
$CLAYER
  8
0
  9
$CELTYPE
  6
ByLayer
  9
$CECOLOR
 62
   256
  9
$CELTSCALE
 40
1.0
  9
$DISPSILH
 70
     0
  9
$DIMSCALE
 40
1.0
  9
$DIMASZ
 40
0.18
  9
$DIMEXO
 40
0.0625
  9
$DIMDLI
 40
0.38
  9
$DIMRND
 40
0.0
  9
$DIMDLE
 40
0.0
  9
$DIMEXE
 40
0.18
  9
$DIMTP
 40
0.0
  9
$DIMTM
 40
0.0
  9
$DIMTXT
 40
0.18
  9
$DIMCEN
 40
0.09
  9
$DIMTSZ
 40
0.0
  9
$DIMTOL
 70
     0
  9
$DIMLIM
 70
     0
  9
$DIMTIH
 70
     1
  9
$DIMTOH
 70
     1
  9
$DIMSE1
 70
     0
  9
$DIMSE2
 70
     0
  9
$DIMTAD
 70
     0
  9
$DIMZIN
 70
     0
  9
$DIMBLK
  1

  9
$DIMASO
 70
     1
  9
$DIMSHO
 70
     1
  9
$DIMPOST
  1

  9
$DIMAPOST
  1

  9
$DIMALT
 70
     0
  9
$DIMALTD
 70
     2
  9
$DIMALTF
 40
25.4
  9
$DIMLFAC
 40
1.0
  9
$DIMTOFL
 70
     0
  9
$DIMTVP
 40
0.0
  9
$DIMTIX
 70
     0
  9
$DIMSOXD
 70
     0
  9
$DIMSAH
 70
     0
  9
$DIMBLK1
  1

  9
$DIMBLK2
  1

  9
$DIMSTYLE
  2
Standard
  9
$DIMCLRD
 70
     0
  9
$DIMCLRE
 70
     0
  9
$DIMCLRT
 70
     0
  9
$DIMTFAC
 40
1.0
  9
$DIMGAP
 40
0.09
  9
$DIMJUST
 70
     0
  9
$DIMSD1
 70
     0
  9
$DIMSD2
 70
     0
  9
$DIMTOLJ
 70
     1
  9
$DIMTZIN
 70
     0
  9
$DIMALTZ
 70
     0
  9
$DIMALTTZ
 70
     0
  9
$DIMUPT
 70
     0
  9
$DIMDEC
 70
     4
  9
$DIMTDEC
 70
     4
  9
$DIMALTU
 70
     2
  9
$DIMALTTD
 70
     2
  9
$DIMTXSTY
  7
Standard
  9
$DIMAUNIT
 70
     0
  9
$DIMADEC
 70
     0
  9
$DIMALTRND
 40
0.0
  9
$DIMAZIN
 70
     0
  9
$DIMDSEP
 70
    46
  9
$DIMATFIT
 70
     3
  9
$DIMFRAC
 70
     0
  9
$DIMLDRBLK
  1

  9
$DIMLUNIT
 70
     2
  9
$DIMLWD
 70
    -2
  9
$DIMLWE
 70
    -2
  9
$DIMTMOVE
 70
     0
  9
$LUNITS
 70
     2
  9
$LUPREC
 70
     4
  9
$SKETCHINC
 40
0.1
  9
$FILLETRAD
 40
0.5
  9
$AUNITS
 70
     0
  9
$AUPREC
 70
     0
  9
$MENU
  1
.
  9
$ELEVATION
 40
0.0
  9
$PELEVATION
 40
0.0
  9
$THICKNESS
 40
0.0
  9
$LIMCHECK
 70
     0
  9
$CHAMFERA
 40
0.5
  9
$CHAMFERB
 40
0.5
  9
$CHAMFERC
 40
1.0
  9
$CHAMFERD
 40
0.0
  9
$SKPOLY
 70
     0
  9
$TDCREATE
 40
2456142.685805845
  9
$TDUCREATE
 40
2456142.310805845
  9
$TDUPDATE
 40
2456142.685805856
  9
$TDUUPDATE
 40
2456142.310805856
  9
$TDINDWG
 40
0.0000000116
  9
$TDUSRTIMER
 40
0.0000000116
  9
$USRTIMER
 70
     1
  9
$ANGBASE
 50
0.0
  9
$ANGDIR
 70
     0
  9
$PDMODE
 70
     0
  9
$PDSIZE
 40
0.0
  9
$PLINEWID
 40
0.0
  9
$SPLFRAME
 70
     0
  9
$SPLINETYPE
 70
     6
  9
$SPLINESEGS
 70
     8
  9
$HANDSEED
  5
228
  9
$SURFTAB1
 70
     6
  9
$SURFTAB2
 70
     6
  9
$SURFTYPE
 70
     6
  9
$SURFU
 70
     6
  9
$SURFV
 70
     6
  9
$UCSBASE
  2

  9
$UCSNAME
  2

  9
$UCSORG
 10
0.0
 20
0.0
 30
0.0
  9
$UCSXDIR
 10
1.0
 20
0.0
 30
0.0
  9
$UCSYDIR
 10
0.0
 20
1.0
 30
0.0
  9
$UCSORTHOREF
  2

  9
$UCSORTHOVIEW
 70
     0
  9
$UCSORGTOP
 10
0.0
 20
0.0
 30
0.0
  9
$UCSORGBOTTOM
 10
0.0
 20
0.0
 30
0.0
  9
$UCSORGLEFT
 10
0.0
 20
0.0
 30
0.0
  9
$UCSORGRIGHT
 10
0.0
 20
0.0
 30
0.0
  9
$UCSORGFRONT
 10
0.0
 20
0.0
 30
0.0
  9
$UCSORGBACK
 10
0.0
 20
0.0
 30
0.0
  9
$PUCSBASE
  2

  9
$PUCSNAME
  2

  9
$PUCSORG
 10
0.0
 20
0.0
 30
0.0
  9
$PUCSXDIR
 10
1.0
 20
0.0
 30
0.0
  9
$PUCSYDIR
 10
0.0
 20
1.0
 30
0.0
  9
$PUCSORTHOREF
  2

  9
$PUCSORTHOVIEW
 70
     0
  9
$PUCSORGTOP
 10
0.0
 20
0.0
 30
0.0
  9
$PUCSORGBOTTOM
 10
0.0
 20
0.0
 30
0.0
  9
$PUCSORGLEFT
 10
0.0
 20
0.0
 30
0.0
  9
$PUCSORGRIGHT
 10
0.0
 20
0.0
 30
0.0
  9
$PUCSORGFRONT
 10
0.0
 20
0.0
 30
0.0
  9
$PUCSORGBACK
 10
0.0
 20
0.0
 30
0.0
  9
$USERI1
 70
     0
  9
$USERI2
 70
     0
  9
$USERI3
 70
     0
  9
$USERI4
 70
     0
  9
$USERI5
 70
     0
  9
$USERR1
 40
13.2
  9
$USERR2
 40
0.0
  9
$USERR3
 40
0.0
  9
$USERR4
 40
0.0
  9
$USERR5
 40
0.0
  9
$WORLDVIEW
 70
     1
  9
$SHADEDGE
 70
     3
  9
$SHADEDIF
 70
    70
  9
$TILEMODE
 70
     1
  9
$MAXACTVP
 70
    64
  9
$PINSBASE
 10
0.0
 20
0.0
 30
0.0
  9
$PLIMCHECK
 70
     0
  9
$PEXTMIN
 10
1.00000000000000E+20
 20
1.00000000000000E+20
 30
1.00000000000000E+20
  9
$PEXTMAX
 10
-1.00000000000000E+20
 20
-1.00000000000000E+20
 30
-1.00000000000000E+20
  9
$PLIMMIN
 10
0.0
 20
0.0
  9
$PLIMMAX
 10
12.0
 20
9.0
  9
$UNITMODE
 70
     0
  9
$VISRETAIN
 70
     1
  9
$PLINEGEN
 70
     0
  9
$PSLTSCALE
 70
     1
  9
$TREEDEPTH
 70
  3020
  9
$CMLSTYLE
  2
Standard
  9
$CMLJUST
 70
     0
  9
$CMLSCALE
 40
1.0
  9
$PROXYGRAPHICS
 70
     1
  9
$MEASUREMENT
 70
     1
  9
$CELWEIGHT
370
    -1
  9
$ENDCAPS
280
     0
  9
$JOINSTYLE
280
     0
  9
$LWDISPLAY
290
     0
  9
$INSUNITS
 70
     1
  9
$HYPERLINKBASE
  1

  9
$STYLESHEET
  1

  9
$XEDIT
290
     1
  9
$CEPSNTYPE
380
     0
  9
$PSTYLEMODE
290
     0
  9
$FINGERPRINTGUID
  2
{FAEB1C30-E019-11D5-929B-00C0DF256EC4}
  9
$VERSIONGUID
  2
{FAEB1C32-E019-11D5-929B-00C0DF256EC4}
  9
$EXTNAMES
290
     1
  9
$PSVPSCALE
 40
0.0
  9
$OLESTARTUP
290
     0
  0
ENDSEC
  0
SECTION
  2
CLASSES
  0
CLASS
  1
ACDBDICTIONARYWDFLT
  2
AcDbDictionaryWithDefault
  3
ObjectDBX Classes
 90
        0
280
     0
281
     0
  0
CLASS
  1
TABLESTYLE
  2
AcDbTableStyle
  3
ObjectDBX Classes
 90
     2047
280
     0
281
     0
  0
CLASS
  1
DICTIONARYVAR
  2
AcDbDictionaryVar
  3
ObjectDBX Classes
 90
        0
280
     0
281
     0
  0
CLASS
  1

  2
exOdDbCircle
  3

 90
        0
280
     0
281
     1
  0
CLASS
  1

  2
exOdDbSpline
  3

 90
        0
280
     0
281
     1
  0
CLASS
  1
ACDBPLACEHOLDER
  2
AcDbPlaceHolder
  3
ObjectDBX Classes
 90
        0
280
     0
281
     0
  0
CLASS
  1
LAYOUT
  2
AcDbLayout
  3
ObjectDBX Classes
 90
        0
280
     0
281
     0
  0
ENDSEC
  0
SECTION
  2
TABLES
  0
TABLE
  2
VPORT
  5
8
330
0
100
AcDbSymbolTable
 70
     2
  0
VPORT
  5
29
330
8
100
AcDbSymbolTableRecord
100
AcDbViewportTableRecord
  2
*Active
 70
     0
 10
0.0
 20
0.0
 11
1.0
 21
1.0
 12
105.0
 22
148.5
 13
0.0
 23
0.0
 14
0.5
 24
0.5
 15
0.5
 25
0.5
 16
0.0
 26
0.0
 36
1.0
 17
0.0
 27
0.0
 37
0.0
 40
326.7000000000001
 41
1.60267857142857
 42
50.0
 43
0.0
 44
0.0
 50
0.0
 51
0.0
 71
     0
 72
   100
 73
     1
 74
     3
 75
     0
 76
     0
 77
     0
 78
     0
281
     0
 65
     1
110
0.0
120
0.0
130
0.0
111
1.0
121
0.0
131
0.0
112
0.0
122
1.0
132
0.0
 79
     0
146
0.0
  0
ENDTAB
  0
TABLE
  2
LTYPE
  5
5
330
0
100
AcDbSymbolTable
 70
     8
  0
LTYPE
  5
14
330
5
100
AcDbSymbolTableRecord
100
AcDbLinetypeTableRecord
  2
ByBlock
 70
     0
  3

 72
    65
 73
     0
 40
0.0
  0
LTYPE
  5
15
330
5
100
AcDbSymbolTableRecord
100
AcDbLinetypeTableRecord
  2
ByLayer
 70
     0
  3

 72
    65
 73
     0
 40
0.0
  0
LTYPE
  5
16
330
5
100
AcDbSymbolTableRecord
100
AcDbLinetypeTableRecord
  2
Continuous
 70
     0
  3
Solid line
 72
    65
 73
     0
 40
0.0
  0
LTYPE
  5
2E
330
5
100
AcDbSymbolTableRecord
100
AcDbLinetypeTableRecord
  2
DASHED
 70
     0
  3
Dashed
 72
    65
 73
     2
 40
15.0
 49
7.0
 74
     0
 49
-8.0
 74
     0
  0
LTYPE
  5
2F
330
5
100
AcDbSymbolTableRecord
100
AcDbLinetypeTableRecord
  2
DOTTED
 70
     0
  3
Dotted
 72
    65
 73
     2
 40
1.0
 49
0.0
 74
     0
 49
-1.0
 74
     0
  0
LTYPE
  5
30
330
5
100
AcDbSymbolTableRecord
100
AcDbLinetypeTableRecord
  2
DOT_CENTER
 70
     0
  3
Dot_Center
 72
    65
 73
     4
 40
14.0
 49
12.0
 74
     0
 49
-1.0
 74
     0
 49
0.0
 74
     0
 49
-1.0
 74
     0
  0
LTYPE
  5
31
330
5
100
AcDbSymbolTableRecord
100
AcDbLinetypeTableRecord
  2
LONG_DASHED
 70
     0
  3
Long_Dashed
 72
    65
 73
     2
 40
15.0
 49
10.0
 74
     0
 49
-5.0
 74
     0
  0
LTYPE
  5
32
330
5
100
AcDbSymbolTableRecord
100
AcDbLinetypeTableRecord
  2
DASH_CENTER
 70
     0
  3
Dash_Center
 72
    65
 73
     4
 40
14.0
 49
11.0
 74
     0
 49
-1.0
 74
     0
 49
1.0
 74
     0
 49
-1.0
 74
     0
  0
LTYPE
  5
33
330
5
100
AcDbSymbolTableRecord
100
AcDbLinetypeTableRecord
  2
PHANTOM
 70
     0
  3
Phantom
 72
    65
 73
     6
 40
13.0
 49
10.0
 74
     0
 49
-1.0
 74
     0
 49
0.0
 74
     0
 49
-1.0
 74
     0
 49
0.0
 74
     0
 49
-1.0
 74
     0
  0
LTYPE
  5
34
330
5
100
AcDbSymbolTableRecord
100
AcDbLinetypeTableRecord
  2
CENTER_DASH_DASH
 70
     0
  3
Center_Dash_Dash
 72
    65
 73
     6
 40
14.0
 49
9.0
 74
     0
 49
-1.0
 74
     0
 49
1.0
 74
     0
 49
-1.0
 74
     0
 49
1.0
 74
     0
 49
-1.0
 74
     0
  0
ENDTAB
  0
TABLE
  2
LAYER
  5
2
330
0
100
AcDbSymbolTable
 70
     2
  0
LAYER
  5
10
330
2
100
AcDbSymbolTableRecord
100
AcDbLayerTableRecord
  2
0
 70
     0
 62
     7
  6
Continuous
370
    -3
390
F
  0
LAYER
  5
35
330
2
100
AcDbSymbolTableRecord
100
AcDbLayerTableRecord
  2
1
 70
     0
 62
     7
  6
Continuous
370
    -3
390
F
  0
ENDTAB
  0
TABLE
  2
STYLE
  5
3
330
0
100
AcDbSymbolTable
 70
     3
  0
STYLE
  5
11
330
3
100
AcDbSymbolTableRecord
100
AcDbTextStyleTableRecord
  2
Standard
 70
     0
 40
0.0
 41
1.0
 50
0.0
 71
     0
 42
0.2
  3
txt
  4

  0
STYLE
  5
136
330
3
100
AcDbSymbolTableRecord
100
AcDbTextStyleTableRecord
  2
CONVERTER_1
 70
     0
 40
0.0
 41
0.89
 50
0.0
 71
     0
 42
0.2
  3
msmincho.ttc
  4

1001
ACAD
1000
MS Mincho
1071
    32785
  0
STYLE
  5
1F4
330
3
100
AcDbSymbolTableRecord
100
AcDbTextStyleTableRecord
  2
CONVERTER_2
 70
     0
 40
0.0
 41
0.9
 50
0.0
 71
     0
 42
0.2
  3
txt.shx
  4

  0
ENDTAB
  0
TABLE
  2
VIEW
  5
6
330
0
100
AcDbSymbolTable
 70
     0
  0
ENDTAB
  0
TABLE
  2
UCS
  5
7
330
0
100
AcDbSymbolTable
 70
     0
  0
ENDTAB
  0
TABLE
  2
APPID
  5
9
330
0
100
AcDbSymbolTable
 70
     1
  0
APPID
  5
12
330
9
100
AcDbSymbolTableRecord
100
AcDbRegAppTableRecord
  2
ACAD
 70
     0
  0
ENDTAB
  0
TABLE
  2
DIMSTYLE
  5
A
330
0
100
AcDbSymbolTable
 70
     5
100
AcDbDimStyleTable
  0
DIMSTYLE
105
27
330
A
100
AcDbSymbolTableRecord
100
AcDbDimStyleTableRecord
  2
Standard
 70
     0
340
11
  0
DIMSTYLE
105
205
102
{ACAD_REACTORS
330
206
102
}
330
A
100
AcDbSymbolTableRecord
100
AcDbDimStyleTableRecord
  2
ME10_DIM_0
 70
     0
 41
3.5
 42
0.0
 44
1.0
 73
     0
 74
     0
 77
     1
 78
     8
140
3.5
147
0.625
172
     1
173
     1
176
     2
177
     2
178
     7
271
     2
340
1F4
  0
DIMSTYLE
105
210
102
{ACAD_REACTORS
330
211
102
}
330
A
100
AcDbSymbolTableRecord
100
AcDbDimStyleTableRecord
  2
ME10_DIM_1
 70
     0
 41
3.5
 42
0.0
 44
1.0
 73
     0
 74
     0
 77
     1
 78
     8
140
3.5
147
0.625
172
     1
173
     1
176
     2
177
     2
178
     7
271
     2
340
1F4
  0
DIMSTYLE
105
21B
102
{ACAD_REACTORS
330
21C
102
}
330
A
100
AcDbSymbolTableRecord
100
AcDbDimStyleTableRecord
  2
ME10_DIM_2
 70
     0
 41
3.5
 42
0.0
 44
1.0
 73
     0
 74
     0
 77
     1
 78
     8
140
3.5
147
0.625
172
     1
173
     1
176
     2
177
     2
178
     7
271
     2
340
1F4
  0
DIMSTYLE
105
226
102
{ACAD_REACTORS
330
227
102
}
330
A
100
AcDbSymbolTableRecord
100
AcDbDimStyleTableRecord
  2
ME10_DIM_3
 70
     0
 41
3.5
 42
0.0
 44
1.0
 73
     0
 74
     0
 77
     1
 78
     8
140
3.5
147
0.625
172
     1
173
     1
176
     2
177
     2
178
     7
271
     2
340
136
  0
ENDTAB
  0
TABLE
  2
BLOCK_RECORD
  5
1
330
0
100
AcDbSymbolTable
 70
    14
  0
BLOCK_RECORD
  5
1F
330
1
100
AcDbSymbolTableRecord
100
AcDbBlockTableRecord
  2
*Model_Space
340
22
  0
BLOCK_RECORD
  5
1B
330
1
100
AcDbSymbolTableRecord
100
AcDbBlockTableRecord
  2
*Paper_Space
340
1E
  0
BLOCK_RECORD
  5
23
330
1
100
AcDbSymbolTableRecord
100
AcDbBlockTableRecord
  2
*Paper_Space0
340
26
  0
BLOCK_RECORD
  5
36
330
1
100
AcDbSymbolTableRecord
100
AcDbBlockTableRecord
  2
V21-2-0A-13-__________
340
0
102
{BLKREFS
331
56
102
}
  0
BLOCK_RECORD
  5
39
330
1
100
AcDbSymbolTableRecord
100
AcDbBlockTableRecord
  2
V21-2-0A
340
0
102
{BLKREFS
331
57
102
}
  0
BLOCK_RECORD
  5
3C
330
1
100
AcDbSymbolTableRecord
100
AcDbBlockTableRecord
  2
_J__A4
340
0
102
{BLKREFS
331
58
102
}
  0
BLOCK_RECORD
  5
3F
330
1
100
AcDbSymbolTableRecord
100
AcDbBlockTableRecord
  2
51-1
340
0
102
{BLKREFS
331
46
102
}
  0
BLOCK_RECORD
  5
42
330
1
100
AcDbSymbolTableRecord
100
AcDbBlockTableRecord
  2
42-15
340
0
102
{BLKREFS
331
47
102
}
  0
BLOCK_RECORD
  5
45
330
1
100
AcDbSymbolTableRecord
100
AcDbBlockTableRecord
  2
R20F
340
0
102
{BLKREFS
331
51
102
}
  0
BLOCK_RECORD
  5
4A
330
1
100
AcDbSymbolTableRecord
100
AcDbBlockTableRecord
  2
37-1-13
340
0
102
{BLKREFS
331
52
102
}
  0
BLOCK_RECORD
  5
4D
330
1
100
AcDbSymbolTableRecord
100
AcDbBlockTableRecord
  2
36-1A-13-M4
340
0
102
{BLKREFS
331
53
102
}
  0
BLOCK_RECORD
  5
50
330
1
100
AcDbSymbolTableRecord
100
AcDbBlockTableRecord
  2
R10A-13
340
0
102
{BLKREFS
331
59
102
}
  0
BLOCK_RECORD
  5
1FC
330
1
100
AcDbSymbolTableRecord
100
AcDbBlockTableRecord
  2
*D010
340
0
  0
BLOCK_RECORD
  5
207
330
1
100
AcDbSymbolTableRecord
100
AcDbBlockTableRecord
  2
*D111
340
0
  0
BLOCK_RECORD
  5
212
330
1
100
AcDbSymbolTableRecord
100
AcDbBlockTableRecord
  2
*D212
340
0
  0
BLOCK_RECORD
  5
21D
330
1
100
AcDbSymbolTableRecord
100
AcDbBlockTableRecord
  2
*D313
340
0
  0
ENDTAB
  0
ENDSEC
  0
SECTION
  2
BLOCKS
  0
BLOCK
  5
20
330
1F
100
AcDbEntity
  8
0
100
AcDbBlockBegin
  2
*Model_Space
 70
     0
 71
     0
 10
0.0
 20
0.0
 30
0.0
  3
*Model_Space
  1

  0
ENDBLK
  5
21
330
1F
100
AcDbEntity
  8
0
100
AcDbBlockEnd
  0
BLOCK
  5
1C
330
1B
100
AcDbEntity
 67
     1
  8
0
100
AcDbBlockBegin
  2
*Paper_Space
 70
     0
 71
     0
 10
0.0
 20
0.0
 30
0.0
  3
*Paper_Space
  1

  0
ENDBLK
  5
1D
330
1B
100
AcDbEntity
 67
     1
  8
0
100
AcDbBlockEnd
  0
BLOCK
  5
24
330
23
100
AcDbEntity
  8
0
100
AcDbBlockBegin
  2
*Paper_Space0
 70
     0
 71
     0
 10
0.0
 20
0.0
 30
0.0
  3
*Paper_Space0
  1

  0
ENDBLK
  5
25
330
23
100
AcDbEntity
  8
0
100
AcDbBlockEnd
  0
BLOCK
  5
37
330
36
100
AcDbEntity
  8
0
100
AcDbBlockBegin
  2
V21-2-0A-13-__________
 70
     0
 71
     0
 10
205.3307217178347
 20
291.4536317742684
 30
0.0
  3
V21-2-0A-13-__________
  1

  0
LINE
  5
5A
330
36
100
AcDbEntity
  8
1
  6
PHANTOM
 62
     4
100
AcDbLine
 10
69.21887405557379
 20
80.27376570549143
 30
0.0
 11
74.71887405557379
 21
80.27376570549143
 31
0.0
  0
LINE
  5
5B
330
36
100
AcDbEntity
  8
1
  6
PHANTOM
 62
     4
100
AcDbLine
 10
68.05687405557382
 20
80.27376570549143
 30
0.0
 11
69.21887405557379
 21
80.27376570549143
 31
0.0
  0
LINE
  5
5C
330
36
100
AcDbEntity
  8
1
  6
PHANTOM
 62
     4
100
AcDbLine
 10
65.21887405557379
 20
80.27376570549143
 30
0.0
 11
68.05687405557382
 21
80.27376570549143
 31
0.0
  0
LINE
  5
5D
330
36
100
AcDbEntity
  8
1
  6
Continuous
 62
     7
100
AcDbLine
 10
46.7188740555738
 20
105.2033583175894
 30
0.0
 11
46.7188740555738
 21
103.7737657054914
 31
0.0
  0
LINE
  5
5E
330
36
100
AcDbEntity
  8
1
  6
Continuous
 62
     2
100
AcDbLine
 10
69.9058740555738
 20
105.2033583175894
 30
0.0
 11
69.9058740555738
 21
103.7737657054914
 31
0.0
  0
LINE
  5
5F
330
36
100
AcDbEntity
  8
1
  6
Continuous
 62
     7
100
AcDbLine
 10
52.39431873523704
 20
81.77376570549143
 30
0.0
 11
65.04342937591053
 21
81.77376570549143
 31
0.0
  0
LINE
  5
60
330
36
100
AcDbEntity
  8
1
  6
PHANTOM
 62
     4
100
AcDbLine
 10
42.7188740555738
 20
80.27376570549143
 30
0.0
 11
65.21887405557379
 21
80.27376570549143
 31
0.0
  0
LINE
  5
61
330
36
100
AcDbEntity
  8
1
  6
PHANTOM
 62
     4
100
AcDbLine
 10
58.7188740555738
 20
112.7737657054914
 30
0.0
 11
58.7188740555738
 21
62.26265870656113
 31
0.0
  0
LINE
  5
62
330
36
100
AcDbEntity
  8
1
  6
Continuous
 62
     7
100
AcDbLine
 10
46.7188740555738
 20
102.3656083989379
 30
0.0
 11
70.71887405557379
 21
102.3656083989379
 31
0.0
  0
LINE
  5
63
330
36
100
AcDbEntity
  8
1
  6
Continuous
 62
     7
100
AcDbLine
 10
46.2188740555738
 20
101.8656083989379
 30
0.0
 11
71.21887405557379
 21
101.8656083989379
 31
0.0
  0
LINE
  5
64
330
36
100
AcDbEntity
  8
1
  6
Continuous
 62
     7
100
AcDbLine
 10
69.9058740555738
 20
103.7737657054914
 30
0.0
 11
47.53187405557378
 21
103.7737657054914
 31
0.0
  0
LINE
  5
65
330
36
100
AcDbEntity
  8
1
  6
Continuous
 62
     7
100
AcDbLine
 10
70.71887405557379
 20
103.7737657054914
 30
0.0
 11
70.71887405557379
 21
105.2033583175894
 31
0.0
  0
LINE
  5
66
330
36
100
AcDbEntity
  8
1
  6
Continuous
 62
     7
100
AcDbLine
 10
69.9058740555738
 20
103.7737657054914
 30
0.0
 11
70.71887405557379
 21
103.7737657054914
 31
0.0
  0
LINE
  5
67
330
36
100
AcDbEntity
  8
1
  6
Continuous
 62
     7
100
AcDbLine
 10
70.71887405557379
 20
102.3656083989379
 30
0.0
 11
70.71887405557379
 21
103.7737657054914
 31
0.0
  0
LINE
  5
68
330
36
100
AcDbEntity
  8
1
  6
Continuous
 62
     2
100
AcDbLine
 10
70.71887405557379
 20
102.3656083989379
 30
0.0
 11
69.9058740555738
 21
103.7737657054914
 31
0.0
  0
LINE
  5
69
330
36
100
AcDbEntity
  8
1
  6
Continuous
 62
     2
100
AcDbLine
 10
47.53187405557378
 20
103.7737657054914
 30
0.0
 11
46.7188740555738
 21
102.3656083989379
 31
0.0
  0
LINE
  5
6A
330
36
100
AcDbEntity
  8
1
  6
Continuous
 62
     7
100
AcDbLine
 10
46.7188740555738
 20
103.7737657054914
 30
0.0
 11
46.7188740555738
 21
102.3656083989379
 31
0.0
  0
LINE
  5
6B
330
36
100
AcDbEntity
  8
1
  6
Continuous
 62
     7
100
AcDbLine
 10
46.7188740555738
 20
103.7737657054914
 30
0.0
 11
47.53187405557378
 21
103.7737657054914
 31
0.0
  0
LINE
  5
6C
330
36
100
AcDbEntity
  8
1
  6
Continuous
 62
     2
100
AcDbLine
 10
47.53187405557378
 20
103.7737657054914
 30
0.0
 11
47.53187405557378
 21
105.2033583175894
 31
0.0
  0
LINE
  5
6D
330
36
100
AcDbEntity
  8
1
  6
Continuous
 62
     7
100
AcDbLine
 10
71.71887405557379
 20
80.27376570549143
 30
0.0
 11
71.71887405557379
 21
72.76821220602631
 31
0.0
  0
LINE
  5
6E
330
36
100
AcDbEntity
  8
1
  6
Continuous
 62
     7
100
AcDbLine
 10
71.71887405557379
 20
72.76821220602631
 30
0.0
 11
58.7188740555738
 21
65.26265870656113
 31
0.0
  0
LINE
  5
6F
330
36
100
AcDbEntity
  8
1
  6
Continuous
 62
     7
100
AcDbLine
 10
58.7188740555738
 20
65.26265870656113
 30
0.0
 11
45.7188740555738
 21
72.76821220602631
 31
0.0
  0
LINE
  5
70
330
36
100
AcDbEntity
  8
1
  6
Continuous
 62
     7
100
AcDbLine
 10
45.7188740555738
 20
72.76821220602631
 30
0.0
 11
45.7188740555738
 21
80.27376570549143
 31
0.0
  0
LINE
  5
71
330
36
100
AcDbEntity
  8
1
  6
Continuous
 62
     7
100
AcDbLine
 10
71.71887405557379
 20
87.77931920495655
 30
0.0
 11
71.71887405557379
 21
80.27376570549143
 31
0.0
  0
LINE
  5
72
330
36
100
AcDbEntity
  8
1
  6
Continuous
 62
     7
100
AcDbLine
 10
45.7188740555738
 20
87.77931920495655
 30
0.0
 11
46.2188740555738
 21
88.06799433955132
 31
0.0
  0
LINE
  5
73
330
36
100
AcDbEntity
  8
1
  6
Continuous
 62
     7
100
AcDbLine
 10
45.7188740555738
 20
80.27376570549143
 30
0.0
 11
45.7188740555738
 21
87.77931920495655
 31
0.0
  0
LINE
  5
74
330
36
100
AcDbEntity
  8
1
  6
Continuous
 62
     7
100
AcDbLine
 10
46.7188740555738
 20
102.3656083989379
 30
0.0
 11
46.2188740555738
 21
101.8656083989379
 31
0.0
  0
LINE
  5
75
330
36
100
AcDbEntity
  8
1
  6
Continuous
 62
     7
100
AcDbLine
 10
46.2188740555738
 20
101.8656083989379
 30
0.0
 11
46.2188740555738
 21
80.27376570549143
 31
0.0
  0
LINE
  5
76
330
36
100
AcDbEntity
  8
1
  6
Continuous
 62
     7
100
AcDbLine
 10
70.71887405557379
 20
102.3656083989379
 30
0.0
 11
71.21887405557379
 21
101.8656083989379
 31
0.0
  0
LINE
  5
77
330
36
100
AcDbEntity
  8
1
  6
Continuous
 62
     7
100
AcDbLine
 10
71.21887405557379
 20
101.8656083989379
 30
0.0
 11
71.21887405557388
 21
80.27376570549143
 31
0.0
  0
LINE
  5
78
330
36
100
AcDbEntity
  8
1
  6
Continuous
 62
     7
100
AcDbLine
 10
71.21887405557379
 20
88.06799433955132
 30
0.0
 11
71.71887405557379
 21
87.77931920495655
 31
0.0
  0
ARC
  5
79
330
36
100
AcDbEntity
  8
1
  6
Continuous
 62
     7
100
AcDbCircle
 10
58.7188740555738
 20
80.27376570549143
 30
0.0
 40
12.75
100
AcDbArc
 50
168.6351230329663
 51
0.0
  0
ARC
  5
7A
330
36
100
AcDbEntity
  8
1
  6
Continuous
 62
     7
100
AcDbCircle
 10
58.7188740555738
 20
80.27376570549143
 30
0.0
 40
12.74999999999999
100
AcDbArc
 50
0.0
 51
11.36487696703189
  0
ARC
  5
7B
330
36
100
AcDbEntity
  8
1
  6
Continuous
 62
     7
100
AcDbCircle
 10
58.7188740555738
 20
80.27376570549143
 30
0.0
 40
12.5
100
AcDbArc
 50
180.0
 51
0.0
  0
CIRCLE
  5
7C
330
36
100
AcDbEntity
  8
1
  6
Continuous
 62
     7
100
AcDbCircle
 10
58.7188740555738
 20
80.27376570549143
 30
0.0
 40
10.49999999999999
  0
CIRCLE
  5
7D
330
36
100
AcDbEntity
  8
1
  6
Continuous
 62
     2
100
AcDbCircle
 10
58.7188740555738
 20
80.27376570549143
 30
0.0
 40
9.338000000000015
  0
CIRCLE
  5
7E
330
36
100
AcDbEntity
  8
1
  6
Continuous
 62
     7
100
AcDbCircle
 10
58.7188740555738
 20
80.27376570549143
 30
0.0
 40
6.499999999999993
  0
ENDBLK
  5
38
330
36
100
AcDbEntity
  8
0
100
AcDbBlockEnd
  0
BLOCK
  5
3A
330
39
100
AcDbEntity
  8
0
100
AcDbBlockBegin
  2
V21-2-0A
 70
     0
 71
     0
 10
195.3307217178347
 20
142.9536317742684
 30
0.0
  3
V21-2-0A
  1

  0
LINE
  5
7F
330
39
100
AcDbEntity
  8
1
  6
Continuous
 62
     7
100
AcDbLine
 10
55.40224926521845
 20
175.7737657054914
 30
0.0
 11
49.38087405557386
 21
175.7737657054914
 31
0.0
  0
LINE
  5
80
330
39
100
AcDbEntity
  8
1
  6
Continuous
 62
     7
100
AcDbLine
 10
63.33078862546785
 20
176.9357657054916
 30
0.0
 11
69.21887405557385
 21
176.9357657054916
 31
0.0
  0
LINE
  5
81
330
39
100
AcDbEntity
  8
1
  6
Continuous
 62
     7
100
AcDbLine
 10
49.38087405557386
 20
175.7737657054914
 30
0.0
 11
48.21887405557383
 21
176.9357657054916
 31
0.0
  0
LINE
  5
82
330
39
100
AcDbEntity
  8
1
  6
Continuous
 62
     7
100
AcDbLine
 10
68.05687405557384
 20
175.7737657054915
 30
0.0
 11
62.03549884592918
 21
175.7737657054915
 31
0.0
  0
LINE
  5
83
330
39
100
AcDbEntity
  8
1
  6
Continuous
 62
     7
100
AcDbLine
 10
69.21887405557385
 20
176.9357657054916
 30
0.0
 11
68.05687405557384
 21
175.7737657054915
 31
0.0
  0
LINE
  5
84
330
39
100
AcDbEntity
  8
1
  6
Continuous
 62
     7
100
AcDbLine
 10
48.21887405557383
 20
176.9357657054916
 30
0.0
 11
54.10695948567985
 21
176.9357657054916
 31
0.0
  0
LINE
  5
85
330
39
100
AcDbEntity
  8
1
  6
Continuous
 62
     7
100
AcDbLine
 10
108.1394607819748
 20
70.93576570549141
 30
0.0
 11
108.1394607819748
 21
89.61176570549139
 31
0.0
  0
LINE
  5
86
330
39
100
AcDbEntity
  8
1
  6
Continuous
 62
     7
100
AcDbLine
 10
109.3014607819748
 20
69.77376570549143
 30
0.0
 11
108.1394607819748
 21
70.93576570549141
 31
0.0
  0
LINE
  5
87
330
39
100
AcDbEntity
  8
1
  6
Continuous
 62
     7
100
AcDbLine
 10
109.3014607819748
 20
90.77376570549143
 30
0.0
 11
109.3014607819748
 21
69.77376570549143
 31
0.0
  0
LINE
  5
88
330
39
100
AcDbEntity
  8
1
  6
Continuous
 62
     7
100
AcDbLine
 10
108.1394607819748
 20
89.61176570549139
 30
0.0
 11
109.3014607819748
 21
90.77376570549143
 31
0.0
  0
LINE
  5
89
330
39
100
AcDbEntity
  8
1
  6
Continuous
 62
     2
100
AcDbLine
 10
149.3264607819748
 20
105.2737657054914
 30
0.0
 11
149.3264607819748
 21
103.7737657054914
 31
0.0
  0
LINE
  5
8A
330
39
100
AcDbEntity
  8
1
  6
Continuous
 62
     7
100
AcDbLine
 10
126.1394607819748
 20
105.2737657054914
 30
0.0
 11
126.1394607819748
 21
103.7737657054914
 31
0.0
  0
LINE
  5
8B
330
39
100
AcDbEntity
  8
1
  6
Continuous
 62
     7
100
AcDbLine
 10
109.3014607819748
 20
69.77376570549143
 30
0.0
 11
117.1394607819748
 21
69.77376570549143
 31
0.0
  0
LINE
  5
8C
330
39
100
AcDbEntity
  8
1
  6
Continuous
 62
     2
100
AcDbLine
 10
108.1394607819748
 20
89.61176570549139
 30
0.0
 11
117.1394607819748
 21
89.61176570549139
 31
0.0
  0
LINE
  5
8D
330
39
100
AcDbEntity
  8
1
  6
Continuous
 62
     7
100
AcDbLine
 10
109.3014607819748
 20
90.77376570549143
 30
0.0
 11
117.1394607819748
 21
90.77376570549143
 31
0.0
  0
LINE
  5
8E
330
39
100
AcDbEntity
  8
1
  6
PHANTOM
 62
     4
100
AcDbLine
 10
58.71887405557383
 20
238.5126587065612
 30
0.0
 11
58.71887405557383
 21
243.7737657054915
 31
0.0
  0
LINE
  5
8F
330
39
100
AcDbEntity
  8
1
  6
PHANTOM
 62
     4
100
AcDbLine
 10
58.71887405557383
 20
233.7737657054915
 30
0.0
 11
58.71887405557383
 21
238.5126587065612
 31
0.0
  0
LINE
  5
90
330
39
100
AcDbEntity
  8
1
  6
Continuous
 62
     7
100
AcDbLine
 10
58.71887405557383
 20
233.7737657054915
 30
0.0
 11
58.71887405557383
 21
238.5126587065612
 31
0.0
  0
LINE
  5
91
330
39
100
AcDbEntity
  8
1
  6
Continuous
 62
     2
100
AcDbLine
 10
68.05687405557384
 20
184.7737657054915
 30
0.0
 11
68.05687405557384
 21
175.7737657054915
 31
0.0
  0
LINE
  5
92
330
39
100
AcDbEntity
  8
1
  6
Continuous
 62
     7
100
AcDbLine
 10
69.21887405557385
 20
176.9357657054916
 30
0.0
 11
69.21887405557382
 21
184.7737657054915
 31
0.0
  0
LINE
  5
93
330
39
100
AcDbEntity
  8
1
  6
Continuous
 62
     7
100
AcDbLine
 10
48.21887405557383
 20
176.9357657054916
 30
0.0
 11
48.21887405557383
 21
184.7737657054915
 31
0.0
  0
LINE
  5
94
330
39
100
AcDbEntity
  8
1
  6
Continuous
 62
     2
100
AcDbLine
 10
49.38087405557386
 20
175.7737657054914
 30
0.0
 11
49.38087405557386
 21
184.7737657054915
 31
0.0
  0
LINE
  5
95
330
39
100
AcDbEntity
  8
1
  6
Continuous
 62
     7
100
AcDbLine
 10
66.00232790775888
 20
184.7737657054915
 30
0.0
 11
68.05687405557384
 21
184.7737657054915
 31
0.0
  0
LINE
  5
96
330
39
100
AcDbEntity
  8
1
  6
Continuous
 62
     7
100
AcDbLine
 10
71.21887405557385
 20
222.033517504119
 30
0.0
 11
71.21887405557376
 21
229.1915908946957
 31
0.0
  0
LINE
  5
97
330
39
100
AcDbEntity
  8
1
  6
PHANTOM
 62
     4
100
AcDbLine
 10
43.21887405557383
 20
205.7737657054915
 30
0.0
 11
74.21887405557382
 21
205.7737657054915
 31
0.0
  0
LINE
  5
98
330
39
100
AcDbEntity
  8
1
  6
Continuous
 62
     7
100
AcDbLine
 10
71.71887405557382
 20
238.5126587065612
 30
0.0
 11
71.71887405557382
 21
240.5237657054915
 31
0.0
  0
LINE
  5
99
330
39
100
AcDbEntity
  8
1
  6
Continuous
 62
     7
100
AcDbLine
 10
71.71887405557382
 20
231.3710403664661
 30
0.0
 11
71.71887405557382
 21
238.5126587065612
 31
0.0
  0
LINE
  5
9A
330
39
100
AcDbEntity
  8
1
  6
Continuous
 62
     7
100
AcDbLine
 10
45.71887405557383
 20
240.5237657054915
 30
0.0
 11
45.96887405557383
 21
240.7737657054915
 31
0.0
  0
LINE
  5
9B
330
39
100
AcDbEntity
  8
1
  6
Continuous
 62
     7
100
AcDbLine
 10
45.71887405557383
 20
231.3710403664659
 30
0.0
 11
45.71887405557383
 21
240.5237657054915
 31
0.0
  0
LINE
  5
9C
330
39
100
AcDbEntity
  8
1
  6
Continuous
 62
     7
100
AcDbLine
 10
46.21887405557383
 20
229.1915908946957
 30
0.0
 11
46.21887405557383
 21
222.033517504119
 31
0.0
  0
LINE
  5
9D
330
39
100
AcDbEntity
  8
1
  6
Continuous
 62
     7
100
AcDbLine
 10
69.21887405557382
 20
186.7864087438865
 30
0.0
 11
69.21887405557382
 21
188.2737657054915
 31
0.0
  0
LINE
  5
9E
330
39
100
AcDbEntity
  8
1
  6
Continuous
 62
     7
100
AcDbLine
 10
48.24137405557386
 20
240.7737657054915
 30
0.0
 11
69.19637405557373
 21
240.7737657054915
 31
0.0
  0
LINE
  5
9F
330
39
100
AcDbEntity
  8
1
  6
Continuous
 62
     7
100
AcDbLine
 10
48.21887405557383
 20
186.7864087438865
 30
0.0
 11
48.21887405557383
 21
188.2737657054915
 31
0.0
  0
LINE
  5
A0
330
39
100
AcDbEntity
  8
1
  6
Continuous
 62
     7
100
AcDbLine
 10
69.21887405557382
 20
184.7737657054915
 30
0.0
 11
68.05687405557384
 21
184.7737657054915
 31
0.0
  0
LINE
  5
A1
330
39
100
AcDbEntity
  8
1
  6
Continuous
 62
     2
100
AcDbLine
 10
69.21887405557382
 20
186.7864087438865
 30
0.0
 11
68.05687405557384
 21
184.7737657054915
 31
0.0
  0
LINE
  5
A2
330
39
100
AcDbEntity
  8
1
  6
Continuous
 62
     2
100
AcDbLine
 10
49.38087405557386
 20
184.7737657054915
 30
0.0
 11
48.21887405557383
 21
186.7864087438865
 31
0.0
  0
LINE
  5
A3
330
39
100
AcDbEntity
  8
1
  6
Continuous
 62
     7
100
AcDbLine
 10
48.21887405557383
 20
184.7737657054915
 30
0.0
 11
48.21887405557383
 21
186.7864087438865
 31
0.0
  0
LINE
  5
A4
330
39
100
AcDbEntity
  8
1
  6
Continuous
 62
     7
100
AcDbLine
 10
49.38087405557386
 20
184.7737657054915
 30
0.0
 11
48.21887405557383
 21
184.7737657054915
 31
0.0
  0
LINE
  5
A5
330
39
100
AcDbEntity
  8
1
  6
Continuous
 62
     7
100
AcDbLine
 10
69.21887405557382
 20
184.7737657054915
 30
0.0
 11
69.21887405557382
 21
186.7864087438865
 31
0.0
  0
LINE
  5
A6
330
39
100
AcDbEntity
  8
1
  6
Continuous
 62
     7
100
AcDbLine
 10
48.24137405557386
 20
240.7737657054915
 30
0.0
 11
45.96887405557383
 21
240.7737657054915
 31
0.0
  0
LINE
  5
A7
330
39
100
AcDbEntity
  8
1
  6
Continuous
 62
     7
100
AcDbLine
 10
45.96887405557383
 20
240.7737657054915
 30
0.0
 11
48.24137405557386
 21
240.7737657054915
 31
0.0
  0
LINE
  5
A8
330
39
100
AcDbEntity
  8
1
  6
Continuous
 62
     7
100
AcDbLine
 10
71.46887405557382
 20
240.7737657054915
 30
0.0
 11
71.71887405557382
 21
240.5237657054915
 31
0.0
  0
LINE
  5
A9
330
39
100
AcDbEntity
  8
1
  6
Continuous
 62
     7
100
AcDbLine
 10
71.46887405557382
 20
240.7737657054915
 30
0.0
 11
69.19637405557373
 21
240.7737657054915
 31
0.0
  0
LINE
  5
AA
330
39
100
AcDbEntity
  8
1
  6
PHANTOM
 62
     4
100
AcDbLine
 10
58.71887405557383
 20
172.7737657054915
 30
0.0
 11
58.71887405557383
 21
233.7737657054915
 31
0.0
  0
LINE
  5
AB
330
39
100
AcDbEntity
  8
1
  6
Continuous
 62
     7
100
AcDbLine
 10
49.38087405557386
 20
184.7737657054915
 30
0.0
 11
51.43542020338896
 21
184.7737657054915
 31
0.0
  0
LINE
  5
AC
330
39
100
AcDbEntity
  8
1
  6
Continuous
 62
     7
100
AcDbLine
 10
170.8783537830446
 20
72.76821220602631
 30
0.0
 11
166.1394607819748
 21
72.76821220602631
 31
0.0
  0
LINE
  5
AD
330
39
100
AcDbEntity
  8
1
  6
Continuous
 62
     7
100
AcDbLine
 10
170.8783537830446
 20
87.77931920495655
 30
0.0
 11
166.1394607819748
 21
87.77931920495655
 31
0.0
  0
LINE
  5
AE
330
39
100
AcDbEntity
  8
1
  6
Continuous
 62
     7
100
AcDbLine
 10
125.6394607819748
 20
101.8656083989379
 30
0.0
 11
150.6394607819748
 21
101.8656083989379
 31
0.0
  0
LINE
  5
AF
330
39
100
AcDbEntity
  8
1
  6
Continuous
 62
     7
100
AcDbLine
 10
126.9524607819748
 20
103.7737657054914
 30
0.0
 11
149.3264607819748
 21
103.7737657054914
 31
0.0
  0
LINE
  5
B0
330
39
100
AcDbEntity
  8
1
  6
Continuous
 62
     7
100
AcDbLine
 10
117.1394607819748
 20
89.61176570549139
 30
0.0
 11
117.1394607819748
 21
70.93576570549141
 31
0.0
  0
LINE
  5
B1
330
39
100
AcDbEntity
  8
1
  6
PHANTOM
 62
     4
100
AcDbLine
 10
105.1394607819748
 20
80.27376570549143
 30
0.0
 11
176.1394607819748
 21
80.27376570549143
 31
0.0
  0
LINE
  5
B2
330
39
100
AcDbEntity
  8
1
  6
PHANTOM
 62
     4
100
AcDbLine
 10
138.1394607819748
 20
112.7737657054914
 30
0.0
 11
138.1394607819748
 21
64.77376570549143
 31
0.0
  0
LINE
  5
B3
330
39
100
AcDbEntity
  8
1
  6
Continuous
 62
     7
100
AcDbLine
 10
170.8783537830446
 20
65.26265870656118
 30
0.0
 11
166.1394607819748
 21
65.26265870656113
 31
0.0
  0
LINE
  5
B4
330
39
100
AcDbEntity
  8
1
  6
Continuous
 62
     7
100
AcDbLine
 10
165.0928198771119
 20
66.30929961142408
 30
0.0
 11
166.1394607819748
 21
65.26265870656113
 31
0.0
  0
LINE
  5
B5
330
39
100
AcDbEntity
  8
1
  6
Continuous
 62
     7
100
AcDbLine
 10
170.8783537830446
 20
65.26265870656118
 30
0.0
 11
166.1394607819748
 21
65.26265870656113
 31
0.0
  0
LINE
  5
B6
330
39
100
AcDbEntity
  8
1
  6
Continuous
 62
     7
100
AcDbLine
 10
150.6394607819748
 20
101.8656083989379
 30
0.0
 11
150.6394607819748
 21
97.77376570549143
 31
0.0
  0
LINE
  5
B7
330
39
100
AcDbEntity
  8
1
  6
Continuous
 62
     7
100
AcDbLine
 10
150.1394607819748
 20
102.3656083989379
 30
0.0
 11
150.6394607819748
 21
101.8656083989379
 31
0.0
  0
LINE
  5
B8
330
39
100
AcDbEntity
  8
1
  6
Continuous
 62
     7
100
AcDbLine
 10
125.6394607819748
 20
101.8656083989379
 30
0.0
 11
125.6394607819748
 21
95.77376570549143
 31
0.0
  0
LINE
  5
B9
330
39
100
AcDbEntity
  8
1
  6
Continuous
 62
     7
100
AcDbLine
 10
126.1394607819748
 20
102.3656083989379
 30
0.0
 11
125.6394607819748
 21
101.8656083989379
 31
0.0
  0
LINE
  5
BA
330
39
100
AcDbEntity
  8
1
  6
Continuous
 62
     7
100
AcDbLine
 10
166.1394607819748
 20
95.28487270442162
 30
0.0
 11
165.0928198771118
 21
94.23823179955872
 31
0.0
  0
LINE
  5
BB
330
39
100
AcDbEntity
  8
1
  6
Continuous
 62
     7
100
AcDbLine
 10
173.1394607819748
 20
67.52376570549143
 30
0.0
 11
173.1394607819748
 21
69.79626570549152
 31
0.0
  0
LINE
  5
BC
330
39
100
AcDbEntity
  8
1
  6
Continuous
 62
     7
100
AcDbLine
 10
173.1394607819748
 20
67.52376570549143
 30
0.0
 11
170.8783537830446
 21
65.26265870656118
 31
0.0
  0
LINE
  5
BD
330
39
100
AcDbEntity
  8
1
  6
Continuous
 62
     7
100
AcDbLine
 10
173.1394607819748
 20
93.02376570549143
 30
0.0
 11
173.1394607819748
 21
90.75126570549139
 31
0.0
  0
LINE
  5
BE
330
39
100
AcDbEntity
  8
1
  6
Continuous
 62
     7
100
AcDbLine
 10
170.8783537830446
 20
95.28487270442162
 30
0.0
 11
173.1394607819748
 21
93.02376570549143
 31
0.0
  0
LINE
  5
BF
330
39
100
AcDbEntity
  8
1
  6
Continuous
 62
     7
100
AcDbLine
 10
173.1394607819748
 20
90.75126570549139
 30
0.0
 11
173.1394607819748
 21
93.02376570549143
 31
0.0
  0
LINE
  5
C0
330
39
100
AcDbEntity
  8
1
  6
Continuous
 62
     7
100
AcDbLine
 10
117.1394607819748
 20
69.77376570549143
 30
0.0
 11
119.1521038203698
 21
69.77376570549143
 31
0.0
  0
LINE
  5
C1
330
39
100
AcDbEntity
  8
1
  6
Continuous
 62
     2
100
AcDbLine
 10
126.9524607819748
 20
103.7737657054914
 30
0.0
 11
126.9524607819748
 21
105.2737657054914
 31
0.0
  0
LINE
  5
C2
330
39
100
AcDbEntity
  8
1
  6
Continuous
 62
     7
100
AcDbLine
 10
126.1394607819748
 20
103.7737657054914
 30
0.0
 11
126.9524607819748
 21
103.7737657054914
 31
0.0
  0
LINE
  5
C3
330
39
100
AcDbEntity
  8
1
  6
Continuous
 62
     7
100
AcDbLine
 10
126.1394607819748
 20
103.7737657054914
 30
0.0
 11
126.1394607819748
 21
102.3656083989379
 31
0.0
  0
LINE
  5
C4
330
39
100
AcDbEntity
  8
1
  6
Continuous
 62
     2
100
AcDbLine
 10
126.9524607819748
 20
103.7737657054914
 30
0.0
 11
126.1394607819748
 21
102.3656083989379
 31
0.0
  0
LINE
  5
C5
330
39
100
AcDbEntity
  8
1
  6
Continuous
 62
     7
100
AcDbLine
 10
117.1394607819748
 20
89.61176570549139
 30
0.0
 11
117.1394607819748
 21
90.77376570549143
 31
0.0
  0
LINE
  5
C6
330
39
100
AcDbEntity
  8
1
  6
Continuous
 62
     7
100
AcDbLine
 10
117.1394607819748
 20
90.77376570549143
 30
0.0
 11
119.1521038203698
 21
90.77376570549143
 31
0.0
  0
LINE
  5
C7
330
39
100
AcDbEntity
  8
1
  6
Continuous
 62
     2
100
AcDbLine
 10
117.1394607819748
 20
89.61176570549139
 30
0.0
 11
119.1521038203698
 21
90.77376570549143
 31
0.0
  0
LINE
  5
C8
330
39
100
AcDbEntity
  8
1
  6
Continuous
 62
     2
100
AcDbLine
 10
117.1394607819748
 20
70.93576570549141
 30
0.0
 11
108.1394607819748
 21
70.93576570549141
 31
0.0
  0
LINE
  5
C9
330
39
100
AcDbEntity
  8
1
  6
Continuous
 62
     2
100
AcDbLine
 10
119.1521038203698
 20
69.77376570549143
 30
0.0
 11
117.1394607819748
 21
70.93576570549141
 31
0.0
  0
LINE
  5
CA
330
39
100
AcDbEntity
  8
1
  6
Continuous
 62
     7
100
AcDbLine
 10
117.1394607819748
 20
69.77376570549143
 30
0.0
 11
117.1394607819748
 21
70.93576570549141
 31
0.0
  0
LINE
  5
CB
330
39
100
AcDbEntity
  8
1
  6
Continuous
 62
     2
100
AcDbLine
 10
150.1394607819748
 20
102.3656083989379
 30
0.0
 11
149.3264607819748
 21
103.7737657054914
 31
0.0
  0
LINE
  5
CC
330
39
100
AcDbEntity
  8
1
  6
Continuous
 62
     7
100
AcDbLine
 10
150.1394607819748
 20
102.3656083989379
 30
0.0
 11
150.1394607819748
 21
103.7737657054914
 31
0.0
  0
LINE
  5
CD
330
39
100
AcDbEntity
  8
1
  6
Continuous
 62
     7
100
AcDbLine
 10
149.3264607819748
 20
103.7737657054914
 30
0.0
 11
150.1394607819748
 21
103.7737657054914
 31
0.0
  0
LINE
  5
CE
330
39
100
AcDbEntity
  8
1
  6
Continuous
 62
     7
100
AcDbLine
 10
150.1394607819748
 20
103.7737657054914
 30
0.0
 11
150.1394607819748
 21
105.2737657054914
 31
0.0
  0
LINE
  5
CF
330
39
100
AcDbEntity
  8
1
  6
Continuous
 62
     7
100
AcDbLine
 10
166.1394607819748
 20
95.28487270442162
 30
0.0
 11
170.8783537830446
 21
95.28487270442162
 31
0.0
  0
LINE
  5
D0
330
39
100
AcDbEntity
  8
1
  6
Continuous
 62
     7
100
AcDbLine
 10
119.1521038203698
 20
90.77376570549143
 30
0.0
 11
120.6394607819748
 21
90.77376570549143
 31
0.0
  0
LINE
  5
D1
330
39
100
AcDbEntity
  8
1
  6
Continuous
 62
     7
100
AcDbLine
 10
138.1394607819748
 20
67.77376570549143
 30
0.0
 11
161.5572859711791
 21
67.77376570549143
 31
0.0
  0
LINE
  5
D2
330
39
100
AcDbEntity
  8
1
  6
Continuous
 62
     7
100
AcDbLine
 10
155.6394607819748
 20
92.77376570549143
 30
0.0
 11
161.5572859711791
 21
92.77376570549143
 31
0.0
  0
LINE
  5
D3
330
39
100
AcDbEntity
  8
1
  6
Continuous
 62
     7
100
AcDbLine
 10
173.1394607819748
 20
90.75126570549139
 30
0.0
 11
173.1394607819748
 21
69.79626570549152
 31
0.0
  0
LINE
  5
D4
330
39
100
AcDbEntity
  8
1
  6
Continuous
 62
     7
100
AcDbLine
 10
119.1521038203698
 20
69.77376570549143
 30
0.0
 11
120.6394607819748
 21
69.77376570549143
 31
0.0
  0
ARC
  5
D5
330
39
100
AcDbEntity
  8
1
  6
Continuous
 62
     7
100
AcDbCircle
 10
26.21887405557383
 20
205.7737657054915
 30
0.0
 40
45.00000000000004
100
AcDbArc
 50
-13.03960350331391
 51
-8.7424414972319
  0
ARC
  5
D6
330
39
100
AcDbEntity
  8
1
  6
Continuous
 62
     7
100
AcDbCircle
 10
15.65637405557343
 20
188.2737657054915
 30
0.0
 40
32.5625000000004
100
AcDbArc
 50
0.0
 51
13.03960350331393
  0
ARC
  5
D7
330
39
100
AcDbEntity
  8
1
  6
Continuous
 62
     7
100
AcDbCircle
 10
91.21887405557382
 20
205.7737657054915
 30
0.0
 40
45.00000000000011
100
AcDbArc
 50
-171.2575585027694
 51
-166.9603964966861
  0
ARC
  5
D8
330
39
100
AcDbEntity
  8
1
  6
Continuous
 62
     7
100
AcDbCircle
 10
101.7813740555743
 20
188.2737657054915
 30
0.0
 40
32.56250000000041
100
AcDbArc
 50
166.9603964966861
 51
180.0
  0
ARC
  5
D9
330
39
100
AcDbEntity
  8
1
  6
Continuous
 62
     7
100
AcDbCircle
 10
120.6394607819748
 20
37.21126570549103
 30
0.0
 40
32.56250000000033
100
AcDbArc
 50
76.96039649668609
 51
90.0
  0
ARC
  5
DA
330
39
100
AcDbEntity
  8
1
  6
Continuous
 62
     7
100
AcDbCircle
 10
138.1394607819748
 20
112.7737657054914
 30
0.0
 40
45.00000000000003
100
AcDbArc
 50
-103.0396035033139
 51
-90.0
  0
SPLINE
  5
DB
330
39
100
AcDbEntity
  8
1
  6
Continuous
 62
     7
100
AcDbSpline
210
0.0
220
0.0
230
1.0
 70
     8
 71
     3
 72
    33
 73
    29
 74
    27
 42
0.0000000001
 43
0.0000000001
 44
0.00000001
 40
0.0
 40
0.0
 40
0.0
 40
0.0
 40
0.5939249141923294
 40
1.18785159937742
 40
1.513819741513144
 40
1.839789281990911
 40
2.196317437918348
 40
2.55285193510484
 40
2.95819956119893
 40
3.36354151254859
 40
3.863542578220933
 40
4.363662706811268
 40
5.224160052688855
 40
6.084683379167884
 40
6.883623439069101
 40
7.682563498970347
 40
8.543086825449496
 40
9.403584171327054
 40
9.903704299917258
 40
10.40370536558953
 40
10.80904731693924
 40
11.21439494303341
 40
11.57092944021991
 40
11.92745759614735
 40
12.25342713662517
 40
12.57939527876096
 40
13.17332196394602
 40
13.76724687813831
 40
13.76724687813831
 40
13.76724687813831
 40
13.76724687813831
 10
58.71887405557383
 20
238.5126587065612
 30
0.0
 10
58.54668586035555
 20
238.6103823377813
 30
0.0
 10
58.20230895648027
 20
238.8058298916182
 30
0.0
 10
57.75478641320899
 20
239.039217284116
 30
0.0
 10
57.38229919767315
 20
239.2228681203949
 30
0.0
 10
57.07804885118248
 20
239.3658608855872
 30
0.0
 10
56.76165726818695
 20
239.506820372259
 30
0.0
 10
56.41774980186909
 20
239.6508143554494
 30
0.0
 10
56.05509000595365
 20
239.7918759346063
 30
0.0
 10
55.64343343845208
 20
239.9384029194378
 30
0.0
 10
55.19680420403
 20
240.0802680063345
 30
0.0
 10
54.59835338759439
 20
240.2436905173813
 30
0.0
 10
53.87297048926284
 20
240.3958997394564
 30
0.0
 10
53.03857542126467
 20
240.5011352320431
 30
0.0
 10
52.21887405557388
 20
240.5344950334172
 30
0.0
 10
51.39917268988306
 20
240.501135232043
 30
0.0
 10
50.56477762188482
 20
240.3958997394565
 30
0.0
 10
49.83939472355331
 20
240.2436905173812
 30
0.0
 10
49.24094390711775
 20
240.0802680063346
 30
0.0
 10
48.79431467269579
 20
239.9384029194376
 30
0.0
 10
48.38265810519411
 20
239.7918759346064
 30
0.0
 10
48.01999830927861
 20
239.6508143554497
 30
0.0
 10
47.67609084296067
 20
239.5068203722591
 30
0.0
 10
47.3596992599652
 20
239.3658608855873
 30
0.0
 10
47.05544891347446
 20
239.222868120395
 30
0.0
 10
46.68296169793867
 20
239.039217284116
 30
0.0
 10
46.23543915466736
 20
238.8058298916181
 30
0.0
 10
45.89106225079209
 20
238.6103823377812
 30
0.0
 10
45.71887405557383
 20
238.5126587065612
 30
0.0
 11
58.71887405557383
 21
238.5126587065612
 31
0.0
 11
58.2006141256382
 21
238.8027508448923
 31
0.0
 11
57.67428501089846
 21
239.0779354562938
 31
0.0
 11
57.38185674189336
 21
239.2219525982391
 31
0.0
 11
57.08683081912933
 21
239.3605738311601
 31
0.0
 11
56.76112607797203
 21
239.5055867531935
 31
0.0
 11
56.4322247517105
 21
239.6432122060263
 31
0.0
 11
56.05440456564771
 21
239.7900406943506
 31
0.0
 11
55.67249126103347
 21
239.9258505808927
 31
0.0
 11
55.19587716098874
 21
240.0769798808713
 31
0.0
 11
54.71335720674496
 21
240.2084889557589
 31
0.0
 11
53.87102865099541
 21
240.3843817823075
 31
0.0
 11
53.0171517375419
 21
240.4911273306252
 31
0.0
 11
52.21887405557389
 21
240.5236536551444
 31
0.0
 11
51.42059637360584
 21
240.4911273306252
 31
0.0
 11
50.56671946015222
 21
240.3843817823074
 31
0.0
 11
49.7243909044027
 21
240.2084889557589
 31
0.0
 11
49.24187095015905
 21
240.0769798808713
 31
0.0
 11
48.7652568501144
 21
239.9258505808926
 31
0.0
 11
48.38334354550007
 21
239.7900406943506
 31
0.0
 11
48.00552335943716
 21
239.6432122060265
 31
0.0
 11
47.67662203317561
 21
239.5055867531937
 31
0.0
 11
47.35091729201834
 21
239.3605738311602
 31
0.0
 11
47.05589136925428
 21
239.2219525982392
 31
0.0
 11
46.76346310024915
 21
239.0779354562938
 31
0.0
 11
46.23713398550943
 21
238.8027508448922
 31
0.0
 11
45.71887405557383
 21
238.5126587065612
 31
0.0
  0
SPLINE
  5
DC
330
39
100
AcDbEntity
  8
1
  6
Continuous
 62
     7
100
AcDbSpline
210
0.0
220
0.0
230
1.0
 70
     8
 71
     3
 72
    33
 73
    29
 74
    27
 42
0.0000000001
 43
0.0000000001
 44
0.00000001
 40
0.0
 40
0.0
 40
0.0
 40
0.0
 40
0.5939249141923017
 40
1.187851599377379
 40
1.513819741513141
 40
1.839789281990907
 40
2.196317437918334
 40
2.552851935104848
 40
2.958199561198938
 40
3.363541512548598
 40
3.86354257822094
 40
4.363662706811253
 40
5.224160052688828
 40
6.084683379167861
 40
6.883623439069077
 40
7.682563498970318
 40
8.543086825449461
 40
9.403584171327019
 40
9.903704299917216
 40
10.40370536558951
 40
10.80904731693926
 40
11.21439494303345
 40
11.57092944021997
 40
11.92745759614738
 40
12.25342713662517
 40
12.57939527876092
 40
13.17332196394595
 40
13.76724687813828
 40
13.76724687813828
 40
13.76724687813828
 40
13.76724687813828
 10
58.71887405557383
 20
233.7737657054915
 30
0.0
 10
58.54668586035555
 20
233.6760420742715
 30
0.0
 10
58.20230895648028
 20
233.4805945204346
 30
0.0
 10
57.75478641320894
 20
233.2472071279368
 30
0.0
 10
57.38229919767321
 20
233.0635562916578
 30
0.0
 10
57.07804885118247
 20
232.9205635264655
 30
0.0
 10
56.76165726818694
 20
232.7796040397938
 30
0.0
 10
56.4177498018691
 20
232.6356100566034
 30
0.0
 10
56.05509000595365
 20
232.4945484774463
 30
0.0
 10
55.64343343845206
 20
232.348021492615
 30
0.0
 10
55.19680420403003
 20
232.2061564057181
 30
0.0
 10
54.59835338759437
 20
232.0427338946716
 30
0.0
 10
53.87297048926284
 20
231.8905246725963
 30
0.0
 10
53.03857542126464
 20
231.7852891800098
 30
0.0
 10
52.21887405557389
 20
231.7519293786357
 30
0.0
 10
51.39917268988305
 20
231.7852891800097
 30
0.0
 10
50.56477762188484
 20
231.8905246725962
 30
0.0
 10
49.83939472355331
 20
232.0427338946715
 30
0.0
 10
49.24094390711773
 20
232.2061564057181
 30
0.0
 10
48.79431467269578
 20
232.3480214926151
 30
0.0
 10
48.38265810519413
 20
232.4945484774465
 30
0.0
 10
48.01999830927859
 20
232.6356100566034
 30
0.0
 10
47.67609084296068
 20
232.7796040397938
 30
0.0
 10
47.3596992599652
 20
232.9205635264656
 30
0.0
 10
47.05544891347445
 20
233.0635562916577
 30
0.0
 10
46.68296169793864
 20
233.2472071279368
 30
0.0
 10
46.23543915466733
 20
233.4805945204344
 30
0.0
 10
45.8910622507921
 20
233.6760420742714
 30
0.0
 10
45.71887405557383
 20
233.7737657054915
 30
0.0
 11
58.71887405557383
 21
233.7737657054915
 31
0.0
 11
58.2006141256382
 21
233.4836735671605
 31
0.0
 11
57.67428501089846
 21
233.208488955759
 31
0.0
 11
57.38185674189336
 21
233.0644718138136
 31
0.0
 11
57.08683081912933
 21
232.9258505808926
 31
0.0
 11
56.76112607797203
 21
232.7808376588592
 31
0.0
 11
56.4322247517105
 21
232.6432122060264
 31
0.0
 11
56.05440456564771
 21
232.4963837177021
 31
0.0
 11
55.67249126103347
 21
232.36057383116
 31
0.0
 11
55.19587716098874
 21
232.2094445311814
 31
0.0
 11
54.71335720674496
 21
232.0779354562939
 31
0.0
 11
53.87102865099541
 21
231.9020426297454
 31
0.0
 11
53.0171517375419
 21
231.7952970814276
 31
0.0
 11
52.21887405557389
 21
231.7627707569084
 31
0.0
 11
51.42059637360584
 21
231.7952970814275
 31
0.0
 11
50.56671946015222
 21
231.9020426297452
 31
0.0
 11
49.7243909044027
 21
232.0779354562938
 31
0.0
 11
49.24187095015905
 21
232.2094445311814
 31
0.0
 11
48.7652568501144
 21
232.3605738311601
 31
0.0
 11
48.38334354550007
 21
232.4963837177022
 31
0.0
 11
48.00552335943716
 21
232.6432122060265
 31
0.0
 11
47.67662203317561
 21
232.7808376588593
 31
0.0
 11
47.35091729201834
 21
232.9258505808927
 31
0.0
 11
47.05589136925428
 21
233.0644718138136
 31
0.0
 11
46.76346310024915
 21
233.2084889557589
 31
0.0
 11
46.23713398550943
 21
233.4836735671604
 31
0.0
 11
45.71887405557383
 21
233.7737657054915
 31
0.0
  0
SPLINE
  5
DD
330
39
100
AcDbEntity
  8
1
  6
Continuous
 62
     7
100
AcDbSpline
210
0.0
220
0.0
230
1.0
 70
     8
 71
     3
 72
    33
 73
    29
 74
    27
 42
0.0000000001
 43
0.0000000001
 44
0.00000001
 40
0.0
 40
0.0
 40
0.0
 40
0.0
 40
0.5939249141923202
 40
1.187851599377379
 40
1.513819741513102
 40
1.839789281990837
 40
2.196317437918295
 40
2.552851935104868
 40
2.958199561198971
 40
3.363541512548611
 40
3.863542578220933
 40
4.363662706811253
 40
5.224160052688841
 40
6.084683379167853
 40
6.883623439069069
 40
7.68256349897031
 40
8.543086825449425
 40
9.40358417132699
 40
9.903704299917209
 40
10.40370536558952
 40
10.80904731693926
 40
11.21439494303341
 40
11.5709294402199
 40
11.92745759614732
 40
12.25342713662511
 40
12.57939527876089
 40
13.17332196394592
 40
13.76724687813826
 40
13.76724687813826
 40
13.76724687813826
 40
13.76724687813826
 10
58.71887405557383
 20
233.7737657054915
 30
0.0
 10
58.89106225079212
 20
233.6760420742715
 30
0.0
 10
59.23543915466739
 20
233.4805945204345
 30
0.0
 10
59.68296169793873
 20
233.2472071279369
 30
0.0
 10
60.05544891347441
 20
233.0635562916577
 30
0.0
 10
60.35969925996513
 20
232.9205635264655
 30
0.0
 10
60.67609084296068
 20
232.7796040397938
 30
0.0
 10
61.01999830927857
 20
232.6356100566033
 30
0.0
 10
61.38265810519402
 20
232.4945484774464
 30
0.0
 10
61.79431467269563
 20
232.348021492615
 30
0.0
 10
62.24094390711762
 20
232.2061564057181
 30
0.0
 10
62.83939472355332
 20
232.0427338946717
 30
0.0
 10
63.5647776218848
 20
231.8905246725963
 30
0.0
 10
64.39917268988302
 20
231.7852891800098
 30
0.0
 10
65.21887405557376
 20
231.7519293786357
 30
0.0
 10
66.03857542126457
 20
231.7852891800097
 30
0.0
 10
66.87297048926283
 20
231.8905246725962
 30
0.0
 10
67.5983533875943
 20
232.0427338946715
 30
0.0
 10
68.19680420402992
 20
232.2061564057181
 30
0.0
 10
68.64343343845189
 20
232.3480214926151
 30
0.0
 10
69.05509000595352
 20
232.4945484774465
 30
0.0
 10
69.41774980186904
 20
232.6356100566033
 30
0.0
 10
69.76165726818692
 20
232.7796040397938
 30
0.0
 10
70.07804885118239
 20
232.9205635264656
 30
0.0
 10
70.38229919767315
 20
233.0635562916578
 30
0.0
 10
70.75478641320896
 20
233.2472071279367
 30
0.0
 10
71.20230895648029
 20
233.4805945204344
 30
0.0
 10
71.54668586035555
 20
233.6760420742715
 30
0.0
 10
71.71887405557382
 20
233.7737657054915
 30
0.0
 11
58.71887405557383
 21
233.7737657054915
 31
0.0
 11
59.23713398550947
 21
233.4836735671605
 31
0.0
 11
59.7634631002492
 21
233.208488955759
 31
0.0
 11
60.05589136925426
 21
233.0644718138136
 31
0.0
 11
60.35091729201825
 21
232.9258505808926
 31
0.0
 11
60.67662203317558
 21
232.7808376588592
 31
0.0
 11
61.00552335943718
 21
232.6432122060264
 31
0.0
 11
61.38334354549998
 21
232.4963837177021
 31
0.0
 11
61.7652568501142
 21
232.36057383116
 31
0.0
 11
62.24187095015891
 21
232.2094445311814
 31
0.0
 11
62.7243909044027
 21
232.0779354562939
 31
0.0
 11
63.56671946015226
 21
231.9020426297454
 31
0.0
 11
64.42059637360575
 21
231.7952970814276
 31
0.0
 11
65.21887405557376
 21
231.7627707569084
 31
0.0
 11
66.01715173754181
 21
231.7952970814275
 31
0.0
 11
66.8710286509954
 21
231.9020426297452
 31
0.0
 11
67.71335720674493
 21
232.0779354562938
 31
0.0
 11
68.1958771609886
 21
232.2094445311814
 31
0.0
 11
68.67249126103327
 21
232.3605738311601
 31
0.0
 11
69.05440456564759
 21
232.4963837177022
 31
0.0
 11
69.43222475171046
 21
232.6432122060265
 31
0.0
 11
69.76112607797198
 21
232.7808376588593
 31
0.0
 11
70.08683081912926
 21
232.9258505808927
 31
0.0
 11
70.38185674189333
 21
233.0644718138136
 31
0.0
 11
70.67428501089849
 21
233.2084889557589
 31
0.0
 11
71.2006141256382
 21
233.4836735671604
 31
0.0
 11
71.71887405557382
 21
233.7737657054915
 31
0.0
  0
SPLINE
  5
DE
330
39
100
AcDbEntity
  8
1
  6
Continuous
 62
     7
100
AcDbSpline
210
0.0
220
0.0
230
1.0
 70
     8
 71
     3
 72
    33
 73
    29
 74
    27
 42
0.0000000001
 43
0.0000000001
 44
0.00000001
 40
0.0
 40
0.0
 40
0.0
 40
0.0
 40
0.5939249141923481
 40
1.18785159937742
 40
1.513819741513105
 40
1.83978928199084
 40
2.19631743791831
 40
2.552851935104861
 40
2.958199561198964
 40
3.363541512548604
 40
3.863542578220926
 40
4.363662706811268
 40
5.224160052688869
 40
6.084683379167877
 40
6.883623439069094
 40
7.68256349897034
 40
8.543086825449461
 40
9.403584171327026
 40
9.903704299917251
 40
10.40370536558954
 40
10.80904731693924
 40
11.21439494303337
 40
11.57092944021985
 40
11.92745759614729
 40
12.25342713662512
 40
12.57939527876094
 40
13.173321963946
 40
13.7672468781383
 40
13.7672468781383
 40
13.7672468781383
 40
13.7672468781383
 10
58.71887405557383
 20
238.5126587065612
 30
0.0
 10
58.8910622507921
 20
238.6103823377813
 30
0.0
 10
59.23543915466738
 20
238.8058298916183
 30
0.0
 10
59.68296169793868
 20
239.039217284116
 30
0.0
 10
60.05544891347446
 20
239.222868120395
 30
0.0
 10
60.35969925996513
 20
239.3658608855872
 30
0.0
 10
60.67609084296066
 20
239.506820372259
 30
0.0
 10
61.01999830927858
 20
239.6508143554493
 30
0.0
 10
61.38265810519403
 20
239.7918759346063
 30
0.0
 10
61.79431467269562
 20
239.9384029194378
 30
0.0
 10
62.24094390711764
 20
240.0802680063345
 30
0.0
 10
62.83939472355327
 20
240.2436905173812
 30
0.0
 10
63.5647776218848
 20
240.3958997394565
 30
0.0
 10
64.39917268988302
 20
240.5011352320431
 30
0.0
 10
65.21887405557376
 20
240.5344950334172
 30
0.0
 10
66.0385754212646
 20
240.501135232043
 30
0.0
 10
66.87297048926278
 20
240.3958997394565
 30
0.0
 10
67.59835338759433
 20
240.2436905173811
 30
0.0
 10
68.1968042040299
 20
240.0802680063345
 30
0.0
 10
68.64343343845187
 20
239.9384029194376
 30
0.0
 10
69.05509000595353
 20
239.7918759346064
 30
0.0
 10
69.41774980186904
 20
239.6508143554495
 30
0.0
 10
69.76165726818692
 20
239.5068203722591
 30
0.0
 10
70.0780488511824
 20
239.3658608855873
 30
0.0
 10
70.38229919767315
 20
239.2228681203949
 30
0.0
 10
70.75478641320899
 20
239.0392172841161
 30
0.0
 10
71.20230895648024
 20
238.8058298916181
 30
0.0
 10
71.54668586035552
 20
238.6103823377812
 30
0.0
 10
71.71887405557382
 20
238.5126587065612
 30
0.0
 11
58.71887405557383
 21
238.5126587065612
 31
0.0
 11
59.23713398550947
 21
238.8027508448923
 31
0.0
 11
59.7634631002492
 21
239.0779354562938
 31
0.0
 11
60.05589136925426
 21
239.2219525982391
 31
0.0
 11
60.35091729201825
 21
239.3605738311601
 31
0.0
 11
60.67662203317558
 21
239.5055867531935
 31
0.0
 11
61.00552335943718
 21
239.6432122060263
 31
0.0
 11
61.38334354549998
 21
239.7900406943506
 31
0.0
 11
61.7652568501142
 21
239.9258505808927
 31
0.0
 11
62.24187095015891
 21
240.0769798808713
 31
0.0
 11
62.7243909044027
 21
240.2084889557589
 31
0.0
 11
63.56671946015226
 21
240.3843817823075
 31
0.0
 11
64.42059637360575
 21
240.4911273306252
 31
0.0
 11
65.21887405557376
 21
240.5236536551444
 31
0.0
 11
66.01715173754181
 21
240.4911273306252
 31
0.0
 11
66.8710286509954
 21
240.3843817823074
 31
0.0
 11
67.71335720674493
 21
240.2084889557589
 31
0.0
 11
68.1958771609886
 21
240.0769798808713
 31
0.0
 11
68.67249126103327
 21
239.9258505808926
 31
0.0
 11
69.05440456564759
 21
239.7900406943506
 31
0.0
 11
69.43222475171046
 21
239.6432122060265
 31
0.0
 11
69.76112607797198
 21
239.5055867531937
 31
0.0
 11
70.08683081912926
 21
239.3605738311602
 31
0.0
 11
70.38185674189333
 21
239.2219525982392
 31
0.0
 11
70.67428501089849
 21
239.0779354562938
 31
0.0
 11
71.2006141256382
 21
238.8027508448922
 31
0.0
 11
71.71887405557382
 21
238.5126587065612
 31
0.0
  0
SPLINE
  5
DF
330
39
100
AcDbEntity
  8
1
  6
Continuous
 62
     7
100
AcDbSpline
210
0.0
220
0.0
230
1.0
 70
     8
 71
     3
 72
    33
 73
    29
 74
    27
 42
0.0000000001
 43
0.0000000001
 44
0.00000001
 40
0.0
 40
0.0
 40
0.0
 40
0.0
 40
0.4133569006801044
 40
0.8267148991713158
 40
1.047477429691589
 40
1.2682402736861
 40
1.504227369535143
 40
1.740225682305869
 40
2.001195139144809
 40
2.262139231593057
 40
2.573023665195289
 40
2.884147975817105
 40
3.395079514214144
 40
3.905704156216008
 40
4.367715781294342
 40
4.829727406372663
 40
5.340352048374617
 40
5.851283586771669
 40
6.162407897393472
 40
6.473292330995678
 40
6.734236423443923
 40
6.995205880282839
 40
7.23120419305357
 40
7.467191288902631
 40
7.687954132897132
 40
7.908716663417415
 40
8.322074661908626
 40
8.735431562588669
 40
8.735431562588669
 40
8.735431562588669
 40
8.735431562588669
 10
166.1394607819748
 20
65.26265870656113
 30
0.0
 10
166.0428443282555
 20
65.36090890826581
 30
0.0
 10
165.8496111642188
 20
65.55740957261233
 30
0.0
 10
165.6153342088875
 20
65.8164634412254
 30
0.0
 10
165.4302411311077
 20
66.03314624772467
 30
0.0
 10
165.2876192512555
 20
66.20828124503332
 30
0.0
 10
165.1464748490952
 20
66.39107793362115
 30
0.0
 10
165.0029664535865
 20
66.58885421691898
 30
0.0
 10
164.8616835641416
 20
66.7983702622671
 30
0.0
 10
164.7158527606523
 20
67.03466867263882
 30
0.0
 10
164.5736306504119
 20
67.29253922449237
 30
0.0
 10
164.4118043547843
 20
67.63400500840857
 30
0.0
 10
164.2586402863514
 20
68.05221181457823
 30
0.0
 10
164.151345626978
 20
68.53679598307966
 30
0.0
 10
164.1180298426939
 20
69.01543545629373
 30
0.0
 10
164.1513456269782
 20
69.49407492950782
 30
0.0
 10
164.2586402863514
 20
69.97865909800927
 30
0.0
 10
164.4118043547843
 20
70.396865904179
 30
0.0
 10
164.5736306504119
 20
70.73833168809516
 30
0.0
 10
164.7158527606524
 20
70.9962022399487
 30
0.0
 10
164.8616835641416
 20
71.23250065032043
 30
0.0
 10
165.0029664535865
 20
71.44201669566854
 30
0.0
 10
165.1464748490952
 20
71.63979297896634
 30
0.0
 10
165.2876192512555
 20
71.82258966755416
 30
0.0
 10
165.4302411311077
 20
71.99772466486279
 30
0.0
 10
165.6153342088874
 20
72.21440747136212
 30
0.0
 10
165.8496111642189
 20
72.47346133997513
 30
0.0
 10
166.0428443282556
 20
72.66996200432163
 30
0.0
 10
166.1394607819748
 20
72.76821220602631
 30
0.0
 11
166.1394607819748
 21
65.26265870656113
 31
0.0
 11
165.8516943070602
 21
65.55939829484537
 31
0.0
 11
165.5741840322423
 21
65.86575247269695
 31
0.0
 11
165.4309039872773
 21
66.03370164237802
 31
0.0
 11
165.2915456573759
 21
66.20491930845147
 31
0.0
 11
165.1474153115138
 21
66.39177848753808
 31
0.0
 11
165.0089072825097
 21
66.58285629768891
 31
0.0
 11
164.8631535485915
 21
66.79933009853261
 31
0.0
 11
164.7262689076434
 21
67.02148863304376
 31
0.0
 11
164.5765031662327
 21
67.29392092510157
 31
0.0
 11
164.4436305327772
 21
67.57524493747611
 31
0.0
 11
164.2694929860333
 21
68.05558559965533
 31
0.0
 11
164.1609921579109
 21
68.55454962172134
 31
0.0
 11
164.1287588025467
 21
69.01543545629373
 31
0.0
 11
164.1609921579109
 21
69.47632129086611
 31
0.0
 11
164.2694929860333
 21
69.97528531293222
 31
0.0
 11
164.4436305327772
 21
70.45562597511145
 31
0.0
 11
164.5765031662327
 21
70.73694998748596
 31
0.0
 11
164.7262689076434
 21
71.00938227954376
 31
0.0
 11
164.8631535485915
 21
71.23154081405492
 31
0.0
 11
165.0089072825097
 21
71.4480146148986
 31
0.0
 11
165.1474153115138
 21
71.63909242504941
 31
0.0
 11
165.291545657376
 21
71.82595160413602
 31
0.0
 11
165.4309039872774
 21
71.99716927020945
 31
0.0
 11
165.5741840322423
 21
72.16511843989053
 31
0.0
 11
165.8516943070603
 21
72.47147261774212
 31
0.0
 11
166.1394607819748
 21
72.76821220602631
 31
0.0
  0
SPLINE
  5
E0
330
39
100
AcDbEntity
  8
1
  6
Continuous
 62
     7
100
AcDbSpline
210
0.0
220
0.0
230
1.0
 70
     8
 71
     3
 72
    33
 73
    29
 74
    27
 42
0.0000000001
 43
0.0000000001
 44
0.00000001
 40
0.0
 40
0.0
 40
0.0
 40
0.0
 40
0.6660942076092064
 40
1.332190222770911
 40
1.699632944385101
 40
2.067077053321456
 40
2.470589213764463
 40
2.874107007989149
 40
3.334983200372752
 40
3.795855500931681
 40
4.367402403401239
 40
4.939051291210315
 40
5.929102491977442
 40
6.919199823136939
 40
7.841546055180304
 40
8.763892287223698
 40
9.753989618383223
 40
10.74404081915034
 40
11.31568970695941
 40
11.88723660942898
 40
12.34810890998785
 40
12.80898510237146
 40
13.21250289659619
 40
13.6160150570392
 40
13.98345916597556
 40
14.35090188758972
 40
15.01699790275143
 40
15.68309211036061
 40
15.68309211036061
 40
15.68309211036061
 40
15.68309211036061
 10
166.1394607819748
 20
87.77931920495655
 30
0.0
 10
166.0415228683312
 20
87.58004292652385
 30
0.0
 10
165.8456467752739
 20
87.18148982889056
 30
0.0
 10
165.6124513089593
 20
86.66504289573246
 30
0.0
 10
165.4290724593081
 20
86.23554751354199
 30
0.0
 10
165.2860195102776
 20
85.88405620955462
 30
0.0
 10
165.1450980223681
 20
85.51878033575812
 30
0.0
 10
165.0010297811597
 20
85.12142640609947
 30
0.0
 10
164.8600123583016
 20
84.70273218231318
 30
0.0
 10
164.7133880112655
 20
84.22699549283797
 30
0.0
 10
164.5715893191254
 20
83.71132913204804
 30
0.0
 10
164.4079561229361
 20
83.01918742788666
 30
0.0
 10
164.2558805073843
 20
82.18157172428164
 30
0.0
 10
164.1509387613252
 20
81.21889660567231
 30
0.0
 10
164.1175909951247
 20
80.27376570549144
 30
0.0
 10
164.1509387613253
 20
79.32863480531049
 30
0.0
 10
164.2558805073843
 20
78.3659596867012
 30
0.0
 10
164.4079561229362
 20
77.52834398309612
 30
0.0
 10
164.5715893191254
 20
76.83620227893482
 30
0.0
 10
164.7133880112654
 20
76.32053591814479
 30
0.0
 10
164.8600123583016
 20
75.8447992286697
 30
0.0
 10
165.0010297811597
 20
75.42610500488337
 30
0.0
 10
165.1450980223682
 20
75.02875107522469
 30
0.0
 10
165.2860195102776
 20
74.66347520142823
 30
0.0
 10
165.4290724593082
 20
74.31198389744081
 30
0.0
 10
165.6124513089593
 20
73.88248851525039
 30
0.0
 10
165.845646775274
 20
73.36604158209231
 30
0.0
 10
166.0415228683312
 20
72.96748848445901
 30
0.0
 10
166.1394607819748
 20
72.76821220602631
 30
0.0
 11
166.1394607819748
 21
87.77931920495655
 31
0.0
 11
165.8489207890958
 21
87.17992951039349
 31
0.0
 11
165.5741840322422
 21
86.57313167268484
 31
0.0
 11
165.43003377374
 21
86.23514519863448
 31
0.0
 11
165.291545657376
 21
85.89479800117582
 31
0.0
 11
165.1463818562365
 21
85.51830160748243
 31
0.0
 11
165.0089072825097
 21
85.13892402270101
 31
0.0
 11
164.8619057887294
 21
84.70212037627348
 31
0.0
 11
164.7262689076434
 21
84.26165935199127
 31
0.0
 11
164.5749396588138
 21
83.71051026129875
 31
0.0
 11
164.4436305327772
 21
83.15414674312663
 31
0.0
 11
164.2674862792011
 21
82.17989083112374
 31
0.0
 11
164.1609921579109
 21
81.19553737463579
 31
0.0
 11
164.1284412481324
 21
80.27376570549143
 31
0.0
 11
164.1609921579109
 21
79.35199403634704
 31
0.0
 11
164.2674862792011
 21
78.36764057985906
 31
0.0
 11
164.4436305327772
 21
77.39338466785618
 31
0.0
 11
164.5749396588138
 21
76.83702114968406
 31
0.0
 11
164.7262689076434
 21
76.28587205899153
 31
0.0
 11
164.8619057887294
 21
75.84541103470936
 31
0.0
 11
165.0089072825097
 21
75.40860738828185
 31
0.0
 11
165.1463818562365
 21
75.02922980350039
 31
0.0
 11
165.291545657376
 21
74.652733409807
 31
0.0
 11
165.4300337737401
 21
74.31238621234833
 31
0.0
 11
165.5741840322423
 21
73.97439973829802
 31
0.0
 11
165.8489207890958
 21
73.36760190058936
 31
0.0
 11
166.1394607819748
 21
72.76821220602631
 31
0.0
  0
SPLINE
  5
E1
330
39
100
AcDbEntity
  8
1
  6
Continuous
 62
     7
100
AcDbSpline
210
0.0
220
0.0
230
1.0
 70
     8
 71
     3
 72
    33
 73
    29
 74
    27
 42
0.0000000001
 43
0.0000000001
 44
0.00000001
 40
0.0
 40
0.0
 40
0.0
 40
0.0
 40
0.4133569006800125
 40
0.8267148991712343
 40
1.04747742969154
 40
1.268240273686051
 40
1.504227369535094
 40
1.74022568230582
 40
2.001195139144748
 40
2.262139231592984
 40
2.573023665195204
 40
2.88414797581702
 40
3.395079514214072
 40
3.905704156215991
 40
4.367715781294268
 40
4.829727406372603
 40
5.340352048374517
 40
5.851283586771582
 40
6.162407897393385
 40
6.473292330995591
 40
6.734236423443836
 40
6.995205880282764
 40
7.231204193053507
 40
7.467191288902556
 40
7.687954132897034
 40
7.908716663417307
 40
8.322074661908467
 40
8.735431562588582
 40
8.735431562588582
 40
8.735431562588582
 40
8.735431562588582
 10
166.1394607819748
 20
95.28487270442162
 30
0.0
 10
166.0428443282555
 20
95.18662250271697
 30
0.0
 10
165.8496111642189
 20
94.99012183837051
 30
0.0
 10
165.6153342088874
 20
94.7310679697575
 30
0.0
 10
165.4302411311077
 20
94.51438516325811
 30
0.0
 10
165.2876192512556
 20
94.33925016594951
 30
0.0
 10
165.1464748490951
 20
94.15645347736165
 30
0.0
 10
165.0029664535865
 20
93.95867719406384
 30
0.0
 10
164.8616835641416
 20
93.74916114871573
 30
0.0
 10
164.7158527606523
 20
93.51286273834403
 30
0.0
 10
164.5736306504119
 20
93.25499218649047
 30
0.0
 10
164.4118043547844
 20
92.91352640257431
 30
0.0
 10
164.2586402863514
 20
92.49531959640457
 30
0.0
 10
164.1513456269781
 20
92.01073542790316
 30
0.0
 10
164.1180298426939
 20
91.53209595468908
 30
0.0
 10
164.1513456269781
 20
91.05345648147502
 30
0.0
 10
164.2586402863514
 20
90.56887231297358
 30
0.0
 10
164.4118043547844
 20
90.15066550680386
 30
0.0
 10
164.5736306504119
 20
89.80919972288771
 30
0.0
 10
164.7158527606524
 20
89.55132917103418
 30
0.0
 10
164.8616835641416
 20
89.31503076066241
 30
0.0
 10
165.0029664535865
 20
89.10551471531431
 30
0.0
 10
165.1464748490952
 20
88.9077384320165
 30
0.0
 10
165.2876192512556
 20
88.72494174342866
 30
0.0
 10
165.4302411311077
 20
88.5498067461201
 30
0.0
 10
165.6153342088874
 20
88.33312393962073
 30
0.0
 10
165.849611164219
 20
88.07407007100784
 30
0.0
 10
166.0428443282556
 20
87.87756940666127
 30
0.0
 10
166.1394607819748
 20
87.77931920495655
 30
0.0
 11
166.1394607819748
 21
95.28487270442162
 31
0.0
 11
165.8516943070602
 21
94.9881331161375
 31
0.0
 11
165.5741840322423
 21
94.6817789382859
 31
0.0
 11
165.4309039872773
 21
94.51382976860479
 31
0.0
 11
165.2915456573759
 21
94.34261210253135
 31
0.0
 11
165.1474153115138
 21
94.15575292344474
 31
0.0
 11
165.0089072825097
 21
93.96467511329391
 31
0.0
 11
164.8631535485915
 21
93.74820131245022
 31
0.0
 11
164.7262689076434
 21
93.52604277793908
 31
0.0
 11
164.5765031662327
 21
93.25361048588128
 31
0.0
 11
164.4436305327772
 21
92.97228647350674
 31
0.0
 11
164.2694929860333
 21
92.49194581132751
 31
0.0
 11
164.1609921579109
 21
91.99298178926145
 31
0.0
 11
164.1287588025467
 21
91.53209595468911
 31
0.0
 11
164.1609921579109
 21
91.07121012011672
 31
0.0
 11
164.2694929860333
 21
90.57224609805066
 31
0.0
 11
164.4436305327772
 21
90.09190543587141
 31
0.0
 11
164.5765031662327
 21
89.8105814234969
 31
0.0
 11
164.7262689076434
 21
89.5381491314391
 31
0.0
 11
164.8631535485915
 21
89.31599059692793
 31
0.0
 11
165.0089072825097
 21
89.09951679608425
 31
0.0
 11
165.1474153115138
 21
88.90843898593342
 31
0.0
 11
165.291545657376
 21
88.72157980684682
 31
0.0
 11
165.4309039872774
 21
88.55036214077342
 31
0.0
 11
165.5741840322423
 21
88.38241297109235
 31
0.0
 11
165.8516943070603
 21
88.07605879324083
 31
0.0
 11
166.1394607819748
 21
87.77931920495655
 31
0.0
  0
SPLINE
  5
E2
330
39
100
AcDbEntity
  8
1
  6
Continuous
 62
     7
100
AcDbSpline
210
0.0
220
0.0
230
1.0
 70
     8
 71
     3
 72
    33
 73
    29
 74
    27
 42
0.0000000001
 43
0.0000000001
 44
0.00000001
 40
0.0
 40
0.0
 40
0.0
 40
0.0
 40
0.4133569006801133
 40
0.8267148991712569
 40
1.04747742969153
 40
1.268240273686023
 40
1.504227369535101
 40
1.740225682305844
 40
2.001195139144783
 40
2.262139231593017
 40
2.573023665195249
 40
2.884147975817101
 40
3.39507951421414
 40
3.905704156215974
 40
4.367715781294309
 40
4.829727406372628
 40
5.340352048374565
 40
5.851283586771617
 40
6.162407897393443
 40
6.473292330995663
 40
6.734236423443908
 40
6.995205880282824
 40
7.231204193053571
 40
7.467191288902632
 40
7.687954132897079
 40
7.908716663417344
 40
8.322074661908518
 40
8.73543156258866
 40
8.73543156258866
 40
8.73543156258866
 40
8.73543156258866
 10
170.8783537830446
 20
65.26265870656118
 30
0.0
 10
170.9749702367639
 20
65.36090890826587
 30
0.0
 10
171.1682034008006
 20
65.55740957261233
 30
0.0
 10
171.402480356132
 20
65.8164634412254
 30
0.0
 10
171.5875734339117
 20
66.03314624772467
 30
0.0
 10
171.7301953137638
 20
66.20828124503335
 30
0.0
 10
171.8713397159242
 20
66.39107793362113
 30
0.0
 10
172.0148481114329
 20
66.58885421691895
 30
0.0
 10
172.1561310008779
 20
66.7983702622671
 30
0.0
 10
172.3019618043671
 20
67.03466867263883
 30
0.0
 10
172.4441839146075
 20
67.2925392244924
 30
0.0
 10
172.6060102102351
 20
67.63400500840852
 30
0.0
 10
172.7591742786681
 20
68.05221181457823
 30
0.0
 10
172.8664689380412
 20
68.53679598307969
 30
0.0
 10
172.8997847223254
 20
69.01543545629372
 30
0.0
 10
172.8664689380413
 20
69.49407492950782
 30
0.0
 10
172.7591742786681
 20
69.97865909800927
 30
0.0
 10
172.6060102102352
 20
70.39686590417904
 30
0.0
 10
172.4441839146075
 20
70.73833168809514
 30
0.0
 10
172.301961804367
 20
70.99620223994869
 30
0.0
 10
172.1561310008778
 20
71.23250065032043
 30
0.0
 10
172.0148481114329
 20
71.44201669566856
 30
0.0
 10
171.8713397159242
 20
71.63979297896634
 30
0.0
 10
171.7301953137637
 20
71.82258966755413
 30
0.0
 10
171.5875734339118
 20
71.9977246648628
 30
0.0
 10
171.402480356132
 20
72.21440747136211
 30
0.0
 10
171.1682034008006
 20
72.4734613399752
 30
0.0
 10
170.9749702367639
 20
72.66996200432165
 30
0.0
 10
170.8783537830446
 20
72.76821220602631
 30
0.0
 11
170.8783537830446
 21
65.26265870656118
 31
0.0
 11
171.1661202579592
 21
65.55939829484538
 31
0.0
 11
171.4436305327771
 21
65.86575247269695
 31
0.0
 11
171.586910577742
 21
66.03370164237802
 31
0.0
 11
171.7262689076434
 21
66.20491930845147
 31
0.0
 11
171.8703992535056
 21
66.39177848753808
 31
0.0
 11
172.0089072825097
 21
66.58285629768891
 31
0.0
 11
172.1546610164279
 21
66.79933009853261
 31
0.0
 11
172.291545657376
 21
67.02148863304376
 31
0.0
 11
172.4413113987867
 21
67.29392092510157
 31
0.0
 11
172.5741840322423
 21
67.57524493747611
 31
0.0
 11
172.7483215789862
 21
68.05558559965533
 31
0.0
 11
172.8568224071085
 21
68.55454962172134
 31
0.0
 11
172.8890557624726
 21
69.01543545629373
 31
0.0
 11
172.8568224071085
 21
69.47632129086611
 31
0.0
 11
172.7483215789862
 21
69.97528531293222
 31
0.0
 11
172.5741840322423
 21
70.45562597511145
 31
0.0
 11
172.4413113987867
 21
70.73694998748596
 31
0.0
 11
172.291545657376
 21
71.00938227954376
 31
0.0
 11
172.1546610164279
 21
71.23154081405492
 31
0.0
 11
172.0089072825097
 21
71.4480146148986
 31
0.0
 11
171.8703992535056
 21
71.63909242504941
 31
0.0
 11
171.7262689076434
 21
71.82595160413602
 31
0.0
 11
171.5869105777421
 21
71.99716927020945
 31
0.0
 11
171.4436305327772
 21
72.16511843989053
 31
0.0
 11
171.1661202579593
 21
72.47147261774212
 31
0.0
 11
170.8783537830446
 21
72.76821220602631
 31
0.0
  0
SPLINE
  5
E3
330
39
100
AcDbEntity
  8
1
  6
Continuous
 62
     7
100
AcDbSpline
210
0.0
220
0.0
230
1.0
 70
     8
 71
     3
 72
    33
 73
    29
 74
    27
 42
0.0000000001
 43
0.0000000001
 44
0.00000001
 40
0.0
 40
0.0
 40
0.0
 40
0.0
 40
0.6660942076092064
 40
1.332190222770922
 40
1.699632944385113
 40
2.067077053321478
 40
2.470589213764475
 40
2.874107007989181
 40
3.334983200372775
 40
3.795855500931695
 40
4.367402403401253
 40
4.939051291210323
 40
5.92910249197744
 40
6.919199823136947
 40
7.841546055180311
 40
8.763892287223705
 40
9.753989618383237
 40
10.74404081915034
 40
11.31568970695942
 40
11.88723660942899
 40
12.34810890998787
 40
12.80898510237146
 40
13.2125028965962
 40
13.61601505703918
 40
13.98345916597556
 40
14.35090188758971
 40
15.0169979027514
 40
15.68309211036062
 40
15.68309211036062
 40
15.68309211036062
 40
15.68309211036062
 10
170.8783537830446
 20
87.77931920495655
 30
0.0
 10
170.9762916966882
 20
87.58004292652386
 30
0.0
 10
171.1721677897455
 20
87.18148982889058
 30
0.0
 10
171.4053632560601
 20
86.66504289573244
 30
0.0
 10
171.5887421057113
 20
86.23554751354203
 30
0.0
 10
171.7317950547419
 20
85.8840562095546
 30
0.0
 10
171.8727165426512
 20
85.5187803357581
 30
0.0
 10
172.0167847838598
 20
85.12142640609949
 30
0.0
 10
172.1578022067178
 20
84.70273218231316
 30
0.0
 10
172.3044265537539
 20
84.22699549283797
 30
0.0
 10
172.4462252458941
 20
83.71132913204802
 30
0.0
 10
172.6098584420833
 20
83.01918742788666
 30
0.0
 10
172.761934057635
 20
82.18157172428161
 30
0.0
 10
172.8668758036942
 20
81.21889660567234
 30
0.0
 10
172.9002235698947
 20
80.2737657054914
 30
0.0
 10
172.8668758036941
 20
79.32863480531049
 30
0.0
 10
172.761934057635
 20
78.36595968670119
 30
0.0
 10
172.6098584420833
 20
77.52834398309614
 30
0.0
 10
172.446225245894
 20
76.83620227893478
 30
0.0
 10
172.304426553754
 20
76.32053591814486
 30
0.0
 10
172.1578022067178
 20
75.84479922866966
 30
0.0
 10
172.0167847838598
 20
75.4261050048834
 30
0.0
 10
171.8727165426512
 20
75.0287510752247
 30
0.0
 10
171.731795054742
 20
74.66347520142821
 30
0.0
 10
171.5887421057112
 20
74.31198389744081
 30
0.0
 10
171.4053632560602
 20
73.88248851525039
 30
0.0
 10
171.1721677897455
 20
73.36604158209227
 30
0.0
 10
170.9762916966882
 20
72.96748848445901
 30
0.0
 10
170.8783537830446
 20
72.76821220602631
 30
0.0
 11
170.8783537830446
 21
87.77931920495655
 31
0.0
 11
171.1688937759236
 21
87.17992951039349
 31
0.0
 11
171.4436305327772
 21
86.57313167268484
 31
0.0
 11
171.5877807912794
 21
86.23514519863448
 31
0.0
 11
171.7262689076435
 21
85.89479800117582
 31
0.0
 11
171.8714327087829
 21
85.51830160748243
 31
0.0
 11
172.0089072825098
 21
85.13892402270101
 31
0.0
 11
172.15590877629
 21
84.70212037627348
 31
0.0
 11
172.291545657376
 21
84.26165935199127
 31
0.0
 11
172.4428749062057
 21
83.71051026129875
 31
0.0
 11
172.5741840322422
 21
83.15414674312663
 31
0.0
 11
172.7503282858182
 21
82.17989083112374
 31
0.0
 11
172.8568224071085
 21
81.19553737463579
 31
0.0
 11
172.889373316887
 21
80.27376570549143
 31
0.0
 11
172.8568224071085
 21
79.35199403634704
 31
0.0
 11
172.7503282858182
 21
78.36764057985906
 31
0.0
 11
172.5741840322422
 21
77.39338466785618
 31
0.0
 11
172.4428749062057
 21
76.83702114968406
 31
0.0
 11
172.291545657376
 21
76.28587205899153
 31
0.0
 11
172.15590877629
 21
75.84541103470936
 31
0.0
 11
172.0089072825097
 21
75.40860738828185
 31
0.0
 11
171.8714327087829
 21
75.02922980350039
 31
0.0
 11
171.7262689076435
 21
74.652733409807
 31
0.0
 11
171.5877807912794
 21
74.31238621234833
 31
0.0
 11
171.4436305327772
 21
73.97439973829802
 31
0.0
 11
171.1688937759236
 21
73.36760190058936
 31
0.0
 11
170.8783537830446
 21
72.76821220602631
 31
0.0
  0
SPLINE
  5
E4
330
39
100
AcDbEntity
  8
1
  6
Continuous
 62
     7
100
AcDbSpline
210
0.0
220
0.0
230
1.0
 70
     8
 71
     3
 72
    33
 73
    29
 74
    27
 42
0.0000000001
 43
0.0000000001
 44
0.00000001
 40
0.0
 40
0.0
 40
0.0
 40
0.0
 40
0.4133569006800521
 40
0.8267148991712168
 40
1.047477429691522
 40
1.268240273686015
 40
1.504227369535093
 40
1.740225682305836
 40
2.001195139144764
 40
2.262139231592985
 40
2.573023665195204
 40
2.884147975817057
 40
3.395079514214109
 40
3.905704156215998
 40
4.367715781294277
 40
4.82972740637261
 40
5.340352048374506
 40
5.851283586771571
 40
6.162407897393397
 40
6.473292330995617
 40
6.734236423443861
 40
6.995205880282789
 40
7.231204193053548
 40
7.467191288902598
 40
7.687954132897022
 40
7.908716663417276
 40
8.322074661908397
 40
8.735431562588611
 40
8.735431562588611
 40
8.735431562588611
 40
8.735431562588611
 10
170.8783537830446
 20
95.28487270442162
 30
0.0
 10
170.9749702367639
 20
95.18662250271699
 30
0.0
 10
171.1682034008007
 20
94.9901218383706
 30
0.0
 10
171.4024803561319
 20
94.73106796975746
 30
0.0
 10
171.5875734339118
 20
94.51438516325814
 30
0.0
 10
171.7301953137637
 20
94.33925016594947
 30
0.0
 10
171.8713397159243
 20
94.15645347736165
 30
0.0
 10
172.0148481114329
 20
93.95867719406388
 30
0.0
 10
172.1561310008778
 20
93.74916114871571
 30
0.0
 10
172.301961804367
 20
93.51286273834401
 30
0.0
 10
172.4441839146075
 20
93.25499218649044
 30
0.0
 10
172.6060102102352
 20
92.91352640257433
 30
0.0
 10
172.7591742786682
 20
92.49531959640461
 30
0.0
 10
172.8664689380412
 20
92.01073542790314
 30
0.0
 10
172.8997847223254
 20
91.53209595468908
 30
0.0
 10
172.8664689380412
 20
91.05345648147504
 30
0.0
 10
172.7591742786681
 20
90.56887231297355
 30
0.0
 10
172.6060102102351
 20
90.15066550680385
 30
0.0
 10
172.4441839146075
 20
89.80919972288771
 30
0.0
 10
172.301961804367
 20
89.55132917103416
 30
0.0
 10
172.1561310008779
 20
89.31503076066241
 30
0.0
 10
172.0148481114329
 20
89.1055147153143
 30
0.0
 10
171.8713397159242
 20
88.90773843201649
 30
0.0
 10
171.7301953137638
 20
88.72494174342874
 30
0.0
 10
171.5875734339117
 20
88.54980674612006
 30
0.0
 10
171.402480356132
 20
88.33312393962075
 30
0.0
 10
171.1682034008006
 20
88.07407007100778
 30
0.0
 10
170.9749702367639
 20
87.87756940666128
 30
0.0
 10
170.8783537830446
 20
87.77931920495655
 30
0.0
 11
170.8783537830446
 21
95.28487270442162
 31
0.0
 11
171.1661202579592
 21
94.9881331161375
 31
0.0
 11
171.4436305327771
 21
94.6817789382859
 31
0.0
 11
171.586910577742
 21
94.51382976860479
 31
0.0
 11
171.7262689076434
 21
94.34261210253135
 31
0.0
 11
171.8703992535056
 21
94.15575292344474
 31
0.0
 11
172.0089072825097
 21
93.96467511329391
 31
0.0
 11
172.1546610164279
 21
93.74820131245022
 31
0.0
 11
172.291545657376
 21
93.52604277793908
 31
0.0
 11
172.4413113987867
 21
93.25361048588128
 31
0.0
 11
172.5741840322423
 21
92.97228647350674
 31
0.0
 11
172.7483215789862
 21
92.49194581132751
 31
0.0
 11
172.8568224071085
 21
91.99298178926145
 31
0.0
 11
172.8890557624726
 21
91.53209595468911
 31
0.0
 11
172.8568224071085
 21
91.07121012011672
 31
0.0
 11
172.7483215789862
 21
90.57224609805066
 31
0.0
 11
172.5741840322423
 21
90.09190543587141
 31
0.0
 11
172.4413113987867
 21
89.8105814234969
 31
0.0
 11
172.291545657376
 21
89.5381491314391
 31
0.0
 11
172.1546610164279
 21
89.31599059692793
 31
0.0
 11
172.0089072825097
 21
89.09951679608425
 31
0.0
 11
171.8703992535056
 21
88.90843898593342
 31
0.0
 11
171.7262689076434
 21
88.72157980684682
 31
0.0
 11
171.5869105777421
 21
88.55036214077342
 31
0.0
 11
171.4436305327772
 21
88.38241297109235
 31
0.0
 11
171.1661202579593
 21
88.07605879324083
 31
0.0
 11
170.8783537830446
 21
87.77931920495655
 31
0.0
  0
ARC
  5
E5
330
39
100
AcDbEntity
  8
1
  6
Continuous
 62
     7
100
AcDbCircle
 10
41.21887405557376
 20
229.1915908946957
 30
0.0
 40
5.000000000000071
100
AcDbArc
 50
0.0
 51
25.84193276316535
  0
ARC
  5
E6
330
39
100
AcDbEntity
  8
1
  6
Continuous
 62
     7
100
AcDbCircle
 10
76.21887405557382
 20
229.1915908946957
 30
0.0
 40
5.000000000000027
100
AcDbArc
 50
154.1580672368323
 51
180.0
  0
ARC
  5
E7
330
39
100
AcDbEntity
  8
1
  6
Continuous
 62
     7
100
AcDbCircle
 10
120.6394607819748
 20
95.77376570549143
 30
0.0
 40
5.0
100
AcDbArc
 50
-90.0
 51
0.0
  0
ARC
  5
E8
330
39
100
AcDbEntity
  8
1
  6
Continuous
 62
     7
100
AcDbCircle
 10
161.5572859711791
 20
62.77376570549143
 30
0.0
 40
4.999999999999981
100
AcDbArc
 50
44.99999999999885
 51
90.0
  0
ARC
  5
E9
330
39
100
AcDbEntity
  8
1
  6
Continuous
 62
     7
100
AcDbCircle
 10
161.5572859711791
 20
97.77376570549143
 30
0.0
 40
5.0
100
AcDbArc
 50
-90.0
 51
-45.00000000000023
  0
ARC
  5
EA
330
39
100
AcDbEntity
  8
1
  6
Continuous
 62
     7
100
AcDbCircle
 10
155.6394607819748
 20
97.77376570549143
 30
0.0
 40
5.0
100
AcDbArc
 50
180.0
 51
-90.0
  0
ENDBLK
  5
3B
330
39
100
AcDbEntity
  8
0
100
AcDbBlockEnd
  0
BLOCK
  5
3D
330
3C
100
AcDbEntity
  8
0
100
AcDbBlockBegin
  2
_J__A4
 70
     0
 71
     0
 10
0.0
 20
0.0
 30
0.0
  3
_J__A4
  1

  0
POINT
  5
EB
330
3C
100
AcDbEntity
  8
1
 62
     4
100
AcDbPoint
 10
34.0
 20
34.00000000000001
 30
0.0
  0
POINT
  5
EC
330
3C
100
AcDbEntity
  8
1
 62
     4
100
AcDbPoint
 10
57.0
 20
12.25
 30
0.0
  0
POINT
  5
ED
330
3C
100
AcDbEntity
  8
1
 62
     4
100
AcDbPoint
 10
57.0
 20
20.75000000000001
 30
0.0
  0
POINT
  5
EE
330
3C
100
AcDbEntity
  8
1
 62
     4
100
AcDbPoint
 10
57.0
 20
24.75000000000001
 30
0.0
  0
POINT
  5
EF
330
3C
100
AcDbEntity
  8
1
 62
     4
100
AcDbPoint
 10
57.0
 20
16.25
 30
0.0
  0
POINT
  5
F0
330
3C
100
AcDbEntity
  8
1
 62
     4
100
AcDbPoint
 10
157.5
 20
19.00000000000001
 30
0.0
  0
POINT
  5
F1
330
3C
100
AcDbEntity
  8
1
 62
     4
100
AcDbPoint
 10
47.5
 20
282.0000000000003
 30
0.0
  0
POINT
  5
F2
330
3C
100
AcDbEntity
  8
1
 62
     4
100
AcDbPoint
 10
57.0
 20
22.75000000000001
 30
0.0
  0
POINT
  5
F3
330
3C
100
AcDbEntity
  8
1
 62
     4
100
AcDbPoint
 10
57.0
 20
14.25
 30
0.0
  0
POINT
  5
F4
330
3C
100
AcDbEntity
  8
1
 62
     4
100
AcDbPoint
 10
157.5
 20
12.5
 30
0.0
  0
POINT
  5
F5
330
3C
100
AcDbEntity
  8
1
 62
     4
100
AcDbPoint
 10
163.25
 20
12.5
 30
0.0
  0
POINT
  5
F6
330
3C
100
AcDbEntity
  8
1
 62
     4
100
AcDbPoint
 10
151.75
 20
12.5
 30
0.0
  0
POINT
  5
F7
330
3C
100
AcDbEntity
  8
1
 62
     4
100
AcDbPoint
 10
134.75
 20
12.5
 30
0.0
  0
POINT
  5
F8
330
3C
100
AcDbEntity
  8
1
 62
     4
100
AcDbPoint
 10
146.25
 20
12.5
 30
0.0
  0
POINT
  5
F9
330
3C
100
AcDbEntity
  8
1
 62
     4
100
AcDbPoint
 10
140.5
 20
12.5
 30
0.0
  0
POINT
  5
FA
330
3C
100
AcDbEntity
  8
1
 62
     4
100
AcDbPoint
 10
140.5
 20
19.00000000000001
 30
0.0
  0
POINT
  5
FB
330
3C
100
AcDbEntity
  8
1
 62
     4
100
AcDbPoint
 10
117.75
 20
12.5
 30
0.0
  0
POINT
  5
FC
330
3C
100
AcDbEntity
  8
1
 62
     4
100
AcDbPoint
 10
129.25
 20
12.5
 30
0.0
  0
POINT
  5
FD
330
3C
100
AcDbEntity
  8
1
 62
     4
100
AcDbPoint
 10
123.5
 20
12.5
 30
0.0
  0
POINT
  5
FE
330
3C
100
AcDbEntity
  8
1
 62
     4
100
AcDbPoint
 10
123.5
 20
19.00000000000001
 30
0.0
  0
POINT
  5
FF
330
3C
100
AcDbEntity
  8
1
 62
     4
100
AcDbPoint
 10
100.75
 20
12.5
 30
0.0
  0
POINT
  5
100
330
3C
100
AcDbEntity
  8
1
 62
     4
100
AcDbPoint
 10
112.25
 20
12.5
 30
0.0
  0
POINT
  5
101
330
3C
100
AcDbEntity
  8
1
 62
     4
100
AcDbPoint
 10
106.5
 20
12.5
 30
0.0
  0
POINT
  5
102
330
3C
100
AcDbEntity
  8
1
 62
     4
100
AcDbPoint
 10
106.5
 20
19.00000000000001
 30
0.0
  0
POINT
  5
103
330
3C
100
AcDbEntity
  8
1
 62
     4
100
AcDbPoint
 10
85.25
 20
17.0
 30
0.0
  0
POINT
  5
104
330
3C
100
AcDbEntity
  8
1
 62
     4
100
AcDbPoint
 10
93.75
 20
17.0
 30
0.0
  0
LINE
  5
105
330
3C
100
AcDbEntity
  8
1
  6
Continuous
 62
     2
100
AcDbLine
 10
81.0
 20
27.00000000000001
 30
0.0
 11
81.0
 21
10.0
 31
0.0
  0
LINE
  5
106
330
3C
100
AcDbEntity
  8
1
  6
DOT_CENTER
 62
     2
100
AcDbLine
 10
187.0
 20
26.50000000000001
 30
0.0
 11
187.0
 21
20.50000000000001
 31
0.0
  0
LINE
  5
107
330
3C
100
AcDbEntity
  8
1
  6
DOT_CENTER
 62
     2
100
AcDbLine
 10
184.0
 20
23.50000000000001
 30
0.0
 11
197.0
 21
23.50000000000001
 31
0.0
  0
LINE
  5
108
330
3C
100
AcDbEntity
  8
1
  6
Continuous
 62
     7
100
AcDbLine
 10
196.0
 20
21.50000000000001
 30
0.0
 11
191.0
 21
22.30000000000001
 31
0.0
  0
LINE
  5
109
330
3C
100
AcDbEntity
  8
1
  6
Continuous
 62
     7
100
AcDbLine
 10
196.0
 20
25.50000000000001
 30
0.0
 11
196.0
 21
21.50000000000001
 31
0.0
  0
LINE
  5
10A
330
3C
100
AcDbEntity
  8
1
  6
Continuous
 62
     7
100
AcDbLine
 10
191.0
 20
24.70000000000001
 30
0.0
 11
196.0
 21
25.50000000000001
 31
0.0
  0
LINE
  5
10B
330
3C
100
AcDbEntity
  8
1
  6
Continuous
 62
     7
100
AcDbLine
 10
191.0
 20
24.70000000000001
 30
0.0
 11
191.0
 21
22.30000000000001
 31
0.0
  0
LINE
  5
10C
330
3C
100
AcDbEntity
  8
1
  6
Continuous
 62
     2
100
AcDbLine
 10
33.0
 20
27.0
 30
0.0
 11
33.0
 21
10.0
 31
0.0
  0
LINE
  5
10D
330
3C
100
AcDbEntity
  8
1
  6
Continuous
 62
     2
100
AcDbLine
 10
25.0
 20
18.50000000000001
 30
0.0
 11
81.0
 21
18.50000000000001
 31
0.0
  0
LINE
  5
10E
330
3C
100
AcDbEntity
  8
1
  6
Continuous
 62
     7
100
AcDbLine
 10
200.0
 20
287.0000000000003
 30
0.0
 11
105.0
 21
287.0000000000003
 31
0.0
  0
LINE
  5
10F
330
3C
100
AcDbEntity
  8
1
  6
Continuous
 62
     7
100
AcDbLine
 10
200.0
 20
10.0
 30
0.0
 11
200.0
 21
148.5
 31
0.0
  0
LINE
  5
110
330
3C
100
AcDbEntity
  8
1
  6
Continuous
 62
     7
100
AcDbLine
 10
25.0
 20
10.0
 30
0.0
 11
105.0
 21
10.0
 31
0.0
  0
LINE
  5
111
330
3C
100
AcDbEntity
  8
1
  6
PHANTOM
 62
     4
100
AcDbLine
 10
0.0
 20
297.0
 30
0.0
 11
0.0
 21
0.0
 31
0.0
  0
LINE
  5
112
330
3C
100
AcDbEntity
  8
1
  6
PHANTOM
 62
     4
100
AcDbLine
 10
210.0
 20
297.0
 30
0.0
 11
0.0
 21
297.0
 31
0.0
  0
LINE
  5
113
330
3C
100
AcDbEntity
  8
1
  6
PHANTOM
 62
     4
100
AcDbLine
 10
210.0
 20
0.0
 30
0.0
 11
210.0
 21
297.0
 31
0.0
  0
LINE
  5
114
330
3C
100
AcDbEntity
  8
1
  6
PHANTOM
 62
     4
100
AcDbLine
 10
0.0
 20
0.0
 30
0.0
 11
210.0
 21
0.0
 31
0.0
  0
LINE
  5
115
330
3C
100
AcDbEntity
  8
1
  6
Continuous
 62
     7
100
AcDbLine
 10
25.0
 20
41.0
 30
0.0
 11
200.0
 21
41.0
 31
0.0
  0
LINE
  5
116
330
3C
100
AcDbEntity
  8
1
  6
Continuous
 62
     7
100
AcDbLine
 10
200.0
 20
27.00000000000001
 30
0.0
 11
25.0
 21
27.00000000000001
 31
0.0
  0
LINE
  5
117
330
3C
100
AcDbEntity
  8
1
  6
Continuous
 62
     2
100
AcDbLine
 10
33.0
 20
41.00000000000001
 30
0.0
 11
33.0
 21
27.0
 31
0.0
  0
LINE
  5
118
330
3C
100
AcDbEntity
  8
1
  6
Continuous
 62
     2
100
AcDbLine
 10
55.0
 20
287.0000000000003
 30
0.0
 11
55.0
 21
277.0000000000003
 31
0.0
  0
LINE
  5
119
330
3C
100
AcDbEntity
  8
1
  6
Continuous
 62
     2
100
AcDbLine
 10
40.0
 20
287.0000000000003
 30
0.0
 11
40.0
 21
277.0000000000003
 31
0.0
  0
LINE
  5
11A
330
3C
100
AcDbEntity
  8
1
  6
Continuous
 62
     7
100
AcDbLine
 10
25.0
 20
10.0
 30
0.0
 11
25.0
 21
148.5
 31
0.0
  0
LINE
  5
11B
330
3C
100
AcDbEntity
  8
1
  6
Continuous
 62
     2
100
AcDbLine
 10
55.0
 20
277.0000000000003
 30
0.0
 11
25.0
 21
277.0000000000003
 31
0.0
  0
LINE
  5
11C
330
3C
100
AcDbEntity
  8
1
  6
Continuous
 62
     2
100
AcDbLine
 10
166.0
 20
27.00000000000001
 30
0.0
 11
166.0
 21
10.0
 31
0.0
  0
LINE
  5
11D
330
3C
100
AcDbEntity
  8
1
  6
Continuous
 62
     2
100
AcDbLine
 10
132.0
 20
27.00000000000001
 30
0.0
 11
132.0
 21
9.99999999999999
 31
0.0
  0
LINE
  5
11E
330
3C
100
AcDbEntity
  8
1
  6
Continuous
 62
     2
100
AcDbLine
 10
149.0
 20
27.00000000000001
 30
0.0
 11
149.0
 21
10.0
 31
0.0
  0
LINE
  5
11F
330
3C
100
AcDbEntity
  8
1
  6
Continuous
 62
     2
100
AcDbLine
 10
115.0
 20
27.00000000000001
 30
0.0
 11
115.0
 21
9.99999999999999
 31
0.0
  0
LINE
  5
120
330
3C
100
AcDbEntity
  8
1
  6
Continuous
 62
     2
100
AcDbLine
 10
98.0
 20
27.00000000000001
 30
0.0
 11
98.0
 21
9.99999999999999
 31
0.0
  0
LINE
  5
121
330
3C
100
AcDbEntity
  8
1
  6
Continuous
 62
     2
100
AcDbLine
 10
166.0
 20
20.00000000000001
 30
0.0
 11
200.0
 21
20.00000000000001
 31
0.0
  0
LINE
  5
122
330
3C
100
AcDbEntity
  8
1
  6
Continuous
 62
     2
100
AcDbLine
 10
105.0
 20
287.0000000000003
 30
0.0
 11
105.0
 21
292.0000000000003
 31
0.0
  0
LINE
  5
123
330
3C
100
AcDbEntity
  8
1
  6
Continuous
 62
     7
100
AcDbLine
 10
105.0
 20
287.0000000000003
 30
0.0
 11
25.0
 21
287.0000000000003
 31
0.0
  0
LINE
  5
124
330
3C
100
AcDbEntity
  8
1
  6
Continuous
 62
     2
100
AcDbLine
 10
25.0
 20
148.5
 30
0.0
 11
20.0
 21
148.5
 31
0.0
  0
LINE
  5
125
330
3C
100
AcDbEntity
  8
1
  6
Continuous
 62
     7
100
AcDbLine
 10
25.0
 20
148.5
 30
0.0
 11
25.0
 21
287.0000000000003
 31
0.0
  0
LINE
  5
126
330
3C
100
AcDbEntity
  8
1
  6
Continuous
 62
     2
100
AcDbLine
 10
200.0
 20
148.5
 30
0.0
 11
205.0
 21
148.5
 31
0.0
  0
LINE
  5
127
330
3C
100
AcDbEntity
  8
1
  6
Continuous
 62
     7
100
AcDbLine
 10
200.0
 20
148.5
 30
0.0
 11
200.0
 21
287.0000000000003
 31
0.0
  0
LINE
  5
128
330
3C
100
AcDbEntity
  8
1
  6
Continuous
 62
     2
100
AcDbLine
 10
105.0
 20
10.0
 30
0.0
 11
105.0
 21
5.0
 31
0.0
  0
LINE
  5
129
330
3C
100
AcDbEntity
  8
1
  6
Continuous
 62
     7
100
AcDbLine
 10
105.0
 20
10.0
 30
0.0
 11
200.0
 21
10.0
 31
0.0
  0
CIRCLE
  5
12A
330
3C
100
AcDbEntity
  8
1
  6
DOT_CENTER
 62
     7
100
AcDbCircle
 10
89.5
 20
18.0
 30
0.0
 40
0.1000000000000227
  0
CIRCLE
  5
12B
330
3C
100
AcDbEntity
  8
1
  6
DOT_CENTER
 62
     7
100
AcDbCircle
 10
89.5
 20
16.0
 30
0.0
 40
0.1000000000000227
  0
CIRCLE
  5
12C
330
3C
100
AcDbEntity
  8
1
  6
Continuous
 62
     7
100
AcDbCircle
 10
187.0
 20
23.50000000000001
 30
0.0
 40
2.0
  0
CIRCLE
  5
12D
330
3C
100
AcDbEntity
  8
1
  6
Continuous
 62
     7
100
AcDbCircle
 10
187.0
 20
23.50000000000001
 30
0.0
 40
1.200000000000102
  0
CIRCLE
  5
12E
330
3C
100
AcDbEntity
  8
1
  6
Continuous
 62
     7
100
AcDbCircle
 10
154.5
 20
12.5
 30
0.0
 40
0.3000000000000114
  0
CIRCLE
  5
12F
330
3C
100
AcDbEntity
  8
1
  6
Continuous
 62
     7
100
AcDbCircle
 10
160.5
 20
12.5
 30
0.0
 40
0.3000000000000114
  0
CIRCLE
  5
130
330
3C
100
AcDbEntity
  8
1
  6
Continuous
 62
     7
100
AcDbCircle
 10
143.5
 20
12.5
 30
0.0
 40
0.3000000000000114
  0
CIRCLE
  5
131
330
3C
100
AcDbEntity
  8
1
  6
Continuous
 62
     7
100
AcDbCircle
 10
137.5
 20
12.5
 30
0.0
 40
0.3000000000000114
  0
CIRCLE
  5
132
330
3C
100
AcDbEntity
  8
1
  6
Continuous
 62
     7
100
AcDbCircle
 10
126.5
 20
12.5
 30
0.0
 40
0.2999999999999972
  0
CIRCLE
  5
133
330
3C
100
AcDbEntity
  8
1
  6
Continuous
 62
     7
100
AcDbCircle
 10
120.5
 20
12.5
 30
0.0
 40
0.2999999999999972
  0
CIRCLE
  5
134
330
3C
100
AcDbEntity
  8
1
  6
Continuous
 62
     7
100
AcDbCircle
 10
109.5
 20
12.5
 30
0.0
 40
0.2999999999999972
  0
CIRCLE
  5
135
330
3C
100
AcDbEntity
  8
1
  6
Continuous
 62
     7
100
AcDbCircle
 10
103.5
 20
12.5
 30
0.0
 40
0.2999999999999972
  0
MTEXT
  5
137
330
3C
100
AcDbEntity
  8
1
 62
   250
100
AcDbMText
 10
25.0
 20
5.0
 30
0.0
 40
3.5
 41
0.0
 71
     4
 72
     1
  1
備考欄の文字列 原点位置=4
  7
CONVERTER_1
 73
     1
 44
0.7202881152461
  0
MTEXT
  5
138
330
3C
100
AcDbEntity
  8
1
 62
     2
100
AcDbMText
 10
89.5
 20
24.00000000000001
 30
0.0
 40
3.5
 41
0.0
 71
     5
 72
     1
  1
尺度
  7
CONVERTER_1
 73
     1
 44
0.7202881152461
  0
MTEXT
  5
139
330
3C
100
AcDbEntity
  8
1
 62
     2
100
AcDbMText
 10
135.5
 20
25.00000000000001
 30
0.0
 40
3.0
 41
0.0
 71
     5
 72
     1
  1
製図
  7
CONVERTER_1
 73
     1
 44
0.78031212484994
  0
MTEXT
  5
13A
330
3C
100
AcDbEntity
  8
1
 62
     2
100
AcDbMText
 10
152.5
 20
25.00000000000001
 30
0.0
 40
3.0
 41
0.0
 71
     5
 72
     1
  1
設計
  7
CONVERTER_1
 73
     1
 44
0.78031212484994
  0
MTEXT
  5
13B
330
3C
100
AcDbEntity
  8
1
 62
     2
100
AcDbMText
 10
118.5
 20
25.00000000000001
 30
0.0
 40
3.0
 41
0.0
 71
     5
 72
     1
  1
検図
  7
CONVERTER_1
 73
     1
 44
0.78031212484994
  0
MTEXT
  5
13C
330
3C
100
AcDbEntity
  8
1
 62
     2
100
AcDbMText
 10
175.0
 20
23.50000000000001
 30
0.0
 40
3.5
 41
0.0
 71
     5
 72
     1
  1
第三角法
  7
CONVERTER_1
 73
     1
 44
0.7202881152461
  0
MTEXT
  5
13D
330
3C
100
AcDbEntity
  8
1
 62
     2
100
AcDbMText
 10
101.5
 20
25.00000000000001
 30
0.0
 40
3.0
 41
0.0
 71
     5
 72
     1
  1
承認
  7
CONVERTER_1
 73
     1
 44
0.78031212484994
  0
MTEXT
  5
13E
330
3C
100
AcDbEntity
  8
1
 62
     2
100
AcDbMText
 10
29.0
 20
14.25
 30
0.0
 40
3.5
 41
0.0
 71
     5
 72
     1
  1
品番
  7
CONVERTER_1
 73
     1
 44
0.96038415366146
  0
MTEXT
  5
13F
330
3C
100
AcDbEntity
  8
1
 62
     2
100
AcDbMText
 10
29.0
 20
22.75
 30
0.0
 40
3.5
 41
0.0
 71
     5
 72
     1
  1
品名
  7
CONVERTER_1
 73
     1
 44
0.96038415366146
  0
MTEXT
  5
140
330
3C
100
AcDbEntity
  8
1
 62
     2
100
AcDbMText
 10
29.0
 20
34.00000000000001
 30
0.0
 40
3.5
 41
0.0
 71
     5
 72
     1
  1
備考
  7
CONVERTER_1
 73
     1
 44
0.60024009603842
  0
MTEXT
  5
141
330
3C
100
AcDbEntity
  8
1
 62
     2
100
AcDbMText
 10
32.5
 20
282.0000000000003
 30
0.0
 40
5.0
 41
0.0
 71
     5
 72
     1
  1
図番
  7
CONVERTER_1
 73
     1
 44
0.60024009603842
  0
MTEXT
  5
142
330
3C
100
AcDbEntity
  8
1
 62
     7
100
AcDbMText
 10
171.5
 20
15.0
 30
0.0
 40
2.5
 41
0.0
 71
     5
 72
     1
  1
株式会社
  7
CONVERTER_1
 73
     1
 44
1.32052821128451
  0
MTEXT
  5
143
330
3C
100
AcDbEntity
  8
1
 62
     7
100
AcDbMText
 10
188.5
 20
15.0
 30
0.0
 40
3.0
 41
0.0
 71
     5
 72
     1
  1
三栄水栓製作所
  7
CONVERTER_1
 73
     1
 44
1.32052821128451
  0
ENDBLK
  5
3E
330
3C
100
AcDbEntity
  8
0
100
AcDbBlockEnd
  0
BLOCK
  5
40
330
3F
100
AcDbEntity
  8
0
100
AcDbBlockBegin
  2
51-1
 70
     0
 71
     0
 10
298.1788495253879
 20
22.6170207437931
 30
0.0
  3
51-1
  1

  0
LINE
  5
144
330
3F
100
AcDbEntity
  8
1
  6
Continuous
 62
     7
100
AcDbLine
 10
84.61214983730412
 20
214.0311250183721
 30
0.0
 11
74.63631435234173
 21
204.0552895334099
 31
0.0
  0
LINE
  5
145
330
3F
100
AcDbEntity
  8
1
  6
Continuous
 62
     7
100
AcDbLine
 10
64.51442901330822
 20
179.2208514348763
 30
0.0
 11
68.16583822477874
 21
192.8480961313092
 31
0.0
  0
LINE
  5
146
330
3F
100
AcDbEntity
  8
1
  6
Continuous
 62
     7
100
AcDbLine
 10
52.92331909783952
 20
179.2208514348763
 30
0.0
 11
49.27190988636892
 21
192.8480961313092
 31
0.0
  0
LINE
  5
147
330
3F
100
AcDbEntity
  8
1
  6
Continuous
 62
     7
100
AcDbLine
 10
32.82559827384354
 20
214.0311250183721
 30
0.0
 11
42.80143375880602
 21
204.0552895334099
 31
0.0
  0
LINE
  5
148
330
3F
100
AcDbEntity
  8
1
  6
Continuous
 62
     7
100
AcDbLine
 10
38.62115323157793
 20
224.0693206632259
 30
0.0
 11
52.24839792801081
 21
220.4179114517553
 31
0.0
  0
LINE
  5
149
330
3F
100
AcDbEntity
  8
1
  6
Continuous
 62
     7
100
AcDbLine
 10
79.57709978219023
 20
224.2730973377229
 30
0.0
 11
65.18935018313694
 21
220.4179114517553
 31
0.0
  0
LINE
  5
14A
330
3F
100
AcDbEntity
  8
1
  6
Continuous
 62
     7
100
AcDbLine
 10
107.6714190502069
 20
126.0588454608421
 30
0.0
 11
107.2195109512145
 21
122.8433522559713
 31
0.0
  0
LINE
  5
14B
330
3F
100
AcDbEntity
  8
1
  6
Continuous
 62
     7
100
AcDbLine
 10
156.0642350699006
 20
122.2737657054914
 30
0.0
 11
107.7146449855853
 21
122.2737657054914
 31
0.0
  0
LINE
  5
14C
330
3F
100
AcDbEntity
  8
1
  6
Continuous
 62
     7
100
AcDbLine
 10
155.942146636326
 20
127.2328423112351
 30
0.0
 11
156.5593641303337
 21
122.843387638204
 31
0.0
  0
LINE
  5
14D
330
3F
100
AcDbEntity
  8
1
  6
Continuous
 62
     7
100
AcDbLine
 10
125.2137912077925
 20
124.21198049192
 30
0.0
 11
125.2137912077925
 21
130.5389915847965
 31
0.0
  0
LINE
  5
14E
330
3F
100
AcDbEntity
  8
1
  6
Continuous
 62
     7
100
AcDbLine
 10
136.4209846098932
 20
124.5509275147526
 30
0.0
 11
136.4209846098932
 21
130.8779386076292
 31
0.0
  0
LINE
  5
14F
330
3F
100
AcDbEntity
  8
1
  6
Continuous
 62
     7
100
AcDbLine
 10
86.36464318455566
 20
122.8433522559714
 30
0.0
 11
85.91273508556336
 21
126.0588454608421
 31
0.0
  0
LINE
  5
150
330
3F
100
AcDbEntity
  8
1
  6
Continuous
 62
     7
100
AcDbLine
 10
86.36464318455566
 20
122.8433522559714
 30
0.0
 11
85.91273508556336
 21
126.0588454608421
 31
0.0
  0
LINE
  5
151
330
3F
100
AcDbEntity
  8
1
  6
Continuous
 62
     7
100
AcDbLine
 10
31.56823896096291
 20
122.2737657054914
 30
0.0
 11
85.86950915018505
 21
122.2737657054914
 31
0.0
  0
LINE
  5
152
330
3F
100
AcDbEntity
  8
1
  6
Continuous
 62
     7
100
AcDbLine
 10
31.52501302558461
 20
126.0588454608421
 30
0.0
 11
31.07310492659211
 21
122.8433522559714
 31
0.0
  0
LINE
  5
153
330
3F
100
AcDbEntity
  8
1
  6
Continuous
 62
     7
100
AcDbLine
 10
52.92331909783941
 20
125.9012233816365
 30
0.0
 11
51.9513447429383
 21
122.2737657054914
 31
0.0
  0
LINE
  5
154
330
3F
100
AcDbEntity
  8
1
  6
Continuous
 62
     7
100
AcDbLine
 10
64.51442901330812
 20
125.9012233816365
 30
0.0
 11
65.48640336820932
 21
122.2737657054914
 31
0.0
  0
ARC
  5
155
330
3F
100
AcDbEntity
  8
1
  6
Continuous
 62
     7
100
AcDbCircle
 10
80.36950915018471
 20
218.2737657054914
 30
0.0
 40
6.000000000000089
100
AcDbArc
 50
-44.99999999999924
 51
97.52424107894036
  0
ARC
  5
156
330
3F
100
AcDbEntity
  8
1
  6
Continuous
 62
     7
100
AcDbCircle
 10
37.06823896096282
 20
218.2737657054914
 30
0.0
 40
6.000000000000092
100
AcDbArc
 50
75.00000000000044
 51
-134.9999999999999
  0
ARC
  5
157
330
3F
100
AcDbEntity
  8
1
  6
Continuous
 62
     7
100
AcDbCircle
 10
58.71887405557391
 20
180.7737657054914
 30
0.0
 40
5.999999999999981
100
AcDbArc
 50
-165.0000000000001
 51
-90.0
  0
ARC
  5
158
330
3F
100
AcDbEntity
  8
1
  6
Continuous
 62
     7
100
AcDbCircle
 10
58.71887405557391
 20
180.7737657054914
 30
0.0
 40
6.0
100
AcDbArc
 50
-90.0
 51
-15.00000000000008
  0
ARC
  5
159
330
3F
100
AcDbEntity
  8
1
  6
Continuous
 62
     7
100
AcDbCircle
 10
138.1394607819749
 20
-16.72623429450861
 30
0.0
 40
150.0533238552216
100
AcDbArc
 50
91.52752544221296
 51
99.8029017937678
  0
ARC
  5
15A
330
3F
100
AcDbEntity
  8
1
  6
Continuous
 62
     7
100
AcDbCircle
 10
138.5036564472215
 20
58.36194469679227
 30
0.0
 40
75.0
100
AcDbArc
 50
80.40850751733488
 51
87.22136103403736
  0
ARC
  5
15B
330
3F
100
AcDbEntity
  8
1
  6
Continuous
 62
     7
100
AcDbCircle
 10
57.08178370468482
 20
5.90361316516705
 30
0.0
 40
127.4948334081409
100
AcDbArc
 50
79.19050675364787
 51
87.46588310520275
  0
ARC
  5
15C
330
3F
100
AcDbEntity
  8
1
  6
Continuous
 62
     7
100
AcDbCircle
 10
60.3559644064631
 20
5.90361316516705
 30
0.0
 40
127.4948334081408
100
AcDbArc
 50
92.53411689479739
 51
100.8094932463522
  0
ARC
  5
15D
330
3F
100
AcDbEntity
  8
1
  6
Continuous
 62
     7
100
AcDbCircle
 10
58.71887405557381
 20
124.3483091110214
 30
0.0
 40
6.0
100
AcDbArc
 50
90.0
 51
165.0000000000001
  0
ARC
  5
15E
330
3F
100
AcDbEntity
  8
1
  6
Continuous
 62
     7
100
AcDbCircle
 10
58.71887405557381
 20
124.3483091110214
 30
0.0
 40
5.999999999999899
100
AcDbArc
 50
15.00000000000006
 51
90.0
  0
ARC
  5
15F
330
3F
100
AcDbEntity
  8
1
  6
Continuous
 62
     7
100
AcDbCircle
 10
92.31398388200543
 20
186.3776200037461
 30
0.0
 40
25.00000000000009
100
AcDbArc
 50
134.9999999999999
 51
164.9999999999998
  0
ARC
  5
160
330
3F
100
AcDbEntity
  8
1
  6
Continuous
 62
     7
100
AcDbCircle
 10
25.12376422914214
 20
186.3776200037461
 30
0.0
 40
25.00000000000009
100
AcDbArc
 50
15.00000000000015
 51
44.99999999999987
  0
ARC
  5
161
330
3F
100
AcDbEntity
  8
1
  6
Continuous
 62
     7
100
AcDbCircle
 10
58.71887405557391
 20
244.5660571089821
 30
0.0
 40
25.00000000000013
100
AcDbArc
 50
-105.0000000000001
 51
-75.00000000000006
  0
ARC
  5
162
330
3F
100
AcDbEntity
  8
1
  6
Continuous
 62
     7
100
AcDbCircle
 10
113.6130274626563
 20
125.2238068550817
 30
0.0
 40
6.000000000000105
100
AcDbArc
 50
99.8029017937678
 51
172.0
  0
ARC
  5
163
330
3F
100
AcDbEntity
  8
1
  6
Continuous
 62
     7
100
AcDbCircle
 10
107.7146449855852
 20
122.7737657054914
 30
0.0
 40
0.49999999999989
100
AcDbArc
 50
172.0000000000139
 51
-89.9999999999886
  0
ARC
  5
164
330
3F
100
AcDbEntity
  8
1
  6
Continuous
 62
     7
100
AcDbCircle
 10
150.0005979111288
 20
126.3973791186836
 30
0.0
 40
6.000000000000048
100
AcDbArc
 50
8.00409437170189
 51
80.40850751733474
  0
ARC
  5
165
330
3F
100
AcDbEntity
  8
1
  6
Continuous
 62
     7
100
AcDbCircle
 10
156.0642350699006
 20
122.7737657054914
 30
0.0
 40
0.5
100
AcDbArc
 50
-90.0
 51
8.00409437169984
  0
ARC
  5
166
330
3F
100
AcDbEntity
  8
1
  6
Continuous
 62
     7
100
AcDbCircle
 10
79.97112667311396
 20
125.2238068550817
 30
0.0
 40
5.999999999999976
100
AcDbArc
 50
7.99999999999999
 51
80.19709820623302
  0
ARC
  5
167
330
3F
100
AcDbEntity
  8
1
  6
Continuous
 62
     7
100
AcDbCircle
 10
85.86950915018461
 20
122.7737657054914
 30
0.0
 40
0.5
100
AcDbArc
 50
-89.99999999994952
 51
7.99999999999173
  0
ARC
  5
168
330
3F
100
AcDbEntity
  8
1
  6
Continuous
 62
     7
100
AcDbCircle
 10
37.466621438034
 20
125.2238068550817
 30
0.0
 40
6.000000000000036
100
AcDbArc
 50
99.8029017937688
 51
172.0
  0
ARC
  5
169
330
3F
100
AcDbEntity
  8
1
  6
Continuous
 62
     7
100
AcDbCircle
 10
31.56823896096291
 20
122.7737657054914
 30
0.0
 40
0.5000000000000094
100
AcDbArc
 50
172.0000000000043
 51
-90.0
  0
ENDBLK
  5
41
330
3F
100
AcDbEntity
  8
0
100
AcDbBlockEnd
  0
BLOCK
  5
43
330
42
100
AcDbEntity
  8
0
100
AcDbBlockBegin
  2
42-15
 70
     0
 71
     0
 10
248.4448996192431
 20
85.25119672651329
 30
0.0
  3
42-15
  1

  0
LINE
  5
16A
330
42
100
AcDbEntity
  8
1
  6
Continuous
 62
     7
100
AcDbLine
 10
131.1394607819748
 20
133.2737657054914
 30
0.0
 11
131.1394607819748
 21
136.0737657054914
 31
0.0
  0
LINE
  5
16B
330
42
100
AcDbEntity
  8
1
  6
Continuous
 62
     2
100
AcDbLine
 10
131.6394607819748
 20
136.0737657054914
 30
0.0
 11
131.6394607819748
 21
133.2737657054914
 31
0.0
  0
LINE
  5
16C
330
42
100
AcDbEntity
  8
1
  6
Continuous
 62
     2
100
AcDbLine
 10
132.1394607819748
 20
136.0737657054914
 30
0.0
 11
132.1394607819748
 21
133.2737657054914
 31
0.0
  0
LINE
  5
16D
330
42
100
AcDbEntity
  8
1
  6
Continuous
 62
     2
100
AcDbLine
 10
132.6394607819748
 20
136.0737657054914
 30
0.0
 11
132.6394607819748
 21
133.2737657054914
 31
0.0
  0
LINE
  5
16E
330
42
100
AcDbEntity
  8
1
  6
Continuous
 62
     2
100
AcDbLine
 10
133.1394607819748
 20
136.0737657054914
 30
0.0
 11
133.1394607819748
 21
133.2737657054914
 31
0.0
  0
LINE
  5
16F
330
42
100
AcDbEntity
  8
1
  6
Continuous
 62
     2
100
AcDbLine
 10
133.6394607819748
 20
135.9293534704691
 30
0.0
 11
133.6394607819748
 21
133.3793530316788
 31
0.0
  0
LINE
  5
170
330
42
100
AcDbEntity
  8
1
  6
Continuous
 62
     2
100
AcDbLine
 10
134.1394607819748
 20
135.883839297039
 30
0.0
 11
134.1394607819748
 21
133.4398140179429
 31
0.0
  0
LINE
  5
171
330
42
100
AcDbEntity
  8
1
  6
Continuous
 62
     2
100
AcDbLine
 10
134.6394607819748
 20
135.7979840227562
 30
0.0
 11
134.6394607819748
 21
133.5282384057534
 31
0.0
  0
LINE
  5
172
330
42
100
AcDbEntity
  8
1
  6
Continuous
 62
     2
100
AcDbLine
 10
135.1394607819748
 20
135.7702921991638
 30
0.0
 11
135.1394607819748
 21
133.6344661857291
 31
0.0
  0
LINE
  5
173
330
42
100
AcDbEntity
  8
1
  6
Continuous
 62
     7
100
AcDbLine
 10
145.1394607819747
 20
133.2737657054914
 30
0.0
 11
131.1394607819748
 21
133.2737657054914
 31
0.0
  0
LINE
  5
174
330
42
100
AcDbEntity
  8
1
  6
Continuous
 62
     2
100
AcDbLine
 10
143.1394607819747
 20
133.2737657054914
 30
0.0
 11
143.1394607819747
 21
136.0737657054914
 31
0.0
  0
LINE
  5
175
330
42
100
AcDbEntity
  8
1
  6
Continuous
 62
     2
100
AcDbLine
 10
142.6394607819747
 20
133.3793530316788
 30
0.0
 11
142.6394607819747
 21
135.9293534704691
 31
0.0
  0
LINE
  5
176
330
42
100
AcDbEntity
  8
1
  6
Continuous
 62
     2
100
AcDbLine
 10
142.1394607819747
 20
133.4398140179429
 30
0.0
 11
142.1394607819747
 21
135.883839297039
 31
0.0
  0
LINE
  5
177
330
42
100
AcDbEntity
  8
1
  6
Continuous
 62
     2
100
AcDbLine
 10
141.6394607819747
 20
133.5282384057534
 30
0.0
 11
141.6394607819747
 21
135.7979840227562
 31
0.0
  0
LINE
  5
178
330
42
100
AcDbEntity
  8
1
  6
Continuous
 62
     2
100
AcDbLine
 10
141.1394607819747
 20
133.6344661857291
 30
0.0
 11
141.1394607819747
 21
135.7702921991638
 31
0.0
  0
LINE
  5
179
330
42
100
AcDbEntity
  8
1
  6
Continuous
 62
     2
100
AcDbLine
 10
139.6394607819747
 20
134.2113595338606
 30
0.0
 11
139.6394607819747
 21
135.3600858637132
 31
0.0
  0
LINE
  5
17A
330
42
100
AcDbEntity
  8
1
  6
Continuous
 62
     2
100
AcDbLine
 10
140.6394607819747
 20
133.8873148961687
 30
0.0
 11
140.6394607819747
 21
135.6053088327773
 31
0.0
  0
LINE
  5
17B
330
42
100
AcDbEntity
  8
1
  6
Continuous
 62
     2
100
AcDbLine
 10
140.1394607819747
 20
133.9913284933372
 30
0.0
 11
140.1394607819747
 21
135.5594190173953
 31
0.0
  0
LINE
  5
17C
330
42
100
AcDbEntity
  8
1
  6
Continuous
 62
     2
100
AcDbLine
 10
139.1394607819747
 20
134.2508647170521
 30
0.0
 11
139.1394607819747
 21
135.3161038076626
 31
0.0
  0
LINE
  5
17D
330
42
100
AcDbEntity
  8
1
  6
Continuous
 62
     7
100
AcDbLine
 10
133.1394607819748
 20
136.0737657054914
 30
0.0
 11
143.1394607819747
 21
136.0737657054914
 31
0.0
  0
LINE
  5
17E
330
42
100
AcDbEntity
  8
1
  6
Continuous
 62
     2
100
AcDbLine
 10
136.6394607819748
 20
135.3600858637132
 30
0.0
 11
136.6394607819748
 21
134.2113595338606
 31
0.0
  0
LINE
  5
17F
330
42
100
AcDbEntity
  8
1
  6
Continuous
 62
     2
100
AcDbLine
 10
135.6394607819748
 20
135.6053088327773
 30
0.0
 11
135.6394607819748
 21
133.8873148961687
 31
0.0
  0
LINE
  5
180
330
42
100
AcDbEntity
  8
1
  6
Continuous
 62
     7
100
AcDbLine
 10
132.6394607819748
 20
136.0737657054914
 30
0.0
 11
133.1394607819748
 21
136.0737657054914
 31
0.0
  0
LINE
  5
181
330
42
100
AcDbEntity
  8
1
  6
Continuous
 62
     7
100
AcDbLine
 10
131.6394607819748
 20
136.0737657054914
 30
0.0
 11
132.1394607819748
 21
136.0737657054914
 31
0.0
  0
LINE
  5
182
330
42
100
AcDbEntity
  8
1
  6
Continuous
 62
     7
100
AcDbLine
 10
131.1394607819748
 20
136.0737657054914
 30
0.0
 11
132.1394607819747
 21
136.3430879045145
 31
0.0
  0
LINE
  5
183
330
42
100
AcDbEntity
  8
1
  6
Continuous
 62
     7
100
AcDbLine
 10
131.1394607819748
 20
136.0737657054914
 30
0.0
 11
131.6394607819748
 21
136.0737657054914
 31
0.0
  0
LINE
  5
184
330
42
100
AcDbEntity
  8
1
  6
Continuous
 62
     7
100
AcDbLine
 10
132.1394607819748
 20
136.0737657054914
 30
0.0
 11
132.6394607819748
 21
136.0737657054914
 31
0.0
  0
LINE
  5
185
330
42
100
AcDbEntity
  8
1
  6
Continuous
 62
     2
100
AcDbLine
 10
136.1394607819748
 20
135.5594190173953
 30
0.0
 11
136.1394607819748
 21
133.9913284933372
 31
0.0
  0
LINE
  5
186
330
42
100
AcDbEntity
  8
1
  6
Continuous
 62
     2
100
AcDbLine
 10
137.1394607819748
 20
135.3161038076626
 30
0.0
 11
137.1394607819748
 21
134.2508647170521
 31
0.0
  0
LINE
  5
187
330
42
100
AcDbEntity
  8
1
  6
Continuous
 62
     7
100
AcDbLine
 10
143.1394607819747
 20
136.0737657054914
 30
0.0
 11
143.6394607819747
 21
136.0737657054914
 31
0.0
  0
LINE
  5
188
330
42
100
AcDbEntity
  8
1
  6
Continuous
 62
     2
100
AcDbLine
 10
143.6394607819747
 20
133.2737657054914
 30
0.0
 11
143.6394607819747
 21
136.0737657054914
 31
0.0
  0
LINE
  5
189
330
42
100
AcDbEntity
  8
1
  6
Continuous
 62
     7
100
AcDbLine
 10
144.1394607819747
 20
136.0737657054914
 30
0.0
 11
144.6394607819747
 21
136.0737657054914
 31
0.0
  0
LINE
  5
18A
330
42
100
AcDbEntity
  8
1
  6
Continuous
 62
     2
100
AcDbLine
 10
144.6394607819747
 20
133.2737657054914
 30
0.0
 11
144.6394607819747
 21
136.0737657054914
 31
0.0
  0
LINE
  5
18B
330
42
100
AcDbEntity
  8
1
  6
Continuous
 62
     7
100
AcDbLine
 10
145.1394607819747
 20
136.0737657054914
 30
0.0
 11
145.1394607819747
 21
133.2737657054914
 31
0.0
  0
LINE
  5
18C
330
42
100
AcDbEntity
  8
1
  6
Continuous
 62
     7
100
AcDbLine
 10
144.1394607819748
 20
136.3430879045145
 30
0.0
 11
145.1394607819747
 21
136.0737657054914
 31
0.0
  0
LINE
  5
18D
330
42
100
AcDbEntity
  8
1
  6
Continuous
 62
     7
100
AcDbLine
 10
144.6394607819747
 20
136.0737657054914
 30
0.0
 11
145.1394607819747
 21
136.0737657054914
 31
0.0
  0
LINE
  5
18E
330
42
100
AcDbEntity
  8
1
  6
Continuous
 62
     2
100
AcDbLine
 10
144.1394607819747
 20
133.2737657054914
 30
0.0
 11
144.1394607819747
 21
136.0737657054914
 31
0.0
  0
LINE
  5
18F
330
42
100
AcDbEntity
  8
1
  6
Continuous
 62
     7
100
AcDbLine
 10
143.6394607819747
 20
136.0737657054914
 30
0.0
 11
144.1394607819747
 21
136.0737657054914
 31
0.0
  0
LINE
  5
190
330
42
100
AcDbEntity
  8
1
  6
Continuous
 62
     7
100
AcDbLine
 10
51.71887405557379
 20
133.2737657054914
 30
0.0
 11
51.71887405557379
 21
136.0737657054914
 31
0.0
  0
LINE
  5
191
330
42
100
AcDbEntity
  8
1
  6
Continuous
 62
     2
100
AcDbLine
 10
52.21887405557379
 20
136.0737657054914
 30
0.0
 11
52.21887405557379
 21
133.2737657054914
 31
0.0
  0
LINE
  5
192
330
42
100
AcDbEntity
  8
1
  6
Continuous
 62
     2
100
AcDbLine
 10
52.71887405557379
 20
136.0737657054914
 30
0.0
 11
52.71887405557379
 21
133.2737657054914
 31
0.0
  0
LINE
  5
193
330
42
100
AcDbEntity
  8
1
  6
Continuous
 62
     2
100
AcDbLine
 10
53.21887405557371
 20
136.0737657054914
 30
0.0
 11
53.21887405557379
 21
133.2737657054914
 31
0.0
  0
LINE
  5
194
330
42
100
AcDbEntity
  8
1
  6
Continuous
 62
     2
100
AcDbLine
 10
53.71887405557371
 20
136.0737657054914
 30
0.0
 11
53.71887405557379
 21
133.2737657054914
 31
0.0
  0
LINE
  5
195
330
42
100
AcDbEntity
  8
1
  6
Continuous
 62
     2
100
AcDbLine
 10
54.21887405557379
 20
135.9293534704691
 30
0.0
 11
54.21887405557379
 21
133.3793530316788
 31
0.0
  0
LINE
  5
196
330
42
100
AcDbEntity
  8
1
  6
Continuous
 62
     2
100
AcDbLine
 10
54.71887405557379
 20
135.883839297039
 30
0.0
 11
54.71887405557379
 21
133.4398140179429
 31
0.0
  0
LINE
  5
197
330
42
100
AcDbEntity
  8
1
  6
Continuous
 62
     2
100
AcDbLine
 10
55.21887405557379
 20
135.7979840227562
 30
0.0
 11
55.21887405557379
 21
133.5282384057534
 31
0.0
  0
LINE
  5
198
330
42
100
AcDbEntity
  8
1
  6
Continuous
 62
     2
100
AcDbLine
 10
55.71887405557382
 20
135.7702921991638
 30
0.0
 11
55.71887405557382
 21
133.6344661857291
 31
0.0
  0
LINE
  5
199
330
42
100
AcDbEntity
  8
1
  6
Continuous
 62
     7
100
AcDbLine
 10
65.71887405557371
 20
133.2737657054914
 30
0.0
 11
51.71887405557379
 21
133.2737657054914
 31
0.0
  0
LINE
  5
19A
330
42
100
AcDbEntity
  8
1
  6
Continuous
 62
     2
100
AcDbLine
 10
63.71887405557371
 20
133.2737657054914
 30
0.0
 11
63.71887405557371
 21
136.0737657054914
 31
0.0
  0
LINE
  5
19B
330
42
100
AcDbEntity
  8
1
  6
Continuous
 62
     2
100
AcDbLine
 10
63.21887405557371
 20
133.3793530316788
 30
0.0
 11
63.21887405557371
 21
135.9293534704691
 31
0.0
  0
LINE
  5
19C
330
42
100
AcDbEntity
  8
1
  6
Continuous
 62
     2
100
AcDbLine
 10
62.71887405557371
 20
133.4398140179429
 30
0.0
 11
62.71887405557371
 21
135.883839297039
 31
0.0
  0
LINE
  5
19D
330
42
100
AcDbEntity
  8
1
  6
Continuous
 62
     2
100
AcDbLine
 10
62.21887405557371
 20
133.5282384057534
 30
0.0
 11
62.21887405557371
 21
135.7979840227562
 31
0.0
  0
LINE
  5
19E
330
42
100
AcDbEntity
  8
1
  6
Continuous
 62
     2
100
AcDbLine
 10
61.71887405557371
 20
133.6344661857291
 30
0.0
 11
61.71887405557371
 21
135.7702921991638
 31
0.0
  0
LINE
  5
19F
330
42
100
AcDbEntity
  8
1
  6
Continuous
 62
     2
100
AcDbLine
 10
60.21887405557371
 20
134.2113595338606
 30
0.0
 11
60.21887405557371
 21
135.3600858637132
 31
0.0
  0
LINE
  5
1A0
330
42
100
AcDbEntity
  8
1
  6
Continuous
 62
     2
100
AcDbLine
 10
61.21887405557371
 20
133.8873148961687
 30
0.0
 11
61.21887405557371
 21
135.6053088327773
 31
0.0
  0
LINE
  5
1A1
330
42
100
AcDbEntity
  8
1
  6
Continuous
 62
     2
100
AcDbLine
 10
60.71887405557371
 20
133.9913284933372
 30
0.0
 11
60.71887405557371
 21
135.5594190173953
 31
0.0
  0
LINE
  5
1A2
330
42
100
AcDbEntity
  8
1
  6
Continuous
 62
     2
100
AcDbLine
 10
59.71887405557371
 20
134.2508647170521
 30
0.0
 11
59.71887405557371
 21
135.3161038076626
 31
0.0
  0
LINE
  5
1A3
330
42
100
AcDbEntity
  8
1
  6
Continuous
 62
     7
100
AcDbLine
 10
53.71887405557371
 20
136.0737657054914
 30
0.0
 11
63.71887405557371
 21
136.0737657054914
 31
0.0
  0
LINE
  5
1A4
330
42
100
AcDbEntity
  8
1
  6
Continuous
 62
     2
100
AcDbLine
 10
57.21887405557381
 20
135.3600858637132
 30
0.0
 11
57.21887405557381
 21
134.2113595338606
 31
0.0
  0
LINE
  5
1A5
330
42
100
AcDbEntity
  8
1
  6
Continuous
 62
     2
100
AcDbLine
 10
56.21887405557371
 20
135.6053088327773
 30
0.0
 11
56.21887405557381
 21
133.8873148961687
 31
0.0
  0
LINE
  5
1A6
330
42
100
AcDbEntity
  8
1
  6
Continuous
 62
     7
100
AcDbLine
 10
53.21887405557371
 20
136.0737657054914
 30
0.0
 11
53.71887405557371
 21
136.0737657054914
 31
0.0
  0
LINE
  5
1A7
330
42
100
AcDbEntity
  8
1
  6
Continuous
 62
     7
100
AcDbLine
 10
52.21887405557379
 20
136.0737657054914
 30
0.0
 11
52.71887405557379
 21
136.0737657054914
 31
0.0
  0
LINE
  5
1A8
330
42
100
AcDbEntity
  8
1
  6
Continuous
 62
     7
100
AcDbLine
 10
51.71887405557379
 20
136.0737657054914
 30
0.0
 11
52.71887405557371
 21
136.3430879045145
 31
0.0
  0
LINE
  5
1A9
330
42
100
AcDbEntity
  8
1
  6
Continuous
 62
     7
100
AcDbLine
 10
51.71887405557379
 20
136.0737657054914
 30
0.0
 11
52.21887405557379
 21
136.0737657054914
 31
0.0
  0
LINE
  5
1AA
330
42
100
AcDbEntity
  8
1
  6
Continuous
 62
     7
100
AcDbLine
 10
52.71887405557379
 20
136.0737657054914
 30
0.0
 11
53.21887405557371
 21
136.0737657054914
 31
0.0
  0
LINE
  5
1AB
330
42
100
AcDbEntity
  8
1
  6
Continuous
 62
     2
100
AcDbLine
 10
56.71887405557381
 20
135.5594190173953
 30
0.0
 11
56.71887405557381
 21
133.9913284933372
 31
0.0
  0
LINE
  5
1AC
330
42
100
AcDbEntity
  8
1
  6
Continuous
 62
     2
100
AcDbLine
 10
57.71887405557381
 20
135.3161038076626
 30
0.0
 11
57.71887405557381
 21
134.2508647170521
 31
0.0
  0
LINE
  5
1AD
330
42
100
AcDbEntity
  8
1
  6
Continuous
 62
     7
100
AcDbLine
 10
63.71887405557371
 20
136.0737657054914
 30
0.0
 11
64.21887405557371
 21
136.0737657054914
 31
0.0
  0
LINE
  5
1AE
330
42
100
AcDbEntity
  8
1
  6
Continuous
 62
     2
100
AcDbLine
 10
64.21887405557371
 20
133.2737657054914
 30
0.0
 11
64.21887405557371
 21
136.0737657054914
 31
0.0
  0
LINE
  5
1AF
330
42
100
AcDbEntity
  8
1
  6
Continuous
 62
     7
100
AcDbLine
 10
64.71887405557371
 20
136.0737657054914
 30
0.0
 11
65.21887405557371
 21
136.0737657054914
 31
0.0
  0
LINE
  5
1B0
330
42
100
AcDbEntity
  8
1
  6
Continuous
 62
     2
100
AcDbLine
 10
65.21887405557371
 20
133.2737657054914
 30
0.0
 11
65.21887405557371
 21
136.0737657054914
 31
0.0
  0
LINE
  5
1B1
330
42
100
AcDbEntity
  8
1
  6
Continuous
 62
     7
100
AcDbLine
 10
65.71887405557371
 20
136.0737657054914
 30
0.0
 11
65.71887405557371
 21
133.2737657054914
 31
0.0
  0
LINE
  5
1B2
330
42
100
AcDbEntity
  8
1
  6
Continuous
 62
     7
100
AcDbLine
 10
64.71887405557392
 20
136.3430879045145
 30
0.0
 11
65.71887405557371
 21
136.0737657054914
 31
0.0
  0
LINE
  5
1B3
330
42
100
AcDbEntity
  8
1
  6
Continuous
 62
     7
100
AcDbLine
 10
65.21887405557371
 20
136.0737657054914
 30
0.0
 11
65.71887405557371
 21
136.0737657054914
 31
0.0
  0
LINE
  5
1B4
330
42
100
AcDbEntity
  8
1
  6
Continuous
 62
     2
100
AcDbLine
 10
64.71887405557371
 20
133.2737657054914
 30
0.0
 11
64.71887405557371
 21
136.0737657054914
 31
0.0
  0
LINE
  5
1B5
330
42
100
AcDbEntity
  8
1
  6
Continuous
 62
     7
100
AcDbLine
 10
64.21887405557371
 20
136.0737657054914
 30
0.0
 11
64.71887405557371
 21
136.0737657054914
 31
0.0
  0
ARC
  5
1B6
330
42
100
AcDbEntity
  8
1
  6
Continuous
 62
     7
100
AcDbCircle
 10
138.1394607819748
 20
112.0737657054914
 30
0.0
 40
25.00000000000001
100
AcDbArc
 50
90.0
 51
103.8865403626293
  0
ARC
  5
1B7
330
42
100
AcDbEntity
  8
1
  6
Continuous
 62
     7
100
AcDbCircle
 10
138.1394607819748
 20
112.0737657054914
 30
0.0
 40
24.99999999999992
100
AcDbArc
 50
76.11345963737097
 51
90.0
  0
ARC
  5
1B8
330
42
100
AcDbEntity
  8
1
  6
Continuous
 62
     7
100
AcDbCircle
 10
58.71887405557381
 20
112.0737657054914
 30
0.0
 40
25.00000000000001
100
AcDbArc
 50
90.00000000000023
 51
103.8865403626293
  0
ARC
  5
1B9
330
42
100
AcDbEntity
  8
1
  6
Continuous
 62
     7
100
AcDbCircle
 10
58.71887405557381
 20
112.0737657054914
 30
0.0
 40
24.99999999999994
100
AcDbArc
 50
76.11345963737071
 51
90.00000000000023
  0
CIRCLE
  5
1BA
330
42
100
AcDbEntity
  8
0
  6
Continuous
 62
     7
100
AcDbCircle
 10
58.71887405557388
 20
205.7737657054915
 30
0.0
 40
7.0
  0
ENDBLK
  5
44
330
42
100
AcDbEntity
  8
0
100
AcDbBlockEnd
  0
BLOCK
  5
48
330
45
100
AcDbEntity
  8
0
100
AcDbBlockBegin
  2
R20F
 70
     0
 71
     0
 10
131.1394607819748
 20
121.7737657054914
 30
0.0
  3
R20F
  1

  0
INSERT
  5
46
330
45
100
AcDbEntity
  8
1
100
AcDbBlockReference
  2
51-1
 10
298.1788495253879
 20
22.6170207437931
 30
0.0
  0
INSERT
  5
47
330
45
100
AcDbEntity
  8
1
100
AcDbBlockReference
  2
42-15
 10
248.4448996192431
 20
85.25119672651329
 30
0.0
  0
LINE
  5
1BB
330
45
100
AcDbEntity
  8
1
  6
PHANTOM
 62
     4
100
AcDbLine
 10
138.1394607819748
 20
134.7737657054914
 30
0.0
 11
138.1394607819748
 21
140.7737317239532
 31
0.0
  0
ENDBLK
  5
49
330
45
100
AcDbEntity
  8
0
100
AcDbBlockEnd
  0
BLOCK
  5
4B
330
4A
100
AcDbEntity
  8
0
100
AcDbBlockBegin
  2
37-1-13
 70
     0
 71
     0
 10
331.507973527418
 20
78.3598065986412
 30
0.0
  3
37-1-13
  1

  0
LINE
  5
1BC
330
4A
100
AcDbEntity
  8
1
  6
Continuous
 62
     7
100
AcDbLine
 10
71.71901164807852
 20
112.2740725318611
 30
0.0
 11
71.71901164807852
 21
111.9661090788328
 31
0.0
  0
LINE
  5
1BD
330
4A
100
AcDbEntity
  8
1
  6
Continuous
 62
     7
100
AcDbLine
 10
45.71901164807862
 20
112.2740725318606
 30
0.0
 11
45.71901164807862
 21
111.9662197160982
 31
0.0
  0
LINE
  5
1BE
330
4A
100
AcDbEntity
  8
1
  6
Continuous
 62
     7
100
AcDbLine
 10
52.71901164807882
 20
119.2033583175894
 30
0.0
 11
64.71901164807882
 21
119.2033583175894
 31
0.0
  0
LINE
  5
1BF
330
4A
100
AcDbEntity
  8
1
  6
Continuous
 62
     7
100
AcDbLine
 10
58.71901164807882
 20
112.7033583175894
 30
0.0
 11
71.21901164807862
 21
112.7033583175895
 31
0.0
  0
LINE
  5
1C0
330
4A
100
AcDbEntity
  8
1
  6
Continuous
 62
     7
100
AcDbLine
 10
46.21901164807889
 20
112.7033583175895
 30
0.0
 11
58.71901164807882
 21
112.7033583175894
 31
0.0
  0
LINE
  5
1C1
330
4A
100
AcDbEntity
  8
1
  6
Continuous
 62
     7
100
AcDbLine
 10
45.71901164807862
 20
111.9662197160982
 30
0.0
 11
45.71901164807862
 21
105.2033583175894
 31
0.0
  0
LINE
  5
1C2
330
4A
100
AcDbEntity
  8
1
  6
Continuous
 62
     7
100
AcDbLine
 10
71.71901164807881
 20
105.2033583175894
 30
0.0
 11
45.71901164807862
 21
105.2033583175894
 31
0.0
  0
LINE
  5
1C3
330
4A
100
AcDbEntity
  8
1
  6
Continuous
 62
     7
100
AcDbLine
 10
71.71901164807852
 20
111.9661090788328
 30
0.0
 11
71.71901164807881
 21
105.2033583175894
 31
0.0
  0
LINE
  5
1C4
330
4A
100
AcDbEntity
  8
1
  6
Continuous
 62
     7
100
AcDbLine
 10
125.0687465677034
 20
105.2034569936763
 30
0.0
 11
151.2101749962463
 21
105.2034569936763
 31
0.0
  0
LINE
  5
1C5
330
4A
100
AcDbEntity
  8
0
  6
Continuous
 62
     7
100
AcDbLine
 10
133.2941140030779
 20
112.2741712079476
 30
0.0
 11
129.4641779754308
 21
112.2741712079476
 31
0.0
  0
LINE
  5
1C6
330
4A
100
AcDbEntity
  8
0
  6
Continuous
 62
     7
100
AcDbLine
 10
146.8147435885188
 20
112.2741712079476
 30
0.0
 11
142.9848075608717
 21
112.2741712079476
 31
0.0
  0
LINE
  5
1C7
330
4A
100
AcDbEntity
  8
1
  6
Continuous
 62
     7
100
AcDbLine
 10
144.1394607819748
 20
119.2034569936763
 30
0.0
 11
132.1394607819748
 21
119.2034569936763
 31
0.0
  0
ARC
  5
1C8
330
4A
100
AcDbEntity
  8
1
  6
Continuous
 62
     7
100
AcDbCircle
 10
68.21901164807882
 20
108.7033583175894
 30
0.0
 40
4.99999999999998
100
AcDbArc
 50
45.57299599919886
 51
53.13010235415849
  0
ARC
  5
1C9
330
4A
100
AcDbEntity
  8
1
  6
Continuous
 62
     7
100
AcDbCircle
 10
49.21901164807882
 20
108.7033583175894
 30
0.0
 40
5.000000000000037
100
AcDbArc
 50
126.8698976458427
 51
134.4270040008092
  0
ARC
  5
1CA
330
4A
100
AcDbEntity
  8
1
  6
Continuous
 62
     7
100
AcDbCircle
 10
32.8125564429638
 20
132.6098135227044
 30
0.0
 40
24.00000000000007
100
AcDbArc
 50
-56.04080749990214
 51
-33.95919250009752
  0
ARC
  5
1CB
330
4A
100
AcDbEntity
  8
1
  6
Continuous
 62
     7
100
AcDbCircle
 10
84.62546685319356
 20
132.6098135227044
 30
0.0
 40
23.99999999999989
100
AcDbArc
 50
-146.0408074999021
 51
-123.9591925000976
  0
ARC
  5
1CC
330
4A
100
AcDbEntity
  8
1
  6
Continuous
 62
     7
100
AcDbCircle
 10
112.2330055768599
 20
132.6099121987912
 30
0.0
 40
24.00000000000003
100
AcDbArc
 50
-56.0408074999023
 51
-33.95919250009746
  0
ARC
  5
1CD
330
4A
100
AcDbEntity
  8
1
  6
Continuous
 62
     7
100
AcDbCircle
 10
128.6394607819748
 20
108.7034569936763
 30
0.0
 40
4.999999999999941
100
AcDbArc
 50
126.8698976458431
 51
-135.5729959991941
  0
ARC
  5
1CE
330
4A
100
AcDbEntity
  8
1
  6
Continuous
 62
     7
100
AcDbCircle
 10
164.0459159870896
 20
132.6099121987912
 30
0.0
 40
23.99999999999987
100
AcDbArc
 50
-146.0408074999024
 51
-123.9591925000977
  0
ARC
  5
1CF
330
4A
100
AcDbEntity
  8
1
  6
Continuous
 62
     7
100
AcDbCircle
 10
147.6394607819748
 20
108.7034569936763
 30
0.0
 40
5.000000000000057
100
AcDbArc
 50
-44.42700400080507
 51
53.13010235415781
  0
SPLINE
  5
1D0
330
4A
100
AcDbEntity
  8
1
  6
Continuous
 62
     7
100
AcDbSpline
210
0.0
220
0.0
230
1.0
 70
     8
 71
     3
 72
    79
 73
    75
 74
    73
 42
0.0000000001
 43
0.0000000001
 44
0.00000001
 40
0.0
 40
0.0
 40
0.0
 40
0.0
 40
0.2813091385367848
 40
0.5626019606352367
 40
0.8464226525143903
 40
1.130214060738724
 40
1.41783571126223
 40
1.705420542401976
 40
1.997635978226897
 40
2.289812854371209
 40
2.58683903518322
 40
2.883829792124978
 40
3.185307045384687
 40
3.486755461402844
 40
3.791812980111098
 40
4.096850365689718
 40
4.404220799428714
 40
4.711580931801279
 40
5.019747232346028
 40
5.327913532890833
 40
5.63527366526345
 40
5.942644099002441
 40
6.24768148458108
 40
6.552739003289404
 40
6.85418741930761
 40
7.155664672567317
 40
7.452655429509047
 40
7.749681610320979
 40
8.04185848646531
 40
8.334073922290296
 40
8.621658753430049
 40
8.909280403953533
 40
9.193071812177816
 40
9.476892504056975
 40
9.758185326155417
 40
10.03949446469218
 40
10.31992040211359
 40
10.60034633953501
 40
10.88165547807176
 40
11.1629483001702
 40
11.44676899204937
 40
11.73056040027366
 40
12.01818205079712
 40
12.30576688193687
 40
12.59798231776187
 40
12.89015919390621
 40
13.18718537471819
 40
13.48417613165994
 40
13.78565338491963
 40
14.08710180093782
 40
14.39215931964615
 40
14.69719670522478
 40
15.00456713896375
 40
15.31192727133635
 40
15.62009357188108
 40
15.92825987242589
 40
16.23562000479848
 40
16.54299043853744
 40
16.84802782411606
 40
17.15308534282435
 40
17.45453375884257
 40
17.75601101210227
 40
18.05300176904403
 40
18.35002794985604
 40
18.64220482600039
 40
18.93442026182536
 40
19.22200509296507
 40
19.50962674348858
 40
19.79341815171293
 40
20.07723884359207
 40
20.35853166569052
 40
20.63984080422724
 40
20.78025738220094
 40
20.92034804331116
 40
20.92034804331116
 40
20.92034804331116
 40
20.92034804331116
 10
127.1612302691204
 20
112.2606492229197
 30
0.0
 10
127.2543572201413
 20
112.2490778194328
 30
0.0
 10
127.4406057206518
 20
112.2259356836212
 30
0.0
 10
127.7149073057579
 20
112.1571735432537
 30
0.0
 10
127.9826512343348
 20
112.0646054164193
 30
0.0
 10
128.2422638703405
 20
111.9457530805887
 30
0.0
 10
128.4909809672589
 20
111.8030911649552
 30
0.0
 10
128.7278248826349
 20
111.6365482640214
 30
0.0
 10
128.9500403019511
 20
111.4485905446983
 30
0.0
 10
129.156903353954
 20
111.239428332891
 30
0.0
 10
129.3459620888254
 20
111.0119757564083
 30
0.0
 10
129.5166020334867
 20
110.7666301720551
 30
0.0
 10
129.6668657623526
 20
110.5066016137153
 30
0.0
 10
129.7961731144794
 20
110.2325788676588
 30
0.0
 10
129.9031639164271
 20
109.9478311822757
 30
0.0
 10
129.9872962556031
 20
109.6534683327268
 30
0.0
 10
130.0478152398081
 20
109.3525778527581
 30
0.0
 10
130.0842963778028
 20
109.0467915308005
 30
0.0
 10
130.0965151593359
 20
108.7388141008131
 30
0.0
 10
130.0842963778031
 20
108.4308366708198
 30
0.0
 10
130.0478152398068
 20
108.1250503488795
 30
0.0
 10
129.987296255608
 20
107.8241598688475
 30
0.0
 10
129.9031639164094
 20
107.5297970195328
 30
0.0
 10
129.7961731145456
 20
107.2450493332802
 30
0.0
 10
129.666865762109
 20
106.9710265904318
 30
0.0
 10
129.5166020343903
 20
106.7109980202073
 30
0.0
 10
129.3459620855084
 20
106.4656524795783
 30
0.0
 10
129.1569033662557
 20
106.2381997412941
 30
0.0
 10
128.9500402568704
 20
106.0290381239394
 30
0.0
 10
128.7278250498679
 20
105.8410782051475
 30
0.0
 10
128.4909803540823
 20
105.674543388889
 30
0.0
 10
128.2422661474104
 20
105.5318515316684
 30
0.0
 10
127.982642861433
 20
105.4131095245062
 30
0.0
 10
127.7149384538017
 20
105.3201319793728
 30
0.0
 10
127.4404906204573
 20
105.2528849015655
 30
0.0
 10
127.1619517977985
 20
105.212569555471
 30
0.0
 10
126.8811305327772
 20
105.1989078764983
 30
0.0
 10
126.6003092677559
 20
105.2125695554711
 30
0.0
 10
126.3217704450971
 20
105.2528849015655
 30
0.0
 10
126.0473226117527
 20
105.3201319793729
 30
0.0
 10
125.7796182041214
 20
105.4131095245063
 30
0.0
 10
125.519994918144
 20
105.5318515316684
 30
0.0
 10
125.2712807114721
 20
105.6745433888889
 30
0.0
 10
125.0344360156865
 20
105.8410782051476
 30
0.0
 10
124.812220808684
 20
106.0290381239395
 30
0.0
 10
124.6053576992987
 20
106.2381997412941
 30
0.0
 10
124.4162989800459
 20
106.4656524795783
 30
0.0
 10
124.245659031164
 20
106.7109980202073
 30
0.0
 10
124.0953953034452
 20
106.9710265904318
 30
0.0
 10
123.9660879510088
 20
107.2450493332802
 30
0.0
 10
123.8590971491449
 20
107.5297970195328
 30
0.0
 10
123.7749648099464
 20
107.8241598688474
 30
0.0
 10
123.7144458257476
 20
108.1250503488794
 30
0.0
 10
123.6779646877512
 20
108.43083667082
 30
0.0
 10
123.6657459062185
 20
108.7388141008121
 30
0.0
 10
123.6779646877512
 20
109.0467915308038
 30
0.0
 10
123.7144458257474
 20
109.3525778527453
 30
0.0
 10
123.7749648099467
 20
109.653468332774
 30
0.0
 10
123.8590971491435
 20
109.9478311821006
 30
0.0
 10
123.966087951014
 20
110.2325788683091
 30
0.0
 10
124.0953953034258
 20
110.5066016113201
 30
0.0
 10
124.2456590312361
 20
110.7666301809421
 30
0.0
 10
124.416298979781
 20
111.0119757237881
 30
0.0
 10
124.6053577002807
 20
111.2394284538679
 30
0.0
 10
124.8122208050852
 20
111.448590101366
 30
0.0
 10
125.0344360290367
 20
111.6365499086268
 30
0.0
 10
125.2712806625223
 20
111.8030851348448
 30
0.0
 10
125.5199950999223
 20
111.9457754737809
 30
0.0
 10
125.7796175357134
 20
112.0645230755134
 30
0.0
 10
126.0473250982984
 20
112.1574798597737
 30
0.0
 10
126.3217612566587
 20
112.2248037637054
 30
0.0
 10
126.5540768189984
 20
112.2581851534047
 30
0.0
 10
126.7409153853583
 20
112.2722092866224
 30
0.0
 10
126.8344283673846
 20
112.2735177409299
 30
0.0
 10
126.8811305327805
 20
112.2741712079476
 30
0.0
 11
127.1612302691204
 21
112.2606492229197
 31
0.0
 11
127.439629776474
 21
112.2202939787798
 31
0.0
 11
127.7128738013467
 21
112.1534856362209
 31
0.0
 11
127.9809799275114
 21
112.0603551350318
 31
0.0
 11
128.239125945609
 21
111.9424645216552
 31
0.0
 11
128.4886186239572
 21
111.7993575081985
 31
0.0
 11
128.7239640310569
 21
111.6340772176048
 31
0.0
 11
128.9471062240718
 21
111.4454044251019
 31
0.0
 11
129.152671149157
 21
111.2377740117994
 31
0.0
 11
129.342585726426
 21
111.0093949290695
 31
0.0
 11
129.5122720291167
 21
110.7656531222576
 31
0.0
 11
129.6631677186773
 21
110.5046569056086
 31
0.0
 11
129.7919077056752
 21
110.2320818457303
 31
0.0
 11
129.8992503689649
 21
109.9465338771536
 31
0.0
 11
129.9831467122041
 21
109.6532606083551
 31
0.0
 11
130.0437786688436
 21
109.3519296451752
 31
0.0
 11
130.0802279028301
 21
109.0467383865948
 31
0.0
 11
130.0924386774434
 21
108.7388141008121
 31
0.0
 11
130.0802279028301
 21
108.4308898150294
 31
0.0
 11
130.0437786688436
 21
108.1256985564489
 31
0.0
 11
129.9831467122041
 21
107.824367593269
 31
0.0
 11
129.899250368965
 21
107.5310943244705
 31
0.0
 11
129.7919077056752
 21
107.2455463558937
 31
0.0
 11
129.6631677186772
 21
106.9729712960154
 31
0.0
 11
129.5122720291167
 21
106.7119750793665
 31
0.0
 11
129.3425857264259
 21
106.4682332725545
 31
0.0
 11
129.152671149157
 21
106.2398541898247
 31
0.0
 11
128.9471062240718
 21
106.0322237765222
 31
0.0
 11
128.7239640310569
 21
105.8435509840192
 31
0.0
 11
128.4886186239572
 21
105.6782706934255
 31
0.0
 11
128.239125945609
 21
105.5351636799688
 31
0.0
 11
127.9809799275114
 21
105.4172730665923
 31
0.0
 11
127.7128738013468
 21
105.3241425654031
 31
0.0
 11
127.4396297764741
 21
105.2573342228441
 31
0.0
 11
127.1612302691205
 21
105.2169789787042
 31
0.0
 11
126.8811305327772
 21
105.2034569936764
 31
0.0
 11
126.6010307964339
 21
105.2169789787042
 31
0.0
 11
126.3226312890804
 21
105.2573342228441
 31
0.0
 11
126.0493872642077
 21
105.3241425654031
 31
0.0
 11
125.781281138043
 21
105.4172730665923
 31
0.0
 11
125.5231351199454
 21
105.5351636799688
 31
0.0
 11
125.2736424415972
 21
105.6782706934254
 31
0.0
 11
125.0382970344975
 21
105.8435509840192
 31
0.0
 11
124.8151548414826
 21
106.0322237765222
 31
0.0
 11
124.6095899163974
 21
106.2398541898247
 31
0.0
 11
124.4196753391284
 21
106.4682332725545
 31
0.0
 11
124.2499890364376
 21
106.7119750793665
 31
0.0
 11
124.099093346877
 21
106.9729712960154
 31
0.0
 11
123.9703533598792
 21
107.2455463558937
 31
0.0
 11
123.8630106965893
 21
107.5310943244705
 31
0.0
 11
123.7791143533502
 21
107.824367593269
 31
0.0
 11
123.7184823967108
 21
108.1256985564489
 31
0.0
 11
123.6820331627242
 21
108.4308898150293
 31
0.0
 11
123.6698223881109
 21
108.738814100812
 31
0.0
 11
123.6820331627242
 21
109.0467383865947
 31
0.0
 11
123.7184823967107
 21
109.3519296451752
 31
0.0
 11
123.7791143533502
 21
109.6532606083551
 31
0.0
 11
123.8630106965893
 21
109.9465338771536
 31
0.0
 11
123.9703533598791
 21
110.2320818457303
 31
0.0
 11
124.099093346877
 21
110.5046569056086
 31
0.0
 11
124.2499890364376
 21
110.7656531222576
 31
0.0
 11
124.4196753391283
 21
111.0093949290696
 31
0.0
 11
124.6095899163973
 21
111.2377740117994
 31
0.0
 11
124.8151548414826
 21
111.4454044251019
 31
0.0
 11
125.0382970344975
 21
111.6340772176048
 31
0.0
 11
125.2736424415972
 21
111.7993575081985
 31
0.0
 11
125.5231351199454
 21
111.9424645216553
 31
0.0
 11
125.781281138043
 21
112.0603551350318
 31
0.0
 11
126.0493872642077
 21
112.1534856362209
 31
0.0
 11
126.3226312890804
 21
112.2202939787798
 31
0.0
 11
126.601030796434
 21
112.2606492229197
 31
0.0
 11
126.7410806646072
 21
112.2707907116908
 31
0.0
 11
126.8811305327805
 21
112.2741712079476
 31
0.0
  0
SPLINE
  5
1D1
330
4A
100
AcDbEntity
  8
1
  6
Continuous
 62
     7
100
AcDbSpline
210
0.0
220
0.0
230
1.0
 70
     8
 71
     3
 72
     9
 73
     5
 74
     3
 42
0.0000000001
 43
0.0000000001
 44
0.00000001
 40
0.0
 40
0.0
 40
0.0
 40
0.0
 40
0.1400906611069308
 40
0.2805072390773513
 40
0.2805072390773513
 40
0.2805072390773513
 40
0.2805072390773513
 10
149.3977910311692
 20
112.2741712079476
 30
0.0
 10
149.3510806844446
 20
112.2736051779668
 30
0.0
 10
149.2575513207273
 20
112.2724718011528
 30
0.0
 10
149.1643474008419
 20
112.2645931336965
 30
0.0
 10
149.1176912948292
 20
112.2606492229197
 30
0.0
 11
149.3977910311692
 21
112.2741712079476
 31
0.0
 11
149.2577411629992
 21
112.2707907116906
 31
0.0
 11
149.1176912948292
 21
112.2606492229197
 31
0.0
  0
SPLINE
  5
1D2
330
4A
100
AcDbEntity
  8
1
  6
Continuous
 62
     7
100
AcDbSpline
210
0.0
220
0.0
230
1.0
 70
     8
 71
     3
 72
    79
 73
    75
 74
    73
 42
0.0000000001
 43
0.0000000001
 44
0.00000001
 40
0.0
 40
0.0
 40
0.0
 40
0.0
 40
0.2813091385367848
 40
0.5626019606352506
 40
0.8464226525143908
 40
1.130214060738738
 40
1.417835711262244
 40
1.705420542401966
 40
1.997635978226888
 40
2.28981285437122
 40
2.586839035183177
 40
2.883829792124935
 40
3.185307045384629
 40
3.486755461402798
 40
3.791812980111072
 40
4.096850365689692
 40
4.404220799428694
 40
4.71158093180126
 40
5.019747232346008
 40
5.327913532890813
 40
5.635273665263431
 40
5.942644099002427
 40
6.247681484581066
 40
6.5527390032894
 40
6.854187419307594
 40
7.1556646725673
 40
7.45265542950903
 40
7.749681610320961
 40
8.041858486465273
 40
8.33407392229028
 40
8.621658753430033
 40
8.909280403953517
 40
9.193071812177815
 40
9.476892504056988
 40
9.75818532615547
 40
10.03949446469217
 40
10.3199204021136
 40
10.60034633953497
 40
10.88165547807176
 40
11.16294830017019
 40
11.44676899204934
 40
11.73056040027369
 40
12.01818205079715
 40
12.30576688193689
 40
12.59798231776186
 40
12.89015919390618
 40
13.18718537471817
 40
13.48417613165993
 40
13.78565338491959
 40
14.08710180093781
 40
14.39215931964613
 40
14.69719670522476
 40
15.00456713896373
 40
15.31192727133633
 40
15.62009357188106
 40
15.92825987242587
 40
16.23562000479846
 40
16.54299043853742
 40
16.84802782411603
 40
17.15308534282433
 40
17.45453375884254
 40
17.75601101210225
 40
18.05300176904402
 40
18.35002794985603
 40
18.64220482600037
 40
18.93442026182529
 40
19.22200509296503
 40
19.50962674348853
 40
19.7934181517129
 40
20.07723884359206
 40
20.3585316656905
 40
20.63984080422723
 40
20.78025738220089
 40
20.92034804331106
 40
20.92034804331106
 40
20.92034804331106
 40
20.92034804331106
 10
149.1176912948292
 20
112.2606492229197
 30
0.0
 10
149.0245643438082
 20
112.2490778194328
 30
0.0
 10
148.8383158432978
 20
112.2259356836212
 30
0.0
 10
148.5640142581918
 20
112.1571735432537
 30
0.0
 10
148.2962703296148
 20
112.0646054164193
 30
0.0
 10
148.0366576936091
 20
111.9457530805887
 30
0.0
 10
147.7879405966906
 20
111.8030911649552
 30
0.0
 10
147.5510966813147
 20
111.6365482640214
 30
0.0
 10
147.3288812619985
 20
111.4485905446982
 30
0.0
 10
147.1220182099955
 20
111.2394283328911
 30
0.0
 10
146.9329594751243
 20
111.0119757564083
 30
0.0
 10
146.762319530463
 20
110.7666301720551
 30
0.0
 10
146.612055801597
 20
110.5066016137153
 30
0.0
 10
146.4827484494702
 20
110.2325788676588
 30
0.0
 10
146.3757576475225
 20
109.9478311822757
 30
0.0
 10
146.2916253083465
 20
109.6534683327268
 30
0.0
 10
146.2311063241415
 20
109.3525778527581
 30
0.0
 10
146.1946251861468
 20
109.0467915308005
 30
0.0
 10
146.1824064046137
 20
108.7388141008131
 30
0.0
 10
146.1946251861465
 20
108.4308366708198
 30
0.0
 10
146.2311063241428
 20
108.1250503488795
 30
0.0
 10
146.2916253083417
 20
107.8241598688475
 30
0.0
 10
146.3757576475402
 20
107.5297970195328
 30
0.0
 10
146.4827484494041
 20
107.2450493332802
 30
0.0
 10
146.6120558018405
 20
106.9710265904318
 30
0.0
 10
146.7623195295593
 20
106.7109980202073
 30
0.0
 10
146.9329594784412
 20
106.4656524795784
 30
0.0
 10
147.1220181976939
 20
106.238199741294
 30
0.0
 10
147.3288813070792
 20
106.0290381239394
 30
0.0
 10
147.5510965140817
 20
105.8410782051475
 30
0.0
 10
147.7879412098673
 20
105.674543388889
 30
0.0
 10
148.0366554165393
 20
105.5318515316684
 30
0.0
 10
148.2962787025166
 20
105.4131095245062
 30
0.0
 10
148.5639831101479
 20
105.3201319793728
 30
0.0
 10
148.8384309434924
 20
105.2528849015655
 30
0.0
 10
149.1169697661511
 20
105.212569555471
 30
0.0
 10
149.3977910311725
 20
105.1989078764983
 30
0.0
 10
149.6786122961938
 20
105.212569555471
 30
0.0
 10
149.9571511188525
 20
105.2528849015655
 30
0.0
 10
150.2315989521969
 20
105.3201319793729
 30
0.0
 10
150.4993033598282
 20
105.4131095245063
 30
0.0
 10
150.7589266458056
 20
105.5318515316684
 30
0.0
 10
151.0076408524776
 20
105.6745433888889
 30
0.0
 10
151.2444855482631
 20
105.8410782051476
 30
0.0
 10
151.4667007552656
 20
106.0290381239394
 30
0.0
 10
151.6735638646508
 20
106.2381997412941
 30
0.0
 10
151.8626225839037
 20
106.4656524795784
 30
0.0
 10
152.0332625327856
 20
106.7109980202072
 30
0.0
 10
152.1835262605044
 20
106.9710265904319
 30
0.0
 10
152.3128336129408
 20
107.2450493332802
 30
0.0
 10
152.4198244148047
 20
107.5297970195328
 30
0.0
 10
152.5039567540032
 20
107.8241598688474
 30
0.0
 10
152.5644757382021
 20
108.1250503488794
 30
0.0
 10
152.6009568761984
 20
108.43083667082
 30
0.0
 10
152.6131756577311
 20
108.7388141008121
 30
0.0
 10
152.6009568761984
 20
109.0467915308038
 30
0.0
 10
152.5644757382023
 20
109.3525778527453
 30
0.0
 10
152.5039567540028
 20
109.6534683327741
 30
0.0
 10
152.4198244148061
 20
109.9478311821006
 30
0.0
 10
152.3128336129356
 20
110.2325788683091
 30
0.0
 10
152.1835262605239
 20
110.5066016113202
 30
0.0
 10
152.0332625327135
 20
110.7666301809421
 30
0.0
 10
151.8626225841686
 20
111.0119757237882
 30
0.0
 10
151.6735638636689
 20
111.2394284538678
 30
0.0
 10
151.4667007588644
 20
111.448590101366
 30
0.0
 10
151.244485534913
 20
111.6365499086268
 30
0.0
 10
151.0076409014274
 20
111.8030851348448
 30
0.0
 10
150.7589264640273
 20
111.9457754737809
 30
0.0
 10
150.4993040282362
 20
112.0645230755134
 30
0.0
 10
150.2315964656512
 20
112.1574798597738
 30
0.0
 10
149.957160307291
 20
112.2248037637054
 30
0.0
 10
149.7248447449512
 20
112.2581851534046
 30
0.0
 10
149.5380061785913
 20
112.2722092866224
 30
0.0
 10
149.4444931965651
 20
112.2735177409299
 30
0.0
 10
149.3977910311692
 20
112.2741712079476
 30
0.0
 11
149.1176912948292
 21
112.2606492229197
 31
0.0
 11
148.8392917874756
 21
112.2202939787798
 31
0.0
 11
148.5660477626029
 21
112.1534856362209
 31
0.0
 11
148.2979416364382
 21
112.0603551350318
 31
0.0
 11
148.0397956183406
 21
111.9424645216552
 31
0.0
 11
147.7903029399924
 21
111.7993575081985
 31
0.0
 11
147.5549575328927
 21
111.6340772176048
 31
0.0
 11
147.3318153398778
 21
111.4454044251019
 31
0.0
 11
147.1262504147926
 21
111.2377740117994
 31
0.0
 11
146.9363358375237
 21
111.0093949290695
 31
0.0
 11
146.7666495348329
 21
110.7656531222576
 31
0.0
 11
146.6157538452724
 21
110.5046569056086
 31
0.0
 11
146.4870138582745
 21
110.2320818457303
 31
0.0
 11
146.3796711949847
 21
109.9465338771536
 31
0.0
 11
146.2957748517455
 21
109.6532606083551
 31
0.0
 11
146.235142895106
 21
109.3519296451752
 31
0.0
 11
146.1986936611195
 21
109.0467383865948
 31
0.0
 11
146.1864828865062
 21
108.7388141008121
 31
0.0
 11
146.1986936611195
 21
108.4308898150294
 31
0.0
 11
146.235142895106
 21
108.1256985564489
 31
0.0
 11
146.2957748517455
 21
107.824367593269
 31
0.0
 11
146.3796711949846
 21
107.5310943244705
 31
0.0
 11
146.4870138582745
 21
107.2455463558937
 31
0.0
 11
146.6157538452724
 21
106.9729712960154
 31
0.0
 11
146.7666495348329
 21
106.7119750793665
 31
0.0
 11
146.9363358375237
 21
106.4682332725545
 31
0.0
 11
147.1262504147926
 21
106.2398541898247
 31
0.0
 11
147.3318153398778
 21
106.0322237765222
 31
0.0
 11
147.5549575328927
 21
105.8435509840192
 31
0.0
 11
147.7903029399924
 21
105.6782706934255
 31
0.0
 11
148.0397956183406
 21
105.5351636799688
 31
0.0
 11
148.2979416364382
 21
105.4172730665923
 31
0.0
 11
148.5660477626029
 21
105.3241425654031
 31
0.0
 11
148.8392917874756
 21
105.2573342228441
 31
0.0
 11
149.1176912948291
 21
105.2169789787042
 31
0.0
 11
149.3977910311724
 21
105.2034569936764
 31
0.0
 11
149.6778907675157
 21
105.2169789787042
 31
0.0
 11
149.9562902748693
 21
105.2573342228441
 31
0.0
 11
150.2295342997419
 21
105.3241425654031
 31
0.0
 11
150.4976404259066
 21
105.4172730665923
 31
0.0
 11
150.7557864440043
 21
105.5351636799688
 31
0.0
 11
151.0052791223525
 21
105.6782706934254
 31
0.0
 11
151.2406245294521
 21
105.8435509840192
 31
0.0
 11
151.463766722467
 21
106.0322237765222
 31
0.0
 11
151.6693316475522
 21
106.2398541898247
 31
0.0
 11
151.8592462248212
 21
106.4682332725545
 31
0.0
 11
152.028932527512
 21
106.7119750793665
 31
0.0
 11
152.1798282170725
 21
106.9729712960154
 31
0.0
 11
152.3085682040704
 21
107.2455463558937
 31
0.0
 11
152.4159108673603
 21
107.5310943244705
 31
0.0
 11
152.4998072105994
 21
107.824367593269
 31
0.0
 11
152.5604391672388
 21
108.1256985564489
 31
0.0
 11
152.5968884012254
 21
108.4308898150293
 31
0.0
 11
152.6090991758387
 21
108.738814100812
 31
0.0
 11
152.5968884012254
 21
109.0467383865947
 31
0.0
 11
152.5604391672389
 21
109.3519296451752
 31
0.0
 11
152.4998072105994
 21
109.6532606083551
 31
0.0
 11
152.4159108673603
 21
109.9465338771536
 31
0.0
 11
152.3085682040704
 21
110.2320818457303
 31
0.0
 11
152.1798282170726
 21
110.5046569056086
 31
0.0
 11
152.028932527512
 21
110.7656531222576
 31
0.0
 11
151.8592462248213
 21
111.0093949290696
 31
0.0
 11
151.6693316475523
 21
111.2377740117994
 31
0.0
 11
151.463766722467
 21
111.4454044251019
 31
0.0
 11
151.2406245294522
 21
111.6340772176048
 31
0.0
 11
151.0052791223524
 21
111.7993575081985
 31
0.0
 11
150.7557864440042
 21
111.9424645216553
 31
0.0
 11
150.4976404259066
 21
112.0603551350318
 31
0.0
 11
150.2295342997419
 21
112.1534856362209
 31
0.0
 11
149.9562902748692
 21
112.2202939787798
 31
0.0
 11
149.6778907675157
 21
112.2606492229197
 31
0.0
 11
149.5378408993424
 21
112.2707907116908
 31
0.0
 11
149.3977910311692
 21
112.2741712079476
 31
0.0
  0
SPLINE
  5
1D3
330
4A
100
AcDbEntity
  8
1
  6
Continuous
 62
     7
100
AcDbSpline
210
0.0
220
0.0
230
1.0
 70
     8
 71
     3
 72
    45
 73
    41
 74
    39
 42
0.0000000001
 43
0.0000000001
 44
0.00000001
 40
0.0
 40
0.0
 40
0.0
 40
0.0
 40
0.1554027434352812
 40
0.3118336112573253
 40
0.6337527245942667
 40
0.955215409623646
 40
1.304708618144211
 40
1.653628751764372
 40
2.041582639670698
 40
2.429096368529707
 40
2.85974222681425
 40
3.290100527231476
 40
3.762099887411871
 40
4.233920063533283
 40
4.741796489686123
 40
5.249564408820413
 40
5.784945112799834
 40
6.320264111437533
 40
6.872866920237663
 40
7.425441733260056
 40
7.983894704793547
 40
8.542347676327069
 40
9.094922489349434
 40
9.64752529814959
 40
10.18284429678734
 40
10.71822500076678
 40
11.22599291990107
 40
11.73386934605392
 40
12.20568952217525
 40
12.67768888235559
 40
13.1080471827728
 40
13.53869304105736
 40
13.92620676991635
 40
14.31416065782269
 40
14.6630807914429
 40
15.01257399996348
 40
15.33403668499288
 40
15.65595579832978
 40
15.96753396874218
 40
16.27911213915466
 40
16.27911213915466
 40
16.27911213915466
 40
16.27911213915466
 10
131.7168444926423
 20
108.738814100815
 30
0.0
 10
131.7180611082505
 20
108.686994437817
 30
0.0
 10
131.720502388438
 20
108.5830122796543
 30
0.0
 10
131.7474004934338
 20
108.3732007743854
 30
0.0
 10
131.8093299364815
 20
108.1127742959486
 30
0.0
 10
131.9363070754939
 20
107.8058733983788
 30
0.0
 10
132.1075802916313
 20
107.5110718390468
 30
0.0
 10
132.3281458824292
 20
107.2228395314458
 30
0.0
 10
132.5881665501148
 20
106.9518944394585
 30
0.0
 10
132.8943804700892
 20
106.6905210286449
 30
0.0
 10
133.2344364119726
 20
106.4496740463839
 30
0.0
 10
133.6166254391372
 20
106.2222519026958
 30
0.0
 10
134.0268581272456
 20
106.0175737445075
 30
0.0
 10
134.4734288365158
 20
105.8304057621849
 30
0.0
 10
134.9420934934297
 20
105.6676128512425
 30
0.0
 10
135.439591359731
 20
105.5259860878233
 30
0.0
 10
135.9530535856967
 20
105.4099341665647
 30
0.0
 10
136.4864931655001
 20
105.3178634981168
 30
0.0
 10
137.029594143479
 20
105.2521724306895
 30
0.0
 10
137.5829098469067
 20
105.2122194959296
 30
0.0
 10
138.1394607819748
 20
105.1990525624917
 30
0.0
 10
138.6960117170429
 20
105.2122194959292
 30
0.0
 10
139.2493274204707
 20
105.252172430691
 30
0.0
 10
139.7924283984492
 20
105.3178634981115
 30
0.0
 10
140.3258679782539
 20
105.4099341665841
 30
0.0
 10
140.8393302042151
 20
105.5259860877525
 30
0.0
 10
141.3368280705326
 20
105.6676128514918
 30
0.0
 10
141.8054927273878
 20
105.8304057612803
 30
0.0
 10
142.2520634368624
 20
106.0175737476187
 30
0.0
 10
142.6622961242419
 20
106.2222518914852
 30
0.0
 10
143.0444851538987
 20
106.4496740841512
 30
0.0
 10
143.3845410869654
 20
106.6905208931392
 30
0.0
 10
143.6907550367307
 20
106.9518948894289
 30
0.0
 10
143.9507755993095
 20
107.2228379157607
 30
0.0
 10
144.1713415452212
 20
107.5110772023919
 30
0.0
 10
144.3426134991604
 20
107.8058539558172
 30
0.0
 10
144.4695949941579
 20
108.112840461298
 30
0.0
 10
144.5435216675084
 20
108.4234735340122
 30
0.0
 10
144.5729658968759
 20
108.7391488441577
 30
0.0
 10
144.5488252965181
 20
108.9459573475642
 30
0.0
 10
144.5367549963391
 20
109.0493615992674
 30
0.0
 11
131.7168444926423
 21
108.738814100815
 31
0.0
 11
131.7231750113843
 21
108.5835403515859
 31
0.0
 11
131.7421665676106
 21
108.4282666023568
 31
0.0
 11
131.817492802296
 21
108.1152843761845
 31
0.0
 11
131.9388901937602
 21
107.817625290632
 31
0.0
 11
132.1138143106155
 21
107.5150578499772
 31
0.0
 11
132.3248841235725
 21
107.2372183392811
 31
0.0
 11
132.5926604316427
 21
106.9564977166366
 31
0.0
 11
132.8868222636216
 21
106.7042365292514
 31
0.0
 11
133.2376045713261
 21
106.4544213418445
 31
0.0
 11
133.6071118200466
 21
106.2338025305862
 31
0.0
 11
134.0290573696615
 21
106.0222715655458
 31
0.0
 11
134.4640314672504
 21
105.8394825805879
 31
0.0
 11
134.9435697097376
 21
105.6722057494543
 31
0.0
 11
135.4318559056614
 21
105.5329044552312
 31
0.0
 11
135.9539630310796
 21
105.4144280956439
 31
0.0
 11
136.4814575239669
 21
105.3232360440382
 31
0.0
 11
137.0300279346499
 21
105.2565999515896
 31
0.0
 11
137.5811670724288
 21
105.2167932336253
 31
0.0
 11
138.1394607819748
 21
105.2034569936763
 31
0.0
 11
138.6977544915208
 21
105.2167932336254
 31
0.0
 11
139.2488936292996
 21
105.2565999515897
 31
0.0
 11
139.7974640399827
 21
105.3232360440383
 31
0.0
 11
140.3249585328701
 21
105.4144280956439
 31
0.0
 11
140.8470656582883
 21
105.5329044552312
 31
0.0
 11
141.3353518542121
 21
105.6722057494543
 31
0.0
 11
141.8148900966992
 21
105.8394825805879
 31
0.0
 11
142.2498641942881
 21
106.0222715655458
 31
0.0
 11
142.6718097439029
 21
106.2338025305862
 31
0.0
 11
143.0413169926234
 21
106.4544213418444
 31
0.0
 11
143.3920993003279
 21
106.7042365292513
 31
0.0
 11
143.6862611323069
 21
106.9564977166365
 31
0.0
 11
143.9540374403771
 21
107.237218339281
 31
0.0
 11
144.165107253334
 21
107.5150578499772
 31
0.0
 11
144.3400313701894
 21
107.8176252906319
 31
0.0
 11
144.4614287616537
 21
108.1152843761845
 31
0.0
 11
144.536754996339
 21
108.4282666023567
 31
0.0
 11
144.5620770713073
 21
108.738814100812
 31
0.0
 11
144.5367549963391
 21
109.0493615992674
 31
0.0
  0
SPLINE
  5
1D4
330
4A
100
AcDbEntity
  8
1
  6
Continuous
 62
     7
100
AcDbSpline
210
0.0
220
0.0
230
1.0
 70
     8
 71
     3
 72
    43
 73
    39
 74
    37
 42
0.0000000001
 43
0.0000000001
 44
0.00000001
 40
0.0
 40
0.0
 40
0.0
 40
0.0
 40
0.3219191133368513
 40
0.6433817983662078
 40
0.9928750068867949
 40
1.341795140506978
 40
1.729749028413357
 40
2.117262757272387
 40
2.547908615556937
 40
2.978266915974136
 40
3.450266276154486
 40
3.922086452275877
 40
4.429962878428746
 40
4.937730797563048
 40
5.473111501542426
 40
6.008430500180129
 40
6.56103330898027
 40
7.113608122002637
 40
7.67206109353613
 40
8.230514065069624
 40
8.783088878091993
 40
9.335691686892162
 40
9.871010685529834
 40
10.40639138950921
 40
10.91415930864349
 40
11.42203573479633
 40
11.89385591091774
 40
12.36585527109813
 40
12.79621357151535
 40
13.2268594297999
 40
13.61437315865897
 40
14.00232704656532
 40
14.35124718018544
 40
14.70074038870597
 40
15.02220307373536
 40
15.34412218707223
 40
15.50055305489135
 40
15.65595579832372
 40
15.65595579832372
 40
15.65595579832372
 40
15.65595579832372
 10
144.5367549963391
 20
109.0493615992674
 30
0.0
 10
144.5150309793898
 20
109.1546805249272
 30
0.0
 10
144.4716137465708
 20
109.365169051348
 30
0.0
 10
144.3420202926199
 20
109.6716621982914
 30
0.0
 10
144.1715051847351
 20
109.9665819081984
 30
0.0
 10
143.9507263035968
 20
110.2547809746677
 30
0.0
 10
143.6907687656566
 20
110.5257359053764
 30
0.0
 10
143.3845369525876
 20
110.7871065275651
 30
0.0
 10
143.0444863062087
 20
111.0279543351264
 30
0.0
 10
142.6622957822031
 20
111.2553762455331
 30
0.0
 10
142.2520635317847
 20
111.4600544719349
 30
0.0
 10
141.8054926997884
 20
111.6472224351307
 30
0.0
 10
141.3368280781412
 20
111.8100153515693
 30
0.0
 10
140.8393302020528
 20
111.9516421134631
 30
0.0
 10
140.3258679788455
 20
112.0676940351519
 30
0.0
 10
139.792428398285
 20
112.1597647034815
 30
0.0
 10
139.2493274205153
 20
112.2254557709413
 30
0.0
 10
138.6960117170308
 20
112.2654087056924
 30
0.0
 10
138.139460781978
 20
112.2785756391329
 30
0.0
 10
137.5829098469059
 20
112.2654087056942
 30
0.0
 10
137.0295941434792
 20
112.2254557709343
 30
0.0
 10
136.4864931655
 20
112.1597647035072
 30
0.0
 10
135.9530535856967
 20
112.0676940350595
 30
0.0
 10
135.439591359731
 20
111.9516421138007
 30
0.0
 10
134.9420934934298
 20
111.8100153503815
 30
0.0
 10
134.4734288365159
 20
111.6472224394392
 30
0.0
 10
134.0268581272456
 20
111.4600544571167
 30
0.0
 10
133.6166254391372
 20
111.2553762989285
 30
0.0
 10
133.2344364119727
 20
111.0279541552403
 30
0.0
 10
132.8943804700892
 20
110.7871071729791
 30
0.0
 10
132.5881665501148
 20
110.5257337621657
 30
0.0
 10
132.3281458824293
 20
110.2547886701782
 30
0.0
 10
132.1075802916314
 20
109.9665563625772
 30
0.0
 10
131.936307075494
 20
109.6717548032453
 30
0.0
 10
131.8093299364815
 20
109.3648539056755
 30
0.0
 10
131.747400493434
 20
109.1044274272397
 30
0.0
 10
131.7205023884382
 20
108.8946159219728
 30
0.0
 10
131.7180611082507
 20
108.7906337638121
 30
0.0
 10
131.7168444926423
 20
108.738814100815
 30
0.0
 11
144.5367549963391
 21
109.0493615992674
 31
0.0
 11
144.4614287616538
 21
109.3623438254396
 31
0.0
 11
144.3400313701894
 21
109.6600029109921
 31
0.0
 11
144.1651072533339
 21
109.9625703516468
 31
0.0
 11
143.954037440377
 21
110.2404098623429
 31
0.0
 11
143.6862611323069
 21
110.5211304849876
 31
0.0
 11
143.3920993003279
 21
110.7733916723728
 31
0.0
 11
143.0413169926234
 21
111.0232068597797
 31
0.0
 11
142.6718097439029
 21
111.243825671038
 31
0.0
 11
142.2498641942881
 21
111.4553566360783
 31
0.0
 11
141.8148900966992
 21
111.6381456210361
 31
0.0
 11
141.335351854212
 21
111.8054224521697
 31
0.0
 11
140.8470656582882
 21
111.9447237463928
 31
0.0
 11
140.32495853287
 21
112.0632001059802
 31
0.0
 11
139.7974640399827
 21
112.1543921575857
 31
0.0
 11
139.2488936292996
 21
112.2210282500342
 31
0.0
 11
138.6977544915208
 21
112.2608349679985
 31
0.0
 11
138.1394607819748
 21
112.2741712079476
 31
0.0
 11
137.5811670724288
 21
112.2608349679985
 31
0.0
 11
137.03002793465
 21
112.2210282500342
 31
0.0
 11
136.4814575239669
 21
112.1543921575857
 31
0.0
 11
135.9539630310796
 21
112.0632001059802
 31
0.0
 11
135.4318559056615
 21
111.9447237463928
 31
0.0
 11
134.9435697097377
 21
111.8054224521696
 31
0.0
 11
134.4640314672505
 21
111.6381456210361
 31
0.0
 11
134.0290573696615
 21
111.4553566360783
 31
0.0
 11
133.6071118200467
 21
111.243825671038
 31
0.0
 11
133.2376045713262
 21
111.0232068597797
 31
0.0
 11
132.8868222636217
 21
110.7733916723728
 31
0.0
 11
132.5926604316427
 21
110.5211304849875
 31
0.0
 11
132.3248841235725
 21
110.2404098623429
 31
0.0
 11
132.1138143106156
 21
109.9625703516469
 31
0.0
 11
131.9388901937603
 21
109.6600029109921
 31
0.0
 11
131.817492802296
 21
109.3623438254396
 31
0.0
 11
131.7421665676106
 21
109.0493615992674
 31
0.0
 11
131.7231750113845
 21
108.8940878500412
 31
0.0
 11
131.7168444926423
 21
108.738814100815
 31
0.0
  0
SPLINE
  5
1D5
330
4A
100
AcDbEntity
  8
1
  6
Continuous
 62
     7
100
AcDbSpline
210
0.0
220
0.0
230
1.0
 70
    11
 71
     3
 72
    79
 73
    75
 74
    73
 42
0.0000000001
 43
0.0000000001
 44
0.00000001
 40
0.0
 40
0.0
 40
0.0
 40
0.0
 40
0.3142650659705819
 40
0.6282865583860364
 40
0.9611940750941197
 40
1.293759071489166
 40
1.653345631090512
 40
2.012624930760473
 40
2.402527484666763
 40
2.792202156791381
 40
3.212046604561998
 40
3.631735870026511
 40
4.077938487430331
 40
4.524041249095205
 40
4.990653914337291
 40
5.457207554045762
 40
5.936678586743413
 40
6.416122255863948
 40
6.899971960151102
 40
7.38382166443827
 40
7.863265333558837
 40
8.342736366256496
 40
8.809290005964938
 40
9.275902671206993
 40
9.722005432871866
 40
10.16820805027571
 40
10.58789731574024
 40
11.00774176351091
 40
11.39741643563554
 40
11.7873189895418
 40
12.14659828921175
 40
12.50618484881313
 40
12.83874984520816
 40
13.17165736191625
 40
13.4856788543317
 40
13.79994392030226
 40
14.10737582563224
 40
14.41480773096223
 40
14.72907279693279
 40
15.04309428934823
 40
15.37600180605632
 40
15.70856680245136
 40
16.06815336205275
 40
16.42743266172273
 40
16.81733521562904
 40
17.20700988775368
 40
17.62685433552432
 40
18.04654360098885
 40
18.49274621839268
 40
18.93884898005755
 40
19.40546164529962
 40
19.87201528500806
 40
20.35148631770572
 40
20.83092998682628
 40
21.31477969111345
 40
21.79862939540062
 40
22.27807306452117
 40
22.7575440972188
 40
23.22409773692728
 40
23.69071040216937
 40
24.13681316383422
 40
24.58301578123804
 40
25.00270504670255
 40
25.42254949447318
 40
25.81222416659783
 40
26.2021267205041
 40
26.56140602017406
 40
26.92099257977544
 40
27.2535575761705
 40
27.58646509287856
 40
27.90048658529404
 40
28.2147516512646
 40
28.52218355659456
 40
28.82961546192456
 40
28.82961546192456
 40
28.82961546192456
 40
28.82961546192456
 10
46.67855389892954
 20
109.0098728533211
 30
0.0
 10
46.69714643460813
 20
109.1131402318757
 30
0.0
 10
46.73431709567761
 20
109.3195949508092
 30
0.0
 10
46.84526375256007
 20
109.621667156615
 30
0.0
 10
46.99232878717202
 20
109.9138494027862
 30
0.0
 10
47.18248369687051
 20
110.1986916415222
 30
0.0
 10
47.40761845254531
 20
110.4681205969552
 30
0.0
 10
47.67225474261202
 20
110.7269067845769
 30
0.0
 10
47.96731481062065
 20
110.9665737158873
 30
0.0
 10
48.29808095766363
 20
111.1919021697767
 30
0.0
 10
48.65414802686735
 20
111.3954565906801
 30
0.0
 10
49.04088111593328
 20
111.5809407806895
 30
0.0
 10
49.44755430274764
 20
111.7427036963485
 30
0.0
 10
49.87853045816024
 20
111.8830651379505
 30
0.0
 10
50.32390389413916
 20
111.9983030925768
 30
0.0
 10
50.78611675851154
 20
112.0895524511491
 30
0.0
 10
51.25703514106473
 20
112.1547571128554
 30
0.0
 10
51.73656657851593
 20
112.1943458563644
 30
0.0
 10
52.21901164807619
 20
112.2074308755304
 30
0.0
 10
52.70145671765164
 20
112.1943458563656
 30
0.0
 10
53.18098815505775
 20
112.1547571128504
 30
0.0
 10
53.65190653777448
 20
112.0895524511673
 30
0.0
 10
54.1141194015531
 20
111.9983030925108
 30
0.0
 10
54.55949283970289
 20
111.8830651381922
 30
0.0
 10
54.99046898735393
 20
111.7427036954899
 30
0.0
 10
55.3971422022962
 20
111.5809407838182
 30
0.0
 10
55.78387519232656
 20
111.3954565797707
 30
0.0
 10
56.13994261769234
 20
111.1919022093523
 30
0.0
 10
56.47070752618944
 20
110.9665735799024
 30
0.0
 10
56.76577202600149
 20
110.7269072767877
 30
0.0
 10
57.03039300591023
 20
110.4681189189941
 30
0.0
 10
57.25558253401164
 20
110.1986977273993
 30
0.0
 10
57.4455475311767
 20
109.9138285690926
 30
0.0
 10
57.59329694586369
 20
109.6217433318839
 30
0.0
 10
57.7018259312637
 20
109.3193284279043
 30
0.0
 10
57.76603758408213
 20
109.013106552547
 30
0.0
 10
57.78863886891655
 20
108.703207120162
 30
0.0
 10
57.76603758408214
 20
108.3933076877771
 30
0.0
 10
57.70182593126368
 20
108.0870858124197
 30
0.0
 10
57.59329694586364
 20
107.7846709084402
 30
0.0
 10
57.44554753117663
 20
107.4925856712314
 30
0.0
 10
57.25558253401167
 20
107.2077165129247
 30
0.0
 10
57.03039300591021
 20
106.93829532133
 30
0.0
 10
56.76577202600146
 20
106.6795069635362
 30
0.0
 10
56.47070752618937
 20
106.4398406604216
 30
0.0
 10
56.13994261769234
 20
106.2145120309717
 30
0.0
 10
55.78387519232663
 20
106.0109576605531
 30
0.0
 10
55.39714220229618
 20
105.8254734565058
 30
0.0
 10
54.99046898735391
 20
105.6637105448341
 30
0.0
 10
54.55949283970284
 20
105.5233491021319
 30
0.0
 10
54.11411940155311
 20
105.4081111478132
 30
0.0
 10
53.65190653777442
 20
105.3168617891566
 30
0.0
 10
53.18098815505792
 20
105.2516571274734
 30
0.0
 10
52.70145671765102
 20
105.2120683839582
 30
0.0
 10
52.21901164807856
 20
105.198983364794
 30
0.0
 10
51.73656657850717
 20
105.2120683839581
 30
0.0
 10
51.25703514109705
 20
105.2516571274738
 30
0.0
 10
50.78611675839219
 20
105.3168617891553
 30
0.0
 10
50.32390389457135
 20
105.408111147818
 30
0.0
 10
49.8785304565757
 20
105.5233491021147
 30
0.0
 10
49.44755430837355
 20
105.6637105448951
 30
0.0
 10
49.04088109542848
 20
105.8254734562837
 30
0.0
 10
48.65414809836627
 20
106.0109576613278
 30
0.0
 10
48.29808069828904
 20
106.2145120281617
 30
0.0
 10
47.96731570185174
 20
106.439840670077
 30
0.0
 10
47.6722515167103
 20
106.6795069285879
 30
0.0
 10
47.40762944973685
 20
106.9382954404699
 30
0.0
 10
47.18244381063345
 20
107.2077160808101
 30
0.0
 10
46.99246532913861
 20
107.4925871504829
 30
0.0
 10
46.84476450738274
 20
107.7846654997795
 30
0.0
 10
46.73606386043369
 20
108.0871047363037
 30
0.0
 10
46.67248077584884
 20
108.3932375138712
 30
0.0
 10
46.64758128547769
 20
108.7034627104661
 30
0.0
 10
46.66822969444559
 20
108.9077361390361
 30
0.0
 10
46.67855389892954
 20
109.0098728533211
 30
0.0
 11
46.67855389892954
 21
109.0098728533211
 31
0.0
 11
46.74317582398459
 21
109.3174220989578
 31
0.0
 11
46.84837578317588
 21
109.6132978605284
 31
0.0
 11
46.99826945014841
 21
109.9105507886591
 31
0.0
 11
47.18204359670059
 21
110.1877267975167
 31
0.0
 11
47.41210070787241
 21
110.4640892758766
 31
0.0
 11
47.66846204653368
 21
110.7158043513312
 31
0.0
 11
47.97062792794146
 21
110.9622181935879
 31
0.0
 11
48.29236839595129
 21
111.1820577290229
 31
0.0
 11
48.65652677824792
 21
111.3910027766476
 31
0.0
 11
49.03477328873444
 21
111.5728506714688
 31
0.0
 11
49.44918751437205
 21
111.7382520782561
 31
0.0
 11
49.87328147108953
 21
111.8766427926872
 31
0.0
 11
50.32492463117777
 21
111.9938854270393
 31
0.0
 11
50.78261774013311
 21
112.0843802707599
 31
0.0
 11
51.25752592388491
 21
112.1503703321458
 31
0.0
 11
51.73534260913134
 21
112.189834837209
 31
0.0
 11
52.21901164807873
 21
112.2030559227345
 31
0.0
 11
52.70268068702613
 21
112.189834837209
 31
0.0
 11
53.18049737227258
 21
112.1503703321458
 31
0.0
 11
53.6554055560244
 21
112.0843802707599
 31
0.0
 11
54.1130986649797
 21
111.9938854270393
 31
0.0
 11
54.56474182506791
 21
111.8766427926871
 31
0.0
 11
54.98883578178538
 21
111.738252078256
 31
0.0
 11
55.40325000742304
 21
111.5728506714688
 31
0.0
 11
55.7814965179096
 21
111.3910027766476
 31
0.0
 11
56.14565490020625
 21
111.1820577290228
 31
0.0
 11
56.46739536821609
 21
110.9622181935879
 31
0.0
 11
56.76956124962386
 21
110.7158043513312
 31
0.0
 11
57.02592258828516
 21
110.4640892758766
 31
0.0
 11
57.25597969945699
 21
110.1877267975167
 31
0.0
 11
57.43975384600918
 21
109.9105507886591
 31
0.0
 11
57.58964751298173
 21
109.6132978605284
 31
0.0
 11
57.69484747217298
 21
109.3174220989578
 31
0.0
 11
57.75946939722797
 21
109.0098728533211
 31
0.0
 11
57.78116051340064
 21
108.703207120162
 31
0.0
 11
57.75946939722797
 21
108.3965413870029
 31
0.0
 11
57.69484747217298
 21
108.0889921413663
 31
0.0
 11
57.5896475129817
 21
107.7931163797957
 31
0.0
 11
57.43975384600913
 21
107.495863451665
 31
0.0
 11
57.25597969945699
 21
107.2186874428074
 31
0.0
 11
57.02592258828516
 21
106.9423249644474
 31
0.0
 11
56.76956124962383
 21
106.6906098889928
 31
0.0
 11
56.46739536821603
 21
106.4441960467361
 31
0.0
 11
56.14565490020624
 21
106.2243565113011
 31
0.0
 11
55.78149651790963
 21
106.0154114636762
 31
0.0
 11
55.40325000742304
 21
105.8335635688551
 31
0.0
 11
54.98883578178536
 21
105.668162162068
 31
0.0
 11
54.56474182506788
 21
105.529771447637
 31
0.0
 11
54.11309866497968
 21
105.4125288132847
 31
0.0
 11
53.65540555602439
 21
105.322033969564
 31
0.0
 11
53.18049737227258
 21
105.2560439081781
 31
0.0
 11
52.70268068702614
 21
105.2165794031149
 31
0.0
 11
52.21901164807873
 21
105.2033583175894
 31
0.0
 11
51.73534260913132
 21
105.2165794031149
 31
0.0
 11
51.25752592388488
 21
105.2560439081781
 31
0.0
 11
50.78261774013311
 21
105.322033969564
 31
0.0
 11
50.32492463117778
 21
105.4125288132847
 31
0.0
 11
49.87328147108955
 21
105.5297714476369
 31
0.0
 11
49.44918751437209
 21
105.668162162068
 31
0.0
 11
49.03477328873444
 21
105.8335635688551
 31
0.0
 11
48.65652677824789
 21
106.0154114636763
 31
0.0
 11
48.29236839595127
 21
106.2243565113011
 31
0.0
 11
47.97062792794146
 21
106.4441960467361
 31
0.0
 11
47.66846204653369
 21
106.6906098889928
 31
0.0
 11
47.41210070787241
 21
106.9423249644474
 31
0.0
 11
47.1820435967006
 21
107.2186874428074
 31
0.0
 11
46.99826945014843
 21
107.495863451665
 31
0.0
 11
46.8483757831759
 21
107.7931163797957
 31
0.0
 11
46.74317582398462
 21
108.0889921413663
 31
0.0
 11
46.67855389892955
 21
108.3965413870029
 31
0.0
 11
46.65686278275683
 21
108.703207120162
 31
0.0
 11
46.67855389892954
 21
109.0098728533211
 31
0.0
  0
SPLINE
  5
1D6
330
4A
100
AcDbEntity
  8
1
  6
Continuous
 62
     7
100
AcDbSpline
210
0.0
220
0.0
230
1.0
 70
    11
 71
     3
 72
    79
 73
    75
 74
    73
 42
0.0000000001
 43
0.0000000001
 44
0.00000001
 40
0.0
 40
0.0
 40
0.0
 40
0.0
 40
0.3142650659705834
 40
0.6282865583860379
 40
0.9611940750941179
 40
1.29375907148916
 40
1.653345631090497
 40
2.012624930760479
 40
2.402527484666769
 40
2.792202156791393
 40
3.212046604562004
 40
3.631735870026497
 40
4.077938487430338
 40
4.524041249095204
 40
4.990653914337304
 40
5.457207554045774
 40
5.936678586743412
 40
6.416122255863947
 40
6.899971960151108
 40
7.383821664438269
 40
7.863265333558836
 40
8.342736366256494
 40
8.809290005964936
 40
9.275902671206984
 40
9.722005432871885
 40
10.16820805027571
 40
10.58789731574023
 40
11.0077417635109
 40
11.39741643563554
 40
11.7873189895418
 40
12.14659828921175
 40
12.50618484881313
 40
12.83874984520817
 40
13.17165736191624
 40
13.48567885433169
 40
13.79994392030226
 40
14.10737582563224
 40
14.41480773096223
 40
14.72907279693278
 40
15.04309428934823
 40
15.37600180605632
 40
15.70856680245136
 40
16.06815336205274
 40
16.42743266172273
 40
16.81733521562904
 40
17.20700988775368
 40
17.62685433552433
 40
18.04654360098885
 40
18.49274621839269
 40
18.93884898005755
 40
19.40546164529962
 40
19.87201528500807
 40
20.35148631770571
 40
20.83092998682627
 40
21.31477969111345
 40
21.79862939540061
 40
22.27807306452117
 40
22.75754409721882
 40
23.22409773692728
 40
23.69071040216936
 40
24.13681316383424
 40
24.58301578123803
 40
25.00270504670256
 40
25.42254949447317
 40
25.81222416659783
 40
26.2021267205041
 40
26.56140602017407
 40
26.92099257977543
 40
27.25355757617049
 40
27.58646509287854
 40
27.90048658529403
 40
28.21475165126459
 40
28.52218355659456
 40
28.82961546192455
 40
28.82961546192455
 40
28.82961546192455
 40
28.82961546192455
 10
70.75946939722812
 20
109.0098728533211
 30
0.0
 10
70.74087686154952
 20
109.1131402318757
 30
0.0
 10
70.70370620048003
 20
109.3195949508093
 30
0.0
 10
70.59275954359757
 20
109.6216671566151
 30
0.0
 10
70.44569450898565
 20
109.9138494027862
 30
0.0
 10
70.25553959928713
 20
110.1986916415222
 30
0.0
 10
70.03040484361236
 20
110.4681205969552
 30
0.0
 10
69.76576855354566
 20
110.7269067845769
 30
0.0
 10
69.47070848553695
 20
110.9665737158872
 30
0.0
 10
69.13994233849402
 20
111.1919021697767
 30
0.0
 10
68.78387526929029
 20
111.3954565906802
 30
0.0
 10
68.39714218022436
 20
111.5809407806895
 30
0.0
 10
67.99046899341001
 20
111.7427036963484
 30
0.0
 10
67.55949283799743
 20
111.8830651379505
 30
0.0
 10
67.11411940201847
 20
111.9983030925768
 30
0.0
 10
66.65190653764611
 20
112.0895524511492
 30
0.0
 10
66.18098815509289
 20
112.1547571128553
 30
0.0
 10
65.70145671764173
 20
112.1943458563644
 30
0.0
 10
65.21901164808146
 20
112.2074308755304
 30
0.0
 10
64.736566578506
 20
112.1943458563656
 30
0.0
 10
64.25703514109989
 20
112.1547571128504
 30
0.0
 10
63.78611675838319
 20
112.0895524511674
 30
0.0
 10
63.32390389460456
 20
111.9983030925108
 30
0.0
 10
62.87853045645477
 20
111.8830651381921
 30
0.0
 10
62.4475543088037
 20
111.74270369549
 30
0.0
 10
62.04088109386149
 20
111.5809407838181
 30
0.0
 10
61.65414810383108
 20
111.3954565797707
 30
0.0
 10
61.29808067846533
 20
111.1919022093522
 30
0.0
 10
60.96731576996823
 20
110.9665735799024
 30
0.0
 10
60.67225127015615
 20
110.7269072767878
 30
0.0
 10
60.40763029024744
 20
110.468118918994
 30
0.0
 10
60.18244076214605
 20
110.1986977273994
 30
0.0
 10
59.99247576498092
 20
109.9138285690926
 30
0.0
 10
59.844726350294
 20
109.621743331884
 30
0.0
 10
59.73619736489394
 20
109.3193284279043
 30
0.0
 10
59.67198571207554
 20
109.013106552547
 30
0.0
 10
59.64938442724109
 20
108.7032071201621
 30
0.0
 10
59.67198571207551
 20
108.3933076877771
 30
0.0
 10
59.73619736489396
 20
108.0870858124197
 30
0.0
 10
59.84472635029401
 20
107.7846709084401
 30
0.0
 10
59.99247576498099
 20
107.4925856712315
 30
0.0
 10
60.18244076214602
 20
107.2077165129247
 30
0.0
 10
60.40763029024743
 20
106.93829532133
 30
0.0
 10
60.67225127015621
 20
106.6795069635363
 30
0.0
 10
60.96731576996824
 20
106.4398406604216
 30
0.0
 10
61.29808067846532
 20
106.2145120309716
 30
0.0
 10
61.65414810383103
 20
106.0109576605531
 30
0.0
 10
62.0408810938615
 20
105.8254734565058
 30
0.0
 10
62.44755430880372
 20
105.6637105448341
 30
0.0
 10
62.87853045645483
 20
105.5233491021319
 30
0.0
 10
63.32390389460453
 20
105.4081111478132
 30
0.0
 10
63.78611675838321
 20
105.3168617891565
 30
0.0
 10
64.25703514109972
 20
105.2516571274735
 30
0.0
 10
64.73656657850661
 20
105.2120683839582
 30
0.0
 10
65.21901164807912
 20
105.198983364794
 30
0.0
 10
65.70145671765046
 20
105.2120683839581
 30
0.0
 10
66.18098815506062
 20
105.2516571274738
 30
0.0
 10
66.65190653776547
 20
105.3168617891552
 30
0.0
 10
67.11411940158632
 20
105.4081111478179
 30
0.0
 10
67.55949283958196
 20
105.5233491021147
 30
0.0
 10
67.99046898778413
 20
105.6637105448951
 30
0.0
 10
68.39714220072916
 20
105.8254734562837
 30
0.0
 10
68.78387519779136
 20
106.0109576613277
 30
0.0
 10
69.13994259786861
 20
106.2145120281617
 30
0.0
 10
69.47070759430591
 20
106.4398406700769
 30
0.0
 10
69.76577177944735
 20
106.6795069285879
 30
0.0
 10
70.03039384642079
 20
106.93829544047
 30
0.0
 10
70.25557948552421
 20
107.2077160808101
 30
0.0
 10
70.44555796701903
 20
107.4925871504829
 30
0.0
 10
70.59325878877488
 20
107.7846654997795
 30
0.0
 10
70.70195943572398
 20
108.0871047363038
 30
0.0
 10
70.76554252030881
 20
108.3932375138712
 30
0.0
 10
70.79044201067995
 20
108.7034627104661
 30
0.0
 10
70.76979360171208
 20
108.9077361390361
 30
0.0
 10
70.75946939722812
 20
109.0098728533211
 30
0.0
 11
70.75946939722812
 21
109.0098728533211
 31
0.0
 11
70.69484747217305
 21
109.3174220989578
 31
0.0
 11
70.58964751298177
 21
109.6132978605284
 31
0.0
 11
70.43975384600924
 21
109.9105507886591
 31
0.0
 11
70.25597969945707
 21
110.1877267975167
 31
0.0
 11
70.02592258828527
 21
110.4640892758766
 31
0.0
 11
69.76956124962396
 21
110.7158043513312
 31
0.0
 11
69.46739536821619
 21
110.9622181935879
 31
0.0
 11
69.14565490020635
 21
111.1820577290229
 31
0.0
 11
68.78149651790973
 21
111.3910027766476
 31
0.0
 11
68.40325000742323
 21
111.5728506714688
 31
0.0
 11
67.9888357817856
 21
111.7382520782561
 31
0.0
 11
67.56474182506813
 21
111.8766427926872
 31
0.0
 11
67.11309866497987
 21
111.9938854270393
 31
0.0
 11
66.65540555602453
 21
112.0843802707599
 31
0.0
 11
66.18049737227274
 21
112.1503703321458
 31
0.0
 11
65.70268068702632
 21
112.189834837209
 31
0.0
 11
65.21901164807892
 21
112.2030559227345
 31
0.0
 11
64.73534260913152
 21
112.189834837209
 31
0.0
 11
64.25752592388507
 21
112.1503703321458
 31
0.0
 11
63.78261774013325
 21
112.0843802707599
 31
0.0
 11
63.32492463117795
 21
111.9938854270393
 31
0.0
 11
62.87328147108975
 21
111.8766427926871
 31
0.0
 11
62.44918751437225
 21
111.738252078256
 31
0.0
 11
62.03477328873462
 21
111.5728506714688
 31
0.0
 11
61.65652677824808
 21
111.3910027766476
 31
0.0
 11
61.29236839595141
 21
111.1820577290228
 31
0.0
 11
60.97062792794156
 21
110.9622181935879
 31
0.0
 11
60.6684620465338
 21
110.7158043513312
 31
0.0
 11
60.4121007078725
 21
110.4640892758766
 31
0.0
 11
60.18204359670067
 21
110.1877267975167
 31
0.0
 11
59.99826945014846
 21
109.9105507886591
 31
0.0
 11
59.84837578317593
 21
109.6132978605284
 31
0.0
 11
59.74317582398467
 21
109.3174220989578
 31
0.0
 11
59.67855389892969
 21
109.0098728533211
 31
0.0
 11
59.65686278275701
 21
108.703207120162
 31
0.0
 11
59.67855389892968
 21
108.3965413870029
 31
0.0
 11
59.74317582398467
 21
108.0889921413663
 31
0.0
 11
59.84837578317596
 21
107.7931163797957
 31
0.0
 11
59.99826945014851
 21
107.495863451665
 31
0.0
 11
60.18204359670067
 21
107.2186874428074
 31
0.0
 11
60.41210070787248
 21
106.9423249644474
 31
0.0
 11
60.66846204653382
 21
106.6906098889928
 31
0.0
 11
60.97062792794161
 21
106.4441960467361
 31
0.0
 11
61.29236839595141
 21
106.2243565113011
 31
0.0
 11
61.65652677824802
 21
106.0154114636762
 31
0.0
 11
62.03477328873461
 21
105.8335635688551
 31
0.0
 11
62.44918751437229
 21
105.668162162068
 31
0.0
 11
62.87328147108977
 21
105.529771447637
 31
0.0
 11
63.32492463117796
 21
105.4125288132847
 31
0.0
 11
63.78261774013326
 21
105.322033969564
 31
0.0
 11
64.25752592388506
 21
105.2560439081781
 31
0.0
 11
64.73534260913151
 21
105.2165794031149
 31
0.0
 11
65.21901164807892
 21
105.2033583175894
 31
0.0
 11
65.70268068702632
 21
105.2165794031149
 31
0.0
 11
66.18049737227277
 21
105.2560439081781
 31
0.0
 11
66.65540555602456
 21
105.322033969564
 31
0.0
 11
67.11309866497987
 21
105.4125288132847
 31
0.0
 11
67.5647418250681
 21
105.5297714476369
 31
0.0
 11
67.98883578178558
 21
105.668162162068
 31
0.0
 11
68.4032500074232
 21
105.8335635688551
 31
0.0
 11
68.78149651790976
 21
106.0154114636763
 31
0.0
 11
69.14565490020637
 21
106.2243565113011
 31
0.0
 11
69.46739536821619
 21
106.4441960467361
 31
0.0
 11
69.76956124962396
 21
106.6906098889928
 31
0.0
 11
70.02592258828526
 21
106.9423249644474
 31
0.0
 11
70.25597969945706
 21
107.2186874428074
 31
0.0
 11
70.43975384600921
 21
107.495863451665
 31
0.0
 11
70.58964751298174
 21
107.7931163797957
 31
0.0
 11
70.69484747217304
 21
108.0889921413663
 31
0.0
 11
70.75946939722812
 21
108.3965413870029
 31
0.0
 11
70.78116051340082
 21
108.703207120162
 31
0.0
 11
70.75946939722812
 21
109.0098728533211
 31
0.0
  0
ENDBLK
  5
4C
330
4A
100
AcDbEntity
  8
0
100
AcDbBlockEnd
  0
BLOCK
  5
4E
330
4D
100
AcDbEntity
  8
0
100
AcDbBlockBegin
  2
36-1A-13-M4
 70
     0
 71
     0
 10
75.26104351578678
 20
29.85412541772163
 30
0.0
  3
36-1A-13-M4
  1

  0
LINE
  5
1D7
330
4D
100
AcDbEntity
  8
1
  6
Continuous
 62
     7
100
AcDbLine
 10
52.9525927582384
 20
83.27376570549143
 30
0.0
 11
64.48515535290919
 21
83.27376570549143
 31
0.0
  0
LINE
  5
1D8
330
4D
100
AcDbEntity
  8
1
  6
Continuous
 62
     7
100
AcDbLine
 10
133.3894607819748
 20
119.2034569936763
 30
0.0
 11
133.3894607819748
 21
122.2737657054914
 31
0.0
  0
LINE
  5
1D9
330
4D
100
AcDbEntity
  8
1
  6
Continuous
 62
     7
100
AcDbLine
 10
142.8894607819748
 20
122.2737657054914
 30
0.0
 11
142.8894607819748
 21
119.2034569936763
 31
0.0
  0
LINE
  5
1DA
330
4D
100
AcDbEntity
  8
1
  6
Continuous
 62
     7
100
AcDbLine
 10
53.96887405557371
 20
119.2034569936763
 30
0.0
 11
53.96887405557371
 21
122.2737657054914
 31
0.0
  0
LINE
  5
1DB
330
4D
100
AcDbEntity
  8
1
  6
Continuous
 62
     7
100
AcDbLine
 10
63.46887405557382
 20
122.2737657054914
 30
0.0
 11
63.46887405557382
 21
119.2034569936763
 31
0.0
  0
ENDBLK
  5
4F
330
4D
100
AcDbEntity
  8
0
100
AcDbBlockEnd
  0
BLOCK
  5
54
330
50
100
AcDbEntity
  8
0
100
AcDbBlockBegin
  2
R10A-13
 70
     0
 71
     0
 10
123.6394607819748
 20
88.27376570549143
 30
0.0
  3
R10A-13
  1

  0
INSERT
  5
51
330
50
100
AcDbEntity
  8
1
100
AcDbBlockReference
  2
R20F
 10
131.1394607819748
 20
121.7737657054914
 30
0.0
  0
INSERT
  5
52
330
50
100
AcDbEntity
  8
1
100
AcDbBlockReference
  2
37-1-13
 10
331.507973527418
 20
78.3598065986412
 30
0.0
  0
INSERT
  5
53
330
50
100
AcDbEntity
  8
1
100
AcDbBlockReference
  2
36-1A-13-M4
 10
75.26104351578678
 20
29.85412541772163
 30
0.0
  0
ENDBLK
  5
55
330
50
100
AcDbEntity
  8
0
100
AcDbBlockEnd
  0
BLOCK
  5
203
330
1FC
100
AcDbEntity
  8
0
100
AcDbBlockBegin
  2
*D010
 70
     1
 71
     0
 10
0.0
 20
0.0
 30
0.0
  3
*D010
  1

  0
LINE
  5
1FD
330
1FC
100
AcDbEntity
  8
1
  6
Continuous
 62
     2
100
AcDbLine
 10
108.1394607819748
 20
55.26265870656113
 30
0.0
 11
138.1394607819748
 21
55.26265870656113
 31
0.0
  0
LINE
  5
1FE
330
1FC
100
AcDbEntity
  8
1
  6
Continuous
 62
     2
100
AcDbLine
 10
108.1394607819748
 20
70.93576570549141
 30
0.0
 11
108.1394607819748
 21
54.26265870656113
 31
0.0
  0
LINE
  5
1FF
330
1FC
100
AcDbEntity
  8
1
  6
Continuous
 62
     2
100
AcDbLine
 10
138.1394607819748
 20
64.77376570549143
 30
0.0
 11
138.1394607819748
 21
54.26265870656113
 31
0.0
  0
SOLID
  5
200
330
1FC
100
AcDbEntity
  8
1
 62
     2
100
AcDbTrace
 10
111.6394607819748
 20
55.72344244811702
 30
0.0
 11
111.6394607819748
 21
54.80187496500525
 31
0.0
 12
108.1394607819748
 22
55.26265870656113
 32
0.0
 13
108.1394607819748
 23
55.26265870656113
 33
0.0
  0
SOLID
  5
201
330
1FC
100
AcDbEntity
  8
1
 62
     2
100
AcDbTrace
 10
134.6394607819748
 20
54.80187496500525
 30
0.0
 11
134.6394607819748
 21
55.72344244811702
 31
0.0
 12
138.1394607819748
 22
55.26265870656113
 32
0.0
 13
138.1394607819748
 23
55.26265870656113
 33
0.0
  0
MTEXT
  5
202
330
1FC
100
AcDbEntity
  8
1
 62
     7
100
AcDbMText
 10
119.885637626839
 20
56.26265870656113
 30
0.0
 40
3.5
 41
0.0
 71
     7
 72
     1
  1
30
  7
CONVERTER_2
 11
0.9999999999970621
 21
2.424068405545307E-6
 31
0.0
 73
     1
 44
0.60024009603842
  0
ENDBLK
  5
204
330
1FC
100
AcDbEntity
  8
0
100
AcDbBlockEnd
  0
BLOCK
  5
20E
330
207
100
AcDbEntity
  8
0
100
AcDbBlockBegin
  2
*D111
 70
     1
 71
     0
 10
0.0
 20
0.0
 30
0.0
  3
*D111
  1

  0
LINE
  5
208
330
207
100
AcDbEntity
  8
1
  6
Continuous
 62
     2
100
AcDbLine
 10
138.1394607819748
 20
55.26265870656118
 30
0.0
 11
173.1394607819748
 21
55.26265870656118
 31
0.0
  0
LINE
  5
209
330
207
100
AcDbEntity
  8
1
  6
Continuous
 62
     2
100
AcDbLine
 10
138.1394607819748
 20
64.77376570549143
 30
0.0
 11
138.1394607819748
 21
54.26265870656118
 31
0.0
  0
LINE
  5
20A
330
207
100
AcDbEntity
  8
1
  6
Continuous
 62
     2
100
AcDbLine
 10
173.1394607819748
 20
67.52376570549143
 30
0.0
 11
173.1394607819748
 21
54.26265870656118
 31
0.0
  0
SOLID
  5
20B
330
207
100
AcDbEntity
  8
1
 62
     2
100
AcDbTrace
 10
141.6394607819748
 20
55.72344244811707
 30
0.0
 11
141.6394607819748
 21
54.8018749650053
 31
0.0
 12
138.1394607819748
 22
55.26265870656118
 32
0.0
 13
138.1394607819748
 23
55.26265870656118
 33
0.0
  0
SOLID
  5
20C
330
207
100
AcDbEntity
  8
1
 62
     2
100
AcDbTrace
 10
169.6394607819748
 20
54.8018749650053
 30
0.0
 11
169.6394607819748
 21
55.72344244811707
 31
0.0
 12
173.1394607819748
 22
55.26265870656118
 32
0.0
 13
173.1394607819748
 23
55.26265870656118
 33
0.0
  0
MTEXT
  5
20D
330
207
100
AcDbEntity
  8
1
 62
     7
100
AcDbMText
 10
152.5888420090157
 20
56.26265870656118
 30
0.0
 40
3.5
 41
0.0
 71
     7
 72
     1
  1
35
  7
CONVERTER_2
 11
0.9999999999970621
 21
2.424068405545307E-6
 31
0.0
 73
     1
 44
0.60024009603842
  0
ENDBLK
  5
20F
330
207
100
AcDbEntity
  8
0
100
AcDbBlockEnd
  0
BLOCK
  5
219
330
212
100
AcDbEntity
  8
0
100
AcDbBlockBegin
  2
*D212
 70
     1
 71
     0
 10
0.0
 20
0.0
 30
0.0
  3
*D212
  1

  0
LINE
  5
213
330
212
100
AcDbEntity
  8
1
  6
Continuous
 62
     2
100
AcDbLine
 10
45.71887405557383
 20
250.7737657054914
 30
0.0
 11
71.71887405557384
 21
250.7737657054914
 31
0.0
  0
LINE
  5
214
330
212
100
AcDbEntity
  8
1
  6
Continuous
 62
     2
100
AcDbLine
 10
45.71887405557383
 20
240.5237657054914
 30
0.0
 11
45.71887405557383
 21
251.7737657054914
 31
0.0
  0
LINE
  5
215
330
212
100
AcDbEntity
  8
1
  6
Continuous
 62
     2
100
AcDbLine
 10
71.71887405557384
 20
240.5237657054914
 30
0.0
 11
71.71887405557384
 21
251.7737657054914
 31
0.0
  0
SOLID
  5
216
330
212
100
AcDbEntity
  8
1
 62
     2
100
AcDbTrace
 10
49.21887405557383
 20
251.2345494470473
 30
0.0
 11
49.21887405557383
 21
250.3129819639355
 31
0.0
 12
45.71887405557383
 22
250.7737657054914
 32
0.0
 13
45.71887405557383
 23
250.7737657054914
 33
0.0
  0
SOLID
  5
217
330
212
100
AcDbEntity
  8
1
 62
     2
100
AcDbTrace
 10
68.21887405557384
 20
250.3129819639355
 30
0.0
 11
68.21887405557384
 21
251.2345494470473
 31
0.0
 12
71.71887405557384
 22
250.7737657054914
 32
0.0
 13
71.71887405557384
 23
250.7737657054914
 33
0.0
  0
MTEXT
  5
218
330
212
100
AcDbEntity
  8
1
 62
     7
100
AcDbMText
 10
56.23067741447617
 20
251.7737657054914
 30
0.0
 40
3.5
 41
0.0
 71
     7
 72
     1
  1
26
  7
CONVERTER_2
 11
0.9999999999970621
 21
2.424068405545307E-6
 31
0.0
 73
     1
 44
0.60024009603842
  0
ENDBLK
  5
21A
330
212
100
AcDbEntity
  8
0
100
AcDbBlockEnd
  0
BLOCK
  5
224
330
21D
100
AcDbEntity
  8
0
100
AcDbBlockBegin
  2
*D313
 70
     1
 71
     0
 10
0.0
 20
0.0
 30
0.0
  3
*D313
  1

  0
LINE
  5
21E
330
21D
100
AcDbEntity
  8
0
  6
Continuous
 62
     2
100
AcDbLine
 10
98.13946078197481
 20
80.27376570549153
 30
0.0
 11
98.13946078197481
 21
137.0737657054914
 31
0.0
  0
LINE
  5
21F
330
21D
100
AcDbEntity
  8
0
  6
Continuous
 62
     2
100
AcDbLine
 10
100.1394607819748
 20
80.27376570549153
 30
0.0
 11
97.13946078197481
 21
80.27376570549153
 31
0.0
  0
LINE
  5
220
330
21D
100
AcDbEntity
  8
0
  6
Continuous
 62
     2
100
AcDbLine
 10
138.1394607819748
 20
137.0737657054914
 30
0.0
 11
97.13946078197481
 21
137.0737657054914
 31
0.0
  0
SOLID
  5
221
330
21D
100
AcDbEntity
  8
0
 62
     2
100
AcDbTrace
 10
97.67867704041892
 20
83.77376570549153
 30
0.0
 11
98.60024452353069
 21
83.77376570549153
 31
0.0
 12
98.13946078197481
 22
80.27376570549153
 32
0.0
 13
98.13946078197481
 23
80.27376570549153
 33
0.0
  0
SOLID
  5
222
330
21D
100
AcDbEntity
  8
0
 62
     2
100
AcDbTrace
 10
98.60024452353069
 20
133.5737657054914
 30
0.0
 11
97.67867704041892
 21
133.5737657054914
 31
0.0
 12
98.13946078197481
 22
137.0737657054914
 32
0.0
 13
98.13946078197481
 23
137.0737657054914
 33
0.0
  0
MTEXT
  5
223
330
21D
100
AcDbEntity
  8
0
 62
     7
100
AcDbMText
 10
97.13946078197481
 20
99.2237657054915
 30
0.0
 40
3.5
 41
0.0
 71
     7
 72
     1
  1
57リフト5
  7
CONVERTER_1
 11
0.0
 21
1.0
 31
0.0
 73
     1
 44
0.60024009603842
  0
ENDBLK
  5
225
330
21D
100
AcDbEntity
  8
0
100
AcDbBlockEnd
  0
ENDSEC
  0
SECTION
  2
ENTITIES
  0
INSERT
  5
56
330
1F
100
AcDbEntity
  8
1
100
AcDbBlockReference
  2
V21-2-0A-13-__________
 10
205.3307217178347
 20
291.4536317742684
 30
0.0
  0
INSERT
  5
57
330
1F
100
AcDbEntity
  8
1
100
AcDbBlockReference
  2
V21-2-0A
 10
195.3307217178347
 20
142.9536317742684
 30
0.0
  0
INSERT
  5
58
330
1F
100
AcDbEntity
  8
1
100
AcDbBlockReference
  2
_J__A4
 10
0.0
 20
0.0
 30
0.0
  0
INSERT
  5
59
330
1F
100
AcDbEntity
  8
1
100
AcDbBlockReference
  2
R10A-13
 10
123.6394607819748
 20
88.27376570549143
 30
0.0
  0
LINE
  5
1DC
330
1F
100
AcDbEntity
  8
1
  6
DASH_CENTER
 62
     2
100
AcDbLine
 10
42.71887405557379
 20
80.27376570549143
 30
0.0
 11
74.21887405557392
 21
80.27376570549143
 31
0.0
  0
LINE
  5
1DD
330
1F
100
AcDbEntity
  8
1
  6
DASH_CENTER
 62
     2
100
AcDbLine
 10
58.7188740555737
 20
141.7737657054915
 30
0.0
 11
58.71887405557383
 21
62.26265870656096
 31
0.0
  0
LINE
  5
1DE
330
1F
100
AcDbEntity
  8
1
  6
DASH_CENTER
 62
     2
100
AcDbLine
 10
38.08295758672433
 20
205.7737657054915
 30
0.0
 11
79.35479052442331
 21
205.7737657054915
 31
0.0
  0
LINE
  5
1DF
330
1F
100
AcDbEntity
  8
1
  6
DASH_CENTER
 62
     2
100
AcDbLine
 10
58.71887405557382
 20
243.7737657054913
 30
0.0
 11
58.71887405557392
 21
171.7737657054914
 31
0.0
  0
LINE
  5
1E0
330
1F
100
AcDbEntity
  8
1
  6
DASH_CENTER
 62
     2
100
AcDbLine
 10
44.17632311239997
 20
197.3776200037462
 30
0.0
 11
88.1637377842446
 21
222.7737657054914
 31
0.0
  0
LINE
  5
1E1
330
1F
100
AcDbEntity
  8
1
  6
DASH_CENTER
 62
     2
100
AcDbLine
 10
29.27401032690285
 20
222.7737657054914
 30
0.0
 11
73.26142499874781
 21
197.3776200037462
 31
0.0
  0
LINE
  5
1E2
330
1F
100
AcDbEntity
  8
1
  6
Continuous
 62
     7
100
AcDbLine
 10
99.6219951267833
 20
150.3837065292944
 30
0.0
 11
102.7200499682323
 21
150.3837065292944
 31
0.0
  0
LINE
  5
1E3
330
1F
100
AcDbEntity
  8
1
  6
Continuous
 62
     7
100
AcDbLine
 10
99.6219951267833
 20
151.0133892177948
 30
0.0
 11
99.6219951267833
 21
150.3837065292944
 31
0.0
  0
LINE
  5
1E4
330
1F
100
AcDbEntity
  8
1
  6
Continuous
 62
     7
100
AcDbLine
 10
95.25437783603036
 20
149.4237065292944
 30
0.0
 11
99.6219951267833
 21
151.0133892177948
 31
0.0
  0
LINE
  5
1E5
330
1F
100
AcDbEntity
  8
1
  6
Continuous
 62
     7
100
AcDbLine
 10
99.6219951267833
 20
147.834023840794
 30
0.0
 11
95.25437783603036
 21
149.4237065292944
 31
0.0
  0
LINE
  5
1E6
330
1F
100
AcDbEntity
  8
1
  6
Continuous
 62
     7
100
AcDbLine
 10
99.6219951267833
 20
148.4637065292943
 30
0.0
 11
99.6219951267833
 21
147.834023840794
 31
0.0
  0
LINE
  5
1E7
330
1F
100
AcDbEntity
  8
1
  6
Continuous
 62
     7
100
AcDbLine
 10
102.7200499682323
 20
148.4637065292943
 30
0.0
 11
99.6219951267833
 21
148.4637065292943
 31
0.0
  0
LINE
  5
1E8
330
1F
100
AcDbEntity
  8
1
  6
Continuous
 62
     7
100
AcDbLine
 10
102.7200499682323
 20
150.3837065292944
 30
0.0
 11
102.7200499682323
 21
148.4637065292943
 31
0.0
  0
LINE
  5
1E9
330
1F
100
AcDbEntity
  8
1
  6
DASH_CENTER
 62
     2
100
AcDbLine
 10
100.1394607819748
 20
80.27376570549143
 30
0.0
 11
176.1394607819748
 21
80.27376570549143
 31
0.0
  0
LINE
  5
1EA
330
1F
100
AcDbEntity
  8
1
  6
DASH_CENTER
 62
     2
100
AcDbLine
 10
138.1394607819748
 20
141.7737657054915
 30
0.0
 11
138.1394607819748
 21
78.27376570549143
 31
0.0
  0
LINE
  5
1EB
330
1F
100
AcDbEntity
  8
1
  6
Continuous
 62
     7
100
AcDbLine
 10
138.1394607819748
 20
67.22921579618901
 30
0.0
 11
138.1394607819748
 21
67.0800449332331
 31
0.0
  0
LINE
  5
1EC
330
1F
100
AcDbEntity
  8
1
  6
DASH_CENTER
 62
     2
100
AcDbLine
 10
138.1394607819748
 20
78.27376570549143
 30
0.0
 11
138.1394607819748
 21
64.22921579618901
 31
0.0
  0
SOLID
  5
1ED
330
1F
100
AcDbEntity
  8
1
 62
     2
100
AcDbTrace
 10
175.2885112078131
 20
66.99556866302393
 30
0.0
 11
174.4904103561366
 21
66.53478492146805
 31
0.0
 12
173.1394607819748
 22
69.79626570549152
 32
0.0
 13
173.1394607819748
 23
69.79626570549152
 33
0.0
  0
LEADER
  5
1EE
330
1F
100
AcDbEntity
  8
1
  6
Continuous
 62
     2
100
AcDbLeader
  3
Standard
 71
     0
 76
     3
 10
173.1394607819748
 20
69.79626570549152
 30
0.0
 10
179.3475793329689
 20
59.04348895575896
 30
0.0
 10
196.442238626813
 20
59.04348895575896
 30
0.0
  0
SOLID
  5
1EF
330
1F
100
AcDbEntity
  8
1
 62
     2
100
AcDbTrace
 10
112.8758327270105
 20
66.51228492146788
 30
0.0
 11
112.0777318753341
 21
66.97306866302377
 31
0.0
 12
114.2267823011723
 22
69.77376570549136
 32
0.0
 13
114.2267823011723
 23
69.77376570549136
 33
0.0
  0
LEADER
  5
1F0
330
1F
100
AcDbEntity
  8
1
  6
Continuous
 62
     2
100
AcDbLeader
  3
Standard
 71
     0
 76
     3
 10
114.2267823011723
 20
69.77376570549136
 30
0.0
 10
105.8487907691005
 20
55.26265870656107
 30
0.0
 10
90.9726862384769
 20
55.26265870656107
 30
0.0
  0
SOLID
  5
1F1
330
1F
100
AcDbEntity
  8
1
 62
     2
100
AcDbTrace
 10
72.23080910620061
 20
98.56586476393933
 30
0.0
 11
73.07166900183208
 21
98.18871590493588
 31
0.0
 12
71.21887405557379
 22
95.18380782920345
 32
0.0
 13
71.21887405557379
 23
95.18380782920345
 33
0.0
  0
LEADER
  5
1F2
330
1F
100
AcDbEntity
  8
1
  6
Continuous
 62
     2
100
AcDbLeader
  3
Standard
 71
     0
 76
     3
 10
71.21887405557379
 20
95.18380782920345
 30
0.0
 10
94.17445582617705
 20
146.3636738979805
 30
0.0
 10
104.4282347120756
 20
146.3636738979805
 30
0.0
  0
MTEXT
  5
1F3
330
1F
100
AcDbEntity
  8
1
 62
     7
100
AcDbMText
 10
34.0
 20
30.50000000000001
 30
0.0
 40
3.5
 41
0.0
 71
     4
 72
     1
  1
共用形
  7
CONVERTER_1
 73
     1
 44
0.7202881152461
  0
MTEXT
  5
1F5
330
1F
100
AcDbEntity
  8
0
 62
     7
100
AcDbMText
 10
187.8949089798909
 20
62.04348895575896
 30
0.0
 40
3.5
 41
0.0
 71
     5
 72
     1
  1
Rc1/2
  7
CONVERTER_2
 73
     1
 44
1.32052821128451
  0
MTEXT
  5
1F6
330
1F
100
AcDbEntity
  8
1
 62
     7
100
AcDbMText
 10
98.41073850378868
 20
58.26265870656107
 30
0.0
 40
3.5
 41
0.0
 71
     5
 72
     1
  1
PJ1/2
  7
CONVERTER_2
 73
     1
 44
1.32052821128451
  0
MTEXT
  5
1F7
330
1F
100
AcDbEntity
  8
0
 62
     7
100
AcDbMText
 10
85.25
 20
17.0
 30
0.0
 40
3.5
 41
0.0
 71
     5
 72
     1
  1
1
  7
CONVERTER_2
 73
     1
 44
0.7202881152461
  0
MTEXT
  5
1F8
330
1F
100
AcDbEntity
  8
0
 62
     7
100
AcDbMText
 10
93.75
 20
17.0
 30
0.0
 40
3.5
 41
0.0
 71
     5
 72
     1
  1
1
  7
CONVERTER_2
 73
     1
 44
0.7202881152461
  0
MTEXT
  5
1F9
330
1F
100
AcDbEntity
  8
0
 62
     7
100
AcDbMText
 10
34.0
 20
37.5
 30
0.0
 40
3.5
 41
0.0
 71
     4
 72
     1
  1
JIS
  7
CONVERTER_2
 73
     1
 44
0.90036014405762
  0
MTEXT
  5
1FA
330
1F
100
AcDbEntity
  8
0
 62
     7
100
AcDbMText
 10
57.0
 20
22.75000000000001
 30
0.0
 40
3.5
 41
0.0
 71
     5
 72
     1
  1
化粧バルブ2型
  7
CONVERTER_1
 73
     1
 44
0.90036014405762
  0
MTEXT
  5
1FB
330
1F
100
AcDbEntity
  8
0
 62
     7
100
AcDbMText
 10
57.0
 20
14.25
 30
0.0
 40
3.5
 41
0.0
 71
     5
 72
     1
  1
V21A-2-13
  7
CONVERTER_2
 73
     1
 44
0.90036014405762
  0
DIMENSION
  5
206
330
1F
100
AcDbEntity
  8
1
100
AcDbDimension
  2
*D010
 10
108.1394607819748
 20
55.26265870656113
 30
0.0
 11
122.510637626839
 21
58.01265870656113
 31
0.0
  1
<>
 71
     5
 42
0.0
 53
0.00013888888889
  3
ME10_DIM_0
100
AcDbAlignedDimension
 13
138.1394607819748
 23
64.77376570549143
 33
0.0
 14
108.1394607819748
 24
70.93576570549141
 34
0.0
100
AcDbRotatedDimension
  0
DIMENSION
  5
211
330
1F
100
AcDbEntity
  8
1
100
AcDbDimension
  2
*D111
 10
138.1394607819748
 20
55.26265870656118
 30
0.0
 11
155.2138420090157
 21
58.01265870656118
 31
0.0
  1
<>
 71
     5
 42
0.0
 53
0.00013888888889
  3
ME10_DIM_1
100
AcDbAlignedDimension
 13
173.1394607819748
 23
67.52376570549143
 33
0.0
 14
138.1394607819748
 24
64.77376570549143
 34
0.0
100
AcDbRotatedDimension
  0
DIMENSION
  5
21C
330
1F
100
AcDbEntity
  8
1
100
AcDbDimension
  2
*D212
 10
45.71887405557383
 20
250.7737657054914
 30
0.0
 11
58.85567741447617
 21
253.5237657054914
 31
0.0
  1
<>
 71
     5
 42
0.0
 53
0.00013888888889
  3
ME10_DIM_2
100
AcDbAlignedDimension
 13
71.71887405557382
 23
240.5237657054915
 33
0.0
 14
45.71887405557383
 24
240.5237657054915
 34
0.0
100
AcDbRotatedDimension
  0
DIMENSION
  5
227
330
1F
100
AcDbEntity
  8
0
100
AcDbDimension
  2
*D313
 10
98.13946078197481
 20
80.27376570549153
 30
0.0
 11
95.38946078197481
 21
108.6737657054915
 31
0.0
  1
57リフト5
 71
     5
 42
0.0
 53
90.0
  3
ME10_DIM_3
100
AcDbAlignedDimension
 13
138.1394607819748
 23
137.0737657054914
 33
0.0
 14
100.1394607819748
 24
80.27376570549143
 34
0.0
 50
90.0
100
AcDbRotatedDimension
  0
ENDSEC
  0
SECTION
  2
OBJECTS
  0
DICTIONARY
  5
C
330
0
100
AcDbDictionary
281
     1
  3
ACAD_GROUP
350
D
  3
ACAD_LAYOUT
350
1A
  3
ACAD_MLINESTYLE
350
17
  3
ACAD_PLOTSETTINGS
350
19
  3
ACAD_PLOTSTYLENAME
350
E
  3
ACAD_TABLESTYLE
350
2A
  3
AcDbVariableDictionary
350
2C
  0
DICTIONARY
  5
D
102
{ACAD_REACTORS
330
C
102
}
330
C
100
AcDbDictionary
281
     1
  0
DICTIONARY
  5
1A
102
{ACAD_REACTORS
330
C
102
}
330
C
100
AcDbDictionary
281
     1
  3
Layout1
350
1E
  3
Layout2
350
26
  3
Model
350
22
  0
DICTIONARY
  5
17
102
{ACAD_REACTORS
330
C
102
}
330
C
100
AcDbDictionary
281
     1
  3
Standard
350
18
  0
DICTIONARY
  5
19
102
{ACAD_REACTORS
330
C
102
}
330
C
100
AcDbDictionary
281
     1
  0
ACDBDICTIONARYWDFLT
  5
E
102
{ACAD_REACTORS
330
C
102
}
330
C
100
AcDbDictionary
281
     1
  3
Normal
350
F
100
AcDbDictionaryWithDefault
340
F
  0
DICTIONARY
  5
2A
102
{ACAD_REACTORS
330
C
102
}
330
C
100
AcDbDictionary
281
     1
  3
Standard
350
2B
  0
DICTIONARY
  5
2C
102
{ACAD_REACTORS
330
C
102
}
330
C
100
AcDbDictionary
281
     1
  3
CTABLESTYLE
350
2D
  0
LAYOUT
  5
1E
102
{ACAD_REACTORS
330
1A
102
}
330
1A
100
AcDbPlotSettings
  1

  2

  4

  6

 40
0.0
 41
0.0
 42
0.0
 43
0.0
 44
0.0
 45
0.0
 46
0.0
 47
0.0
 48
0.0
 49
0.0
140
0.0
141
0.0
142
1.0
143
1.0
 70
   688
 72
     0
 73
     0
 74
     5
  7

 75
    16
147
1.0
148
0.0
149
0.0
100
AcDbLayout
  1
Layout1
 70
     1
 71
     1
 10
0.0
 20
0.0
 11
12.0
 21
9.0
 12
0.0
 22
0.0
 32
0.0
 14
1.00000000000000E+20
 24
1.00000000000000E+20
 34
1.00000000000000E+20
 15
-1.00000000000000E+20
 25
-1.00000000000000E+20
 35
-1.00000000000000E+20
146
0.0
 13
0.0
 23
0.0
 33
0.0
 16
1.0
 26
0.0
 36
0.0
 17
0.0
 27
1.0
 37
0.0
 76
     0
330
1B
  0
LAYOUT
  5
26
102
{ACAD_REACTORS
330
1A
102
}
330
1A
100
AcDbPlotSettings
  1

  2

  4

  6

 40
0.0
 41
0.0
 42
0.0
 43
0.0
 44
0.0
 45
0.0
 46
0.0
 47
0.0
 48
0.0
 49
0.0
140
0.0
141
0.0
142
1.0
143
1.0
 70
   688
 72
     0
 73
     0
 74
     5
  7

 75
    16
147
1.0
148
0.0
149
0.0
100
AcDbLayout
  1
Layout2
 70
     1
 71
     2
 10
0.0
 20
0.0
 11
0.0
 21
0.0
 12
0.0
 22
0.0
 32
0.0
 14
0.0
 24
0.0
 34
0.0
 15
0.0
 25
0.0
 35
0.0
146
0.0
 13
0.0
 23
0.0
 33
0.0
 16
1.0
 26
0.0
 36
0.0
 17
0.0
 27
1.0
 37
0.0
 76
     0
330
23
  0
LAYOUT
  5
22
102
{ACAD_REACTORS
330
1A
102
}
330
1A
100
AcDbPlotSettings
  1

  2

  4

  6

 40
0.0
 41
0.0
 42
0.0
 43
0.0
 44
0.0
 45
0.0
 46
0.0
 47
0.0
 48
0.0
 49
0.0
140
0.0
141
0.0
142
1.0
143
1.0
 70
  1712
 72
     0
 73
     0
 74
     0
  7

 75
     0
147
1.0
148
0.0
149
0.0
100
AcDbLayout
  1
Model
 70
     1
 71
     0
 10
0.0
 20
0.0
 11
0.0
 21
0.0
 12
0.0
 22
0.0
 32
0.0
 14
0.0
 24
0.0
 34
0.0
 15
210.0
 25
297.0
 35
0.0
146
0.0
 13
0.0
 23
0.0
 33
0.0
 16
1.0
 26
0.0
 36
0.0
 17
0.0
 27
1.0
 37
0.0
 76
     0
330
1F
  0
MLINESTYLE
  5
18
102
{ACAD_REACTORS
330
17
102
}
330
17
100
AcDbMlineStyle
  2
Standard
 70
     0
  3

 62
   256
 51
90.0
 52
90.0
 71
     2
 49
0.5
 62
   256
  6
BYLAYER
 49
-0.5
 62
   256
  6
BYLAYER
  0
ACDBPLACEHOLDER
  5
F
102
{ACAD_REACTORS
330
E
102
}
330
E
  0
TABLESTYLE
  5
2B
102
{ACAD_REACTORS
330
2A
102
}
330
2A
100
AcDbTableStyle
  3
Standard
 70
     0
 71
     0
 40
0.06
 41
0.06
280
     0
281
     0
  7
Standard
140
0.18
170
     2
 62
     0
 63
     7
283
     0
274
    -2
284
     1
 64
     0
275
    -2
285
     1
 65
     0
276
    -2
286
     1
 66
     0
277
    -2
287
     1
 67
     0
278
    -2
288
     1
 68
     0
279
    -2
289
     1
 69
     0
  7
Standard
140
0.25
170
     5
 62
     0
 63
     7
283
     0
274
    -2
284
     1
 64
     0
275
    -2
285
     1
 65
     0
276
    -2
286
     1
 66
     0
277
    -2
287
     1
 67
     0
278
    -2
288
     1
 68
     0
279
    -2
289
     1
 69
     0
  7
Standard
140
0.18
170
     5
 62
     0
 63
     7
283
     0
274
    -2
284
     1
 64
     0
275
    -2
285
     1
 65
     0
276
    -2
286
     1
 66
     0
277
    -2
287
     1
 67
     0
278
    -2
288
     1
 68
     0
279
    -2
289
     1
 69
     0
  0
DICTIONARYVAR
  5
2D
102
{ACAD_REACTORS
330
2C
102
}
330
2C
100
DictionaryVariables
280
     0
  1
Standard
  0
ENDSEC
  0
EOF
