  0
SECTION
  2
HEADER
  9
$ACADVER
  1
AC1015
  9
$ACADMAINTVER
 70
     6
  9
$DWGCODEPAGE
  3
ANSI_932
  9
$INSBASE
 10
0.0
 20
0.0
 30
0.0
  9
$EXTMIN
 10
0.0
 20
-0.00000000000001
 30
0.0
  9
$EXTMAX
 10
630.0000000000003
 20
891.0000000000003
 30
0.0
  9
$LIMMIN
 10
0.0
 20
0.0
  9
$LIMMAX
 10
12.0
 20
9.0
  9
$ORTHOMODE
 70
     0
  9
$REGENMODE
 70
     1
  9
$FILLMODE
 70
     1
  9
$QTEXTMODE
 70
     0
  9
$MIRRTEXT
 70
     1
  9
$LTSCALE
 40
1.0
  9
$ATTMODE
 70
     1
  9
$TEXTSIZE
 40
0.2
  9
$TRACEWID
 40
0.05
  9
$TEXTSTYLE
  7
Standard
  9
$CLAYER
  8
0
  9
$CELTYPE
  6
ByLayer
  9
$CECOLOR
 62
   256
  9
$CELTSCALE
 40
1.0
  9
$DISPSILH
 70
     0
  9
$DIMSCALE
 40
1.0
  9
$DIMASZ
 40
0.18
  9
$DIMEXO
 40
0.0625
  9
$DIMDLI
 40
0.38
  9
$DIMRND
 40
0.0
  9
$DIMDLE
 40
0.0
  9
$DIMEXE
 40
0.18
  9
$DIMTP
 40
0.0
  9
$DIMTM
 40
0.0
  9
$DIMTXT
 40
0.18
  9
$DIMCEN
 40
0.09
  9
$DIMTSZ
 40
0.0
  9
$DIMTOL
 70
     0
  9
$DIMLIM
 70
     0
  9
$DIMTIH
 70
     1
  9
$DIMTOH
 70
     1
  9
$DIMSE1
 70
     0
  9
$DIMSE2
 70
     0
  9
$DIMTAD
 70
     0
  9
$DIMZIN
 70
     0
  9
$DIMBLK
  1

  9
$DIMASO
 70
     1
  9
$DIMSHO
 70
     1
  9
$DIMPOST
  1

  9
$DIMAPOST
  1

  9
$DIMALT
 70
     0
  9
$DIMALTD
 70
     2
  9
$DIMALTF
 40
25.4
  9
$DIMLFAC
 40
1.0
  9
$DIMTOFL
 70
     0
  9
$DIMTVP
 40
0.0
  9
$DIMTIX
 70
     0
  9
$DIMSOXD
 70
     0
  9
$DIMSAH
 70
     0
  9
$DIMBLK1
  1

  9
$DIMBLK2
  1

  9
$DIMSTYLE
  2
Standard
  9
$DIMCLRD
 70
     0
  9
$DIMCLRE
 70
     0
  9
$DIMCLRT
 70
     0
  9
$DIMTFAC
 40
1.0
  9
$DIMGAP
 40
0.09
  9
$DIMJUST
 70
     0
  9
$DIMSD1
 70
     0
  9
$DIMSD2
 70
     0
  9
$DIMTOLJ
 70
     1
  9
$DIMTZIN
 70
     0
  9
$DIMALTZ
 70
     0
  9
$DIMALTTZ
 70
     0
  9
$DIMUPT
 70
     0
  9
$DIMDEC
 70
     4
  9
$DIMTDEC
 70
     4
  9
$DIMALTU
 70
     2
  9
$DIMALTTD
 70
     2
  9
$DIMTXSTY
  7
Standard
  9
$DIMAUNIT
 70
     0
  9
$DIMADEC
 70
     0
  9
$DIMALTRND
 40
0.0
  9
$DIMAZIN
 70
     0
  9
$DIMDSEP
 70
    46
  9
$DIMATFIT
 70
     3
  9
$DIMFRAC
 70
     0
  9
$DIMLDRBLK
  1

  9
$DIMLUNIT
 70
     2
  9
$DIMLWD
 70
    -2
  9
$DIMLWE
 70
    -2
  9
$DIMTMOVE
 70
     0
  9
$LUNITS
 70
     2
  9
$LUPREC
 70
     4
  9
$SKETCHINC
 40
0.1
  9
$FILLETRAD
 40
0.5
  9
$AUNITS
 70
     0
  9
$AUPREC
 70
     0
  9
$MENU
  1
.
  9
$ELEVATION
 40
0.0
  9
$PELEVATION
 40
0.0
  9
$THICKNESS
 40
0.0
  9
$LIMCHECK
 70
     0
  9
$CHAMFERA
 40
0.5
  9
$CHAMFERB
 40
0.5
  9
$CHAMFERC
 40
1.0
  9
$CHAMFERD
 40
0.0
  9
$SKPOLY
 70
     0
  9
$TDCREATE
 40
2456563.535861875
  9
$TDUCREATE
 40
2456563.160861875
  9
$TDUPDATE
 40
2456563.535863148
  9
$TDUUPDATE
 40
2456563.160863148
  9
$TDINDWG
 40
0.0000000116
  9
$TDUSRTIMER
 40
0.0000000116
  9
$USRTIMER
 70
     1
  9
$ANGBASE
 50
0.0
  9
$ANGDIR
 70
     0
  9
$PDMODE
 70
     0
  9
$PDSIZE
 40
0.0
  9
$PLINEWID
 40
0.0
  9
$SPLFRAME
 70
     0
  9
$SPLINETYPE
 70
     6
  9
$SPLINESEGS
 70
     8
  9
$HANDSEED
  5
2E6
  9
$SURFTAB1
 70
     6
  9
$SURFTAB2
 70
     6
  9
$SURFTYPE
 70
     6
  9
$SURFU
 70
     6
  9
$SURFV
 70
     6
  9
$UCSBASE
  2

  9
$UCSNAME
  2

  9
$UCSORG
 10
0.0
 20
0.0
 30
0.0
  9
$UCSXDIR
 10
1.0
 20
0.0
 30
0.0
  9
$UCSYDIR
 10
0.0
 20
1.0
 30
0.0
  9
$UCSORTHOREF
  2

  9
$UCSORTHOVIEW
 70
     0
  9
$UCSORGTOP
 10
0.0
 20
0.0
 30
0.0
  9
$UCSORGBOTTOM
 10
0.0
 20
0.0
 30
0.0
  9
$UCSORGLEFT
 10
0.0
 20
0.0
 30
0.0
  9
$UCSORGRIGHT
 10
0.0
 20
0.0
 30
0.0
  9
$UCSORGFRONT
 10
0.0
 20
0.0
 30
0.0
  9
$UCSORGBACK
 10
0.0
 20
0.0
 30
0.0
  9
$PUCSBASE
  2

  9
$PUCSNAME
  2

  9
$PUCSORG
 10
0.0
 20
0.0
 30
0.0
  9
$PUCSXDIR
 10
1.0
 20
0.0
 30
0.0
  9
$PUCSYDIR
 10
0.0
 20
1.0
 30
0.0
  9
$PUCSORTHOREF
  2

  9
$PUCSORTHOVIEW
 70
     0
  9
$PUCSORGTOP
 10
0.0
 20
0.0
 30
0.0
  9
$PUCSORGBOTTOM
 10
0.0
 20
0.0
 30
0.0
  9
$PUCSORGLEFT
 10
0.0
 20
0.0
 30
0.0
  9
$PUCSORGRIGHT
 10
0.0
 20
0.0
 30
0.0
  9
$PUCSORGFRONT
 10
0.0
 20
0.0
 30
0.0
  9
$PUCSORGBACK
 10
0.0
 20
0.0
 30
0.0
  9
$USERI1
 70
     0
  9
$USERI2
 70
     0
  9
$USERI3
 70
     0
  9
$USERI4
 70
     0
  9
$USERI5
 70
     0
  9
$USERR1
 40
18.1
  9
$USERR2
 40
0.0
  9
$USERR3
 40
0.0
  9
$USERR4
 40
0.0
  9
$USERR5
 40
0.0
  9
$WORLDVIEW
 70
     1
  9
$SHADEDGE
 70
     3
  9
$SHADEDIF
 70
    70
  9
$TILEMODE
 70
     1
  9
$MAXACTVP
 70
    64
  9
$PINSBASE
 10
0.0
 20
0.0
 30
0.0
  9
$PLIMCHECK
 70
     0
  9
$PEXTMIN
 10
1.00000000000000E+20
 20
1.00000000000000E+20
 30
1.00000000000000E+20
  9
$PEXTMAX
 10
-1.00000000000000E+20
 20
-1.00000000000000E+20
 30
-1.00000000000000E+20
  9
$PLIMMIN
 10
0.0
 20
0.0
  9
$PLIMMAX
 10
12.0
 20
9.0
  9
$UNITMODE
 70
     0
  9
$VISRETAIN
 70
     1
  9
$PLINEGEN
 70
     0
  9
$PSLTSCALE
 70
     1
  9
$TREEDEPTH
 70
  3020
  9
$CMLSTYLE
  2
Standard
  9
$CMLJUST
 70
     0
  9
$CMLSCALE
 40
1.0
  9
$PROXYGRAPHICS
 70
     1
  9
$MEASUREMENT
 70
     1
  9
$CELWEIGHT
370
    -1
  9
$ENDCAPS
280
     0
  9
$JOINSTYLE
280
     0
  9
$LWDISPLAY
290
     0
  9
$INSUNITS
 70
     4
  9
$HYPERLINKBASE
  1

  9
$STYLESHEET
  1

  9
$XEDIT
290
     1
  9
$CEPSNTYPE
380
     0
  9
$PSTYLEMODE
290
     1
  9
$FINGERPRINTGUID
  2
{CC72D66E-A674-4A16-B62F-18562DCA6BD0}
  9
$VERSIONGUID
  2
{FAEB1C32-E019-11D5-929B-00C0DF256EC4}
  9
$EXTNAMES
290
     1
  9
$PSVPSCALE
 40
0.0
  9
$OLESTARTUP
290
     0
  0
ENDSEC
  0
SECTION
  2
CLASSES
  0
CLASS
  1
ACDBDICTIONARYWDFLT
  2
AcDbDictionaryWithDefault
  3
ObjectDBX Classes
 90
        0
280
     0
281
     0
  0
CLASS
  1
VISUALSTYLE
  2
AcDbVisualStyle
  3
ObjectDBX Classes
 90
     4095
280
     0
281
     0
  0
CLASS
  1
MATERIAL
  2
AcDbMaterial
  3
ObjectDBX Classes
 90
     1153
280
     0
281
     0
  0
CLASS
  1
DICTIONARYVAR
  2
AcDbDictionaryVar
  3
ObjectDBX Classes
 90
        0
280
     0
281
     0
  0
CLASS
  1
ACDBPLACEHOLDER
  2
AcDbPlaceHolder
  3
ObjectDBX Classes
 90
        0
280
     0
281
     0
  0
CLASS
  1
LAYOUT
  2
AcDbLayout
  3
ObjectDBX Classes
 90
        0
280
     0
281
     0
  0
ENDSEC
  0
SECTION
  2
TABLES
  0
TABLE
  2
VPORT
  5
8
330
0
100
AcDbSymbolTable
 70
     1
  0
VPORT
  5
29
330
8
100
AcDbSymbolTableRecord
100
AcDbViewportTableRecord
  2
*Active
 70
     0
 10
0.0
 20
0.0
 11
1.0
 21
1.0
 12
315.0000000000002
 22
445.5000000000002
 13
0.0
 23
0.0
 14
0.5
 24
0.5
 15
0.5
 25
0.5
 16
0.0
 26
0.0
 36
1.0
 17
0.0
 27
0.0
 37
0.0
 40
980.1000000000005
 41
1.60267857142857
 42
50.0
 43
0.0
 44
0.0
 50
0.0
 51
0.0
 71
     0
 72
   100
 73
     1
 74
     3
 75
     0
 76
     0
 77
     0
 78
     0
281
     0
 65
     1
110
0.0
120
0.0
130
0.0
111
1.0
121
0.0
131
0.0
112
0.0
122
1.0
132
0.0
 79
     0
146
0.0
  0
ENDTAB
  0
TABLE
  2
LTYPE
  5
5
330
0
100
AcDbSymbolTable
 70
     8
  0
LTYPE
  5
14
330
5
100
AcDbSymbolTableRecord
100
AcDbLinetypeTableRecord
  2
ByBlock
 70
     0
  3

 72
    65
 73
     0
 40
0.0
  0
LTYPE
  5
15
330
5
100
AcDbSymbolTableRecord
100
AcDbLinetypeTableRecord
  2
ByLayer
 70
     0
  3

 72
    65
 73
     0
 40
0.0
  0
LTYPE
  5
16
330
5
100
AcDbSymbolTableRecord
100
AcDbLinetypeTableRecord
  2
Continuous
 70
     0
  3
Solid line
 72
    65
 73
     0
 40
0.0
  0
LTYPE
  5
3F
330
5
100
AcDbSymbolTableRecord
100
AcDbLinetypeTableRecord
  2
DASHED
 70
     0
  3
Dashed
 72
    65
 73
     2
 40
15.0
 49
7.0
 74
     0
 49
-8.0
 74
     0
  0
LTYPE
  5
40
330
5
100
AcDbSymbolTableRecord
100
AcDbLinetypeTableRecord
  2
DOTTED
 70
     0
  3
Dotted
 72
    65
 73
     2
 40
1.0
 49
0.0
 74
     0
 49
-1.0
 74
     0
  0
LTYPE
  5
41
330
5
100
AcDbSymbolTableRecord
100
AcDbLinetypeTableRecord
  2
DOT_CENTER
 70
     0
  3
Dot_Center
 72
    65
 73
     4
 40
14.0
 49
12.0
 74
     0
 49
-1.0
 74
     0
 49
0.0
 74
     0
 49
-1.0
 74
     0
  0
LTYPE
  5
42
330
5
100
AcDbSymbolTableRecord
100
AcDbLinetypeTableRecord
  2
LONG_DASHED
 70
     0
  3
Long_Dashed
 72
    65
 73
     2
 40
15.0
 49
10.0
 74
     0
 49
-5.0
 74
     0
  0
LTYPE
  5
43
330
5
100
AcDbSymbolTableRecord
100
AcDbLinetypeTableRecord
  2
DASH_CENTER
 70
     0
  3
Dash_Center
 72
    65
 73
     4
 40
14.0
 49
11.0
 74
     0
 49
-1.0
 74
     0
 49
1.0
 74
     0
 49
-1.0
 74
     0
  0
LTYPE
  5
44
330
5
100
AcDbSymbolTableRecord
100
AcDbLinetypeTableRecord
  2
PHANTOM
 70
     0
  3
Phantom
 72
    65
 73
     6
 40
13.0
 49
10.0
 74
     0
 49
-1.0
 74
     0
 49
0.0
 74
     0
 49
-1.0
 74
     0
 49
0.0
 74
     0
 49
-1.0
 74
     0
  0
LTYPE
  5
45
330
5
100
AcDbSymbolTableRecord
100
AcDbLinetypeTableRecord
  2
CENTER_DASH_DASH
 70
     0
  3
Center_Dash_Dash
 72
    65
 73
     6
 40
14.0
 49
9.0
 74
     0
 49
-1.0
 74
     0
 49
1.0
 74
     0
 49
-1.0
 74
     0
 49
1.0
 74
     0
 49
-1.0
 74
     0
  0
ENDTAB
  0
TABLE
  2
LAYER
  5
2
330
0
100
AcDbSymbolTable
 70
     2
  0
LAYER
  5
10
330
2
100
AcDbSymbolTableRecord
100
AcDbLayerTableRecord
  2
0
 70
     0
 62
     7
  6
Continuous
370
    -3
390
F
  0
LAYER
  5
46
330
2
100
AcDbSymbolTableRecord
100
AcDbLayerTableRecord
  2
1
 70
     0
 62
     7
  6
Continuous
370
    -3
390
F
  0
ENDTAB
  0
TABLE
  2
STYLE
  5
3
330
0
100
AcDbSymbolTable
 70
     3
  0
STYLE
  5
11
330
3
100
AcDbSymbolTableRecord
100
AcDbTextStyleTableRecord
  2
Standard
 70
     0
 40
0.0
 41
1.0
 50
0.0
 71
     0
 42
0.2
  3
txt
  4

  0
STYLE
  5
1BA
330
3
100
AcDbSymbolTableRecord
100
AcDbTextStyleTableRecord
  2
CONVERTER_11
 70
     0
 40
0.0
 41
0.89
 50
0.0
 71
     0
 42
0.2
  3
MS Mincho.ttf
  4

1001
ACAD
1000
MS Mincho
1071
    32785
  0
STYLE
  5
260
330
3
100
AcDbSymbolTableRecord
100
AcDbTextStyleTableRecord
  2
CONVERTER_12
 70
     0
 40
0.0
 41
0.9
 50
0.0
 71
     0
 42
0.2
  3
txt.shx
  4

  0
ENDTAB
  0
TABLE
  2
VIEW
  5
6
330
0
100
AcDbSymbolTable
 70
     0
  0
ENDTAB
  0
TABLE
  2
UCS
  5
7
330
0
100
AcDbSymbolTable
 70
     0
  0
ENDTAB
  0
TABLE
  2
APPID
  5
9
330
0
100
AcDbSymbolTable
 70
     1
  0
APPID
  5
12
330
9
100
AcDbSymbolTableRecord
100
AcDbRegAppTableRecord
  2
ACAD
 70
     0
  0
ENDTAB
  0
TABLE
  2
DIMSTYLE
  5
A
330
0
100
AcDbSymbolTable
 70
     8
100
AcDbDimStyleTable
  0
DIMSTYLE
105
27
330
A
100
AcDbSymbolTableRecord
100
AcDbDimStyleTableRecord
  2
Standard
 70
     0
178
     0
340
11
  0
DIMSTYLE
105
271
102
{ACAD_REACTORS
330
272
102
}
330
A
100
AcDbSymbolTableRecord
100
AcDbDimStyleTableRecord
  2
ME10_DIM_10
 70
     0
 41
10.5
 42
0.0
 44
3.0
 73
     0
 74
     0
 77
     1
 78
     8
140
10.5
147
3.0
172
     1
173
     1
174
     1
175
     1
176
     2
177
     2
271
     2
178
     7
271
     2
340
1BA
  0
DIMSTYLE
105
27E
102
{ACAD_REACTORS
330
27F
102
}
330
A
100
AcDbSymbolTableRecord
100
AcDbDimStyleTableRecord
  2
ME10_DIM_11
 70
     0
 41
10.5
 42
0.0
 44
3.0
 73
     0
 74
     0
 77
     1
 78
     8
140
10.5
147
3.0
172
     1
173
     1
174
     1
175
     1
176
     2
177
     2
271
     2
178
     7
271
     2
340
260
  0
DIMSTYLE
105
289
102
{ACAD_REACTORS
330
28A
102
}
330
A
100
AcDbSymbolTableRecord
100
AcDbDimStyleTableRecord
  2
ME10_DIM_12
 70
     0
 41
10.50000000000001
 42
0.0
 44
3.0
 73
     0
 74
     0
 77
     1
 78
     8
140
10.5
147
3.0
172
     1
173
     1
174
     1
175
     1
176
     2
177
     2
271
     2
178
     7
271
     2
340
260
  0
DIMSTYLE
105
294
102
{ACAD_REACTORS
330
295
102
}
330
A
100
AcDbSymbolTableRecord
100
AcDbDimStyleTableRecord
  2
ME10_DIM_13
 70
     0
 41
10.5
 42
0.0
 44
3.0
 73
     0
 74
     0
 77
     1
 78
     8
140
10.5
147
3.0
172
     1
173
     1
174
     1
175
     1
176
     2
177
     2
271
     2
178
     7
271
     2
340
260
  0
DIMSTYLE
105
2A1
102
{ACAD_REACTORS
330
2A2
102
}
330
A
100
AcDbSymbolTableRecord
100
AcDbDimStyleTableRecord
  2
ME10_DIM_14
 70
     0
 41
10.5
 42
0.0
 44
3.0
 73
     0
 74
     0
 77
     1
 78
     8
140
10.5
147
3.0
172
     1
173
     1
174
     1
175
     1
176
     2
177
     2
271
     2
178
     7
271
     2
340
260
  0
DIMSTYLE
105
2AE
102
{ACAD_REACTORS
330
2AF
102
}
330
A
100
AcDbSymbolTableRecord
100
AcDbDimStyleTableRecord
  2
ME10_DIM_15
 70
     0
 41
10.5
 42
0.0
 44
3.0
 73
     0
 74
     0
 77
     1
 78
     8
140
10.5
147
3.0
172
     1
173
     1
174
     1
175
     1
176
     2
177
     2
271
     2
178
     7
271
     2
340
260
  0
DIMSTYLE
105
2B9
102
{ACAD_REACTORS
330
2BA
102
}
330
A
100
AcDbSymbolTableRecord
100
AcDbDimStyleTableRecord
  2
ME10_DIM_16
 70
     0
 41
10.5
 42
0.0
 44
3.0
 73
     0
 74
     0
 77
     1
 78
     8
140
10.5
147
3.0
172
     1
173
     1
174
     1
175
     1
176
     2
177
     2
271
     2
178
     7
271
     2
340
260
  0
ENDTAB
  0
TABLE
  2
BLOCK_RECORD
  5
1
330
0
100
AcDbSymbolTable
 70
    20
  0
BLOCK_RECORD
  5
1F
330
1
100
AcDbSymbolTableRecord
100
AcDbBlockTableRecord
  2
*Model_Space
340
22
  0
BLOCK_RECORD
  5
1B
330
1
100
AcDbSymbolTableRecord
100
AcDbBlockTableRecord
  2
*Paper_Space
340
1E
  0
BLOCK_RECORD
  5
23
330
1
100
AcDbSymbolTableRecord
100
AcDbBlockTableRecord
  2
*Paper_Space0
340
26
  0
BLOCK_RECORD
  5
47
330
1
100
AcDbSymbolTableRecord
100
AcDbBlockTableRecord
  2
V21-2-0A
340
0
102
{BLKREFS
331
62
102
}
  0
BLOCK_RECORD
  5
4A
330
1
100
AcDbSymbolTableRecord
100
AcDbBlockTableRecord
  2
91-1K
340
0
102
{BLKREFS
331
5A
102
}
  0
BLOCK_RECORD
  5
4D
330
1
100
AcDbSymbolTableRecord
100
AcDbBlockTableRecord
  2
21-1C-M1
340
0
102
{BLKREFS
331
5B
102
}
  0
BLOCK_RECORD
  5
50
330
1
100
AcDbSymbolTableRecord
100
AcDbBlockTableRecord
  2
36-54-M11
340
0
102
{BLKREFS
331
5C
102
}
  0
BLOCK_RECORD
  5
53
330
1
100
AcDbSymbolTableRecord
100
AcDbBlockTableRecord
  2
37-1-13
340
0
102
{BLKREFS
331
5D
102
}
  0
BLOCK_RECORD
  5
56
330
1
100
AcDbSymbolTableRecord
100
AcDbBlockTableRecord
  2
42-15
340
0
102
{BLKREFS
331
5E
102
}
  0
BLOCK_RECORD
  5
59
330
1
100
AcDbSymbolTableRecord
100
AcDbBlockTableRecord
  2
R10AK-13Z
340
0
102
{BLKREFS
331
63
102
}
  0
BLOCK_RECORD
  5
61
330
1
100
AcDbSymbolTableRecord
100
AcDbBlockTableRecord
  2
V21-2-0AX-13
340
0
102
{BLKREFS
331
72
102
}
  0
BLOCK_RECORD
  5
66
330
1
100
AcDbSymbolTableRecord
100
AcDbBlockTableRecord
  2
開示A4
340
0
102
{BLKREFS
331
73
102
}
  0
BLOCK_RECORD
  5
69
330
1
100
AcDbSymbolTableRecord
100
AcDbBlockTableRecord
  2
32-12-M2
340
0
102
{BLKREFS
331
74
102
}
  0
BLOCK_RECORD
  5
6C
330
1
100
AcDbSymbolTableRecord
100
AcDbBlockTableRecord
  2
78-167
340
0
102
{BLKREFS
331
75
102
}
  0
BLOCK_RECORD
  5
6F
330
1
100
AcDbSymbolTableRecord
100
AcDbBlockTableRecord
  2
64-7-13-420-M11
340
0
102
{BLKREFS
331
76
102
}
  0
BLOCK_RECORD
  5
267
330
1
100
AcDbSymbolTableRecord
100
AcDbBlockTableRecord
  2
*D13
340
0
  0
BLOCK_RECORD
  5
273
330
1
100
AcDbSymbolTableRecord
100
AcDbBlockTableRecord
  2
*D14
340
0
  0
BLOCK_RECORD
  5
280
330
1
100
AcDbSymbolTableRecord
100
AcDbBlockTableRecord
  2
*D15
340
0
  0
BLOCK_RECORD
  5
28B
330
1
100
AcDbSymbolTableRecord
100
AcDbBlockTableRecord
  2
*D16
340
0
  0
BLOCK_RECORD
  5
296
330
1
100
AcDbSymbolTableRecord
100
AcDbBlockTableRecord
  2
*D17
340
0
  0
BLOCK_RECORD
  5
2A3
330
1
100
AcDbSymbolTableRecord
100
AcDbBlockTableRecord
  2
*D18
340
0
  0
BLOCK_RECORD
  5
2B0
330
1
100
AcDbSymbolTableRecord
100
AcDbBlockTableRecord
  2
*D19
340
0
  0
ENDTAB
  0
ENDSEC
  0
SECTION
  2
BLOCKS
  0
BLOCK
  5
20
330
1F
100
AcDbEntity
  8
0
100
AcDbBlockBegin
  2
*Model_Space
 70
     0
 10
0.0
 20
0.0
 30
0.0
  3
*Model_Space
  1

  0
ENDBLK
  5
21
330
1F
100
AcDbEntity
  8
0
100
AcDbBlockEnd
  0
BLOCK
  5
1C
330
1B
100
AcDbEntity
 67
     1
  8
0
100
AcDbBlockBegin
  2
*Paper_Space
 70
     0
 10
0.0
 20
0.0
 30
0.0
  3
*Paper_Space
  1

  0
ENDBLK
  5
1D
330
1B
100
AcDbEntity
 67
     1
  8
0
100
AcDbBlockEnd
  0
BLOCK
  5
24
330
23
100
AcDbEntity
  8
0
100
AcDbBlockBegin
  2
*Paper_Space0
 70
     0
 10
0.0
 20
0.0
 30
0.0
  3
*Paper_Space0
  1

  0
ENDBLK
  5
25
330
23
100
AcDbEntity
  8
0
100
AcDbBlockEnd
  0
BLOCK
  5
48
330
47
100
AcDbEntity
  8
0
100
AcDbBlockBegin
  2
V21-2-0A
 70
     0
 10
100.5
 20
1519.0
 30
0.0
  3
V21-2-0A
  1

  0
LINE
  5
77
330
47
100
AcDbEntity
  8
1
  6
Continuous
 62
     7
100
AcDbLine
 10
400.9474050768295
 20
649.1614610364331
 30
0.0
 11
398.8928589290144
 21
649.1614610364331
 31
0.0
  0
LINE
  5
78
330
47
100
AcDbEntity
  8
1
  6
Continuous
 62
     7
100
AcDbLine
 10
397.7308589290144
 20
650.1614610364331
 30
0.0
 11
397.7308589290144
 21
649.1614610364331
 31
0.0
  0
LINE
  5
79
330
47
100
AcDbEntity
  8
1
  6
Continuous
 62
     2
100
AcDbLine
 10
417.5688589290144
 20
650.1614610364331
 30
0.0
 11
417.5688589290144
 21
649.1614610364331
 31
0.0
  0
LINE
  5
7A
330
47
100
AcDbEntity
  8
1
  6
Continuous
 62
     7
100
AcDbLine
 10
418.7308589290144
 20
650.1614610364331
 30
0.0
 11
418.7308589290144
 21
649.1614610364331
 31
0.0
  0
LINE
  5
7B
330
47
100
AcDbEntity
  8
1
  6
Continuous
 62
     7
100
AcDbLine
 10
395.7308589290144
 20
611.9017092378056
 30
0.0
 11
395.7308589290144
 21
604.7436358472288
 31
0.0
  0
LINE
  5
7C
330
47
100
AcDbEntity
  8
1
  6
Continuous
 62
     7
100
AcDbLine
 10
237.7308589290144
 20
650.1614610364331
 30
0.0
 11
237.7308589290144
 21
649.1614610364331
 31
0.0
  0
LINE
  5
7D
330
47
100
AcDbEntity
  8
1
  6
Continuous
 62
     2
100
AcDbLine
 10
257.5688589290144
 20
650.1614610364331
 30
0.0
 11
257.5688589290144
 21
649.1614610364331
 31
0.0
  0
LINE
  5
7E
330
47
100
AcDbEntity
  8
1
  6
Continuous
 62
     7
100
AcDbLine
 10
258.7308589290144
 20
650.1614610364331
 30
0.0
 11
258.7308589290144
 21
649.1614610364331
 31
0.0
  0
LINE
  5
7F
330
47
100
AcDbEntity
  8
1
  6
Continuous
 62
     7
100
AcDbLine
 10
273.2009575228402
 20
640.1614610364331
 30
0.0
 11
271.7308589290144
 21
640.1614610364331
 31
0.0
  0
LINE
  5
80
330
47
100
AcDbEntity
  8
1
  6
Continuous
 62
     2
100
AcDbLine
 10
273.2009575228402
 20
616.9744610364331
 30
0.0
 11
271.7308589290144
 21
616.9744610364331
 31
0.0
  0
LINE
  5
81
330
47
100
AcDbEntity
  8
1
  6
PHANTOM
 62
     4
100
AcDbLine
 10
408.2308589290144
 20
587.161461036433
 30
0.0
 11
408.2308589290144
 21
664.1614610364331
 31
0.0
  0
LINE
  5
82
330
47
100
AcDbEntity
  8
1
  6
Continuous
 62
     7
100
AcDbLine
 10
408.2308589290144
 20
595.4225680353634
 30
0.0
 11
408.2308589290144
 21
600.1614610364331
 31
0.0
  0
LINE
  5
83
330
47
100
AcDbEntity
  8
1
  6
Continuous
 62
     7
100
AcDbLine
 10
237.7308589290144
 20
647.1488179980381
 30
0.0
 11
237.7308589290144
 21
645.6614610364331
 31
0.0
  0
LINE
  5
84
330
47
100
AcDbEntity
  8
1
  6
Continuous
 62
     7
100
AcDbLine
 10
258.7083589290144
 20
593.1614610364331
 30
0.0
 11
237.7533589290144
 21
593.1614610364331
 31
0.0
  0
LINE
  5
85
330
47
100
AcDbEntity
  8
1
  6
Continuous
 62
     7
100
AcDbLine
 10
260.7308589290144
 20
610.6614610364331
 30
0.0
 11
260.7308589290144
 21
604.7436358472288
 31
0.0
  0
LINE
  5
86
330
47
100
AcDbEntity
  8
1
  6
Continuous
 62
     7
100
AcDbLine
 10
235.7308589290144
 20
628.1614610364331
 30
0.0
 11
235.7308589290144
 21
604.7436358472288
 31
0.0
  0
LINE
  5
87
330
47
100
AcDbEntity
  8
1
  6
Continuous
 62
     7
100
AcDbLine
 10
258.7308589290144
 20
647.1488179980381
 30
0.0
 11
258.7308589290144
 21
645.6614610364331
 31
0.0
  0
LINE
  5
88
330
47
100
AcDbEntity
  8
1
  6
Continuous
 62
     7
100
AcDbLine
 10
263.2419659279447
 20
600.1614610364331
 30
0.0
 11
263.2419659279447
 21
595.4225680353634
 31
0.0
  0
LINE
  5
89
330
47
100
AcDbEntity
  8
1
  6
Continuous
 62
     7
100
AcDbLine
 10
271.7308589290144
 20
616.1614610364331
 30
0.0
 11
273.2009575228402
 21
616.1614610364331
 31
0.0
  0
LINE
  5
8A
330
47
100
AcDbEntity
  8
1
  6
Continuous
 62
     7
100
AcDbLine
 10
271.7308589290144
 20
616.9744610364331
 30
0.0
 11
271.7308589290144
 21
616.1614610364331
 31
0.0
  0
LINE
  5
8B
330
47
100
AcDbEntity
  8
1
  6
Continuous
 62
     7
100
AcDbLine
 10
270.322701622461
 20
616.1614610364331
 30
0.0
 11
271.7308589290144
 21
616.1614610364331
 31
0.0
  0
LINE
  5
8C
330
47
100
AcDbEntity
  8
1
  6
Continuous
 62
     2
100
AcDbLine
 10
270.322701622461
 20
616.1614610364331
 30
0.0
 11
271.7308589290144
 21
616.9744610364331
 31
0.0
  0
LINE
  5
8D
330
47
100
AcDbEntity
  8
1
  6
Continuous
 62
     7
100
AcDbLine
 10
237.7308589290144
 20
649.1614610364331
 30
0.0
 11
238.8928589290144
 21
649.1614610364331
 31
0.0
  0
LINE
  5
8E
330
47
100
AcDbEntity
  8
1
  6
Continuous
 62
     2
100
AcDbLine
 10
237.7308589290144
 20
647.1488179980381
 30
0.0
 11
238.8928589290144
 21
649.1614610364331
 31
0.0
  0
LINE
  5
8F
330
47
100
AcDbEntity
  8
1
  6
Continuous
 62
     2
100
AcDbLine
 10
238.8928589290144
 20
649.1614610364331
 30
0.0
 11
238.8928589290144
 21
650.1614610364331
 31
0.0
  0
LINE
  5
90
330
47
100
AcDbEntity
  8
1
  6
Continuous
 62
     2
100
AcDbLine
 10
257.5688589290144
 20
649.1614610364331
 30
0.0
 11
258.7308589290144
 21
647.1488179980381
 31
0.0
  0
LINE
  5
91
330
47
100
AcDbEntity
  8
1
  6
Continuous
 62
     7
100
AcDbLine
 10
258.7308589290144
 20
649.1614610364331
 30
0.0
 11
258.7308589290144
 21
647.1488179980381
 31
0.0
  0
LINE
  5
92
330
47
100
AcDbEntity
  8
1
  6
Continuous
 62
     7
100
AcDbLine
 10
257.5688589290144
 20
649.1614610364331
 30
0.0
 11
258.7308589290144
 21
649.1614610364331
 31
0.0
  0
LINE
  5
93
330
47
100
AcDbEntity
  8
1
  6
Continuous
 62
     2
100
AcDbLine
 10
271.7308589290144
 20
639.348461036433
 30
0.0
 11
270.322701622461
 21
640.1614610364331
 31
0.0
  0
LINE
  5
94
330
47
100
AcDbEntity
  8
1
  6
Continuous
 62
     7
100
AcDbLine
 10
271.7308589290144
 20
640.1614610364331
 30
0.0
 11
270.322701622461
 21
640.1614610364331
 31
0.0
  0
LINE
  5
95
330
47
100
AcDbEntity
  8
1
  6
Continuous
 62
     7
100
AcDbLine
 10
271.7308589290144
 20
640.1614610364331
 30
0.0
 11
271.7308589290144
 21
639.348461036433
 31
0.0
  0
LINE
  5
96
330
47
100
AcDbEntity
  8
1
  6
Continuous
 62
     2
100
AcDbLine
 10
271.7308589290144
 20
639.348461036433
 30
0.0
 11
273.2009575228402
 21
639.348461036433
 31
0.0
  0
LINE
  5
97
330
47
100
AcDbEntity
  8
1
  6
Continuous
 62
     7
100
AcDbLine
 10
237.7308589290144
 20
649.1614610364331
 30
0.0
 11
237.7308589290144
 21
647.1488179980381
 31
0.0
  0
LINE
  5
98
330
47
100
AcDbEntity
  8
1
  6
Continuous
 62
     7
100
AcDbLine
 10
258.7083589290144
 20
593.1614610364331
 30
0.0
 11
260.9808589290144
 21
593.1614610364331
 31
0.0
  0
LINE
  5
99
330
47
100
AcDbEntity
  8
1
  6
Continuous
 62
     7
100
AcDbLine
 10
263.2419659279447
 20
595.4225680353634
 30
0.0
 11
260.9808589290144
 21
593.1614610364331
 31
0.0
  0
LINE
  5
9A
330
47
100
AcDbEntity
  8
1
  6
Continuous
 62
     7
100
AcDbLine
 10
260.9808589290144
 20
593.1614610364331
 30
0.0
 11
258.7083589290144
 21
593.1614610364331
 31
0.0
  0
LINE
  5
9B
330
47
100
AcDbEntity
  8
1
  6
Continuous
 62
     7
100
AcDbLine
 10
235.4808589290144
 20
593.1614610364331
 30
0.0
 11
233.2197519300842
 21
595.4225680353634
 31
0.0
  0
LINE
  5
9C
330
47
100
AcDbEntity
  8
1
  6
Continuous
 62
     7
100
AcDbLine
 10
235.4808589290144
 20
593.1614610364331
 30
0.0
 11
237.7533589290144
 21
593.1614610364331
 31
0.0
  0
LINE
  5
9D
330
47
100
AcDbEntity
  8
1
  6
Continuous
 62
     7
100
AcDbLine
 10
263.2419659279447
 20
600.1614610364331
 30
0.0
 11
262.1953250230818
 21
601.208101941296
 31
0.0
  0
LINE
  5
9E
330
47
100
AcDbEntity
  8
1
  6
Continuous
 62
     7
100
AcDbLine
 10
270.322701622461
 20
640.1614610364331
 30
0.0
 11
269.822701622461
 21
640.6614610364331
 31
0.0
  0
LINE
  5
9F
330
47
100
AcDbEntity
  8
1
  6
Continuous
 62
     7
100
AcDbLine
 10
269.822701622461
 20
640.6614610364331
 30
0.0
 11
263.7308589290144
 21
640.6614610364331
 31
0.0
  0
LINE
  5
A0
330
47
100
AcDbEntity
  8
1
  6
Continuous
 62
     7
100
AcDbLine
 10
270.322701622461
 20
616.1614610364331
 30
0.0
 11
269.822701622461
 21
615.6614610364331
 31
0.0
  0
LINE
  5
A1
330
47
100
AcDbEntity
  8
1
  6
Continuous
 62
     7
100
AcDbLine
 10
269.822701622461
 20
615.6614610364331
 30
0.0
 11
265.7308589290144
 21
615.6614610364331
 31
0.0
  0
LINE
  5
A2
330
47
100
AcDbEntity
  8
1
  6
Continuous
 62
     7
100
AcDbLine
 10
233.2197519300842
 20
595.4225680353634
 30
0.0
 11
233.2197519300842
 21
600.1614610364331
 31
0.0
  0
LINE
  5
A3
330
47
100
AcDbEntity
  8
1
  6
Continuous
 62
     7
100
AcDbLine
 10
234.2663928349471
 20
601.208101941296
 30
0.0
 11
233.2197519300842
 21
600.1614610364331
 31
0.0
  0
LINE
  5
A4
330
47
100
AcDbEntity
  8
1
  6
Continuous
 62
     7
100
AcDbLine
 10
233.2197519300842
 20
595.4225680353634
 30
0.0
 11
233.2197519300842
 21
600.1614610364331
 31
0.0
  0
LINE
  5
A5
330
47
100
AcDbEntity
  8
1
  6
PHANTOM
 62
     4
100
AcDbLine
 10
280.7308589290144
 20
628.1614610364331
 30
0.0
 11
232.7308589290144
 21
628.1614610364331
 31
0.0
  0
LINE
  5
A6
330
47
100
AcDbEntity
  8
1
  6
PHANTOM
 62
     4
100
AcDbLine
 10
248.2308589290144
 20
661.1614610364331
 30
0.0
 11
248.2308589290144
 21
590.1614610364331
 31
0.0
  0
LINE
  5
A7
330
47
100
AcDbEntity
  8
1
  6
Continuous
 62
     7
100
AcDbLine
 10
257.5688589290144
 20
649.1614610364331
 30
0.0
 11
238.8928589290144
 21
649.1614610364331
 31
0.0
  0
LINE
  5
A8
330
47
100
AcDbEntity
  8
1
  6
Continuous
 62
     7
100
AcDbLine
 10
271.7308589290144
 20
639.348461036433
 30
0.0
 11
271.7308589290144
 21
616.9744610364331
 31
0.0
  0
LINE
  5
A9
330
47
100
AcDbEntity
  8
1
  6
Continuous
 62
     7
100
AcDbLine
 10
269.822701622461
 20
640.6614610364331
 30
0.0
 11
269.822701622461
 21
615.6614610364331
 31
0.0
  0
LINE
  5
AA
330
47
100
AcDbEntity
  8
1
  6
Continuous
 62
     7
100
AcDbLine
 10
255.7364124284795
 20
595.4225680353634
 30
0.0
 11
255.7364124284795
 21
600.1614610364331
 31
0.0
  0
LINE
  5
AB
330
47
100
AcDbEntity
  8
1
  6
Continuous
 62
     7
100
AcDbLine
 10
240.7253054295493
 20
595.4225680353634
 30
0.0
 11
240.7253054295493
 21
600.1614610364331
 31
0.0
  0
LINE
  5
AC
330
47
100
AcDbEntity
  8
1
  6
Continuous
 62
     7
100
AcDbLine
 10
417.5688589290144
 20
649.1614610364331
 30
0.0
 11
415.5143127811994
 21
649.1614610364331
 31
0.0
  0
LINE
  5
AD
330
47
100
AcDbEntity
  8
1
  6
Continuous
 62
     7
100
AcDbLine
 10
395.4808589290144
 20
593.1614610364331
 30
0.0
 11
397.7533589290144
 21
593.1614610364331
 31
0.0
  0
LINE
  5
AE
330
47
100
AcDbEntity
  8
1
  6
Continuous
 62
     7
100
AcDbLine
 10
395.4808589290144
 20
593.1614610364331
 30
0.0
 11
395.2308589290144
 21
593.4114610364331
 31
0.0
  0
LINE
  5
AF
330
47
100
AcDbEntity
  8
1
  6
Continuous
 62
     7
100
AcDbLine
 10
420.9808589290144
 20
593.1614610364331
 30
0.0
 11
418.7083589290144
 21
593.1614610364331
 31
0.0
  0
LINE
  5
B0
330
47
100
AcDbEntity
  8
1
  6
Continuous
 62
     7
100
AcDbLine
 10
418.7083589290144
 20
593.1614610364331
 30
0.0
 11
420.9808589290144
 21
593.1614610364331
 31
0.0
  0
LINE
  5
B1
330
47
100
AcDbEntity
  8
1
  6
Continuous
 62
     7
100
AcDbLine
 10
397.7308589290144
 20
649.1614610364331
 30
0.0
 11
397.7308589290144
 21
647.1488179980381
 31
0.0
  0
LINE
  5
B2
330
47
100
AcDbEntity
  8
1
  6
Continuous
 62
     7
100
AcDbLine
 10
417.5688589290144
 20
649.1614610364331
 30
0.0
 11
418.7308589290144
 21
649.1614610364331
 31
0.0
  0
LINE
  5
B3
330
47
100
AcDbEntity
  8
1
  6
Continuous
 62
     7
100
AcDbLine
 10
418.7308589290144
 20
649.1614610364331
 30
0.0
 11
418.7308589290144
 21
647.1488179980381
 31
0.0
  0
LINE
  5
B4
330
47
100
AcDbEntity
  8
1
  6
Continuous
 62
     2
100
AcDbLine
 10
417.5688589290144
 20
649.1614610364331
 30
0.0
 11
418.7308589290144
 21
647.1488179980381
 31
0.0
  0
LINE
  5
B5
330
47
100
AcDbEntity
  8
1
  6
Continuous
 62
     2
100
AcDbLine
 10
397.7308589290144
 20
647.1488179980381
 30
0.0
 11
398.8928589290144
 21
649.1614610364331
 31
0.0
  0
LINE
  5
B6
330
47
100
AcDbEntity
  8
1
  6
Continuous
 62
     7
100
AcDbLine
 10
397.7308589290144
 20
649.1614610364331
 30
0.0
 11
398.8928589290144
 21
649.1614610364331
 31
0.0
  0
LINE
  5
B7
330
47
100
AcDbEntity
  8
1
  6
Continuous
 62
     2
100
AcDbLine
 10
398.8928589290144
 20
649.1614610364331
 30
0.0
 11
398.8928589290144
 21
650.1614610364331
 31
0.0
  0
LINE
  5
B8
330
47
100
AcDbEntity
  8
1
  6
Continuous
 62
     7
100
AcDbLine
 10
418.7308589290144
 20
647.1488179980381
 30
0.0
 11
418.7308589290144
 21
645.6614610364331
 31
0.0
  0
LINE
  5
B9
330
47
100
AcDbEntity
  8
1
  6
Continuous
 62
     7
100
AcDbLine
 10
418.7083589290144
 20
593.1614610364331
 30
0.0
 11
397.7533589290144
 21
593.1614610364331
 31
0.0
  0
LINE
  5
BA
330
47
100
AcDbEntity
  8
1
  6
Continuous
 62
     7
100
AcDbLine
 10
397.7308589290144
 20
647.1488179980381
 30
0.0
 11
397.7308589290144
 21
645.6614610364331
 31
0.0
  0
LINE
  5
BB
330
47
100
AcDbEntity
  8
1
  6
Continuous
 62
     7
100
AcDbLine
 10
420.7308589290144
 20
604.7436358472288
 30
0.0
 11
420.7308589290144
 21
611.9017092378053
 31
0.0
  0
LINE
  5
BC
330
47
100
AcDbEntity
  8
1
  6
Continuous
 62
     7
100
AcDbLine
 10
421.2308589290144
 20
602.5641863754586
 30
0.0
 11
421.2308589290144
 21
593.4114610364331
 31
0.0
  0
LINE
  5
BD
330
47
100
AcDbEntity
  8
1
  6
Continuous
 62
     7
100
AcDbLine
 10
421.2308589290144
 20
593.4114610364331
 30
0.0
 11
420.9808589290144
 21
593.1614610364331
 31
0.0
  0
LINE
  5
BE
330
47
100
AcDbEntity
  8
1
  6
Continuous
 62
     7
100
AcDbLine
 10
395.2308589290144
 20
602.5641863754586
 30
0.0
 11
395.2308589290144
 21
595.4225680353634
 31
0.0
  0
LINE
  5
BF
330
47
100
AcDbEntity
  8
1
  6
Continuous
 62
     7
100
AcDbLine
 10
395.2308589290144
 20
595.4225680353634
 30
0.0
 11
395.2308589290144
 21
593.4114610364331
 31
0.0
  0
LINE
  5
C0
330
47
100
AcDbEntity
  8
1
  6
PHANTOM
 62
     4
100
AcDbLine
 10
423.7308589290144
 20
628.161461036433
 30
0.0
 11
392.7308589290144
 21
628.1614610364331
 31
0.0
  0
LINE
  5
C1
330
47
100
AcDbEntity
  8
1
  6
Continuous
 62
     7
100
AcDbLine
 10
233.219751930084
 20
773.5710600752827
 30
0.0
 11
240.7253054295491
 21
786.571060075283
 31
0.0
  0
LINE
  5
C2
330
47
100
AcDbEntity
  8
1
  6
Continuous
 62
     7
100
AcDbLine
 10
273.2009575228402
 20
785.571060075283
 30
0.0
 11
271.7308589290144
 21
785.571060075283
 31
0.0
  0
LINE
  5
C3
330
47
100
AcDbEntity
  8
1
  6
Continuous
 62
     2
100
AcDbLine
 10
273.2009575228404
 20
762.3840600752828
 30
0.0
 11
271.7308589290144
 21
762.3840600752828
 31
0.0
  0
LINE
  5
C4
330
47
100
AcDbEntity
  8
1
  6
PHANTOM
 62
     4
100
AcDbLine
 10
248.2308589290142
 20
789.571060075283
 30
0.0
 11
248.2308589290142
 21
757.571060075283
 31
0.0
  0
LINE
  5
C5
330
47
100
AcDbEntity
  8
1
  6
PHANTOM
 62
     4
100
AcDbLine
 10
280.7308589290144
 20
773.571060075283
 30
0.0
 11
230.219751930084
 21
773.571060075283
 31
0.0
  0
LINE
  5
C6
330
47
100
AcDbEntity
  8
1
  6
Continuous
 62
     7
100
AcDbLine
 10
270.3227016224607
 20
785.571060075283
 30
0.0
 11
270.3227016224607
 21
761.571060075283
 31
0.0
  0
LINE
  5
C7
330
47
100
AcDbEntity
  8
1
  6
Continuous
 62
     7
100
AcDbLine
 10
269.8227016224607
 20
786.071060075283
 30
0.0
 11
269.8227016224607
 21
761.071060075283
 31
0.0
  0
LINE
  5
C8
330
47
100
AcDbEntity
  8
1
  6
Continuous
 62
     7
100
AcDbLine
 10
271.7308589290144
 20
762.3840600752828
 30
0.0
 11
271.7308589290144
 21
784.7580600752829
 31
0.0
  0
LINE
  5
C9
330
47
100
AcDbEntity
  8
1
  6
Continuous
 62
     7
100
AcDbLine
 10
271.7308589290144
 20
761.571060075283
 30
0.0
 11
273.2009575228404
 21
761.571060075283
 31
0.0
  0
LINE
  5
CA
330
47
100
AcDbEntity
  8
1
  6
Continuous
 62
     7
100
AcDbLine
 10
271.7308589290144
 20
762.3840600752828
 30
0.0
 11
271.7308589290144
 21
761.571060075283
 31
0.0
  0
LINE
  5
CB
330
47
100
AcDbEntity
  8
1
  6
Continuous
 62
     7
100
AcDbLine
 10
270.3227016224607
 20
761.571060075283
 30
0.0
 11
271.7308589290144
 21
761.571060075283
 31
0.0
  0
LINE
  5
CC
330
47
100
AcDbEntity
  8
1
  6
Continuous
 62
     2
100
AcDbLine
 10
270.3227016224607
 20
761.571060075283
 30
0.0
 11
271.7308589290144
 21
762.3840600752828
 31
0.0
  0
LINE
  5
CD
330
47
100
AcDbEntity
  8
1
  6
Continuous
 62
     2
100
AcDbLine
 10
271.7308589290144
 20
784.7580600752829
 30
0.0
 11
270.3227016224607
 21
785.571060075283
 31
0.0
  0
LINE
  5
CE
330
47
100
AcDbEntity
  8
1
  6
Continuous
 62
     7
100
AcDbLine
 10
271.7308589290144
 20
785.571060075283
 30
0.0
 11
270.3227016224607
 21
785.571060075283
 31
0.0
  0
LINE
  5
CF
330
47
100
AcDbEntity
  8
1
  6
Continuous
 62
     7
100
AcDbLine
 10
271.7308589290144
 20
785.571060075283
 30
0.0
 11
271.7308589290144
 21
784.7580600752829
 31
0.0
  0
LINE
  5
D0
330
47
100
AcDbEntity
  8
1
  6
Continuous
 62
     2
100
AcDbLine
 10
271.7308589290144
 20
784.7580600752829
 30
0.0
 11
273.2009575228402
 21
784.7580600752829
 31
0.0
  0
LINE
  5
D1
330
47
100
AcDbEntity
  8
1
  6
Continuous
 62
     7
100
AcDbLine
 10
248.2308589290142
 20
760.571060075283
 30
0.0
 11
240.7253054295491
 21
760.571060075283
 31
0.0
  0
LINE
  5
D2
330
47
100
AcDbEntity
  8
1
  6
Continuous
 62
     7
100
AcDbLine
 10
240.7253054295491
 20
760.571060075283
 30
0.0
 11
233.219751930084
 21
773.5710600752827
 31
0.0
  0
LINE
  5
D3
330
47
100
AcDbEntity
  8
1
  6
Continuous
 62
     7
100
AcDbLine
 10
240.7253054295491
 20
786.571060075283
 30
0.0
 11
248.2308589290142
 21
786.571060075283
 31
0.0
  0
LINE
  5
D4
330
47
100
AcDbEntity
  8
1
  6
Continuous
 62
     7
100
AcDbLine
 10
255.7364124284793
 20
760.571060075283
 30
0.0
 11
248.2308589290142
 21
760.571060075283
 31
0.0
  0
LINE
  5
D5
330
47
100
AcDbEntity
  8
1
  6
Continuous
 62
     7
100
AcDbLine
 10
255.7364124284793
 20
786.571060075283
 30
0.0
 11
256.0250875630741
 21
786.071060075283
 31
0.0
  0
LINE
  5
D6
330
47
100
AcDbEntity
  8
1
  6
Continuous
 62
     7
100
AcDbLine
 10
248.2308589290142
 20
786.571060075283
 30
0.0
 11
255.7364124284793
 21
786.571060075283
 31
0.0
  0
LINE
  5
D7
330
47
100
AcDbEntity
  8
1
  6
Continuous
 62
     7
100
AcDbLine
 10
270.3227016224607
 20
785.571060075283
 30
0.0
 11
269.8227016224607
 21
786.071060075283
 31
0.0
  0
LINE
  5
D8
330
47
100
AcDbEntity
  8
1
  6
Continuous
 62
     7
100
AcDbLine
 10
269.8227016224607
 20
786.071060075283
 30
0.0
 11
248.2308589290142
 21
786.071060075283
 31
0.0
  0
LINE
  5
D9
330
47
100
AcDbEntity
  8
1
  6
Continuous
 62
     7
100
AcDbLine
 10
270.3227016224607
 20
761.571060075283
 30
0.0
 11
269.8227016224607
 21
761.071060075283
 31
0.0
  0
LINE
  5
DA
330
47
100
AcDbEntity
  8
1
  6
Continuous
 62
     7
100
AcDbLine
 10
269.8227016224607
 20
761.071060075283
 30
0.0
 11
248.2308589290142
 21
761.0710600752827
 31
0.0
  0
LINE
  5
DB
330
47
100
AcDbEntity
  8
1
  6
Continuous
 62
     7
100
AcDbLine
 10
256.0250875630741
 20
761.071060075283
 30
0.0
 11
255.7364124284793
 21
760.571060075283
 31
0.0
  0
LINE
  5
DC
330
47
100
AcDbEntity
  8
1
  6
Continuous
 62
     7
100
AcDbLine
 10
248.7308589290144
 20
767.8428404565883
 30
0.0
 11
248.7308589290144
 21
779.2992796939777
 31
0.0
  0
ARC
  5
DD
330
47
100
AcDbEntity
  8
1
  6
Continuous
 62
     7
100
AcDbCircle
 10
440.7308589290144
 20
628.1614610364331
 30
0.0
 40
44.99999999999997
100
AcDbArc
 50
166.9603964966862
 51
171.2575585027684
  0
ARC
  5
DE
330
47
100
AcDbEntity
  8
1
  6
Continuous
 62
     7
100
AcDbCircle
 10
280.7308589290144
 20
628.1614610364331
 30
0.0
 40
44.99999999999997
100
AcDbArc
 50
166.9603964966862
 51
180.0
  0
ARC
  5
DF
330
47
100
AcDbEntity
  8
1
  6
Continuous
 62
     7
100
AcDbCircle
 10
205.168358929014
 20
645.6614610364331
 30
0.0
 40
32.56250000000041
100
AcDbArc
 50
346.960396496686
 51
0.0
  0
ARC
  5
E0
330
47
100
AcDbEntity
  8
1
  6
Continuous
 62
     7
100
AcDbCircle
 10
365.168358929014
 20
645.6614610364331
 30
0.0
 40
32.56250000000041
100
AcDbArc
 50
346.960396496686
 51
0.0
  0
ARC
  5
E1
330
47
100
AcDbEntity
  8
1
  6
Continuous
 62
     7
100
AcDbCircle
 10
375.7308589290144
 20
628.1614610364331
 30
0.0
 40
45.00000000000016
100
AcDbArc
 50
8.74244149723128
 51
13.03960350331371
  0
ARC
  5
E2
330
47
100
AcDbEntity
  8
1
  6
Continuous
 62
     7
100
AcDbCircle
 10
451.2933589290149
 20
645.6614610364331
 30
0.0
 40
32.56250000000051
100
AcDbArc
 50
180.0
 51
193.0396035033141
  0
ARC
  5
E3
330
47
100
AcDbEntity
  8
1
  6
Continuous
 62
     7
100
AcDbCircle
 10
248.2308589290142
 20
773.5710600752827
 30
0.0
 40
12.50000000000023
100
AcDbArc
 50
90.0
 51
210.5307023386921
  0
ARC
  5
E4
330
47
100
AcDbEntity
  8
1
  6
Continuous
 62
     7
100
AcDbCircle
 10
248.2308589290142
 20
773.5710600752827
 30
0.0
 40
12.75000000000023
100
AcDbArc
 50
78.63512303296623
 51
150.1296398799226
  0
ARC
  5
E5
330
47
100
AcDbEntity
  8
1
  6
Continuous
 62
     7
100
AcDbCircle
 10
248.2308589290142
 20
773.5710600752827
 30
0.0
 40
12.74999999999994
100
AcDbArc
 50
150.1296398799226
 51
270.0
  0
ARC
  5
E6
330
47
100
AcDbEntity
  8
1
  6
Continuous
 62
     7
100
AcDbCircle
 10
248.2308589290142
 20
773.5710600752827
 30
0.0
 40
12.74999999999977
100
AcDbArc
 50
270.0
 51
281.3648769670322
  0
ARC
  5
E7
330
47
100
AcDbEntity
  8
1
  6
Continuous
 62
     7
100
AcDbCircle
 10
248.2308589290142
 20
773.5710600752827
 30
0.0
 40
12.50000000000003
100
AcDbArc
 50
210.5307023386921
 51
270.0
  0
SPLINE
  5
E8
330
47
100
AcDbEntity
  8
1
  6
Continuous
 62
     7
100
AcDbSpline
210
0.0
220
0.0
230
1.0
 70
     8
 71
     3
 72
    33
 73
    29
 74
    27
 42
0.000000001
 43
0.0000000001
 44
0.00000001
 40
0.0
 40
0.0
 40
0.0
 40
0.0
 40
0.4133568979875715
 40
0.8267148958295667
 40
1.047477426098268
 40
1.268240269860771
 40
1.504227365470866
 40
1.740225678003719
 40
2.001195134575734
 40
2.262139226749283
 40
2.573023660009727
 40
2.884147970269538
 40
3.395079508021838
 40
3.905704149328212
 40
4.36771577375024
 40
4.829727398172277
 40
5.340352039478626
 40
5.851283577230927
 40
6.162407887490786
 40
6.473292320751176
 40
6.734236412924725
 40
6.995205869496786
 40
7.231204182029685
 40
7.467191277639735
 40
7.68795412140231
 40
7.908716651670851
 40
8.322074649512762
 40
8.735431547500436
 40
8.735431547500436
 40
8.735431547500436
 40
8.735431547500436
 10
263.2419659279447
 20
595.4225680353634
 30
0.0
 10
263.1437157268799
 20
595.3259515822733
 30
0.0
 10
262.9472150533921
 20
595.1327184292659
 30
0.0
 10
262.6881611894299
 20
594.8984414708498
 30
0.0
 10
262.4714783827631
 20
594.7133483937753
 30
0.0
 10
262.2963433857946
 20
594.570726513908
 30
0.0
 10
262.1135466974054
 20
594.4295821118692
 30
0.0
 10
261.9157704143594
 20
594.2860737164389
 30
0.0
 10
261.7062543692649
 20
594.1447908270809
 30
0.0
 10
261.4699559591863
 20
593.998960023678
 30
0.0
 10
261.212085407658
 20
593.8567379135236
 30
0.0
 10
260.8706196241909
 20
593.6949116179983
 30
0.0
 10
260.4524128185908
 20
593.5417475496617
 30
0.0
 10
259.9678286507568
 20
593.4344528903525
 30
0.0
 10
259.4891891782121
 20
593.4011371060891
 30
0.0
 10
259.0105497056673
 20
593.4344528903528
 30
0.0
 10
258.5259655378334
 20
593.5417475496619
 30
0.0
 10
258.1077587322333
 20
593.6949116179984
 30
0.0
 10
257.7662929487662
 20
593.8567379135236
 30
0.0
 10
257.5084223972379
 20
593.9989600236783
 30
0.0
 10
257.2721239871591
 20
594.1447908270809
 30
0.0
 10
257.0626079420649
 20
594.2860737164389
 30
0.0
 10
256.8648316590186
 20
594.429582111869
 30
0.0
 10
256.6820349706294
 20
594.5707265139083
 30
0.0
 10
256.5068999736611
 20
594.7133483937754
 30
0.0
 10
256.2902171669946
 20
594.8984414708498
 30
0.0
 10
256.0311633030321
 20
595.1327184292659
 30
0.0
 10
255.8346626295443
 20
595.3259515822735
 30
0.0
 10
255.7364124284795
 20
595.4225680353634
 30
0.0
 11
263.2419659279447
 21
595.4225680353634
 31
0.0
 11
262.9452263396605
 21
595.1348015604488
 31
0.0
 11
262.6388721618088
 21
594.8572912856307
 31
0.0
 11
262.4709229921277
 21
594.7140112406657
 31
0.0
 11
262.2997053260543
 21
594.5746529107644
 31
0.0
 11
262.1128461469677
 21
594.4305225649022
 31
0.0
 11
261.9217683368169
 21
594.2920145358981
 31
0.0
 11
261.7052945359732
 21
594.14626080198
 31
0.0
 11
261.4831360014621
 21
594.0093761610319
 31
0.0
 11
261.2107037094043
 21
593.859610419621
 31
0.0
 11
260.9293796970297
 21
593.7267377861656
 31
0.0
 11
260.4490390348505
 21
593.5526002394217
 31
0.0
 11
259.9500750127845
 21
593.4440994112992
 31
0.0
 11
259.4891891782121
 21
593.4118660559351
 31
0.0
 11
259.0283033436397
 21
593.4440994112994
 31
0.0
 11
258.5293393215737
 21
593.5526002394217
 31
0.0
 11
258.0489986593944
 21
593.7267377861656
 31
0.0
 11
257.7676746470199
 21
593.8596104196212
 31
0.0
 11
257.4952423549621
 21
594.0093761610319
 31
0.0
 11
257.2730838204509
 21
594.14626080198
 31
0.0
 11
257.0566100196072
 21
594.2920145358981
 31
0.0
 11
256.8655322094564
 21
594.4305225649022
 31
0.0
 11
256.6786730303698
 21
594.5746529107644
 31
0.0
 11
256.5074553642964
 21
594.7140112406659
 31
0.0
 11
256.3395061946154
 21
594.8572912856307
 31
0.0
 11
256.0331520167639
 21
595.1348015604488
 31
0.0
 11
255.7364124284795
 21
595.4225680353634
 31
0.0
  0
SPLINE
  5
E9
330
47
100
AcDbEntity
  8
1
  6
Continuous
 62
     7
100
AcDbSpline
210
0.0
220
0.0
230
1.0
 70
     8
 71
     3
 72
    33
 73
    29
 74
    27
 42
0.000000001
 43
0.0000000001
 44
0.00000001
 40
0.0
 40
0.0
 40
0.0
 40
0.0
 40
0.6660942065948449
 40
1.332190221276409
 40
1.699632942691348
 40
2.067077051446442
 40
2.470589211701837
 40
2.87410700574545
 40
3.334983197926025
 40
3.795855498283354
 40
4.367402400501853
 40
4.939051288057275
 40
5.929102488371993
 40
6.919199819071143
 40
7.841546050681699
 40
8.763892282292282
 40
9.753989612991461
 40
10.74404081330618
 40
11.31568970086163
 40
11.88723660308013
 40
12.34810890343738
 40
12.80898509561784
 40
13.21250288966156
 40
13.61601504991691
 40
13.98345915867196
 40
14.35090188008689
 40
15.0169978947686
 40
15.6830921013634
 40
15.6830921013634
 40
15.6830921013634
 40
15.6830921013634
 10
255.7364124284795
 20
595.4225680353634
 30
0.0
 10
255.5371361503502
 20
595.324630121869
 30
0.0
 10
255.1385830467588
 20
595.1287540422461
 30
0.0
 10
254.6221361164834
 20
594.8955585712763
 30
0.0
 10
254.1926407342252
 20
594.7121797224182
 30
0.0
 10
253.841149430495
 20
594.5691267732875
 30
0.0
 10
253.4758735568554
 20
594.428205285469
 30
0.0
 10
253.0785196273894
 20
594.2841370442928
 30
0.0
 10
252.6598254037931
 20
594.1431196214804
 30
0.0
 10
252.1840887145339
 20
593.9964952744865
 30
0.0
 10
251.6684223539768
 20
593.8546965823872
 30
0.0
 10
250.9762806501322
 20
593.6910633862453
 30
0.0
 10
250.1386649469145
 20
593.5389877707366
 30
0.0
 10
249.1759898287534
 20
593.4340460247075
 30
0.0
 10
248.2308589290143
 20
593.4006982585161
 30
0.0
 10
247.2857280292756
 20
593.4340460247075
 30
0.0
 10
246.3230529111142
 20
593.5389877707368
 30
0.0
 10
245.4854372078966
 20
593.6910633862452
 30
0.0
 10
244.793295504052
 20
593.8546965823875
 30
0.0
 10
244.2776291434948
 20
593.9964952744864
 30
0.0
 10
243.8018924542357
 20
594.1431196214805
 30
0.0
 10
243.3831982306394
 20
594.2841370442928
 30
0.0
 10
242.9858443011734
 20
594.4282052854692
 30
0.0
 10
242.6205684275338
 20
594.569126773287
 30
0.0
 10
242.2690771238036
 20
594.7121797224183
 30
0.0
 10
241.8395817415454
 20
594.8955585712758
 30
0.0
 10
241.32313481127
 20
595.1287540422463
 30
0.0
 10
240.9245817076786
 20
595.3246301218691
 30
0.0
 10
240.7253054295493
 20
595.4225680353634
 30
0.0
 11
255.7364124284795
 21
595.4225680353634
 31
0.0
 11
255.1370227339165
 21
595.1320280424842
 31
0.0
 11
254.5302248962078
 21
594.8572912856308
 31
0.0
 11
254.1922384221575
 21
594.7131410271286
 31
0.0
 11
253.8518912246988
 21
594.5746529107645
 31
0.0
 11
253.4753948310054
 21
594.429489109625
 31
0.0
 11
253.0960172462241
 21
594.2920145358983
 31
0.0
 11
252.6592135997965
 21
594.1450130421179
 31
0.0
 11
252.2187525755143
 21
594.0093761610319
 31
0.0
 11
251.6676034848218
 21
593.8580469122023
 31
0.0
 11
251.1112399666497
 21
593.7267377861657
 31
0.0
 11
250.1369840546468
 21
593.5505935325896
 31
0.0
 11
249.1526305981588
 21
593.4440994112994
 31
0.0
 11
248.2308589290144
 21
593.4115485015209
 31
0.0
 11
247.30908725987
 21
593.4440994112994
 31
0.0
 11
246.324733803382
 21
593.5505935325896
 31
0.0
 11
245.3504778913791
 21
593.7267377861657
 31
0.0
 11
244.794114373207
 21
593.8580469122023
 31
0.0
 11
244.2429652825144
 21
594.0093761610319
 31
0.0
 11
243.8025042582323
 21
594.145013042118
 31
0.0
 11
243.3657006118049
 21
594.2920145358983
 31
0.0
 11
242.9863230270234
 21
594.429489109625
 31
0.0
 11
242.60982663333
 21
594.5746529107644
 31
0.0
 11
242.2694794358713
 21
594.7131410271284
 31
0.0
 11
241.931492961821
 21
594.8572912856307
 31
0.0
 11
241.3246951241123
 21
595.1320280424843
 31
0.0
 11
240.7253054295493
 21
595.4225680353634
 31
0.0
  0
SPLINE
  5
EA
330
47
100
AcDbEntity
  8
1
  6
Continuous
 62
     7
100
AcDbSpline
210
0.0
220
0.0
230
1.0
 70
     8
 71
     3
 72
    33
 73
    29
 74
    27
 42
0.000000001
 43
0.0000000001
 44
0.00000001
 40
0.0
 40
0.0
 40
0.0
 40
0.0
 40
0.4133568979875308
 40
0.8267148958294417
 40
1.0474774260981
 40
1.268240269860669
 40
1.504227365470719
 40
1.740225678003664
 40
2.001195134575655
 40
2.262139226749277
 40
2.573023660009721
 40
2.884147970269506
 40
3.395079508021806
 40
3.905704149328152
 40
4.367715773750152
 40
4.829727398172189
 40
5.340352039478677
 40
5.85128357723095
 40
6.162407887490732
 40
6.473292320751146
 40
6.734236412924719
 40
6.995205869496711
 40
7.231204182029632
 40
7.467191277639637
 40
7.687954121402322
 40
7.908716651670907
 40
8.322074649512881
 40
8.735431547500392
 40
8.735431547500392
 40
8.735431547500392
 40
8.735431547500392
 10
233.2197519300842
 20
595.4225680353634
 30
0.0
 10
233.3180021311489
 20
595.3259515822735
 30
0.0
 10
233.5145028046368
 20
595.132718429266
 30
0.0
 10
233.7735566685989
 20
594.8984414708494
 30
0.0
 10
233.9902394752656
 20
594.7133483937753
 30
0.0
 10
234.1653744722341
 20
594.5707265139082
 30
0.0
 10
234.3481711606234
 20
594.4295821118692
 30
0.0
 10
234.5459474436694
 20
594.2860737164385
 30
0.0
 10
234.7554634887638
 20
594.144790827081
 30
0.0
 10
234.9917618988425
 20
593.9989600236781
 30
0.0
 10
235.2496324503709
 20
593.8567379135235
 30
0.0
 10
235.591098233838
 20
593.6949116179985
 30
0.0
 10
236.009305039438
 20
593.5417475496617
 30
0.0
 10
236.493889207272
 20
593.4344528903525
 30
0.0
 10
236.9725286798167
 20
593.4011371060892
 30
0.0
 10
237.4511681523615
 20
593.4344528903528
 30
0.0
 10
237.9357523201956
 20
593.5417475496617
 30
0.0
 10
238.3539591257957
 20
593.6949116179985
 30
0.0
 10
238.6954249092626
 20
593.8567379135237
 30
0.0
 10
238.953295460791
 20
593.998960023678
 30
0.0
 10
239.1895938708697
 20
594.1447908270812
 30
0.0
 10
239.399109915964
 20
594.2860737164386
 30
0.0
 10
239.5968861990101
 20
594.4295821118692
 30
0.0
 10
239.7796828873994
 20
594.5707265139082
 30
0.0
 10
239.9548178843677
 20
594.7133483937755
 30
0.0
 10
240.1715006910346
 20
594.8984414708495
 30
0.0
 10
240.4305545549968
 20
595.1327184292659
 30
0.0
 10
240.6270552284846
 20
595.3259515822734
 30
0.0
 10
240.7253054295493
 20
595.4225680353634
 30
0.0
 11
233.2197519300842
 21
595.4225680353634
 31
0.0
 11
233.5164915183684
 21
595.1348015604488
 31
0.0
 11
233.8228456962199
 21
594.8572912856307
 31
0.0
 11
233.990794865901
 21
594.7140112406657
 31
0.0
 11
234.1620125319744
 21
594.5746529107644
 31
0.0
 11
234.348871711061
 21
594.4305225649022
 31
0.0
 11
234.5399495212119
 21
594.2920145358981
 31
0.0
 11
234.7564233220556
 21
594.14626080198
 31
0.0
 11
234.9785818565668
 21
594.0093761610319
 31
0.0
 11
235.2510141486246
 21
593.859610419621
 31
0.0
 11
235.5323381609991
 21
593.7267377861656
 31
0.0
 11
236.0126788231783
 21
593.5526002394217
 31
0.0
 11
236.5116428452443
 21
593.4440994112992
 31
0.0
 11
236.9725286798167
 21
593.4118660559351
 31
0.0
 11
237.4334145143891
 21
593.4440994112994
 31
0.0
 11
237.9323785364552
 21
593.5526002394217
 31
0.0
 11
238.4127191986344
 21
593.7267377861656
 31
0.0
 11
238.6940432110089
 21
593.8596104196212
 31
0.0
 11
238.9664755030668
 21
594.0093761610319
 31
0.0
 11
239.1886340375779
 21
594.14626080198
 31
0.0
 11
239.4051078384216
 21
594.2920145358981
 31
0.0
 11
239.5961856485724
 21
594.4305225649022
 31
0.0
 11
239.783044827659
 21
594.5746529107644
 31
0.0
 11
239.9542624937325
 21
594.7140112406659
 31
0.0
 11
240.1222116634135
 21
594.8572912856307
 31
0.0
 11
240.4285658412651
 21
595.1348015604488
 31
0.0
 11
240.7253054295493
 21
595.4225680353634
 31
0.0
  0
SPLINE
  5
EB
330
47
100
AcDbEntity
  8
1
  6
Continuous
 62
     7
100
AcDbSpline
210
0.0
220
0.0
230
1.0
 70
     8
 71
     3
 72
    33
 73
    29
 74
    27
 42
0.000000001
 43
0.0000000001
 44
0.00000001
 40
0.0
 40
0.0
 40
0.0
 40
0.0
 40
0.4133568979874924
 40
0.8267148958294113
 40
1.047477426098039
 40
1.268240269860542
 40
1.504227365470637
 40
1.740225678003557
 40
2.001195134575635
 40
2.262139226749184
 40
2.573023660009519
 40
2.884147970269378
 40
3.395079508021717
 40
3.905704149328018
 40
4.367715773750062
 40
4.82972739817209
 40
5.340352039478439
 40
5.851283577230778
 40
6.162407887490637
 40
6.473292320750972
 40
6.734236412924521
 40
6.995205869496647
 40
7.231204182029612
 40
7.467191277639662
 40
7.687954121402093
 40
7.908716651670708
 40
8.322074649512466
 40
8.73543154750014
 40
8.73543154750014
 40
8.73543154750014
 40
8.73543154750014
 10
263.2419659279447
 20
600.1614610364331
 30
0.0
 10
263.14371572688
 20
600.258077489523
 30
0.0
 10
262.9472150533921
 20
600.4513106425305
 30
0.0
 10
262.6881611894297
 20
600.6855876009465
 30
0.0
 10
262.4714783827631
 20
600.8706806780209
 30
0.0
 10
262.2963433857946
 20
601.013302557888
 30
0.0
 10
262.1135466974054
 20
601.1544469599271
 30
0.0
 10
261.9157704143593
 20
601.2979553553575
 30
0.0
 10
261.7062543692649
 20
601.4392382447153
 30
0.0
 10
261.4699559591864
 20
601.5850690481184
 30
0.0
 10
261.2120854076579
 20
601.7272911582727
 30
0.0
 10
260.8706196241909
 20
601.8891174537978
 30
0.0
 10
260.4524128185909
 20
602.042281522135
 30
0.0
 10
259.9678286507568
 20
602.1495761814434
 30
0.0
 10
259.4891891782121
 20
602.1828919657073
 30
0.0
 10
259.0105497056674
 20
602.1495761814435
 30
0.0
 10
258.5259655378333
 20
602.0422815221347
 30
0.0
 10
258.1077587322334
 20
601.889117453798
 30
0.0
 10
257.7662929487662
 20
601.7272911582726
 30
0.0
 10
257.5084223972378
 20
601.5850690481184
 30
0.0
 10
257.2721239871591
 20
601.4392382447154
 30
0.0
 10
257.0626079420649
 20
601.2979553553575
 30
0.0
 10
256.8648316590187
 20
601.1544469599271
 30
0.0
 10
256.6820349706295
 20
601.013302557888
 30
0.0
 10
256.506899973661
 20
600.8706806780211
 30
0.0
 10
256.2902171669946
 20
600.6855876009465
 30
0.0
 10
256.0311633030321
 20
600.4513106425306
 30
0.0
 10
255.8346626295443
 20
600.2580774895231
 30
0.0
 10
255.7364124284795
 20
600.1614610364331
 30
0.0
 11
263.2419659279447
 21
600.1614610364331
 31
0.0
 11
262.9452263396605
 21
600.4492275113477
 31
0.0
 11
262.6388721618088
 21
600.7267377861656
 31
0.0
 11
262.4709229921277
 21
600.8700178311304
 31
0.0
 11
262.2997053260543
 21
601.0093761610318
 31
0.0
 11
262.1128461469677
 21
601.153506506894
 31
0.0
 11
261.9217683368169
 21
601.2920145358981
 31
0.0
 11
261.7052945359732
 21
601.4377682698164
 31
0.0
 11
261.4831360014621
 21
601.5746529107645
 31
0.0
 11
261.2107037094043
 21
601.7244186521751
 31
0.0
 11
260.9293796970297
 21
601.8572912856307
 31
0.0
 11
260.4490390348505
 21
602.0314288323747
 31
0.0
 11
259.9500750127845
 21
602.1399296604968
 31
0.0
 11
259.4891891782121
 21
602.1721630158612
 31
0.0
 11
259.0283033436397
 21
602.139929660497
 31
0.0
 11
258.5293393215737
 21
602.0314288323747
 31
0.0
 11
258.0489986593944
 21
601.8572912856307
 31
0.0
 11
257.7676746470199
 21
601.7244186521751
 31
0.0
 11
257.4952423549621
 21
601.5746529107645
 31
0.0
 11
257.2730838204509
 21
601.4377682698164
 31
0.0
 11
257.0566100196072
 21
601.2920145358981
 31
0.0
 11
256.8655322094564
 21
601.153506506894
 31
0.0
 11
256.6786730303698
 21
601.0093761610318
 31
0.0
 11
256.5074553642964
 21
600.8700178311306
 31
0.0
 11
256.3395061946154
 21
600.7267377861656
 31
0.0
 11
256.0331520167639
 21
600.4492275113478
 31
0.0
 11
255.7364124284795
 21
600.1614610364331
 31
0.0
  0
SPLINE
  5
EC
330
47
100
AcDbEntity
  8
1
  6
Continuous
 62
     7
100
AcDbSpline
210
0.0
220
0.0
230
1.0
 70
     8
 71
     3
 72
    33
 73
    29
 74
    27
 42
0.000000001
 43
0.0000000001
 44
0.00000001
 40
0.0
 40
0.0
 40
0.0
 40
0.0
 40
0.6660942065947456
 40
1.332190221276403
 40
1.699632942691343
 40
2.067077051446393
 40
2.470589211701789
 40
2.87410700574544
 40
3.334983197925979
 40
3.795855498283341
 40
4.36740240050184
 40
4.939051288057236
 40
5.929102488371933
 40
6.919199819071084
 40
7.841546050681639
 40
8.763892282292224
 40
9.753989612991415
 40
10.74404081330609
 40
11.31568970086152
 40
11.88723660308004
 40
12.3481089034373
 40
12.80898509561772
 40
13.21250288966148
 40
13.61601504991687
 40
13.98345915867197
 40
14.35090188008685
 40
15.01699789476847
 40
15.68309210136326
 40
15.68309210136326
 40
15.68309210136326
 40
15.68309210136326
 10
255.7364124284795
 20
600.1614610364331
 30
0.0
 10
255.5371361503502
 20
600.2593989499275
 30
0.0
 10
255.1385830467588
 20
600.45527502955
 30
0.0
 10
254.6221361164834
 20
600.6884705005205
 30
0.0
 10
254.1926407342253
 20
600.8718493493782
 30
0.0
 10
253.841149430495
 20
601.014902298509
 30
0.0
 10
253.4758735568554
 20
601.1558237863273
 30
0.0
 10
253.0785196273894
 20
601.2998920275038
 30
0.0
 10
252.6598254037931
 20
601.4409094503158
 30
0.0
 10
252.184088714534
 20
601.5875337973102
 30
0.0
 10
251.6684223539768
 20
601.7293324894093
 30
0.0
 10
250.9762806501321
 20
601.8929656855508
 30
0.0
 10
250.1386649469145
 20
602.0450413010597
 30
0.0
 10
249.1759898287533
 20
602.1499830470889
 30
0.0
 10
248.2308589290145
 20
602.18333081328
 30
0.0
 10
247.2857280292755
 20
602.149983047089
 30
0.0
 10
246.3230529111141
 20
602.0450413010593
 30
0.0
 10
245.4854372078966
 20
601.892965685551
 30
0.0
 10
244.7932955040519
 20
601.7293324894092
 30
0.0
 10
244.2776291434949
 20
601.5875337973102
 30
0.0
 10
243.8018924542358
 20
601.4409094503156
 30
0.0
 10
243.3831982306394
 20
601.2998920275039
 30
0.0
 10
242.9858443011734
 20
601.1558237863272
 30
0.0
 10
242.6205684275338
 20
601.014902298509
 30
0.0
 10
242.2690771238037
 20
600.871849349378
 30
0.0
 10
241.8395817415453
 20
600.6884705005205
 30
0.0
 10
241.32313481127
 20
600.4552750295502
 30
0.0
 10
240.9245817076786
 20
600.2593989499276
 30
0.0
 10
240.7253054295493
 20
600.1614610364331
 30
0.0
 11
255.7364124284795
 21
600.1614610364331
 31
0.0
 11
255.1370227339165
 21
600.4520010293121
 31
0.0
 11
254.5302248962078
 21
600.7267377861657
 31
0.0
 11
254.1922384221575
 21
600.8708880446679
 31
0.0
 11
253.8518912246988
 21
601.0093761610319
 31
0.0
 11
253.4753948310054
 21
601.1545399621714
 31
0.0
 11
253.0960172462241
 21
601.2920145358983
 31
0.0
 11
252.6592135997965
 21
601.4390160296786
 31
0.0
 11
252.2187525755143
 21
601.5746529107646
 31
0.0
 11
251.6676034848218
 21
601.7259821595942
 31
0.0
 11
251.1112399666497
 21
601.8572912856307
 31
0.0
 11
250.1369840546468
 21
602.0334355392067
 31
0.0
 11
249.1526305981588
 21
602.1399296604969
 31
0.0
 11
248.2308589290144
 21
602.1724805702754
 31
0.0
 11
247.30908725987
 21
602.1399296604969
 31
0.0
 11
246.324733803382
 21
602.0334355392066
 31
0.0
 11
245.3504778913791
 21
601.8572912856307
 31
0.0
 11
244.794114373207
 21
601.7259821595942
 31
0.0
 11
244.2429652825144
 21
601.5746529107645
 31
0.0
 11
243.8025042582323
 21
601.4390160296784
 31
0.0
 11
243.3657006118049
 21
601.2920145358983
 31
0.0
 11
242.9863230270234
 21
601.1545399621714
 31
0.0
 11
242.60982663333
 21
601.0093761610319
 31
0.0
 11
242.2694794358713
 21
600.8708880446678
 31
0.0
 11
241.931492961821
 21
600.7267377861656
 31
0.0
 11
241.3246951241123
 21
600.4520010293122
 31
0.0
 11
240.7253054295493
 21
600.1614610364331
 31
0.0
  0
SPLINE
  5
ED
330
47
100
AcDbEntity
  8
1
  6
Continuous
 62
     7
100
AcDbSpline
210
0.0
220
0.0
230
1.0
 70
     8
 71
     3
 72
    33
 73
    29
 74
    27
 42
0.000000001
 43
0.0000000001
 44
0.00000001
 40
0.0
 40
0.0
 40
0.0
 40
0.0
 40
0.4133568979874516
 40
0.8267148958292863
 40
1.047477426097871
 40
1.26824026986044
 40
1.50422736547049
 40
1.740225678003501
 40
2.001195134575556
 40
2.262139226749178
 40
2.573023660009512
 40
2.884147970269346
 40
3.395079508021685
 40
3.905704149327958
 40
4.367715773749974
 40
4.829727398172002
 40
5.34035203947849
 40
5.851283577230802
 40
6.162407887490584
 40
6.473292320750944
 40
6.734236412924517
 40
6.995205869496571
 40
7.231204182029559
 40
7.467191277639564
 40
7.687954121402106
 40
7.908716651670764
 40
8.322074649512585
 40
8.735431547500095
 40
8.735431547500095
 40
8.735431547500095
 40
8.735431547500095
 10
233.2197519300842
 20
600.1614610364331
 30
0.0
 10
233.3180021311489
 20
600.2580774895231
 30
0.0
 10
233.5145028046367
 20
600.4513106425305
 30
0.0
 10
233.7735566685989
 20
600.6855876009469
 30
0.0
 10
233.9902394752656
 20
600.8706806780208
 30
0.0
 10
234.1653744722341
 20
601.0133025578881
 30
0.0
 10
234.3481711606233
 20
601.1544469599271
 30
0.0
 10
234.5459474436696
 20
601.2979553553577
 30
0.0
 10
234.7554634887637
 20
601.4392382447154
 30
0.0
 10
234.9917618988425
 20
601.5850690481183
 30
0.0
 10
235.249632450371
 20
601.7272911582726
 30
0.0
 10
235.591098233838
 20
601.8891174537979
 30
0.0
 10
236.0093050394379
 20
602.0422815221347
 30
0.0
 10
236.493889207272
 20
602.1495761814433
 30
0.0
 10
236.9725286798167
 20
602.1828919657071
 30
0.0
 10
237.4511681523614
 20
602.1495761814438
 30
0.0
 10
237.9357523201955
 20
602.0422815221347
 30
0.0
 10
238.3539591257957
 20
601.889117453798
 30
0.0
 10
238.6954249092626
 20
601.7272911582727
 30
0.0
 10
238.9532954607911
 20
601.5850690481182
 30
0.0
 10
239.1895938708697
 20
601.4392382447154
 30
0.0
 10
239.399109915964
 20
601.2979553553577
 30
0.0
 10
239.59688619901
 20
601.1544469599271
 30
0.0
 10
239.7796828873992
 20
601.013302557888
 30
0.0
 10
239.9548178843679
 20
600.8706806780211
 30
0.0
 10
240.1715006910344
 20
600.6855876009466
 30
0.0
 10
240.4305545549969
 20
600.4513106425306
 30
0.0
 10
240.6270552284847
 20
600.2580774895231
 30
0.0
 10
240.7253054295493
 20
600.1614610364331
 30
0.0
 11
233.2197519300842
 21
600.1614610364331
 31
0.0
 11
233.5164915183684
 21
600.4492275113477
 31
0.0
 11
233.8228456962199
 21
600.7267377861656
 31
0.0
 11
233.990794865901
 21
600.8700178311304
 31
0.0
 11
234.1620125319744
 21
601.0093761610318
 31
0.0
 11
234.348871711061
 21
601.153506506894
 31
0.0
 11
234.5399495212119
 21
601.2920145358981
 31
0.0
 11
234.7564233220556
 21
601.4377682698164
 31
0.0
 11
234.9785818565668
 21
601.5746529107645
 31
0.0
 11
235.2510141486246
 21
601.7244186521751
 31
0.0
 11
235.5323381609991
 21
601.8572912856307
 31
0.0
 11
236.0126788231783
 21
602.0314288323747
 31
0.0
 11
236.5116428452443
 21
602.1399296604968
 31
0.0
 11
236.9725286798167
 21
602.1721630158612
 31
0.0
 11
237.4334145143891
 21
602.139929660497
 31
0.0
 11
237.9323785364552
 21
602.0314288323747
 31
0.0
 11
238.4127191986344
 21
601.8572912856307
 31
0.0
 11
238.6940432110089
 21
601.7244186521751
 31
0.0
 11
238.9664755030668
 21
601.5746529107645
 31
0.0
 11
239.1886340375779
 21
601.4377682698164
 31
0.0
 11
239.4051078384216
 21
601.2920145358981
 31
0.0
 11
239.5961856485724
 21
601.153506506894
 31
0.0
 11
239.783044827659
 21
601.0093761610318
 31
0.0
 11
239.9542624937325
 21
600.8700178311306
 31
0.0
 11
240.1222116634135
 21
600.7267377861656
 31
0.0
 11
240.4285658412651
 21
600.4492275113478
 31
0.0
 11
240.7253054295493
 21
600.1614610364331
 31
0.0
  0
SPLINE
  5
EE
330
47
100
AcDbEntity
  8
1
  6
Continuous
 62
     7
100
AcDbSpline
210
0.0
220
0.0
230
1.0
 70
     8
 71
     3
 72
    33
 73
    29
 74
    27
 42
0.000000001
 43
0.0000000001
 44
0.00000001
 40
0.0
 40
0.0
 40
0.0
 40
0.0
 40
0.5939249129345526
 40
1.187851597589269
 40
1.513819739508944
 40
1.839789279790131
 40
2.19631743551465
 40
2.552851932504559
 40
2.958199558378123
 40
3.363541509507785
 40
3.863542574906259
 40
4.363662703217986
 40
5.224160048598822
 40
6.084683374568854
 40
6.883623433991295
 40
7.682563493413789
 40
8.543086819383834
 40
9.403584164764727
 40
9.903704293076428
 40
10.40370535847487
 40
10.80904730960462
 40
11.21439493547824
 40
11.57092943246814
 40
11.92745758819252
 40
12.25342712847375
 40
12.57939527039343
 40
13.17332195504829
 40
13.7672468679828
 40
13.7672468679828
 40
13.7672468679828
 40
13.7672468679828
 10
408.2308589290144
 20
595.4225680353634
 30
0.0
 10
408.0586707341607
 20
595.3248444043501
 30
0.0
 10
407.7142938236478
 20
595.1293968635935
 30
0.0
 10
407.2667712836229
 20
594.8960094666597
 30
0.0
 10
406.8942840680046
 20
594.7123586311661
 30
0.0
 10
406.5900337217934
 20
594.5693658658897
 30
0.0
 10
406.2736421389669
 20
594.4284063793157
 30
0.0
 10
405.9297346728575
 20
594.284412396167
 30
0.0
 10
405.5670748771481
 20
594.1433508170644
 30
0.0
 10
405.1554183098816
 20
593.9968238322836
 30
0.0
 10
404.708789075714
 20
593.8549587454361
 30
0.0
 10
404.1103382596252
 20
593.6915362344467
 30
0.0
 10
403.3849553617202
 20
593.5393270124241
 30
0.0
 10
402.5505602942166
 20
593.434091519874
 30
0.0
 10
401.7308589290143
 20
593.400731718511
 30
0.0
 10
400.9111575638127
 20
593.4340915198736
 30
0.0
 10
400.0767624963086
 20
593.5393270124241
 30
0.0
 10
399.3513795984037
 20
593.6915362344467
 30
0.0
 10
398.752928782315
 20
593.8549587454361
 30
0.0
 10
398.3062995481474
 20
593.9968238322836
 30
0.0
 10
397.8946429808809
 20
594.1433508170644
 30
0.0
 10
397.5319831851713
 20
594.284412396167
 30
0.0
 10
397.1880757190621
 20
594.428406379316
 30
0.0
 10
396.8716841362354
 20
594.5693658658897
 30
0.0
 10
396.5674337900243
 20
594.7123586311661
 30
0.0
 10
396.1949465744062
 20
594.8960094666597
 30
0.0
 10
395.7474240343809
 20
595.129396863593
 30
0.0
 10
395.403047123868
 20
595.3248444043502
 30
0.0
 10
395.2308589290144
 20
595.4225680353634
 30
0.0
 11
408.2308589290144
 21
595.4225680353634
 31
0.0
 11
407.7125989990788
 21
595.1324758970322
 31
0.0
 11
407.1862698843391
 21
594.8572912856307
 31
0.0
 11
406.893841615334
 21
594.7132741436853
 31
0.0
 11
406.59881569257
 21
594.5746529107644
 31
0.0
 11
406.2731109514126
 21
594.4296399887309
 31
0.0
 11
405.9442096251511
 21
594.2920145358981
 31
0.0
 11
405.5663894390883
 21
594.1451860475739
 31
0.0
 11
405.184476134474
 21
594.0093761610319
 31
0.0
 11
404.7078620344293
 21
593.8582468610532
 31
0.0
 11
404.2253420801856
 21
593.7267377861656
 31
0.0
 11
403.3830135244361
 21
593.550844959617
 31
0.0
 11
402.5291366109826
 21
593.4440994112994
 31
0.0
 11
401.7308589290145
 21
593.4115730867801
 31
0.0
 11
400.9325812470464
 21
593.4440994112992
 31
0.0
 11
400.0787043335929
 21
593.550844959617
 31
0.0
 11
399.2363757778433
 21
593.7267377861656
 31
0.0
 11
398.7538558235997
 21
593.8582468610533
 31
0.0
 11
398.2772417235549
 21
594.0093761610319
 31
0.0
 11
397.8953284189407
 21
594.145186047574
 31
0.0
 11
397.5175082328778
 21
594.2920145358983
 31
0.0
 11
397.1886069066163
 21
594.4296399887311
 31
0.0
 11
396.862902165459
 21
594.5746529107644
 31
0.0
 11
396.5678762426949
 21
594.7132741436853
 31
0.0
 11
396.2754479736898
 21
594.8572912856307
 31
0.0
 11
395.7491188589499
 21
595.1324758970321
 31
0.0
 11
395.2308589290144
 21
595.4225680353634
 31
0.0
  0
SPLINE
  5
EF
330
47
100
AcDbEntity
  8
1
  6
Continuous
 62
     7
100
AcDbSpline
210
0.0
220
0.0
230
1.0
 70
     8
 71
     3
 72
    33
 73
    29
 74
    27
 42
0.000000001
 43
0.0000000001
 44
0.00000001
 40
0.0
 40
0.0
 40
0.0
 40
0.0
 40
0.5939249129344971
 40
1.187851597589161
 40
1.513819739508836
 40
1.839789279790023
 40
2.196317435514496
 40
2.552851932504449
 40
2.958199558378013
 40
3.363541509507752
 40
3.863542574906156
 40
4.363662703217913
 40
5.224160048598726
 40
6.084683374568773
 40
6.883623433991214
 40
7.682563493413712
 40
8.543086819383744
 40
9.40358416476466
 40
9.903704293076302
 40
10.40370535847478
 40
10.80904730960449
 40
11.21439493547815
 40
11.57092943246805
 40
11.92745758819247
 40
12.25342712847371
 40
12.57939527039339
 40
13.1733219550483
 40
13.76724686798265
 40
13.76724686798265
 40
13.76724686798265
 40
13.76724686798265
 10
408.2308589290144
 20
600.1614610364331
 30
0.0
 10
408.0586707341607
 20
600.2591846674462
 30
0.0
 10
407.7142938236478
 20
600.4546322082031
 30
0.0
 10
407.2667712836226
 20
600.6880196051368
 30
0.0
 10
406.8942840680047
 20
600.87167044063
 30
0.0
 10
406.5900337217935
 20
601.0146632059067
 30
0.0
 10
406.2736421389668
 20
601.1556226924803
 30
0.0
 10
405.9297346728575
 20
601.2996166756294
 30
0.0
 10
405.567074877148
 20
601.4406782547317
 30
0.0
 10
405.1554183098816
 20
601.5872052395131
 30
0.0
 10
404.7087890757139
 20
601.7290703263602
 30
0.0
 10
404.1103382596254
 20
601.8924928373499
 30
0.0
 10
403.3849553617202
 20
602.0447020593721
 30
0.0
 10
402.5505602942164
 20
602.1499375519227
 30
0.0
 10
401.7308589290146
 20
602.1832973532853
 30
0.0
 10
400.9111575638125
 20
602.1499375519226
 30
0.0
 10
400.0767624963088
 20
602.0447020593724
 30
0.0
 10
399.3513795984038
 20
601.8924928373496
 30
0.0
 10
398.7529287823149
 20
601.7290703263603
 30
0.0
 10
398.3062995481473
 20
601.5872052395126
 30
0.0
 10
397.8946429808807
 20
601.4406782547321
 30
0.0
 10
397.5319831851715
 20
601.2996166756294
 30
0.0
 10
397.1880757190619
 20
601.1556226924802
 30
0.0
 10
396.8716841362356
 20
601.0146632059068
 30
0.0
 10
396.5674337900242
 20
600.8716704406299
 30
0.0
 10
396.1949465744062
 20
600.6880196051368
 30
0.0
 10
395.7474240343811
 20
600.4546322082031
 30
0.0
 10
395.4030471238681
 20
600.2591846674463
 30
0.0
 10
395.2308589290144
 20
600.1614610364331
 30
0.0
 11
408.2308589290144
 21
600.1614610364331
 31
0.0
 11
407.7125989990788
 21
600.4515531747642
 31
0.0
 11
407.1862698843391
 21
600.7267377861656
 31
0.0
 11
406.893841615334
 21
600.870754928111
 31
0.0
 11
406.59881569257
 21
601.0093761610319
 31
0.0
 11
406.2731109514126
 21
601.1543890830653
 31
0.0
 11
405.9442096251511
 21
601.2920145358981
 31
0.0
 11
405.5663894390883
 21
601.4388430242224
 31
0.0
 11
405.184476134474
 21
601.5746529107646
 31
0.0
 11
404.7078620344293
 21
601.7257822107431
 31
0.0
 11
404.2253420801856
 21
601.8572912856308
 31
0.0
 11
403.3830135244361
 21
602.0331841121792
 31
0.0
 11
402.5291366109826
 21
602.139929660497
 31
0.0
 11
401.7308589290145
 21
602.1724559850163
 31
0.0
 11
400.9325812470464
 21
602.139929660497
 31
0.0
 11
400.0787043335929
 21
602.0331841121794
 31
0.0
 11
399.2363757778433
 21
601.8572912856307
 31
0.0
 11
398.7538558235997
 21
601.7257822107432
 31
0.0
 11
398.2772417235549
 21
601.5746529107645
 31
0.0
 11
397.8953284189407
 21
601.4388430242225
 31
0.0
 11
397.5175082328778
 21
601.2920145358981
 31
0.0
 11
397.1886069066163
 21
601.1543890830653
 31
0.0
 11
396.862902165459
 21
601.0093761610319
 31
0.0
 11
396.5678762426949
 21
600.870754928111
 31
0.0
 11
396.2754479736898
 21
600.7267377861656
 31
0.0
 11
395.7491188589499
 21
600.4515531747641
 31
0.0
 11
395.2308589290144
 21
600.1614610364331
 31
0.0
  0
SPLINE
  5
F0
330
47
100
AcDbEntity
  8
1
  6
Continuous
 62
     7
100
AcDbSpline
210
0.0
220
0.0
230
1.0
 70
     8
 71
     3
 72
    33
 73
    29
 74
    27
 42
0.000000001
 43
0.0000000001
 44
0.00000001
 40
0.0
 40
0.0
 40
0.0
 40
0.0
 40
0.5939249129345467
 40
1.187851597589311
 40
1.513819739508986
 40
1.839789279790123
 40
2.196317435514543
 40
2.552851932504496
 40
2.958199558378007
 40
3.363541509507746
 40
3.863542574906042
 40
4.363662703217964
 40
5.224160048598888
 40
6.084683374568934
 40
6.883623433991318
 40
7.68256349341376
 40
8.543086819383849
 40
9.403584164764709
 40
9.90370429307646
 40
10.40370535847477
 40
10.80904730960454
 40
11.21439493547815
 40
11.5709294324681
 40
11.92745758819257
 40
12.25342712847376
 40
12.57939527039343
 40
13.1733219550482
 40
13.76724686798264
 40
13.76724686798264
 40
13.76724686798264
 40
13.76724686798264
 10
408.2308589290144
 20
600.1614610364331
 30
0.0
 10
408.403047123868
 20
600.2591846674463
 30
0.0
 10
408.7474240343811
 20
600.454632208203
 30
0.0
 10
409.1949465744063
 20
600.6880196051369
 30
0.0
 10
409.5674337900242
 20
600.8716704406299
 30
0.0
 10
409.8716841362356
 20
601.0146632059068
 30
0.0
 10
410.188075719062
 20
601.1556226924803
 30
0.0
 10
410.5319831851714
 20
601.2996166756293
 30
0.0
 10
410.8946429808807
 20
601.4406782547318
 30
0.0
 10
411.3062995481471
 20
601.587205239513
 30
0.0
 10
411.7529287823151
 20
601.7290703263603
 30
0.0
 10
412.3513795984035
 20
601.8924928373497
 30
0.0
 10
413.0767624963088
 20
602.0447020593723
 30
0.0
 10
413.9111575638126
 20
602.1499375519227
 30
0.0
 10
414.7308589290144
 20
602.1832973532853
 30
0.0
 10
415.5505602942162
 20
602.1499375519224
 30
0.0
 10
416.3849553617202
 20
602.0447020593724
 30
0.0
 10
417.1103382596251
 20
601.8924928373494
 30
0.0
 10
417.7087890757139
 20
601.7290703263604
 30
0.0
 10
418.1554183098814
 20
601.5872052395127
 30
0.0
 10
418.567074877148
 20
601.440678254732
 30
0.0
 10
418.9297346728574
 20
601.2996166756293
 30
0.0
 10
419.2736421389668
 20
601.1556226924803
 30
0.0
 10
419.5900337217934
 20
601.0146632059066
 30
0.0
 10
419.8942840680047
 20
600.87167044063
 30
0.0
 10
420.2667712836227
 20
600.6880196051368
 30
0.0
 10
420.7142938236477
 20
600.4546322082028
 30
0.0
 10
421.0586707341608
 20
600.2591846674462
 30
0.0
 10
421.2308589290144
 20
600.1614610364331
 30
0.0
 11
408.2308589290144
 21
600.1614610364331
 31
0.0
 11
408.7491188589501
 21
600.4515531747642
 31
0.0
 11
409.2754479736898
 21
600.7267377861656
 31
0.0
 11
409.567876242695
 21
600.870754928111
 31
0.0
 11
409.8629021654589
 21
601.0093761610319
 31
0.0
 11
410.1886069066163
 21
601.1543890830653
 31
0.0
 11
410.5175082328778
 21
601.2920145358981
 31
0.0
 11
410.8953284189406
 21
601.4388430242224
 31
0.0
 11
411.2772417235548
 21
601.5746529107646
 31
0.0
 11
411.7538558235994
 21
601.7257822107431
 31
0.0
 11
412.2363757778433
 21
601.8572912856308
 31
0.0
 11
413.0787043335929
 21
602.0331841121792
 31
0.0
 11
413.9325812470464
 21
602.139929660497
 31
0.0
 11
414.7308589290144
 21
602.1724559850163
 31
0.0
 11
415.5291366109824
 21
602.139929660497
 31
0.0
 11
416.383013524436
 21
602.0331841121794
 31
0.0
 11
417.2253420801856
 21
601.8572912856307
 31
0.0
 11
417.7078620344293
 21
601.7257822107432
 31
0.0
 11
418.1844761344739
 21
601.5746529107645
 31
0.0
 11
418.5663894390882
 21
601.4388430242225
 31
0.0
 11
418.944209625151
 21
601.2920145358981
 31
0.0
 11
419.2731109514125
 21
601.1543890830653
 31
0.0
 11
419.5988156925699
 21
601.0093761610319
 31
0.0
 11
419.8938416153339
 21
600.870754928111
 31
0.0
 11
420.1862698843391
 21
600.7267377861656
 31
0.0
 11
420.7125989990788
 21
600.4515531747641
 31
0.0
 11
421.2308589290144
 21
600.1614610364331
 31
0.0
  0
SPLINE
  5
F1
330
47
100
AcDbEntity
  8
1
  6
Continuous
 62
     7
100
AcDbSpline
210
0.0
220
0.0
230
1.0
 70
     8
 71
     3
 72
    33
 73
    29
 74
    27
 42
0.000000001
 43
0.0000000001
 44
0.00000001
 40
0.0
 40
0.0
 40
0.0
 40
0.0
 40
0.5939249129346023
 40
1.187851597589419
 40
1.513819739509094
 40
1.83978927979023
 40
2.196317435514697
 40
2.552851932504606
 40
2.958199558378117
 40
3.36354150950778
 40
3.863542574906145
 40
4.363662703218036
 40
5.224160048598984
 40
6.084683374569016
 40
6.8836234339914
 40
7.682563493413837
 40
8.543086819383939
 40
9.403584164764775
 40
9.903704293076586
 40
10.40370535847486
 40
10.80904730960467
 40
11.21439493547823
 40
11.57092943246819
 40
11.92745758819261
 40
12.2534271284738
 40
12.57939527039348
 40
13.17332195504819
 40
13.7672468679828
 40
13.7672468679828
 40
13.7672468679828
 40
13.7672468679828
 10
408.2308589290144
 20
595.4225680353634
 30
0.0
 10
408.403047123868
 20
595.3248444043502
 30
0.0
 10
408.7474240343811
 20
595.1293968635933
 30
0.0
 10
409.1949465744062
 20
594.8960094666597
 30
0.0
 10
409.5674337900243
 20
594.7123586311661
 30
0.0
 10
409.8716841362356
 20
594.5693658658898
 30
0.0
 10
410.1880757190618
 20
594.4284063793157
 30
0.0
 10
410.5319831851714
 20
594.284412396167
 30
0.0
 10
410.8946429808807
 20
594.1433508170643
 30
0.0
 10
411.3062995481471
 20
593.9968238322836
 30
0.0
 10
411.7529287823149
 20
593.8549587454361
 30
0.0
 10
412.3513795984036
 20
593.6915362344467
 30
0.0
 10
413.0767624963087
 20
593.5393270124241
 30
0.0
 10
413.9111575638126
 20
593.434091519874
 30
0.0
 10
414.7308589290143
 20
593.400731718511
 30
0.0
 10
415.5505602942163
 20
593.4340915198736
 30
0.0
 10
416.3849553617202
 20
593.5393270124242
 30
0.0
 10
417.1103382596253
 20
593.6915362344466
 30
0.0
 10
417.7087890757139
 20
593.8549587454363
 30
0.0
 10
418.1554183098815
 20
593.9968238322837
 30
0.0
 10
418.567074877148
 20
594.1433508170645
 30
0.0
 10
418.9297346728573
 20
594.284412396167
 30
0.0
 10
419.2736421389669
 20
594.4284063793161
 30
0.0
 10
419.5900337217934
 20
594.5693658658895
 30
0.0
 10
419.8942840680046
 20
594.7123586311664
 30
0.0
 10
420.2667712836227
 20
594.8960094666595
 30
0.0
 10
420.7142938236478
 20
595.1293968635932
 30
0.0
 10
421.0586707341608
 20
595.3248444043501
 30
0.0
 10
421.2308589290144
 20
595.4225680353634
 30
0.0
 11
408.2308589290144
 21
595.4225680353634
 31
0.0
 11
408.7491188589501
 21
595.1324758970322
 31
0.0
 11
409.2754479736898
 21
594.8572912856307
 31
0.0
 11
409.567876242695
 21
594.7132741436853
 31
0.0
 11
409.8629021654589
 21
594.5746529107644
 31
0.0
 11
410.1886069066163
 21
594.4296399887309
 31
0.0
 11
410.5175082328778
 21
594.2920145358981
 31
0.0
 11
410.8953284189406
 21
594.1451860475739
 31
0.0
 11
411.2772417235548
 21
594.0093761610319
 31
0.0
 11
411.7538558235994
 21
593.8582468610532
 31
0.0
 11
412.2363757778433
 21
593.7267377861656
 31
0.0
 11
413.0787043335929
 21
593.550844959617
 31
0.0
 11
413.9325812470464
 21
593.4440994112994
 31
0.0
 11
414.7308589290144
 21
593.4115730867801
 31
0.0
 11
415.5291366109824
 21
593.4440994112992
 31
0.0
 11
416.383013524436
 21
593.550844959617
 31
0.0
 11
417.2253420801856
 21
593.7267377861656
 31
0.0
 11
417.7078620344293
 21
593.8582468610533
 31
0.0
 11
418.1844761344739
 21
594.0093761610319
 31
0.0
 11
418.5663894390882
 21
594.145186047574
 31
0.0
 11
418.944209625151
 21
594.2920145358983
 31
0.0
 11
419.2731109514125
 21
594.4296399887311
 31
0.0
 11
419.5988156925699
 21
594.5746529107644
 31
0.0
 11
419.8938416153339
 21
594.7132741436853
 31
0.0
 11
420.1862698843391
 21
594.8572912856307
 31
0.0
 11
420.7125989990788
 21
595.1324758970321
 31
0.0
 11
421.2308589290144
 21
595.4225680353634
 31
0.0
  0
ARC
  5
F2
330
47
100
AcDbEntity
  8
1
  6
Continuous
 62
     7
100
AcDbCircle
 10
265.7308589290144
 20
610.6614610364331
 30
0.0
 40
5.0
100
AcDbArc
 50
90.0
 51
180.0
  0
ARC
  5
F3
330
47
100
AcDbEntity
  8
1
  6
Continuous
 62
     7
100
AcDbCircle
 10
265.7308589290144
 20
604.7436358472288
 30
0.0
 40
5.0
100
AcDbArc
 50
180.0
 51
225.0000000000014
  0
ARC
  5
F4
330
47
100
AcDbEntity
  8
1
  6
Continuous
 62
     7
100
AcDbCircle
 10
230.7308589290144
 20
604.7436358472288
 30
0.0
 40
5.0
100
AcDbArc
 50
314.9999999999995
 51
0.0
  0
ARC
  5
F5
330
47
100
AcDbEntity
  8
1
  6
Continuous
 62
     7
100
AcDbCircle
 10
263.7308589290144
 20
645.6614610364331
 30
0.0
 40
5.0
100
AcDbArc
 50
180.0
 51
270.0
  0
ARC
  5
F6
330
47
100
AcDbEntity
  8
1
  6
Continuous
 62
     7
100
AcDbCircle
 10
390.7308589290144
 20
604.7436358472288
 30
0.0
 40
4.999999999999952
100
AcDbArc
 50
334.158067236834
 51
0.0
  0
ARC
  5
F7
330
47
100
AcDbEntity
  8
1
  6
Continuous
 62
     7
100
AcDbCircle
 10
425.7308589290144
 20
604.7436358472288
 30
0.0
 40
5.0
100
AcDbArc
 50
180.0
 51
205.841932763166
  0
ENDBLK
  5
49
330
47
100
AcDbEntity
  8
0
100
AcDbBlockEnd
  0
BLOCK
  5
4B
330
4A
100
AcDbEntity
  8
0
100
AcDbBlockBegin
  2
91-1K
 70
     0
 10
810.8139846401792
 20
237.5040844280284
 30
0.0
  3
91-1K
  1

  0
LINE
  5
F8
330
4A
100
AcDbEntity
  8
1
  6
Continuous
 62
     7
100
AcDbLine
 10
249.7308589290142
 20
779.1219609030766
 30
0.0
 11
249.7308589290142
 21
768.0201592474893
 31
0.0
  0
ENDBLK
  5
4C
330
4A
100
AcDbEntity
  8
0
100
AcDbBlockEnd
  0
BLOCK
  5
4E
330
4D
100
AcDbEntity
  8
0
100
AcDbBlockBegin
  2
21-1C-M1
 70
     0
 10
630.0000000000006
 20
1039.5
 30
0.0
  3
21-1C-M1
  1

  0
LINE
  5
F9
330
4D
100
AcDbEntity
  8
1
  6
Continuous
 62
     7
100
AcDbLine
 10
290.2308589290144
 20
614.3691696329425
 30
0.0
 11
290.2308589290144
 21
610.2366867485075
 31
0.0
  0
LINE
  5
FA
330
4D
100
AcDbEntity
  8
1
  6
Continuous
 62
     7
100
AcDbLine
 10
294.015938684365
 20
658.6295027682011
 30
0.0
 11
290.8004454794943
 21
659.0814108671934
 31
0.0
  0
LINE
  5
FB
330
4D
100
AcDbEntity
  8
1
  6
Continuous
 62
     7
100
AcDbLine
 10
301.2308589290144
 20
632.1614610364331
 30
0.0
 11
301.2308589290144
 21
624.1614610364331
 31
0.0
  0
LINE
  5
FC
330
4D
100
AcDbEntity
  8
1
  6
Continuous
 62
     7
100
AcDbLine
 10
414.026413886749
 20
654.7143753070482
 30
0.0
 11
417.6778230982195
 21
641.0871306106153
 31
0.0
  0
LINE
  5
FD
330
4D
100
AcDbEntity
  8
1
  6
Continuous
 62
     7
100
AcDbLine
 10
434.1241347107448
 20
619.9041017235523
 30
0.0
 11
424.1482992257825
 21
629.8799372085147
 31
0.0
  0
LINE
  5
FE
330
4D
100
AcDbEntity
  8
1
  6
Continuous
 62
     7
100
AcDbLine
 10
428.3285797530102
 20
609.8659060786986
 30
0.0
 11
414.7013350565776
 21
613.5173152901691
 31
0.0
  0
LINE
  5
FF
330
4D
100
AcDbEntity
  8
1
  6
Continuous
 62
     7
100
AcDbLine
 10
382.3375831472845
 20
619.9041017235523
 30
0.0
 11
392.3134186322468
 21
629.8799372085147
 31
0.0
  0
LINE
  5
100
330
4D
100
AcDbEntity
  8
1
  6
Continuous
 62
     7
100
AcDbLine
 10
402.4353039712801
 20
654.7143753070482
 30
0.0
 11
398.7838947598098
 21
641.0871306106153
 31
0.0
  0
LINE
  5
101
330
4D
100
AcDbEntity
  8
1
  6
PHANTOM
 62
     4
100
AcDbLine
 10
376.1890766359234
 20
609.6621294042016
 30
0.0
 11
426.742215540934
 21
638.84899775939
 31
0.0
  0
LINE
  5
102
330
4D
100
AcDbEntity
  8
1
  6
PHANTOM
 62
     4
100
AcDbLine
 10
304.2308589290144
 20
628.1614610364331
 30
0.0
 11
287.2308589290144
 21
628.1614610364331
 31
0.0
  0
LINE
  5
103
330
4D
100
AcDbEntity
  8
1
  6
Continuous
 62
     7
100
AcDbLine
 10
295.189935534758
 20
610.3587751820819
 30
0.0
 11
290.800480861727
 21
609.7415576880744
 31
0.0
  0
LINE
  5
104
330
4D
100
AcDbEntity
  8
1
  6
Continuous
 62
     7
100
AcDbLine
 10
290.2308589290144
 20
633.1614610364331
 30
0.0
 11
290.2308589290144
 21
634.4614610364331
 31
0.0
  0
LINE
  5
105
330
4D
100
AcDbEntity
  8
1
  6
Continuous
 62
     7
100
AcDbLine
 10
290.2308589290144
 20
633.1614610364331
 30
0.0
 11
290.2308589290144
 21
628.1614610364331
 31
0.0
  0
LINE
  5
106
330
4D
100
AcDbEntity
  8
1
  6
Continuous
 62
     2
100
AcDbLine
 10
290.8004454794943
 20
659.0814108671934
 30
0.0
 11
290.8097043142054
 21
659.0814108671934
 31
0.0
  0
LINE
  5
107
330
4D
100
AcDbEntity
  8
1
  6
Continuous
 62
     7
100
AcDbLine
 10
290.2308589290144
 20
658.5862768328227
 30
0.0
 11
290.2308589290144
 21
633.1614610364331
 31
0.0
  0
LINE
  5
108
330
4D
100
AcDbEntity
  8
1
  6
PHANTOM
 62
     4
100
AcDbLine
 10
408.2308589290144
 20
600.1614610364331
 30
0.0
 11
408.2308589290146
 21
680.268256569246
 31
0.0
  0
LINE
  5
109
330
4D
100
AcDbEntity
  8
1
  6
PHANTOM
 62
     4
100
AcDbLine
 10
436.2308589290144
 20
628.1614610364331
 30
0.0
 11
380.2308589290146
 21
628.161461036433
 31
0.0
  0
LINE
  5
10A
330
4D
100
AcDbEntity
  8
1
  6
Continuous
 62
     7
100
AcDbLine
 10
401.7603828014517
 20
613.5173152901691
 30
0.0
 11
388.1331381050186
 21
609.8659060786988
 31
0.0
  0
LINE
  5
10B
330
4D
100
AcDbEntity
  8
1
  6
Continuous
 62
     7
100
AcDbLine
 10
290.2308589290144
 20
628.1614610364331
 30
0.0
 11
290.2308589290144
 21
615.9345262640344
 31
0.0
  0
LINE
  5
10C
330
4D
100
AcDbEntity
  8
1
  6
Continuous
 62
     7
100
AcDbLine
 10
290.2308589290144
 20
614.3691696329425
 30
0.0
 11
290.2308589290144
 21
615.9345262640344
 31
0.0
  0
LINE
  5
10D
330
4D
100
AcDbEntity
  8
1
  6
PHANTOM
 62
     4
100
AcDbLine
 10
440.2726412221055
 20
609.6621294042016
 30
0.0
 11
389.0848277996083
 21
639.2154272629085
 31
0.0
  0
LINE
  5
10E
330
4D
100
AcDbEntity
  8
1
  6
Continuous
 62
     7
100
AcDbLine
 10
290.8004454794947
 20
745.9252909463012
 30
0.0
 11
294.5110727187358
 21
746.4467855957732
 31
0.0
  0
LINE
  5
10F
330
4D
100
AcDbEntity
  8
1
  6
Continuous
 62
     7
100
AcDbLine
 10
294.5110727187358
 20
800.6953345547925
 30
0.0
 11
290.8004454794942
 21
801.2168292042647
 31
0.0
  0
LINE
  5
110
330
4D
100
AcDbEntity
  8
1
  6
Continuous
 62
     7
100
AcDbLine
 10
290.2308589290144
 20
800.721695169894
 30
0.0
 11
290.2308589290144
 21
746.4204249806719
 31
0.0
  0
ARC
  5
111
330
4D
100
AcDbEntity
  8
1
  6
Continuous
 62
     7
100
AcDbCircle
 10
408.2308589290146
 20
653.161461036433
 30
0.0
 40
6.000000000000044
100
AcDbArc
 50
14.99999999999997
 51
90.0
  0
ARC
  5
112
330
4D
100
AcDbEntity
  8
1
  6
Continuous
 62
     7
100
AcDbCircle
 10
429.8814940236257
 20
615.661461036433
 30
0.0
 40
6.000000000000132
100
AcDbArc
 50
254.9999999999968
 51
45.00000000000154
  0
ARC
  5
113
330
4D
100
AcDbEntity
  8
1
  6
Continuous
 62
     7
100
AcDbCircle
 10
408.2308589290146
 20
653.161461036433
 30
0.0
 40
6.0
100
AcDbArc
 50
90.0
 51
165.0
  0
ARC
  5
114
330
4D
100
AcDbEntity
  8
1
  6
Continuous
 62
     7
100
AcDbCircle
 10
226.3190379203152
 20
627.7972653711864
 30
0.0
 40
75.00000000000009
100
AcDbArc
 50
350.408507517335
 51
357.2213610340374
  0
ARC
  5
115
330
4D
100
AcDbEntity
  8
1
  6
Continuous
 62
     7
100
AcDbCircle
 10
151.2308589290144
 20
628.1614610364331
 30
0.0
 40
150.0533238552215
100
AcDbArc
 50
8.63404412973966
 51
9.80290179376777
  0
ARC
  5
116
330
4D
100
AcDbEntity
  8
1
  6
Continuous
 62
     7
100
AcDbCircle
 10
151.2308589290144
 20
628.1614610364331
 30
0.0
 40
150.0533238552215
100
AcDbArc
 50
1.52752544221293
 51
8.63404412973966
  0
ARC
  5
117
330
4D
100
AcDbEntity
  8
1
  6
Continuous
 62
     7
100
AcDbCircle
 10
386.5802238344036
 20
615.661461036433
 30
0.0
 40
5.999999999999928
100
AcDbArc
 50
134.9999999999989
 51
284.9999999999989
  0
ARC
  5
118
330
4D
100
AcDbEntity
  8
1
  6
Continuous
 62
     7
100
AcDbCircle
 10
174.3558404230608
 20
771.8643831739139
 30
0.0
 40
127.4948334081409
100
AcDbArc
 50
3.91580101917956
 51
10.80949324635217
  0
ARC
  5
119
330
4D
100
AcDbEntity
  8
1
  6
Continuous
 62
     7
100
AcDbCircle
 10
174.3558404230608
 20
775.277736976652
 30
0.0
 40
127.4948334081409
100
AcDbArc
 50
349.1905067536479
 51
356.0841989808204
  0
ARC
  5
11A
330
4D
100
AcDbEntity
  8
1
  6
Continuous
 62
     7
100
AcDbCircle
 10
293.1809000786047
 20
652.6878943557517
 30
0.0
 40
6.000000000000116
100
AcDbArc
 50
9.80290179376681
 51
82.00000000000074
  0
ARC
  5
11B
330
4D
100
AcDbEntity
  8
1
  6
Continuous
 62
     7
100
AcDbCircle
 10
441.825968755446
 20
647.5576067381784
 30
0.0
 40
24.99999999999982
100
AcDbArc
 50
195.0000000000002
 51
225.0000000000004
  0
ARC
  5
11C
330
4D
100
AcDbEntity
  8
1
  6
Continuous
 62
     7
100
AcDbCircle
 10
408.2308589290146
 20
589.3691696329423
 30
0.0
 40
25.00000000000008
100
AcDbArc
 50
75.00000000000006
 51
104.9999999999996
  0
ARC
  5
11D
330
4D
100
AcDbEntity
  8
1
  6
Continuous
 62
     7
100
AcDbCircle
 10
374.6357491025829
 20
647.5576067381784
 30
0.0
 40
25.00000000000016
100
AcDbArc
 50
315.0000000000002
 51
345.0
  0
ARC
  5
11E
330
4D
100
AcDbEntity
  8
1
  6
Continuous
 62
     7
100
AcDbCircle
 10
294.3544723422067
 20
616.3003239072791
 30
0.0
 40
6.000000000000047
100
AcDbArc
 50
278.0040943716999
 51
350.4085075173354
  0
ARC
  5
11F
330
4D
100
AcDbEntity
  8
1
  6
Continuous
 62
     7
100
AcDbCircle
 10
290.7308589290143
 20
658.5862768328227
 30
0.0
 40
0.4999999999999301
100
AcDbArc
 50
82.00000000000468
 51
180.0
  0
ARC
  5
120
330
4D
100
AcDbEntity
  8
1
  6
Continuous
 62
     7
100
AcDbCircle
 10
290.7308589290143
 20
610.2366867485075
 30
0.0
 40
0.4999999999998863
100
AcDbArc
 50
180.0
 51
278.0040943717128
  0
ARC
  5
121
330
4D
100
AcDbEntity
  8
1
  6
Continuous
 62
     7
100
AcDbCircle
 10
290.7308589290143
 20
746.4204249806719
 30
0.0
 40
0.4999999999998863
100
AcDbArc
 50
180.0
 51
278.000000000047
  0
ARC
  5
122
330
4D
100
AcDbEntity
  8
1
  6
Continuous
 62
     7
100
AcDbCircle
 10
293.6760341129757
 20
752.3883940082228
 30
0.0
 40
6.000000000000109
100
AcDbArc
 50
277.9999999999974
 51
350.1970982062349
  0
ARC
  5
123
330
4D
100
AcDbEntity
  8
1
  6
Continuous
 62
     7
100
AcDbCircle
 10
293.6760341129757
 20
794.7537261423427
 30
0.0
 40
5.999999999999914
100
AcDbArc
 50
9.80290179377155
 51
82.00000000000296
  0
ARC
  5
124
330
4D
100
AcDbEntity
  8
1
  6
Continuous
 62
     7
100
AcDbCircle
 10
290.7308589290143
 20
800.721695169894
 30
0.0
 40
0.4999999999999221
100
AcDbArc
 50
82.00000000001111
 51
180.0
  0
ENDBLK
  5
4F
330
4D
100
AcDbEntity
  8
0
100
AcDbBlockEnd
  0
BLOCK
  5
51
330
50
100
AcDbEntity
  8
0
100
AcDbBlockBegin
  2
36-54-M11
 70
     0
 10
149.6617329195782
 20
730.5435870458693
 30
0.0
  3
36-54-M11
  1

  0
LINE
  5
125
330
50
100
AcDbEntity
  8
1
  6
Continuous
 62
     7
100
AcDbLine
 10
251.2308589290142
 20
778.47641429287
 30
0.0
 11
251.2308589290142
 21
768.6657058576957
 31
0.0
  0
LINE
  5
126
330
50
100
AcDbEntity
  8
1
  6
Continuous
 62
     7
100
AcDbLine
 10
287.2308589290145
 20
632.9114610364331
 30
0.0
 11
290.2308589290144
 21
632.9114610364331
 31
0.0
  0
LINE
  5
127
330
50
100
AcDbEntity
  8
1
  6
Continuous
 62
     7
100
AcDbLine
 10
287.2307602529272
 20
778.321060075283
 30
0.0
 11
290.2308589290144
 21
778.3210600752828
 31
0.0
  0
LINE
  5
128
330
50
100
AcDbEntity
  8
1
  6
Continuous
 62
     7
100
AcDbLine
 10
290.2308589290144
 20
623.4114610364331
 30
0.0
 11
287.2308589290145
 21
623.4114610364331
 31
0.0
  0
LINE
  5
129
330
50
100
AcDbEntity
  8
1
  6
Continuous
 62
     7
100
AcDbLine
 10
290.2308589290144
 20
768.821060075283
 30
0.0
 11
287.2307602529272
 21
768.821060075283
 31
0.0
  0
ENDBLK
  5
52
330
50
100
AcDbEntity
  8
0
100
AcDbBlockEnd
  0
BLOCK
  5
54
330
53
100
AcDbEntity
  8
0
100
AcDbBlockBegin
  2
37-1-13
 70
     0
 10
130.7351530388698
 20
719.9626912532042
 30
0.0
  3
37-1-13
  1

  0
LINE
  5
12A
330
53
100
AcDbEntity
  8
0
  6
Continuous
 62
     7
100
AcDbLine
 10
280.3015731432857
 20
619.4861782298891
 30
0.0
 11
280.3015731432857
 21
623.3161142575361
 31
0.0
  0
LINE
  5
12B
330
53
100
AcDbEntity
  8
0
  6
Continuous
 62
     7
100
AcDbLine
 10
280.3015731432857
 20
633.0068078153299
 30
0.0
 11
280.3015731432857
 21
636.8367438429771
 31
0.0
  0
LINE
  5
12C
330
53
100
AcDbEntity
  8
1
  6
Continuous
 62
     7
100
AcDbLine
 10
273.2308589290144
 20
641.2321752507045
 30
0.0
 11
273.2308589290144
 21
615.0907468221616
 31
0.0
  0
LINE
  5
12D
330
53
100
AcDbEntity
  8
1
  6
Continuous
 62
     7
100
AcDbLine
 10
287.2308589290145
 20
622.1614610364331
 30
0.0
 11
287.2308589290145
 21
634.1614610364331
 31
0.0
  0
LINE
  5
12E
330
53
100
AcDbEntity
  8
1
  6
Continuous
 62
     7
100
AcDbLine
 10
273.2307602529272
 20
760.5709224827781
 30
0.0
 11
273.2307602529272
 21
786.5709224827781
 31
0.0
  0
LINE
  5
12F
330
53
100
AcDbEntity
  8
1
  6
Continuous
 62
     7
100
AcDbLine
 10
280.3014744671984
 20
786.5709224827781
 30
0.0
 11
273.2307602529272
 21
786.5709224827781
 31
0.0
  0
LINE
  5
130
330
53
100
AcDbEntity
  8
1
  6
Continuous
 62
     7
100
AcDbLine
 10
280.7307602529272
 20
786.0709224827779
 30
0.0
 11
280.7307602529272
 21
773.5709224827781
 31
0.0
  0
LINE
  5
131
330
53
100
AcDbEntity
  8
1
  6
Continuous
 62
     7
100
AcDbLine
 10
279.9935110141705
 20
760.5709224827781
 30
0.0
 11
273.2307602529272
 21
760.5709224827781
 31
0.0
  0
LINE
  5
132
330
53
100
AcDbEntity
  8
1
  6
Continuous
 62
     7
100
AcDbLine
 10
280.7307602529272
 20
773.5709224827781
 30
0.0
 11
280.7307602529272
 21
761.0709224827781
 31
0.0
  0
LINE
  5
133
330
53
100
AcDbEntity
  8
1
  6
Continuous
 62
     7
100
AcDbLine
 10
280.3014744671991
 20
760.5709224827781
 30
0.0
 11
279.9935110141705
 21
760.5709224827781
 31
0.0
  0
LINE
  5
134
330
53
100
AcDbEntity
  8
1
  6
Continuous
 62
     7
100
AcDbLine
 10
287.2307602529272
 20
779.570922482778
 30
0.0
 11
287.2307602529272
 21
767.5709224827781
 31
0.0
  0
ARC
  5
135
330
53
100
AcDbEntity
  8
1
  6
Continuous
 62
     7
100
AcDbCircle
 10
276.7308589290144
 20
637.6614610364331
 30
0.0
 40
4.999999999999932
100
AcDbArc
 50
36.86989764584298
 51
134.4270040008064
  0
ARC
  5
136
330
53
100
AcDbEntity
  8
1
  6
Continuous
 62
     7
100
AcDbCircle
 10
300.6373141341292
 20
654.067916241548
 30
0.0
 40
23.99999999999994
100
AcDbArc
 50
213.9591925000977
 51
236.0408074999029
  0
ARC
  5
137
330
53
100
AcDbEntity
  8
1
  6
Continuous
 62
     7
100
AcDbCircle
 10
300.6373141341292
 20
602.2550058313182
 30
0.0
 40
23.99999999999992
100
AcDbArc
 50
123.959192500097
 51
146.0408074999023
  0
ARC
  5
138
330
53
100
AcDbEntity
  8
1
  6
Continuous
 62
     7
100
AcDbCircle
 10
276.7308589290144
 20
618.6614610364331
 30
0.0
 40
5.000000000000098
100
AcDbArc
 50
225.5729959991954
 51
323.130102354156
  0
ARC
  5
139
330
53
100
AcDbEntity
  8
1
  6
Continuous
 62
     7
100
AcDbCircle
 10
300.6372154580423
 20
799.4773776878931
 30
0.0
 40
24.0000000000003
100
AcDbArc
 50
213.9591925000978
 51
236.0408074999024
  0
ARC
  5
13A
330
53
100
AcDbEntity
  8
1
  6
Continuous
 62
     7
100
AcDbCircle
 10
276.7307602529272
 20
783.070922482778
 30
0.0
 40
4.999999999999932
100
AcDbArc
 50
36.86989764584298
 51
44.42700400080873
  0
ARC
  5
13B
330
53
100
AcDbEntity
  8
1
  6
Continuous
 62
     7
100
AcDbCircle
 10
300.6372154580423
 20
747.6644672776633
 30
0.0
 40
23.99999999999995
100
AcDbArc
 50
123.9591925000981
 51
146.0408074999031
  0
ARC
  5
13C
330
53
100
AcDbEntity
  8
1
  6
Continuous
 62
     7
100
AcDbCircle
 10
276.7307602529272
 20
764.0709224827781
 30
0.0
 40
5.000000000000341
100
AcDbArc
 50
315.5729959991981
 51
323.130102354156
  0
SPLINE
  5
13D
330
53
100
AcDbEntity
  8
1
  6
Continuous
 62
     7
100
AcDbSpline
210
0.0
220
0.0
230
1.0
 70
    11
 71
     3
 72
    79
 73
    75
 74
    73
 42
0.000000001
 43
0.0000000001
 44
0.00000001
 40
0.0
 40
0.0
 40
0.0
 40
0.0
 40
0.2813091295367495
 40
0.5626019528585068
 40
0.8464226451894473
 40
1.130214053669965
 40
1.417835704367925
 40
1.705420535636285
 40
1.997635971559929
 40
2.289812847778927
 40
2.586839028646944
 40
2.883829785627904
 40
3.185307038912431
 40
3.48675545494179
 40
3.791812973649115
 40
4.096850359215293
 40
4.404220792930724
 40
4.711580925269249
 40
5.019747225769512
 40
5.327913526259579
 40
5.635273658567341
 40
5.942644092231258
 40
6.247681477724771
 40
6.552738996337292
 40
6.854187412249823
 40
7.155664665392716
 40
7.452655422208105
 40
7.749681602882206
 40
8.041858478879687
 40
8.334073914546794
 40
8.621658745520582
 40
8.909280395868455
 40
9.193071803910636
 40
9.47689249559976
 40
9.758185317503578
 40
10.03949445584081
 40
10.3199203930605
 40
10.60034633027916
 40
10.88165546861342
 40
11.16294829051186
 40
11.44676898219344
 40
11.73056039022635
 40
12.01818204056289
 40
12.30576687152394
 40
12.59798230717668
 40
12.89015918315844
 40
13.18718536381555
 40
13.48417612061281
 40
13.78565337373641
 40
14.08710178962918
 40
14.39215930822088
 40
14.6971966936932
 40
15.00456712733509
 40
15.31192725962055
 40
15.62009356008774
 40
15.92825986056475
 40
16.23561999287958
 40
16.54299042657107
 40
16.8480278121128
 40
17.15308533079529
 40
17.45453374679939
 40
17.75601100005769
 40
18.0530017570115
 40
18.35002793785034
 40
18.64220481403764
 40
18.93442024992399
 40
19.22200508114551
 40
19.50962673177614
 40
19.79341814013921
 40
20.07723883220368
 40
20.35853165457044
 40
20.63984079357005
 40
20.92026673223018
 40
21.20069266066635
 40
21.20069266066635
 40
21.20069266066635
 40
21.20069266066635
 10
280.2880511582578
 20
639.1396915492872
 30
0.0
 10
280.2764797551411
 20
639.0465646012456
 30
0.0
 10
280.2533376250334
 20
638.860316102609
 30
0.0
 10
280.184575486304
 20
638.5860145193842
 30
0.0
 10
280.0920073599259
 20
638.3182705900147
 30
0.0
 10
279.9731550243257
 20
638.058657953557
 30
0.0
 10
279.83049310888
 20
637.8099408563187
 30
0.0
 10
279.6639502080958
 20
637.5730969406708
 30
0.0
 10
279.4759924888986
 20
637.3508815211156
 30
0.0
 10
279.2668302772025
 20
637.1440184688907
 30
0.0
 10
279.0393777008177
 20
636.9549597338123
 30
0.0
 10
278.7940321165534
 20
636.7843197889524
 30
0.0
 10
278.5340035582941
 20
636.6340560598964
 30
0.0
 10
278.2599808123119
 20
636.5047487075844
 30
0.0
 10
277.9752331269971
 20
636.3977579054566
 30
0.0
 10
277.6808702775115
 20
636.3136255661035
 30
0.0
 10
277.3799797976014
 20
636.2531065817245
 30
0.0
 10
277.0741934756987
 20
636.2166254435567
 30
0.0
 10
276.7662160457623
 20
636.204406661852
 30
0.0
 10
276.4582386158172
 20
636.2166254432128
 30
0.0
 10
276.1524522939216
 20
636.2531065810372
 30
0.0
 10
275.8515618139312
 20
636.3136255650631
 30
0.0
 10
275.5571989646554
 20
636.397757904087
 30
0.0
 10
275.2724512784388
 20
636.5047487057751
 30
0.0
 10
274.9984285356232
 20
636.6340560580326
 30
0.0
 10
274.7383999654287
 20
636.7843197855709
 30
0.0
 10
274.4930544248267
 20
636.9549597342691
 30
0.0
 10
274.265601686566
 20
637.1440184533358
 30
0.0
 10
274.0564400692318
 20
637.3508815625321
 30
0.0
 10
273.8684801504569
 20
637.5730967693435
 30
0.0
 10
273.7019453342115
 20
637.8099414649349
 30
0.0
 10
273.5592534770003
 20
638.0586556714111
 30
0.0
 10
273.4405114698439
 20
638.3182789571906
 30
0.0
 10
273.3475339247123
 20
638.5859833646226
 30
0.0
 10
273.2802868469032
 20
638.8604311977662
 30
0.0
 10
273.2399715008025
 20
639.1389700202235
 30
0.0
 10
273.2263098218198
 20
639.419791285043
 30
0.0
 10
273.2399715007785
 20
639.7006125498626
 30
0.0
 10
273.2802868468551
 20
639.9791513723203
 30
0.0
 10
273.3475339246406
 20
640.2535992054643
 30
0.0
 10
273.4405114697486
 20
640.5213036128968
 30
0.0
 10
273.5592534768815
 20
640.7809268986766
 30
0.0
 10
273.7019453340691
 20
641.0296411051532
 30
0.0
 10
273.8684801502914
 20
641.2664858007457
 30
0.0
 10
274.0564400690431
 20
641.4887010075579
 30
0.0
 10
274.2656016863546
 20
641.6955641167548
 30
0.0
 10
274.4930544245924
 20
641.8846228358228
 30
0.0
 10
274.7383999651719
 20
642.0552627845216
 30
0.0
 10
274.998428535344
 20
642.2055265120605
 30
0.0
 10
275.2724512781368
 20
642.3348338643195
 30
0.0
 10
275.5571989643312
 20
642.4418246660082
 30
0.0
 10
275.8515618135843
 20
642.5259570050337
 30
0.0
 10
276.1524522935522
 20
642.5864759890605
 30
0.0
 10
276.4582386154253
 20
642.6229571268861
 30
0.0
 10
276.7662160453467
 20
642.6351759082492
 30
0.0
 10
277.0741934752639
 20
642.6229571265467
 30
0.0
 10
277.3799797971275
 20
642.5864759883801
 30
0.0
 10
277.6808702770722
 20
642.5259570040108
 30
0.0
 10
277.9752331263164
 20
642.4418246646379
 30
0.0
 10
278.2599808124139
 20
642.3348338626055
 30
0.0
 10
278.5340035553933
 20
642.205526509969
 30
0.0
 10
278.7940321246605
 20
642.0552627821519
 30
0.0
 10
279.0393776683101
 20
641.8846228327818
 30
0.0
 10
279.2668303948741
 20
641.6955641144588
 30
0.0
 10
279.4759920547076
 20
641.4887010007627
 30
0.0
 10
279.6639518156904
 20
641.2664858087753
 30
0.0
 10
279.8304872113207
 20
641.029641056831
 30
0.0
 10
279.9731769220602
 20
640.7809270571112
 30
0.0
 10
280.0919268376972
 20
640.521303007455
 30
0.0
 10
280.1848750342593
 20
640.2536014325068
 30
0.0
 10
280.252230715907
 20
639.9791431152399
 30
0.0
 10
280.2921419030924
 20
639.7006433050752
 30
0.0
 10
280.3073074800902
 20
639.4196768715456
 30
0.0
 10
280.2944699303043
 20
639.2330199890201
 30
0.0
 10
280.2880511582579
 20
639.1396915492872
 30
0.0
 11
280.2880511582578
 21
639.1396915492872
 31
0.0
 11
280.247695914118
 21
638.8612920419337
 31
0.0
 11
280.1808875715591
 21
638.5880480170608
 31
0.0
 11
280.0877570703699
 21
638.3199418908963
 31
0.0
 11
279.9698664569933
 21
638.0617958727987
 31
0.0
 11
279.8267594435364
 21
637.8123031944507
 31
0.0
 11
279.6614791529428
 21
637.5769577873509
 31
0.0
 11
279.4728063604399
 21
637.3538155943359
 31
0.0
 11
279.2651759471374
 21
637.1482506692507
 31
0.0
 11
279.0367968644076
 21
636.9583360919819
 31
0.0
 11
278.7930550575956
 21
636.7886497892912
 31
0.0
 11
278.5320588409466
 21
636.6377540997306
 31
0.0
 11
278.2594837810684
 21
636.5090141127328
 31
0.0
 11
277.9739358124917
 21
636.4016714494428
 31
0.0
 11
277.6806625436932
 21
636.3177751062036
 31
0.0
 11
277.3793315805132
 21
636.2571431495642
 31
0.0
 11
277.0741403219328
 21
636.2206939155776
 31
0.0
 11
276.76621603615
 21
636.2084831409643
 31
0.0
 11
276.4582917503673
 21
636.2206939155775
 31
0.0
 11
276.1531004917869
 21
636.2571431495641
 31
0.0
 11
275.8517695286068
 21
636.3177751062036
 31
0.0
 11
275.5584962598084
 21
636.4016714494428
 31
0.0
 11
275.2729482912316
 21
636.5090141127328
 31
0.0
 11
275.0003732313533
 21
636.6377540997305
 31
0.0
 11
274.7393770147044
 21
636.7886497892912
 31
0.0
 11
274.4956352078924
 21
636.958336091982
 31
0.0
 11
274.2672561251626
 21
637.1482506692508
 31
0.0
 11
274.0596257118602
 21
637.353815594336
 31
0.0
 11
273.8709529193573
 21
637.5769577873509
 31
0.0
 11
273.7056726287636
 21
637.8123031944506
 31
0.0
 11
273.5625656153068
 21
638.0617958727988
 31
0.0
 11
273.4446750019302
 21
638.3199418908965
 31
0.0
 11
273.3515445007411
 21
638.5880480170612
 31
0.0
 11
273.2847361581822
 21
638.8612920419339
 31
0.0
 11
273.2443809140423
 21
639.1396915492872
 31
0.0
 11
273.2308589290143
 21
639.4197912856305
 31
0.0
 11
273.2443809140422
 21
639.6998910219738
 31
0.0
 11
273.2847361581821
 21
639.9782905293274
 31
0.0
 11
273.3515445007411
 21
640.2515345542001
 31
0.0
 11
273.4446750019302
 21
640.5196406803647
 31
0.0
 11
273.5625656153069
 21
640.7777866984624
 31
0.0
 11
273.7056726287636
 21
641.0272793768106
 31
0.0
 11
273.8709529193573
 21
641.2626247839103
 31
0.0
 11
274.0596257118602
 21
641.4857669769253
 31
0.0
 11
274.2672561251626
 21
641.6913319020105
 31
0.0
 11
274.4956352078924
 21
641.8812464792794
 31
0.0
 11
274.7393770147044
 21
642.05093278197
 31
0.0
 11
275.0003732313533
 21
642.2018284715306
 31
0.0
 11
275.2729482912316
 21
642.3305684585285
 31
0.0
 11
275.5584962598084
 21
642.4379111218185
 31
0.0
 11
275.8517695286068
 21
642.5218074650577
 31
0.0
 11
276.1531004917869
 21
642.5824394216971
 31
0.0
 11
276.4582917503673
 21
642.6188886556836
 31
0.0
 11
276.76621603615
 21
642.6310994302969
 31
0.0
 11
277.0741403219328
 21
642.6188886556836
 31
0.0
 11
277.3793315805132
 21
642.582439421697
 31
0.0
 11
277.6806625436932
 21
642.5218074650575
 31
0.0
 11
277.9739358124917
 21
642.4379111218184
 31
0.0
 11
278.2594837810684
 21
642.3305684585284
 31
0.0
 11
278.5320588409467
 21
642.2018284715307
 31
0.0
 11
278.7930550575956
 21
642.05093278197
 31
0.0
 11
279.0367968644076
 21
641.8812464792793
 31
0.0
 11
279.2651759471374
 21
641.6913319020105
 31
0.0
 11
279.47280636044
 21
641.4857669769252
 31
0.0
 11
279.6614791529428
 21
641.2626247839103
 31
0.0
 11
279.8267594435365
 21
641.0272793768105
 31
0.0
 11
279.9698664569933
 21
640.7777866984623
 31
0.0
 11
280.0877570703699
 21
640.5196406803648
 31
0.0
 11
280.1808875715591
 21
640.2515345542001
 31
0.0
 11
280.247695914118
 21
639.9782905293275
 31
0.0
 11
280.2880511582578
 21
639.6998910219739
 31
0.0
 11
280.3015731432857
 21
639.4197912856307
 31
0.0
 11
280.2880511582579
 21
639.1396915492872
 31
0.0
  0
SPLINE
  5
13E
330
53
100
AcDbEntity
  8
1
  6
Continuous
 62
     7
100
AcDbSpline
210
0.0
220
0.0
230
1.0
 70
    11
 71
     3
 72
    79
 73
    75
 74
    73
 42
0.000000001
 43
0.0000000001
 44
0.00000001
 40
0.0
 40
0.0
 40
0.0
 40
0.0
 40
0.2813091295367495
 40
0.5626019528581756
 40
0.8464226451892236
 40
1.130214053669638
 40
1.417835704367697
 40
1.70542053563615
 40
1.997635971559881
 40
2.289812847778799
 40
2.586839028646816
 40
2.883829785627776
 40
3.185307038912246
 40
3.486755454941653
 40
3.791812973649018
 40
4.096850359215197
 40
4.404220792930628
 40
4.71158092526914
 40
5.019747225769403
 40
5.327913526259474
 40
5.635273658567236
 40
5.94264409223113
 40
6.247681477724612
 40
6.552738996337133
 40
6.85418741224981
 40
7.155664665392589
 40
7.452655422207913
 40
7.749681602882014
 40
8.041858478879576
 40
8.334073914546595
 40
8.621658745520476
 40
8.909280395868251
 40
9.193071803910431
 40
9.476892495599555
 40
9.758185317503262
 40
10.03949445584083
 40
10.31992039306041
 40
10.60034633027907
 40
10.88165546861332
 40
11.16294829051177
 40
11.44676898219346
 40
11.73056039022627
 40
12.0181820405627
 40
12.30576687152384
 40
12.5979823071765
 40
12.89015918315834
 40
13.18718536381545
 40
13.48417612061284
 40
13.78565337373638
 40
14.0871017896291
 40
14.3921593082208
 40
14.6971966936931
 40
15.00456712733503
 40
15.31192725962047
 40
15.62009356008767
 40
15.92825986056467
 40
16.23561999287949
 40
16.54299042657098
 40
16.84802781211271
 40
17.15308533079524
 40
17.45453374679938
 40
17.75601100005757
 40
18.05300175701138
 40
18.3500279378503
 40
18.64220481403767
 40
18.93442024992394
 40
19.22200508114546
 40
19.50962673177599
 40
19.79341814013917
 40
20.07723883220364
 40
20.3585316545704
 40
20.63984079357012
 40
20.92026673223048
 40
21.20069266066642
 40
21.20069266066642
 40
21.20069266066642
 40
21.20069266066642
 10
280.2880511582578
 20
617.1832305235789
 30
0.0
 10
280.2764797551411
 20
617.2763574716204
 30
0.0
 10
280.2533376250335
 20
617.4626059702572
 30
0.0
 10
280.1845754863038
 20
617.736907553482
 30
0.0
 10
280.092007359926
 20
618.0046514828512
 30
0.0
 10
279.9731550243256
 20
618.2642641193089
 30
0.0
 10
279.83049310888
 20
618.5129812165471
 30
0.0
 10
279.6639502080958
 20
618.7498251321952
 30
0.0
 10
279.4759924888987
 20
618.9720405517505
 30
0.0
 10
279.2668302772024
 20
619.1789036039752
 30
0.0
 10
279.0393777008177
 20
619.367962339054
 30
0.0
 10
278.7940321165534
 20
619.5386022839135
 30
0.0
 10
278.5340035582942
 20
619.6888660129697
 30
0.0
 10
278.2599808123119
 20
619.8181733652814
 30
0.0
 10
277.9752331269971
 20
619.9251641674095
 30
0.0
 10
277.6808702775115
 20
620.0092965067627
 30
0.0
 10
277.3799797976015
 20
620.0698154911418
 30
0.0
 10
277.0741934756986
 20
620.1062966293092
 30
0.0
 10
276.7662160457625
 20
620.1185154110142
 30
0.0
 10
276.4582386158171
 20
620.1062966296531
 30
0.0
 10
276.1524522939216
 20
620.0698154918286
 30
0.0
 10
275.8515618139312
 20
620.009296507803
 30
0.0
 10
275.5571989646555
 20
619.9251641687788
 30
0.0
 10
275.2724512784386
 20
619.8181733670914
 30
0.0
 10
274.9984285356236
 20
619.6888660148331
 30
0.0
 10
274.7383999654286
 20
619.5386022872951
 30
0.0
 10
274.4930544248268
 20
619.3679623385972
 30
0.0
 10
274.265601686566
 20
619.1789036195302
 30
0.0
 10
274.0564400692319
 20
618.9720405103341
 30
0.0
 10
273.8684801504569
 20
618.7498253035228
 30
0.0
 10
273.7019453342115
 20
618.512980607931
 30
0.0
 10
273.5592534770003
 20
618.2642664014552
 30
0.0
 10
273.4405114698439
 20
618.0046431156757
 30
0.0
 10
273.3475339247124
 20
617.7369387082435
 30
0.0
 10
273.2802868469031
 20
617.4624908751
 30
0.0
 10
273.2399715008025
 20
617.1839520526426
 30
0.0
 10
273.2263098218197
 20
616.9031307878229
 30
0.0
 10
273.2399715007786
 20
616.6223095230034
 30
0.0
 10
273.2802868468551
 20
616.3437707005459
 30
0.0
 10
273.3475339246407
 20
616.0693228674018
 30
0.0
 10
273.4405114697486
 20
615.8016184599694
 30
0.0
 10
273.5592534768815
 20
615.5419951741894
 30
0.0
 10
273.7019453340694
 20
615.2932809677129
 30
0.0
 10
273.8684801502912
 20
615.0564362721204
 30
0.0
 10
274.0564400690432
 20
614.8342210653083
 30
0.0
 10
274.2656016863545
 20
614.6273579561112
 30
0.0
 10
274.4930544245924
 20
614.4382992370433
 30
0.0
 10
274.7383999651717
 20
614.2676592883442
 30
0.0
 10
274.9984285353441
 20
614.1173955608054
 30
0.0
 10
275.2724512781368
 20
613.9880882085467
 30
0.0
 10
275.5571989643312
 20
613.8810974068576
 30
0.0
 10
275.8515618135845
 20
613.7969650678328
 30
0.0
 10
276.1524522935521
 20
613.736446083805
 30
0.0
 10
276.4582386154254
 20
613.6999649459799
 30
0.0
 10
276.7662160453467
 20
613.6877461646169
 30
0.0
 10
277.0741934752639
 20
613.6999649463191
 30
0.0
 10
277.3799797971275
 20
613.7364460844857
 30
0.0
 10
277.6808702770724
 20
613.7969650688551
 30
0.0
 10
277.9752331263163
 20
613.8810974082278
 30
0.0
 10
278.2599808124137
 20
613.9880882102606
 30
0.0
 10
278.5340035553934
 20
614.1173955628971
 30
0.0
 10
278.7940321246605
 20
614.2676592907142
 30
0.0
 10
279.0393776683101
 20
614.4382992400842
 30
0.0
 10
279.2668303948741
 20
614.6273579584073
 30
0.0
 10
279.4759920547075
 20
614.8342210721033
 30
0.0
 10
279.6639518156904
 20
615.0564362640908
 30
0.0
 10
279.8304872113207
 20
615.2932810160348
 30
0.0
 10
279.9731769220602
 20
615.541995015755
 30
0.0
 10
280.0919268376971
 20
615.8016190654108
 30
0.0
 10
280.1848750342593
 20
616.0693206403596
 30
0.0
 10
280.252230715907
 20
616.343778957626
 30
0.0
 10
280.2921419030923
 20
616.622278767791
 30
0.0
 10
280.3073074800903
 20
616.9032452013207
 30
0.0
 10
280.2944699303042
 20
617.089902083846
 30
0.0
 10
280.2880511582579
 20
617.1832305235789
 30
0.0
 11
280.2880511582578
 21
617.1832305235789
 31
0.0
 11
280.247695914118
 21
617.4616300309325
 31
0.0
 11
280.1808875715591
 21
617.734874055805
 31
0.0
 11
280.0877570703699
 21
618.0029801819696
 31
0.0
 11
279.9698664569933
 21
618.2611262000671
 31
0.0
 11
279.8267594435364
 21
618.5106188784152
 31
0.0
 11
279.6614791529428
 21
618.7459642855151
 31
0.0
 11
279.4728063604399
 21
618.9691064785303
 31
0.0
 11
279.2651759471374
 21
619.1746714036153
 31
0.0
 11
279.0367968644076
 21
619.3645859808842
 31
0.0
 11
278.7930550575956
 21
619.5342722835749
 31
0.0
 11
278.5320588409466
 21
619.6851679731353
 31
0.0
 11
278.2594837810684
 21
619.8139079601333
 31
0.0
 11
277.9739358124917
 21
619.9212506234234
 31
0.0
 11
277.6806625436932
 21
620.0051469666626
 31
0.0
 11
277.3793315805132
 21
620.065778923302
 31
0.0
 11
277.0741403219328
 21
620.1022281572884
 31
0.0
 11
276.76621603615
 21
620.1144389319018
 31
0.0
 11
276.4582917503673
 21
620.1022281572884
 31
0.0
 11
276.1531004917869
 21
620.0657789233019
 31
0.0
 11
275.8517695286068
 21
620.0051469666624
 31
0.0
 11
275.5584962598084
 21
619.9212506234234
 31
0.0
 11
275.2729482912316
 21
619.8139079601334
 31
0.0
 11
275.0003732313533
 21
619.6851679731353
 31
0.0
 11
274.7393770147044
 21
619.5342722835749
 31
0.0
 11
274.4956352078924
 21
619.3645859808842
 31
0.0
 11
274.2672561251626
 21
619.1746714036153
 31
0.0
 11
274.0596257118602
 21
618.9691064785301
 31
0.0
 11
273.8709529193573
 21
618.7459642855152
 31
0.0
 11
273.7056726287636
 21
618.5106188784155
 31
0.0
 11
273.5625656153068
 21
618.2611262000673
 31
0.0
 11
273.4446750019302
 21
618.0029801819696
 31
0.0
 11
273.3515445007411
 21
617.734874055805
 31
0.0
 11
273.2847361581822
 21
617.4616300309324
 31
0.0
 11
273.2443809140423
 21
617.1832305235787
 31
0.0
 11
273.2308589290143
 21
616.9031307872356
 31
0.0
 11
273.2443809140422
 21
616.6230310508922
 31
0.0
 11
273.2847361581821
 21
616.3446315435386
 31
0.0
 11
273.3515445007411
 21
616.0713875186659
 31
0.0
 11
273.4446750019302
 21
615.8032813925013
 31
0.0
 11
273.5625656153069
 21
615.5451353744037
 31
0.0
 11
273.7056726287636
 21
615.2956426960556
 31
0.0
 11
273.8709529193573
 21
615.0602972889558
 31
0.0
 11
274.0596257118602
 21
614.8371550959408
 31
0.0
 11
274.2672561251626
 21
614.6315901708556
 31
0.0
 11
274.4956352078924
 21
614.4416755935866
 31
0.0
 11
274.7393770147044
 21
614.2719892908958
 31
0.0
 11
275.0003732313533
 21
614.1210936013354
 31
0.0
 11
275.2729482912316
 21
613.9923536143375
 31
0.0
 11
275.5584962598084
 21
613.8850109510475
 31
0.0
 11
275.8517695286068
 21
613.8011146078085
 31
0.0
 11
276.1531004917869
 21
613.7404826511688
 31
0.0
 11
276.4582917503673
 21
613.7040334171825
 31
0.0
 11
276.76621603615
 21
613.6918226425692
 31
0.0
 11
277.0741403219328
 21
613.7040334171825
 31
0.0
 11
277.3793315805132
 21
613.7404826511689
 31
0.0
 11
277.6806625436932
 21
613.8011146078085
 31
0.0
 11
277.9739358124917
 21
613.8850109510475
 31
0.0
 11
278.2594837810684
 21
613.9923536143376
 31
0.0
 11
278.5320588409467
 21
614.1210936013355
 31
0.0
 11
278.7930550575956
 21
614.2719892908959
 31
0.0
 11
279.0367968644076
 21
614.4416755935866
 31
0.0
 11
279.2651759471374
 21
614.6315901708556
 31
0.0
 11
279.47280636044
 21
614.837155095941
 31
0.0
 11
279.6614791529428
 21
615.0602972889558
 31
0.0
 11
279.8267594435365
 21
615.2956426960556
 31
0.0
 11
279.9698664569933
 21
615.5451353744037
 31
0.0
 11
280.0877570703699
 21
615.8032813925013
 31
0.0
 11
280.1808875715591
 21
616.0713875186659
 31
0.0
 11
280.247695914118
 21
616.3446315435385
 31
0.0
 11
280.2880511582578
 21
616.6230310508922
 31
0.0
 11
280.3015731432857
 21
616.9031307872357
 31
0.0
 11
280.2880511582579
 21
617.1832305235789
 31
0.0
  0
SPLINE
  5
13F
330
53
100
AcDbEntity
  8
1
  6
Continuous
 62
     7
100
AcDbSpline
210
0.0
220
0.0
230
1.0
 70
    11
 71
     3
 72
    79
 73
    75
 74
    73
 42
0.000000001
 43
0.0000000001
 44
0.00000001
 40
0.0
 40
0.0
 40
0.0
 40
0.0
 40
0.3219191065761037
 40
0.6433817936226449
 40
0.9928750027371882
 40
1.341795136668661
 40
1.729749024779585
 40
2.117262753762388
 40
2.547908612129035
 40
2.97826691259139
 40
3.450266272795959
 40
3.922086448925536
 40
4.429962875077909
 40
4.937730794206546
 40
5.473111498179028
 40
6.008430496810313
 40
6.561033305606055
 40
7.113608118626544
 40
7.672061090161207
 40
8.230514061698083
 40
8.783088874725424
 40
9.335691683531232
 40
9.871010682173676
 40
10.40639138615594
 40
10.91415930528922
 40
11.42203573143614
 40
11.8938559075451
 40
12.36585526770433
 40
12.79621356809193
 40
13.22685942633403
 40
13.61437315514054
 40
14.00232704297768
 40
14.35124717651844
 40
14.70074038494108
 40
15.02220306986401
 40
15.34412218308059
 40
15.65570035336864
 40
15.96727852365564
 40
16.28919763686906
 40
16.61066032178739
 40
16.96015353020353
 40
17.30907366373757
 40
17.69702755156662
 40
18.0845412803654
 40
18.51518713859917
 40
18.94554543897921
 40
19.41754479913057
 40
19.88936497523282
 40
20.39724140137291
 40
20.90500932050037
 40
21.44039002447722
 40
21.97570902311551
 40
22.52831183191781
 40
23.08088664494304
 40
23.6393396164793
 40
24.19779258801445
 40
24.75036740103762
 40
25.30297020983788
 40
25.83828920847554
 40
26.37366991245663
 40
26.88143783159588
 40
27.38931425776039
 40
27.86113443390316
 40
28.3331337941215
 40
28.76349209459525
 40
29.1941379529689
 40
29.58165168194916
 40
29.96960557003379
 40
30.31852570388532
 40
30.66801891273283
 40
30.98948159820562
 40
31.31140071222982
 40
31.6229788847174
 40
31.93455704876361
 40
31.93455704876361
 40
31.93455704876361
 40
31.93455704876361
 10
276.4556685376947
 20
634.5587552507973
 30
0.0
 10
276.3503496142468
 20
634.5370312343041
 30
0.0
 10
276.1398610871609
 20
634.4936140114797
 30
0.0
 10
275.8333679413746
 20
634.3640205566282
 30
0.0
 10
275.5384482303022
 20
634.1935054493144
 30
0.0
 10
275.2502491633708
 20
633.9727265680038
 30
0.0
 10
274.9792942323455
 20
633.7127690301297
 30
0.0
 10
274.7179236099399
 20
633.4065372170494
 30
0.0
 10
274.4770758022288
 20
633.0664865706764
 30
0.0
 10
274.2496538917252
 20
632.6842960466674
 30
0.0
 10
274.0449756652667
 20
632.2740637962477
 30
0.0
 10
273.8578077020486
 20
631.8274929642486
 30
0.0
 10
273.6950147856123
 20
631.3588283425993
 30
0.0
 10
273.5533880237417
 20
630.8613304665088
 30
0.0
 10
273.4373361020891
 20
630.3478682432994
 30
0.0
 10
273.3452654338062
 20
629.8144286627368
 30
0.0
 10
273.2795743663976
 20
629.2713276849652
 30
0.0
 10
273.2396214316997
 20
628.7180119814783
 30
0.0
 10
273.2264544983107
 20
628.1614610464239
 30
0.0
 10
273.2396214317957
 20
627.6049101113485
 30
0.0
 10
273.2795743665966
 20
627.0515944079244
 30
0.0
 10
273.3452654340508
 20
626.5084934299286
 30
0.0
 10
273.4373361025349
 20
625.9750538501808
 30
0.0
 10
273.5533880237475
 20
625.4615916240105
 30
0.0
 10
273.6950147873623
 20
624.9640937584363
 30
0.0
 10
273.8578076975741
 20
624.4954290989075
 30
0.0
 10
274.0449756823567
 20
624.0488583987451
 30
0.0
 10
274.2496538316261
 20
623.6386256781662
 30
0.0
 10
274.4770760056183
 20
623.2564367620607
 30
0.0
 10
274.7179228804056
 20
622.9163804272894
 30
0.0
 10
274.9792966540558
 20
622.6101678348681
 30
0.0
 10
275.2502404655195
 20
622.3501424833726
 30
0.0
 10
275.5384770990927
 20
622.1295927173198
 30
0.0
 10
275.8332632819363
 20
621.9582632545232
 30
0.0
 10
276.1402172449614
 20
621.8314802289128
 30
0.0
 10
276.4509684692763
 20
621.7568329711962
 30
0.0
 10
276.7662160358219
 20
621.7299974660633
 30
0.0
 10
277.0814636023673
 20
621.7568329711879
 30
0.0
 10
277.3922148266812
 20
621.8314802288961
 30
0.0
 10
277.6991687897044
 20
621.9582632544987
 30
0.0
 10
277.9939549725457
 20
622.1295927172877
 30
0.0
 10
278.2821916061154
 20
622.3501424833332
 30
0.0
 10
278.5531354175745
 20
622.6101678348228
 30
0.0
 10
278.8145091912196
 20
622.9163804272376
 30
0.0
 10
279.0553560660007
 20
623.2564367620043
 30
0.0
 10
279.2827782399852
 20
623.638625678105
 30
0.0
 10
279.4874563892461
 20
624.0488583986801
 30
0.0
 10
279.6746243740184
 20
624.495429098839
 30
0.0
 10
279.8374172842182
 20
624.964093758365
 30
0.0
 10
279.9790440478188
 20
625.4615916239375
 30
0.0
 10
280.0950959690148
 20
625.9750538501057
 30
0.0
 10
280.1871666374794
 20
626.5084934298528
 30
0.0
 10
280.2528577049115
 20
627.0515944078479
 30
0.0
 10
280.2928106396861
 20
627.6049101112729
 30
0.0
 10
280.3059775731405
 20
628.1614610463441
 30
0.0
 10
280.2928106397197
 20
628.7180119814141
 30
0.0
 10
280.2528577049724
 20
629.2713276848439
 30
0.0
 10
280.1871666375596
 20
629.814428662824
 30
0.0
 10
280.0950959690854
 20
630.3478682426289
 30
0.0
 10
279.9790440479006
 20
630.8613304685891
 30
0.0
 10
279.8374172841272
 20
631.3588283349036
 30
0.0
 10
279.6746243742809
 20
631.8274929917526
 30
0.0
 10
279.4874563878567
 20
632.2740637012178
 30
0.0
 10
279.2827782438699
 20
632.6842963885817
 30
0.0
 10
279.0553560510434
 20
633.0664854182153
 30
0.0
 10
278.8145092418503
 20
633.4065413512474
 30
0.0
 10
278.5531352452998
 20
633.7127553009641
 30
0.0
 10
278.2821922186524
 20
633.9727758634681
 30
0.0
 10
277.9939529316252
 20
634.1933418092901
 30
0.0
 10
277.6991761777402
 20
634.3646137630353
 30
0.0
 10
277.3921896716002
 20
634.4915952580152
 30
0.0
 10
277.0815565978444
 20
634.5655219303713
 30
0.0
 10
276.765881288307
 20
634.5949661613523
 30
0.0
 10
276.5590727872851
 20
634.5708255507296
 30
0.0
 10
276.4556685376947
 20
634.5587552507973
 30
0.0
 11
276.4556685376947
 21
634.5587552507973
 31
0.0
 11
276.1426863115225
 21
634.4834290161118
 31
0.0
 11
275.8450272259699
 21
634.3620316246474
 31
0.0
 11
275.5424597853152
 21
634.1871075077922
 31
0.0
 11
275.264620274619
 21
633.9760376948352
 31
0.0
 11
274.9838996519745
 21
633.7082613867649
 31
0.0
 11
274.7316384645893
 21
633.4140995547862
 31
0.0
 11
274.4818232771825
 21
633.0633172470817
 31
0.0
 11
274.2612044659242
 21
632.6938099983613
 31
0.0
 11
274.0496735008838
 21
632.2718644487466
 31
0.0
 11
273.866884515926
 21
631.8368903511575
 31
0.0
 11
273.6996076847925
 21
631.3573521086702
 31
0.0
 11
273.5603063905692
 21
630.8690659127465
 31
0.0
 11
273.4418300309818
 21
630.3469587873282
 31
0.0
 11
273.3506379793762
 21
629.8194642944409
 31
0.0
 11
273.2840018869277
 21
629.2708938837578
 31
0.0
 11
273.2441951689634
 21
628.7197547459791
 31
0.0
 11
273.2308589290145
 21
628.1614610364331
 31
0.0
 11
273.2441951689634
 21
627.6031673268872
 31
0.0
 11
273.2840018869278
 21
627.0520281891083
 31
0.0
 11
273.3506379793762
 21
626.5034577784252
 31
0.0
 11
273.4418300309819
 21
625.975963285538
 31
0.0
 11
273.5603063905693
 21
625.4538561601197
 31
0.0
 11
273.6996076847925
 21
624.965569964196
 31
0.0
 11
273.866884515926
 21
624.4860317217087
 31
0.0
 11
274.0496735008838
 21
624.0510576241198
 31
0.0
 11
274.2612044659242
 21
623.629112074505
 31
0.0
 11
274.4818232771824
 21
623.2596048257844
 31
0.0
 11
274.7316384645893
 21
622.9088225180799
 31
0.0
 11
274.9838996519744
 21
622.6146606861009
 31
0.0
 11
275.2646202746191
 21
622.3468843780308
 31
0.0
 11
275.5424597853151
 21
622.1358145650739
 31
0.0
 11
275.8450272259699
 21
621.9608904482185
 31
0.0
 11
276.1426863115224
 21
621.8394930567542
 31
0.0
 11
276.4556685376947
 21
621.7641668220688
 31
0.0
 11
276.76621603615
 21
621.7388447471005
 31
0.0
 11
277.0767635346053
 21
621.7641668220689
 31
0.0
 11
277.3897457607776
 21
621.8394930567542
 31
0.0
 11
277.6874048463302
 21
621.9608904482186
 31
0.0
 11
277.9899722869849
 21
622.1358145650738
 31
0.0
 11
278.2678117976811
 21
622.3468843780308
 31
0.0
 11
278.5485324203256
 21
622.6146606861009
 31
0.0
 11
278.8007936077108
 21
622.9088225180799
 31
0.0
 11
279.0506087951177
 21
623.2596048257843
 31
0.0
 11
279.2712276063759
 21
623.629112074505
 31
0.0
 11
279.4827585714162
 21
624.0510576241197
 31
0.0
 11
279.6655475563741
 21
624.4860317217087
 31
0.0
 11
279.8328243875076
 21
624.9655699641959
 31
0.0
 11
279.9721256817307
 21
625.4538561601196
 31
0.0
 11
280.090602041318
 21
625.9759632855378
 31
0.0
 11
280.1817940929238
 21
626.5034577784252
 31
0.0
 11
280.2484301853724
 21
627.0520281891082
 31
0.0
 11
280.2882369033367
 21
627.6031673268872
 31
0.0
 11
280.3015731432857
 21
628.1614610364333
 31
0.0
 11
280.2882369033367
 21
628.7197547459791
 31
0.0
 11
280.2484301853723
 21
629.2708938837579
 31
0.0
 11
280.1817940929238
 21
629.8194642944411
 31
0.0
 11
280.0906020413182
 21
630.3469587873283
 31
0.0
 11
279.9721256817307
 21
630.8690659127465
 31
0.0
 11
279.8328243875076
 21
631.3573521086703
 31
0.0
 11
279.6655475563741
 21
631.8368903511573
 31
0.0
 11
279.4827585714163
 21
632.2718644487463
 31
0.0
 11
279.2712276063759
 21
632.6938099983613
 31
0.0
 11
279.0506087951176
 21
633.0633172470817
 31
0.0
 11
278.8007936077108
 21
633.4140995547862
 31
0.0
 11
278.5485324203257
 21
633.7082613867653
 31
0.0
 11
278.2678117976811
 21
633.9760376948354
 31
0.0
 11
277.989972286985
 21
634.1871075077923
 31
0.0
 11
277.6874048463301
 21
634.3620316246476
 31
0.0
 11
277.3897457607775
 21
634.4834290161119
 31
0.0
 11
277.0767635346053
 21
634.5587552507973
 31
0.0
 11
276.76621603615
 21
634.5840773257655
 31
0.0
 11
276.4556685376947
 21
634.5587552507973
 31
0.0
  0
SPLINE
  5
140
330
53
100
AcDbEntity
  8
1
  6
Continuous
 62
     7
100
AcDbSpline
210
0.0
220
0.0
230
1.0
 70
    11
 71
     3
 72
    79
 73
    75
 74
    73
 42
0.000000001
 43
0.0000000001
 44
0.00000001
 40
0.0
 40
0.0
 40
0.0
 40
0.0
 40
0.3142650584354059
 40
0.6282865527609465
 40
0.9611940700551482
 40
1.29375906676344
 40
1.653345626572466
 40
2.012624926377905
 40
2.402527480380346
 40
2.792202152566893
 40
3.212046600379415
 40
3.631735865868858
 40
4.077938483287796
 40
4.524041244960179
 40
4.990653910206015
 40
5.457207549915804
 40
5.936678582613817
 40
6.416122251734503
 40
6.899971956020917
 40
7.383821660306905
 40
7.863265329424952
 40
8.342736362118075
 40
8.809290001819022
 40
9.275902667049346
 40
9.722005428697035
 40
10.16820804607626
 40
10.58789731150874
 40
11.00774175923666
 40
11.39741643130976
 40
11.78731898515034
 40
12.14659828474469
 40
12.50618484425385
 40
12.83874984054698
 40
13.1716573571363
 40
13.48567884942562
 40
13.79994391525845
 40
14.10737582044693
 40
14.41480772563429
 40
14.72907279146359
 40
15.04309428374753
 40
15.3760018003297
 40
15.70856679661458
 40
16.06815335611405
 40
16.42743265569869
 40
16.81733520952863
 40
17.20700988159115
 40
17.62685432930842
 40
18.04654359473099
 40
18.49274621210038
 40
18.93884897373869
 40
19.40546163895988
 40
19.87201527865271
 40
20.3514863113383
 40
20.83092998044944
 40
21.31477968472933
 40
21.79862938901054
 40
22.27807305812666
 40
22.75754409082153
 40
23.22409773052944
 40
23.69071039577368
 40
24.13681315744575
 40
24.5830157748643
 40
25.00270504035355
 40
25.4225494881645
 40
25.8122241603469
 40
26.20212671433973
 40
26.56140601412512
 40
26.92099257388954
 40
27.25355757049629
 40
27.58646508749696
 40
27.9004865803187
 40
28.21475164694598
 40
28.52218355426193
 40
28.82961545227922
 40
28.82961545227922
 40
28.82961545227922
 40
28.82961545227922
 10
277.0372747886588
 20
772.6116554169366
 30
0.0
 10
277.1405421647373
 20
772.5930628817036
 30
0.0
 10
277.346996883503
 20
772.5558922294878
 30
0.0
 10
277.6490690880752
 20
772.4449455726293
 30
0.0
 10
277.9412513353462
 20
772.2978805384987
 30
0.0
 10
278.2260935745801
 20
772.1077256287555
 30
0.0
 10
278.4955225303471
 20
771.8825908731685
 30
0.0
 10
278.7543087182182
 20
771.6179545831285
 30
0.0
 10
278.9939756497165
 20
771.3228945151477
 30
0.0
 10
279.2193041037502
 20
770.9921283681201
 30
0.0
 10
279.4228585247611
 20
770.6360612989276
 30
0.0
 10
279.6083427148494
 20
770.2493282098686
 30
0.0
 10
279.770105630564
 20
769.842655023059
 30
0.0
 10
279.9104670722041
 20
769.4116788676489
 30
0.0
 10
280.0257050268553
 20
768.9663054316723
 30
0.0
 10
280.1169543854423
 20
768.5040925673003
 30
0.0
 10
280.182159047158
 20
768.0331741847482
 30
0.0
 10
280.2217477906731
 20
767.5536427472972
 30
0.0
 10
280.234832809846
 20
767.0711976777379
 30
0.0
 10
280.2217477906892
 20
766.5887526081636
 30
0.0
 10
280.1821590471867
 20
766.1092211707593
 30
0.0
 10
280.1169543855226
 20
765.6383027880449
 30
0.0
 10
280.0257050268926
 20
765.1760899242695
 30
0.0
 10
279.9104670726084
 20
764.7307164861235
 30
0.0
 10
279.7701056299505
 20
764.299740338477
 30
0.0
 10
279.6083427183326
 20
763.8930671235398
 30
0.0
 10
279.4228585143503
 20
763.5063341335155
 30
0.0
 10
279.2193041440065
 20
763.1502667081558
 30
0.0
 10
278.9939755146427
 20
762.8195017996647
 30
0.0
 10
278.7543092116237
 20
762.5244372998584
 30
0.0
 10
278.4955208539368
 20
762.259816319954
 30
0.0
 10
278.2260996624569
 20
762.0346267918558
 30
0.0
 10
277.9412305042742
 20
761.8446617946926
 30
0.0
 10
277.6491452671951
 20
761.6969123800061
 30
0.0
 10
277.3467303633514
 20
761.5883833946045
 30
0.0
 10
277.0405084881326
 20
761.5241717417821
 30
0.0
 10
276.7306090558885
 20
761.5015704569428
 30
0.0
 10
276.4207096236451
 20
761.5241717417709
 30
0.0
 10
276.114487748427
 20
761.5883833945813
 30
0.0
 10
275.8120728445852
 20
761.6969123799724
 30
0.0
 10
275.5199876075085
 20
761.8446617946491
 30
0.0
 10
275.2351184493291
 20
762.034626791802
 30
0.0
 10
274.9656972578531
 20
762.2598163198908
 30
0.0
 10
274.7069089001714
 20
762.5244372997859
 30
0.0
 10
274.4672425971584
 20
762.819501799584
 30
0.0
 10
274.2419139678018
 20
763.1502667080672
 30
0.0
 10
274.0383595974656
 20
763.5063341334192
 30
0.0
 10
273.8528753934928
 20
763.8930671234372
 30
0.0
 10
273.6911124818855
 20
764.2997403383679
 30
0.0
 10
273.55075103924
 20
764.7307164860086
 30
0.0
 10
273.4355130849696
 20
765.176089924149
 30
0.0
 10
273.3442637263551
 20
765.6383027879193
 30
0.0
 10
273.2790590647086
 20
766.1092211706282
 30
0.0
 10
273.2394703212268
 20
766.5887526080284
 30
0.0
 10
273.2263853020938
 20
767.0711976775941
 30
0.0
 10
273.2394703212903
 20
767.5536427471588
 30
0.0
 10
273.2790590648408
 20
768.0331741845616
 30
0.0
 10
273.3442637265633
 20
768.5040925672583
 30
0.0
 10
273.4355130852754
 20
768.9663054310694
 30
0.0
 10
273.5507510396341
 20
769.4116788690521
 30
0.0
 10
273.6911124824916
 20
769.8426550172383
 30
0.0
 10
273.8528753939768
 20
770.2493282301623
 30
0.0
 10
274.0383595991414
 20
770.6360612271972
 30
0.0
 10
274.2419139661224
 20
770.992128627238
 30
0.0
 10
274.467242608218
 20
771.3228936236281
 30
0.0
 10
274.7069088669435
 20
771.6179578087085
 30
0.0
 10
274.9656973790845
 20
771.8825798756021
 30
0.0
 10
275.2351180197258
 20
772.1077655145994
 30
0.0
 10
275.5199890897653
 20
772.2977439959633
 30
0.0
 10
275.8120674394857
 20
772.4454448175078
 30
0.0
 10
276.1145066766186
 20
772.5541454643285
 30
0.0
 10
276.4206394552058
 20
772.6177285480757
 30
0.0
 10
276.7308646507521
 20
772.6426280389983
 30
0.0
 10
276.9351380768032
 20
772.6219796211749
 30
0.0
 10
277.0372747886587
 20
772.6116554169365
 30
0.0
 11
277.0372747886588
 21
772.6116554169366
 31
0.0
 11
277.3448240342954
 21
772.5470334918816
 31
0.0
 11
277.640699795866
 21
772.4418335326905
 31
0.0
 11
277.9379527239967
 21
772.2919398657177
 31
0.0
 11
278.2151287328545
 21
772.1081657191658
 31
0.0
 11
278.4914912112145
 21
771.8781086079941
 31
0.0
 11
278.7432062866691
 21
771.6217472693327
 31
0.0
 11
278.9896201289258
 21
771.3195813879248
 31
0.0
 11
279.2094596643609
 21
770.997840919915
 31
0.0
 11
279.4184047119858
 21
770.6336825376184
 31
0.0
 11
279.600252606807
 21
770.2554360271317
 31
0.0
 11
279.765654013594
 21
769.841021801494
 31
0.0
 11
279.9040447280251
 21
769.4169278447768
 31
0.0
 11
280.0212873623772
 21
768.9652846846885
 31
0.0
 11
280.1117822060976
 21
768.5075915757332
 31
0.0
 11
280.1777722674834
 21
768.0326833919813
 31
0.0
 11
280.2172367725467
 21
767.5548667067346
 31
0.0
 11
280.2304578580725
 21
767.0711976677875
 31
0.0
 11
280.2172367725467
 21
766.5875286288401
 31
0.0
 11
280.1777722674834
 21
766.1097119435938
 31
0.0
 11
280.1117822060977
 21
765.634803759842
 31
0.0
 11
280.0212873623773
 21
765.1771106508866
 31
0.0
 11
279.9040447280252
 21
764.7254674907981
 31
0.0
 11
279.7656540135941
 21
764.3013735340807
 31
0.0
 11
279.600252606807
 21
763.886959308443
 31
0.0
 11
279.4184047119858
 21
763.5087127979566
 31
0.0
 11
279.2094596643609
 21
763.1445544156601
 31
0.0
 11
278.9896201289257
 21
762.8228139476504
 31
0.0
 11
278.743206286669
 21
762.5206480662426
 31
0.0
 11
278.4914912112144
 21
762.2642867275813
 31
0.0
 11
278.2151287328545
 21
762.0342296164092
 31
0.0
 11
277.9379527239969
 21
761.8504554698571
 31
0.0
 11
277.6406997958661
 21
761.7005618028847
 31
0.0
 11
277.3448240342955
 21
761.5953618436937
 31
0.0
 11
277.0372747886588
 21
761.5307399186386
 31
0.0
 11
276.7306090554998
 21
761.5090488024659
 31
0.0
 11
276.4239433223408
 21
761.5307399186386
 31
0.0
 11
276.1163940767042
 21
761.5953618436934
 31
0.0
 11
275.8205183151337
 21
761.7005618028845
 31
0.0
 11
275.5232653870029
 21
761.8504554698571
 31
0.0
 11
275.2460893781453
 21
762.0342296164092
 31
0.0
 11
274.9697268997853
 21
762.2642867275811
 31
0.0
 11
274.7180118243307
 21
762.5206480662425
 31
0.0
 11
274.4715979820741
 21
762.8228139476504
 31
0.0
 11
274.251758446639
 21
763.14455441566
 31
0.0
 11
274.042813399014
 21
763.5087127979564
 31
0.0
 11
273.8609655041928
 21
763.886959308443
 31
0.0
 11
273.6955640974058
 21
764.3013735340809
 31
0.0
 11
273.5571733829748
 21
764.7254674907983
 31
0.0
 11
273.4399307486226
 21
765.1771106508867
 31
0.0
 11
273.3494359049018
 21
765.634803759842
 31
0.0
 11
273.2834458435159
 21
766.109711943594
 31
0.0
 11
273.2439813384527
 21
766.5875286288402
 31
0.0
 11
273.2307602529272
 21
767.0711976677876
 31
0.0
 11
273.2439813384527
 21
767.5548667067347
 31
0.0
 11
273.2834458435159
 21
768.0326833919811
 31
0.0
 11
273.3494359049018
 21
768.507591575733
 31
0.0
 11
273.4399307486227
 21
768.9652846846885
 31
0.0
 11
273.5571733829748
 21
769.4169278447766
 31
0.0
 11
273.6955640974058
 21
769.8410218014941
 31
0.0
 11
273.8609655041929
 21
770.2554360271317
 31
0.0
 11
274.0428133990141
 21
770.6336825376184
 31
0.0
 11
274.251758446639
 21
770.997840919915
 31
0.0
 11
274.471597982074
 21
771.3195813879248
 31
0.0
 11
274.7180118243306
 21
771.6217472693328
 31
0.0
 11
274.9697268997852
 21
771.8781086079942
 31
0.0
 11
275.2460893781451
 21
772.1081657191658
 31
0.0
 11
275.5232653870029
 21
772.291939865718
 31
0.0
 11
275.8205183151337
 21
772.4418335326905
 31
0.0
 11
276.1163940767042
 21
772.547033491882
 31
0.0
 11
276.4239433223407
 21
772.6116554169366
 31
0.0
 11
276.7306090554997
 21
772.6333465331093
 31
0.0
 11
277.0372747886587
 21
772.6116554169365
 31
0.0
  0
SPLINE
  5
141
330
53
100
AcDbEntity
  8
1
  6
Continuous
 62
     7
100
AcDbSpline
210
0.0
220
0.0
230
1.0
 70
    11
 71
     3
 72
    79
 73
    75
 74
    73
 42
0.000000001
 43
0.0000000001
 44
0.00000001
 40
0.0
 40
0.0
 40
0.0
 40
0.0
 40
0.3142650584354059
 40
0.6282865527609465
 40
0.9611940700550969
 40
1.293759066763452
 40
1.65334562657255
 40
2.012624926377746
 40
2.402527480380364
 40
2.792202152567098
 40
3.21204660037962
 40
3.631735865868858
 40
4.077938483287585
 40
4.524041244960076
 40
4.990653910206133
 40
5.45720754991581
 40
5.936678582613824
 40
6.416122251734282
 40
6.899971956021036
 40
7.383821660306912
 40
7.863265329424959
 40
8.342736362118307
 40
8.809290001819145
 40
9.275902667049138
 40
9.722005428696827
 40
10.16820804607605
 40
10.58789731150883
 40
11.00774175923666
 40
11.39741643130976
 40
11.78731898515043
 40
12.14659828474486
 40
12.50618484425387
 40
12.8387498405472
 40
13.17165735713646
 40
13.48567884942574
 40
13.79994391525853
 40
14.10737582044702
 40
14.41480772563438
 40
14.72907279146368
 40
15.04309428374762
 40
15.37600180032979
 40
15.70856679661473
 40
16.06815335611421
 40
16.42743265569877
 40
16.81733520952861
 40
17.20700988159133
 40
17.62685432930879
 40
18.04654359473136
 40
18.49274621210064
 40
18.93884897373896
 40
19.40546163896014
 40
19.87201527865286
 40
20.35148631133834
 40
20.8309299804497
 40
21.31477968472925
 40
21.79862938901069
 40
22.27807305812692
 40
22.75754409082168
 40
23.22409773052948
 40
23.69071039577383
 40
24.13681315744579
 40
24.58301577486444
 40
25.00270504035369
 40
25.42254948816465
 40
25.81222416034705
 40
26.20212671433987
 40
26.5614060141251
 40
26.92099257388967
 40
27.2535575704963
 40
27.58646508749707
 40
27.90048658031877
 40
28.21475164694613
 40
28.52218355426206
 40
28.82961545227936
 40
28.82961545227936
 40
28.82961545227936
 40
28.82961545227936
 10
277.0372747886588
 20
774.5304647336293
 30
0.0
 10
277.1405421647373
 20
774.549057268862
 30
0.0
 10
277.3469968835031
 20
774.586227921078
 30
0.0
 10
277.6490690880752
 20
774.6971745779365
 30
0.0
 10
277.9412513353464
 20
774.8442396120669
 30
0.0
 10
278.22609357458
 20
775.0343945218104
 30
0.0
 10
278.4955225303469
 20
775.2595292773977
 30
0.0
 10
278.7543087182185
 20
775.524165567437
 30
0.0
 10
278.9939756497165
 20
775.8192256354185
 30
0.0
 10
279.21930410375
 20
776.1499917824461
 30
0.0
 10
279.4228585247611
 20
776.506058851638
 30
0.0
 10
279.6083427148494
 20
776.8927919406974
 30
0.0
 10
279.770105630564
 20
777.2994651275069
 30
0.0
 10
279.9104670722041
 20
777.7304412829167
 30
0.0
 10
280.0257050268552
 20
778.175814718894
 30
0.0
 10
280.1169543854423
 20
778.6380275832655
 30
0.0
 10
280.1821590471579
 20
779.108945965818
 30
0.0
 10
280.2217477906731
 20
779.5884774032686
 30
0.0
 10
280.234832809846
 20
780.0709224728278
 30
0.0
 10
280.2217477906893
 20
780.5533675424025
 30
0.0
 10
280.1821590471866
 20
781.0328989798063
 30
0.0
 10
280.1169543855226
 20
781.5038173625212
 30
0.0
 10
280.0257050268927
 20
781.9660302262967
 30
0.0
 10
279.9104670726083
 20
782.4114036644421
 30
0.0
 10
279.7701056299506
 20
782.8423798120889
 30
0.0
 10
279.6083427183325
 20
783.2490530270258
 30
0.0
 10
279.4228585143505
 20
783.6357860170507
 30
0.0
 10
279.2193041440063
 20
783.9918534424099
 30
0.0
 10
278.9939755146428
 20
784.3226183509014
 30
0.0
 10
278.7543092116236
 20
784.6176828507076
 30
0.0
 10
278.4955208539369
 20
784.882303830612
 30
0.0
 10
278.2260996624568
 20
785.1074933587103
 30
0.0
 10
277.9412305042745
 20
785.2974583558735
 30
0.0
 10
277.649145267195
 20
785.4452077705603
 30
0.0
 10
277.3467303633513
 20
785.5537367559616
 30
0.0
 10
277.0405084881326
 20
785.6179484087838
 30
0.0
 10
276.7306090558885
 20
785.6405496936233
 30
0.0
 10
276.4207096236451
 20
785.6179484087952
 30
0.0
 10
276.114487748427
 20
785.5537367559847
 30
0.0
 10
275.8120728445852
 20
785.4452077705937
 30
0.0
 10
275.5199876075085
 20
785.297458355917
 30
0.0
 10
275.2351184493292
 20
785.1074933587638
 30
0.0
 10
274.965697257853
 20
784.8823038306754
 30
0.0
 10
274.7069089001715
 20
784.6176828507803
 30
0.0
 10
274.4672425971584
 20
784.3226183509821
 30
0.0
 10
274.2419139678017
 20
783.991853442499
 30
0.0
 10
274.0383595974657
 20
783.6357860171464
 30
0.0
 10
273.8528753934927
 20
783.2490530271284
 30
0.0
 10
273.6911124818856
 20
782.8423798121979
 30
0.0
 10
273.55075103924
 20
782.4114036645572
 30
0.0
 10
273.4355130849695
 20
781.9660302264167
 30
0.0
 10
273.3442637263552
 20
781.5038173626467
 30
0.0
 10
273.2790590647085
 20
781.0328989799373
 30
0.0
 10
273.2394703212267
 20
780.5533675425377
 30
0.0
 10
273.2263853020938
 20
780.0709224729719
 30
0.0
 10
273.2394703212902
 20
779.5884774034072
 30
0.0
 10
273.2790590648408
 20
779.1089459660041
 30
0.0
 10
273.3442637265633
 20
778.6380275833073
 30
0.0
 10
273.4355130852755
 20
778.1758147194967
 30
0.0
 10
273.5507510396341
 20
777.7304412815137
 30
0.0
 10
273.6911124824916
 20
777.2994651333277
 30
0.0
 10
273.8528753939768
 20
776.8927919204037
 30
0.0
 10
274.0383595991414
 20
776.5060589233692
 30
0.0
 10
274.2419139661224
 20
776.1499915233278
 30
0.0
 10
274.467242608218
 20
775.8192265269377
 30
0.0
 10
274.7069088669434
 20
775.5241623418575
 30
0.0
 10
274.9656973790847
 20
775.2595402749641
 30
0.0
 10
275.2351180197256
 20
775.0343546359661
 30
0.0
 10
275.5199890897654
 20
774.8443761546033
 30
0.0
 10
275.8120674394855
 20
774.696675333058
 30
0.0
 10
276.1145066766188
 20
774.5879746862374
 30
0.0
 10
276.4206394552058
 20
774.52439160249
 30
0.0
 10
276.730864650752
 20
774.4994921115676
 30
0.0
 10
276.9351380768032
 20
774.520140529391
 30
0.0
 10
277.0372747886587
 20
774.5304647336293
 30
0.0
 11
277.0372747886588
 21
774.5304647336293
 31
0.0
 11
277.3448240342954
 21
774.5950866586843
 31
0.0
 11
277.640699795866
 21
774.7002866178755
 31
0.0
 11
277.9379527239967
 21
774.8501802848481
 31
0.0
 11
278.2151287328545
 21
775.0339544314002
 31
0.0
 11
278.4914912112145
 21
775.2640115425719
 31
0.0
 11
278.7432062866691
 21
775.520372881233
 31
0.0
 11
278.9896201289258
 21
775.8225387626411
 31
0.0
 11
279.2094596643609
 21
776.1442792306511
 31
0.0
 11
279.4184047119858
 21
776.5084376129478
 31
0.0
 11
279.600252606807
 21
776.8866841234342
 31
0.0
 11
279.765654013594
 21
777.3010983490717
 31
0.0
 11
279.9040447280251
 21
777.725192305789
 31
0.0
 11
280.0212873623772
 21
778.1768354658775
 31
0.0
 11
280.1117822060976
 21
778.6345285748328
 31
0.0
 11
280.1777722674834
 21
779.1094367585846
 31
0.0
 11
280.2172367725467
 21
779.5872534438311
 31
0.0
 11
280.2304578580725
 21
780.0709224827785
 31
0.0
 11
280.2172367725467
 21
780.5545915217258
 31
0.0
 11
280.1777722674834
 21
781.0324082069721
 31
0.0
 11
280.1117822060977
 21
781.5073163907241
 31
0.0
 11
280.0212873623773
 21
781.9650094996795
 31
0.0
 11
279.9040447280252
 21
782.4166526597676
 31
0.0
 11
279.7656540135941
 21
782.840746616485
 31
0.0
 11
279.600252606807
 21
783.2551608421227
 31
0.0
 11
279.4184047119858
 21
783.6334073526094
 31
0.0
 11
279.2094596643609
 21
783.9975657349058
 31
0.0
 11
278.9896201289257
 21
784.3193062029155
 31
0.0
 11
278.743206286669
 21
784.6214720843234
 31
0.0
 11
278.4914912112144
 21
784.8778334229848
 31
0.0
 11
278.2151287328545
 21
785.1078905341567
 31
0.0
 11
277.9379527239969
 21
785.2916646807091
 31
0.0
 11
277.6406997958661
 21
785.4415583476814
 31
0.0
 11
277.3448240342955
 21
785.5467583068723
 31
0.0
 11
277.0372747886588
 21
785.6113802319272
 31
0.0
 11
276.7306090554998
 21
785.6330713481001
 31
0.0
 11
276.4239433223408
 21
785.6113802319275
 31
0.0
 11
276.1163940767042
 21
785.5467583068727
 31
0.0
 11
275.8205183151337
 21
785.4415583476815
 31
0.0
 11
275.5232653870029
 21
785.2916646807089
 31
0.0
 11
275.2460893781453
 21
785.1078905341567
 31
0.0
 11
274.9697268997853
 21
784.8778334229848
 31
0.0
 11
274.7180118243307
 21
784.6214720843235
 31
0.0
 11
274.4715979820741
 21
784.3193062029158
 31
0.0
 11
274.251758446639
 21
783.997565734906
 31
0.0
 11
274.042813399014
 21
783.6334073526093
 31
0.0
 11
273.8609655041928
 21
783.2551608421227
 31
0.0
 11
273.6955640974058
 21
782.8407466164849
 31
0.0
 11
273.5571733829748
 21
782.4166526597675
 31
0.0
 11
273.4399307486226
 21
781.9650094996791
 31
0.0
 11
273.3494359049018
 21
781.5073163907239
 31
0.0
 11
273.2834458435159
 21
781.032408206972
 31
0.0
 11
273.2439813384527
 21
780.5545915217256
 31
0.0
 11
273.2307602529272
 21
780.0709224827785
 31
0.0
 11
273.2439813384527
 21
779.5872534438312
 31
0.0
 11
273.2834458435159
 21
779.1094367585847
 31
0.0
 11
273.3494359049018
 21
778.6345285748329
 31
0.0
 11
273.4399307486227
 21
778.1768354658775
 31
0.0
 11
273.5571733829748
 21
777.7251923057893
 31
0.0
 11
273.6955640974058
 21
777.3010983490719
 31
0.0
 11
273.8609655041929
 21
776.8866841234342
 31
0.0
 11
274.0428133990141
 21
776.5084376129475
 31
0.0
 11
274.251758446639
 21
776.1442792306509
 31
0.0
 11
274.471597982074
 21
775.8225387626411
 31
0.0
 11
274.7180118243306
 21
775.5203728812331
 31
0.0
 11
274.9697268997852
 21
775.2640115425719
 31
0.0
 11
275.2460893781451
 21
775.0339544314002
 31
0.0
 11
275.5232653870029
 21
774.8501802848482
 31
0.0
 11
275.8205183151337
 21
774.7002866178755
 31
0.0
 11
276.1163940767042
 21
774.5950866586841
 31
0.0
 11
276.4239433223407
 21
774.5304647336291
 31
0.0
 11
276.7306090554997
 21
774.5087736174565
 31
0.0
 11
277.0372747886587
 21
774.5304647336293
 31
0.0
  0
ENDBLK
  5
55
330
53
100
AcDbEntity
  8
0
100
AcDbBlockEnd
  0
BLOCK
  5
57
330
56
100
AcDbEntity
  8
0
100
AcDbBlockBegin
  2
42-15
 70
     0
 10
98.94120991942955
 20
716.2657211230367
 30
0.0
  3
42-15
  1

  0
LINE
  5
142
330
56
100
AcDbEntity
  8
1
  6
Continuous
 62
     2
100
AcDbLine
 10
302.2079579405752
 20
627.1614610364331
 30
0.0
 11
303.4731970311856
 21
627.1614610364331
 31
0.0
  0
LINE
  5
143
330
56
100
AcDbEntity
  8
1
  6
Continuous
 62
     2
100
AcDbLine
 10
301.9484217168604
 20
626.1614610364331
 30
0.0
 11
303.7165122409185
 21
626.1614610364331
 31
0.0
  0
LINE
  5
144
330
56
100
AcDbEntity
  8
1
  6
Continuous
 62
     2
100
AcDbLine
 10
301.5915594092522
 20
625.1614610364331
 30
0.0
 11
303.9273854226868
 21
625.1614610364331
 31
0.0
  0
LINE
  5
145
330
56
100
AcDbEntity
  8
1
  6
Continuous
 62
     2
100
AcDbLine
 10
301.3969072414661
 20
624.1614610364331
 30
0.0
 11
304.0409325205621
 21
624.1614610364331
 31
0.0
  0
LINE
  5
146
330
56
100
AcDbEntity
  8
1
  6
Continuous
 62
     2
100
AcDbLine
 10
301.2308589290145
 20
623.1614610364331
 30
0.0
 11
304.2308589290145
 21
623.1614610364331
 31
0.0
  0
LINE
  5
147
330
56
100
AcDbEntity
  8
1
  6
Continuous
 62
     2
100
AcDbLine
 10
301.2308589290145
 20
622.1614610364331
 30
0.0
 11
304.2308589290145
 21
622.1614610364331
 31
0.0
  0
LINE
  5
148
330
56
100
AcDbEntity
  8
1
  6
Continuous
 62
     7
100
AcDbLine
 10
304.2308589290145
 20
621.1614610364331
 30
0.0
 11
304.2308589290145
 21
635.1614610364331
 31
0.0
  0
LINE
  5
149
330
56
100
AcDbEntity
  8
1
  6
Continuous
 62
     7
100
AcDbLine
 10
304.5001811280376
 20
622.161461036433
 30
0.0
 11
304.2308589290145
 21
621.1614610364331
 31
0.0
  0
LINE
  5
14A
330
56
100
AcDbEntity
  8
1
  6
Continuous
 62
     7
100
AcDbLine
 10
304.2308589290145
 20
621.1614610364331
 30
0.0
 11
301.2308589290145
 21
621.1614610364331
 31
0.0
  0
LINE
  5
14B
330
56
100
AcDbEntity
  8
1
  6
Continuous
 62
     7
100
AcDbLine
 10
301.2308589290145
 20
635.1614610364331
 30
0.0
 11
304.2308589290145
 21
635.1614610364331
 31
0.0
  0
LINE
  5
14C
330
56
100
AcDbEntity
  8
1
  6
Continuous
 62
     7
100
AcDbLine
 10
301.2308589290145
 20
635.1614610364331
 30
0.0
 11
301.2308589290145
 21
621.1614610364331
 31
0.0
  0
LINE
  5
14D
330
56
100
AcDbEntity
  8
1
  6
Continuous
 62
     7
100
AcDbLine
 10
304.2308589290145
 20
635.1614610364331
 30
0.0
 11
304.5001811280376
 21
634.1614610364331
 31
0.0
  0
LINE
  5
14E
330
56
100
AcDbEntity
  8
1
  6
Continuous
 62
     2
100
AcDbLine
 10
304.2308589290145
 20
634.1614610364331
 30
0.0
 11
301.2308589290145
 21
634.1614610364331
 31
0.0
  0
LINE
  5
14F
330
56
100
AcDbEntity
  8
1
  6
Continuous
 62
     2
100
AcDbLine
 10
304.2308589290145
 20
633.1614610364331
 30
0.0
 11
301.2308589290145
 21
633.1614610364331
 31
0.0
  0
LINE
  5
150
330
56
100
AcDbEntity
  8
1
  6
Continuous
 62
     2
100
AcDbLine
 10
304.0409325205621
 20
632.1614610364331
 30
0.0
 11
301.3969072414661
 21
632.1614610364331
 31
0.0
  0
LINE
  5
151
330
56
100
AcDbEntity
  8
1
  6
Continuous
 62
     2
100
AcDbLine
 10
303.9273854226868
 20
631.1614610364331
 30
0.0
 11
301.5915594092522
 21
631.1614610364331
 31
0.0
  0
LINE
  5
152
330
56
100
AcDbEntity
  8
1
  6
Continuous
 62
     2
100
AcDbLine
 10
303.7165122409185
 20
630.1614610364331
 30
0.0
 11
301.9484217168604
 21
630.1614610364331
 31
0.0
  0
LINE
  5
153
330
56
100
AcDbEntity
  8
1
  6
Continuous
 62
     2
100
AcDbLine
 10
303.4731970311856
 20
629.1614610364331
 30
0.0
 11
302.2079579405752
 21
629.1614610364331
 31
0.0
  0
LINE
  5
154
330
56
100
AcDbEntity
  8
1
  6
Continuous
 62
     7
100
AcDbLine
 10
304.5001811280375
 20
767.571060075283
 30
0.0
 11
304.2308589290144
 21
766.571060075283
 31
0.0
  0
LINE
  5
155
330
56
100
AcDbEntity
  8
1
  6
Continuous
 62
     7
100
AcDbLine
 10
304.2308589290144
 20
780.571060075283
 30
0.0
 11
304.5001811280375
 21
779.5710600752832
 31
0.0
  0
LINE
  5
156
330
56
100
AcDbEntity
  8
1
  6
Continuous
 62
     7
100
AcDbLine
 10
301.2308589290144
 20
780.571060075283
 30
0.0
 11
304.2308589290144
 21
780.571060075283
 31
0.0
  0
LINE
  5
157
330
56
100
AcDbEntity
  8
1
  6
Continuous
 62
     2
100
AcDbLine
 10
304.2308589290144
 20
779.571060075283
 30
0.0
 11
301.2308589290144
 21
779.571060075283
 31
0.0
  0
LINE
  5
158
330
56
100
AcDbEntity
  8
1
  6
Continuous
 62
     2
100
AcDbLine
 10
304.2308589290144
 20
778.571060075283
 30
0.0
 11
301.2308589290144
 21
778.571060075283
 31
0.0
  0
LINE
  5
159
330
56
100
AcDbEntity
  8
1
  6
Continuous
 62
     2
100
AcDbLine
 10
304.0409325205619
 20
777.571060075283
 30
0.0
 11
301.396907241466
 21
777.571060075283
 31
0.0
  0
LINE
  5
15A
330
56
100
AcDbEntity
  8
1
  6
Continuous
 62
     2
100
AcDbLine
 10
303.9273854226867
 20
776.571060075283
 30
0.0
 11
301.5915594092519
 21
776.571060075283
 31
0.0
  0
LINE
  5
15B
330
56
100
AcDbEntity
  8
1
  6
Continuous
 62
     2
100
AcDbLine
 10
303.7165122409184
 20
775.571060075283
 30
0.0
 11
301.94842171686
 21
775.571060075283
 31
0.0
  0
LINE
  5
15C
330
56
100
AcDbEntity
  8
1
  6
Continuous
 62
     2
100
AcDbLine
 10
303.4731970311858
 20
774.571060075283
 30
0.0
 11
302.2079579405749
 21
774.571060075283
 31
0.0
  0
LINE
  5
15D
330
56
100
AcDbEntity
  8
1
  6
Continuous
 62
     2
100
AcDbLine
 10
302.2079579405749
 20
772.571060075283
 30
0.0
 11
303.4731970311858
 21
772.571060075283
 31
0.0
  0
LINE
  5
15E
330
56
100
AcDbEntity
  8
1
  6
Continuous
 62
     2
100
AcDbLine
 10
301.94842171686
 20
771.571060075283
 30
0.0
 11
303.7165122409184
 21
771.571060075283
 31
0.0
  0
LINE
  5
15F
330
56
100
AcDbEntity
  8
1
  6
Continuous
 62
     2
100
AcDbLine
 10
301.5915594092519
 20
770.571060075283
 30
0.0
 11
303.9273854226867
 21
770.571060075283
 31
0.0
  0
LINE
  5
160
330
56
100
AcDbEntity
  8
1
  6
Continuous
 62
     2
100
AcDbLine
 10
301.396907241466
 20
769.571060075283
 30
0.0
 11
304.0409325205619
 21
769.571060075283
 31
0.0
  0
LINE
  5
161
330
56
100
AcDbEntity
  8
1
  6
Continuous
 62
     7
100
AcDbLine
 10
301.2308589290144
 20
780.571060075283
 30
0.0
 11
301.2308589290144
 21
766.571060075283
 31
0.0
  0
LINE
  5
162
330
56
100
AcDbEntity
  8
1
  6
Continuous
 62
     2
100
AcDbLine
 10
301.2308589290144
 20
768.571060075283
 30
0.0
 11
304.2308589290144
 21
768.571060075283
 31
0.0
  0
LINE
  5
163
330
56
100
AcDbEntity
  8
1
  6
Continuous
 62
     7
100
AcDbLine
 10
304.2308589290144
 20
766.571060075283
 30
0.0
 11
304.2308589290144
 21
780.571060075283
 31
0.0
  0
LINE
  5
164
330
56
100
AcDbEntity
  8
1
  6
Continuous
 62
     2
100
AcDbLine
 10
301.2308589290144
 20
767.571060075283
 30
0.0
 11
304.2308589290144
 21
767.571060075283
 31
0.0
  0
LINE
  5
165
330
56
100
AcDbEntity
  8
1
  6
Continuous
 62
     7
100
AcDbLine
 10
304.2308589290144
 20
766.571060075283
 30
0.0
 11
301.2308589290144
 21
766.571060075283
 31
0.0
  0
ARC
  5
166
330
56
100
AcDbEntity
  8
1
  6
Continuous
 62
     7
100
AcDbCircle
 10
280.2308589290145
 20
628.1614610364331
 30
0.0
 40
24.99999999999985
100
AcDbArc
 50
346.7029282527909
 51
0.0
  0
ARC
  5
167
330
56
100
AcDbEntity
  8
1
  6
Continuous
 62
     7
100
AcDbCircle
 10
280.2308589290145
 20
628.1614610364331
 30
0.0
 40
24.9999999999999
100
AcDbArc
 50
346.1134596373707
 51
346.7029282527909
  0
ARC
  5
168
330
56
100
AcDbEntity
  8
1
  6
Continuous
 62
     7
100
AcDbCircle
 10
280.2308589290145
 20
628.1614610364331
 30
0.0
 40
24.99999999999985
100
AcDbArc
 50
13.29707174720914
 51
13.88654036262906
  0
ARC
  5
169
330
56
100
AcDbEntity
  8
1
  6
Continuous
 62
     7
100
AcDbCircle
 10
280.2308589290145
 20
628.1614610364331
 30
0.0
 40
25.0
100
AcDbArc
 50
0.0
 51
13.29707174720914
  0
ARC
  5
16A
330
56
100
AcDbEntity
  8
1
  6
Continuous
 62
     7
100
AcDbCircle
 10
280.2308589290144
 20
773.571060075283
 30
0.0
 40
24.99999999999996
100
AcDbArc
 50
13.29707174720908
 51
13.88654036262954
  0
ARC
  5
16B
330
56
100
AcDbEntity
  8
1
  6
Continuous
 62
     7
100
AcDbCircle
 10
280.2308589290144
 20
773.571060075283
 30
0.0
 40
25.0
100
AcDbArc
 50
0.0
 51
13.29707174720908
  0
ARC
  5
16C
330
56
100
AcDbEntity
  8
1
  6
Continuous
 62
     7
100
AcDbCircle
 10
280.2308589290144
 20
773.571060075283
 30
0.0
 40
24.99999999999993
100
AcDbArc
 50
346.113459637371
 51
346.7029282527909
  0
ARC
  5
16D
330
56
100
AcDbEntity
  8
1
  6
Continuous
 62
     7
100
AcDbCircle
 10
280.2308589290144
 20
773.571060075283
 30
0.0
 40
24.99999999999996
100
AcDbArc
 50
346.7029282527909
 51
0.0
  0
CIRCLE
  5
16E
330
56
100
AcDbEntity
  8
0
  6
Continuous
 62
     7
100
AcDbCircle
 10
408.2308589290144
 20
628.161461036433
 30
0.0
 40
7.0
  0
ENDBLK
  5
58
330
56
100
AcDbEntity
  8
0
100
AcDbBlockEnd
  0
BLOCK
  5
5F
330
59
100
AcDbEntity
  8
0
100
AcDbBlockBegin
  2
R10AK-13Z
 70
     0
 10
248.2308589290144
 20
583.161461036433
 30
0.0
  3
R10AK-13Z
  1

  0
INSERT
  5
5A
330
59
100
AcDbEntity
  8
1
100
AcDbBlockReference
  2
91-1K
 10
810.8139846401792
 20
237.5040844280284
 30
0.0
  0
INSERT
  5
5B
330
59
100
AcDbEntity
  8
1
100
AcDbBlockReference
  2
21-1C-M1
 10
630.0000000000006
 20
1039.5
 30
0.0
  0
INSERT
  5
5C
330
59
100
AcDbEntity
  8
0
100
AcDbBlockReference
  2
36-54-M11
 10
149.6617329195782
 20
730.5435870458693
 30
0.0
  0
INSERT
  5
5D
330
59
100
AcDbEntity
  8
0
100
AcDbBlockReference
  2
37-1-13
 10
130.7351530388698
 20
719.9626912532042
 30
0.0
  0
INSERT
  5
5E
330
59
100
AcDbEntity
  8
0
100
AcDbBlockReference
  2
42-15
 10
98.94120991942955
 20
716.2657211230367
 30
0.0
  0
ENDBLK
  5
60
330
59
100
AcDbEntity
  8
0
100
AcDbBlockEnd
  0
BLOCK
  5
64
330
61
100
AcDbEntity
  8
0
100
AcDbBlockBegin
  2
V21-2-0AX-13
 70
     0
 10
230.219751930084
 20
587.161461036433
 30
0.0
  3
V21-2-0AX-13
  1

  0
INSERT
  5
62
330
61
100
AcDbEntity
  8
1
100
AcDbBlockReference
  2
V21-2-0A
 10
100.5
 20
1519.0
 30
0.0
  0
INSERT
  5
63
330
61
100
AcDbEntity
  8
0
100
AcDbBlockReference
  2
R10AK-13Z
 10
248.2308589290144
 20
583.161461036433
 30
0.0
  0
ENDBLK
  5
65
330
61
100
AcDbEntity
  8
0
100
AcDbBlockEnd
  0
BLOCK
  5
67
330
66
100
AcDbEntity
  8
0
100
AcDbBlockBegin
  2
開示A4
 70
     0
 10
0.0
 20
0.0
 30
0.0
  3
開示A4
  1

  0
POINT
  5
16F
330
66
100
AcDbEntity
  8
1
 62
     4
100
AcDbPoint
 10
34.0
 20
34.0
 30
0.0
  0
POINT
  5
170
330
66
100
AcDbEntity
  8
1
 62
     4
100
AcDbPoint
 10
57.0
 20
12.25
 30
0.0
  0
POINT
  5
171
330
66
100
AcDbEntity
  8
1
 62
     4
100
AcDbPoint
 10
57.0
 20
20.75
 30
0.0
  0
POINT
  5
172
330
66
100
AcDbEntity
  8
1
 62
     4
100
AcDbPoint
 10
57.0
 20
24.75
 30
0.0
  0
POINT
  5
173
330
66
100
AcDbEntity
  8
1
 62
     4
100
AcDbPoint
 10
57.0
 20
16.25
 30
0.0
  0
POINT
  5
174
330
66
100
AcDbEntity
  8
1
 62
     4
100
AcDbPoint
 10
157.5
 20
19.0
 30
0.0
  0
POINT
  5
175
330
66
100
AcDbEntity
  8
1
 62
     4
100
AcDbPoint
 10
47.5
 20
282.0000000000003
 30
0.0
  0
POINT
  5
176
330
66
100
AcDbEntity
  8
1
 62
     4
100
AcDbPoint
 10
57.0
 20
22.75
 30
0.0
  0
POINT
  5
177
330
66
100
AcDbEntity
  8
1
 62
     4
100
AcDbPoint
 10
57.0
 20
14.25
 30
0.0
  0
POINT
  5
178
330
66
100
AcDbEntity
  8
1
 62
     4
100
AcDbPoint
 10
157.5
 20
12.5
 30
0.0
  0
POINT
  5
179
330
66
100
AcDbEntity
  8
1
 62
     4
100
AcDbPoint
 10
163.25
 20
12.5
 30
0.0
  0
POINT
  5
17A
330
66
100
AcDbEntity
  8
1
 62
     4
100
AcDbPoint
 10
151.75
 20
12.5
 30
0.0
  0
POINT
  5
17B
330
66
100
AcDbEntity
  8
1
 62
     4
100
AcDbPoint
 10
134.75
 20
12.5
 30
0.0
  0
POINT
  5
17C
330
66
100
AcDbEntity
  8
1
 62
     4
100
AcDbPoint
 10
146.25
 20
12.5
 30
0.0
  0
POINT
  5
17D
330
66
100
AcDbEntity
  8
1
 62
     4
100
AcDbPoint
 10
140.5
 20
12.5
 30
0.0
  0
POINT
  5
17E
330
66
100
AcDbEntity
  8
1
 62
     4
100
AcDbPoint
 10
140.5
 20
19.0
 30
0.0
  0
POINT
  5
17F
330
66
100
AcDbEntity
  8
1
 62
     4
100
AcDbPoint
 10
117.75
 20
12.5
 30
0.0
  0
POINT
  5
180
330
66
100
AcDbEntity
  8
1
 62
     4
100
AcDbPoint
 10
129.25
 20
12.5
 30
0.0
  0
POINT
  5
181
330
66
100
AcDbEntity
  8
1
 62
     4
100
AcDbPoint
 10
123.5
 20
12.5
 30
0.0
  0
POINT
  5
182
330
66
100
AcDbEntity
  8
1
 62
     4
100
AcDbPoint
 10
123.5
 20
19.0
 30
0.0
  0
POINT
  5
183
330
66
100
AcDbEntity
  8
1
 62
     4
100
AcDbPoint
 10
100.75
 20
12.5
 30
0.0
  0
POINT
  5
184
330
66
100
AcDbEntity
  8
1
 62
     4
100
AcDbPoint
 10
112.25
 20
12.5
 30
0.0
  0
POINT
  5
185
330
66
100
AcDbEntity
  8
1
 62
     4
100
AcDbPoint
 10
106.5
 20
12.5
 30
0.0
  0
POINT
  5
186
330
66
100
AcDbEntity
  8
1
 62
     4
100
AcDbPoint
 10
106.5
 20
19.0
 30
0.0
  0
POINT
  5
187
330
66
100
AcDbEntity
  8
1
 62
     4
100
AcDbPoint
 10
85.25
 20
17.0
 30
0.0
  0
POINT
  5
188
330
66
100
AcDbEntity
  8
1
 62
     4
100
AcDbPoint
 10
93.75
 20
17.0
 30
0.0
  0
LINE
  5
189
330
66
100
AcDbEntity
  8
1
  6
Continuous
 62
     2
100
AcDbLine
 10
81.0
 20
27.0
 30
0.0
 11
81.0
 21
10.0
 31
0.0
  0
LINE
  5
18A
330
66
100
AcDbEntity
  8
1
  6
DOT_CENTER
 62
     2
100
AcDbLine
 10
187.0
 20
26.5
 30
0.0
 11
187.0
 21
20.5
 31
0.0
  0
LINE
  5
18B
330
66
100
AcDbEntity
  8
1
  6
DOT_CENTER
 62
     2
100
AcDbLine
 10
184.0
 20
23.5
 30
0.0
 11
197.0
 21
23.5
 31
0.0
  0
LINE
  5
18C
330
66
100
AcDbEntity
  8
1
  6
Continuous
 62
     7
100
AcDbLine
 10
196.0
 20
21.5
 30
0.0
 11
191.0
 21
22.30000000000001
 31
0.0
  0
LINE
  5
18D
330
66
100
AcDbEntity
  8
1
  6
Continuous
 62
     7
100
AcDbLine
 10
196.0
 20
25.5
 30
0.0
 11
196.0
 21
21.5
 31
0.0
  0
LINE
  5
18E
330
66
100
AcDbEntity
  8
1
  6
Continuous
 62
     7
100
AcDbLine
 10
191.0
 20
24.69999999999999
 30
0.0
 11
196.0
 21
25.5
 31
0.0
  0
LINE
  5
18F
330
66
100
AcDbEntity
  8
1
  6
Continuous
 62
     7
100
AcDbLine
 10
191.0
 20
24.69999999999999
 30
0.0
 11
191.0
 21
22.30000000000001
 31
0.0
  0
LINE
  5
190
330
66
100
AcDbEntity
  8
1
  6
Continuous
 62
     2
100
AcDbLine
 10
33.0
 20
27.0
 30
0.0
 11
33.0
 21
10.0
 31
0.0
  0
LINE
  5
191
330
66
100
AcDbEntity
  8
1
  6
Continuous
 62
     2
100
AcDbLine
 10
25.0
 20
18.5
 30
0.0
 11
81.0
 21
18.5
 31
0.0
  0
LINE
  5
192
330
66
100
AcDbEntity
  8
1
  6
Continuous
 62
     7
100
AcDbLine
 10
200.0
 20
287.0000000000003
 30
0.0
 11
105.0
 21
287.0000000000003
 31
0.0
  0
LINE
  5
193
330
66
100
AcDbEntity
  8
1
  6
Continuous
 62
     7
100
AcDbLine
 10
200.0
 20
10.0
 30
0.0
 11
200.0
 21
148.5
 31
0.0
  0
LINE
  5
194
330
66
100
AcDbEntity
  8
1
  6
Continuous
 62
     7
100
AcDbLine
 10
25.0
 20
10.0
 30
0.0
 11
105.0
 21
10.0
 31
0.0
  0
LINE
  5
195
330
66
100
AcDbEntity
  8
1
  6
PHANTOM
 62
     4
100
AcDbLine
 10
0.0
 20
297.0000000000001
 30
0.0
 11
0.0
 21
0.0
 31
0.0
  0
LINE
  5
196
330
66
100
AcDbEntity
  8
1
  6
PHANTOM
 62
     4
100
AcDbLine
 10
210.0000000000001
 20
297.0000000000001
 30
0.0
 11
0.0
 21
297.0000000000001
 31
0.0
  0
LINE
  5
197
330
66
100
AcDbEntity
  8
1
  6
PHANTOM
 62
     4
100
AcDbLine
 10
210.0000000000001
 20
0.0
 30
0.0
 11
210.0000000000001
 21
297.0000000000001
 31
0.0
  0
LINE
  5
198
330
66
100
AcDbEntity
  8
1
  6
PHANTOM
 62
     4
100
AcDbLine
 10
0.0
 20
0.0
 30
0.0
 11
210.0000000000001
 21
0.0
 31
0.0
  0
LINE
  5
199
330
66
100
AcDbEntity
  8
1
  6
Continuous
 62
     7
100
AcDbLine
 10
25.0
 20
41.0
 30
0.0
 11
200.0
 21
41.0
 31
0.0
  0
LINE
  5
19A
330
66
100
AcDbEntity
  8
1
  6
Continuous
 62
     7
100
AcDbLine
 10
200.0
 20
27.0
 30
0.0
 11
25.0
 21
27.0
 31
0.0
  0
LINE
  5
19B
330
66
100
AcDbEntity
  8
1
  6
Continuous
 62
     2
100
AcDbLine
 10
33.0
 20
41.0
 30
0.0
 11
33.0
 21
27.0
 31
0.0
  0
LINE
  5
19C
330
66
100
AcDbEntity
  8
1
  6
Continuous
 62
     2
100
AcDbLine
 10
55.0
 20
287.0000000000003
 30
0.0
 11
55.0
 21
277.0000000000003
 31
0.0
  0
LINE
  5
19D
330
66
100
AcDbEntity
  8
1
  6
Continuous
 62
     2
100
AcDbLine
 10
40.0
 20
287.0000000000003
 30
0.0
 11
40.0
 21
277.0000000000003
 31
0.0
  0
LINE
  5
19E
330
66
100
AcDbEntity
  8
1
  6
Continuous
 62
     7
100
AcDbLine
 10
25.0
 20
10.0
 30
0.0
 11
25.0
 21
148.5
 31
0.0
  0
LINE
  5
19F
330
66
100
AcDbEntity
  8
1
  6
Continuous
 62
     2
100
AcDbLine
 10
55.0
 20
277.0000000000003
 30
0.0
 11
25.0
 21
277.0000000000003
 31
0.0
  0
LINE
  5
1A0
330
66
100
AcDbEntity
  8
1
  6
Continuous
 62
     2
100
AcDbLine
 10
166.0
 20
27.0
 30
0.0
 11
166.0
 21
10.0
 31
0.0
  0
LINE
  5
1A1
330
66
100
AcDbEntity
  8
1
  6
Continuous
 62
     2
100
AcDbLine
 10
132.0
 20
27.0
 30
0.0
 11
132.0
 21
10.0
 31
0.0
  0
LINE
  5
1A2
330
66
100
AcDbEntity
  8
1
  6
Continuous
 62
     2
100
AcDbLine
 10
149.0
 20
27.0
 30
0.0
 11
149.0
 21
10.0
 31
0.0
  0
LINE
  5
1A3
330
66
100
AcDbEntity
  8
1
  6
Continuous
 62
     2
100
AcDbLine
 10
115.0
 20
27.0
 30
0.0
 11
115.0
 21
10.0
 31
0.0
  0
LINE
  5
1A4
330
66
100
AcDbEntity
  8
1
  6
Continuous
 62
     2
100
AcDbLine
 10
98.0
 20
27.0
 30
0.0
 11
98.0
 21
10.0
 31
0.0
  0
LINE
  5
1A5
330
66
100
AcDbEntity
  8
1
  6
Continuous
 62
     2
100
AcDbLine
 10
166.0
 20
20.0
 30
0.0
 11
200.0
 21
20.0
 31
0.0
  0
LINE
  5
1A6
330
66
100
AcDbEntity
  8
1
  6
Continuous
 62
     2
100
AcDbLine
 10
105.0
 20
287.0000000000003
 30
0.0
 11
105.0
 21
292.0000000000003
 31
0.0
  0
LINE
  5
1A7
330
66
100
AcDbEntity
  8
1
  6
Continuous
 62
     7
100
AcDbLine
 10
105.0
 20
287.0000000000003
 30
0.0
 11
25.0
 21
287.0000000000003
 31
0.0
  0
LINE
  5
1A8
330
66
100
AcDbEntity
  8
1
  6
Continuous
 62
     2
100
AcDbLine
 10
25.0
 20
148.5
 30
0.0
 11
20.0
 21
148.5
 31
0.0
  0
LINE
  5
1A9
330
66
100
AcDbEntity
  8
1
  6
Continuous
 62
     7
100
AcDbLine
 10
25.0
 20
148.5
 30
0.0
 11
25.0
 21
287.0000000000003
 31
0.0
  0
LINE
  5
1AA
330
66
100
AcDbEntity
  8
1
  6
Continuous
 62
     2
100
AcDbLine
 10
200.0
 20
148.5
 30
0.0
 11
205.0
 21
148.5
 31
0.0
  0
LINE
  5
1AB
330
66
100
AcDbEntity
  8
1
  6
Continuous
 62
     7
100
AcDbLine
 10
200.0
 20
148.5
 30
0.0
 11
200.0
 21
287.0000000000003
 31
0.0
  0
LINE
  5
1AC
330
66
100
AcDbEntity
  8
1
  6
Continuous
 62
     2
100
AcDbLine
 10
105.0
 20
10.0
 30
0.0
 11
105.0
 21
5.0
 31
0.0
  0
LINE
  5
1AD
330
66
100
AcDbEntity
  8
1
  6
Continuous
 62
     7
100
AcDbLine
 10
105.0
 20
10.0
 30
0.0
 11
200.0
 21
10.0
 31
0.0
  0
CIRCLE
  5
1AE
330
66
100
AcDbEntity
  8
1
  6
DOT_CENTER
 62
     7
100
AcDbCircle
 10
89.5
 20
18.0
 30
0.0
 40
0.1000000000000227
  0
CIRCLE
  5
1AF
330
66
100
AcDbEntity
  8
1
  6
DOT_CENTER
 62
     7
100
AcDbCircle
 10
89.5
 20
16.0
 30
0.0
 40
0.1000000000000227
  0
CIRCLE
  5
1B0
330
66
100
AcDbEntity
  8
1
  6
Continuous
 62
     7
100
AcDbCircle
 10
187.0
 20
23.5
 30
0.0
 40
2.0
  0
CIRCLE
  5
1B1
330
66
100
AcDbEntity
  8
1
  6
Continuous
 62
     7
100
AcDbCircle
 10
187.0
 20
23.5
 30
0.0
 40
1.200000000000102
  0
CIRCLE
  5
1B2
330
66
100
AcDbEntity
  8
1
  6
Continuous
 62
     7
100
AcDbCircle
 10
154.5
 20
12.5
 30
0.0
 40
0.3000000000000114
  0
CIRCLE
  5
1B3
330
66
100
AcDbEntity
  8
1
  6
Continuous
 62
     7
100
AcDbCircle
 10
160.5
 20
12.5
 30
0.0
 40
0.3000000000000114
  0
CIRCLE
  5
1B4
330
66
100
AcDbEntity
  8
1
  6
Continuous
 62
     7
100
AcDbCircle
 10
143.5
 20
12.5
 30
0.0
 40
0.3000000000000114
  0
CIRCLE
  5
1B5
330
66
100
AcDbEntity
  8
1
  6
Continuous
 62
     7
100
AcDbCircle
 10
137.5
 20
12.5
 30
0.0
 40
0.3000000000000114
  0
CIRCLE
  5
1B6
330
66
100
AcDbEntity
  8
1
  6
Continuous
 62
     7
100
AcDbCircle
 10
126.5
 20
12.5
 30
0.0
 40
0.2999999999999972
  0
CIRCLE
  5
1B7
330
66
100
AcDbEntity
  8
1
  6
Continuous
 62
     7
100
AcDbCircle
 10
120.5
 20
12.5
 30
0.0
 40
0.2999999999999972
  0
CIRCLE
  5
1B8
330
66
100
AcDbEntity
  8
1
  6
Continuous
 62
     7
100
AcDbCircle
 10
109.5
 20
12.5
 30
0.0
 40
0.2999999999999972
  0
CIRCLE
  5
1B9
330
66
100
AcDbEntity
  8
1
  6
Continuous
 62
     7
100
AcDbCircle
 10
103.5
 20
12.5
 30
0.0
 40
0.2999999999999972
  0
MTEXT
  5
1BB
330
66
100
AcDbEntity
  8
1
 62
   250
100
AcDbMText
 10
25.0
 20
5.0
 30
0.0
 40
3.5
 41
0.0
 71
     4
 72
     1
  1
備考欄の文字列 原点位置=4
  7
CONVERTER_11
 73
     1
 44
0.54545454545455
  0
MTEXT
  5
1BC
330
66
100
AcDbEntity
  8
1
 62
     2
100
AcDbMText
 10
89.5
 20
24.0
 30
0.0
 40
3.5
 41
0.0
 71
     5
 72
     1
  1
尺度
  7
CONVERTER_11
 73
     1
 44
0.54545454545455
  0
MTEXT
  5
1BD
330
66
100
AcDbEntity
  8
1
 62
     2
100
AcDbMText
 10
135.5
 20
25.0
 30
0.0
 40
3.0
 41
0.0
 71
     5
 72
     1
  1
製図
  7
CONVERTER_11
 73
     1
 44
0.59090909090909
  0
MTEXT
  5
1BE
330
66
100
AcDbEntity
  8
1
 62
     2
100
AcDbMText
 10
152.5
 20
25.0
 30
0.0
 40
3.0
 41
0.0
 71
     5
 72
     1
  1
設計
  7
CONVERTER_11
 73
     1
 44
0.59090909090909
  0
MTEXT
  5
1BF
330
66
100
AcDbEntity
  8
1
 62
     2
100
AcDbMText
 10
118.5
 20
25.0
 30
0.0
 40
3.0
 41
0.0
 71
     5
 72
     1
  1
検図
  7
CONVERTER_11
 73
     1
 44
0.59090909090909
  0
MTEXT
  5
1C0
330
66
100
AcDbEntity
  8
1
 62
     2
100
AcDbMText
 10
175.0
 20
23.5
 30
0.0
 40
3.5
 41
0.0
 71
     5
 72
     1
  1
第三角法
  7
CONVERTER_11
 73
     1
 44
0.54545454545455
  0
MTEXT
  5
1C1
330
66
100
AcDbEntity
  8
1
 62
     2
100
AcDbMText
 10
101.5
 20
25.0
 30
0.0
 40
3.0
 41
0.0
 71
     5
 72
     1
  1
承認
  7
CONVERTER_11
 73
     1
 44
0.59090909090909
  0
MTEXT
  5
1C2
330
66
100
AcDbEntity
  8
1
 62
     2
100
AcDbMText
 10
29.0
 20
14.25
 30
0.0
 40
3.5
 41
0.0
 71
     5
 72
     1
  1
品番
  7
CONVERTER_11
 73
     1
 44
0.72727272727273
  0
MTEXT
  5
1C3
330
66
100
AcDbEntity
  8
1
 62
     2
100
AcDbMText
 10
29.0
 20
22.75
 30
0.0
 40
3.5
 41
0.0
 71
     5
 72
     1
  1
品名
  7
CONVERTER_11
 73
     1
 44
0.72727272727273
  0
MTEXT
  5
1C4
330
66
100
AcDbEntity
  8
1
 62
     2
100
AcDbMText
 10
29.0
 20
34.0
 30
0.0
 40
3.5
 41
0.0
 71
     5
 72
     1
  1
備考
  7
CONVERTER_11
 73
     1
 44
0.45454545454545
  0
MTEXT
  5
1C5
330
66
100
AcDbEntity
  8
1
 62
     2
100
AcDbMText
 10
32.5
 20
282.0000000000003
 30
0.0
 40
5.0
 41
0.0
 71
     5
 72
     1
  1
図番
  7
CONVERTER_11
 73
     1
 44
0.45454545454545
  0
MTEXT
  5
1C6
330
66
100
AcDbEntity
  8
1
 62
     7
100
AcDbMText
 10
171.5
 20
15.0
 30
0.0
 40
2.5
 41
0.0
 71
     5
 72
     1
  1
株式会社
  7
CONVERTER_11
 73
     1
 44
1.0
  0
MTEXT
  5
1C7
330
66
100
AcDbEntity
  8
1
 62
     7
100
AcDbMText
 10
188.5
 20
15.0
 30
0.0
 40
3.0
 41
0.0
 71
     5
 72
     1
  1
三栄水栓製作所
  7
CONVERTER_11
 73
     1
 44
1.0
  0
ENDBLK
  5
68
330
66
100
AcDbEntity
  8
0
100
AcDbBlockEnd
  0
BLOCK
  5
6A
330
69
100
AcDbEntity
  8
0
100
AcDbBlockBegin
  2
32-12-M2
 70
     0
 10
324.2664755727537
 20
689.2040673785477
 30
0.0
  3
32-12-M2
  1

  0
LINE
  5
1C8
330
69
100
AcDbEntity
  8
1
  6
Continuous
 62
     7
100
AcDbLine
 10
414.9308589290145
 20
662.1614610364331
 30
0.0
 11
401.5308589290145
 21
662.1614610364331
 31
0.0
  0
LINE
  5
1C9
330
69
100
AcDbEntity
  8
1
  6
Continuous
 62
     7
100
AcDbLine
 10
419.1231637744277
 20
650.1614610364331
 30
0.0
 11
415.0587991540664
 21
650.1614610364331
 31
0.0
  0
LINE
  5
1CA
330
69
100
AcDbEntity
  8
1
  6
Continuous
 62
     7
100
AcDbLine
 10
419.1231637744277
 20
662.1614610364331
 30
0.0
 11
414.9308589290145
 21
662.1614610364331
 31
0.0
  0
LINE
  5
1CB
330
69
100
AcDbEntity
  8
1
  6
Continuous
 62
     7
100
AcDbLine
 10
401.5308589290145
 20
662.1614610364331
 30
0.0
 11
397.338554083601
 21
662.1614610364331
 31
0.0
  0
LINE
  5
1CC
330
69
100
AcDbEntity
  8
1
  6
Continuous
 62
     7
100
AcDbLine
 10
401.4029187039624
 20
650.161461036433
 30
0.0
 11
397.338554083601
 21
650.1614610364331
 31
0.0
  0
LINE
  5
1CD
330
69
100
AcDbEntity
  8
1
  6
Continuous
 62
     7
100
AcDbLine
 10
259.1231637744276
 20
650.1614610364331
 30
0.0
 11
237.338554083601
 21
650.1614610364331
 31
0.0
  0
LINE
  5
1CE
330
69
100
AcDbEntity
  8
1
  6
Continuous
 62
     7
100
AcDbLine
 10
236.7308589290144
 20
660.9572925597458
 30
0.0
 11
236.7308589290144
 21
651.3656295131203
 31
0.0
  0
LINE
  5
1CF
330
69
100
AcDbEntity
  8
1
  6
Continuous
 62
     7
100
AcDbLine
 10
259.7308589290144
 20
660.9572925597458
 30
0.0
 11
259.7308589290144
 21
651.3656295131204
 31
0.0
  0
LINE
  5
1D0
330
69
100
AcDbEntity
  8
1
  6
Continuous
 62
     7
100
AcDbLine
 10
237.338554083601
 20
662.1614610364331
 30
0.0
 11
259.1231637744276
 21
662.1614610364331
 31
0.0
  0
LINE
  5
1D1
330
69
100
AcDbEntity
  8
1
  6
Continuous
 62
     7
100
AcDbLine
 10
238.2382182418949
 20
781.0808624760207
 30
0.0
 11
246.7234996161333
 21
785.9798419615872
 31
0.0
  0
LINE
  5
1D2
330
69
100
AcDbEntity
  8
1
  6
Continuous
 62
     7
100
AcDbLine
 10
236.7308589290142
 20
768.6720805897169
 30
0.0
 11
236.7308589290142
 21
778.4700395608493
 31
0.0
  0
LINE
  5
1D3
330
69
100
AcDbEntity
  8
1
  6
Continuous
 62
     7
100
AcDbLine
 10
246.7234996161333
 20
761.1622781889787
 30
0.0
 11
238.2382182418949
 21
766.0612576745449
 31
0.0
  0
LINE
  5
1D4
330
69
100
AcDbEntity
  8
1
  6
Continuous
 62
     7
100
AcDbLine
 10
258.2234996161333
 20
766.0612576745449
 30
0.0
 11
249.7382182418949
 21
761.1622781889787
 31
0.0
  0
LINE
  5
1D5
330
69
100
AcDbEntity
  8
1
  6
Continuous
 62
     7
100
AcDbLine
 10
259.7308589290142
 20
778.4700395608493
 30
0.0
 11
259.7308589290142
 21
768.6720805897169
 31
0.0
  0
LINE
  5
1D6
330
69
100
AcDbEntity
  8
1
  6
Continuous
 62
     7
100
AcDbLine
 10
250.4462492381874
 20
785.5710600752832
 30
0.0
 11
258.2234996161333
 21
781.0808624760207
 31
0.0
  0
LINE
  5
1D7
330
69
100
AcDbEntity
  8
1
  6
Continuous
 62
     7
100
AcDbLine
 10
249.7382182418949
 20
785.9798419615872
 30
0.0
 11
250.4462492381874
 21
785.5710600752832
 31
0.0
  0
ARC
  5
1D8
330
69
100
AcDbEntity
  8
1
  6
Continuous
 62
     7
100
AcDbCircle
 10
408.7308589290144
 20
656.1614610364331
 30
0.0
 40
12.00000000000005
100
AcDbArc
 50
9.59406822685932
 51
29.99999999999986
  0
ARC
  5
1D9
330
69
100
AcDbEntity
  8
1
  6
Continuous
 62
     7
100
AcDbCircle
 10
407.7308589290144
 20
656.1614610364331
 30
0.0
 40
12.0000000000001
100
AcDbArc
 50
150.0000000000003
 51
209.9999999999997
  0
ARC
  5
1DA
330
69
100
AcDbEntity
  8
1
  6
Continuous
 62
     7
100
AcDbCircle
 10
247.7308589290144
 20
656.1614610364331
 30
0.0
 40
12.00000000000012
100
AcDbArc
 50
150.0000000000003
 51
156.4435356908989
  0
ARC
  5
1DB
330
69
100
AcDbEntity
  8
1
  6
Continuous
 62
     7
100
AcDbCircle
 10
248.7308589290144
 20
656.1614610364331
 30
0.0
 40
11.99999999999995
100
AcDbArc
 50
329.9999999999999
 51
336.4435356908989
  0
ARC
  5
1DC
330
69
100
AcDbEntity
  8
1
  6
Continuous
 62
     7
100
AcDbCircle
 10
247.7308589290144
 20
656.1614610364331
 30
0.0
 40
12.00000000000004
100
AcDbArc
 50
203.5564643091016
 51
209.9999999999997
  0
ARC
  5
1DD
330
69
100
AcDbEntity
  8
1
  6
Continuous
 62
     7
100
AcDbCircle
 10
248.7308589290144
 20
656.1614610364331
 30
0.0
 40
11.99999999999999
100
AcDbArc
 50
23.55646430910114
 51
30.00000000000014
  0
ARC
  5
1DE
330
69
100
AcDbEntity
  8
1
  6
Continuous
 62
     7
100
AcDbCircle
 10
248.2308589290142
 20
773.571060075283
 30
0.0
 40
12.49999999999992
100
AcDbArc
 50
143.0739180656315
 51
156.9260819343692
  0
ARC
  5
1DF
330
69
100
AcDbEntity
  8
1
  6
Continuous
 62
     7
100
AcDbCircle
 10
248.2308589290142
 20
773.571060075283
 30
0.0
 40
12.49999999999989
100
AcDbArc
 50
203.0739180656298
 51
216.9260819343698
  0
ARC
  5
1E0
330
69
100
AcDbEntity
  8
1
  6
Continuous
 62
     7
100
AcDbCircle
 10
248.2308589290142
 20
773.571060075283
 30
0.0
 40
12.50000000000007
100
AcDbArc
 50
263.0739180656301
 51
270.0
  0
ARC
  5
1E1
330
69
100
AcDbEntity
  8
1
  6
Continuous
 62
     7
100
AcDbCircle
 10
248.2308589290142
 20
773.571060075283
 30
0.0
 40
12.5
100
AcDbArc
 50
270.0
 51
276.926081934369
  0
ARC
  5
1E2
330
69
100
AcDbEntity
  8
1
  6
Continuous
 62
     7
100
AcDbCircle
 10
248.2308589290142
 20
773.571060075283
 30
0.0
 40
12.49999999999999
100
AcDbArc
 50
323.0739180656298
 51
336.9260819343701
  0
ARC
  5
1E3
330
69
100
AcDbEntity
  8
1
  6
Continuous
 62
     7
100
AcDbCircle
 10
248.2308589290142
 20
773.571060075283
 30
0.0
 40
12.49999999999996
100
AcDbArc
 50
23.07391806563085
 51
36.92608193436897
  0
ARC
  5
1E4
330
69
100
AcDbEntity
  8
1
  6
Continuous
 62
     7
100
AcDbCircle
 10
248.2308589290142
 20
773.571060075283
 30
0.0
 40
12.5
100
AcDbArc
 50
90.0
 51
96.92608193436988
  0
ARC
  5
1E5
330
69
100
AcDbEntity
  8
1
  6
Continuous
 62
     7
100
AcDbCircle
 10
248.2308589290142
 20
773.571060075283
 30
0.0
 40
12.50000000000004
100
AcDbArc
 50
83.07391806563103
 51
90.0
  0
ARC
  5
1E6
330
69
100
AcDbEntity
  8
0
  6
Continuous
 62
     7
100
AcDbCircle
 10
408.2308589290144
 20
656.2003125396433
 30
0.0
 40
4.835606911877968
100
AcDbArc
 50
6.60854782041891
 51
173.3914521795811
  0
ARC
  5
1E7
330
69
100
AcDbEntity
  8
1
  6
Continuous
 62
     7
100
AcDbCircle
 10
408.7308589290144
 20
656.1614610364331
 30
0.0
 40
12.00000000000005
100
AcDbArc
 50
330.0000000000002
 51
9.59406822685932
  0
CIRCLE
  5
1E8
330
69
100
AcDbEntity
  8
1
  6
Continuous
 62
     7
100
AcDbCircle
 10
248.2308589290142
 20
773.571060075283
 30
0.0
 40
10.89230484541349
  0
CIRCLE
  5
1E9
330
69
100
AcDbEntity
  8
1
  6
Continuous
 62
     7
100
AcDbCircle
 10
248.2308589290142
 20
773.571060075283
 30
0.0
 40
6.699999999999818
  0
CIRCLE
  5
1EA
330
69
100
AcDbEntity
  8
1
  6
Continuous
 62
     7
100
AcDbCircle
 10
248.2308589290142
 20
773.571060075283
 30
0.0
 40
5.749999999999984
  0
SPLINE
  5
1EB
330
69
100
AcDbEntity
  8
1
  6
Continuous
 62
     7
100
AcDbSpline
210
0.0
220
0.0
230
1.0
 70
    11
 71
     3
 72
    79
 73
    75
 74
    73
 42
0.000000001
 43
0.0000000001
 44
0.00000001
 40
0.0
 40
0.0
 40
0.0
 40
0.0
 40
0.2251439981011708
 40
0.4498541121076381
 40
0.6980863406098065
 40
0.9458096946050056
 40
1.22575324327976
 40
1.505341879204622
 40
1.820037943984976
 40
2.134517090665254
 40
2.482533799688142
 40
2.83042109145806
 40
3.207135643675781
 40
3.583774046025745
 40
3.982383401529393
 40
4.380950213903581
 40
4.79322995318409
 40
5.205490578546581
 40
5.622408658129694
 40
6.039326737717085
 40
6.451587363091254
 40
6.863867102389751
 40
7.262433914785888
 40
7.661043270313613
 40
8.037681672684228
 40
8.414396224915171
 40
8.762283516684152
 40
9.110300225683114
 40
9.424779372310159
 40
9.739475436986787
 40
10.01906407275525
 40
10.29900762117257
 40
10.54673097479407
 40
10.79496320261757
 40
11.01967331449813
 40
11.24481731877801
 40
11.46116996438342
 40
11.67752260998781
 40
11.90266661426495
 40
12.12737672614119
 40
12.37560895395896
 40
12.62333230757433
 40
12.90327585598464
 40
13.18286449174661
 40
13.49756055641669
 40
13.81203970303713
 40
14.16005641202963
 40
14.50794370379327
 40
14.88465825601929
 40
15.26129665838562
 40
15.65990601390951
 40
16.05847282630331
 40
16.47075256560043
 40
16.88301319097445
 40
17.29993127056346
 40
17.7168493501504
 40
18.12910997551896
 40
18.54138971480814
 40
18.93995652719369
 40
19.33856588271227
 40
19.71520428507954
 40
20.09191883731752
 40
20.43980612910864
 40
20.78782283815448
 40
21.10230198485578
 40
21.41699804965381
 40
21.69658668558673
 40
21.97653023424734
 40
22.22425358817739
 40
22.47248581643313
 40
22.69719592887113
 40
22.92233993395943
 40
23.1386925817421
 40
23.35504522168837
 40
23.35504522168837
 40
23.35504522168837
 40
23.35504522168837
 10
418.4056637754833
 20
660.938246768118
 30
0.0
 10
418.4790988283902
 20
660.9218970984987
 30
0.0
 10
418.6258274171013
 20
660.8892292776275
 30
0.0
 10
418.8387157583363
 20
660.7917989068487
 30
0.0
 10
419.042848644131
 20
660.6641804039617
 30
0.0
 10
419.2426476764641
 20
660.4988774710805
 30
0.0
 10
419.4297998552369
 20
660.3048404329425
 30
0.0
 10
419.6108345390372
 20
660.0759830262914
 30
0.0
 10
419.7771937845096
 20
659.8223890838472
 30
0.0
 10
419.9346786884743
 20
659.5369531559236
 30
0.0
 10
420.0761421624119
 20
659.2310120580464
 30
0.0
 10
420.2057498277109
 20
658.8975735625621
 30
0.0
 10
420.3183306870888
 20
658.5479673332778
 30
0.0
 10
420.4164043158924
 20
658.1765440797066
 30
0.0
 10
420.4966945391927
 20
657.7934274801823
 30
0.0
 10
420.5604527070603
 20
657.3952017132326
 30
0.0
 10
420.6059111577463
 20
656.9898940025085
 30
0.0
 10
420.6335809690739
 20
656.5768637338244
 30
0.0
 10
420.6426877570995
 20
656.1614610464321
 30
0.0
 10
420.6335809689181
 20
655.7460583590221
 30
0.0
 10
420.6059111574292
 20
655.333028090388
 30
0.0
 10
420.5604527066356
 20
654.9277203794778
 30
0.0
 10
420.4966945385237
 20
654.5294946131941
 30
0.0
 10
420.4164043155535
 20
654.1463780112424
 30
0.0
 10
420.3183306851457
 20
653.7749547662493
 30
0.0
 10
420.205749831223
 20
653.4253485061421
 30
0.0
 10
420.0761421469135
 20
653.091910117328
 30
0.0
 10
419.9346787405511
 20
652.7859686406196
 30
0.0
 10
419.7771936077062
 20
652.5005339974292
 30
0.0
 10
419.6108351677046
 20
652.246935536989
 30
0.0
 10
419.4297977952269
 20
652.0180932163703
 30
0.0
 10
419.2426550297641
 20
651.8240033679842
 30
0.0
 10
419.0428246680129
 20
651.6588762085364
 30
0.0
 10
418.8388022121162
 20
651.5306381574685
 30
0.0
 10
418.6255383198912
 20
651.435314769712
 30
0.0
 10
418.4095982194617
 20
651.3793275986193
 30
0.0
 10
418.1901510728314
 20
651.3589168677088
 30
0.0
 10
417.9707039262014
 20
651.3793275986121
 30
0.0
 10
417.7547638257727
 20
651.435314769698
 30
0.0
 10
417.5414999335493
 20
651.5306381574477
 30
0.0
 10
417.3374774776553
 20
651.6588762085097
 30
0.0
 10
417.1376471159076
 20
651.8240033679521
 30
0.0
 10
416.9505043504487
 20
652.0180932163328
 30
0.0
 10
416.7694669779762
 20
652.2469355369473
 30
0.0
 10
416.6031085379809
 20
652.5005339973839
 30
0.0
 10
416.4456234051432
 20
652.7859686405708
 30
0.0
 10
416.3041599987901
 20
653.0919101172765
 30
0.0
 10
416.1745523144909
 20
653.4253485060887
 30
0.0
 10
416.0619714605808
 20
653.7749547661949
 30
0.0
 10
415.9638978301884
 20
654.1463780111881
 30
0.0
 10
415.8836076072358
 20
654.5294946131394
 30
0.0
 10
415.8198494391453
 20
654.9277203794243
 30
0.0
 10
415.7743909883766
 20
655.3330280903359
 30
0.0
 10
415.7467211769173
 20
655.7460583589731
 30
0.0
 10
415.7376143887708
 20
656.1614610463819
 30
0.0
 10
415.7467211768334
 20
656.5768637337903
 30
0.0
 10
415.7743909882157
 20
656.9898940024309
 30
0.0
 10
415.8198494389167
 20
657.3952017133299
 30
0.0
 10
415.8836076069687
 20
657.7934274796621
 30
0.0
 10
415.963897829868
 20
658.176544081444
 30
0.0
 10
416.0619714603764
 20
658.5479673270411
 30
0.0
 10
416.174552313945
 20
658.8975735849791
 30
0.0
 10
416.3041599996704
 20
659.2310119812962
 30
0.0
 10
416.4456234014104
 20
659.5369534313436
 30
0.0
 10
416.603108550556
 20
659.8223881649178
 30
0.0
 10
416.7694669341476
 20
660.075986307449
 30
0.0
 10
416.9505044961484
 20
660.3048296895021
 30
0.0
 10
417.1376465997093
 20
660.498915822061
 30
0.0
 10
417.3374791663648
 20
660.6640553490008
 30
0.0
 10
417.5414938529846
 20
660.792249807974
 30
0.0
 10
417.7547841700256
 20
660.8877214448509
 30
0.0
 10
417.9706288572522
 20
660.9431733031719
 30
0.0
 10
418.190419148283
 20
660.9655092116052
 30
0.0
 10
418.3339155669186
 20
660.9473342454523
 30
0.0
 10
418.4056637754833
 20
660.938246768118
 30
0.0
 11
418.4056637754833
 21
660.938246768118
 31
0.0
 11
418.6235790566533
 21
660.8816538980191
 31
0.0
 11
418.8292251982965
 21
660.7910763133087
 31
0.0
 11
419.0397935731194
 21
660.6596221444968
 31
0.0
 11
419.2313655191916
 21
660.5025646727186
 31
0.0
 11
419.4264144951049
 21
660.3017555909319
 31
0.0
 11
419.6004052300927
 21
660.0829016912352
 31
0.0
 11
419.7737863269232
 21
659.8202753246898
 31
0.0
 11
419.9261163482311
 21
659.545152264435
 31
0.0
 11
420.0728227411167
 21
659.2295688934582
 31
0.0
 11
420.1991595757651
 21
658.9054322371105
 31
0.0
 11
420.3151182111914
 21
658.5470086765965
 31
0.0
 11
420.4114715819372
 21
658.1829035900047
 31
0.0
 11
420.4935712465939
 21
657.7928406933191
 31
0.0
 11
420.5566833538412
 21
657.3993024285273
 31
0.0
 11
420.6028448031742
 21
656.9896151038217
 31
0.0
 11
420.6304066960786
 21
656.5782768424261
 31
0.0
 11
420.6396408153187
 21
656.1614610364333
 31
0.0
 11
420.6304066960786
 21
655.74464523044
 31
0.0
 11
420.6028448031742
 21
655.3333069690443
 31
0.0
 11
420.5566833538413
 21
654.9236196443387
 31
0.0
 11
420.4935712465941
 21
654.530081379547
 31
0.0
 11
420.4114715819372
 21
654.1400184828614
 31
0.0
 11
420.3151182111912
 21
653.7759133962695
 31
0.0
 11
420.1991595757651
 21
653.4174898357556
 31
0.0
 11
420.0728227411168
 21
653.093353179408
 31
0.0
 11
419.9261163482311
 21
652.7777698084312
 31
0.0
 11
419.7737863269232
 21
652.5026467481763
 31
0.0
 11
419.6004052300927
 21
652.240020381631
 31
0.0
 11
419.426414495105
 21
652.0211664819342
 31
0.0
 11
419.2313655191917
 21
651.8203574001475
 31
0.0
 11
419.0397935731194
 21
651.6632999283693
 31
0.0
 11
418.8292251982964
 21
651.5318457595575
 31
0.0
 11
418.6235790566533
 21
651.4412681748471
 31
0.0
 11
418.4056637754833
 21
651.3846753047482
 31
0.0
 11
418.1901510725355
 21
651.3656295131203
 31
0.0
 11
417.9746383695877
 21
651.384675304748
 31
0.0
 11
417.7567230884176
 21
651.4412681748471
 31
0.0
 11
417.5510769467745
 21
651.5318457595574
 31
0.0
 11
417.3405085719515
 21
651.6632999283693
 31
0.0
 11
417.1489366258792
 21
651.8203574001475
 31
0.0
 11
416.953887649966
 21
652.0211664819341
 31
0.0
 11
416.7798969149782
 21
652.240020381631
 31
0.0
 11
416.6065158181476
 21
652.5026467481765
 31
0.0
 11
416.4541857968397
 21
652.7777698084312
 31
0.0
 11
416.3074794039541
 21
653.0933531794078
 31
0.0
 11
416.1811425693058
 21
653.4174898357555
 31
0.0
 11
416.0651839338797
 21
653.7759133962695
 31
0.0
 11
415.9688305631338
 21
654.1400184828614
 31
0.0
 11
415.8867308984769
 21
654.5300813795468
 31
0.0
 11
415.8236187912297
 21
654.9236196443387
 31
0.0
 11
415.7774573418968
 21
655.3333069690444
 31
0.0
 11
415.7498954489923
 21
655.74464523044
 31
0.0
 11
415.7406613297523
 21
656.1614610364331
 31
0.0
 11
415.7498954489923
 21
656.5782768424262
 31
0.0
 11
415.7774573418967
 21
656.9896151038218
 31
0.0
 11
415.8236187912296
 21
657.3993024285274
 31
0.0
 11
415.8867308984768
 21
657.7928406933191
 31
0.0
 11
415.9688305631337
 21
658.1829035900048
 31
0.0
 11
416.0651839338797
 21
658.5470086765968
 31
0.0
 11
416.1811425693058
 21
658.9054322371107
 31
0.0
 11
416.307479403954
 21
659.2295688934582
 31
0.0
 11
416.4541857968398
 21
659.5451522644349
 31
0.0
 11
416.6065158181477
 21
659.8202753246895
 31
0.0
 11
416.7798969149782
 21
660.0829016912351
 31
0.0
 11
416.9538876499658
 21
660.301755590932
 31
0.0
 11
417.1489366258793
 21
660.5025646727188
 31
0.0
 11
417.3405085719516
 21
660.6596221444969
 31
0.0
 11
417.5510769467745
 21
660.7910763133088
 31
0.0
 11
417.7567230884176
 21
660.8816538980192
 31
0.0
 11
417.9746383695877
 21
660.938246768118
 31
0.0
 11
418.1901510725355
 21
660.9572925597458
 31
0.0
 11
418.4056637754833
 21
660.938246768118
 31
0.0
  0
SPLINE
  5
1EC
330
69
100
AcDbEntity
  8
1
  6
Continuous
 62
     7
100
AcDbSpline
210
0.0
220
0.0
230
1.0
 70
    11
 71
     3
 72
    79
 73
    75
 74
    73
 42
0.000000001
 43
0.0000000001
 44
0.00000001
 40
0.0
 40
0.0
 40
0.0
 40
0.0
 40
0.2251439981013358
 40
0.4498541121077512
 40
0.6980863406099195
 40
0.9458096946051187
 40
1.225753243279873
 40
1.505341879204699
 40
1.820037943985022
 40
2.1345170906653
 40
2.482533799688212
 40
2.830421091458089
 40
3.207135643675827
 40
3.583774046025806
 40
3.982383401529477
 40
4.380950213903647
 40
4.79322995318415
 40
5.205490578546648
 40
5.62240865812976
 40
6.039326737717149
 40
6.451587363091325
 40
6.863867102389822
 40
7.262433914785968
 40
7.661043270313669
 40
8.03768167268427
 40
8.414396224915247
 40
8.762283516684228
 40
9.110300225683144
 40
9.424779372310217
 40
9.739475436986845
 40
10.01906407275538
 40
10.2990076211727
 40
10.54673097479416
 40
10.79496320261756
 40
11.01967331449823
 40
11.24481731877816
 40
11.46116996438356
 40
11.6775226099879
 40
11.90266661426493
 40
12.12737672614122
 40
12.37560895395904
 40
12.62333230757436
 40
12.90327585598471
 40
13.18286449174665
 40
13.4975605564167
 40
13.81203970303716
 40
14.16005641202969
 40
14.50794370379331
 40
14.88465825601931
 40
15.26129665838566
 40
15.65990601390953
 40
16.05847282630334
 40
16.47075256560047
 40
16.88301319097448
 40
17.2999312705635
 40
17.71684935015045
 40
18.12910997551901
 40
18.54138971480819
 40
18.93995652719375
 40
19.33856588271232
 40
19.71520428507956
 40
20.09191883731754
 40
20.4398061291087
 40
20.78782283815454
 40
21.10230198485587
 40
21.41699804965384
 40
21.69658668558679
 40
21.97653023424728
 40
22.22425358817738
 40
22.47248581643316
 40
22.69719592887111
 40
22.92233993395941
 40
23.13869258174202
 40
23.35504522168836
 40
23.35504522168836
 40
23.35504522168836
 40
23.35504522168836
 10
398.0560540825456
 20
660.938246768118
 30
0.0
 10
397.9826190296385
 20
660.9218970984987
 30
0.0
 10
397.8358904409276
 20
660.8892292776276
 30
0.0
 10
397.6230020996923
 20
660.7917989068487
 30
0.0
 10
397.4188692138978
 20
660.6641804039614
 30
0.0
 10
397.2190701815649
 20
660.4988774710807
 30
0.0
 10
397.0319180027917
 20
660.3048404329422
 30
0.0
 10
396.8508833189917
 20
660.0759830262916
 30
0.0
 10
396.6845240735192
 20
659.8223890838469
 30
0.0
 10
396.5270391695547
 20
659.5369531559237
 30
0.0
 10
396.3855756956168
 20
659.2310120580468
 30
0.0
 10
396.255968030318
 20
658.897573562562
 30
0.0
 10
396.1433871709401
 20
658.547967333278
 30
0.0
 10
396.0453135421363
 20
658.1765440797064
 30
0.0
 10
395.965023318836
 20
657.7934274801823
 30
0.0
 10
395.9012651509683
 20
657.3952017132326
 30
0.0
 10
395.8558067002828
 20
656.9898940025085
 30
0.0
 10
395.8281368889548
 20
656.5768637338247
 30
0.0
 10
395.8190301009294
 20
656.161461046432
 30
0.0
 10
395.8281368891106
 20
655.7460583590221
 30
0.0
 10
395.8558067005997
 20
655.333028090388
 30
0.0
 10
395.9012651513931
 20
654.9277203794778
 30
0.0
 10
395.9650233195055
 20
654.5294946131938
 30
0.0
 10
396.0453135424752
 20
654.1463780112426
 30
0.0
 10
396.1433871728829
 20
653.7749547662493
 30
0.0
 10
396.2559680268056
 20
653.4253485061417
 30
0.0
 10
396.3855757111156
 20
653.0919101173281
 30
0.0
 10
396.5270391174774
 20
652.7859686406194
 30
0.0
 10
396.6845242503226
 20
652.5005339974293
 30
0.0
 10
396.8508826903241
 20
652.246935536989
 30
0.0
 10
397.0319200628021
 20
652.0180932163706
 30
0.0
 10
397.2190628282647
 20
651.824003367984
 30
0.0
 10
397.4188931900159
 20
651.6588762085365
 30
0.0
 10
397.6229156459127
 20
651.5306381574683
 30
0.0
 10
397.8361795381376
 20
651.4353147697121
 30
0.0
 10
398.0521196385672
 20
651.3793275986192
 30
0.0
 10
398.2715667851975
 20
651.358916867709
 30
0.0
 10
398.4910139318276
 20
651.379327598612
 30
0.0
 10
398.706954032256
 20
651.435314769698
 30
0.0
 10
398.9202179244793
 20
651.5306381574477
 30
0.0
 10
399.1242403803737
 20
651.6588762085096
 30
0.0
 10
399.3240707421213
 20
651.824003367952
 30
0.0
 10
399.5112135075801
 20
652.0180932163328
 30
0.0
 10
399.6922508800525
 20
652.2469355369473
 30
0.0
 10
399.8586093200479
 20
652.5005339973839
 30
0.0
 10
400.0160944528854
 20
652.7859686405706
 30
0.0
 10
400.157557859239
 20
653.0919101172767
 30
0.0
 10
400.2871655435377
 20
653.4253485060887
 30
0.0
 10
400.3997463974479
 20
653.7749547661952
 30
0.0
 10
400.4978200278406
 20
654.1463780111881
 30
0.0
 10
400.5781102507929
 20
654.5294946131394
 30
0.0
 10
400.6418684188836
 20
654.9277203794244
 30
0.0
 10
400.6873268696523
 20
655.3330280903359
 30
0.0
 10
400.7149966811116
 20
655.7460583589728
 30
0.0
 10
400.7241034692582
 20
656.1614610463822
 30
0.0
 10
400.7149966811954
 20
656.5768637337901
 30
0.0
 10
400.6873268698133
 20
656.9898940024309
 30
0.0
 10
400.641868419112
 20
657.3952017133299
 30
0.0
 10
400.5781102510601
 20
657.7934274796621
 30
0.0
 10
400.4978200281606
 20
658.1765440814439
 30
0.0
 10
400.3997463976524
 20
658.5479673270412
 30
0.0
 10
400.2871655440839
 20
658.8975735849792
 30
0.0
 10
400.1575578583584
 20
659.2310119812962
 30
0.0
 10
400.0160944566183
 20
659.5369534313436
 30
0.0
 10
399.8586093074726
 20
659.8223881649179
 30
0.0
 10
399.6922509238813
 20
660.0759863074488
 30
0.0
 10
399.5112133618803
 20
660.3048296895024
 30
0.0
 10
399.3240712583195
 20
660.498915822061
 30
0.0
 10
399.1242386916639
 20
660.6640553490008
 30
0.0
 10
398.9202240050443
 20
660.7922498079741
 30
0.0
 10
398.7069336880032
 20
660.8877214448512
 30
0.0
 10
398.4910890007767
 20
660.9431733031716
 30
0.0
 10
398.2712987097458
 20
660.9655092116054
 30
0.0
 10
398.1278022911103
 20
660.9473342454522
 30
0.0
 10
398.0560540825456
 20
660.938246768118
 30
0.0
 11
398.0560540825456
 21
660.938246768118
 31
0.0
 11
397.8381388013754
 21
660.8816538980191
 31
0.0
 11
397.6324926597323
 21
660.7910763133087
 31
0.0
 11
397.4219242849094
 21
660.6596221444968
 31
0.0
 11
397.2303523388371
 21
660.5025646727186
 31
0.0
 11
397.0353033629239
 21
660.3017555909319
 31
0.0
 11
396.8613126279361
 21
660.0829016912352
 31
0.0
 11
396.6879315311056
 21
659.8202753246898
 31
0.0
 11
396.5356015097977
 21
659.545152264435
 31
0.0
 11
396.3888951169121
 21
659.2295688934582
 31
0.0
 11
396.2625582822638
 21
658.9054322371105
 31
0.0
 11
396.1465996468375
 21
658.5470086765965
 31
0.0
 11
396.0502462760916
 21
658.1829035900047
 31
0.0
 11
395.9681466114347
 21
657.7928406933191
 31
0.0
 11
395.9050345041876
 21
657.3993024285273
 31
0.0
 11
395.8588730548547
 21
656.9896151038217
 31
0.0
 11
395.8313111619501
 21
656.5782768424261
 31
0.0
 11
395.8220770427101
 21
656.1614610364333
 31
0.0
 11
395.8313111619502
 21
655.74464523044
 31
0.0
 11
395.8588730548547
 21
655.3333069690443
 31
0.0
 11
395.9050345041876
 21
654.9236196443387
 31
0.0
 11
395.9681466114348
 21
654.530081379547
 31
0.0
 11
396.0502462760916
 21
654.1400184828614
 31
0.0
 11
396.1465996468375
 21
653.7759133962695
 31
0.0
 11
396.2625582822637
 21
653.4174898357556
 31
0.0
 11
396.3888951169121
 21
653.093353179408
 31
0.0
 11
396.5356015097977
 21
652.7777698084312
 31
0.0
 11
396.6879315311056
 21
652.5026467481763
 31
0.0
 11
396.8613126279361
 21
652.240020381631
 31
0.0
 11
397.0353033629239
 21
652.0211664819342
 31
0.0
 11
397.2303523388372
 21
651.8203574001475
 31
0.0
 11
397.4219242849094
 21
651.6632999283693
 31
0.0
 11
397.6324926597323
 21
651.5318457595575
 31
0.0
 11
397.8381388013756
 21
651.4412681748471
 31
0.0
 11
398.0560540825456
 21
651.3846753047482
 31
0.0
 11
398.2715667854934
 21
651.3656295131203
 31
0.0
 11
398.4870794884412
 21
651.384675304748
 31
0.0
 11
398.7049947696111
 21
651.4412681748471
 31
0.0
 11
398.9106409112543
 21
651.5318457595574
 31
0.0
 11
399.1212092860773
 21
651.6632999283693
 31
0.0
 11
399.3127812321496
 21
651.8203574001475
 31
0.0
 11
399.5078302080629
 21
652.0211664819341
 31
0.0
 11
399.6818209430506
 21
652.240020381631
 31
0.0
 11
399.8552020398812
 21
652.5026467481765
 31
0.0
 11
400.0075320611891
 21
652.7777698084312
 31
0.0
 11
400.1542384540747
 21
653.0933531794078
 31
0.0
 11
400.280575288723
 21
653.4174898357555
 31
0.0
 11
400.3965339241491
 21
653.7759133962695
 31
0.0
 11
400.492887294895
 21
654.1400184828614
 31
0.0
 11
400.5749869595519
 21
654.5300813795468
 31
0.0
 11
400.6380990667991
 21
654.9236196443387
 31
0.0
 11
400.6842605161321
 21
655.3333069690444
 31
0.0
 11
400.7118224090365
 21
655.74464523044
 31
0.0
 11
400.7210565282766
 21
656.1614610364331
 31
0.0
 11
400.7118224090365
 21
656.5782768424262
 31
0.0
 11
400.6842605161321
 21
656.9896151038218
 31
0.0
 11
400.6380990667992
 21
657.3993024285274
 31
0.0
 11
400.5749869595519
 21
657.7928406933191
 31
0.0
 11
400.4928872948951
 21
658.1829035900048
 31
0.0
 11
400.3965339241491
 21
658.5470086765968
 31
0.0
 11
400.2805752887231
 21
658.9054322371107
 31
0.0
 11
400.1542384540747
 21
659.2295688934582
 31
0.0
 11
400.007532061189
 21
659.5451522644349
 31
0.0
 11
399.855202039881
 21
659.8202753246895
 31
0.0
 11
399.6818209430506
 21
660.0829016912351
 31
0.0
 11
399.5078302080629
 21
660.301755590932
 31
0.0
 11
399.3127812321496
 21
660.5025646727188
 31
0.0
 11
399.1212092860773
 21
660.6596221444969
 31
0.0
 11
398.9106409112543
 21
660.7910763133088
 31
0.0
 11
398.7049947696112
 21
660.8816538980192
 31
0.0
 11
398.4870794884412
 21
660.938246768118
 31
0.0
 11
398.2715667854934
 21
660.9572925597458
 31
0.0
 11
398.0560540825456
 21
660.938246768118
 31
0.0
  0
SPLINE
  5
1ED
330
69
100
AcDbEntity
  8
1
  6
Continuous
 62
     7
100
AcDbSpline
210
0.0
220
0.0
230
1.0
 70
    11
 71
     3
 72
    81
 73
    77
 74
    75
 42
0.000000001
 43
0.0000000001
 44
0.00000001
 40
0.0
 40
0.0
 40
0.0
 40
0.0
 40
0.18512896969259
 40
0.3707126613274297
 40
0.7428395970151299
 40
1.114936869718417
 40
1.491398614738692
 40
1.867807860888579
 40
2.250808307012823
 40
2.633744076332415
 40
3.024614866746573
 40
3.415419491671665
 40
3.814496880563321
 40
4.213514875307346
 40
4.620154924982441
 40
5.02674759108908
 40
5.439450722884786
 40
5.852121280475838
 40
6.268732306461682
 40
6.685326825184002
 40
7.103281248554198
 40
7.521235671915265
 40
7.937830190609771
 40
8.35444121654905
 40
8.767111774074419
 40
9.179814905783578
 40
9.586407571783347
 40
9.993047621329053
 40
10.39206561592177
 40
10.79114300463622
 40
11.18194762936013
 40
11.57281841954367
 40
11.95575418860548
 40
12.33875463443672
 40
12.7151638802557
 40
13.09162562488806
 40
13.46372289709151
 40
13.83584983188244
 40
14.20644908412683
 40
14.57704833637129
 40
14.94917527116232
 40
15.3212725433658
 40
15.69773428799808
 40
16.07414353381706
 40
16.4571439796483
 40
16.84007974871016
 40
17.23095053889384
 40
17.62175516361769
 40
18.02083255233222
 40
18.41985054692487
 40
18.82649059647047
 40
19.23308326247033
 40
19.6457863941795
 40
20.05845695170496
 40
20.47506797764423
 40
20.89166249633864
 40
21.30961691969959
 40
21.72757134306967
 40
22.14416586179223
 40
22.56077688777807
 40
22.97344744536924
 40
23.38615057716503
 40
23.79274324327142
 40
24.19938329294664
 40
24.5984012876906
 40
24.99747867658243
 40
25.38828330150748
 40
25.77915409192161
 40
26.16208986124125
 40
26.54509030736542
 40
26.92149955351514
 40
27.29796129853544
 40
27.67005857123883
 40
28.0421855069265
 40
28.22776919856307
 40
28.41289816825449
 40
28.41289816825449
 40
28.41289816825449
 40
28.41289816825449
 10
253.9808589290142
 20
660.9572925597458
 30
0.0
 10
253.9191418723202
 20
660.95640542471
 30
0.0
 10
253.7955561666641
 20
660.9546289815241
 30
0.0
 10
253.5485489831708
 20
660.9355706553449
 30
0.0
 10
253.2414332927967
 20
660.8902557887927
 30
0.0
 10
252.8786226302056
 20
660.7987916038606
 30
0.0
 10
252.5248826863783
 20
660.6726166225397
 30
0.0
 10
252.1816987744289
 20
660.5113404914425
 30
0.0
 10
251.8531741790941
 20
660.3177161014398
 30
0.0
 10
251.5401653825559
 20
660.0916085925892
 30
0.0
 10
251.2467403756939
 20
659.836636110063
 30
0.0
 10
250.9734192664237
 20
659.5527430465024
 30
0.0
 10
250.7238382229322
 20
659.244275519548
 30
0.0
 10
250.4984274952226
 20
658.9113650580398
 30
0.0
 10
250.3000916090456
 20
658.5587755066155
 30
0.0
 10
250.1293115633609
 20
658.1870423644972
 30
0.0
 10
249.9881037839806
 20
657.8009619250462
 30
0.0
 10
249.8770018134119
 20
657.4017138397103
 30
0.0
 10
249.7971328586364
 20
656.993744341373
 30
0.0
 10
249.7489558784902
 20
656.5790655271608
 30
0.0
 10
249.7328406799018
 20
656.1614610459219
 30
0.0
 10
249.7489558781768
 20
655.7438565646794
 30
0.0
 10
249.7971328580084
 20
655.3291777504601
 30
0.0
 10
249.877001812466
 20
654.9212082521041
 30
0.0
 10
249.9881037827158
 20
654.5219601667642
 30
0.0
 10
250.1293115617602
 20
654.1358797272239
 30
0.0
 10
250.300091607148
 20
653.7641465853011
 30
0.0
 10
250.498427492852
 20
653.4115570329839
 30
0.0
 10
250.7238382207012
 20
653.0786465745412
 30
0.0
 10
250.9734192620314
 20
652.7701790360148
 30
0.0
 10
251.2467403775319
 20
652.4862860144901
 30
0.0
 10
251.540165359655
 20
652.2313133764488
 30
0.0
 10
251.8531742449513
 20
652.0052064363588
 30
0.0
 10
252.1816985104248
 20
651.8115799441373
 30
0.0
 10
252.5248836313425
 20
651.650311529725
 30
0.0
 10
252.8786190942886
 20
651.5241079604734
 30
0.0
 10
253.2414462934285
 20
651.4327492935386
 30
0.0
 10
253.6096111631246
 20
651.3780252258665
 30
0.0
 10
253.9808589290144
 20
651.3594444198493
 30
0.0
 10
254.3521066949044
 20
651.3780252258664
 30
0.0
 10
254.7202715646004
 20
651.4327492935388
 30
0.0
 10
255.0830987637405
 20
651.5241079604732
 30
0.0
 10
255.4368342266865
 20
651.6503115297246
 30
0.0
 10
255.7800193476042
 20
651.8115799441372
 30
0.0
 10
256.1085436130775
 20
652.0052064363585
 30
0.0
 10
256.421552498374
 20
652.2313133764488
 30
0.0
 10
256.7149774804971
 20
652.4862860144902
 30
0.0
 10
256.9882985959977
 20
652.7701790360152
 30
0.0
 10
257.2378796373277
 20
653.0786465745409
 30
0.0
 10
257.4632903651771
 20
653.4115570329839
 30
0.0
 10
257.6616262508811
 20
653.7641465853008
 30
0.0
 10
257.8324062962687
 20
654.1358797272238
 30
0.0
 10
257.9736140753132
 20
654.5219601667642
 30
0.0
 10
258.084716045563
 20
654.9212082521043
 30
0.0
 10
258.1645850000205
 20
655.3291777504598
 30
0.0
 10
258.2127619798523
 20
655.7438565646797
 30
0.0
 10
258.2288771781272
 20
656.1614610459214
 30
0.0
 10
258.2127619795389
 20
656.5790655271608
 30
0.0
 10
258.1645849993925
 20
656.993744341373
 30
0.0
 10
258.084716044617
 20
657.40171383971
 30
0.0
 10
257.9736140740482
 20
657.8009619250463
 30
0.0
 10
257.8324062946682
 20
658.1870423644972
 30
0.0
 10
257.6616262489834
 20
658.5587755066157
 30
0.0
 10
257.4632903628065
 20
658.9113650580395
 30
0.0
 10
257.2378796350966
 20
659.2442755195484
 30
0.0
 10
256.9882985916054
 20
659.5527430465022
 30
0.0
 10
256.714977482335
 20
659.8366361100633
 30
0.0
 10
256.4215524754728
 20
660.0916085925892
 30
0.0
 10
256.1085436789347
 20
660.3177161014397
 30
0.0
 10
255.7800190836002
 20
660.511340491443
 30
0.0
 10
255.4368351716507
 20
660.6726166225393
 30
0.0
 10
255.0830952278234
 20
660.7987916038608
 30
0.0
 10
254.7202845652323
 20
660.8902557887925
 30
0.0
 10
254.4131688748576
 20
660.9355706553447
 30
0.0
 10
254.1661616913639
 20
660.9546289815244
 30
0.0
 10
254.0425759857079
 20
660.9564054247102
 30
0.0
 10
253.9808589290142
 20
660.9572925597458
 30
0.0
 11
253.9808589290142
 21
660.9572925597458
 31
0.0
 11
253.7957868679689
 21
660.9527022520804
 31
0.0
 11
253.610714806925
 21
660.9389313290847
 31
0.0
 11
253.2426441764323
 21
660.884136560084
 31
0.0
 11
252.8817548979904
 21
660.7934982192565
 31
0.0
 11
252.5271837705164
 21
660.6669962000105
 31
0.0
 11
252.1864038493878
 21
660.5071432493721
 31
0.0
 11
251.8564128494096
 21
660.3127331632852
 31
0.0
 11
251.5458426981303
 21
660.0887108775956
 31
0.0
 11
251.2507247315953
 21
659.8324193237588
 31
0.0
 11
250.9795019052666
 21
659.5510540215337
 31
0.0
 11
250.728379979505
 21
659.2408919015177
 31
0.0
 11
250.504496585972
 21
658.9106017469446
 31
0.0
 11
250.3050255831724
 21
658.5562467709248
 31
0.0
 11
250.135143931757
 21
658.1868447938834
 31
0.0
 11
249.993293016545
 21
657.7992855173146
 31
0.0
 11
249.8825597472882
 21
657.4017491891661
 31
0.0
 11
249.8024646919359
 21
656.9929099431229
 31
0.0
 11
249.7543401661428
 21
656.5791044053656
 31
0.0
 11
249.7382182418952
 21
656.1614610364331
 31
0.0
 11
249.7543401661428
 21
655.7438176675007
 31
0.0
 11
249.8024646919359
 21
655.3300121297434
 31
0.0
 11
249.8825597472882
 21
654.9211728837
 31
0.0
 11
249.993293016545
 21
654.5236365555513
 31
0.0
 11
250.135143931757
 21
654.1360772789825
 31
0.0
 11
250.3050255831724
 21
653.7666753019415
 31
0.0
 11
250.504496585972
 21
653.4123203259214
 31
0.0
 11
250.728379979505
 21
653.0820301713485
 31
0.0
 11
250.9795019052666
 21
652.7718680513324
 31
0.0
 11
251.2507247315953
 21
652.4905027491073
 31
0.0
 11
251.5458426981303
 21
652.2342111952705
 31
0.0
 11
251.8564128494096
 21
652.010188909581
 31
0.0
 11
252.1864038493877
 21
651.815778823494
 31
0.0
 11
252.5271837705163
 21
651.6559258728557
 31
0.0
 11
252.8817548979904
 21
651.5294238536098
 31
0.0
 11
253.2426441764323
 21
651.4387855127823
 31
0.0
 11
253.610714806925
 21
651.3839907437816
 31
0.0
 11
253.9808589290144
 21
651.3656295131202
 31
0.0
 11
254.3510030511038
 21
651.3839907437816
 31
0.0
 11
254.7190736815966
 21
651.4387855127823
 31
0.0
 11
255.0799629600387
 21
651.5294238536096
 31
0.0
 11
255.4345340875127
 21
651.6559258728555
 31
0.0
 11
255.7753140086412
 21
651.8157788234939
 31
0.0
 11
256.1053050086193
 21
652.010188909581
 31
0.0
 11
256.4158751598986
 21
652.2342111952705
 31
0.0
 11
256.7109931264337
 21
652.4905027491075
 31
0.0
 11
256.9822159527624
 21
652.7718680513324
 31
0.0
 11
257.233337878524
 21
653.0820301713486
 31
0.0
 11
257.457221272057
 21
653.4123203259214
 31
0.0
 11
257.6566922748567
 21
653.7666753019414
 31
0.0
 11
257.826573926272
 21
654.1360772789825
 31
0.0
 11
257.968424841484
 21
654.5236365555513
 31
0.0
 11
258.0791581107408
 21
654.9211728837001
 31
0.0
 11
258.159253166093
 21
655.3300121297435
 31
0.0
 11
258.2073776918862
 21
655.7438176675007
 31
0.0
 11
258.2234996161338
 21
656.161461036433
 31
0.0
 11
258.2073776918862
 21
656.5791044053653
 31
0.0
 11
258.159253166093
 21
656.9929099431229
 31
0.0
 11
258.0791581107408
 21
657.4017491891661
 31
0.0
 11
257.968424841484
 21
657.7992855173147
 31
0.0
 11
257.826573926272
 21
658.1868447938837
 31
0.0
 11
257.6566922748567
 21
658.5562467709248
 31
0.0
 11
257.457221272057
 21
658.9106017469447
 31
0.0
 11
257.233337878524
 21
659.2408919015177
 31
0.0
 11
256.9822159527624
 21
659.5510540215339
 31
0.0
 11
256.7109931264336
 21
659.8324193237589
 31
0.0
 11
256.4158751598986
 21
660.0887108775956
 31
0.0
 11
256.1053050086193
 21
660.3127331632853
 31
0.0
 11
255.7753140086412
 21
660.5071432493723
 31
0.0
 11
255.4345340875127
 21
660.6669962000105
 31
0.0
 11
255.0799629600387
 21
660.7934982192565
 31
0.0
 11
254.7190736815967
 21
660.884136560084
 31
0.0
 11
254.3510030511039
 21
660.9389313290844
 31
0.0
 11
254.1659309900583
 21
660.9527022520806
 31
0.0
 11
253.9808589290142
 21
660.9572925597458
 31
0.0
  0
SPLINE
  5
1EE
330
69
100
AcDbEntity
  8
1
  6
Continuous
 62
     7
100
AcDbSpline
210
0.0
220
0.0
230
1.0
 70
    11
 71
     3
 72
    81
 73
    77
 74
    75
 42
0.000000001
 43
0.0000000001
 44
0.00000001
 40
0.0
 40
0.0
 40
0.0
 40
0.0
 40
0.1851289696927037
 40
0.3707126613276285
 40
0.7428395970153567
 40
1.114936869718699
 40
1.491398614739054
 40
1.867807860888838
 40
2.250808307013008
 40
2.633744076332624
 40
3.02461486674676
 40
3.415419491671853
 40
3.814496880563509
 40
4.213514875307533
 40
4.620154924982657
 40
5.026747591089261
 40
5.439450722884946
 40
5.85212128047603
 40
6.268732306461874
 40
6.685326825184191
 40
7.103281248554387
 40
7.521235671915451
 40
7.937830190609962
 40
8.354441216549246
 40
8.767111774074598
 40
9.179814905783777
 40
9.58640757178351
 40
9.993047621329245
 40
10.39206561592193
 40
10.7911430046364
 40
11.18194762936029
 40
11.57281841954385
 40
11.95575418860564
 40
12.33875463443688
 40
12.71516388025586
 40
13.09162562488821
 40
13.46372289709167
 40
13.83584983188262
 40
14.20644908412705
 40
14.5770483363715
 40
14.94917527116254
 40
15.32127254336596
 40
15.69773428799826
 40
16.07414353381724
 40
16.45714397964854
 40
16.84007974871038
 40
17.23095053889403
 40
17.62175516361792
 40
18.02083255233244
 40
18.41985054692506
 40
18.82649059647068
 40
19.23308326247056
 40
19.64578639417973
 40
20.05845695170517
 40
20.47506797764444
 40
20.89166249633884
 40
21.3096169196998
 40
21.72757134306988
 40
22.14416586179243
 40
22.56077688777826
 40
22.97344744536943
 40
23.38615057716524
 40
23.79274324327164
 40
24.19938329294685
 40
24.59840128769078
 40
24.99747867658265
 40
25.38828330150768
 40
25.77915409192176
 40
26.16208986124142
 40
26.54509030736567
 40
26.92149955351531
 40
27.29796129853566
 40
27.67005857123909
 40
28.04218550692681
 40
28.2277691985633
 40
28.41289816825452
 40
28.41289816825452
 40
28.41289816825452
 40
28.41289816825452
 10
242.4808589290144
 20
660.9572925597458
 30
0.0
 10
242.5425759857084
 20
660.9564054247098
 30
0.0
 10
242.6661616913645
 20
660.9546289815241
 30
0.0
 10
242.913168874858
 20
660.9355706553451
 30
0.0
 10
243.2202845652321
 20
660.8902557887925
 30
0.0
 10
243.5830952278232
 20
660.7987916038605
 30
0.0
 10
243.9368351716507
 20
660.6726166225397
 30
0.0
 10
244.2800190836
 20
660.5113404914425
 30
0.0
 10
244.6085436789346
 20
660.31771610144
 30
0.0
 10
244.9215524754728
 20
660.0916085925892
 30
0.0
 10
245.2149774823349
 20
659.8366361100633
 30
0.0
 10
245.4882985916051
 20
659.5527430465022
 30
0.0
 10
245.7378796350966
 20
659.2442755195483
 30
0.0
 10
245.9632903628062
 20
658.9113650580396
 30
0.0
 10
246.1616262489833
 20
658.5587755066157
 30
0.0
 10
246.3324062946679
 20
658.1870423644971
 30
0.0
 10
246.473614074048
 20
657.8009619250462
 30
0.0
 10
246.584716044617
 20
657.4017138397103
 30
0.0
 10
246.6645849993924
 20
656.993744341373
 30
0.0
 10
246.7127619795386
 20
656.5790655271608
 30
0.0
 10
246.728877178127
 20
656.1614610459218
 30
0.0
 10
246.712761979852
 20
655.7438565646796
 30
0.0
 10
246.6645850000204
 20
655.3291777504598
 30
0.0
 10
246.5847160455629
 20
654.9212082521042
 30
0.0
 10
246.4736140753131
 20
654.5219601667643
 30
0.0
 10
246.3324062962684
 20
654.1358797272237
 30
0.0
 10
246.1616262508809
 20
653.7641465853012
 30
0.0
 10
245.9632903651768
 20
653.4115570329839
 30
0.0
 10
245.7378796373276
 20
653.0786465745409
 30
0.0
 10
245.4882985959974
 20
652.7701790360152
 30
0.0
 10
245.2149774804971
 20
652.4862860144901
 30
0.0
 10
244.9215524983738
 20
652.231313376449
 30
0.0
 10
244.6085436130775
 20
652.0052064363584
 30
0.0
 10
244.2800193476042
 20
651.8115799441374
 30
0.0
 10
243.9368342266863
 20
651.6503115297248
 30
0.0
 10
243.5830987637403
 20
651.5241079604735
 30
0.0
 10
243.2202715646004
 20
651.4327492935386
 30
0.0
 10
242.8521066949043
 20
651.3780252258664
 30
0.0
 10
242.4808589290143
 20
651.3594444198493
 30
0.0
 10
242.1096111631244
 20
651.3780252258664
 30
0.0
 10
241.7414462934284
 20
651.4327492935387
 30
0.0
 10
241.3786190942884
 20
651.5241079604733
 30
0.0
 10
241.0248836313423
 20
651.6503115297246
 30
0.0
 10
240.6816985104247
 20
651.8115799441372
 30
0.0
 10
240.3531742449512
 20
652.0052064363585
 30
0.0
 10
240.0401653596548
 20
652.231313376449
 30
0.0
 10
239.7467403775317
 20
652.4862860144901
 30
0.0
 10
239.4734192620311
 20
652.7701790360151
 30
0.0
 10
239.2238382207011
 20
653.078646574541
 30
0.0
 10
238.9984274928518
 20
653.4115570329838
 30
0.0
 10
238.8000916071476
 20
653.7641465853011
 30
0.0
 10
238.62931156176
 20
654.1358797272236
 30
0.0
 10
238.4881037827155
 20
654.5219601667643
 30
0.0
 10
238.3770018124658
 20
654.921208252104
 30
0.0
 10
238.2971328580083
 20
655.3291777504602
 30
0.0
 10
238.2489558781767
 20
655.7438565646794
 30
0.0
 10
238.2328406799016
 20
656.1614610459218
 30
0.0
 10
238.2489558784901
 20
656.5790655271607
 30
0.0
 10
238.2971328586362
 20
656.993744341373
 30
0.0
 10
238.3770018134117
 20
657.40171383971
 30
0.0
 10
238.4881037839805
 20
657.8009619250464
 30
0.0
 10
238.6293115633605
 20
658.1870423644971
 30
0.0
 10
238.8000916090455
 20
658.5587755066156
 30
0.0
 10
238.9984274952222
 20
658.9113650580396
 30
0.0
 10
239.2238382229322
 20
659.2442755195483
 30
0.0
 10
239.4734192664234
 20
659.5527430465022
 30
0.0
 10
239.7467403756937
 20
659.8366361100633
 30
0.0
 10
240.040165382556
 20
660.0916085925892
 30
0.0
 10
240.3531741790939
 20
660.3177161014399
 30
0.0
 10
240.6816987744286
 20
660.5113404914428
 30
0.0
 10
241.024882686378
 20
660.6726166225395
 30
0.0
 10
241.3786226302054
 20
660.7987916038608
 30
0.0
 10
241.7414332927966
 20
660.8902557887926
 30
0.0
 10
242.0485489831713
 20
660.9355706553443
 30
0.0
 10
242.2955561666648
 20
660.9546289815246
 30
0.0
 10
242.4191418723208
 20
660.95640542471
 30
0.0
 10
242.4808589290144
 20
660.9572925597458
 30
0.0
 11
242.4808589290144
 21
660.9572925597458
 31
0.0
 11
242.6659309900598
 21
660.9527022520804
 31
0.0
 11
242.8510030511038
 21
660.9389313290847
 31
0.0
 11
243.2190736815965
 21
660.884136560084
 31
0.0
 11
243.5799629600385
 21
660.7934982192565
 31
0.0
 11
243.9345340875126
 21
660.6669962000105
 31
0.0
 11
244.2753140086411
 21
660.5071432493721
 31
0.0
 11
244.6053050086192
 21
660.3127331632852
 31
0.0
 11
244.9158751598985
 21
660.0887108775956
 31
0.0
 11
245.2109931264335
 21
659.8324193237588
 31
0.0
 11
245.4822159527622
 21
659.5510540215337
 31
0.0
 11
245.7333378785238
 21
659.2408919015177
 31
0.0
 11
245.9572212720568
 21
658.9106017469446
 31
0.0
 11
246.1566922748565
 21
658.5562467709248
 31
0.0
 11
246.3265739262717
 21
658.1868447938834
 31
0.0
 11
246.4684248414837
 21
657.7992855173146
 31
0.0
 11
246.5791581107407
 21
657.4017491891661
 31
0.0
 11
246.6592531660929
 21
656.9929099431229
 31
0.0
 11
246.707377691886
 21
656.5791044053656
 31
0.0
 11
246.7234996161336
 21
656.1614610364331
 31
0.0
 11
246.707377691886
 21
655.7438176675007
 31
0.0
 11
246.6592531660929
 21
655.3300121297434
 31
0.0
 11
246.5791581107406
 21
654.9211728837
 31
0.0
 11
246.4684248414838
 21
654.5236365555513
 31
0.0
 11
246.3265739262717
 21
654.1360772789825
 31
0.0
 11
246.1566922748565
 21
653.7666753019415
 31
0.0
 11
245.9572212720568
 21
653.4123203259214
 31
0.0
 11
245.7333378785239
 21
653.0820301713485
 31
0.0
 11
245.4822159527622
 21
652.7718680513324
 31
0.0
 11
245.2109931264335
 21
652.4905027491073
 31
0.0
 11
244.9158751598985
 21
652.2342111952705
 31
0.0
 11
244.6053050086193
 21
652.010188909581
 31
0.0
 11
244.2753140086411
 21
651.815778823494
 31
0.0
 11
243.9345340875126
 21
651.6559258728557
 31
0.0
 11
243.5799629600385
 21
651.5294238536098
 31
0.0
 11
243.2190736815965
 21
651.4387855127823
 31
0.0
 11
242.8510030511038
 21
651.3839907437816
 31
0.0
 11
242.4808589290144
 21
651.3656295131202
 31
0.0
 11
242.110714806925
 21
651.3839907437816
 31
0.0
 11
241.7426441764322
 21
651.4387855127823
 31
0.0
 11
241.3817548979902
 21
651.5294238536096
 31
0.0
 11
241.0271837705161
 21
651.6559258728555
 31
0.0
 11
240.6864038493876
 21
651.8157788234939
 31
0.0
 11
240.3564128494095
 21
652.010188909581
 31
0.0
 11
240.0458426981302
 21
652.2342111952705
 31
0.0
 11
239.7507247315952
 21
652.4905027491075
 31
0.0
 11
239.4795019052664
 21
652.7718680513324
 31
0.0
 11
239.2283799795048
 21
653.0820301713486
 31
0.0
 11
239.0044965859718
 21
653.4123203259214
 31
0.0
 11
238.8050255831722
 21
653.7666753019414
 31
0.0
 11
238.6351439317568
 21
654.1360772789825
 31
0.0
 11
238.4932930165447
 21
654.5236365555513
 31
0.0
 11
238.382559747288
 21
654.9211728837001
 31
0.0
 11
238.3024646919358
 21
655.3300121297435
 31
0.0
 11
238.2543401661426
 21
655.7438176675007
 31
0.0
 11
238.238218241895
 21
656.161461036433
 31
0.0
 11
238.2543401661426
 21
656.5791044053653
 31
0.0
 11
238.3024646919358
 21
656.9929099431229
 31
0.0
 11
238.382559747288
 21
657.4017491891661
 31
0.0
 11
238.4932930165448
 21
657.7992855173147
 31
0.0
 11
238.6351439317568
 21
658.1868447938837
 31
0.0
 11
238.8050255831722
 21
658.5562467709248
 31
0.0
 11
239.0044965859718
 21
658.9106017469447
 31
0.0
 11
239.2283799795048
 21
659.2408919015177
 31
0.0
 11
239.4795019052664
 21
659.5510540215339
 31
0.0
 11
239.7507247315952
 21
659.8324193237589
 31
0.0
 11
240.0458426981302
 21
660.0887108775956
 31
0.0
 11
240.3564128494095
 21
660.3127331632853
 31
0.0
 11
240.6864038493876
 21
660.5071432493723
 31
0.0
 11
241.027183770516
 21
660.6669962000105
 31
0.0
 11
241.3817548979901
 21
660.7934982192565
 31
0.0
 11
241.7426441764322
 21
660.884136560084
 31
0.0
 11
242.110714806925
 21
660.9389313290844
 31
0.0
 11
242.2957868679705
 21
660.9527022520806
 31
0.0
 11
242.4808589290144
 21
660.9572925597458
 31
0.0
  0
ENDBLK
  5
6B
330
69
100
AcDbEntity
  8
0
100
AcDbBlockEnd
  0
BLOCK
  5
6D
330
6C
100
AcDbEntity
  8
0
100
AcDbBlockBegin
  2
78-167
 70
     0
 10
290.6364940503113
 20
1490.191566552457
 30
0.0
  3
78-167
  1

  0
LINE
  5
1EF
330
6C
100
AcDbEntity
  8
1
  6
Continuous
 62
     7
100
AcDbLine
 10
378.2308589290144
 20
202.8958318299618
 30
0.0
 11
378.2308589290144
 21
200.8958318299618
 31
0.0
  0
LINE
  5
1F0
330
6C
100
AcDbEntity
  8
1
  6
Continuous
 62
     7
100
AcDbLine
 10
438.2308589290144
 20
200.8958318299618
 30
0.0
 11
438.2308589290144
 21
202.8958318299618
 31
0.0
  0
LINE
  5
1F1
330
6C
100
AcDbEntity
  8
1
  6
Continuous
 62
     7
100
AcDbLine
 10
420.4350274057017
 20
216.8958318299618
 30
0.0
 11
397.3356660579851
 21
216.8958318299618
 31
0.0
  0
LINE
  5
1F2
330
6C
100
AcDbEntity
  8
1
  6
Continuous
 62
     7
100
AcDbLine
 10
438.2308589290144
 20
200.8958318299618
 30
0.0
 11
378.2308589290144
 21
200.8958318299618
 31
0.0
  0
LINE
  5
1F3
330
6C
100
AcDbEntity
  8
1
  6
Continuous
 62
     7
100
AcDbLine
 10
397.3356660579851
 20
216.8958318299618
 30
0.0
 11
396.0266904523271
 21
216.8958318299618
 31
0.0
  0
LINE
  5
1F4
330
6C
100
AcDbEntity
  8
1
  6
Continuous
 62
     7
100
AcDbLine
 10
237.3356660579851
 20
216.8958318299618
 30
0.0
 11
236.0266904523271
 21
216.8958318299618
 31
0.0
  0
LINE
  5
1F5
330
6C
100
AcDbEntity
  8
1
  6
Continuous
 62
     7
100
AcDbLine
 10
278.2308589290144
 20
200.8958318299618
 30
0.0
 11
218.2308589290144
 21
200.8958318299618
 31
0.0
  0
LINE
  5
1F6
330
6C
100
AcDbEntity
  8
1
  6
Continuous
 62
     7
100
AcDbLine
 10
260.4350274057017
 20
216.8958318299618
 30
0.0
 11
237.3356660579851
 21
216.8958318299618
 31
0.0
  0
LINE
  5
1F7
330
6C
100
AcDbEntity
  8
1
  6
Continuous
 62
     7
100
AcDbLine
 10
278.2308589290144
 20
200.8958318299618
 30
0.0
 11
278.2308589290144
 21
202.8958318299618
 31
0.0
  0
LINE
  5
1F8
330
6C
100
AcDbEntity
  8
1
  6
Continuous
 62
     7
100
AcDbLine
 10
218.2308589290144
 20
202.8958318299618
 30
0.0
 11
218.2308589290144
 21
200.8958318299618
 31
0.0
  0
ARC
  5
1F9
330
6C
100
AcDbEntity
  8
1
  6
Continuous
 62
     7
100
AcDbCircle
 10
248.2308589290142
 20
773.571060075283
 30
0.0
 40
29.99999999999988
100
AcDbArc
 50
25.67899703914945
 51
334.320419799522
  0
ARC
  5
1FA
330
6C
100
AcDbEntity
  8
1
  6
Continuous
 62
     7
100
AcDbCircle
 10
396.0266904523271
 20
191.8958318299618
 30
0.0
 40
25.0
100
AcDbArc
 50
90.0
 51
113.5564643091011
  0
ARC
  5
1FB
330
6C
100
AcDbEntity
  8
1
  6
Continuous
 62
     7
100
AcDbCircle
 10
391.2308589290144
 20
202.8958318299618
 30
0.0
 40
13.00000000000004
100
AcDbArc
 50
113.556464309101
 51
180.0
  0
ARC
  5
1FC
330
6C
100
AcDbEntity
  8
1
  6
Continuous
 62
     7
100
AcDbCircle
 10
425.2308589290144
 20
202.8958318299618
 30
0.0
 40
13.0
100
AcDbArc
 50
0.0
 51
66.44353569089871
  0
ARC
  5
1FD
330
6C
100
AcDbEntity
  8
1
  6
Continuous
 62
     7
100
AcDbCircle
 10
420.4350274057017
 20
191.8958318299618
 30
0.0
 40
25.00000000000005
100
AcDbArc
 50
66.44353569089878
 51
90.0
  0
ARC
  5
1FE
330
6C
100
AcDbEntity
  8
1
  6
Continuous
 62
     7
100
AcDbCircle
 10
260.4350274057017
 20
191.8958318299618
 30
0.0
 40
25.00000000000005
100
AcDbArc
 50
66.44353569089878
 51
90.0
  0
ARC
  5
1FF
330
6C
100
AcDbEntity
  8
1
  6
Continuous
 62
     7
100
AcDbCircle
 10
265.2308589290144
 20
202.8958318299618
 30
0.0
 40
13.0
100
AcDbArc
 50
0.0
 51
66.44353569089871
  0
ARC
  5
200
330
6C
100
AcDbEntity
  8
1
  6
Continuous
 62
     7
100
AcDbCircle
 10
231.2308589290144
 20
202.8958318299618
 30
0.0
 40
13.00000000000002
100
AcDbArc
 50
113.5564643091009
 51
180.0
  0
ARC
  5
201
330
6C
100
AcDbEntity
  8
1
  6
Continuous
 62
     7
100
AcDbCircle
 10
236.0266904523271
 20
191.8958318299618
 30
0.0
 40
25.0
100
AcDbArc
 50
90.0
 51
113.556464309101
  0
ENDBLK
  5
6E
330
6C
100
AcDbEntity
  8
0
100
AcDbBlockEnd
  0
BLOCK
  5
70
330
6F
100
AcDbEntity
  8
0
100
AcDbBlockBegin
  2
64-7-13-420-M11
 70
     0
 10
116.8241541587042
 20
2247.233715385479
 30
0.0
  3
64-7-13-420-M11
  1

  0
LINE
  5
202
330
6F
100
AcDbEntity
  8
1
  6
PHANTOM
 62
     4
100
AcDbLine
 10
408.2308589290144
 20
603.6949181997244
 30
0.0
 11
408.2308589290144
 21
179.161461036433
 31
0.0
  0
LINE
  5
203
330
6F
100
AcDbEntity
  8
1
  6
Continuous
 62
     7
100
AcDbLine
 10
418.4758102495839
 20
588.1614610364331
 30
0.0
 11
399.1483035000729
 21
588.1614610364331
 31
0.0
  0
LINE
  5
204
330
6F
100
AcDbEntity
  8
1
  6
Continuous
 62
     7
100
AcDbLine
 10
418.4758102495839
 20
588.1614610364331
 30
0.0
 11
418.5308589290146
 21
586.0527851839609
 31
0.0
  0
LINE
  5
205
330
6F
100
AcDbEntity
  8
1
  6
Continuous
 62
     2
100
AcDbLine
 10
418.5308589290146
 20
586.0527851839609
 30
0.0
 11
417.3134143579559
 21
588.1614610364331
 31
0.0
  0
LINE
  5
206
330
6F
100
AcDbEntity
  8
1
  6
Continuous
 62
     2
100
AcDbLine
 10
399.1483035000729
 20
588.1614610364331
 30
0.0
 11
397.9308589290143
 21
586.0527851839609
 31
0.0
  0
LINE
  5
207
330
6F
100
AcDbEntity
  8
1
  6
Continuous
 62
     2
100
AcDbLine
 10
399.1483035000729
 20
588.1614610364331
 30
0.0
 11
399.2695334938479
 21
593.1614610364331
 31
0.0
  0
LINE
  5
208
330
6F
100
AcDbEntity
  8
1
  6
Continuous
 62
     7
100
AcDbLine
 10
397.9308589290143
 20
586.0527851839609
 30
0.0
 11
397.985907608445
 21
588.1614610364331
 31
0.0
  0
LINE
  5
209
330
6F
100
AcDbEntity
  8
1
  6
Continuous
 62
     7
100
AcDbLine
 10
399.1483035000729
 20
588.1614610364331
 30
0.0
 11
397.985907608445
 21
588.1614610364331
 31
0.0
  0
LINE
  5
20A
330
6F
100
AcDbEntity
  8
1
  6
Continuous
 62
     7
100
AcDbLine
 10
397.985907608445
 20
588.1614610364331
 30
0.0
 11
398.0931307528363
 21
593.1614610364331
 31
0.0
  0
LINE
  5
20B
330
6F
100
AcDbEntity
  8
1
  6
Continuous
 62
     7
100
AcDbLine
 10
418.5308589290146
 20
586.0527851839609
 30
0.0
 11
418.5308589290146
 21
533.2400828192569
 31
0.0
  0
LINE
  5
20C
330
6F
100
AcDbEntity
  8
1
  6
Continuous
 62
     2
100
AcDbLine
 10
417.3134143579559
 20
196.161461036433
 30
0.0
 11
418.5308589290146
 21
198.2701368889054
 31
0.0
  0
LINE
  5
20D
330
6F
100
AcDbEntity
  8
1
  6
Continuous
 62
     2
100
AcDbLine
 10
417.3134143579559
 20
196.161461036433
 30
0.0
 11
416.9739703753858
 21
182.161461036433
 31
0.0
  0
LINE
  5
20E
330
6F
100
AcDbEntity
  8
1
  6
Continuous
 62
     7
100
AcDbLine
 10
418.5308589290146
 20
198.2701368889054
 30
0.0
 11
418.4758102495839
 21
196.161461036433
 31
0.0
  0
LINE
  5
20F
330
6F
100
AcDbEntity
  8
1
  6
Continuous
 62
     7
100
AcDbLine
 10
418.2004676895488
 20
183.3217629657327
 30
0.0
 11
416.9756709311669
 21
182.161461036433
 31
0.0
  0
LINE
  5
210
330
6F
100
AcDbEntity
  8
1
  6
Continuous
 62
     7
100
AcDbLine
 10
397.9859076084448
 20
196.161461036433
 30
0.0
 11
418.4758102495839
 21
196.161461036433
 31
0.0
  0
LINE
  5
211
330
6F
100
AcDbEntity
  8
1
  6
Continuous
 62
     7
100
AcDbLine
 10
418.4758102495839
 20
196.161461036433
 30
0.0
 11
418.2004676895488
 21
183.3217629657327
 31
0.0
  0
LINE
  5
212
330
6F
100
AcDbEntity
  8
1
  6
Continuous
 62
     7
100
AcDbLine
 10
416.9739703753858
 20
182.161461036433
 30
0.0
 11
416.9756709311669
 21
182.161461036433
 31
0.0
  0
LINE
  5
213
330
6F
100
AcDbEntity
  8
1
  6
Continuous
 62
     7
100
AcDbLine
 10
397.9308589290143
 20
198.2701368889054
 30
0.0
 11
397.9308589290143
 21
200.8958318299618
 31
0.0
  0
LINE
  5
214
330
6F
100
AcDbEntity
  8
1
  6
Continuous
 62
     7
100
AcDbLine
 10
399.486046926862
 20
182.161461036433
 30
0.0
 11
399.487747482643
 21
182.161461036433
 31
0.0
  0
LINE
  5
215
330
6F
100
AcDbEntity
  8
1
  6
Continuous
 62
     7
100
AcDbLine
 10
399.487747482643
 20
182.161461036433
 30
0.0
 11
416.9739703753858
 21
182.161461036433
 31
0.0
  0
LINE
  5
216
330
6F
100
AcDbEntity
  8
1
  6
Continuous
 62
     7
100
AcDbLine
 10
398.2612501684801
 20
183.3217629657327
 30
0.0
 11
397.9859076084448
 21
196.161461036433
 31
0.0
  0
LINE
  5
217
330
6F
100
AcDbEntity
  8
1
  6
Continuous
 62
     7
100
AcDbLine
 10
397.9859076084448
 20
196.161461036433
 30
0.0
 11
399.1483035000729
 21
196.161461036433
 31
0.0
  0
LINE
  5
218
330
6F
100
AcDbEntity
  8
1
  6
Continuous
 62
     7
100
AcDbLine
 10
399.486046926862
 20
182.161461036433
 30
0.0
 11
398.2612501684801
 21
183.3217629657327
 31
0.0
  0
LINE
  5
219
330
6F
100
AcDbEntity
  8
1
  6
Continuous
 62
     7
100
AcDbLine
 10
397.9859076084448
 20
196.161461036433
 30
0.0
 11
397.9308589290143
 21
198.2701368889054
 31
0.0
  0
LINE
  5
21A
330
6F
100
AcDbEntity
  8
1
  6
Continuous
 62
     2
100
AcDbLine
 10
399.487747482643
 20
182.161461036433
 30
0.0
 11
399.1483035000729
 21
196.161461036433
 31
0.0
  0
LINE
  5
21B
330
6F
100
AcDbEntity
  8
1
  6
Continuous
 62
     2
100
AcDbLine
 10
397.9308589290143
 20
198.2701368889054
 30
0.0
 11
399.1483035000729
 21
196.161461036433
 31
0.0
  0
LINE
  5
21C
330
6F
100
AcDbEntity
  8
1
  6
Continuous
 62
     7
100
AcDbLine
 10
418.5308589290146
 20
533.2400828192569
 30
0.0
 11
418.5308589290144
 21
216.8958318299619
 31
0.0
  0
LINE
  5
21D
330
6F
100
AcDbEntity
  8
1
  6
Continuous
 62
     7
100
AcDbLine
 10
397.9308589290143
 20
528.0751210365931
 30
0.0
 11
397.9308589290143
 21
586.0527851839609
 31
0.0
  0
LINE
  5
21E
330
6F
100
AcDbEntity
  8
1
  6
Continuous
 62
     7
100
AcDbLine
 10
398.2612501684801
 20
183.3217629657327
 30
0.0
 11
418.2004676895488
 21
183.3217629657327
 31
0.0
  0
LINE
  5
21F
330
6F
100
AcDbEntity
  8
1
  6
Continuous
 62
     7
100
AcDbLine
 10
418.5308589290146
 20
200.8958318299618
 30
0.0
 11
418.5308589290146
 21
198.2701368889054
 31
0.0
  0
LINE
  5
220
330
6F
100
AcDbEntity
  8
1
  6
Continuous
 62
     7
100
AcDbLine
 10
397.9308589290145
 20
216.8958318299619
 30
0.0
 11
397.9308589290143
 21
528.0751210365931
 31
0.0
  0
LINE
  5
221
330
6F
100
AcDbEntity
  8
1
  6
Continuous
 62
     7
100
AcDbLine
 10
237.9308589290145
 20
216.8958318299619
 30
0.0
 11
237.9308589290144
 21
528.0751210365931
 31
0.0
  0
LINE
  5
222
330
6F
100
AcDbEntity
  8
1
  6
Continuous
 62
     7
100
AcDbLine
 10
258.5308589290146
 20
200.8958318299618
 30
0.0
 11
258.5308589290146
 21
198.2701368889054
 31
0.0
  0
LINE
  5
223
330
6F
100
AcDbEntity
  8
1
  6
Continuous
 62
     7
100
AcDbLine
 10
238.2612501684801
 20
183.3217629657327
 30
0.0
 11
258.2004676895488
 21
183.3217629657327
 31
0.0
  0
LINE
  5
224
330
6F
100
AcDbEntity
  8
1
  6
Continuous
 62
     7
100
AcDbLine
 10
237.9308589290144
 20
530.0751210365931
 30
0.0
 11
237.9308589290143
 21
586.0527851839609
 31
0.0
  0
LINE
  5
225
330
6F
100
AcDbEntity
  8
1
  6
Continuous
 62
     7
100
AcDbLine
 10
258.5308589290146
 20
533.2400828192569
 30
0.0
 11
258.5308589290146
 21
216.8958318299619
 31
0.0
  0
LINE
  5
226
330
6F
100
AcDbEntity
  8
1
  6
Continuous
 62
     2
100
AcDbLine
 10
237.9308589290143
 20
198.2701368889054
 30
0.0
 11
239.1483035000729
 21
196.161461036433
 31
0.0
  0
LINE
  5
227
330
6F
100
AcDbEntity
  8
1
  6
Continuous
 62
     2
100
AcDbLine
 10
239.487747482643
 20
182.161461036433
 30
0.0
 11
239.1483035000729
 21
196.161461036433
 31
0.0
  0
LINE
  5
228
330
6F
100
AcDbEntity
  8
1
  6
Continuous
 62
     7
100
AcDbLine
 10
237.9859076084448
 20
196.161461036433
 30
0.0
 11
237.9308589290143
 21
198.2701368889054
 31
0.0
  0
LINE
  5
229
330
6F
100
AcDbEntity
  8
1
  6
Continuous
 62
     7
100
AcDbLine
 10
239.486046926862
 20
182.161461036433
 30
0.0
 11
238.2612501684801
 21
183.3217629657327
 31
0.0
  0
LINE
  5
22A
330
6F
100
AcDbEntity
  8
1
  6
Continuous
 62
     7
100
AcDbLine
 10
237.9859076084448
 20
196.161461036433
 30
0.0
 11
239.1483035000729
 21
196.161461036433
 31
0.0
  0
LINE
  5
22B
330
6F
100
AcDbEntity
  8
1
  6
Continuous
 62
     7
100
AcDbLine
 10
238.2612501684801
 20
183.3217629657327
 30
0.0
 11
237.9859076084448
 21
196.161461036433
 31
0.0
  0
LINE
  5
22C
330
6F
100
AcDbEntity
  8
1
  6
Continuous
 62
     7
100
AcDbLine
 10
239.487747482643
 20
182.161461036433
 30
0.0
 11
256.9739703753858
 21
182.161461036433
 31
0.0
  0
LINE
  5
22D
330
6F
100
AcDbEntity
  8
1
  6
Continuous
 62
     7
100
AcDbLine
 10
239.486046926862
 20
182.161461036433
 30
0.0
 11
239.487747482643
 21
182.161461036433
 31
0.0
  0
LINE
  5
22E
330
6F
100
AcDbEntity
  8
1
  6
Continuous
 62
     7
100
AcDbLine
 10
237.9308589290143
 20
198.2701368889054
 30
0.0
 11
237.9308589290143
 21
200.8958318299618
 31
0.0
  0
LINE
  5
22F
330
6F
100
AcDbEntity
  8
1
  6
Continuous
 62
     7
100
AcDbLine
 10
256.9739703753858
 20
182.161461036433
 30
0.0
 11
256.9756709311669
 21
182.161461036433
 31
0.0
  0
LINE
  5
230
330
6F
100
AcDbEntity
  8
1
  6
Continuous
 62
     7
100
AcDbLine
 10
258.4758102495839
 20
196.161461036433
 30
0.0
 11
258.2004676895488
 21
183.3217629657327
 31
0.0
  0
LINE
  5
231
330
6F
100
AcDbEntity
  8
1
  6
Continuous
 62
     7
100
AcDbLine
 10
237.9859076084448
 20
196.161461036433
 30
0.0
 11
258.4758102495839
 21
196.161461036433
 31
0.0
  0
LINE
  5
232
330
6F
100
AcDbEntity
  8
1
  6
Continuous
 62
     7
100
AcDbLine
 10
258.2004676895488
 20
183.3217629657327
 30
0.0
 11
256.9756709311669
 21
182.161461036433
 31
0.0
  0
LINE
  5
233
330
6F
100
AcDbEntity
  8
1
  6
Continuous
 62
     7
100
AcDbLine
 10
258.5308589290146
 20
198.2701368889054
 30
0.0
 11
258.4758102495839
 21
196.161461036433
 31
0.0
  0
LINE
  5
234
330
6F
100
AcDbEntity
  8
1
  6
Continuous
 62
     2
100
AcDbLine
 10
257.3134143579559
 20
196.161461036433
 30
0.0
 11
256.9739703753858
 21
182.161461036433
 31
0.0
  0
LINE
  5
235
330
6F
100
AcDbEntity
  8
1
  6
Continuous
 62
     2
100
AcDbLine
 10
257.3134143579559
 20
196.161461036433
 30
0.0
 11
258.5308589290146
 21
198.2701368889054
 31
0.0
  0
LINE
  5
236
330
6F
100
AcDbEntity
  8
1
  6
Continuous
 62
     7
100
AcDbLine
 10
258.5308589290146
 20
586.0527851839609
 30
0.0
 11
258.5308589290146
 21
533.2400828192569
 31
0.0
  0
LINE
  5
237
330
6F
100
AcDbEntity
  8
1
  6
Continuous
 62
     7
100
AcDbLine
 10
237.985907608445
 20
588.1614610364331
 30
0.0
 11
238.0931307528363
 21
593.1614610364331
 31
0.0
  0
LINE
  5
238
330
6F
100
AcDbEntity
  8
1
  6
Continuous
 62
     7
100
AcDbLine
 10
239.1483035000729
 20
588.1614610364331
 30
0.0
 11
237.985907608445
 21
588.1614610364331
 31
0.0
  0
LINE
  5
239
330
6F
100
AcDbEntity
  8
1
  6
Continuous
 62
     7
100
AcDbLine
 10
237.9308589290143
 20
586.0527851839609
 30
0.0
 11
237.985907608445
 21
588.1614610364331
 31
0.0
  0
LINE
  5
23A
330
6F
100
AcDbEntity
  8
1
  6
Continuous
 62
     2
100
AcDbLine
 10
239.1483035000729
 20
588.1614610364331
 30
0.0
 11
239.2695334938479
 21
593.1614610364331
 31
0.0
  0
LINE
  5
23B
330
6F
100
AcDbEntity
  8
1
  6
Continuous
 62
     2
100
AcDbLine
 10
239.1483035000729
 20
588.1614610364331
 30
0.0
 11
237.9308589290143
 21
586.0527851839609
 31
0.0
  0
LINE
  5
23C
330
6F
100
AcDbEntity
  8
1
  6
Continuous
 62
     2
100
AcDbLine
 10
258.5308589290146
 20
586.0527851839609
 30
0.0
 11
257.3134143579559
 21
588.1614610364331
 31
0.0
  0
LINE
  5
23D
330
6F
100
AcDbEntity
  8
1
  6
Continuous
 62
     7
100
AcDbLine
 10
258.4758102495839
 20
588.1614610364331
 30
0.0
 11
258.5308589290146
 21
586.0527851839609
 31
0.0
  0
LINE
  5
23E
330
6F
100
AcDbEntity
  8
1
  6
Continuous
 62
     7
100
AcDbLine
 10
258.4758102495839
 20
588.1614610364331
 30
0.0
 11
239.1483035000729
 21
588.1614610364331
 31
0.0
  0
LINE
  5
23F
330
6F
100
AcDbEntity
  8
1
  6
PHANTOM
 62
     4
100
AcDbLine
 10
248.2308589290144
 20
605.1614610364331
 30
0.0
 11
248.2308589290144
 21
179.1614610364329
 31
0.0
  0
LINE
  5
240
330
6F
100
AcDbEntity
  8
1
  6
Continuous
 62
     7
100
AcDbLine
 10
237.9308589290144
 20
530.0751210365931
 30
0.0
 11
237.9308589290144
 21
528.0751210365931
 31
0.0
  0
LINE
  5
241
330
6F
100
AcDbEntity
  8
1
  6
Continuous
 62
     7
100
AcDbLine
 10
418.3685871051926
 20
593.1614610364331
 30
0.0
 11
418.4758102495839
 21
588.1614610364331
 31
0.0
  0
LINE
  5
242
330
6F
100
AcDbEntity
  8
1
  6
Continuous
 62
     2
100
AcDbLine
 10
417.1921843641809
 20
593.1614610364331
 30
0.0
 11
417.3134143579559
 21
588.1614610364331
 31
0.0
  0
LINE
  5
243
330
6F
100
AcDbEntity
  8
1
  6
Continuous
 62
     2
100
AcDbLine
 10
257.1921843641809
 20
593.1614610364331
 30
0.0
 11
257.3134143579559
 21
588.1614610364331
 31
0.0
  0
LINE
  5
244
330
6F
100
AcDbEntity
  8
1
  6
Continuous
 62
     7
100
AcDbLine
 10
258.3685871051926
 20
593.1614610364331
 30
0.0
 11
258.4758102495839
 21
588.1614610364331
 31
0.0
  0
ENDBLK
  5
71
330
6F
100
AcDbEntity
  8
0
100
AcDbBlockEnd
  0
BLOCK
  5
26F
330
267
100
AcDbEntity
  8
0
100
AcDbBlockBegin
  2
*D13
 70
     1
 10
0.0
 20
0.0
 30
0.0
  3
*D13
  1

  0
LINE
  5
268
330
267
100
AcDbEntity
  8
0
  6
Continuous
 62
     2
100
AcDbLine
 10
305.2308589290145
 20
554.44762113665
 30
0.0
 11
248.2308589290144
 21
554.44762113665
 31
0.0
  0
LINE
  5
269
330
267
100
AcDbEntity
  8
0
  6
Continuous
 62
     2
100
AcDbLine
 10
375.5808589290144
 20
554.44762113665
 30
0.0
 11
305.2308589290145
 21
554.44762113665
 31
0.0
  0
LINE
  5
26A
330
267
100
AcDbEntity
  8
0
  6
Continuous
 62
     2
100
AcDbLine
 10
248.2308589290144
 20
598.1614610364331
 30
0.0
 11
248.2308589290144
 21
551.44762113665
 31
0.0
  0
LINE
  5
26B
330
267
100
AcDbEntity
  8
0
  6
Continuous
 62
     2
100
AcDbLine
 10
305.2308589290145
 20
628.1614610364331
 30
0.0
 11
305.2308589290145
 21
551.44762113665
 31
0.0
  0
SOLID
  5
26C
330
267
100
AcDbEntity
  8
0
 62
     2
100
AcDbTrace
 10
294.7308589290145
 20
553.0652699119823
 30
0.0
 11
294.7308589290145
 21
555.8299723613177
 31
0.0
 12
305.2308589290145
 22
554.44762113665
 32
0.0
 13
305.2308589290145
 23
554.44762113665
 33
0.0
  0
SOLID
  5
26D
330
267
100
AcDbEntity
  8
0
 62
     2
100
AcDbTrace
 10
258.7308589290144
 20
555.8299723613177
 30
0.0
 11
258.7308589290144
 21
553.0652699119823
 31
0.0
 12
248.2308589290144
 22
554.44762113665
 32
0.0
 13
248.2308589290144
 23
554.44762113665
 33
0.0
  0
MTEXT
  5
26E
330
267
100
AcDbEntity
  8
0
 62
     7
100
AcDbMText
 10
318.8808589290144
 20
557.44762113665
 30
0.0
 40
10.5
 41
0.0
 71
     7
 72
     1
  1
57リフト5
  7
CONVERTER_11
 11
0.9999999999970619
 21
2.424068405545306E-6
 31
0.0
 73
     1
 44
0.45454545454545
  0
ENDBLK
  5
270
330
267
100
AcDbEntity
  8
0
100
AcDbBlockEnd
  0
BLOCK
  5
27C
330
273
100
AcDbEntity
  8
0
100
AcDbBlockBegin
  2
*D14
 70
     1
 10
0.0
 20
0.0
 30
0.0
  3
*D14
  1

  0
LINE
  5
274
330
273
100
AcDbEntity
  8
1
  6
Continuous
 62
     2
100
AcDbLine
 10
215.7308589290144
 20
692.1614610364331
 30
0.0
 11
236.7308589290144
 21
692.1614610364331
 31
0.0
  0
LINE
  5
275
330
273
100
AcDbEntity
  8
1
  6
Continuous
 62
     2
100
AcDbLine
 10
236.7308589290144
 20
692.1614610364331
 30
0.0
 11
259.7308589290145
 21
692.1614610364331
 31
0.0
  0
LINE
  5
276
330
273
100
AcDbEntity
  8
1
  6
Continuous
 62
     2
100
AcDbLine
 10
259.7308589290145
 20
692.1614610364331
 30
0.0
 11
280.7308589290144
 21
692.1614610364331
 31
0.0
  0
LINE
  5
277
330
273
100
AcDbEntity
  8
1
  6
Continuous
 62
     2
100
AcDbLine
 10
259.7308589290145
 20
660.9572925597458
 30
0.0
 11
259.7308589290145
 21
695.1614610364331
 31
0.0
  0
LINE
  5
278
330
273
100
AcDbEntity
  8
1
  6
Continuous
 62
     2
100
AcDbLine
 10
236.7308589290144
 20
660.9572925597458
 30
0.0
 11
236.7308589290144
 21
695.1614610364331
 31
0.0
  0
SOLID
  5
279
330
273
100
AcDbEntity
  8
1
 62
     2
100
AcDbTrace
 10
226.2308589290144
 20
690.7791098117655
 30
0.0
 11
226.2308589290144
 21
693.5438122611008
 31
0.0
 12
236.7308589290144
 22
692.1614610364331
 32
0.0
 13
236.7308589290144
 23
692.1614610364331
 33
0.0
  0
SOLID
  5
27A
330
273
100
AcDbEntity
  8
1
 62
     2
100
AcDbTrace
 10
270.2308589290145
 20
693.5438122611008
 30
0.0
 11
270.2308589290145
 21
690.7791098117655
 31
0.0
 12
259.7308589290145
 22
692.1614610364331
 32
0.0
 13
259.7308589290145
 23
692.1614610364331
 33
0.0
  0
MTEXT
  5
27B
330
273
100
AcDbEntity
  8
1
 62
     7
100
AcDbMText
 10
240.3558589290144
 20
695.1614610364331
 30
0.0
 40
10.5
 41
0.0
 71
     7
 72
     1
  1
23
  7
CONVERTER_12
 11
0.9999999999970619
 21
2.424068405545306E-6
 31
0.0
 73
     1
 44
0.60024009603842
  0
ENDBLK
  5
27D
330
273
100
AcDbEntity
  8
0
100
AcDbBlockEnd
  0
BLOCK
  5
287
330
280
100
AcDbEntity
  8
0
100
AcDbBlockBegin
  2
*D15
 70
     1
 10
0.0
 20
0.0
 30
0.0
  3
*D15
  1

  0
LINE
  5
281
330
280
100
AcDbEntity
  8
1
  6
Continuous
 62
     2
100
AcDbLine
 10
468.2308589290144
 20
628.1614610364331
 30
0.0
 11
468.2308589290144
 21
658.1614610364329
 31
0.0
  0
LINE
  5
282
330
280
100
AcDbEntity
  8
1
  6
Continuous
 62
     2
100
AcDbLine
 10
420.5630184952137
 20
658.1614610364329
 30
0.0
 11
471.2308589290144
 21
658.1614610364329
 31
0.0
  0
LINE
  5
283
330
280
100
AcDbEntity
  8
1
  6
Continuous
 62
     2
100
AcDbLine
 10
418.2308589290144
 20
628.1614610364331
 30
0.0
 11
471.2308589290144
 21
628.1614610364331
 31
0.0
  0
SOLID
  5
284
330
280
100
AcDbEntity
  8
1
 62
     2
100
AcDbTrace
 10
466.8485077043467
 20
638.6614610364331
 30
0.0
 11
469.6132101536821
 21
638.6614610364331
 31
0.0
 12
468.2308589290144
 22
628.1614610364331
 32
0.0
 13
468.2308589290144
 23
628.1614610364331
 33
0.0
  0
SOLID
  5
285
330
280
100
AcDbEntity
  8
1
 62
     2
100
AcDbTrace
 10
469.6132101536821
 20
647.6614610364329
 30
0.0
 11
466.8485077043467
 21
647.6614610364329
 31
0.0
 12
468.2308589290144
 22
658.1614610364329
 32
0.0
 13
468.2308589290144
 23
658.1614610364329
 33
0.0
  0
MTEXT
  5
286
330
280
100
AcDbEntity
  8
1
 62
     7
100
AcDbMText
 10
465.2308589290144
 20
635.2864610364329
 30
0.0
 40
10.5
 41
0.0
 71
     7
 72
     1
  1
30
  7
CONVERTER_12
 11
0.0
 21
1.0
 31
0.0
 73
     1
 44
0.60024009603842
  0
ENDBLK
  5
288
330
280
100
AcDbEntity
  8
0
100
AcDbBlockEnd
  0
BLOCK
  5
292
330
28B
100
AcDbEntity
  8
0
100
AcDbBlockBegin
  2
*D16
 70
     1
 10
0.0
 20
0.0
 30
0.0
  3
*D16
  1

  0
LINE
  5
28C
330
28B
100
AcDbEntity
  8
1
  6
Continuous
 62
     2
100
AcDbLine
 10
378.2308589290144
 20
152.161461036433
 30
0.0
 11
438.2308589290144
 21
152.161461036433
 31
0.0
  0
LINE
  5
28D
330
28B
100
AcDbEntity
  8
1
  6
Continuous
 62
     2
100
AcDbLine
 10
438.2308589290144
 20
200.8958318299618
 30
0.0
 11
438.2308589290144
 21
149.161461036433
 31
0.0
  0
LINE
  5
28E
330
28B
100
AcDbEntity
  8
1
  6
Continuous
 62
     2
100
AcDbLine
 10
378.2308589290144
 20
200.8958318299618
 30
0.0
 11
378.2308589290144
 21
149.161461036433
 31
0.0
  0
SOLID
  5
28F
330
28B
100
AcDbEntity
  8
1
 62
     2
100
AcDbTrace
 10
388.7308589290144
 20
153.5438122611006
 30
0.0
 11
388.7308589290144
 21
150.7791098117654
 31
0.0
 12
378.2308589290144
 22
152.161461036433
 32
0.0
 13
378.2308589290144
 23
152.161461036433
 33
0.0
  0
SOLID
  5
290
330
28B
100
AcDbEntity
  8
1
 62
     2
100
AcDbTrace
 10
427.7308589290144
 20
150.7791098117654
 30
0.0
 11
427.7308589290144
 21
153.5438122611006
 31
0.0
 12
438.2308589290144
 22
152.161461036433
 32
0.0
 13
438.2308589290144
 23
152.161461036433
 33
0.0
  0
MTEXT
  5
291
330
28B
100
AcDbEntity
  8
1
 62
     7
100
AcDbMText
 10
395.1058589290144
 20
155.161461036433
 30
0.0
 40
10.5
 41
0.0
 71
     7
 72
     1
  1
{\Fgdt;n}60
  7
CONVERTER_12
 11
0.9999999999970619
 21
2.424068405545306E-6
 31
0.0
 73
     1
 44
0.60024009603842
  0
ENDBLK
  5
293
330
28B
100
AcDbEntity
  8
0
100
AcDbBlockEnd
  0
BLOCK
  5
29F
330
296
100
AcDbEntity
  8
0
100
AcDbBlockBegin
  2
*D17
 70
     1
 10
0.0
 20
0.0
 30
0.0
  3
*D17
  1

  0
LINE
  5
297
330
296
100
AcDbEntity
  8
1
  6
Continuous
 62
     2
100
AcDbLine
 10
348.2308589290144
 20
237.8958318299618
 30
0.0
 11
348.2308589290144
 21
216.8958318299618
 31
0.0
  0
LINE
  5
298
330
296
100
AcDbEntity
  8
1
  6
Continuous
 62
     2
100
AcDbLine
 10
348.2308589290144
 20
216.8958318299618
 30
0.0
 11
348.2308589290144
 21
200.8958318299618
 31
0.0
  0
LINE
  5
299
330
296
100
AcDbEntity
  8
1
  6
Continuous
 62
     2
100
AcDbLine
 10
348.2308589290144
 20
200.8958318299618
 30
0.0
 11
348.2308589290144
 21
179.8958318299618
 31
0.0
  0
LINE
  5
29A
330
296
100
AcDbEntity
  8
1
  6
Continuous
 62
     2
100
AcDbLine
 10
378.2308589290144
 20
200.8958318299618
 30
0.0
 11
345.2308589290144
 21
200.8958318299618
 31
0.0
  0
LINE
  5
29B
330
296
100
AcDbEntity
  8
1
  6
Continuous
 62
     2
100
AcDbLine
 10
396.0266904523271
 20
216.8958318299618
 30
0.0
 11
345.2308589290144
 21
216.8958318299618
 31
0.0
  0
SOLID
  5
29C
330
296
100
AcDbEntity
  8
1
 62
     2
100
AcDbTrace
 10
346.8485077043467
 20
227.3958318299618
 30
0.0
 11
349.6132101536821
 21
227.3958318299618
 31
0.0
 12
348.2308589290144
 22
216.8958318299618
 32
0.0
 13
348.2308589290144
 23
216.8958318299618
 33
0.0
  0
SOLID
  5
29D
330
296
100
AcDbEntity
  8
1
 62
     2
100
AcDbTrace
 10
349.6132101536821
 20
190.3958318299618
 30
0.0
 11
346.8485077043467
 21
190.3958318299618
 31
0.0
 12
348.2308589290144
 22
200.8958318299618
 32
0.0
 13
348.2308589290144
 23
200.8958318299618
 33
0.0
  0
MTEXT
  5
29E
330
296
100
AcDbEntity
  8
1
 62
     7
100
AcDbMText
 10
345.2308589290144
 20
202.5958318299618
 30
0.0
 40
10.5
 41
0.0
 71
     7
 72
     1
  1
16
  7
CONVERTER_12
 11
0.0
 21
1.0
 31
0.0
 73
     1
 44
0.60024009603842
  0
ENDBLK
  5
2A0
330
296
100
AcDbEntity
  8
0
100
AcDbBlockEnd
  0
BLOCK
  5
2AC
330
2A3
100
AcDbEntity
  8
0
100
AcDbBlockBegin
  2
*D18
 70
     1
 10
0.0
 20
0.0
 30
0.0
  3
*D18
  1

  0
LINE
  5
2A4
330
2A3
100
AcDbEntity
  8
1
  6
Continuous
 62
     2
100
AcDbLine
 10
396.7266423838156
 20
554.44762113665
 30
0.0
 11
417.7266423838156
 21
554.44762113665
 31
0.0
  0
LINE
  5
2A5
330
2A3
100
AcDbEntity
  8
1
  6
Continuous
 62
     2
100
AcDbLine
 10
417.7266423838156
 20
554.44762113665
 30
0.0
 11
443.7266423838156
 21
554.44762113665
 31
0.0
  0
LINE
  5
2A6
330
2A3
100
AcDbEntity
  8
1
  6
Continuous
 62
     2
100
AcDbLine
 10
443.7266423838156
 20
554.44762113665
 30
0.0
 11
464.7266423838156
 21
554.44762113665
 31
0.0
  0
LINE
  5
2A7
330
2A3
100
AcDbEntity
  8
1
  6
Continuous
 62
     2
100
AcDbLine
 10
421.2308589290143
 20
593.4114610364331
 30
0.0
 11
445.2266423838156
 21
551.8495449252966
 31
0.0
  0
LINE
  5
2A8
330
2A3
100
AcDbEntity
  8
1
  6
Continuous
 62
     2
100
AcDbLine
 10
395.2308589290143
 20
593.4114610364331
 30
0.0
 11
419.2266423838156
 21
551.8495449252966
 31
0.0
  0
SOLID
  5
2A9
330
2A3
100
AcDbEntity
  8
1
 62
     2
100
AcDbTrace
 10
407.2266423838156
 20
553.0652699119823
 30
0.0
 11
407.2266423838156
 21
555.8299723613177
 31
0.0
 12
417.7266423838156
 22
554.44762113665
 32
0.0
 13
417.7266423838156
 23
554.44762113665
 33
0.0
  0
SOLID
  5
2AA
330
2A3
100
AcDbEntity
  8
1
 62
     2
100
AcDbTrace
 10
454.2266423838156
 20
555.8299723613177
 30
0.0
 11
454.2266423838156
 21
553.0652699119823
 31
0.0
 12
443.7266423838156
 22
554.44762113665
 32
0.0
 13
443.7266423838156
 23
554.44762113665
 33
0.0
  0
MTEXT
  5
2AB
330
2A3
100
AcDbEntity
  8
1
 62
     7
100
AcDbMText
 10
445.1775795425319
 20
557.44762113665
 30
0.0
 40
10.5
 41
0.0
 71
     7
 72
     1
  1
26
  7
CONVERTER_12
 11
0.9999999999970619
 21
2.424068405545306E-6
 31
0.0
 73
     1
 44
0.60024009603842
  0
ENDBLK
  5
2AD
330
2A3
100
AcDbEntity
  8
0
100
AcDbBlockEnd
  0
BLOCK
  5
2B7
330
2B0
100
AcDbEntity
  8
0
100
AcDbBlockBegin
  2
*D19
 70
     1
 10
0.0
 20
0.0
 30
0.0
  3
*D19
  1

  0
LINE
  5
2B1
330
2B0
100
AcDbEntity
  8
1
  6
Continuous
 62
     2
100
AcDbLine
 10
468.2308589290144
 20
628.161461036433
 30
0.0
 11
468.2308589290144
 21
182.161461036433
 31
0.0
  0
LINE
  5
2B2
330
2B0
100
AcDbEntity
  8
1
  6
Continuous
 62
     2
100
AcDbLine
 10
423.7308589290144
 20
628.161461036433
 30
0.0
 11
471.2308589290144
 21
628.161461036433
 31
0.0
  0
LINE
  5
2B3
330
2B0
100
AcDbEntity
  8
1
  6
Continuous
 62
     2
100
AcDbLine
 10
416.9739703753858
 20
182.161461036433
 30
0.0
 11
471.2308589290144
 21
182.161461036433
 31
0.0
  0
SOLID
  5
2B4
330
2B0
100
AcDbEntity
  8
1
 62
     2
100
AcDbTrace
 10
469.6132101536821
 20
617.661461036433
 30
0.0
 11
466.8485077043467
 21
617.661461036433
 31
0.0
 12
468.2308589290144
 22
628.161461036433
 32
0.0
 13
468.2308589290144
 23
628.161461036433
 33
0.0
  0
SOLID
  5
2B5
330
2B0
100
AcDbEntity
  8
1
 62
     2
100
AcDbTrace
 10
466.8485077043467
 20
192.661461036433
 30
0.0
 11
469.6132101536821
 21
192.661461036433
 31
0.0
 12
468.2308589290144
 22
182.161461036433
 32
0.0
 13
468.2308589290144
 23
182.161461036433
 33
0.0
  0
MTEXT
  5
2B6
330
2B0
100
AcDbEntity
  8
1
 62
     7
100
AcDbMText
 10
465.2308589290144
 20
392.5614610364329
 30
0.0
 40
10.5
 41
0.0
 71
     7
 72
     1
  1
446
  7
CONVERTER_12
 11
0.0
 21
1.0
 31
0.0
 73
     1
 44
0.60024009603842
  0
ENDBLK
  5
2B8
330
2B0
100
AcDbEntity
  8
0
100
AcDbBlockEnd
  0
ENDSEC
  0
SECTION
  2
ENTITIES
  0
INSERT
  5
72
330
1F
100
AcDbEntity
  8
1
100
AcDbBlockReference
  2
V21-2-0AX-13
 10
230.219751930084
 20
587.161461036433
 30
0.0
  0
INSERT
  5
73
330
1F
100
AcDbEntity
  8
1
100
AcDbBlockReference
  2
開示A4
 10
0.0
 20
0.0
 30
0.0
 41
3.0
 42
3.0
 43
3.0
  0
INSERT
  5
74
330
1F
100
AcDbEntity
  8
0
100
AcDbBlockReference
  2
32-12-M2
 10
324.2664755727537
 20
689.2040673785477
 30
0.0
  0
INSERT
  5
75
330
1F
100
AcDbEntity
  8
0
100
AcDbBlockReference
  2
78-167
 10
290.6364940503113
 20
1490.191566552457
 30
0.0
  0
INSERT
  5
76
330
1F
100
AcDbEntity
  8
1
100
AcDbBlockReference
  2
64-7-13-420-M11
 10
116.8241541587042
 20
2247.233715385479
 30
0.0
  0
LINE
  5
245
330
1F
100
AcDbEntity
  8
1
  6
DASH_CENTER
 62
     2
100
AcDbLine
 10
248.2308589290144
 20
628.1614610364331
 30
0.0
 11
248.2308589290144
 21
658.1658730855919
 31
0.0
  0
LINE
  5
246
330
1F
100
AcDbEntity
  8
1
  6
DASH_CENTER
 62
     2
100
AcDbLine
 10
248.2308589290144
 20
628.1614610364331
 30
0.0
 11
272.231413612507
 21
628.1614610364331
 31
0.0
  0
LINE
  5
247
330
1F
100
AcDbEntity
  8
1
  6
DASH_CENTER
 62
     2
100
AcDbLine
 10
248.2308589290144
 20
598.1614610364331
 30
0.0
 11
248.2308589290144
 21
628.1614610364331
 31
0.0
  0
LINE
  5
248
330
1F
100
AcDbEntity
  8
1
  6
DASH_CENTER
 62
     2
100
AcDbLine
 10
398.2308589290144
 20
628.1614610364331
 30
0.0
 11
418.2308589290144
 21
628.1614610364331
 31
0.0
  0
LINE
  5
249
330
1F
100
AcDbEntity
  8
1
  6
DASH_CENTER
 62
     2
100
AcDbLine
 10
399.5706048911699
 20
633.1614610364331
 30
0.0
 11
437.6757226576854
 21
611.1614610364331
 31
0.0
  0
LINE
  5
24A
330
1F
100
AcDbEntity
  8
1
  6
DASH_CENTER
 62
     2
100
AcDbLine
 10
378.7859952003436
 20
611.1614610364331
 30
0.0
 11
416.8911129668588
 21
633.1614610364331
 31
0.0
  0
LINE
  5
24B
330
1F
100
AcDbEntity
  8
1
  6
DASH_CENTER
 62
     2
100
AcDbLine
 10
248.2308589290144
 20
173.161461036433
 30
0.0
 11
248.2308589290144
 21
598.1614610364331
 31
0.0
  0
LINE
  5
24C
330
1F
100
AcDbEntity
  8
0
  6
DASH_CENTER
 62
     2
100
AcDbLine
 10
408.2308589290144
 20
671.1614610364331
 30
0.0
 11
408.2308589290144
 21
173.161461036433
 31
0.0
  0
LINE
  5
24D
330
1F
100
AcDbEntity
  8
1
  6
DASH_CENTER
 62
     2
100
AcDbLine
 10
248.2308589290144
 20
671.1614610364331
 30
0.0
 11
248.2308589290144
 21
658.1658730855919
 31
0.0
  0
LINE
  5
24E
330
1F
100
AcDbEntity
  8
1
  6
DASH_CENTER
 62
     2
100
AcDbLine
 10
226.7308589290144
 20
628.1614610364331
 30
0.0
 11
248.2308589290144
 21
628.1614610364331
 31
0.0
  0
LINE
  5
24F
330
1F
100
AcDbEntity
  8
1
  6
DASH_CENTER
 62
     2
100
AcDbLine
 10
272.231413612507
 20
628.1614610364331
 30
0.0
 11
308.9077408538401
 21
628.1614610364331
 31
0.0
  0
LINE
  5
250
330
1F
100
AcDbEntity
  8
0
  6
Continuous
 62
     7
100
AcDbLine
 10
280.3056606968831
 20
669.1614610364331
 30
0.0
 11
282.3056606968831
 21
671.1614610364331
 31
0.0
  0
LINE
  5
251
330
1F
100
AcDbEntity
  8
0
  6
Continuous
 62
     7
100
AcDbLine
 10
282.3056606968831
 20
671.1614610364331
 30
0.0
 11
284.3056606968831
 21
669.1614610364331
 31
0.0
  0
LINE
  5
252
330
1F
100
AcDbEntity
  8
0
  6
Continuous
 62
     7
100
AcDbLine
 10
284.3056606968831
 20
669.1614610364331
 30
0.0
 11
283.3056606968831
 21
669.1614610364331
 31
0.0
  0
LINE
  5
253
330
1F
100
AcDbEntity
  8
0
  6
Continuous
 62
     7
100
AcDbLine
 10
283.3056606968831
 20
669.1614610364331
 30
0.0
 11
283.3056606968831
 21
665.1614610364331
 31
0.0
  0
LINE
  5
254
330
1F
100
AcDbEntity
  8
0
  6
Continuous
 62
     7
100
AcDbLine
 10
283.3056606968831
 20
665.1614610364331
 30
0.0
 11
281.3056606968831
 21
665.1614610364331
 31
0.0
  0
LINE
  5
255
330
1F
100
AcDbEntity
  8
0
  6
Continuous
 62
     7
100
AcDbLine
 10
281.3056606968831
 20
665.1614610364331
 30
0.0
 11
281.3056606968831
 21
669.1614610364331
 31
0.0
  0
LINE
  5
256
330
1F
100
AcDbEntity
  8
0
  6
Continuous
 62
     7
100
AcDbLine
 10
281.3056606968831
 20
669.1614610364331
 30
0.0
 11
280.3056606968831
 21
669.1614610364331
 31
0.0
  0
LINE
  5
257
330
1F
100
AcDbEntity
  8
1
  6
DASH_CENTER
 62
     2
100
AcDbLine
 10
248.2308589290142
 20
734.5710600752832
 30
0.0
 11
248.2308589290142
 21
812.5710600752827
 31
0.0
  0
LINE
  5
258
330
1F
100
AcDbEntity
  8
1
  6
DASH_CENTER
 62
     2
100
AcDbLine
 10
314.2308589290144
 20
773.571060075283
 30
0.0
 11
209.2308589290145
 21
773.571060075283
 31
0.0
  0
SOLID
  5
259
330
1F
100
AcDbEntity
  8
1
 62
     2
100
AcDbTrace
 10
264.7970815555831
 20
179.8893699090303
 30
0.0
 11
262.4027790005537
 21
178.5070186843627
 31
0.0
 12
258.3499302780685
 22
188.2914610364331
 32
0.0
 13
258.3499302780685
 23
188.2914610364331
 33
0.0
  0
LEADER
  5
25A
330
1F
100
AcDbEntity
  8
1
  6
Continuous
 62
     2
100
AcDbLeader
  3
Standard
 71
     0
 76
     3
 10
258.3499302780685
 20
188.2914610364331
 30
0.0
 10
279.2095955038897
 20
152.161461036433
 30
0.0
 10
316.8997781387183
 20
152.161461036433
 30
0.0
  0
CIRCLE
  5
25B
102
{ACAD_REACTORS
330
25C
102
}
330
1F
100
AcDbEntity
  8
1
 62
     2
100
AcDbCircle
 10
256.890599848036
 20
628.1614610364331
 30
0.0
 40
2.625
  0
HATCH
  5
25C
330
1F
100
AcDbEntity
  8
1
 62
     2
100
AcDbHatch
 10
0.0
 20
0.0
 30
0.0
210
0.0
220
0.0
230
1.0
  2
SOLID
 70
     1
 71
     1
 91
        1
 92
        1
 93
        1
 72
     2
 10
256.890599848036
 20
628.1614610364331
 40
2.625
 50
0.0
 51
360.0
 73
     1
 97
        1
330
25B
 75
     0
 76
     1
 98
        0
  0
LEADER
  5
25D
330
1F
100
AcDbEntity
  8
1
  6
Continuous
 62
     2
100
AcDbLeader
  3
Standard
 71
     0
 76
     3
 10
256.890599848036
 20
628.1614610364331
 30
0.0
 10
276.5205090004833
 20
662.1614610364331
 30
0.0
 10
288.090812393283
 20
662.1614610364331
 30
0.0
  0
MTEXT
  5
25E
330
1F
100
AcDbEntity
  8
1
 62
     7
100
AcDbMText
 10
102.0
 20
89.0
 30
0.0
 40
10.5
 41
0.0
 71
     4
 72
     1
  1
へリューズナシ
  7
CONVERTER_11
 73
     1
 44
0.54545454545455
  0
MTEXT
  5
25F
330
1F
100
AcDbEntity
  8
1
 62
     7
100
AcDbMText
 10
171.0
 20
68.25
 30
0.0
 40
10.5
 41
0.0
 71
     5
 72
     1
  1
ストレート形止水栓
  7
CONVERTER_11
 73
     1
 44
0.54545454545455
  0
MTEXT
  5
261
330
1F
100
AcDbEntity
  8
0
 62
     7
100
AcDbMText
 10
281.25
 20
51.00000000000001
 30
0.0
 40
10.5
 41
0.0
 71
     5
 72
     1
  1
3
  7
CONVERTER_12
 73
     1
 44
0.7202881152461
  0
MTEXT
  5
262
330
1F
100
AcDbEntity
  8
0
 62
     7
100
AcDbMText
 10
255.75
 20
51.00000000000001
 30
0.0
 40
10.5
 41
0.0
 71
     5
 72
     1
  1
1
  7
CONVERTER_12
 73
     1
 44
0.7202881152461
  0
MTEXT
  5
263
330
1F
100
AcDbEntity
  8
1
 62
     7
100
AcDbMText
 10
171.0
 20
42.75
 30
0.0
 40
10.5
 41
0.0
 71
     5
 72
     1
  1
V21JS-X-13X420
  7
CONVERTER_12
 73
     1
 44
0.90036014405762
  0
MTEXT
  5
264
330
1F
100
AcDbEntity
  8
1
 62
     7
100
AcDbMText
 10
102.0
 20
115.0
 30
0.0
 40
10.5
 41
0.0
 71
     4
 72
     1
  1
JIS
  7
CONVERTER_12
 73
     1
 44
1.32052821128451
  0
MTEXT
  5
265
330
1F
100
AcDbEntity
  8
0
 62
     7
100
AcDbMText
 10
300.554686821304
 20
161.161461036433
 30
0.0
 40
10.5
 41
0.0
 71
     5
 72
     1
  1
R1/2
  7
CONVERTER_12
 73
     1
 44
1.32052821128451
  0
MTEXT
  5
266
330
1F
100
AcDbEntity
  8
1
 62
     7
100
AcDbMText
 10
102.0
 20
102.0
 30
0.0
 40
10.5
 41
0.0
 71
     4
 72
     1
  1
共用形
  7
CONVERTER_11
 73
     1
 44
0.54545454545455
  0
DIMENSION
  5
272
330
1F
100
AcDbEntity
  8
0
100
AcDbDimension
  2
*D13
 10
305.2308589290145
 20
554.44762113665
 30
0.0
 11
347.2308589290144
 21
562.69762113665
 31
0.0
 70
    32
  1
57リフト5
 71
     5
 42
-1.0
 53
0.00013888888889
  3
ME10_DIM_10
100
AcDbAlignedDimension
 13
248.2308589290144
 23
598.1614610364331
 33
0.0
 14
305.2308589290145
 24
628.1614610364331
 34
0.0
100
AcDbRotatedDimension
  0
DIMENSION
  5
27F
330
1F
100
AcDbEntity
  8
1
100
AcDbDimension
  2
*D14
 10
236.7308589290144
 20
692.1614610364331
 30
0.0
 11
248.2308589290144
 21
700.4114610364331
 31
0.0
 70
    33
  1
<>
 71
     5
 42
-1.0
 53
0.00013888888889
  3
ME10_DIM_11
100
AcDbAlignedDimension
 13
259.7308589290144
 23
660.9572925597458
 33
0.0
 14
236.7308589290144
 24
660.9572925597458
 34
0.0
  0
DIMENSION
  5
28A
330
1F
100
AcDbEntity
  8
1
100
AcDbDimension
  2
*D15
 10
468.2308589290144
 20
628.1614610364331
 30
0.0
 11
459.9808589290144
 21
643.1614610364329
 31
0.0
 70
    32
  1
<>
 71
     5
 42
-1.0
 53
90.0
  3
ME10_DIM_12
100
AcDbAlignedDimension
 13
420.5630184952137
 23
658.1614610364329
 33
0.0
 14
418.2308589290144
 24
628.1614610364331
 34
0.0
 50
90.0
100
AcDbRotatedDimension
  0
DIMENSION
  5
295
330
1F
100
AcDbEntity
  8
1
100
AcDbDimension
  2
*D16
 10
378.2308589290144
 20
152.161461036433
 30
0.0
 11
408.2308589290144
 21
160.411461036433
 31
0.0
 70
    32
  1
60
 71
     5
 42
-1.0
 53
0.00013888888889
  3
ME10_DIM_13
100
AcDbAlignedDimension
 13
438.2308589290144
 23
200.8958318299618
 33
0.0
 14
378.2308589290144
 24
200.8958318299618
 34
0.0
100
AcDbRotatedDimension
  0
DIMENSION
  5
2A2
330
1F
100
AcDbEntity
  8
1
100
AcDbDimension
  2
*D17
 10
348.2308589290144
 20
216.8958318299618
 30
0.0
 11
339.9808589290144
 21
208.8958318299618
 31
0.0
 70
    32
  1
<>
 71
     5
 42
-1.0
 53
90.0
  3
ME10_DIM_14
100
AcDbAlignedDimension
 13
378.2308589290144
 23
200.8958318299618
 33
0.0
 14
396.026690452327
 24
216.8958318299618
 34
0.0
 50
90.0
100
AcDbRotatedDimension
  0
DIMENSION
  5
2AF
330
1F
100
AcDbEntity
  8
1
100
AcDbDimension
  2
*D18
 10
417.7266423838156
 20
554.44762113665
 30
0.0
 11
453.0525795425319
 21
562.69762113665
 31
0.0
 70
    33
  1
<>
 71
     5
 42
-1.0
 52
120.0
 53
0.00013888888889
  3
ME10_DIM_15
100
AcDbAlignedDimension
 13
421.2308589290143
 23
593.4114610364331
 33
0.0
 14
395.2308589290144
 24
593.4114610364331
 34
0.0
  0
DIMENSION
  5
2BA
330
1F
100
AcDbEntity
  8
1
100
AcDbDimension
  2
*D19
 10
468.2308589290144
 20
628.161461036433
 30
0.0
 11
459.9808589290144
 21
405.1614610364329
 31
0.0
 70
    32
  1
<>
 71
     5
 42
-1.0
 53
90.0
  3
ME10_DIM_16
100
AcDbAlignedDimension
 13
416.9739703753858
 23
182.161461036433
 33
0.0
 14
423.7308589290144
 24
628.1614610364329
 34
0.0
 50
90.0
100
AcDbRotatedDimension
  0
ENDSEC
  0
SECTION
  2
OBJECTS
  0
DICTIONARY
  5
C
330
0
100
AcDbDictionary
281
     1
  3
ACAD_GROUP
350
D
  3
ACAD_LAYOUT
350
1A
  3
ACAD_MATERIAL
350
3B
  3
ACAD_MLEADERSTYLE
350
2BD
  3
ACAD_MLINESTYLE
350
17
  3
ACAD_PLOTSETTINGS
350
19
  3
ACAD_PLOTSTYLENAME
350
E
  3
ACAD_VISUALSTYLE
350
2A
  3
AcDbVariableDictionary
350
2BB
  0
DICTIONARY
  5
D
102
{ACAD_REACTORS
330
C
102
}
330
C
100
AcDbDictionary
281
     1
  0
DICTIONARY
  5
1A
102
{ACAD_REACTORS
330
C
102
}
330
C
100
AcDbDictionary
281
     1
  3
Layout1
350
1E
  3
Layout2
350
26
  3
Model
350
22
  0
DICTIONARY
  5
3B
102
{ACAD_REACTORS
330
C
102
}
330
C
100
AcDbDictionary
281
     1
  3
ByBlock
350
3D
  3
ByLayer
350
3C
  3
Global
350
3E
  0
DICTIONARY
  5
2BD
102
{ACAD_REACTORS
330
C
102
}
330
C
100
AcDbDictionary
281
     1
  0
DICTIONARY
  5
17
102
{ACAD_REACTORS
330
C
102
}
330
C
100
AcDbDictionary
281
     1
  3
Standard
350
18
  0
DICTIONARY
  5
19
102
{ACAD_REACTORS
330
C
102
}
330
C
100
AcDbDictionary
281
     1
  0
ACDBDICTIONARYWDFLT
  5
E
102
{ACAD_REACTORS
330
C
102
}
330
C
100
AcDbDictionary
281
     1
  3
Normal
350
F
100
AcDbDictionaryWithDefault
340
F
  0
DICTIONARY
  5
2A
102
{ACAD_REACTORS
330
C
102
}
330
C
100
AcDbDictionary
281
     1
  3
2dWireframe
350
2F
  3
3D Hidden
350
31
  3
3dWireframe
350
30
  3
Basic
350
32
  3
Brighten
350
36
  3
ColorChange
350
3A
  3
Conceptual
350
34
  3
Dim
350
35
  3
Facepattern
350
39
  3
Flat
350
2B
  3
FlatWithEdges
350
2C
  3
Gouraud
350
2D
  3
GouraudWithEdges
350
2E
  3
Linepattern
350
38
  3
Realistic
350
33
  3
Thicken
350
37
  0
DICTIONARY
  5
2BB
102
{ACAD_REACTORS
330
C
102
}
330
C
100
AcDbDictionary
281
     1
  3
DIMASSOC
350
2BE
  3
HIDETEXT
350
2BF
  0
LAYOUT
  5
1E
102
{ACAD_REACTORS
330
1A
102
}
330
1A
100
AcDbPlotSettings
  1

  2
none_device
  4

  6

 40
0.0
 41
0.0
 42
0.0
 43
0.0
 44
0.0
 45
0.0
 46
0.0
 47
0.0
 48
0.0
 49
0.0
140
0.0
141
0.0
142
1.0
143
1.0
 70
   688
 72
     0
 73
     0
 74
     5
  7

 75
    16
147
1.0
148
0.0
149
0.0
100
AcDbLayout
  1
Layout1
 70
     1
 71
     1
 10
0.0
 20
0.0
 11
12.0
 21
9.0
 12
0.0
 22
0.0
 32
0.0
 14
1.00000000000000E+20
 24
1.00000000000000E+20
 34
1.00000000000000E+20
 15
-1.00000000000000E+20
 25
-1.00000000000000E+20
 35
-1.00000000000000E+20
146
0.0
 13
0.0
 23
0.0
 33
0.0
 16
1.0
 26
0.0
 36
0.0
 17
0.0
 27
1.0
 37
0.0
 76
     0
330
1B
  0
LAYOUT
  5
26
102
{ACAD_REACTORS
330
1A
102
}
330
1A
100
AcDbPlotSettings
  1

  2
none_device
  4

  6

 40
0.0
 41
0.0
 42
0.0
 43
0.0
 44
0.0
 45
0.0
 46
0.0
 47
0.0
 48
0.0
 49
0.0
140
0.0
141
0.0
142
1.0
143
1.0
 70
   688
 72
     0
 73
     0
 74
     5
  7

 75
    16
147
1.0
148
0.0
149
0.0
100
AcDbLayout
  1
Layout2
 70
     1
 71
     2
 10
0.0
 20
0.0
 11
0.0
 21
0.0
 12
0.0
 22
0.0
 32
0.0
 14
0.0
 24
0.0
 34
0.0
 15
0.0
 25
0.0
 35
0.0
146
0.0
 13
0.0
 23
0.0
 33
0.0
 16
1.0
 26
0.0
 36
0.0
 17
0.0
 27
1.0
 37
0.0
 76
     0
330
23
  0
LAYOUT
  5
22
102
{ACAD_REACTORS
330
1A
102
}
330
1A
100
AcDbPlotSettings
  1

  2
none_device
  4

  6

 40
0.0
 41
0.0
 42
0.0
 43
0.0
 44
0.0
 45
0.0
 46
0.0
 47
0.0
 48
0.0
 49
0.0
140
0.0
141
0.0
142
1.0
143
1.0
 70
  1712
 72
     0
 73
     0
 74
     0
  7

 75
     0
147
1.0
148
0.0
149
0.0
100
AcDbLayout
  1
Model
 70
     1
 71
     0
 10
0.0
 20
0.0
 11
12.0
 21
9.0
 12
0.0
 22
0.0
 32
0.0
 14
0.0
 24
-0.00000000000001
 34
0.0
 15
630.0000000000003
 25
891.0000000000003
 35
0.0
146
0.0
 13
0.0
 23
0.0
 33
0.0
 16
1.0
 26
0.0
 36
0.0
 17
0.0
 27
1.0
 37
0.0
 76
     0
330
1F
331
29
  0
MATERIAL
  5
3D
102
{ACAD_REACTORS
330
3B
102
}
102
{ACAD_XDICTIONARY
360
2E2
102
}
330
3B
100
AcDbMaterial
  1
ByBlock
  0
MATERIAL
  5
3C
102
{ACAD_REACTORS
330
3B
102
}
102
{ACAD_XDICTIONARY
360
2E0
102
}
330
3B
100
AcDbMaterial
  1
ByLayer
  0
MATERIAL
  5
3E
102
{ACAD_REACTORS
330
3B
102
}
102
{ACAD_XDICTIONARY
360
2E4
102
}
330
3B
100
AcDbMaterial
  1
Global
  0
MLINESTYLE
  5
18
102
{ACAD_REACTORS
330
17
102
}
330
17
100
AcDbMlineStyle
  2
Standard
 70
     0
  3

 62
   256
 51
90.0
 52
90.0
 71
     2
 49
0.5
 62
   256
  6
BYLAYER
 49
-0.5
 62
   256
  6
BYLAYER
  0
ACDBPLACEHOLDER
  5
F
102
{ACAD_REACTORS
330
E
102
}
330
E
  0
VISUALSTYLE
  5
2F
102
{ACAD_REACTORS
330
2A
102
}
102
{ACAD_XDICTIONARY
360
2C8
102
}
330
2A
100
AcDbVisualStyle
  2
2dWireframe
 70
     4
 71
     0
 72
     2
 73
     0
 90
        0
 40
-0.6
 41
-30.0
 62
     5
 63
     7
 74
     1
 91
        4
 64
     7
 65
   257
 75
     1
175
     1
 42
1.0
 92
        0
 66
   257
 43
1.0
 76
     1
 77
     6
 78
     2
 67
     7
 79
     5
170
     0
171
     0
290
     0
174
     0
 93
        1
 44
0.0
173
     0
291
     0
 45
0.0
1001
ACAD
1000
AcDbSavedByObjectVersion
1070
     0
  0
VISUALSTYLE
  5
31
102
{ACAD_REACTORS
330
2A
102
}
102
{ACAD_XDICTIONARY
360
2CC
102
}
330
2A
100
AcDbVisualStyle
  2
3D Hidden
 70
     6
 71
     1
 72
     2
 73
     2
 90
        0
 40
-0.6
 41
-30.0
 62
     5
 63
     7
 74
     2
 91
        2
 64
     7
 65
   257
 75
     2
175
     1
 42
40.0
 92
        0
 66
   257
 43
1.0
 76
     1
 77
     6
 78
     2
 67
     7
 79
     3
170
     0
171
     0
290
     0
174
     0
 93
        1
 44
0.0
173
     0
291
     0
 45
0.0
1001
ACAD
1000
AcDbSavedByObjectVersion
1070
     0
  0
VISUALSTYLE
  5
30
102
{ACAD_REACTORS
330
2A
102
}
102
{ACAD_XDICTIONARY
360
2CA
102
}
330
2A
100
AcDbVisualStyle
  2
3dWireframe
 70
     5
 71
     0
 72
     2
 73
     0
 90
        0
 40
-0.6
 41
-30.0
 62
     5
 63
     7
 74
     1
 91
        4
 64
     7
 65
   257
 75
     1
175
     1
 42
1.0
 92
        0
 66
   257
 43
1.0
 76
     1
 77
     6
 78
     2
 67
     7
 79
     5
170
     0
171
     0
290
     0
174
     0
 93
        1
 44
0.0
173
     0
291
     0
 45
0.0
1001
ACAD
1000
AcDbSavedByObjectVersion
1070
     0
  0
VISUALSTYLE
  5
32
102
{ACAD_REACTORS
330
2A
102
}
102
{ACAD_XDICTIONARY
360
2CE
102
}
330
2A
100
AcDbVisualStyle
  2
Basic
 70
     7
 71
     1
 72
     0
 73
     1
 90
        0
 40
-0.6
 41
-30.0
 62
     5
 63
     7
 74
     0
 91
        4
 64
     7
 65
   257
 75
     1
175
     1
 42
1.0
 92
        8
 66
     7
 43
1.0
 76
     1
 77
     6
 78
     2
 67
     7
 79
     5
170
     0
171
     0
290
     0
174
     0
 93
        1
 44
0.0
173
     0
291
     1
 45
0.0
1001
ACAD
1000
AcDbSavedByObjectVersion
1070
     0
  0
VISUALSTYLE
  5
36
102
{ACAD_REACTORS
330
2A
102
}
102
{ACAD_XDICTIONARY
360
2D6
102
}
330
2A
100
AcDbVisualStyle
  2
Brighten
 70
    12
 71
     2
 72
     2
 73
     0
 90
        0
 40
-0.6
 41
-30.0
 62
     5
 63
     7
 74
     1
 91
        4
 64
     7
 65
   257
 75
     1
175
     1
 42
1.0
 92
        8
 66
     7
 43
1.0
 76
     1
 77
     6
 78
     2
 67
     7
 79
     5
170
     0
171
     0
290
     0
174
     0
 93
        1
 44
50.0
173
     0
291
     1
 45
0.0
1001
ACAD
1000
AcDbSavedByObjectVersion
1070
     0
  0
VISUALSTYLE
  5
3A
102
{ACAD_REACTORS
330
2A
102
}
102
{ACAD_XDICTIONARY
360
2DE
102
}
330
2A
100
AcDbVisualStyle
  2
ColorChange
 70
    16
 71
     2
 72
     2
 73
     3
 90
        0
 40
-0.6
 41
-30.0
 62
     5
 63
     8
 74
     1
 91
        4
 64
     7
 65
   257
 75
     1
175
     1
 42
1.0
 92
        8
 66
     8
 43
1.0
 76
     1
 77
     6
 78
     2
 67
     7
 79
     5
170
     0
171
     0
290
     0
174
     0
 93
        1
 44
0.0
173
     0
291
     1
 45
0.0
1001
ACAD
1000
AcDbSavedByObjectVersion
1070
     0
  0
VISUALSTYLE
  5
34
102
{ACAD_REACTORS
330
2A
102
}
102
{ACAD_XDICTIONARY
360
2D2
102
}
330
2A
100
AcDbVisualStyle
  2
Conceptual
 70
     9
 71
     3
 72
     2
 73
     0
 90
        0
 40
-0.6
 41
-30.0
 62
     5
 63
     7
 74
     2
 91
        2
 64
     7
 65
   257
 75
     1
175
     1
 42
40.0
 92
        8
 66
     7
 43
1.0
 76
     1
 77
     6
 78
     2
 67
     7
 79
     3
170
     0
171
     0
290
     0
174
     0
 93
        1
 44
0.0
173
     0
291
     0
 45
0.0
1001
ACAD
1000
AcDbSavedByObjectVersion
1070
     0
  0
VISUALSTYLE
  5
35
102
{ACAD_REACTORS
330
2A
102
}
102
{ACAD_XDICTIONARY
360
2D4
102
}
330
2A
100
AcDbVisualStyle
  2
Dim
 70
    11
 71
     2
 72
     2
 73
     0
 90
        0
 40
-0.6
 41
-30.0
 62
     5
 63
     7
 74
     1
 91
        4
 64
     7
 65
   257
 75
     1
175
     1
 42
1.0
 92
        8
 66
     7
 43
1.0
 76
     1
 77
     6
 78
     2
 67
     7
 79
     5
170
     0
171
     0
290
     0
174
     0
 93
        1
 44
-50.0
173
     0
291
     1
 45
0.0
1001
ACAD
1000
AcDbSavedByObjectVersion
1070
     0
  0
VISUALSTYLE
  5
39
102
{ACAD_REACTORS
330
2A
102
}
102
{ACAD_XDICTIONARY
360
2DC
102
}
330
2A
100
AcDbVisualStyle
  2
Facepattern
 70
    15
 71
     2
 72
     2
 73
     0
 90
        0
 40
-0.6
 41
-30.0
 62
     5
 63
     7
 74
     1
 91
        4
 64
     7
 65
   257
 75
     1
175
     1
 42
1.0
 92
        8
 66
     7
 43
1.0
 76
     1
 77
     6
 78
     2
 67
     7
 79
     5
170
     0
171
     0
290
     0
174
     0
 93
        1
 44
0.0
173
     0
291
     1
 45
0.0
1001
ACAD
1000
AcDbSavedByObjectVersion
1070
     0
  0
VISUALSTYLE
  5
2B
102
{ACAD_REACTORS
330
2A
102
}
102
{ACAD_XDICTIONARY
360
2C0
102
}
330
2A
100
AcDbVisualStyle
  2
Flat
 70
     0
 71
     2
 72
     1
 73
     1
 90
        2
 40
-0.6
 41
30.0
 62
     5
 63
     7
 74
     0
 91
        4
 64
     7
 65
   257
 75
     1
175
     1
 42
1.0
 92
        8
 66
     7
 43
1.0
 76
     1
 77
     6
 78
     2
 67
     7
 79
     5
170
     0
171
     0
290
     0
174
     0
 93
       13
 44
0.0
173
     0
291
     1
 45
0.0
1001
ACAD
1000
AcDbSavedByObjectVersion
1070
     0
  0
VISUALSTYLE
  5
2C
102
{ACAD_REACTORS
330
2A
102
}
102
{ACAD_XDICTIONARY
360
2C2
102
}
330
2A
100
AcDbVisualStyle
  2
FlatWithEdges
 70
     1
 71
     2
 72
     1
 73
     1
 90
        2
 40
-0.6
 41
30.0
 62
     5
 63
     7
 74
     1
 91
        4
 64
     7
 65
   257
 75
     1
175
     1
 42
1.0
 92
        0
 66
   257
 43
1.0
 76
     1
 77
     6
 78
     2
 67
     7
 79
     5
170
     0
171
     0
290
     0
174
     0
 93
       13
 44
0.0
173
     0
291
     1
 45
0.0
1001
ACAD
1000
AcDbSavedByObjectVersion
1070
     0
  0
VISUALSTYLE
  5
2D
102
{ACAD_REACTORS
330
2A
102
}
102
{ACAD_XDICTIONARY
360
2C4
102
}
330
2A
100
AcDbVisualStyle
  2
Gouraud
 70
     2
 71
     2
 72
     2
 73
     1
 90
        2
 40
-0.6
 41
30.0
 62
     5
 63
     7
 74
     0
 91
        4
 64
     7
 65
   257
 75
     1
175
     1
 42
1.0
 92
        0
 66
     7
 43
1.0
 76
     1
 77
     6
 78
     2
 67
     7
 79
     5
170
     0
171
     0
290
     0
174
     0
 93
       13
 44
0.0
173
     0
291
     1
 45
0.0
1001
ACAD
1000
AcDbSavedByObjectVersion
1070
     0
  0
VISUALSTYLE
  5
2E
102
{ACAD_REACTORS
330
2A
102
}
102
{ACAD_XDICTIONARY
360
2C6
102
}
330
2A
100
AcDbVisualStyle
  2
GouraudWithEdges
 70
     3
 71
     2
 72
     2
 73
     1
 90
        2
 40
-0.6
 41
30.0
 62
     5
 63
     7
 74
     1
 91
        4
 64
     7
 65
   257
 75
     1
175
     1
 42
1.0
 92
        0
 66
   257
 43
1.0
 76
     1
 77
     6
 78
     2
 67
     7
 79
     5
170
     0
171
     0
290
     0
174
     0
 93
       13
 44
0.0
173
     0
291
     1
 45
0.0
1001
ACAD
1000
AcDbSavedByObjectVersion
1070
     0
  0
VISUALSTYLE
  5
38
102
{ACAD_REACTORS
330
2A
102
}
102
{ACAD_XDICTIONARY
360
2DA
102
}
330
2A
100
AcDbVisualStyle
  2
Linepattern
 70
    14
 71
     2
 72
     2
 73
     0
 90
        0
 40
-0.6
 41
-30.0
 62
     5
 63
     7
 74
     1
 91
        4
 64
     7
 65
   257
 75
     7
175
     7
 42
1.0
 92
        8
 66
     7
 43
1.0
 76
     1
 77
     6
 78
     2
 67
     7
 79
     5
170
     0
171
     0
290
     0
174
     0
 93
        1
 44
0.0
173
     0
291
     1
 45
0.0
1001
ACAD
1000
AcDbSavedByObjectVersion
1070
     0
  0
VISUALSTYLE
  5
33
102
{ACAD_REACTORS
330
2A
102
}
102
{ACAD_XDICTIONARY
360
2D0
102
}
330
2A
100
AcDbVisualStyle
  2
Realistic
 70
     8
 71
     2
 72
     2
 73
     0
 90
        0
 40
-0.6
 41
-30.0
 62
     5
 63
     7
 74
     1
 91
        0
 64
     7
 65
   257
 75
     1
175
     1
 42
1.0
 92
        8
 66
     8
 43
1.0
 76
     1
 77
     6
 78
     2
 67
     7
 79
     5
170
     0
171
     0
290
     0
174
     0
 93
       13
 44
0.0
173
     0
291
     0
 45
0.0
1001
ACAD
1000
AcDbSavedByObjectVersion
1070
     0
  0
VISUALSTYLE
  5
37
102
{ACAD_REACTORS
330
2A
102
}
102
{ACAD_XDICTIONARY
360
2D8
102
}
330
2A
100
AcDbVisualStyle
  2
Thicken
 70
    13
 71
     2
 72
     2
 73
     0
 90
        0
 40
-0.6
 41
-30.0
 62
     5
 63
     7
 74
     1
 91
        4
 64
     7
 65
   257
 75
     1
175
     1
 42
1.0
 92
       12
 66
     7
 43
1.0
 76
     1
 77
     6
 78
     2
 67
     7
 79
     5
170
     0
171
     0
290
     0
174
     0
 93
        1
 44
0.0
173
     0
291
     1
 45
0.0
1001
ACAD
1000
AcDbSavedByObjectVersion
1070
     0
  0
DICTIONARYVAR
  5
2BE
102
{ACAD_REACTORS
330
2BB
102
}
330
2BB
100
DictionaryVariables
280
     0
  1
2
  0
DICTIONARYVAR
  5
2BF
102
{ACAD_REACTORS
330
2BB
102
}
330
2BB
100
DictionaryVariables
280
     0
  1
1
  0
DICTIONARY
  5
2E2
330
3D
100
AcDbDictionary
280
     1
281
     1
  3
ACAD_XREC_ROUNDTRIP
360
2E3
  0
DICTIONARY
  5
2E0
330
3C
100
AcDbDictionary
280
     1
281
     1
  3
ACAD_XREC_ROUNDTRIP
360
2E1
  0
DICTIONARY
  5
2E4
330
3E
100
AcDbDictionary
280
     1
281
     1
  3
ACAD_XREC_ROUNDTRIP
360
2E5
  0
DICTIONARY
  5
2C8
330
2F
100
AcDbDictionary
280
     1
281
     1
  3
ACAD_XREC_ROUNDTRIP
360
2C9
  0
DICTIONARY
  5
2CC
330
31
100
AcDbDictionary
280
     1
281
     1
  3
ACAD_XREC_ROUNDTRIP
360
2CD
  0
DICTIONARY
  5
2CA
330
30
100
AcDbDictionary
280
     1
281
     1
  3
ACAD_XREC_ROUNDTRIP
360
2CB
  0
DICTIONARY
  5
2CE
330
32
100
AcDbDictionary
280
     1
281
     1
  3
ACAD_XREC_ROUNDTRIP
360
2CF
  0
DICTIONARY
  5
2D6
330
36
100
AcDbDictionary
280
     1
281
     1
  3
ACAD_XREC_ROUNDTRIP
360
2D7
  0
DICTIONARY
  5
2DE
330
3A
100
AcDbDictionary
280
     1
281
     1
  3
ACAD_XREC_ROUNDTRIP
360
2DF
  0
DICTIONARY
  5
2D2
330
34
100
AcDbDictionary
280
     1
281
     1
  3
ACAD_XREC_ROUNDTRIP
360
2D3
  0
DICTIONARY
  5
2D4
330
35
100
AcDbDictionary
280
     1
281
     1
  3
ACAD_XREC_ROUNDTRIP
360
2D5
  0
DICTIONARY
  5
2DC
330
39
100
AcDbDictionary
280
     1
281
     1
  3
ACAD_XREC_ROUNDTRIP
360
2DD
  0
DICTIONARY
  5
2C0
330
2B
100
AcDbDictionary
280
     1
281
     1
  3
ACAD_XREC_ROUNDTRIP
360
2C1
  0
DICTIONARY
  5
2C2
330
2C
100
AcDbDictionary
280
     1
281
     1
  3
ACAD_XREC_ROUNDTRIP
360
2C3
  0
DICTIONARY
  5
2C4
330
2D
100
AcDbDictionary
280
     1
281
     1
  3
ACAD_XREC_ROUNDTRIP
360
2C5
  0
DICTIONARY
  5
2C6
330
2E
100
AcDbDictionary
280
     1
281
     1
  3
ACAD_XREC_ROUNDTRIP
360
2C7
  0
DICTIONARY
  5
2DA
330
38
100
AcDbDictionary
280
     1
281
     1
  3
ACAD_XREC_ROUNDTRIP
360
2DB
  0
DICTIONARY
  5
2D0
330
33
100
AcDbDictionary
280
     1
281
     1
  3
ACAD_XREC_ROUNDTRIP
360
2D1
  0
DICTIONARY
  5
2D8
330
37
100
AcDbDictionary
280
     1
281
     1
  3
ACAD_XREC_ROUNDTRIP
360
2D9
  0
XRECORD
  5
2E3
102
{ACAD_REACTORS
330
2E2
102
}
330
2E2
100
AcDbXrecord
280
     1
102
MATERIAL
148
0.0
149
0.0
149
0.0
 93
        0
 94
      127
282
     0
 72
     1
 77
     1
171
     1
175
     1
179
     1
273
     0
  0
XRECORD
  5
2E1
102
{ACAD_REACTORS
330
2E0
102
}
330
2E0
100
AcDbXrecord
280
     1
102
MATERIAL
148
0.0
149
0.0
149
0.0
 93
        0
 94
      127
282
     0
 72
     1
 77
     1
171
     1
175
     1
179
     1
273
     0
  0
XRECORD
  5
2E5
102
{ACAD_REACTORS
330
2E4
102
}
330
2E4
100
AcDbXrecord
280
     1
102
MATERIAL
148
0.0
149
0.0
149
0.0
 93
        0
 94
      127
282
     0
 72
     1
 77
     1
171
     1
175
     1
179
     1
273
     0
  0
XRECORD
  5
2C9
102
{ACAD_REACTORS
330
2C8
102
}
330
2C8
100
AcDbXrecord
280
     1
102
RTVSPropertyOp0
 70
     1
102
RTVSPropertyOp1
 70
     1
102
RTVSPropertyOp2
 70
     1
102
RTVSPropertyOp3
 70
     1
102
RTVSPropertyOp4
 70
     1
102
RTVSPropertyOp5
 70
     1
102
RTVSPropertyOp6
 70
     1
102
RTVSPropertyOp7
 70
     1
102
RTVSPropertyOp8
 70
     1
102
RTVSPropertyOp9
 70
     1
102
RTVSPropertyOp10
 70
     1
102
RTVSPropertyOp11
 70
     1
102
RTVSPropertyOp12
 70
     1
102
RTVSPropertyOp13
 70
     1
102
RTVSPropertyOp14
 70
     1
102
RTVSPropertyOp15
 70
     1
102
RTVSPropertyOp16
 70
     1
102
RTVSPropertyOp17
 70
     1
102
RTVSPropertyOp18
 70
     1
102
RTVSPropertyOp19
 70
     1
102
RTVSPropertyOp20
 70
     1
102
RTVSPropertyOp21
 70
     1
102
RTVSPropertyOp22
 70
     1
102
RTVSPropertyOp23
 70
     1
102
RTVSPropertyOp24
 70
     1
102
RTVSPropertyOp25
 70
     1
102
RTVSPropertyOp26
 70
     1
102
RTVSPropertyOp27
 70
     1
102
RTVSPropertyOp28
 70
     1
102
RTVSPropertyOp29
 70
     1
102
RTVSPropertyOp30
 70
     1
102
RTVSPropertyOp31
 70
     1
102
RTVSPropertyOp32
 70
     1
  0
XRECORD
  5
2CD
102
{ACAD_REACTORS
330
2CC
102
}
330
2CC
100
AcDbXrecord
280
     1
102
RTVSPropertyOp0
 70
     1
102
RTVSPropertyOp1
 70
     1
102
RTVSPropertyOp2
 70
     1
102
RTVSPropertyOp3
 70
     1
102
RTVSPropertyOp4
 70
     1
102
RTVSPropertyOp5
 70
     1
102
RTVSPropertyOp6
 70
     1
102
RTVSPropertyOp7
 70
     1
102
RTVSPropertyOp8
 70
     1
102
RTVSPropertyOp9
 70
     1
102
RTVSPropertyOp10
 70
     1
102
RTVSPropertyOp11
 70
     1
102
RTVSPropertyOp12
 70
     1
102
RTVSPropertyOp13
 70
     1
102
RTVSPropertyOp14
 70
     1
102
RTVSPropertyOp15
 70
     1
102
RTVSPropertyOp16
 70
     1
102
RTVSPropertyOp17
 70
     1
102
RTVSPropertyOp18
 70
     1
102
RTVSPropertyOp19
 70
     1
102
RTVSPropertyOp20
 70
     1
102
RTVSPropertyOp21
 70
     1
102
RTVSPropertyOp22
 70
     1
102
RTVSPropertyOp23
 70
     1
102
RTVSPropertyOp24
 70
     1
102
RTVSPropertyOp25
 70
     1
102
RTVSPropertyOp26
 70
     1
102
RTVSPropertyOp27
 70
     1
102
RTVSPropertyOp28
 70
     1
102
RTVSPropertyOp29
 70
     1
102
RTVSPropertyOp30
 70
     1
102
RTVSPropertyOp31
 70
     1
102
RTVSPropertyOp32
 70
     1
  0
XRECORD
  5
2CB
102
{ACAD_REACTORS
330
2CA
102
}
330
2CA
100
AcDbXrecord
280
     1
102
RTVSPropertyOp0
 70
     1
102
RTVSPropertyOp1
 70
     1
102
RTVSPropertyOp2
 70
     1
102
RTVSPropertyOp3
 70
     1
102
RTVSPropertyOp4
 70
     1
102
RTVSPropertyOp5
 70
     1
102
RTVSPropertyOp6
 70
     1
102
RTVSPropertyOp7
 70
     1
102
RTVSPropertyOp8
 70
     1
102
RTVSPropertyOp9
 70
     1
102
RTVSPropertyOp10
 70
     1
102
RTVSPropertyOp11
 70
     1
102
RTVSPropertyOp12
 70
     1
102
RTVSPropertyOp13
 70
     1
102
RTVSPropertyOp14
 70
     1
102
RTVSPropertyOp15
 70
     1
102
RTVSPropertyOp16
 70
     1
102
RTVSPropertyOp17
 70
     1
102
RTVSPropertyOp18
 70
     1
102
RTVSPropertyOp19
 70
     1
102
RTVSPropertyOp20
 70
     1
102
RTVSPropertyOp21
 70
     1
102
RTVSPropertyOp22
 70
     1
102
RTVSPropertyOp23
 70
     1
102
RTVSPropertyOp24
 70
     1
102
RTVSPropertyOp25
 70
     1
102
RTVSPropertyOp26
 70
     1
102
RTVSPropertyOp27
 70
     1
102
RTVSPropertyOp28
 70
     1
102
RTVSPropertyOp29
 70
     1
102
RTVSPropertyOp30
 70
     1
102
RTVSPropertyOp31
 70
     1
102
RTVSPropertyOp32
 70
     1
  0
XRECORD
  5
2CF
102
{ACAD_REACTORS
330
2CE
102
}
330
2CE
100
AcDbXrecord
280
     1
102
RTVSPropertyOp0
 70
     1
102
RTVSPropertyOp1
 70
     1
102
RTVSPropertyOp2
 70
     1
102
RTVSPropertyOp3
 70
     1
102
RTVSPropertyOp4
 70
     1
102
RTVSPropertyOp5
 70
     1
102
RTVSPropertyOp6
 70
     1
102
RTVSPropertyOp7
 70
     1
102
RTVSPropertyOp8
 70
     1
102
RTVSPropertyOp9
 70
     1
102
RTVSPropertyOp10
 70
     1
102
RTVSPropertyOp11
 70
     1
102
RTVSPropertyOp12
 70
     1
102
RTVSPropertyOp13
 70
     1
102
RTVSPropertyOp14
 70
     1
102
RTVSPropertyOp15
 70
     1
102
RTVSPropertyOp16
 70
     1
102
RTVSPropertyOp17
 70
     1
102
RTVSPropertyOp18
 70
     1
102
RTVSPropertyOp19
 70
     1
102
RTVSPropertyOp20
 70
     1
102
RTVSPropertyOp21
 70
     1
102
RTVSPropertyOp22
 70
     1
102
RTVSPropertyOp23
 70
     1
102
RTVSPropertyOp24
 70
     1
102
RTVSPropertyOp25
 70
     1
102
RTVSPropertyOp26
 70
     1
102
RTVSPropertyOp27
 70
     1
102
RTVSPropertyOp28
 70
     1
102
RTVSPropertyOp29
 70
     1
102
RTVSPropertyOp30
 70
     1
102
RTVSPropertyOp31
 70
     1
102
RTVSPropertyOp32
 70
     1
  0
XRECORD
  5
2D7
102
{ACAD_REACTORS
330
2D6
102
}
330
2D6
100
AcDbXrecord
280
     1
102
RTVSPropertyOp0
 70
     1
102
RTVSPropertyOp1
 70
     1
102
RTVSPropertyOp2
 70
     1
102
RTVSPropertyOp3
 70
     1
102
RTVSPropertyOp4
 70
     1
102
RTVSPropertyOp5
 70
     1
102
RTVSPropertyOp6
 70
     1
102
RTVSPropertyOp7
 70
     1
102
RTVSPropertyOp8
 70
     1
102
RTVSPropertyOp9
 70
     1
102
RTVSPropertyOp10
 70
     1
102
RTVSPropertyOp11
 70
     1
102
RTVSPropertyOp12
 70
     1
102
RTVSPropertyOp13
 70
     1
102
RTVSPropertyOp14
 70
     1
102
RTVSPropertyOp15
 70
     1
102
RTVSPropertyOp16
 70
     1
102
RTVSPropertyOp17
 70
     1
102
RTVSPropertyOp18
 70
     1
102
RTVSPropertyOp19
 70
     1
102
RTVSPropertyOp20
 70
     1
102
RTVSPropertyOp21
 70
     1
102
RTVSPropertyOp22
 70
     1
102
RTVSPropertyOp23
 70
     1
102
RTVSPropertyOp24
 70
     1
102
RTVSPropertyOp25
 70
     1
102
RTVSPropertyOp26
 70
     1
102
RTVSPropertyOp27
 70
     1
102
RTVSPropertyOp28
 70
     1
102
RTVSPropertyOp29
 70
     1
102
RTVSPropertyOp30
 70
     1
102
RTVSPropertyOp31
 70
     1
102
RTVSPropertyOp32
 70
     1
  0
XRECORD
  5
2DF
102
{ACAD_REACTORS
330
2DE
102
}
330
2DE
100
AcDbXrecord
280
     1
102
RTVSPropertyOp0
 70
     1
102
RTVSPropertyOp1
 70
     1
102
RTVSPropertyOp2
 70
     1
102
RTVSPropertyOp3
 70
     1
102
RTVSPropertyOp4
 70
     1
102
RTVSPropertyOp5
 70
     1
102
RTVSPropertyOp6
 70
     1
102
RTVSPropertyOp7
 70
     1
102
RTVSPropertyOp8
 70
     1
102
RTVSPropertyOp9
 70
     1
102
RTVSPropertyOp10
 70
     1
102
RTVSPropertyOp11
 70
     1
102
RTVSPropertyOp12
 70
     1
102
RTVSPropertyOp13
 70
     1
102
RTVSPropertyOp14
 70
     1
102
RTVSPropertyOp15
 70
     1
102
RTVSPropertyOp16
 70
     1
102
RTVSPropertyOp17
 70
     1
102
RTVSPropertyOp18
 70
     1
102
RTVSPropertyOp19
 70
     1
102
RTVSPropertyOp20
 70
     1
102
RTVSPropertyOp21
 70
     1
102
RTVSPropertyOp22
 70
     1
102
RTVSPropertyOp23
 70
     1
102
RTVSPropertyOp24
 70
     1
102
RTVSPropertyOp25
 70
     1
102
RTVSPropertyOp26
 70
     1
102
RTVSPropertyOp27
 70
     1
102
RTVSPropertyOp28
 70
     1
102
RTVSPropertyOp29
 70
     1
102
RTVSPropertyOp30
 70
     1
102
RTVSPropertyOp31
 70
     1
102
RTVSPropertyOp32
 70
     1
  0
XRECORD
  5
2D3
102
{ACAD_REACTORS
330
2D2
102
}
330
2D2
100
AcDbXrecord
280
     1
102
RTVSPropertyOp0
 70
     1
102
RTVSPropertyOp1
 70
     1
102
RTVSPropertyOp2
 70
     1
102
RTVSPropertyOp3
 70
     1
102
RTVSPropertyOp4
 70
     1
102
RTVSPropertyOp5
 70
     1
102
RTVSPropertyOp6
 70
     1
102
RTVSPropertyOp7
 70
     1
102
RTVSPropertyOp8
 70
     1
102
RTVSPropertyOp9
 70
     1
102
RTVSPropertyOp10
 70
     1
102
RTVSPropertyOp11
 70
     1
102
RTVSPropertyOp12
 70
     1
102
RTVSPropertyOp13
 70
     1
102
RTVSPropertyOp14
 70
     1
102
RTVSPropertyOp15
 70
     1
102
RTVSPropertyOp16
 70
     1
102
RTVSPropertyOp17
 70
     1
102
RTVSPropertyOp18
 70
     1
102
RTVSPropertyOp19
 70
     1
102
RTVSPropertyOp20
 70
     1
102
RTVSPropertyOp21
 70
     1
102
RTVSPropertyOp22
 70
     1
102
RTVSPropertyOp23
 70
     1
102
RTVSPropertyOp24
 70
     1
102
RTVSPropertyOp25
 70
     1
102
RTVSPropertyOp26
 70
     1
102
RTVSPropertyOp27
 70
     1
102
RTVSPropertyOp28
 70
     1
102
RTVSPropertyOp29
 70
     1
102
RTVSPropertyOp30
 70
     1
102
RTVSPropertyOp31
 70
     1
102
RTVSPropertyOp32
 70
     1
  0
XRECORD
  5
2D5
102
{ACAD_REACTORS
330
2D4
102
}
330
2D4
100
AcDbXrecord
280
     1
102
RTVSPropertyOp0
 70
     1
102
RTVSPropertyOp1
 70
     1
102
RTVSPropertyOp2
 70
     1
102
RTVSPropertyOp3
 70
     1
102
RTVSPropertyOp4
 70
     1
102
RTVSPropertyOp5
 70
     1
102
RTVSPropertyOp6
 70
     1
102
RTVSPropertyOp7
 70
     1
102
RTVSPropertyOp8
 70
     1
102
RTVSPropertyOp9
 70
     1
102
RTVSPropertyOp10
 70
     1
102
RTVSPropertyOp11
 70
     1
102
RTVSPropertyOp12
 70
     1
102
RTVSPropertyOp13
 70
     1
102
RTVSPropertyOp14
 70
     1
102
RTVSPropertyOp15
 70
     1
102
RTVSPropertyOp16
 70
     1
102
RTVSPropertyOp17
 70
     1
102
RTVSPropertyOp18
 70
     1
102
RTVSPropertyOp19
 70
     1
102
RTVSPropertyOp20
 70
     1
102
RTVSPropertyOp21
 70
     1
102
RTVSPropertyOp22
 70
     1
102
RTVSPropertyOp23
 70
     1
102
RTVSPropertyOp24
 70
     1
102
RTVSPropertyOp25
 70
     1
102
RTVSPropertyOp26
 70
     1
102
RTVSPropertyOp27
 70
     1
102
RTVSPropertyOp28
 70
     1
102
RTVSPropertyOp29
 70
     1
102
RTVSPropertyOp30
 70
     1
102
RTVSPropertyOp31
 70
     1
102
RTVSPropertyOp32
 70
     1
  0
XRECORD
  5
2DD
102
{ACAD_REACTORS
330
2DC
102
}
330
2DC
100
AcDbXrecord
280
     1
102
RTVSPropertyOp0
 70
     1
102
RTVSPropertyOp1
 70
     1
102
RTVSPropertyOp2
 70
     1
102
RTVSPropertyOp3
 70
     1
102
RTVSPropertyOp4
 70
     1
102
RTVSPropertyOp5
 70
     1
102
RTVSPropertyOp6
 70
     1
102
RTVSPropertyOp7
 70
     1
102
RTVSPropertyOp8
 70
     1
102
RTVSPropertyOp9
 70
     1
102
RTVSPropertyOp10
 70
     1
102
RTVSPropertyOp11
 70
     1
102
RTVSPropertyOp12
 70
     1
102
RTVSPropertyOp13
 70
     1
102
RTVSPropertyOp14
 70
     1
102
RTVSPropertyOp15
 70
     1
102
RTVSPropertyOp16
 70
     1
102
RTVSPropertyOp17
 70
     1
102
RTVSPropertyOp18
 70
     1
102
RTVSPropertyOp19
 70
     1
102
RTVSPropertyOp20
 70
     1
102
RTVSPropertyOp21
 70
     1
102
RTVSPropertyOp22
 70
     1
102
RTVSPropertyOp23
 70
     1
102
RTVSPropertyOp24
 70
     1
102
RTVSPropertyOp25
 70
     1
102
RTVSPropertyOp26
 70
     1
102
RTVSPropertyOp27
 70
     1
102
RTVSPropertyOp28
 70
     1
102
RTVSPropertyOp29
 70
     1
102
RTVSPropertyOp30
 70
     1
102
RTVSPropertyOp31
 70
     1
102
RTVSPropertyOp32
 70
     1
  0
XRECORD
  5
2C1
102
{ACAD_REACTORS
330
2C0
102
}
330
2C0
100
AcDbXrecord
280
     1
102
RTVSPropertyOp0
 70
     1
102
RTVSPropertyOp1
 70
     1
102
RTVSPropertyOp2
 70
     1
102
RTVSPropertyOp3
 70
     1
102
RTVSPropertyOp4
 70
     1
102
RTVSPropertyOp5
 70
     1
102
RTVSPropertyOp6
 70
     1
102
RTVSPropertyOp7
 70
     1
102
RTVSPropertyOp8
 70
     1
102
RTVSPropertyOp9
 70
     1
102
RTVSPropertyOp10
 70
     1
102
RTVSPropertyOp11
 70
     1
102
RTVSPropertyOp12
 70
     1
102
RTVSPropertyOp13
 70
     1
102
RTVSPropertyOp14
 70
     1
102
RTVSPropertyOp15
 70
     1
102
RTVSPropertyOp16
 70
     1
102
RTVSPropertyOp17
 70
     1
102
RTVSPropertyOp18
 70
     1
102
RTVSPropertyOp19
 70
     1
102
RTVSPropertyOp20
 70
     1
102
RTVSPropertyOp21
 70
     1
102
RTVSPropertyOp22
 70
     1
102
RTVSPropertyOp23
 70
     1
102
RTVSPropertyOp24
 70
     1
102
RTVSPropertyOp25
 70
     1
102
RTVSPropertyOp26
 70
     1
102
RTVSPropertyOp27
 70
     1
102
RTVSPropertyOp28
 70
     1
102
RTVSPropertyOp29
 70
     1
102
RTVSPropertyOp30
 70
     1
102
RTVSPropertyOp31
 70
     1
102
RTVSPropertyOp32
 70
     1
  0
XRECORD
  5
2C3
102
{ACAD_REACTORS
330
2C2
102
}
330
2C2
100
AcDbXrecord
280
     1
102
RTVSPropertyOp0
 70
     1
102
RTVSPropertyOp1
 70
     1
102
RTVSPropertyOp2
 70
     1
102
RTVSPropertyOp3
 70
     1
102
RTVSPropertyOp4
 70
     1
102
RTVSPropertyOp5
 70
     1
102
RTVSPropertyOp6
 70
     1
102
RTVSPropertyOp7
 70
     1
102
RTVSPropertyOp8
 70
     1
102
RTVSPropertyOp9
 70
     1
102
RTVSPropertyOp10
 70
     1
102
RTVSPropertyOp11
 70
     1
102
RTVSPropertyOp12
 70
     1
102
RTVSPropertyOp13
 70
     1
102
RTVSPropertyOp14
 70
     1
102
RTVSPropertyOp15
 70
     1
102
RTVSPropertyOp16
 70
     1
102
RTVSPropertyOp17
 70
     1
102
RTVSPropertyOp18
 70
     1
102
RTVSPropertyOp19
 70
     1
102
RTVSPropertyOp20
 70
     1
102
RTVSPropertyOp21
 70
     1
102
RTVSPropertyOp22
 70
     1
102
RTVSPropertyOp23
 70
     1
102
RTVSPropertyOp24
 70
     1
102
RTVSPropertyOp25
 70
     1
102
RTVSPropertyOp26
 70
     1
102
RTVSPropertyOp27
 70
     1
102
RTVSPropertyOp28
 70
     1
102
RTVSPropertyOp29
 70
     1
102
RTVSPropertyOp30
 70
     1
102
RTVSPropertyOp31
 70
     1
102
RTVSPropertyOp32
 70
     1
  0
XRECORD
  5
2C5
102
{ACAD_REACTORS
330
2C4
102
}
330
2C4
100
AcDbXrecord
280
     1
102
RTVSPropertyOp0
 70
     1
102
RTVSPropertyOp1
 70
     1
102
RTVSPropertyOp2
 70
     1
102
RTVSPropertyOp3
 70
     1
102
RTVSPropertyOp4
 70
     1
102
RTVSPropertyOp5
 70
     1
102
RTVSPropertyOp6
 70
     1
102
RTVSPropertyOp7
 70
     1
102
RTVSPropertyOp8
 70
     1
102
RTVSPropertyOp9
 70
     1
102
RTVSPropertyOp10
 70
     1
102
RTVSPropertyOp11
 70
     1
102
RTVSPropertyOp12
 70
     1
102
RTVSPropertyOp13
 70
     1
102
RTVSPropertyOp14
 70
     1
102
RTVSPropertyOp15
 70
     1
102
RTVSPropertyOp16
 70
     1
102
RTVSPropertyOp17
 70
     1
102
RTVSPropertyOp18
 70
     1
102
RTVSPropertyOp19
 70
     1
102
RTVSPropertyOp20
 70
     1
102
RTVSPropertyOp21
 70
     1
102
RTVSPropertyOp22
 70
     1
102
RTVSPropertyOp23
 70
     1
102
RTVSPropertyOp24
 70
     1
102
RTVSPropertyOp25
 70
     1
102
RTVSPropertyOp26
 70
     1
102
RTVSPropertyOp27
 70
     1
102
RTVSPropertyOp28
 70
     1
102
RTVSPropertyOp29
 70
     1
102
RTVSPropertyOp30
 70
     1
102
RTVSPropertyOp31
 70
     1
102
RTVSPropertyOp32
 70
     1
  0
XRECORD
  5
2C7
102
{ACAD_REACTORS
330
2C6
102
}
330
2C6
100
AcDbXrecord
280
     1
102
RTVSPropertyOp0
 70
     1
102
RTVSPropertyOp1
 70
     1
102
RTVSPropertyOp2
 70
     1
102
RTVSPropertyOp3
 70
     1
102
RTVSPropertyOp4
 70
     1
102
RTVSPropertyOp5
 70
     1
102
RTVSPropertyOp6
 70
     1
102
RTVSPropertyOp7
 70
     1
102
RTVSPropertyOp8
 70
     1
102
RTVSPropertyOp9
 70
     1
102
RTVSPropertyOp10
 70
     1
102
RTVSPropertyOp11
 70
     1
102
RTVSPropertyOp12
 70
     1
102
RTVSPropertyOp13
 70
     1
102
RTVSPropertyOp14
 70
     1
102
RTVSPropertyOp15
 70
     1
102
RTVSPropertyOp16
 70
     1
102
RTVSPropertyOp17
 70
     1
102
RTVSPropertyOp18
 70
     1
102
RTVSPropertyOp19
 70
     1
102
RTVSPropertyOp20
 70
     1
102
RTVSPropertyOp21
 70
     1
102
RTVSPropertyOp22
 70
     1
102
RTVSPropertyOp23
 70
     1
102
RTVSPropertyOp24
 70
     1
102
RTVSPropertyOp25
 70
     1
102
RTVSPropertyOp26
 70
     1
102
RTVSPropertyOp27
 70
     1
102
RTVSPropertyOp28
 70
     1
102
RTVSPropertyOp29
 70
     1
102
RTVSPropertyOp30
 70
     1
102
RTVSPropertyOp31
 70
     1
102
RTVSPropertyOp32
 70
     1
  0
XRECORD
  5
2DB
102
{ACAD_REACTORS
330
2DA
102
}
330
2DA
100
AcDbXrecord
280
     1
102
RTVSPropertyOp0
 70
     1
102
RTVSPropertyOp1
 70
     1
102
RTVSPropertyOp2
 70
     1
102
RTVSPropertyOp3
 70
     1
102
RTVSPropertyOp4
 70
     1
102
RTVSPropertyOp5
 70
     1
102
RTVSPropertyOp6
 70
     1
102
RTVSPropertyOp7
 70
     1
102
RTVSPropertyOp8
 70
     1
102
RTVSPropertyOp9
 70
     1
102
RTVSPropertyOp10
 70
     1
102
RTVSPropertyOp11
 70
     1
102
RTVSPropertyOp12
 70
     1
102
RTVSPropertyOp13
 70
     1
102
RTVSPropertyOp14
 70
     1
102
RTVSPropertyOp15
 70
     1
102
RTVSPropertyOp16
 70
     1
102
RTVSPropertyOp17
 70
     1
102
RTVSPropertyOp18
 70
     1
102
RTVSPropertyOp19
 70
     1
102
RTVSPropertyOp20
 70
     1
102
RTVSPropertyOp21
 70
     1
102
RTVSPropertyOp22
 70
     1
102
RTVSPropertyOp23
 70
     1
102
RTVSPropertyOp24
 70
     1
102
RTVSPropertyOp25
 70
     1
102
RTVSPropertyOp26
 70
     1
102
RTVSPropertyOp27
 70
     1
102
RTVSPropertyOp28
 70
     1
102
RTVSPropertyOp29
 70
     1
102
RTVSPropertyOp30
 70
     1
102
RTVSPropertyOp31
 70
     1
102
RTVSPropertyOp32
 70
     1
  0
XRECORD
  5
2D1
102
{ACAD_REACTORS
330
2D0
102
}
330
2D0
100
AcDbXrecord
280
     1
102
RTVSPropertyOp0
 70
     1
102
RTVSPropertyOp1
 70
     1
102
RTVSPropertyOp2
 70
     1
102
RTVSPropertyOp3
 70
     1
102
RTVSPropertyOp4
 70
     1
102
RTVSPropertyOp5
 70
     1
102
RTVSPropertyOp6
 70
     1
102
RTVSPropertyOp7
 70
     1
102
RTVSPropertyOp8
 70
     1
102
RTVSPropertyOp9
 70
     1
102
RTVSPropertyOp10
 70
     1
102
RTVSPropertyOp11
 70
     1
102
RTVSPropertyOp12
 70
     1
102
RTVSPropertyOp13
 70
     1
102
RTVSPropertyOp14
 70
     1
102
RTVSPropertyOp15
 70
     1
102
RTVSPropertyOp16
 70
     1
102
RTVSPropertyOp17
 70
     1
102
RTVSPropertyOp18
 70
     1
102
RTVSPropertyOp19
 70
     1
102
RTVSPropertyOp20
 70
     1
102
RTVSPropertyOp21
 70
     1
102
RTVSPropertyOp22
 70
     1
102
RTVSPropertyOp23
 70
     1
102
RTVSPropertyOp24
 70
     1
102
RTVSPropertyOp25
 70
     1
102
RTVSPropertyOp26
 70
     1
102
RTVSPropertyOp27
 70
     1
102
RTVSPropertyOp28
 70
     1
102
RTVSPropertyOp29
 70
     1
102
RTVSPropertyOp30
 70
     1
102
RTVSPropertyOp31
 70
     1
102
RTVSPropertyOp32
 70
     1
  0
XRECORD
  5
2D9
102
{ACAD_REACTORS
330
2D8
102
}
330
2D8
100
AcDbXrecord
280
     1
102
RTVSPropertyOp0
 70
     1
102
RTVSPropertyOp1
 70
     1
102
RTVSPropertyOp2
 70
     1
102
RTVSPropertyOp3
 70
     1
102
RTVSPropertyOp4
 70
     1
102
RTVSPropertyOp5
 70
     1
102
RTVSPropertyOp6
 70
     1
102
RTVSPropertyOp7
 70
     1
102
RTVSPropertyOp8
 70
     1
102
RTVSPropertyOp9
 70
     1
102
RTVSPropertyOp10
 70
     1
102
RTVSPropertyOp11
 70
     1
102
RTVSPropertyOp12
 70
     1
102
RTVSPropertyOp13
 70
     1
102
RTVSPropertyOp14
 70
     1
102
RTVSPropertyOp15
 70
     1
102
RTVSPropertyOp16
 70
     1
102
RTVSPropertyOp17
 70
     1
102
RTVSPropertyOp18
 70
     1
102
RTVSPropertyOp19
 70
     1
102
RTVSPropertyOp20
 70
     1
102
RTVSPropertyOp21
 70
     1
102
RTVSPropertyOp22
 70
     1
102
RTVSPropertyOp23
 70
     1
102
RTVSPropertyOp24
 70
     1
102
RTVSPropertyOp25
 70
     1
102
RTVSPropertyOp26
 70
     1
102
RTVSPropertyOp27
 70
     1
102
RTVSPropertyOp28
 70
     1
102
RTVSPropertyOp29
 70
     1
102
RTVSPropertyOp30
 70
     1
102
RTVSPropertyOp31
 70
     1
102
RTVSPropertyOp32
 70
     1
  0
ENDSEC
  0
EOF
