  0
SECTION
  2
HEADER
  9
$ACADVER
  1
AC1015
  9
$ACADMAINTVER
 70
     6
  9
$DWGCODEPAGE
  3
ANSI_932
  9
$INSBASE
 10
0.0
 20
0.0
 30
0.0
  9
$EXTMIN
 10
0.0
 20
-0.00000000000001
 30
0.0
  9
$EXTMAX
 10
735.0000000000005
 20
1039.500000000001
 30
0.0
  9
$LIMMIN
 10
0.0
 20
0.0
  9
$LIMMAX
 10
12.0
 20
9.0
  9
$ORTHOMODE
 70
     0
  9
$REGENMODE
 70
     1
  9
$FILLMODE
 70
     1
  9
$QTEXTMODE
 70
     0
  9
$MIRRTEXT
 70
     1
  9
$LTSCALE
 40
1.0
  9
$ATTMODE
 70
     1
  9
$TEXTSIZE
 40
0.2
  9
$TRACEWID
 40
0.05
  9
$TEXTSTYLE
  7
Standard
  9
$CLAYER
  8
0
  9
$CELTYPE
  6
ByLayer
  9
$CECOLOR
 62
   256
  9
$CELTSCALE
 40
1.0
  9
$DISPSILH
 70
     0
  9
$DIMSCALE
 40
1.0
  9
$DIMASZ
 40
0.18
  9
$DIMEXO
 40
0.0625
  9
$DIMDLI
 40
0.38
  9
$DIMRND
 40
0.0
  9
$DIMDLE
 40
0.0
  9
$DIMEXE
 40
0.18
  9
$DIMTP
 40
0.0
  9
$DIMTM
 40
0.0
  9
$DIMTXT
 40
0.18
  9
$DIMCEN
 40
0.09
  9
$DIMTSZ
 40
0.0
  9
$DIMTOL
 70
     0
  9
$DIMLIM
 70
     0
  9
$DIMTIH
 70
     1
  9
$DIMTOH
 70
     1
  9
$DIMSE1
 70
     0
  9
$DIMSE2
 70
     0
  9
$DIMTAD
 70
     0
  9
$DIMZIN
 70
     0
  9
$DIMBLK
  1

  9
$DIMASO
 70
     1
  9
$DIMSHO
 70
     1
  9
$DIMPOST
  1

  9
$DIMAPOST
  1

  9
$DIMALT
 70
     0
  9
$DIMALTD
 70
     2
  9
$DIMALTF
 40
25.4
  9
$DIMLFAC
 40
1.0
  9
$DIMTOFL
 70
     0
  9
$DIMTVP
 40
0.0
  9
$DIMTIX
 70
     0
  9
$DIMSOXD
 70
     0
  9
$DIMSAH
 70
     0
  9
$DIMBLK1
  1

  9
$DIMBLK2
  1

  9
$DIMSTYLE
  2
Standard
  9
$DIMCLRD
 70
     0
  9
$DIMCLRE
 70
     0
  9
$DIMCLRT
 70
     0
  9
$DIMTFAC
 40
1.0
  9
$DIMGAP
 40
0.09
  9
$DIMJUST
 70
     0
  9
$DIMSD1
 70
     0
  9
$DIMSD2
 70
     0
  9
$DIMTOLJ
 70
     1
  9
$DIMTZIN
 70
     0
  9
$DIMALTZ
 70
     0
  9
$DIMALTTZ
 70
     0
  9
$DIMUPT
 70
     0
  9
$DIMDEC
 70
     4
  9
$DIMTDEC
 70
     4
  9
$DIMALTU
 70
     2
  9
$DIMALTTD
 70
     2
  9
$DIMTXSTY
  7
Standard
  9
$DIMAUNIT
 70
     0
  9
$DIMADEC
 70
     0
  9
$DIMALTRND
 40
0.0
  9
$DIMAZIN
 70
     0
  9
$DIMDSEP
 70
    46
  9
$DIMATFIT
 70
     3
  9
$DIMFRAC
 70
     0
  9
$DIMLDRBLK
  1

  9
$DIMLUNIT
 70
     2
  9
$DIMLWD
 70
    -2
  9
$DIMLWE
 70
    -2
  9
$DIMTMOVE
 70
     0
  9
$LUNITS
 70
     2
  9
$LUPREC
 70
     4
  9
$SKETCHINC
 40
0.1
  9
$FILLETRAD
 40
0.5
  9
$AUNITS
 70
     0
  9
$AUPREC
 70
     0
  9
$MENU
  1
.
  9
$ELEVATION
 40
0.0
  9
$PELEVATION
 40
0.0
  9
$THICKNESS
 40
0.0
  9
$LIMCHECK
 70
     0
  9
$CHAMFERA
 40
0.5
  9
$CHAMFERB
 40
0.5
  9
$CHAMFERC
 40
1.0
  9
$CHAMFERD
 40
0.0
  9
$SKPOLY
 70
     0
  9
$TDCREATE
 40
2456563.536436412
  9
$TDUCREATE
 40
2456563.161436412
  9
$TDUPDATE
 40
2456563.536437673
  9
$TDUUPDATE
 40
2456563.161437673
  9
$TDINDWG
 40
0.0000000116
  9
$TDUSRTIMER
 40
0.0000000116
  9
$USRTIMER
 70
     1
  9
$ANGBASE
 50
0.0
  9
$ANGDIR
 70
     0
  9
$PDMODE
 70
     0
  9
$PDSIZE
 40
0.0
  9
$PLINEWID
 40
0.0
  9
$SPLFRAME
 70
     0
  9
$SPLINETYPE
 70
     6
  9
$SPLINESEGS
 70
     8
  9
$HANDSEED
  5
2C9
  9
$SURFTAB1
 70
     6
  9
$SURFTAB2
 70
     6
  9
$SURFTYPE
 70
     6
  9
$SURFU
 70
     6
  9
$SURFV
 70
     6
  9
$UCSBASE
  2

  9
$UCSNAME
  2

  9
$UCSORG
 10
0.0
 20
0.0
 30
0.0
  9
$UCSXDIR
 10
1.0
 20
0.0
 30
0.0
  9
$UCSYDIR
 10
0.0
 20
1.0
 30
0.0
  9
$UCSORTHOREF
  2

  9
$UCSORTHOVIEW
 70
     0
  9
$UCSORGTOP
 10
0.0
 20
0.0
 30
0.0
  9
$UCSORGBOTTOM
 10
0.0
 20
0.0
 30
0.0
  9
$UCSORGLEFT
 10
0.0
 20
0.0
 30
0.0
  9
$UCSORGRIGHT
 10
0.0
 20
0.0
 30
0.0
  9
$UCSORGFRONT
 10
0.0
 20
0.0
 30
0.0
  9
$UCSORGBACK
 10
0.0
 20
0.0
 30
0.0
  9
$PUCSBASE
  2

  9
$PUCSNAME
  2

  9
$PUCSORG
 10
0.0
 20
0.0
 30
0.0
  9
$PUCSXDIR
 10
1.0
 20
0.0
 30
0.0
  9
$PUCSYDIR
 10
0.0
 20
1.0
 30
0.0
  9
$PUCSORTHOREF
  2

  9
$PUCSORTHOVIEW
 70
     0
  9
$PUCSORGTOP
 10
0.0
 20
0.0
 30
0.0
  9
$PUCSORGBOTTOM
 10
0.0
 20
0.0
 30
0.0
  9
$PUCSORGLEFT
 10
0.0
 20
0.0
 30
0.0
  9
$PUCSORGRIGHT
 10
0.0
 20
0.0
 30
0.0
  9
$PUCSORGFRONT
 10
0.0
 20
0.0
 30
0.0
  9
$PUCSORGBACK
 10
0.0
 20
0.0
 30
0.0
  9
$USERI1
 70
     0
  9
$USERI2
 70
     0
  9
$USERI3
 70
     0
  9
$USERI4
 70
     0
  9
$USERI5
 70
     0
  9
$USERR1
 40
18.1
  9
$USERR2
 40
0.0
  9
$USERR3
 40
0.0
  9
$USERR4
 40
0.0
  9
$USERR5
 40
0.0
  9
$WORLDVIEW
 70
     1
  9
$SHADEDGE
 70
     3
  9
$SHADEDIF
 70
    70
  9
$TILEMODE
 70
     1
  9
$MAXACTVP
 70
    64
  9
$PINSBASE
 10
0.0
 20
0.0
 30
0.0
  9
$PLIMCHECK
 70
     0
  9
$PEXTMIN
 10
1.00000000000000E+20
 20
1.00000000000000E+20
 30
1.00000000000000E+20
  9
$PEXTMAX
 10
-1.00000000000000E+20
 20
-1.00000000000000E+20
 30
-1.00000000000000E+20
  9
$PLIMMIN
 10
0.0
 20
0.0
  9
$PLIMMAX
 10
12.0
 20
9.0
  9
$UNITMODE
 70
     0
  9
$VISRETAIN
 70
     1
  9
$PLINEGEN
 70
     0
  9
$PSLTSCALE
 70
     1
  9
$TREEDEPTH
 70
  3020
  9
$CMLSTYLE
  2
Standard
  9
$CMLJUST
 70
     0
  9
$CMLSCALE
 40
1.0
  9
$PROXYGRAPHICS
 70
     1
  9
$MEASUREMENT
 70
     1
  9
$CELWEIGHT
370
    -1
  9
$ENDCAPS
280
     0
  9
$JOINSTYLE
280
     0
  9
$LWDISPLAY
290
     0
  9
$INSUNITS
 70
     4
  9
$HYPERLINKBASE
  1

  9
$STYLESHEET
  1

  9
$XEDIT
290
     1
  9
$CEPSNTYPE
380
     0
  9
$PSTYLEMODE
290
     1
  9
$FINGERPRINTGUID
  2
{9D071AE8-FD0A-4D2B-8669-8144B0BB7E38}
  9
$VERSIONGUID
  2
{FAEB1C32-E019-11D5-929B-00C0DF256EC4}
  9
$EXTNAMES
290
     1
  9
$PSVPSCALE
 40
0.0
  9
$OLESTARTUP
290
     0
  0
ENDSEC
  0
SECTION
  2
CLASSES
  0
CLASS
  1
ACDBDICTIONARYWDFLT
  2
AcDbDictionaryWithDefault
  3
ObjectDBX Classes
 90
        0
280
     0
281
     0
  0
CLASS
  1
VISUALSTYLE
  2
AcDbVisualStyle
  3
ObjectDBX Classes
 90
     4095
280
     0
281
     0
  0
CLASS
  1
MATERIAL
  2
AcDbMaterial
  3
ObjectDBX Classes
 90
     1153
280
     0
281
     0
  0
CLASS
  1
DICTIONARYVAR
  2
AcDbDictionaryVar
  3
ObjectDBX Classes
 90
        0
280
     0
281
     0
  0
CLASS
  1
ACDBPLACEHOLDER
  2
AcDbPlaceHolder
  3
ObjectDBX Classes
 90
        0
280
     0
281
     0
  0
CLASS
  1
LAYOUT
  2
AcDbLayout
  3
ObjectDBX Classes
 90
        0
280
     0
281
     0
  0
ENDSEC
  0
SECTION
  2
TABLES
  0
TABLE
  2
VPORT
  5
8
330
0
100
AcDbSymbolTable
 70
     1
  0
VPORT
  5
29
330
8
100
AcDbSymbolTableRecord
100
AcDbViewportTableRecord
  2
*Active
 70
     0
 10
0.0
 20
0.0
 11
1.0
 21
1.0
 12
367.5000000000002
 22
519.7500000000005
 13
0.0
 23
0.0
 14
0.5
 24
0.5
 15
0.5
 25
0.5
 16
0.0
 26
0.0
 36
1.0
 17
0.0
 27
0.0
 37
0.0
 40
1143.450000000001
 41
1.60267857142857
 42
50.0
 43
0.0
 44
0.0
 50
0.0
 51
0.0
 71
     0
 72
   100
 73
     1
 74
     3
 75
     0
 76
     0
 77
     0
 78
     0
281
     0
 65
     1
110
0.0
120
0.0
130
0.0
111
1.0
121
0.0
131
0.0
112
0.0
122
1.0
132
0.0
 79
     0
146
0.0
  0
ENDTAB
  0
TABLE
  2
LTYPE
  5
5
330
0
100
AcDbSymbolTable
 70
     8
  0
LTYPE
  5
14
330
5
100
AcDbSymbolTableRecord
100
AcDbLinetypeTableRecord
  2
ByBlock
 70
     0
  3

 72
    65
 73
     0
 40
0.0
  0
LTYPE
  5
15
330
5
100
AcDbSymbolTableRecord
100
AcDbLinetypeTableRecord
  2
ByLayer
 70
     0
  3

 72
    65
 73
     0
 40
0.0
  0
LTYPE
  5
16
330
5
100
AcDbSymbolTableRecord
100
AcDbLinetypeTableRecord
  2
Continuous
 70
     0
  3
Solid line
 72
    65
 73
     0
 40
0.0
  0
LTYPE
  5
3F
330
5
100
AcDbSymbolTableRecord
100
AcDbLinetypeTableRecord
  2
DASHED
 70
     0
  3
Dashed
 72
    65
 73
     2
 40
15.0
 49
7.0
 74
     0
 49
-8.0
 74
     0
  0
LTYPE
  5
40
330
5
100
AcDbSymbolTableRecord
100
AcDbLinetypeTableRecord
  2
DOTTED
 70
     0
  3
Dotted
 72
    65
 73
     2
 40
1.0
 49
0.0
 74
     0
 49
-1.0
 74
     0
  0
LTYPE
  5
41
330
5
100
AcDbSymbolTableRecord
100
AcDbLinetypeTableRecord
  2
DOT_CENTER
 70
     0
  3
Dot_Center
 72
    65
 73
     4
 40
14.0
 49
12.0
 74
     0
 49
-1.0
 74
     0
 49
0.0
 74
     0
 49
-1.0
 74
     0
  0
LTYPE
  5
42
330
5
100
AcDbSymbolTableRecord
100
AcDbLinetypeTableRecord
  2
LONG_DASHED
 70
     0
  3
Long_Dashed
 72
    65
 73
     2
 40
15.0
 49
10.0
 74
     0
 49
-5.0
 74
     0
  0
LTYPE
  5
43
330
5
100
AcDbSymbolTableRecord
100
AcDbLinetypeTableRecord
  2
DASH_CENTER
 70
     0
  3
Dash_Center
 72
    65
 73
     4
 40
14.0
 49
11.0
 74
     0
 49
-1.0
 74
     0
 49
1.0
 74
     0
 49
-1.0
 74
     0
  0
LTYPE
  5
44
330
5
100
AcDbSymbolTableRecord
100
AcDbLinetypeTableRecord
  2
PHANTOM
 70
     0
  3
Phantom
 72
    65
 73
     6
 40
13.0
 49
10.0
 74
     0
 49
-1.0
 74
     0
 49
0.0
 74
     0
 49
-1.0
 74
     0
 49
0.0
 74
     0
 49
-1.0
 74
     0
  0
LTYPE
  5
45
330
5
100
AcDbSymbolTableRecord
100
AcDbLinetypeTableRecord
  2
CENTER_DASH_DASH
 70
     0
  3
Center_Dash_Dash
 72
    65
 73
     6
 40
14.0
 49
9.0
 74
     0
 49
-1.0
 74
     0
 49
1.0
 74
     0
 49
-1.0
 74
     0
 49
1.0
 74
     0
 49
-1.0
 74
     0
  0
ENDTAB
  0
TABLE
  2
LAYER
  5
2
330
0
100
AcDbSymbolTable
 70
     2
  0
LAYER
  5
10
330
2
100
AcDbSymbolTableRecord
100
AcDbLayerTableRecord
  2
0
 70
     0
 62
     7
  6
Continuous
370
    -3
390
F
  0
LAYER
  5
46
330
2
100
AcDbSymbolTableRecord
100
AcDbLayerTableRecord
  2
1
 70
     0
 62
     7
  6
Continuous
370
    -3
390
F
  0
ENDTAB
  0
TABLE
  2
STYLE
  5
3
330
0
100
AcDbSymbolTable
 70
     3
  0
STYLE
  5
11
330
3
100
AcDbSymbolTableRecord
100
AcDbTextStyleTableRecord
  2
Standard
 70
     0
 40
0.0
 41
1.0
 50
0.0
 71
     0
 42
0.2
  3
txt
  4

  0
STYLE
  5
B7
330
3
100
AcDbSymbolTableRecord
100
AcDbTextStyleTableRecord
  2
CONVERTER_11
 70
     0
 40
0.0
 41
0.89
 50
0.0
 71
     0
 42
0.2
  3
MS Mincho.ttf
  4

1001
ACAD
1000
MS Mincho
1071
    32785
  0
STYLE
  5
237
330
3
100
AcDbSymbolTableRecord
100
AcDbTextStyleTableRecord
  2
CONVERTER_12
 70
     0
 40
0.0
 41
0.9
 50
0.0
 71
     0
 42
0.2
  3
txt.shx
  4

  0
ENDTAB
  0
TABLE
  2
VIEW
  5
6
330
0
100
AcDbSymbolTable
 70
     0
  0
ENDTAB
  0
TABLE
  2
UCS
  5
7
330
0
100
AcDbSymbolTable
 70
     0
  0
ENDTAB
  0
TABLE
  2
APPID
  5
9
330
0
100
AcDbSymbolTable
 70
     1
  0
APPID
  5
12
330
9
100
AcDbSymbolTableRecord
100
AcDbRegAppTableRecord
  2
ACAD
 70
     0
  0
ENDTAB
  0
TABLE
  2
DIMSTYLE
  5
A
330
0
100
AcDbSymbolTable
 70
     9
100
AcDbDimStyleTable
  0
DIMSTYLE
105
27
330
A
100
AcDbSymbolTableRecord
100
AcDbDimStyleTableRecord
  2
Standard
 70
     0
178
     0
340
11
  0
DIMSTYLE
105
248
102
{ACAD_REACTORS
330
249
102
}
330
A
100
AcDbSymbolTableRecord
100
AcDbDimStyleTableRecord
  2
ME10_DIM_10
 70
     0
 41
12.25
 42
0.0
 44
3.5
 73
     0
 74
     0
 77
     1
 78
     8
140
12.25
147
3.5
172
     1
173
     1
174
     1
175
     1
176
     2
177
     2
271
     2
178
     7
271
     2
340
237
  0
DIMSTYLE
105
255
102
{ACAD_REACTORS
330
256
102
}
330
A
100
AcDbSymbolTableRecord
100
AcDbDimStyleTableRecord
  2
ME10_DIM_11
 70
     0
 41
12.25
 42
0.0
 44
3.5
 73
     0
 74
     0
 77
     1
 78
     8
140
12.25
147
3.5
172
     1
173
     1
174
     1
175
     1
176
     2
177
     2
271
     2
178
     7
271
     2
340
237
  0
DIMSTYLE
105
262
102
{ACAD_REACTORS
330
263
102
}
330
A
100
AcDbSymbolTableRecord
100
AcDbDimStyleTableRecord
  2
ME10_DIM_12
 70
     0
 41
12.25
 42
0.0
 44
3.5
 73
     0
 74
     0
 77
     1
 78
     8
140
12.25
147
3.5
172
     1
173
     1
174
     1
175
     1
176
     2
177
     2
271
     2
178
     7
271
     2
340
237
  0
DIMSTYLE
105
26F
102
{ACAD_REACTORS
330
270
102
}
330
A
100
AcDbSymbolTableRecord
100
AcDbDimStyleTableRecord
  2
ME10_DIM_13
 70
     0
 41
12.25
 42
0.0
 44
3.5
 73
     0
 74
     0
 77
     1
 78
     8
140
12.25
147
3.5
172
     1
173
     1
174
     1
175
     1
176
     2
177
     2
271
     2
178
     7
271
     2
340
237
  0
DIMSTYLE
105
27A
102
{ACAD_REACTORS
330
27B
102
}
330
A
100
AcDbSymbolTableRecord
100
AcDbDimStyleTableRecord
  2
ME10_DIM_14
 70
     0
 41
12.25
 42
0.0
 44
3.5
 73
     0
 74
     0
 77
     1
 78
     8
140
12.25
147
3.5
172
     1
173
     1
174
     1
175
     1
176
     2
177
     2
271
     2
178
     7
271
     2
340
237
  0
DIMSTYLE
105
286
102
{ACAD_REACTORS
330
287
102
}
330
A
100
AcDbSymbolTableRecord
100
AcDbDimStyleTableRecord
  2
ME10_DIM_15
 70
     0
 41
12.25
 42
0.0
 44
3.5
 73
     0
 74
     0
 77
     1
 78
     8
140
12.25
147
3.5
172
     1
173
     1
174
     1
175
     1
176
     2
177
     2
271
     2
178
     7
271
     2
340
B7
  0
DIMSTYLE
105
291
102
{ACAD_REACTORS
330
292
102
}
330
A
100
AcDbSymbolTableRecord
100
AcDbDimStyleTableRecord
  2
ME10_DIM_16
 70
     0
 41
12.25
 42
0.0
 44
3.5
 73
     0
 74
     0
 77
     1
 78
     8
140
12.25
147
3.5
172
     1
173
     1
174
     1
175
     1
176
     2
177
     2
271
     2
178
     7
271
     2
340
237
  0
DIMSTYLE
105
29C
102
{ACAD_REACTORS
330
29D
102
}
330
A
100
AcDbSymbolTableRecord
100
AcDbDimStyleTableRecord
  2
ME10_DIM_17
 70
     0
 41
12.25
 42
0.0
 44
3.5
 73
     0
 74
     0
 77
     1
 78
     8
140
12.25
147
3.5
172
     1
173
     1
174
     1
175
     1
176
     2
177
     2
271
     2
178
     7
271
     2
340
237
  0
ENDTAB
  0
TABLE
  2
BLOCK_RECORD
  5
1
330
0
100
AcDbSymbolTable
 70
    18
  0
BLOCK_RECORD
  5
1F
330
1
100
AcDbSymbolTableRecord
100
AcDbBlockTableRecord
  2
*Model_Space
340
22
  0
BLOCK_RECORD
  5
1B
330
1
100
AcDbSymbolTableRecord
100
AcDbBlockTableRecord
  2
*Paper_Space
340
1E
  0
BLOCK_RECORD
  5
23
330
1
100
AcDbSymbolTableRecord
100
AcDbBlockTableRecord
  2
*Paper_Space0
340
26
  0
BLOCK_RECORD
  5
47
330
1
100
AcDbSymbolTableRecord
100
AcDbBlockTableRecord
  2
91-1
340
0
102
{BLKREFS
331
62
102
}
  0
BLOCK_RECORD
  5
4A
330
1
100
AcDbSymbolTableRecord
100
AcDbBlockTableRecord
  2
開示A4
340
0
102
{BLKREFS
331
63
102
}
  0
BLOCK_RECORD
  5
4D
330
1
100
AcDbSymbolTableRecord
100
AcDbBlockTableRecord
  2
32-12-M2
340
0
102
{BLKREFS
331
64
102
}
  0
BLOCK_RECORD
  5
50
330
1
100
AcDbSymbolTableRecord
100
AcDbBlockTableRecord
  2
65-11-12_7-200
340
0
102
{BLKREFS
331
65
102
}
  0
BLOCK_RECORD
  5
53
330
1
100
AcDbSymbolTableRecord
100
AcDbBlockTableRecord
  2
78-167
340
0
102
{BLKREFS
331
66
102
}
  0
BLOCK_RECORD
  5
56
330
1
100
AcDbSymbolTableRecord
100
AcDbBlockTableRecord
  2
V21-2-0A-13-M1
340
0
102
{BLKREFS
331
67
102
}
  0
BLOCK_RECORD
  5
59
330
1
100
AcDbSymbolTableRecord
100
AcDbBlockTableRecord
  2
37-1-13
340
0
102
{BLKREFS
331
68
102
}
  0
BLOCK_RECORD
  5
5C
330
1
100
AcDbSymbolTableRecord
100
AcDbBlockTableRecord
  2
36-3-13
340
0
102
{BLKREFS
331
69
102
}
  0
BLOCK_RECORD
  5
5F
330
1
100
AcDbSymbolTableRecord
100
AcDbBlockTableRecord
  2
64-7-13-420-M11
340
0
102
{BLKREFS
331
6A
102
}
  0
BLOCK_RECORD
  5
23D
330
1
100
AcDbSymbolTableRecord
100
AcDbBlockTableRecord
  2
*D10
340
0
  0
BLOCK_RECORD
  5
24A
330
1
100
AcDbSymbolTableRecord
100
AcDbBlockTableRecord
  2
*D11
340
0
  0
BLOCK_RECORD
  5
257
330
1
100
AcDbSymbolTableRecord
100
AcDbBlockTableRecord
  2
*D12
340
0
  0
BLOCK_RECORD
  5
264
330
1
100
AcDbSymbolTableRecord
100
AcDbBlockTableRecord
  2
*D13
340
0
  0
BLOCK_RECORD
  5
271
330
1
100
AcDbSymbolTableRecord
100
AcDbBlockTableRecord
  2
*D14
340
0
  0
BLOCK_RECORD
  5
27C
330
1
100
AcDbSymbolTableRecord
100
AcDbBlockTableRecord
  2
*D15
340
0
  0
BLOCK_RECORD
  5
288
330
1
100
AcDbSymbolTableRecord
100
AcDbBlockTableRecord
  2
*D16
340
0
  0
BLOCK_RECORD
  5
293
330
1
100
AcDbSymbolTableRecord
100
AcDbBlockTableRecord
  2
*D17
340
0
  0
ENDTAB
  0
ENDSEC
  0
SECTION
  2
BLOCKS
  0
BLOCK
  5
20
330
1F
100
AcDbEntity
  8
0
100
AcDbBlockBegin
  2
*Model_Space
 70
     0
 10
0.0
 20
0.0
 30
0.0
  3
*Model_Space
  1

  0
ENDBLK
  5
21
330
1F
100
AcDbEntity
  8
0
100
AcDbBlockEnd
  0
BLOCK
  5
1C
330
1B
100
AcDbEntity
 67
     1
  8
0
100
AcDbBlockBegin
  2
*Paper_Space
 70
     0
 10
0.0
 20
0.0
 30
0.0
  3
*Paper_Space
  1

  0
ENDBLK
  5
1D
330
1B
100
AcDbEntity
 67
     1
  8
0
100
AcDbBlockEnd
  0
BLOCK
  5
24
330
23
100
AcDbEntity
  8
0
100
AcDbBlockBegin
  2
*Paper_Space0
 70
     0
 10
0.0
 20
0.0
 30
0.0
  3
*Paper_Space0
  1

  0
ENDBLK
  5
25
330
23
100
AcDbEntity
  8
0
100
AcDbBlockEnd
  0
BLOCK
  5
48
330
47
100
AcDbEntity
  8
0
100
AcDbBlockBegin
  2
91-1
 70
     0
 10
289.0000000000001
 20
938.1556438311992
 30
0.0
  3
91-1
  1

  0
LINE
  5
6B
330
47
100
AcDbEntity
  8
1
  6
Continuous
 62
     7
100
AcDbLine
 10
289.0000000000001
 20
948.4264763193669
 30
0.0
 11
289.0000000000001
 21
938.1556438311992
 31
0.0
  0
ENDBLK
  5
49
330
47
100
AcDbEntity
  8
0
100
AcDbBlockEnd
  0
BLOCK
  5
4B
330
4A
100
AcDbEntity
  8
0
100
AcDbBlockBegin
  2
開示A4
 70
     0
 10
0.0
 20
0.0
 30
0.0
  3
開示A4
  1

  0
POINT
  5
6C
330
4A
100
AcDbEntity
  8
1
 62
     4
100
AcDbPoint
 10
93.75
 20
17.0
 30
0.0
  0
POINT
  5
6D
330
4A
100
AcDbEntity
  8
1
 62
     4
100
AcDbPoint
 10
85.25
 20
17.0
 30
0.0
  0
POINT
  5
6E
330
4A
100
AcDbEntity
  8
1
 62
     4
100
AcDbPoint
 10
106.5
 20
19.0
 30
0.0
  0
POINT
  5
6F
330
4A
100
AcDbEntity
  8
1
 62
     4
100
AcDbPoint
 10
106.5
 20
12.5
 30
0.0
  0
POINT
  5
70
330
4A
100
AcDbEntity
  8
1
 62
     4
100
AcDbPoint
 10
112.25
 20
12.5
 30
0.0
  0
POINT
  5
71
330
4A
100
AcDbEntity
  8
1
 62
     4
100
AcDbPoint
 10
100.75
 20
12.5
 30
0.0
  0
POINT
  5
72
330
4A
100
AcDbEntity
  8
1
 62
     4
100
AcDbPoint
 10
123.5
 20
19.0
 30
0.0
  0
POINT
  5
73
330
4A
100
AcDbEntity
  8
1
 62
     4
100
AcDbPoint
 10
123.5
 20
12.5
 30
0.0
  0
POINT
  5
74
330
4A
100
AcDbEntity
  8
1
 62
     4
100
AcDbPoint
 10
129.25
 20
12.5
 30
0.0
  0
POINT
  5
75
330
4A
100
AcDbEntity
  8
1
 62
     4
100
AcDbPoint
 10
117.75
 20
12.5
 30
0.0
  0
POINT
  5
76
330
4A
100
AcDbEntity
  8
1
 62
     4
100
AcDbPoint
 10
140.5
 20
19.0
 30
0.0
  0
POINT
  5
77
330
4A
100
AcDbEntity
  8
1
 62
     4
100
AcDbPoint
 10
140.5
 20
12.5
 30
0.0
  0
POINT
  5
78
330
4A
100
AcDbEntity
  8
1
 62
     4
100
AcDbPoint
 10
146.25
 20
12.5
 30
0.0
  0
POINT
  5
79
330
4A
100
AcDbEntity
  8
1
 62
     4
100
AcDbPoint
 10
134.75
 20
12.5
 30
0.0
  0
POINT
  5
7A
330
4A
100
AcDbEntity
  8
1
 62
     4
100
AcDbPoint
 10
151.75
 20
12.5
 30
0.0
  0
POINT
  5
7B
330
4A
100
AcDbEntity
  8
1
 62
     4
100
AcDbPoint
 10
163.25
 20
12.5
 30
0.0
  0
POINT
  5
7C
330
4A
100
AcDbEntity
  8
1
 62
     4
100
AcDbPoint
 10
157.5
 20
12.5
 30
0.0
  0
POINT
  5
7D
330
4A
100
AcDbEntity
  8
1
 62
     4
100
AcDbPoint
 10
57.0
 20
14.25
 30
0.0
  0
POINT
  5
7E
330
4A
100
AcDbEntity
  8
1
 62
     4
100
AcDbPoint
 10
57.0
 20
22.75
 30
0.0
  0
POINT
  5
7F
330
4A
100
AcDbEntity
  8
1
 62
     4
100
AcDbPoint
 10
47.5
 20
282.0000000000003
 30
0.0
  0
POINT
  5
80
330
4A
100
AcDbEntity
  8
1
 62
     4
100
AcDbPoint
 10
157.5
 20
19.0
 30
0.0
  0
POINT
  5
81
330
4A
100
AcDbEntity
  8
1
 62
     4
100
AcDbPoint
 10
57.0
 20
16.25
 30
0.0
  0
POINT
  5
82
330
4A
100
AcDbEntity
  8
1
 62
     4
100
AcDbPoint
 10
57.0
 20
24.75
 30
0.0
  0
POINT
  5
83
330
4A
100
AcDbEntity
  8
1
 62
     4
100
AcDbPoint
 10
57.0
 20
20.75
 30
0.0
  0
POINT
  5
84
330
4A
100
AcDbEntity
  8
1
 62
     4
100
AcDbPoint
 10
57.0
 20
12.25
 30
0.0
  0
POINT
  5
85
330
4A
100
AcDbEntity
  8
1
 62
     4
100
AcDbPoint
 10
34.0
 20
34.0
 30
0.0
  0
LINE
  5
86
330
4A
100
AcDbEntity
  8
1
  6
Continuous
 62
     7
100
AcDbLine
 10
105.0
 20
10.0
 30
0.0
 11
200.0
 21
10.0
 31
0.0
  0
LINE
  5
87
330
4A
100
AcDbEntity
  8
1
  6
Continuous
 62
     2
100
AcDbLine
 10
105.0
 20
10.0
 30
0.0
 11
105.0
 21
5.0
 31
0.0
  0
LINE
  5
88
330
4A
100
AcDbEntity
  8
1
  6
Continuous
 62
     7
100
AcDbLine
 10
200.0
 20
148.5
 30
0.0
 11
200.0
 21
287.0000000000003
 31
0.0
  0
LINE
  5
89
330
4A
100
AcDbEntity
  8
1
  6
Continuous
 62
     2
100
AcDbLine
 10
200.0
 20
148.5
 30
0.0
 11
205.0
 21
148.5
 31
0.0
  0
LINE
  5
8A
330
4A
100
AcDbEntity
  8
1
  6
Continuous
 62
     7
100
AcDbLine
 10
25.0
 20
148.5
 30
0.0
 11
25.0
 21
287.0000000000003
 31
0.0
  0
LINE
  5
8B
330
4A
100
AcDbEntity
  8
1
  6
Continuous
 62
     2
100
AcDbLine
 10
25.0
 20
148.5
 30
0.0
 11
20.0
 21
148.5
 31
0.0
  0
LINE
  5
8C
330
4A
100
AcDbEntity
  8
1
  6
Continuous
 62
     7
100
AcDbLine
 10
105.0
 20
287.0000000000003
 30
0.0
 11
25.0
 21
287.0000000000003
 31
0.0
  0
LINE
  5
8D
330
4A
100
AcDbEntity
  8
1
  6
Continuous
 62
     2
100
AcDbLine
 10
105.0
 20
287.0000000000003
 30
0.0
 11
105.0
 21
292.0000000000003
 31
0.0
  0
LINE
  5
8E
330
4A
100
AcDbEntity
  8
1
  6
Continuous
 62
     2
100
AcDbLine
 10
166.0
 20
20.0
 30
0.0
 11
200.0
 21
20.0
 31
0.0
  0
LINE
  5
8F
330
4A
100
AcDbEntity
  8
1
  6
Continuous
 62
     2
100
AcDbLine
 10
98.0
 20
27.0
 30
0.0
 11
98.0
 21
10.0
 31
0.0
  0
LINE
  5
90
330
4A
100
AcDbEntity
  8
1
  6
Continuous
 62
     2
100
AcDbLine
 10
115.0
 20
27.0
 30
0.0
 11
115.0
 21
10.0
 31
0.0
  0
LINE
  5
91
330
4A
100
AcDbEntity
  8
1
  6
Continuous
 62
     2
100
AcDbLine
 10
149.0
 20
27.0
 30
0.0
 11
149.0
 21
10.0
 31
0.0
  0
LINE
  5
92
330
4A
100
AcDbEntity
  8
1
  6
Continuous
 62
     2
100
AcDbLine
 10
132.0
 20
27.0
 30
0.0
 11
132.0
 21
10.0
 31
0.0
  0
LINE
  5
93
330
4A
100
AcDbEntity
  8
1
  6
Continuous
 62
     2
100
AcDbLine
 10
166.0
 20
27.0
 30
0.0
 11
166.0
 21
10.0
 31
0.0
  0
LINE
  5
94
330
4A
100
AcDbEntity
  8
1
  6
Continuous
 62
     2
100
AcDbLine
 10
55.0
 20
277.0000000000003
 30
0.0
 11
25.0
 21
277.0000000000003
 31
0.0
  0
LINE
  5
95
330
4A
100
AcDbEntity
  8
1
  6
Continuous
 62
     7
100
AcDbLine
 10
25.0
 20
10.0
 30
0.0
 11
25.0
 21
148.5
 31
0.0
  0
LINE
  5
96
330
4A
100
AcDbEntity
  8
1
  6
Continuous
 62
     2
100
AcDbLine
 10
40.0
 20
287.0000000000003
 30
0.0
 11
40.0
 21
277.0000000000003
 31
0.0
  0
LINE
  5
97
330
4A
100
AcDbEntity
  8
1
  6
Continuous
 62
     2
100
AcDbLine
 10
55.0
 20
287.0000000000003
 30
0.0
 11
55.0
 21
277.0000000000003
 31
0.0
  0
LINE
  5
98
330
4A
100
AcDbEntity
  8
1
  6
Continuous
 62
     2
100
AcDbLine
 10
33.0
 20
41.0
 30
0.0
 11
33.0
 21
27.0
 31
0.0
  0
LINE
  5
99
330
4A
100
AcDbEntity
  8
1
  6
Continuous
 62
     7
100
AcDbLine
 10
200.0
 20
27.0
 30
0.0
 11
25.0
 21
27.0
 31
0.0
  0
LINE
  5
9A
330
4A
100
AcDbEntity
  8
1
  6
Continuous
 62
     7
100
AcDbLine
 10
25.0
 20
41.0
 30
0.0
 11
200.0
 21
41.0
 31
0.0
  0
LINE
  5
9B
330
4A
100
AcDbEntity
  8
1
  6
PHANTOM
 62
     4
100
AcDbLine
 10
0.0
 20
0.0
 30
0.0
 11
210.0000000000001
 21
0.0
 31
0.0
  0
LINE
  5
9C
330
4A
100
AcDbEntity
  8
1
  6
PHANTOM
 62
     4
100
AcDbLine
 10
210.0000000000001
 20
0.0
 30
0.0
 11
210.0000000000001
 21
297.0000000000001
 31
0.0
  0
LINE
  5
9D
330
4A
100
AcDbEntity
  8
1
  6
PHANTOM
 62
     4
100
AcDbLine
 10
210.0000000000001
 20
297.0000000000001
 30
0.0
 11
0.0
 21
297.0000000000001
 31
0.0
  0
LINE
  5
9E
330
4A
100
AcDbEntity
  8
1
  6
PHANTOM
 62
     4
100
AcDbLine
 10
0.0
 20
297.0000000000001
 30
0.0
 11
0.0
 21
0.0
 31
0.0
  0
LINE
  5
9F
330
4A
100
AcDbEntity
  8
1
  6
Continuous
 62
     7
100
AcDbLine
 10
25.0
 20
10.0
 30
0.0
 11
105.0
 21
10.0
 31
0.0
  0
LINE
  5
A0
330
4A
100
AcDbEntity
  8
1
  6
Continuous
 62
     7
100
AcDbLine
 10
200.0
 20
10.0
 30
0.0
 11
200.0
 21
148.5
 31
0.0
  0
LINE
  5
A1
330
4A
100
AcDbEntity
  8
1
  6
Continuous
 62
     7
100
AcDbLine
 10
200.0
 20
287.0000000000003
 30
0.0
 11
105.0
 21
287.0000000000003
 31
0.0
  0
LINE
  5
A2
330
4A
100
AcDbEntity
  8
1
  6
Continuous
 62
     2
100
AcDbLine
 10
25.0
 20
18.5
 30
0.0
 11
81.0
 21
18.5
 31
0.0
  0
LINE
  5
A3
330
4A
100
AcDbEntity
  8
1
  6
Continuous
 62
     2
100
AcDbLine
 10
33.0
 20
27.0
 30
0.0
 11
33.0
 21
10.0
 31
0.0
  0
LINE
  5
A4
330
4A
100
AcDbEntity
  8
1
  6
Continuous
 62
     7
100
AcDbLine
 10
191.0
 20
24.69999999999999
 30
0.0
 11
191.0
 21
22.30000000000001
 31
0.0
  0
LINE
  5
A5
330
4A
100
AcDbEntity
  8
1
  6
Continuous
 62
     7
100
AcDbLine
 10
191.0
 20
24.69999999999999
 30
0.0
 11
196.0
 21
25.5
 31
0.0
  0
LINE
  5
A6
330
4A
100
AcDbEntity
  8
1
  6
Continuous
 62
     7
100
AcDbLine
 10
196.0
 20
25.5
 30
0.0
 11
196.0
 21
21.5
 31
0.0
  0
LINE
  5
A7
330
4A
100
AcDbEntity
  8
1
  6
Continuous
 62
     7
100
AcDbLine
 10
196.0
 20
21.5
 30
0.0
 11
191.0
 21
22.30000000000001
 31
0.0
  0
LINE
  5
A8
330
4A
100
AcDbEntity
  8
1
  6
DOT_CENTER
 62
     2
100
AcDbLine
 10
184.0
 20
23.5
 30
0.0
 11
197.0
 21
23.5
 31
0.0
  0
LINE
  5
A9
330
4A
100
AcDbEntity
  8
1
  6
DOT_CENTER
 62
     2
100
AcDbLine
 10
187.0
 20
26.5
 30
0.0
 11
187.0
 21
20.5
 31
0.0
  0
LINE
  5
AA
330
4A
100
AcDbEntity
  8
1
  6
Continuous
 62
     2
100
AcDbLine
 10
81.0
 20
27.0
 30
0.0
 11
81.0
 21
10.0
 31
0.0
  0
CIRCLE
  5
AB
330
4A
100
AcDbEntity
  8
1
  6
Continuous
 62
     7
100
AcDbCircle
 10
103.5
 20
12.5
 30
0.0
 40
0.2999999999999972
  0
CIRCLE
  5
AC
330
4A
100
AcDbEntity
  8
1
  6
Continuous
 62
     7
100
AcDbCircle
 10
109.5
 20
12.5
 30
0.0
 40
0.2999999999999972
  0
CIRCLE
  5
AD
330
4A
100
AcDbEntity
  8
1
  6
Continuous
 62
     7
100
AcDbCircle
 10
120.5
 20
12.5
 30
0.0
 40
0.2999999999999972
  0
CIRCLE
  5
AE
330
4A
100
AcDbEntity
  8
1
  6
Continuous
 62
     7
100
AcDbCircle
 10
126.5
 20
12.5
 30
0.0
 40
0.2999999999999972
  0
CIRCLE
  5
AF
330
4A
100
AcDbEntity
  8
1
  6
Continuous
 62
     7
100
AcDbCircle
 10
137.5
 20
12.5
 30
0.0
 40
0.3000000000000114
  0
CIRCLE
  5
B0
330
4A
100
AcDbEntity
  8
1
  6
Continuous
 62
     7
100
AcDbCircle
 10
143.5
 20
12.5
 30
0.0
 40
0.3000000000000114
  0
CIRCLE
  5
B1
330
4A
100
AcDbEntity
  8
1
  6
Continuous
 62
     7
100
AcDbCircle
 10
160.5
 20
12.5
 30
0.0
 40
0.3000000000000114
  0
CIRCLE
  5
B2
330
4A
100
AcDbEntity
  8
1
  6
Continuous
 62
     7
100
AcDbCircle
 10
154.5
 20
12.5
 30
0.0
 40
0.3000000000000114
  0
CIRCLE
  5
B3
330
4A
100
AcDbEntity
  8
1
  6
Continuous
 62
     7
100
AcDbCircle
 10
187.0
 20
23.5
 30
0.0
 40
1.200000000000102
  0
CIRCLE
  5
B4
330
4A
100
AcDbEntity
  8
1
  6
Continuous
 62
     7
100
AcDbCircle
 10
187.0
 20
23.5
 30
0.0
 40
2.0
  0
CIRCLE
  5
B5
330
4A
100
AcDbEntity
  8
1
  6
DOT_CENTER
 62
     7
100
AcDbCircle
 10
89.5
 20
16.0
 30
0.0
 40
0.1000000000000227
  0
CIRCLE
  5
B6
330
4A
100
AcDbEntity
  8
1
  6
DOT_CENTER
 62
     7
100
AcDbCircle
 10
89.5
 20
18.0
 30
0.0
 40
0.1000000000000227
  0
MTEXT
  5
B8
330
4A
100
AcDbEntity
  8
1
 62
     7
100
AcDbMText
 10
188.5
 20
15.0
 30
0.0
 40
3.0
 41
0.0
 71
     5
 72
     1
  1
三栄水栓製作所
  7
CONVERTER_11
 73
     1
 44
1.0
  0
MTEXT
  5
B9
330
4A
100
AcDbEntity
  8
1
 62
     7
100
AcDbMText
 10
171.5
 20
15.0
 30
0.0
 40
2.5
 41
0.0
 71
     5
 72
     1
  1
株式会社
  7
CONVERTER_11
 73
     1
 44
1.0
  0
MTEXT
  5
BA
330
4A
100
AcDbEntity
  8
1
 62
     2
100
AcDbMText
 10
32.5
 20
282.0000000000003
 30
0.0
 40
5.0
 41
0.0
 71
     5
 72
     1
  1
図番
  7
CONVERTER_11
 73
     1
 44
0.45454545454545
  0
MTEXT
  5
BB
330
4A
100
AcDbEntity
  8
1
 62
     2
100
AcDbMText
 10
29.0
 20
34.0
 30
0.0
 40
3.5
 41
0.0
 71
     5
 72
     1
  1
備考
  7
CONVERTER_11
 73
     1
 44
0.45454545454545
  0
MTEXT
  5
BC
330
4A
100
AcDbEntity
  8
1
 62
     2
100
AcDbMText
 10
29.0
 20
22.75
 30
0.0
 40
3.5
 41
0.0
 71
     5
 72
     1
  1
品名
  7
CONVERTER_11
 73
     1
 44
0.72727272727273
  0
MTEXT
  5
BD
330
4A
100
AcDbEntity
  8
1
 62
     2
100
AcDbMText
 10
29.0
 20
14.25
 30
0.0
 40
3.5
 41
0.0
 71
     5
 72
     1
  1
品番
  7
CONVERTER_11
 73
     1
 44
0.72727272727273
  0
MTEXT
  5
BE
330
4A
100
AcDbEntity
  8
1
 62
     2
100
AcDbMText
 10
101.5
 20
25.0
 30
0.0
 40
3.0
 41
0.0
 71
     5
 72
     1
  1
承認
  7
CONVERTER_11
 73
     1
 44
0.59090909090909
  0
MTEXT
  5
BF
330
4A
100
AcDbEntity
  8
1
 62
     2
100
AcDbMText
 10
175.0
 20
23.5
 30
0.0
 40
3.5
 41
0.0
 71
     5
 72
     1
  1
第三角法
  7
CONVERTER_11
 73
     1
 44
0.54545454545455
  0
MTEXT
  5
C0
330
4A
100
AcDbEntity
  8
1
 62
     2
100
AcDbMText
 10
118.5
 20
25.0
 30
0.0
 40
3.0
 41
0.0
 71
     5
 72
     1
  1
検図
  7
CONVERTER_11
 73
     1
 44
0.59090909090909
  0
MTEXT
  5
C1
330
4A
100
AcDbEntity
  8
1
 62
     2
100
AcDbMText
 10
152.5
 20
25.0
 30
0.0
 40
3.0
 41
0.0
 71
     5
 72
     1
  1
設計
  7
CONVERTER_11
 73
     1
 44
0.59090909090909
  0
MTEXT
  5
C2
330
4A
100
AcDbEntity
  8
1
 62
     2
100
AcDbMText
 10
135.5
 20
25.0
 30
0.0
 40
3.0
 41
0.0
 71
     5
 72
     1
  1
製図
  7
CONVERTER_11
 73
     1
 44
0.59090909090909
  0
MTEXT
  5
C3
330
4A
100
AcDbEntity
  8
1
 62
     2
100
AcDbMText
 10
89.5
 20
24.0
 30
0.0
 40
3.5
 41
0.0
 71
     5
 72
     1
  1
尺度
  7
CONVERTER_11
 73
     1
 44
0.54545454545455
  0
MTEXT
  5
C4
330
4A
100
AcDbEntity
  8
1
 62
   250
100
AcDbMText
 10
25.0
 20
5.0
 30
0.0
 40
3.5
 41
0.0
 71
     4
 72
     1
  1
備考欄の文字列 原点位置=4
  7
CONVERTER_11
 73
     1
 44
0.54545454545455
  0
ENDBLK
  5
4C
330
4A
100
AcDbEntity
  8
0
100
AcDbBlockEnd
  0
BLOCK
  5
4E
330
4D
100
AcDbEntity
  8
0
100
AcDbBlockBegin
  2
32-12-M2
 70
     0
 10
363.5356166437393
 20
709.7040673785477
 30
0.0
  3
32-12-M2
  1

  0
LINE
  5
C5
330
4D
100
AcDbEntity
  8
1
  6
Continuous
 62
     7
100
AcDbLine
 10
436.6076951545867
 20
671.3614610364332
 30
0.0
 11
458.3923048454134
 21
671.3614610364332
 31
0.0
  0
LINE
  5
C6
330
4D
100
AcDbEntity
  8
1
  6
Continuous
 62
     7
100
AcDbLine
 10
440.8000000000001
 20
683.3614610364332
 30
0.0
 11
436.6076951545867
 21
683.3614610364332
 31
0.0
  0
LINE
  5
C7
330
4D
100
AcDbEntity
  8
1
  6
Continuous
 62
     7
100
AcDbLine
 10
458.3923048454133
 20
683.3614610364332
 30
0.0
 11
454.1999999999999
 21
683.3614610364332
 31
0.0
  0
LINE
  5
C8
330
4D
100
AcDbEntity
  8
1
  6
Continuous
 62
     7
100
AcDbLine
 10
454.1999999999999
 20
683.3614610364332
 30
0.0
 11
440.8000000000001
 21
683.3614610364332
 31
0.0
  0
LINE
  5
C9
330
4D
100
AcDbEntity
  8
1
  6
Continuous
 62
     7
100
AcDbLine
 10
289.0073593128806
 20
955.6998419615875
 30
0.0
 11
289.715390309173
 21
955.2910600752832
 31
0.0
  0
LINE
  5
CA
330
4D
100
AcDbEntity
  8
1
  6
Continuous
 62
     7
100
AcDbLine
 10
289.715390309173
 20
955.2910600752832
 30
0.0
 11
297.492640687119
 21
950.8008624760207
 31
0.0
  0
LINE
  5
CB
330
4D
100
AcDbEntity
  8
1
  6
Continuous
 62
     7
100
AcDbLine
 10
298.9999999999999
 20
948.1900395608493
 30
0.0
 11
298.9999999999999
 21
938.3920805897168
 31
0.0
  0
LINE
  5
CC
330
4D
100
AcDbEntity
  8
1
  6
Continuous
 62
     7
100
AcDbLine
 10
297.492640687119
 20
935.7812576745449
 30
0.0
 11
289.0073593128806
 21
930.8822781889787
 31
0.0
  0
LINE
  5
CD
330
4D
100
AcDbEntity
  8
1
  6
Continuous
 62
     7
100
AcDbLine
 10
285.992640687119
 20
930.8822781889787
 30
0.0
 11
277.5073593128806
 21
935.7812576745449
 31
0.0
  0
LINE
  5
CE
330
4D
100
AcDbEntity
  8
1
  6
Continuous
 62
     7
100
AcDbLine
 10
275.9999999999999
 20
938.3920805897168
 30
0.0
 11
275.9999999999999
 21
948.1900395608493
 31
0.0
  0
LINE
  5
CF
330
4D
100
AcDbEntity
  8
1
  6
Continuous
 62
     7
100
AcDbLine
 10
277.5073593128806
 20
950.8008624760207
 30
0.0
 11
285.992640687119
 21
955.6998419615875
 31
0.0
  0
LINE
  5
D0
330
4D
100
AcDbEntity
  8
1
  6
Continuous
 62
     7
100
AcDbLine
 10
276.6076951545866
 20
683.3614610364332
 30
0.0
 11
298.3923048454133
 21
683.3614610364332
 31
0.0
  0
LINE
  5
D1
330
4D
100
AcDbEntity
  8
1
  6
Continuous
 62
     7
100
AcDbLine
 10
299.0000000000001
 20
682.1572925597459
 30
0.0
 11
299.0000000000001
 21
672.5656295131205
 31
0.0
  0
LINE
  5
D2
330
4D
100
AcDbEntity
  8
1
  6
Continuous
 62
     7
100
AcDbLine
 10
276.0000000000001
 20
682.1572925597459
 30
0.0
 11
276.0000000000001
 21
672.5656295131203
 31
0.0
  0
LINE
  5
D3
330
4D
100
AcDbEntity
  8
1
  6
Continuous
 62
     7
100
AcDbLine
 10
298.3923048454133
 20
671.3614610364332
 30
0.0
 11
276.6076951545866
 21
671.3614610364332
 31
0.0
  0
ARC
  5
D4
330
4D
100
AcDbEntity
  8
1
  6
Continuous
 62
     7
100
AcDbCircle
 10
447.0
 20
677.3614610364332
 30
0.0
 40
12.00000000000005
100
AcDbArc
 50
150.0000000000001
 51
209.9999999999999
  0
ARC
  5
D5
330
4D
100
AcDbEntity
  8
1
  6
Continuous
 62
     7
100
AcDbCircle
 10
448.0
 20
677.3614610364332
 30
0.0
 40
12.0000000000001
100
AcDbArc
 50
330.0000000000003
 51
29.99999999999986
  0
ARC
  5
D6
330
4D
100
AcDbEntity
  8
1
  6
Continuous
 62
     7
100
AcDbCircle
 10
287.4999999999999
 20
943.291060075283
 30
0.0
 40
12.50000000000027
100
AcDbArc
 50
83.07391806563103
 51
90.0
  0
ARC
  5
D7
330
4D
100
AcDbEntity
  8
1
  6
Continuous
 62
     7
100
AcDbCircle
 10
287.4999999999999
 20
943.291060075283
 30
0.0
 40
12.5
100
AcDbArc
 50
90.0
 51
96.92608193436976
  0
ARC
  5
D8
330
4D
100
AcDbEntity
  8
1
  6
Continuous
 62
     7
100
AcDbCircle
 10
287.4999999999999
 20
943.291060075283
 30
0.0
 40
12.49999999999998
100
AcDbArc
 50
23.0739180656308
 51
36.92608193436904
  0
ARC
  5
D9
330
4D
100
AcDbEntity
  8
1
  6
Continuous
 62
     7
100
AcDbCircle
 10
287.4999999999999
 20
943.291060075283
 30
0.0
 40
12.49999999999997
100
AcDbArc
 50
323.0739180656298
 51
336.9260819343697
  0
ARC
  5
DA
330
4D
100
AcDbEntity
  8
1
  6
Continuous
 62
     7
100
AcDbCircle
 10
287.4999999999999
 20
943.291060075283
 30
0.0
 40
12.5
100
AcDbArc
 50
270.0
 51
276.9260819343691
  0
ARC
  5
DB
330
4D
100
AcDbEntity
  8
1
  6
Continuous
 62
     7
100
AcDbCircle
 10
287.4999999999999
 20
943.291060075283
 30
0.0
 40
12.50000000000007
100
AcDbArc
 50
263.0739180656301
 51
270.0
  0
ARC
  5
DC
330
4D
100
AcDbEntity
  8
1
  6
Continuous
 62
     7
100
AcDbCircle
 10
287.4999999999999
 20
943.291060075283
 30
0.0
 40
12.49999999999994
100
AcDbArc
 50
203.0739180656303
 51
216.9260819343698
  0
ARC
  5
DD
330
4D
100
AcDbEntity
  8
1
  6
Continuous
 62
     7
100
AcDbCircle
 10
287.4999999999999
 20
943.291060075283
 30
0.0
 40
12.4999999999999
100
AcDbArc
 50
143.0739180656314
 51
156.9260819343692
  0
ARC
  5
DE
330
4D
100
AcDbEntity
  8
1
  6
Continuous
 62
     7
100
AcDbCircle
 10
288.0000000000001
 20
677.3614610364332
 30
0.0
 40
11.99999999999999
100
AcDbArc
 50
23.55646430910114
 51
30.00000000000014
  0
ARC
  5
DF
330
4D
100
AcDbEntity
  8
1
  6
Continuous
 62
     7
100
AcDbCircle
 10
287.0000000000001
 20
677.3614610364332
 30
0.0
 40
12.00000000000008
100
AcDbArc
 50
203.5564643091021
 51
209.9999999999995
  0
ARC
  5
E0
330
4D
100
AcDbEntity
  8
1
  6
Continuous
 62
     7
100
AcDbCircle
 10
288.0000000000001
 20
677.3614610364332
 30
0.0
 40
11.99999999999995
100
AcDbArc
 50
329.9999999999999
 51
336.4435356908989
  0
ARC
  5
E1
330
4D
100
AcDbEntity
  8
1
  6
Continuous
 62
     7
100
AcDbCircle
 10
287.0000000000001
 20
677.3614610364332
 30
0.0
 40
12.0000000000002
100
AcDbArc
 50
150.0000000000005
 51
156.4435356908989
  0
CIRCLE
  5
E2
330
4D
100
AcDbEntity
  8
1
  6
Continuous
 62
     7
100
AcDbCircle
 10
447.5
 20
677.4003125396432
 30
0.0
 40
4.835606911877676
  0
CIRCLE
  5
E3
330
4D
100
AcDbEntity
  8
1
  6
Continuous
 62
     7
100
AcDbCircle
 10
287.4999999999999
 20
943.291060075283
 30
0.0
 40
6.699999999999818
  0
CIRCLE
  5
E4
330
4D
100
AcDbEntity
  8
1
  6
Continuous
 62
     7
100
AcDbCircle
 10
287.4999999999999
 20
943.291060075283
 30
0.0
 40
10.89230484541349
  0
SPLINE
  5
E5
330
4D
100
AcDbEntity
  8
1
  6
Continuous
 62
     7
100
AcDbSpline
210
0.0
220
0.0
230
1.0
 70
    11
 71
     3
 72
    79
 73
    75
 74
    73
 42
0.000000001
 43
0.0000000001
 44
0.00000001
 40
0.0
 40
0.0
 40
0.0
 40
0.0
 40
0.372126926057033
 40
0.7442241997296619
 40
1.120685945014029
 40
1.497095191274285
 40
1.8800956374567
 40
2.263031406811849
 40
2.653902197250344
 40
3.044706822193603
 40
3.443784211100192
 40
3.84280220585647
 40
4.249442255542868
 40
4.656034921659559
 40
5.06873805346492
 40
5.48140861106542
 40
5.898019637060284
 40
6.314614155791348
 40
6.732568579169981
 40
7.150523002539442
 40
7.5671175212423
 40
7.98372854718964
 40
8.396399104722894
 40
8.809102236439813
 40
9.215694902447137
 40
9.622334951999907
 40
10.02135294659924
 40
10.42043033532003
 40
10.81123496004971
 40
11.20210575023838
 40
11.58504151930459
 40
11.96804196513942
 40
12.34445121096107
 40
12.72091295559517
 40
13.09301022779935
 40
13.46513716258993
 40
13.83573641483297
 40
14.20633566707483
 40
14.57846260186225
 40
14.95055987406098
 40
15.32702161868744
 40
15.70343086449962
 40
16.08643131032299
 40
16.4693670793764
 40
16.86023786955064
 40
17.25104249426473
 40
17.65011988296854
 40
18.0491378775502
 40
18.45577792708407
 40
18.86237059307213
 40
19.27507372476904
 40
19.68774428228157
 40
20.10435530820803
 40
20.52094982688935
 40
20.93890425023708
 40
21.35685867359369
 40
21.7734531923023
 40
22.19006421827432
 40
22.60273477585195
 40
23.01543790763362
 40
23.4220305737264
 40
23.82867062338784
 40
24.22768861811847
 40
24.62676600699696
 40
25.01757063190941
 40
25.40844142231181
 40
25.79137719162084
 40
26.17437763773576
 40
26.55078688387741
 40
26.92724862888881
 40
27.29934590156125
 40
27.67147283702676
 40
28.04207209076652
 40
28.41267133429882
 40
28.41267133429882
 40
28.41267133429882
 40
28.41267133429882
 10
292.8798558779105
 20
682.1389313290846
 30
0.0
 10
292.7567096173519
 20
682.1232173237327
 30
0.0
 10
292.5104269082137
 20
682.0917905707603
 30
0.0
 10
292.1478037252358
 20
681.9983750157517
 30
0.0
 10
291.7940129882234
 20
681.8727287139909
 30
0.0
 10
291.450842786787
 20
681.71130987389
 30
0.0
 10
291.1223144564925
 20
681.5177243585028
 30
0.0
 10
290.8093066706082
 20
681.2916063295505
 30
0.0
 10
290.5158813875493
 20
681.0366367214249
 30
0.0
 10
290.2425603530669
 20
680.7527428791249
 30
0.0
 10
289.9929792891033
 20
680.4442755650368
 30
0.0
 10
289.7675685669167
 20
680.1113650458677
 30
0.0
 10
289.5692326792164
 20
679.7587755101675
 30
0.0
 10
289.3984526339306
 20
679.3870423637883
 30
0.0
 10
289.2572448544313
 20
679.000961925486
 30
0.0
 10
289.1461428838865
 20
678.60171383983
 30
0.0
 10
289.0662739290976
 20
678.1937443415688
 30
0.0
 10
289.0180969489495
 20
677.7790655273259
 30
0.0
 10
289.0019817503566
 20
677.3614610460844
 30
0.0
 10
289.0180969486287
 20
676.9438565648318
 30
0.0
 10
289.0662739284571
 20
676.5291777506045
 30
0.0
 10
289.146142882912
 20
676.1212082522393
 30
0.0
 10
289.2572448531595
 20
675.7219601668908
 30
0.0
 10
289.3984526322016
 20
675.3358797273411
 30
0.0
 10
289.569232677587
 20
674.9641465854093
 30
0.0
 10
289.767568563289
 20
674.6115570330828
 30
0.0
 10
289.992979291136
 20
674.2786465746302
 30
0.0
 10
290.2425603324643
 20
673.9701790360946
 30
0.0
 10
290.5158814479624
 20
673.6862860145599
 30
0.0
 10
290.8093064300837
 20
673.4313133765086
 30
0.0
 10
291.1223153153778
 20
673.2052064364077
 30
0.0
 10
291.4508395808492
 20
673.011579944176
 30
0.0
 10
291.7940247017648
 20
672.850311529753
 30
0.0
 10
292.1477601647089
 20
672.7241079604908
 30
0.0
 10
292.5105873638468
 20
672.6327492935449
 30
0.0
 10
292.8787522335409
 20
672.5780252258617
 30
0.0
 10
293.2499999994287
 20
672.5594444198334
 30
0.0
 10
293.6212477653166
 20
672.5780252258387
 30
0.0
 10
293.9894126350108
 20
672.6327492934993
 30
0.0
 10
294.3522398341488
 20
672.7241079604228
 30
0.0
 10
294.7059752970929
 20
672.8503115296626
 30
0.0
 10
295.0491604180085
 20
673.0115799440637
 30
0.0
 10
295.3776846834799
 20
673.205206436273
 30
0.0
 10
295.690693568774
 20
673.4313133763517
 30
0.0
 10
295.9841185508951
 20
673.6862860143817
 30
0.0
 10
296.2574396663931
 20
673.9701790358948
 30
0.0
 10
296.507020707721
 20
674.2786465744095
 30
0.0
 10
296.7324314355676
 20
674.6115570328403
 30
0.0
 10
296.930767321269
 20
674.964146585146
 30
0.0
 10
297.1015473666539
 20
675.3358797270567
 30
0.0
 10
297.2427551456952
 20
675.7219601665852
 30
0.0
 10
297.3538571159419
 20
676.121208251913
 30
0.0
 10
297.4337260703961
 20
676.5291777502565
 30
0.0
 10
297.4819030502239
 20
676.9438565644632
 30
0.0
 10
297.4980182484949
 20
677.3614610456923
 30
0.0
 10
297.4819030499024
 20
677.7790655269176
 30
0.0
 10
297.4337260697515
 20
678.193744341116
 30
0.0
 10
297.3538571149726
 20
678.6017138394363
 30
0.0
 10
297.2427551443939
 20
679.0009619247633
 30
0.0
 10
297.1015473650265
 20
679.3870423641731
 30
0.0
 10
296.9307673192682
 20
679.7587755063646
 30
0.0
 10
296.7324314333362
 20
680.1113650574324
 30
0.0
 10
296.5070207046992
 20
680.4442755201571
 30
0.0
 10
296.2574396645994
 20
680.7527430425229
 30
0.0
 10
295.984118542888
 20
681.0366361227613
 30
0.0
 10
295.690693581908
 20
681.2916085436087
 30
0.0
 10
295.3776846174022
 20
681.5177162780672
 30
0.0
 10
295.0491606427047
 20
681.7113398342389
 30
0.0
 10
294.7059744523352
 20
681.872619026159
 30
0.0
 10
294.3522429490902
 20
681.9987826681557
 30
0.0
 10
293.989401132113
 20
682.0902887065993
 30
0.0
 10
293.6212906103973
 20
682.1444648239143
 30
0.0
 10
293.2498407940523
 20
682.1650827354051
 30
0.0
 10
293.0031841822802
 20
682.1476484625522
 30
0.0
 10
292.8798558779105
 20
682.1389313290845
 30
0.0
 11
292.8798558779105
 21
682.1389313290846
 31
0.0
 11
292.5117852474178
 21
682.0841365600838
 31
0.0
 11
292.1508959689758
 21
681.9934982192565
 31
0.0
 11
291.7963248415017
 21
681.8669962000106
 31
0.0
 11
291.4555449203731
 21
681.7071432493722
 31
0.0
 11
291.125553920395
 21
681.5127331632852
 31
0.0
 11
290.8149837691157
 21
681.2887108775956
 31
0.0
 11
290.5198658025809
 21
681.0324193237589
 31
0.0
 11
290.248642976252
 21
680.7510540215337
 31
0.0
 11
289.9975210504903
 21
680.4408919015175
 31
0.0
 11
289.7736376569575
 21
680.1106017469447
 31
0.0
 11
289.5741666541579
 21
679.7562467709247
 31
0.0
 11
289.4042850027424
 21
679.3868447938835
 31
0.0
 11
289.2624340875303
 21
678.9992855173148
 31
0.0
 11
289.1517008182735
 21
678.601749189166
 31
0.0
 11
289.0716057629214
 21
678.1929099431227
 31
0.0
 11
289.0234812371283
 21
677.7791044053654
 31
0.0
 11
289.0073593128807
 21
677.3614610364332
 31
0.0
 11
289.0234812371283
 21
676.9438176675008
 31
0.0
 11
289.0716057629214
 21
676.5300121297435
 31
0.0
 11
289.1517008182735
 21
676.1211728837001
 31
0.0
 11
289.2624340875303
 21
675.7236365555514
 31
0.0
 11
289.4042850027424
 21
675.3360772789827
 31
0.0
 11
289.5741666541578
 21
674.9666753019415
 31
0.0
 11
289.7736376569575
 21
674.6123203259215
 31
0.0
 11
289.9975210504904
 21
674.2820301713485
 31
0.0
 11
290.2486429762521
 21
673.9718680513324
 31
0.0
 11
290.5198658025809
 21
673.6905027491074
 31
0.0
 11
290.8149837691158
 21
673.4342111952706
 31
0.0
 11
291.125553920395
 21
673.2101889095809
 31
0.0
 11
291.4555449203732
 21
673.015778823494
 31
0.0
 11
291.7963248415017
 21
672.8559258728558
 31
0.0
 11
292.1508959689758
 21
672.7294238536098
 31
0.0
 11
292.5117852474178
 21
672.6387855127823
 31
0.0
 11
292.8798558779105
 21
672.5839907437817
 31
0.0
 11
293.2499999999999
 21
672.5656295131205
 31
0.0
 11
293.6201441220894
 21
672.5839907437817
 31
0.0
 11
293.9882147525822
 21
672.6387855127822
 31
0.0
 11
294.3491040310242
 21
672.7294238536097
 31
0.0
 11
294.7036751584982
 21
672.8559258728557
 31
0.0
 11
295.0444550796267
 21
673.015778823494
 31
0.0
 11
295.3744460796048
 21
673.2101889095808
 31
0.0
 11
295.6850162308841
 21
673.4342111952706
 31
0.0
 11
295.9801341974191
 21
673.6905027491074
 31
0.0
 11
296.2513570237479
 21
673.9718680513324
 31
0.0
 11
296.5024789495096
 21
674.2820301713485
 31
0.0
 11
296.7263623430425
 21
674.6123203259216
 31
0.0
 11
296.9258333458421
 21
674.9666753019415
 31
0.0
 11
297.0957149972575
 21
675.3360772789827
 31
0.0
 11
297.2375659124696
 21
675.7236365555515
 31
0.0
 11
297.3482991817264
 21
676.1211728837001
 31
0.0
 11
297.4283942370786
 21
676.5300121297436
 31
0.0
 11
297.4765187628717
 21
676.9438176675008
 31
0.0
 11
297.4926406871192
 21
677.3614610364332
 31
0.0
 11
297.4765187628717
 21
677.7791044053655
 31
0.0
 11
297.4283942370785
 21
678.1929099431227
 31
0.0
 11
297.3482991817264
 21
678.601749189166
 31
0.0
 11
297.2375659124696
 21
678.9992855173148
 31
0.0
 11
297.0957149972575
 21
679.3868447938835
 31
0.0
 11
296.9258333458421
 21
679.7562467709247
 31
0.0
 11
296.7263623430424
 21
680.1106017469447
 31
0.0
 11
296.5024789495094
 21
680.4408919015176
 31
0.0
 11
296.2513570237478
 21
680.7510540215337
 31
0.0
 11
295.980134197419
 21
681.0324193237587
 31
0.0
 11
295.6850162308841
 21
681.2887108775956
 31
0.0
 11
295.3744460796048
 21
681.5127331632852
 31
0.0
 11
295.0444550796267
 21
681.7071432493722
 31
0.0
 11
294.7036751584982
 21
681.8669962000106
 31
0.0
 11
294.3491040310242
 21
681.9934982192565
 31
0.0
 11
293.9882147525821
 21
682.0841365600838
 31
0.0
 11
293.6201441220894
 21
682.1389313290845
 31
0.0
 11
293.25
 21
682.1572925597459
 31
0.0
 11
292.8798558779105
 21
682.1389313290845
 31
0.0
  0
SPLINE
  5
E6
330
4D
100
AcDbEntity
  8
1
  6
Continuous
 62
     7
100
AcDbSpline
210
0.0
220
0.0
230
1.0
 70
    11
 71
     3
 72
    79
 73
    75
 74
    73
 42
0.000000001
 43
0.0000000001
 44
0.00000001
 40
0.0
 40
0.0
 40
0.0
 40
0.0
 40
0.3721269260570892
 40
0.7442241997297181
 40
1.120685945014032
 40
1.497095191274288
 40
1.880095637456702
 40
2.263031406811806
 40
2.653902197250386
 40
3.044706822193566
 40
3.443784211100119
 40
3.842802205856461
 40
4.249442255542887
 40
4.656034921659578
 40
5.0687380534649
 40
5.481408611065399
 40
5.898019637060264
 40
6.314614155791333
 40
6.732568579169964
 40
7.150523002539425
 40
7.567117521242289
 40
7.983728547189617
 40
8.396399104722857
 40
8.809102236439776
 40
9.215694902447122
 40
9.622334951999893
 40
10.02135294659923
 40
10.42043033531995
 40
10.81123496004962
 40
11.2021057502383
 40
11.58504151930455
 40
11.96804196513934
 40
12.34445121096109
 40
12.72091295559518
 40
13.09301022779931
 40
13.46513716258995
 40
13.83573641483282
 40
14.20633566707479
 40
14.57846260186221
 40
14.95055987406099
 40
15.3270216186874
 40
15.70343086449963
 40
16.086431310323
 40
16.46936707937637
 40
16.86023786955061
 40
17.25104249426466
 40
17.6501198829685
 40
18.04913787755017
 40
18.455777927084
 40
18.86237059307209
 40
19.27507372476898
 40
19.68774428228154
 40
20.10435530820798
 40
20.5209498268893
 40
20.93890425023704
 40
21.35685867359365
 40
21.77345319230225
 40
22.19006421827427
 40
22.60273477585194
 40
23.01543790763361
 40
23.42203057372638
 40
23.82867062338775
 40
24.22768861811837
 40
24.6267660069969
 40
25.01757063190935
 40
25.40844142231179
 40
25.79137719162082
 40
26.1743776377357
 40
26.5507868838773
 40
26.92724862888869
 40
27.29934590156119
 40
27.67147283702681
 40
28.04207209076662
 40
28.41267133429881
 40
28.41267133429881
 40
28.41267133429881
 40
28.41267133429881
 10
282.1201441220894
 20
682.1389313290846
 30
0.0
 10
282.2432903826482
 20
682.123217323733
 30
0.0
 10
282.4895730917863
 20
682.0917905707602
 30
0.0
 10
282.8521962747642
 20
681.9983750157519
 30
0.0
 10
283.2059870117766
 20
681.8727287139909
 30
0.0
 10
283.5491572132129
 20
681.7113098738898
 30
0.0
 10
283.8776855435075
 20
681.5177243585032
 30
0.0
 10
284.1906933293916
 20
681.2916063295504
 30
0.0
 10
284.4841186124507
 20
681.0366367214249
 30
0.0
 10
284.7574396469331
 20
680.7527428791251
 30
0.0
 10
285.0070207108965
 20
680.4442755650366
 30
0.0
 10
285.2324314330832
 20
680.1113650458676
 30
0.0
 10
285.4307673207837
 20
679.7587755101679
 30
0.0
 10
285.6015473660694
 20
679.3870423637879
 30
0.0
 10
285.7427551455686
 20
679.0009619254862
 30
0.0
 10
285.8538571161134
 20
678.6017138398297
 30
0.0
 10
285.9337260709023
 20
678.1937443415691
 30
0.0
 10
285.9819030510505
 20
677.7790655273259
 30
0.0
 10
285.9980182496432
 20
677.3614610460843
 30
0.0
 10
285.9819030513713
 20
676.943856564832
 30
0.0
 10
285.9337260715426
 20
676.529177750604
 30
0.0
 10
285.8538571170878
 20
676.1212082522394
 30
0.0
 10
285.7427551468405
 20
675.7219601668908
 30
0.0
 10
285.6015473677984
 20
675.3358797273412
 30
0.0
 10
285.4307673224128
 20
674.9641465854091
 30
0.0
 10
285.232431436711
 20
674.6115570330828
 30
0.0
 10
285.0070207088639
 20
674.2786465746306
 30
0.0
 10
284.7574396675358
 20
673.9701790360946
 30
0.0
 10
284.4841185520374
 20
673.6862860145598
 30
0.0
 10
284.1906935699164
 20
673.4313133765086
 30
0.0
 10
283.8776846846222
 20
673.2052064364077
 30
0.0
 10
283.5491604191508
 20
673.0115799441761
 30
0.0
 10
283.205975298235
 20
672.850311529753
 30
0.0
 10
282.852239835291
 20
672.7241079604908
 30
0.0
 10
282.4894126361531
 20
672.6327492935449
 30
0.0
 10
282.1212477664591
 20
672.5780252258616
 30
0.0
 10
281.7500000005712
 20
672.5594444198334
 30
0.0
 10
281.3787522346833
 20
672.5780252258386
 30
0.0
 10
281.0105873649891
 20
672.6327492934993
 30
0.0
 10
280.6477601658511
 20
672.7241079604228
 30
0.0
 10
280.2940247029071
 20
672.8503115296625
 30
0.0
 10
279.9508395819915
 20
673.0115799440636
 30
0.0
 10
279.6223153165199
 20
673.205206436273
 30
0.0
 10
279.309306431226
 20
673.4313133763519
 30
0.0
 10
279.0158814491049
 20
673.6862860143814
 30
0.0
 10
278.7425603336069
 20
673.970179035895
 30
0.0
 10
278.492979292279
 20
674.2786465744094
 30
0.0
 10
278.2675685644324
 20
674.6115570328403
 30
0.0
 10
278.0692326787308
 20
674.9641465851458
 30
0.0
 10
277.8984526333461
 20
675.3358797270569
 30
0.0
 10
277.7572448543047
 20
675.7219601665854
 30
0.0
 10
277.646142884058
 20
676.121208251913
 30
0.0
 10
277.5662739296039
 20
676.5291777502564
 30
0.0
 10
277.5180969497761
 20
676.9438565644631
 30
0.0
 10
277.5019817515049
 20
677.3614610456925
 30
0.0
 10
277.5180969500976
 20
677.7790655269174
 30
0.0
 10
277.5662739302484
 20
678.193744341116
 30
0.0
 10
277.6461428850273
 20
678.6017138394363
 30
0.0
 10
277.7572448556061
 20
679.0009619247635
 30
0.0
 10
277.8984526349735
 20
679.3870423641729
 30
0.0
 10
278.0692326807318
 20
679.7587755063647
 30
0.0
 10
278.2675685666636
 20
680.1113650574324
 30
0.0
 10
278.4929792953006
 20
680.4442755201569
 30
0.0
 10
278.7425603354005
 20
680.7527430425229
 30
0.0
 10
279.0158814571118
 20
681.0366361227613
 30
0.0
 10
279.3093064180919
 20
681.2916085436088
 30
0.0
 10
279.6223153825979
 20
681.5177162780668
 30
0.0
 10
279.950839357295
 20
681.7113398342392
 30
0.0
 10
280.2940255476648
 20
681.872619026159
 30
0.0
 10
280.6477570509096
 20
681.9987826681559
 30
0.0
 10
281.010598867887
 20
682.090288706599
 30
0.0
 10
281.3787093896026
 20
682.1444648239143
 30
0.0
 10
281.7501592059477
 20
682.1650827354049
 30
0.0
 10
281.9968158177198
 20
682.1476484625523
 30
0.0
 10
282.1201441220894
 20
682.1389313290845
 30
0.0
 11
282.1201441220894
 21
682.1389313290846
 31
0.0
 11
282.4882147525822
 21
682.0841365600838
 31
0.0
 11
282.8491040310242
 21
681.9934982192565
 31
0.0
 11
283.2036751584982
 21
681.8669962000106
 31
0.0
 11
283.5444550796268
 21
681.7071432493722
 31
0.0
 11
283.8744460796049
 21
681.5127331632852
 31
0.0
 11
284.1850162308842
 21
681.2887108775956
 31
0.0
 11
284.4801341974191
 21
681.0324193237589
 31
0.0
 11
284.7513570237479
 21
680.7510540215337
 31
0.0
 11
285.0024789495095
 21
680.4408919015175
 31
0.0
 11
285.2263623430425
 21
680.1106017469447
 31
0.0
 11
285.4258333458421
 21
679.7562467709247
 31
0.0
 11
285.5957149972576
 21
679.3868447938835
 31
0.0
 11
285.7375659124696
 21
678.9992855173148
 31
0.0
 11
285.8482991817264
 21
678.601749189166
 31
0.0
 11
285.9283942370785
 21
678.1929099431227
 31
0.0
 11
285.9765187628716
 21
677.7791044053654
 31
0.0
 11
285.9926406871192
 21
677.3614610364332
 31
0.0
 11
285.9765187628716
 21
676.9438176675008
 31
0.0
 11
285.9283942370785
 21
676.5300121297435
 31
0.0
 11
285.8482991817264
 21
676.1211728837001
 31
0.0
 11
285.7375659124696
 21
675.7236365555514
 31
0.0
 11
285.5957149972575
 21
675.3360772789827
 31
0.0
 11
285.4258333458421
 21
674.9666753019415
 31
0.0
 11
285.2263623430424
 21
674.6123203259215
 31
0.0
 11
285.0024789495095
 21
674.2820301713485
 31
0.0
 11
284.7513570237479
 21
673.9718680513324
 31
0.0
 11
284.4801341974191
 21
673.6905027491074
 31
0.0
 11
284.1850162308842
 21
673.4342111952706
 31
0.0
 11
283.8744460796049
 21
673.2101889095809
 31
0.0
 11
283.5444550796268
 21
673.015778823494
 31
0.0
 11
283.2036751584982
 21
672.8559258728558
 31
0.0
 11
282.8491040310241
 21
672.7294238536098
 31
0.0
 11
282.4882147525822
 21
672.6387855127823
 31
0.0
 11
282.1201441220894
 21
672.5839907437817
 31
0.0
 11
281.7500000000001
 21
672.5656295131205
 31
0.0
 11
281.3798558779106
 21
672.5839907437817
 31
0.0
 11
281.0117852474177
 21
672.6387855127822
 31
0.0
 11
280.6508959689756
 21
672.7294238536097
 31
0.0
 11
280.2963248415017
 21
672.8559258728557
 31
0.0
 11
279.9555449203732
 21
673.015778823494
 31
0.0
 11
279.6255539203951
 21
673.2101889095808
 31
0.0
 11
279.3149837691158
 21
673.4342111952706
 31
0.0
 11
279.0198658025809
 21
673.6905027491074
 31
0.0
 11
278.7486429762521
 21
673.9718680513324
 31
0.0
 11
278.4975210504904
 21
674.2820301713485
 31
0.0
 11
278.2736376569575
 21
674.6123203259216
 31
0.0
 11
278.0741666541579
 21
674.9666753019415
 31
0.0
 11
277.9042850027424
 21
675.3360772789827
 31
0.0
 11
277.7624340875304
 21
675.7236365555515
 31
0.0
 11
277.6517008182735
 21
676.1211728837001
 31
0.0
 11
277.5716057629214
 21
676.5300121297436
 31
0.0
 11
277.5234812371282
 21
676.9438176675008
 31
0.0
 11
277.5073593128807
 21
677.3614610364332
 31
0.0
 11
277.5234812371283
 21
677.7791044053655
 31
0.0
 11
277.5716057629213
 21
678.1929099431227
 31
0.0
 11
277.6517008182735
 21
678.601749189166
 31
0.0
 11
277.7624340875304
 21
678.9992855173148
 31
0.0
 11
277.9042850027425
 21
679.3868447938835
 31
0.0
 11
278.0741666541579
 21
679.7562467709247
 31
0.0
 11
278.2736376569575
 21
680.1106017469447
 31
0.0
 11
278.4975210504904
 21
680.4408919015176
 31
0.0
 11
278.7486429762521
 21
680.7510540215337
 31
0.0
 11
279.0198658025809
 21
681.0324193237587
 31
0.0
 11
279.3149837691158
 21
681.2887108775956
 31
0.0
 11
279.6255539203952
 21
681.5127331632852
 31
0.0
 11
279.9555449203732
 21
681.7071432493722
 31
0.0
 11
280.2963248415016
 21
681.8669962000106
 31
0.0
 11
280.6508959689756
 21
681.9934982192565
 31
0.0
 11
281.0117852474178
 21
682.0841365600838
 31
0.0
 11
281.3798558779106
 21
682.1389313290845
 31
0.0
 11
281.7500000000001
 21
682.1572925597459
 31
0.0
 11
282.1201441220894
 21
682.1389313290845
 31
0.0
  0
SPLINE
  5
E7
330
4D
100
AcDbEntity
  8
1
  6
Continuous
 62
     7
100
AcDbSpline
210
0.0
220
0.0
230
1.0
 70
    11
 71
     3
 72
    79
 73
    75
 74
    73
 42
0.000000001
 43
0.0000000001
 44
0.00000001
 40
0.0
 40
0.0
 40
0.0
 40
0.0
 40
0.2251439981013644
 40
0.4498541121078776
 40
0.6980863406101424
 40
0.9458096946052695
 40
1.225753243279943
 40
1.505341879204911
 40
1.820037943985234
 40
2.134517090665557
 40
2.482533799688365
 40
2.830421091458095
 40
3.207135643675816
 40
3.583774046025905
 40
3.982383401529499
 40
4.380950213903688
 40
4.793229953184197
 40
5.205490578546688
 40
5.622408658129914
 40
6.039326737717192
 40
6.451587363091368
 40
6.863867102389865
 40
7.26243391478602
 40
7.661043270313833
 40
8.037681672684448
 40
8.414396224915391
 40
8.762283516684331
 40
9.110300225683142
 40
9.424779372310143
 40
9.739475436986833
 40
10.0190640727553
 40
10.29900762117269
 40
10.54673097479415
 40
10.79496320261771
 40
11.01967331449823
 40
11.24481731877822
 40
11.46116996438367
 40
11.67752260998813
 40
11.90266661426528
 40
12.12737672614151
 40
12.37560895395929
 40
12.62333230757456
 40
12.90327585598491
 40
13.18286449174688
 40
13.49756055641678
 40
13.81203970303734
 40
14.16005641202998
 40
14.50794370379348
 40
14.88465825601937
 40
15.26129665838572
 40
15.65990601390984
 40
16.05847282630343
 40
16.47075256560055
 40
16.88301319097467
 40
17.29993127056369
 40
17.71684935015052
 40
18.12910997551909
 40
18.54138971480827
 40
18.93995652719383
 40
19.33856588271231
 40
19.71520428507966
 40
20.09191883731756
 40
20.43980612910886
 40
20.78782283815464
 40
21.10230198485609
 40
21.416998049654
 40
21.69658668558686
 40
21.97653023424723
 40
22.22425358817735
 40
22.47248581643317
 40
22.69719592887117
 40
22.92233993395948
 40
23.13869258174209
 40
23.35504522168836
 40
23.35504522168836
 40
23.35504522168836
 40
23.35504522168836
 10
437.3251951535312
 20
682.1382467681182
 30
0.0
 10
437.2517601006241
 20
682.1218970984987
 30
0.0
 10
437.1050315119132
 20
682.0892292776276
 30
0.0
 10
436.8921431706779
 20
681.9917989068485
 30
0.0
 10
436.6880102848833
 20
681.8641804039614
 30
0.0
 10
436.4882112525503
 20
681.6988774710806
 30
0.0
 10
436.3010590737772
 20
681.5048404329427
 30
0.0
 10
436.1200243899773
 20
681.2759830262914
 30
0.0
 10
435.9536651445047
 20
681.0223890838469
 30
0.0
 10
435.7961802405404
 20
680.7369531559233
 30
0.0
 10
435.6547167666023
 20
680.4310120580467
 30
0.0
 10
435.5251091013039
 20
680.0975735625619
 30
0.0
 10
435.4125282419259
 20
679.7479673332782
 30
0.0
 10
435.3144546131223
 20
679.3765440797065
 30
0.0
 10
435.2341643898214
 20
678.9934274801822
 30
0.0
 10
435.170406221954
 20
678.5952017132328
 30
0.0
 10
435.124947771268
 20
678.1898940025083
 30
0.0
 10
435.0972779599406
 20
677.7768637338247
 30
0.0
 10
435.0881711719148
 20
677.3614610464319
 30
0.0
 10
435.0972779600964
 20
676.9460583590223
 30
0.0
 10
435.1249477715853
 20
676.5330280903881
 30
0.0
 10
435.1704062223788
 20
676.1277203794776
 30
0.0
 10
435.2341643904912
 20
675.7294946131941
 30
0.0
 10
435.3144546134608
 20
675.3463780112426
 30
0.0
 10
435.4125282438687
 20
674.9749547662492
 30
0.0
 10
435.5251090977916
 20
674.6253485061418
 30
0.0
 10
435.654716782101
 20
674.2919101173279
 30
0.0
 10
435.7961801884629
 20
673.9859686406195
 30
0.0
 10
435.9536653213083
 20
673.7005339974295
 30
0.0
 10
436.1200237613095
 20
673.4469355369888
 30
0.0
 10
436.3010611337875
 20
673.2180932163703
 30
0.0
 10
436.4882038992504
 20
673.0240033679845
 30
0.0
 10
436.6880342610016
 20
672.8588762085365
 30
0.0
 10
436.8920567168981
 20
672.7306381574683
 30
0.0
 10
437.1053206091232
 20
672.6353147697122
 30
0.0
 10
437.3212607095527
 20
672.579327598619
 30
0.0
 10
437.5407078561834
 20
672.5589168677091
 30
0.0
 10
437.7601550028131
 20
672.5793275986119
 30
0.0
 10
437.976095103242
 20
672.6353147696981
 30
0.0
 10
438.1893589954651
 20
672.7306381574476
 30
0.0
 10
438.3933814513595
 20
672.8588762085096
 30
0.0
 10
438.5932118131068
 20
673.0240033679519
 30
0.0
 10
438.7803545785658
 20
673.2180932163328
 30
0.0
 10
438.9613919510383
 20
673.4469355369472
 30
0.0
 10
439.1277503910334
 20
673.7005339973838
 30
0.0
 10
439.2852355238711
 20
673.985968640571
 30
0.0
 10
439.4266989302244
 20
674.2919101172765
 30
0.0
 10
439.5563066145234
 20
674.6253485060888
 30
0.0
 10
439.6688874684335
 20
674.9749547661952
 30
0.0
 10
439.7669610988261
 20
675.3463780111879
 30
0.0
 10
439.8472513217786
 20
675.7294946131395
 30
0.0
 10
439.9110094898693
 20
676.1277203794242
 30
0.0
 10
439.9564679406379
 20
676.5330280903358
 30
0.0
 10
439.9841377520971
 20
676.9460583589728
 30
0.0
 10
439.9932445402438
 20
677.3614610463823
 30
0.0
 10
439.9841377521811
 20
677.77686373379
 30
0.0
 10
439.9564679407987
 20
678.1898940024308
 30
0.0
 10
439.9110094900976
 20
678.5952017133297
 30
0.0
 10
439.8472513220456
 20
678.9934274796622
 30
0.0
 10
439.7669610991461
 20
679.3765440814439
 30
0.0
 10
439.6688874686379
 20
679.747967327041
 30
0.0
 10
439.5563066150689
 20
680.0975735849789
 30
0.0
 10
439.4266989293441
 20
680.4310119812961
 30
0.0
 10
439.285235527604
 20
680.7369534313437
 30
0.0
 10
439.1277503784581
 20
681.0223881649179
 30
0.0
 10
438.9613919948671
 20
681.2759863074491
 30
0.0
 10
438.7803544328659
 20
681.5048296895023
 30
0.0
 10
438.5932123293051
 20
681.6989158220606
 30
0.0
 10
438.3933797626496
 20
681.8640553490009
 30
0.0
 10
438.1893650760299
 20
681.992249807974
 30
0.0
 10
437.9760747589887
 20
682.0877214448508
 30
0.0
 10
437.7602300717623
 20
682.1431733031719
 30
0.0
 10
437.5404397807315
 20
682.1655092116055
 30
0.0
 10
437.3969433620959
 20
682.1473342454526
 30
0.0
 10
437.3251951535312
 20
682.1382467681182
 30
0.0
 11
437.3251951535312
 21
682.1382467681182
 31
0.0
 11
437.1072798723611
 21
682.0816538980191
 31
0.0
 11
436.9016337307179
 21
681.9910763133087
 31
0.0
 11
436.6910653558949
 21
681.8596221444967
 31
0.0
 11
436.4994934098226
 21
681.7025646727186
 31
0.0
 11
436.3044444339093
 21
681.501755590932
 31
0.0
 11
436.1304536989216
 21
681.2829016912351
 31
0.0
 11
435.9570726020912
 21
681.0202753246897
 31
0.0
 11
435.8047425807834
 21
680.7451522644349
 31
0.0
 11
435.6580361878977
 21
680.4295688934582
 31
0.0
 11
435.5316993532496
 21
680.1054322371106
 31
0.0
 11
435.4157407178233
 21
679.7470086765966
 31
0.0
 11
435.3193873470774
 21
679.3829035900046
 31
0.0
 11
435.2372876824204
 21
678.9928406933192
 31
0.0
 11
435.1741755751731
 21
678.5993024285274
 31
0.0
 11
435.1280141258401
 21
678.1896151038218
 31
0.0
 11
435.1004522329357
 21
677.7782768424262
 31
0.0
 11
435.0912181136956
 21
677.3614610364332
 31
0.0
 11
435.1004522329358
 21
676.9446452304401
 31
0.0
 11
435.1280141258404
 21
676.5333069690444
 31
0.0
 11
435.1741755751733
 21
676.1236196443388
 31
0.0
 11
435.2372876824205
 21
675.7300813795471
 31
0.0
 11
435.3193873470773
 21
675.3400184828613
 31
0.0
 11
435.4157407178233
 21
674.9759133962694
 31
0.0
 11
435.5316993532494
 21
674.6174898357556
 31
0.0
 11
435.6580361878976
 21
674.293353179408
 31
0.0
 11
435.8047425807832
 21
673.9777698084313
 31
0.0
 11
435.9570726020912
 21
673.7026467481764
 31
0.0
 11
436.1304536989216
 21
673.440020381631
 31
0.0
 11
436.3044444339093
 21
673.2211664819342
 31
0.0
 11
436.4994934098227
 21
673.0203574001475
 31
0.0
 11
436.691065355895
 21
672.8632999283693
 31
0.0
 11
436.901633730718
 21
672.7318457595575
 31
0.0
 11
437.1072798723611
 21
672.6412681748471
 31
0.0
 11
437.3251951535312
 21
672.584675304748
 31
0.0
 11
437.540707856479
 21
672.5656295131203
 31
0.0
 11
437.7562205594269
 21
672.5846753047481
 31
0.0
 11
437.9741358405969
 21
672.6412681748471
 31
0.0
 11
438.1797819822401
 21
672.7318457595575
 31
0.0
 11
438.390350357063
 21
672.8632999283693
 31
0.0
 11
438.5819223031352
 21
673.0203574001475
 31
0.0
 11
438.7769712790486
 21
673.2211664819341
 31
0.0
 11
438.9509620140363
 21
673.440020381631
 31
0.0
 11
439.1243431108668
 21
673.7026467481764
 31
0.0
 11
439.2766731321747
 21
673.9777698084313
 31
0.0
 11
439.4233795250603
 21
674.293353179408
 31
0.0
 11
439.5497163597086
 21
674.6174898357556
 31
0.0
 11
439.6656749951347
 21
674.9759133962694
 31
0.0
 11
439.7620283658806
 21
675.3400184828613
 31
0.0
 11
439.8441280305375
 21
675.730081379547
 31
0.0
 11
439.9072401377848
 21
676.1236196443386
 31
0.0
 11
439.9534015871177
 21
676.5333069690444
 31
0.0
 11
439.9809634800221
 21
676.9446452304401
 31
0.0
 11
439.9901975992623
 21
677.3614610364332
 31
0.0
 11
439.9809634800222
 21
677.7782768424262
 31
0.0
 11
439.9534015871176
 21
678.1896151038218
 31
0.0
 11
439.9072401377847
 21
678.5993024285274
 31
0.0
 11
439.8441280305374
 21
678.9928406933191
 31
0.0
 11
439.7620283658805
 21
679.3829035900046
 31
0.0
 11
439.6656749951346
 21
679.7470086765967
 31
0.0
 11
439.5497163597084
 21
680.1054322371106
 31
0.0
 11
439.4233795250603
 21
680.4295688934583
 31
0.0
 11
439.2766731321747
 21
680.745152264435
 31
0.0
 11
439.1243431108667
 21
681.0202753246897
 31
0.0
 11
438.9509620140362
 21
681.2829016912351
 31
0.0
 11
438.7769712790485
 21
681.5017555909319
 31
0.0
 11
438.5819223031353
 21
681.7025646727186
 31
0.0
 11
438.390350357063
 21
681.8596221444968
 31
0.0
 11
438.1797819822399
 21
681.9910763133087
 31
0.0
 11
437.9741358405968
 21
682.081653898019
 31
0.0
 11
437.7562205594268
 21
682.138246768118
 31
0.0
 11
437.540707856479
 21
682.1572925597459
 31
0.0
 11
437.3251951535312
 21
682.1382467681182
 31
0.0
  0
SPLINE
  5
E8
330
4D
100
AcDbEntity
  8
1
  6
Continuous
 62
     7
100
AcDbSpline
210
0.0
220
0.0
230
1.0
 70
    11
 71
     3
 72
    79
 73
    75
 74
    73
 42
0.000000001
 43
0.0000000001
 44
0.00000001
 40
0.0
 40
0.0
 40
0.0
 40
0.0
 40
0.2251439981012543
 40
0.4498541121078196
 40
0.6980863406101325
 40
0.9458096946052597
 40
1.225753243279933
 40
1.505341879204901
 40
1.820037943985287
 40
2.134517090665609
 40
2.482533799688418
 40
2.830421091458148
 40
3.207135643675816
 40
3.583774046025934
 40
3.982383401529482
 40
4.380950213903689
 40
4.793229953184191
 40
5.20549057854669
 40
5.622408658129918
 40
6.039326737717196
 40
6.451587363091357
 40
6.86386710238986
 40
7.262433914786006
 40
7.661043270313865
 40
8.037681672684508
 40
8.414396224915434
 40
8.762283516684352
 40
9.110300225683211
 40
9.424779372310185
 40
9.739475436986845
 40
10.01906407275527
 40
10.29900762117267
 40
10.54673097479417
 40
10.79496320261773
 40
11.0196733144982
 40
11.24481731877824
 40
11.46116996438364
 40
11.67752260998804
 40
11.90266661426524
 40
12.12737672614148
 40
12.37560895395915
 40
12.62333230757456
 40
12.90327585598487
 40
13.18286449174688
 40
13.49756055641684
 40
13.81203970303743
 40
14.16005641203004
 40
14.50794370379356
 40
14.88465825601945
 40
15.26129665838579
 40
15.65990601390989
 40
16.05847282630346
 40
16.47075256560058
 40
16.8830131909747
 40
17.29993127056371
 40
17.71684935015055
 40
18.12910997551911
 40
18.54138971480828
 40
18.93995652719384
 40
19.33856588271233
 40
19.71520428507973
 40
20.09191883731755
 40
20.43980612910883
 40
20.78782283815467
 40
21.1023019848561
 40
21.41699804965404
 40
21.69658668558687
 40
21.97653023424732
 40
22.22425358817735
 40
22.47248581643308
 40
22.69719592887108
 40
22.92233993395939
 40
23.13869258174205
 40
23.35504522168832
 40
23.35504522168832
 40
23.35504522168832
 40
23.35504522168832
 10
457.6748048464688
 20
682.1382467681182
 30
0.0
 10
457.7482398993758
 20
682.1218970984985
 30
0.0
 10
457.894968488087
 20
682.0892292776275
 30
0.0
 10
458.107856829322
 20
681.991798906849
 30
0.0
 10
458.3119897151169
 20
681.8641804039614
 30
0.0
 10
458.5117887474498
 20
681.6988774710806
 30
0.0
 10
458.6989409262227
 20
681.5048404329425
 30
0.0
 10
458.8799756100229
 20
681.2759830262916
 30
0.0
 10
459.0463348554953
 20
681.0223890838469
 30
0.0
 10
459.2038197594597
 20
680.7369531559233
 30
0.0
 10
459.3452832333978
 20
680.4310120580466
 30
0.0
 10
459.4748908986965
 20
680.0975735625624
 30
0.0
 10
459.587471758074
 20
679.7479673332778
 30
0.0
 10
459.685545386878
 20
679.3765440797066
 30
0.0
 10
459.765835610178
 20
678.9934274801822
 30
0.0
 10
459.8295937780463
 20
678.5952017132328
 30
0.0
 10
459.8750522287318
 20
678.1898940025087
 30
0.0
 10
459.9027220400596
 20
677.7768637338245
 30
0.0
 10
459.9118288280853
 20
677.361461046432
 30
0.0
 10
459.9027220399036
 20
676.9460583590221
 30
0.0
 10
459.8750522284152
 20
676.5330280903881
 30
0.0
 10
459.8295937776214
 20
676.1277203794778
 30
0.0
 10
459.7658356095093
 20
675.729494613194
 30
0.0
 10
459.6855453865393
 20
675.3463780112425
 30
0.0
 10
459.5874717561311
 20
674.9749547662493
 30
0.0
 10
459.4748909022085
 20
674.6253485061418
 30
0.0
 10
459.3452832178992
 20
674.2919101173279
 30
0.0
 10
459.203819811537
 20
673.9859686406196
 30
0.0
 10
459.0463346786919
 20
673.7005339974295
 30
0.0
 10
458.8799762386905
 20
673.446935536989
 30
0.0
 10
458.6989388662128
 20
673.2180932163703
 30
0.0
 10
458.51179610075
 20
673.0240033679844
 30
0.0
 10
458.3119657389985
 20
672.8588762085362
 30
0.0
 10
458.107943283102
 20
672.7306381574685
 30
0.0
 10
457.8946793908767
 20
672.6353147697121
 30
0.0
 10
457.6787392904476
 20
672.5793275986193
 30
0.0
 10
457.4592921438169
 20
672.5589168677086
 30
0.0
 10
457.239844997187
 20
672.5793275986122
 30
0.0
 10
457.0239048967583
 20
672.635314769698
 30
0.0
 10
456.8106410045349
 20
672.7306381574476
 30
0.0
 10
456.6066185486409
 20
672.8588762085096
 30
0.0
 10
456.4067881868932
 20
673.0240033679519
 30
0.0
 10
456.2196454214343
 20
673.2180932163329
 30
0.0
 10
456.0386080489618
 20
673.4469355369472
 30
0.0
 10
455.8722496089666
 20
673.7005339973839
 30
0.0
 10
455.7147644761288
 20
673.9859686405707
 30
0.0
 10
455.5733010697755
 20
674.2919101172765
 30
0.0
 10
455.4436933854764
 20
674.6253485060888
 30
0.0
 10
455.3311125315664
 20
674.9749547661951
 30
0.0
 10
455.2330389011738
 20
675.3463780111878
 30
0.0
 10
455.1527486782216
 20
675.7294946131395
 30
0.0
 10
455.0889905101309
 20
676.1277203794241
 30
0.0
 10
455.0435320593624
 20
676.5330280903358
 30
0.0
 10
455.015862247903
 20
676.9460583589728
 30
0.0
 10
455.0067554597566
 20
677.3614610463821
 30
0.0
 10
455.0158622478194
 20
677.7768637337902
 30
0.0
 10
455.0435320592014
 20
678.1898940024308
 30
0.0
 10
455.0889905099024
 20
678.5952017133297
 30
0.0
 10
455.1527486779544
 20
678.993427479662
 30
0.0
 10
455.2330389008541
 20
679.376544081444
 30
0.0
 10
455.3311125313622
 20
679.7479673270409
 30
0.0
 10
455.4436933849311
 20
680.0975735849792
 30
0.0
 10
455.5733010706559
 20
680.4310119812961
 30
0.0
 10
455.7147644723962
 20
680.7369534313439
 30
0.0
 10
455.8722496215418
 20
681.0223881649181
 30
0.0
 10
456.038608005133
 20
681.2759863074488
 30
0.0
 10
456.2196455671343
 20
681.5048296895023
 30
0.0
 10
456.4067876706951
 20
681.6989158220605
 30
0.0
 10
456.6066202373505
 20
681.864055349001
 30
0.0
 10
456.8106349239702
 20
681.9922498079741
 30
0.0
 10
457.0239252410114
 20
682.0877214448508
 30
0.0
 10
457.2397699282377
 20
682.143173303172
 30
0.0
 10
457.4595602192686
 20
682.1655092116052
 30
0.0
 10
457.603056637904
 20
682.1473342454525
 30
0.0
 10
457.6748048464688
 20
682.1382467681182
 30
0.0
 11
457.6748048464688
 21
682.1382467681182
 31
0.0
 11
457.8927201276389
 21
682.0816538980191
 31
0.0
 11
458.0983662692821
 21
681.9910763133087
 31
0.0
 11
458.3089346441052
 21
681.8596221444967
 31
0.0
 11
458.5005065901775
 21
681.7025646727186
 31
0.0
 11
458.6955555660907
 21
681.501755590932
 31
0.0
 11
458.8695463010785
 21
681.2829016912351
 31
0.0
 11
459.042927397909
 21
681.0202753246897
 31
0.0
 11
459.1952574192168
 21
680.7451522644349
 31
0.0
 11
459.3419638121024
 21
680.4295688934582
 31
0.0
 11
459.4683006467506
 21
680.1054322371106
 31
0.0
 11
459.5842592821767
 21
679.7470086765966
 31
0.0
 11
459.6806126529227
 21
679.3829035900046
 31
0.0
 11
459.7627123175795
 21
678.9928406933192
 31
0.0
 11
459.8258244248269
 21
678.5993024285274
 31
0.0
 11
459.8719858741598
 21
678.1896151038218
 31
0.0
 11
459.8995477670643
 21
677.7782768424262
 31
0.0
 11
459.9087818863045
 21
677.3614610364332
 31
0.0
 11
459.8995477670643
 21
676.9446452304401
 31
0.0
 11
459.87198587416
 21
676.5333069690444
 31
0.0
 11
459.825824424827
 21
676.1236196443388
 31
0.0
 11
459.7627123175798
 21
675.7300813795471
 31
0.0
 11
459.6806126529228
 21
675.3400184828613
 31
0.0
 11
459.5842592821767
 21
674.9759133962694
 31
0.0
 11
459.4683006467507
 21
674.6174898357556
 31
0.0
 11
459.3419638121025
 21
674.293353179408
 31
0.0
 11
459.1952574192168
 21
673.9777698084313
 31
0.0
 11
459.0429273979089
 21
673.7026467481764
 31
0.0
 11
458.8695463010785
 21
673.440020381631
 31
0.0
 11
458.6955555660908
 21
673.2211664819342
 31
0.0
 11
458.5005065901775
 21
673.0203574001475
 31
0.0
 11
458.3089346441051
 21
672.8632999283693
 31
0.0
 11
458.0983662692821
 21
672.7318457595575
 31
0.0
 11
457.8927201276391
 21
672.6412681748471
 31
0.0
 11
457.6748048464689
 21
672.584675304748
 31
0.0
 11
457.4592921435212
 21
672.5656295131203
 31
0.0
 11
457.2437794405733
 21
672.5846753047481
 31
0.0
 11
457.0258641594032
 21
672.6412681748471
 31
0.0
 11
456.8202180177601
 21
672.7318457595575
 31
0.0
 11
456.6096496429373
 21
672.8632999283693
 31
0.0
 11
456.4180776968649
 21
673.0203574001475
 31
0.0
 11
456.2230287209516
 21
673.2211664819341
 31
0.0
 11
456.0490379859638
 21
673.440020381631
 31
0.0
 11
455.8756568891332
 21
673.7026467481764
 31
0.0
 11
455.7233268678253
 21
673.9777698084313
 31
0.0
 11
455.5766204749397
 21
674.293353179408
 31
0.0
 11
455.4502836402914
 21
674.6174898357556
 31
0.0
 11
455.3343250048653
 21
674.9759133962694
 31
0.0
 11
455.2379716341194
 21
675.3400184828613
 31
0.0
 11
455.1558719694625
 21
675.730081379547
 31
0.0
 11
455.0927598622154
 21
676.1236196443386
 31
0.0
 11
455.0465984128825
 21
676.5333069690444
 31
0.0
 11
455.0190365199781
 21
676.9446452304401
 31
0.0
 11
455.0098024007381
 21
677.3614610364332
 31
0.0
 11
455.0190365199782
 21
677.7782768424262
 31
0.0
 11
455.0465984128825
 21
678.1896151038218
 31
0.0
 11
455.0927598622154
 21
678.5993024285274
 31
0.0
 11
455.1558719694626
 21
678.9928406933191
 31
0.0
 11
455.2379716341196
 21
679.3829035900046
 31
0.0
 11
455.3343250048657
 21
679.7470086765967
 31
0.0
 11
455.4502836402916
 21
680.1054322371106
 31
0.0
 11
455.5766204749397
 21
680.4295688934583
 31
0.0
 11
455.7233268678255
 21
680.745152264435
 31
0.0
 11
455.8756568891334
 21
681.0202753246897
 31
0.0
 11
456.0490379859639
 21
681.2829016912351
 31
0.0
 11
456.2230287209516
 21
681.5017555909319
 31
0.0
 11
456.4180776968649
 21
681.7025646727186
 31
0.0
 11
456.6096496429371
 21
681.8596221444968
 31
0.0
 11
456.8202180177601
 21
681.9910763133087
 31
0.0
 11
457.0258641594032
 21
682.081653898019
 31
0.0
 11
457.2437794405732
 21
682.138246768118
 31
0.0
 11
457.4592921435211
 21
682.1572925597459
 31
0.0
 11
457.6748048464688
 21
682.1382467681182
 31
0.0
  0
ENDBLK
  5
4F
330
4D
100
AcDbEntity
  8
0
100
AcDbBlockEnd
  0
BLOCK
  5
51
330
50
100
AcDbEntity
  8
0
100
AcDbBlockBegin
  2
65-11-12_7-200
 70
     0
 10
277.5000000000001
 20
652.2743666869549
 30
0.0
  3
65-11-12_7-200
  1

  0
LINE
  5
E9
330
50
100
AcDbEntity
  8
1
  6
Continuous
 62
     7
100
AcDbLine
 10
293.85
 20
683.3614610364332
 30
0.0
 11
293.85
 21
747.9247074840855
 31
0.0
  0
LINE
  5
EA
330
50
100
AcDbEntity
  8
1
  6
Continuous
 62
     7
100
AcDbLine
 10
293.85
 20
747.9247074840855
 30
0.0
 11
293.85
 21
880.6614610364331
 31
0.0
  0
LINE
  5
EB
330
50
100
AcDbEntity
  8
1
  6
Continuous
 62
     7
100
AcDbLine
 10
293.85
 20
880.6614610364331
 30
0.0
 11
287.5000000000001
 21
880.6614610364331
 31
0.0
  0
LINE
  5
EC
330
50
100
AcDbEntity
  8
1
  6
Continuous
 62
     7
100
AcDbLine
 10
287.5000000000001
 20
880.6614610364331
 30
0.0
 11
281.15
 21
880.6614610364331
 31
0.0
  0
LINE
  5
ED
330
50
100
AcDbEntity
  8
1
  6
Continuous
 62
     7
100
AcDbLine
 10
281.15
 20
753.3982145887808
 30
0.0
 11
281.15
 21
683.3614610364332
 31
0.0
  0
LINE
  5
EE
330
50
100
AcDbEntity
  8
1
  6
Continuous
 62
     7
100
AcDbLine
 10
281.15
 20
880.6614610364331
 30
0.0
 11
281.15
 21
753.3982145887808
 31
0.0
  0
LINE
  5
EF
330
50
100
AcDbEntity
  8
1
  6
Continuous
 62
     7
100
AcDbLine
 10
441.15
 20
683.3614610364332
 30
0.0
 11
441.15
 21
720.2782493892419
 31
0.0
  0
LINE
  5
F0
330
50
100
AcDbEntity
  8
1
  6
Continuous
 62
     7
100
AcDbLine
 10
453.8500000000001
 20
749.9038327001631
 30
0.0
 11
453.8500000000001
 21
683.3614610364332
 31
0.0
  0
LINE
  5
F1
330
50
100
AcDbEntity
  8
0
  6
Continuous
 62
     7
100
AcDbLine
 10
441.15
 20
880.6614610364331
 30
0.0
 11
453.8500000000001
 21
880.6614610364331
 31
0.0
  0
LINE
  5
F2
330
50
100
AcDbEntity
  8
1
  6
Continuous
 62
     7
100
AcDbLine
 10
453.8500000000001
 20
880.6614610364331
 30
0.0
 11
453.8500000000001
 21
749.9038327001631
 31
0.0
  0
LINE
  5
F3
330
50
100
AcDbEntity
  8
1
  6
Continuous
 62
     7
100
AcDbLine
 10
441.15
 20
880.6614610364331
 30
0.0
 11
441.15
 21
747.6644800451654
 31
0.0
  0
LINE
  5
F4
330
50
100
AcDbEntity
  8
1
  6
Continuous
 62
     7
100
AcDbLine
 10
441.15
 20
720.2782493892419
 30
0.0
 11
441.15
 21
747.6644800451654
 31
0.0
  0
CIRCLE
  5
F5
330
50
100
AcDbEntity
  8
1
  6
Continuous
 62
     7
100
AcDbCircle
 10
287.4999999999999
 20
943.2874648262218
 30
0.0
 40
5.350000000000136
  0
CIRCLE
  5
F6
330
50
100
AcDbEntity
  8
1
  6
Continuous
 62
     7
100
AcDbCircle
 10
287.4999999999999
 20
943.2874648262218
 30
0.0
 40
6.350000000000136
  0
ENDBLK
  5
52
330
50
100
AcDbEntity
  8
0
100
AcDbBlockEnd
  0
BLOCK
  5
54
330
53
100
AcDbEntity
  8
0
100
AcDbBlockBegin
  2
78-167
 70
     0
 10
329.905635121297
 20
1538.191566552457
 30
0.0
  3
78-167
  1

  0
LINE
  5
F7
330
53
100
AcDbEntity
  8
1
  6
Continuous
 62
     7
100
AcDbLine
 10
257.5000000000001
 20
223.395831829962
 30
0.0
 11
257.5000000000001
 21
221.3958318299619
 31
0.0
  0
LINE
  5
F8
330
53
100
AcDbEntity
  8
1
  6
Continuous
 62
     7
100
AcDbLine
 10
317.5000000000001
 20
221.3958318299619
 30
0.0
 11
317.5000000000001
 21
223.395831829962
 31
0.0
  0
LINE
  5
F9
330
53
100
AcDbEntity
  8
1
  6
Continuous
 62
     7
100
AcDbLine
 10
299.7041684766874
 20
237.395831829962
 30
0.0
 11
276.6048071289707
 21
237.395831829962
 31
0.0
  0
LINE
  5
FA
330
53
100
AcDbEntity
  8
1
  6
Continuous
 62
     7
100
AcDbLine
 10
317.5000000000001
 20
221.3958318299619
 30
0.0
 11
257.5000000000001
 21
221.3958318299619
 31
0.0
  0
LINE
  5
FB
330
53
100
AcDbEntity
  8
1
  6
Continuous
 62
     7
100
AcDbLine
 10
276.6048071289707
 20
237.395831829962
 30
0.0
 11
275.2958315233128
 21
237.395831829962
 31
0.0
  0
LINE
  5
FC
330
53
100
AcDbEntity
  8
1
  6
Continuous
 62
     7
100
AcDbLine
 10
436.6048071289708
 20
237.395831829962
 30
0.0
 11
435.2958315233127
 21
237.395831829962
 31
0.0
  0
LINE
  5
FD
330
53
100
AcDbEntity
  8
1
  6
Continuous
 62
     7
100
AcDbLine
 10
477.5
 20
221.3958318299619
 30
0.0
 11
417.5000000000001
 21
221.3958318299619
 31
0.0
  0
LINE
  5
FE
330
53
100
AcDbEntity
  8
1
  6
Continuous
 62
     7
100
AcDbLine
 10
459.7041684766873
 20
237.395831829962
 30
0.0
 11
436.6048071289708
 21
237.395831829962
 31
0.0
  0
LINE
  5
FF
330
53
100
AcDbEntity
  8
1
  6
Continuous
 62
     7
100
AcDbLine
 10
477.5
 20
221.3958318299619
 30
0.0
 11
477.5
 21
223.395831829962
 31
0.0
  0
LINE
  5
100
330
53
100
AcDbEntity
  8
1
  6
Continuous
 62
     7
100
AcDbLine
 10
417.5000000000001
 20
223.395831829962
 30
0.0
 11
417.5000000000001
 21
221.3958318299619
 31
0.0
  0
ARC
  5
101
330
53
100
AcDbEntity
  8
1
  6
Continuous
 62
     7
100
AcDbCircle
 10
275.2958315233128
 20
212.395831829962
 30
0.0
 40
25.0
100
AcDbArc
 50
90.0
 51
113.556464309101
  0
ARC
  5
102
330
53
100
AcDbEntity
  8
1
  6
Continuous
 62
     7
100
AcDbCircle
 10
270.5000000000001
 20
223.395831829962
 30
0.0
 40
13.00000000000011
100
AcDbArc
 50
113.5564643091009
 51
180.0
  0
ARC
  5
103
330
53
100
AcDbEntity
  8
1
  6
Continuous
 62
     7
100
AcDbCircle
 10
304.5000000000001
 20
223.395831829962
 30
0.0
 40
13.0
100
AcDbArc
 50
0.0
 51
66.44353569089932
  0
ARC
  5
104
330
53
100
AcDbEntity
  8
1
  6
Continuous
 62
     7
100
AcDbCircle
 10
299.7041684766874
 20
212.395831829962
 30
0.0
 40
25.00000000000008
100
AcDbArc
 50
66.44353569089911
 51
90.0
  0
ARC
  5
105
330
53
100
AcDbEntity
  8
1
  6
Continuous
 62
     7
100
AcDbCircle
 10
459.7041684766873
 20
212.395831829962
 30
0.0
 40
25.00000000000013
100
AcDbArc
 50
66.44353569089886
 51
90.0
  0
ARC
  5
106
330
53
100
AcDbEntity
  8
1
  6
Continuous
 62
     7
100
AcDbCircle
 10
464.5
 20
223.395831829962
 30
0.0
 40
13.0
100
AcDbArc
 50
0.0
 51
66.44353569089886
  0
ARC
  5
107
330
53
100
AcDbEntity
  8
1
  6
Continuous
 62
     7
100
AcDbCircle
 10
430.5
 20
223.395831829962
 30
0.0
 40
13.00000000000007
100
AcDbArc
 50
113.5564643091004
 51
180.0
  0
ARC
  5
108
330
53
100
AcDbEntity
  8
1
  6
Continuous
 62
     7
100
AcDbCircle
 10
435.2958315233127
 20
212.395831829962
 30
0.0
 40
25.0
100
AcDbArc
 50
90.0
 51
113.5564643091008
  0
ARC
  5
109
330
53
100
AcDbEntity
  8
1
  6
Continuous
 62
     7
100
AcDbCircle
 10
287.4999999999999
 20
943.291060075283
 30
0.0
 40
29.99999999999981
100
AcDbArc
 50
25.67899703914952
 51
334.320419799522
  0
ENDBLK
  5
55
330
53
100
AcDbEntity
  8
0
100
AcDbBlockEnd
  0
BLOCK
  5
57
330
56
100
AcDbEntity
  8
0
100
AcDbBlockBegin
  2
V21-2-0A-13-M1
 70
     0
 10
349.7691410709857
 20
1864.0
 30
0.0
  3
V21-2-0A-13-M1
  1

  0
LINE
  5
10A
330
56
100
AcDbEntity
  8
1
  6
Continuous
 62
     7
100
AcDbLine
 10
295.2942286340598
 20
930.791060075283
 30
0.0
 11
295.005553499465
 21
930.291060075283
 31
0.0
  0
LINE
  5
10B
330
56
100
AcDbEntity
  8
1
  6
Continuous
 62
     7
100
AcDbLine
 10
309.0918426934463
 20
930.791060075283
 30
0.0
 11
287.4999999999999
 21
930.7910600752826
 31
0.0
  0
LINE
  5
10C
330
56
100
AcDbEntity
  8
1
  6
Continuous
 62
     7
100
AcDbLine
 10
309.5918426934463
 20
931.291060075283
 30
0.0
 11
309.0918426934463
 21
930.791060075283
 31
0.0
  0
LINE
  5
10D
330
56
100
AcDbEntity
  8
1
  6
Continuous
 62
     7
100
AcDbLine
 10
309.0918426934463
 20
955.791060075283
 30
0.0
 11
287.4999999999999
 21
955.791060075283
 31
0.0
  0
LINE
  5
10E
330
56
100
AcDbEntity
  8
1
  6
Continuous
 62
     7
100
AcDbLine
 10
309.5918426934463
 20
955.291060075283
 30
0.0
 11
309.0918426934463
 21
955.791060075283
 31
0.0
  0
LINE
  5
10F
330
56
100
AcDbEntity
  8
1
  6
Continuous
 62
     7
100
AcDbLine
 10
287.4999999999999
 20
956.291060075283
 30
0.0
 11
295.005553499465
 21
956.291060075283
 31
0.0
  0
LINE
  5
110
330
56
100
AcDbEntity
  8
1
  6
Continuous
 62
     7
100
AcDbLine
 10
295.005553499465
 20
956.291060075283
 30
0.0
 11
295.2942286340598
 21
955.791060075283
 31
0.0
  0
LINE
  5
111
330
56
100
AcDbEntity
  8
1
  6
Continuous
 62
     7
100
AcDbLine
 10
295.005553499465
 20
930.291060075283
 30
0.0
 11
287.4999999999999
 21
930.291060075283
 31
0.0
  0
LINE
  5
112
330
56
100
AcDbEntity
  8
1
  6
Continuous
 62
     7
100
AcDbLine
 10
279.9944465005348
 20
956.291060075283
 30
0.0
 11
287.4999999999999
 21
956.291060075283
 31
0.0
  0
LINE
  5
113
330
56
100
AcDbEntity
  8
1
  6
Continuous
 62
     7
100
AcDbLine
 10
279.9944465005348
 20
930.291060075283
 30
0.0
 11
272.4888930010696
 21
943.2910600752825
 31
0.0
  0
LINE
  5
114
330
56
100
AcDbEntity
  8
1
  6
Continuous
 62
     7
100
AcDbLine
 10
287.4999999999999
 20
930.291060075283
 30
0.0
 11
279.9944465005348
 21
930.291060075283
 31
0.0
  0
LINE
  5
115
330
56
100
AcDbEntity
  8
1
  6
Continuous
 62
     2
100
AcDbLine
 10
311.0000000000001
 20
954.4780600752829
 30
0.0
 11
312.4999999999999
 21
954.4780600752829
 31
0.0
  0
LINE
  5
116
330
56
100
AcDbEntity
  8
1
  6
Continuous
 62
     7
100
AcDbLine
 10
311.0000000000001
 20
955.291060075283
 30
0.0
 11
311.0000000000001
 21
954.4780600752829
 31
0.0
  0
LINE
  5
117
330
56
100
AcDbEntity
  8
1
  6
Continuous
 62
     7
100
AcDbLine
 10
311.0000000000001
 20
955.291060075283
 30
0.0
 11
309.5918426934463
 21
955.291060075283
 31
0.0
  0
LINE
  5
118
330
56
100
AcDbEntity
  8
1
  6
Continuous
 62
     2
100
AcDbLine
 10
311.0000000000001
 20
954.4780600752829
 30
0.0
 11
309.5918426934463
 21
955.291060075283
 31
0.0
  0
LINE
  5
119
330
56
100
AcDbEntity
  8
1
  6
Continuous
 62
     2
100
AcDbLine
 10
309.5918426934463
 20
931.291060075283
 30
0.0
 11
311.0000000000001
 21
932.1040600752827
 31
0.0
  0
LINE
  5
11A
330
56
100
AcDbEntity
  8
1
  6
Continuous
 62
     7
100
AcDbLine
 10
309.5918426934463
 20
931.291060075283
 30
0.0
 11
311.0000000000001
 21
931.291060075283
 31
0.0
  0
LINE
  5
11B
330
56
100
AcDbEntity
  8
1
  6
Continuous
 62
     7
100
AcDbLine
 10
311.0000000000001
 20
932.1040600752827
 30
0.0
 11
311.0000000000001
 21
931.291060075283
 31
0.0
  0
LINE
  5
11C
330
56
100
AcDbEntity
  8
1
  6
Continuous
 62
     7
100
AcDbLine
 10
311.0000000000001
 20
931.291060075283
 30
0.0
 11
312.5000000000001
 21
931.291060075283
 31
0.0
  0
LINE
  5
11D
330
56
100
AcDbEntity
  8
1
  6
Continuous
 62
     7
100
AcDbLine
 10
311.0000000000001
 20
932.1040600752827
 30
0.0
 11
311.0000000000001
 21
954.4780600752829
 31
0.0
  0
LINE
  5
11E
330
56
100
AcDbEntity
  8
1
  6
Continuous
 62
     7
100
AcDbLine
 10
309.0918426934463
 20
955.791060075283
 30
0.0
 11
309.0918426934463
 21
930.791060075283
 31
0.0
  0
LINE
  5
11F
330
56
100
AcDbEntity
  8
1
  6
Continuous
 62
     7
100
AcDbLine
 10
309.5918426934463
 20
955.291060075283
 30
0.0
 11
309.5918426934463
 21
931.291060075283
 31
0.0
  0
LINE
  5
120
330
56
100
AcDbEntity
  8
1
  6
PHANTOM
 62
     4
100
AcDbLine
 10
320.0000000000001
 20
943.291060075283
 30
0.0
 11
269.4888930010696
 21
943.291060075283
 31
0.0
  0
LINE
  5
121
330
56
100
AcDbEntity
  8
1
  6
PHANTOM
 62
     4
100
AcDbLine
 10
287.4999999999999
 20
959.291060075283
 30
0.0
 11
287.4999999999999
 21
927.291060075283
 31
0.0
  0
LINE
  5
122
330
56
100
AcDbEntity
  8
1
  6
Continuous
 62
     2
100
AcDbLine
 10
312.5000000000001
 20
932.1040600752827
 30
0.0
 11
311.0000000000001
 21
932.1040600752827
 31
0.0
  0
LINE
  5
123
330
56
100
AcDbEntity
  8
1
  6
Continuous
 62
     7
100
AcDbLine
 10
312.4999999999999
 20
955.291060075283
 30
0.0
 11
311.0000000000001
 21
955.291060075283
 31
0.0
  0
LINE
  5
124
330
56
100
AcDbEntity
  8
1
  6
Continuous
 62
     7
100
AcDbLine
 10
272.4888930010696
 20
943.2910600752825
 30
0.0
 11
279.9944465005348
 21
956.291060075283
 31
0.0
  0
LINE
  5
125
330
56
100
AcDbEntity
  8
1
  6
Continuous
 62
     7
100
AcDbLine
 10
288.0000000000001
 20
937.9644758039135
 30
0.0
 11
288.0000000000001
 21
948.6176443466525
 31
0.0
  0
LINE
  5
126
330
56
100
AcDbEntity
  8
1
  6
Continuous
 62
     7
100
AcDbLine
 10
435.0
 20
641.2781851520597
 30
0.0
 11
435.0
 21
625.2436358472288
 31
0.0
  0
LINE
  5
127
330
56
100
AcDbEntity
  8
1
  6
Continuous
 62
     7
100
AcDbLine
 10
456.8380000000001
 20
669.6614610364331
 30
0.0
 11
438.162
 21
669.6614610364331
 31
0.0
  0
LINE
  5
128
330
56
100
AcDbEntity
  8
1
  6
Continuous
 62
     7
100
AcDbLine
 10
437.0
 20
671.3614610364332
 30
0.0
 11
437.0
 21
669.6614610364331
 31
0.0
  0
LINE
  5
129
330
56
100
AcDbEntity
  8
1
  6
Continuous
 62
     2
100
AcDbLine
 10
456.8380000000001
 20
671.3614610364332
 30
0.0
 11
456.8380000000001
 21
669.6614610364331
 31
0.0
  0
LINE
  5
12A
330
56
100
AcDbEntity
  8
1
  6
Continuous
 62
     7
100
AcDbLine
 10
458.0
 20
671.3614610364332
 30
0.0
 11
458.0
 21
669.6614610364331
 31
0.0
  0
LINE
  5
12B
330
56
100
AcDbEntity
  8
1
  6
Continuous
 62
     7
100
AcDbLine
 10
277.0000000000001
 20
671.3614610364332
 30
0.0
 11
277.0000000000001
 21
669.6614610364331
 31
0.0
  0
LINE
  5
12C
330
56
100
AcDbEntity
  8
1
  6
Continuous
 62
     2
100
AcDbLine
 10
296.8380000000001
 20
671.3614610364332
 30
0.0
 11
296.8380000000001
 21
669.6614610364331
 31
0.0
  0
LINE
  5
12D
330
56
100
AcDbEntity
  8
1
  6
Continuous
 62
     7
100
AcDbLine
 10
298.0000000000001
 20
671.3614610364332
 30
0.0
 11
298.0000000000001
 21
669.6614610364331
 31
0.0
  0
LINE
  5
12E
330
56
100
AcDbEntity
  8
1
  6
Continuous
 62
     7
100
AcDbLine
 10
312.5000000000001
 20
660.6614610364331
 30
0.0
 11
311.0000000000001
 21
660.6614610364331
 31
0.0
  0
LINE
  5
12F
330
56
100
AcDbEntity
  8
1
  6
Continuous
 62
     2
100
AcDbLine
 10
312.5000000000001
 20
637.4744610364331
 30
0.0
 11
311.0000000000001
 21
637.4744610364331
 31
0.0
  0
LINE
  5
130
330
56
100
AcDbEntity
  8
1
  6
PHANTOM
 62
     4
100
AcDbLine
 10
447.5
 20
607.6614610364331
 30
0.0
 11
447.5
 21
684.6614610364331
 31
0.0
  0
LINE
  5
131
330
56
100
AcDbEntity
  8
1
  6
Continuous
 62
     7
100
AcDbLine
 10
447.5
 20
615.9225680353633
 30
0.0
 11
447.5
 21
620.6614610364331
 31
0.0
  0
LINE
  5
132
330
56
100
AcDbEntity
  8
1
  6
Continuous
 62
     7
100
AcDbLine
 10
277.0000000000001
 20
667.6488179980381
 30
0.0
 11
277.0000000000001
 21
666.1614610364331
 31
0.0
  0
LINE
  5
133
330
56
100
AcDbEntity
  8
1
  6
Continuous
 62
     7
100
AcDbLine
 10
297.9775000000001
 20
613.6614610364331
 30
0.0
 11
277.0225
 21
613.6614610364331
 31
0.0
  0
LINE
  5
134
330
56
100
AcDbEntity
  8
1
  6
Continuous
 62
     7
100
AcDbLine
 10
300.0000000000001
 20
631.1614610364331
 30
0.0
 11
300.0000000000001
 21
625.2436358472288
 31
0.0
  0
LINE
  5
135
330
56
100
AcDbEntity
  8
1
  6
Continuous
 62
     7
100
AcDbLine
 10
275.0000000000001
 20
648.6614610364331
 30
0.0
 11
275.0000000000001
 21
625.2436358472288
 31
0.0
  0
LINE
  5
136
330
56
100
AcDbEntity
  8
1
  6
Continuous
 62
     7
100
AcDbLine
 10
298.0000000000001
 20
667.6488179980381
 30
0.0
 11
298.0000000000001
 21
666.1614610364331
 31
0.0
  0
LINE
  5
137
330
56
100
AcDbEntity
  8
1
  6
Continuous
 62
     7
100
AcDbLine
 10
302.5111069989304
 20
620.6614610364331
 30
0.0
 11
302.5111069989304
 21
615.9225680353633
 31
0.0
  0
LINE
  5
138
330
56
100
AcDbEntity
  8
1
  6
Continuous
 62
     7
100
AcDbLine
 10
311.0000000000001
 20
636.6614610364331
 30
0.0
 11
312.5000000000001
 21
636.6614610364331
 31
0.0
  0
LINE
  5
139
330
56
100
AcDbEntity
  8
1
  6
Continuous
 62
     7
100
AcDbLine
 10
311.0000000000001
 20
637.4744610364331
 30
0.0
 11
311.0000000000001
 21
636.6614610364331
 31
0.0
  0
LINE
  5
13A
330
56
100
AcDbEntity
  8
1
  6
Continuous
 62
     7
100
AcDbLine
 10
309.5918426934467
 20
636.6614610364331
 30
0.0
 11
311.0000000000001
 21
636.6614610364331
 31
0.0
  0
LINE
  5
13B
330
56
100
AcDbEntity
  8
1
  6
Continuous
 62
     2
100
AcDbLine
 10
309.5918426934467
 20
636.6614610364331
 30
0.0
 11
311.0000000000001
 21
637.4744610364331
 31
0.0
  0
LINE
  5
13C
330
56
100
AcDbEntity
  8
1
  6
Continuous
 62
     7
100
AcDbLine
 10
277.0000000000001
 20
669.6614610364331
 30
0.0
 11
278.162
 21
669.6614610364331
 31
0.0
  0
LINE
  5
13D
330
56
100
AcDbEntity
  8
1
  6
Continuous
 62
     2
100
AcDbLine
 10
277.0000000000001
 20
667.6488179980381
 30
0.0
 11
278.162
 21
669.6614610364331
 31
0.0
  0
LINE
  5
13E
330
56
100
AcDbEntity
  8
1
  6
Continuous
 62
     2
100
AcDbLine
 10
278.162
 20
669.6614610364331
 30
0.0
 11
278.162
 21
671.3614610364332
 31
0.0
  0
LINE
  5
13F
330
56
100
AcDbEntity
  8
1
  6
Continuous
 62
     2
100
AcDbLine
 10
296.8380000000001
 20
669.6614610364331
 30
0.0
 11
298.0000000000001
 21
667.6488179980381
 31
0.0
  0
LINE
  5
140
330
56
100
AcDbEntity
  8
1
  6
Continuous
 62
     7
100
AcDbLine
 10
298.0000000000001
 20
669.6614610364331
 30
0.0
 11
298.0000000000001
 21
667.6488179980381
 31
0.0
  0
LINE
  5
141
330
56
100
AcDbEntity
  8
1
  6
Continuous
 62
     7
100
AcDbLine
 10
296.8380000000001
 20
669.6614610364331
 30
0.0
 11
298.0000000000001
 21
669.6614610364331
 31
0.0
  0
LINE
  5
142
330
56
100
AcDbEntity
  8
1
  6
Continuous
 62
     2
100
AcDbLine
 10
311.0000000000001
 20
659.848461036433
 30
0.0
 11
309.5918426934467
 21
660.6614610364331
 31
0.0
  0
LINE
  5
143
330
56
100
AcDbEntity
  8
1
  6
Continuous
 62
     7
100
AcDbLine
 10
311.0000000000001
 20
660.6614610364331
 30
0.0
 11
309.5918426934467
 21
660.6614610364331
 31
0.0
  0
LINE
  5
144
330
56
100
AcDbEntity
  8
1
  6
Continuous
 62
     7
100
AcDbLine
 10
311.0000000000001
 20
660.6614610364331
 30
0.0
 11
311.0000000000001
 21
659.848461036433
 31
0.0
  0
LINE
  5
145
330
56
100
AcDbEntity
  8
1
  6
Continuous
 62
     2
100
AcDbLine
 10
311.0000000000001
 20
659.848461036433
 30
0.0
 11
312.5000000000001
 21
659.848461036433
 31
0.0
  0
LINE
  5
146
330
56
100
AcDbEntity
  8
1
  6
Continuous
 62
     7
100
AcDbLine
 10
277.0000000000001
 20
669.6614610364331
 30
0.0
 11
277.0000000000001
 21
667.6488179980381
 31
0.0
  0
LINE
  5
147
330
56
100
AcDbEntity
  8
1
  6
Continuous
 62
     7
100
AcDbLine
 10
297.9775000000001
 20
613.6614610364331
 30
0.0
 11
300.2500000000001
 21
613.6614610364331
 31
0.0
  0
LINE
  5
148
330
56
100
AcDbEntity
  8
1
  6
Continuous
 62
     7
100
AcDbLine
 10
302.5111069989304
 20
615.9225680353633
 30
0.0
 11
300.2500000000001
 21
613.6614610364331
 31
0.0
  0
LINE
  5
149
330
56
100
AcDbEntity
  8
1
  6
Continuous
 62
     7
100
AcDbLine
 10
300.2500000000001
 20
613.6614610364331
 30
0.0
 11
297.9775000000001
 21
613.6614610364331
 31
0.0
  0
LINE
  5
14A
330
56
100
AcDbEntity
  8
1
  6
Continuous
 62
     7
100
AcDbLine
 10
274.7500000000001
 20
613.6614610364331
 30
0.0
 11
272.4888930010699
 21
615.9225680353633
 31
0.0
  0
LINE
  5
14B
330
56
100
AcDbEntity
  8
1
  6
Continuous
 62
     7
100
AcDbLine
 10
274.7500000000001
 20
613.6614610364331
 30
0.0
 11
277.0225
 21
613.6614610364331
 31
0.0
  0
LINE
  5
14C
330
56
100
AcDbEntity
  8
1
  6
Continuous
 62
     7
100
AcDbLine
 10
302.5111069989304
 20
620.6614610364331
 30
0.0
 11
301.4644660940675
 21
621.708101941296
 31
0.0
  0
LINE
  5
14D
330
56
100
AcDbEntity
  8
1
  6
Continuous
 62
     7
100
AcDbLine
 10
309.5918426934467
 20
660.6614610364331
 30
0.0
 11
309.0918426934467
 21
661.1614610364331
 31
0.0
  0
LINE
  5
14E
330
56
100
AcDbEntity
  8
1
  6
Continuous
 62
     7
100
AcDbLine
 10
309.0918426934467
 20
661.1614610364331
 30
0.0
 11
303.0000000000001
 21
661.1614610364331
 31
0.0
  0
LINE
  5
14F
330
56
100
AcDbEntity
  8
1
  6
Continuous
 62
     7
100
AcDbLine
 10
309.5918426934467
 20
636.6614610364331
 30
0.0
 11
309.0918426934467
 21
636.1614610364331
 31
0.0
  0
LINE
  5
150
330
56
100
AcDbEntity
  8
1
  6
Continuous
 62
     7
100
AcDbLine
 10
309.0918426934467
 20
636.1614610364331
 30
0.0
 11
305.0000000000001
 21
636.1614610364331
 31
0.0
  0
LINE
  5
151
330
56
100
AcDbEntity
  8
1
  6
Continuous
 62
     7
100
AcDbLine
 10
272.4888930010699
 20
615.9225680353633
 30
0.0
 11
272.4888930010699
 21
620.6614610364331
 31
0.0
  0
LINE
  5
152
330
56
100
AcDbEntity
  8
1
  6
Continuous
 62
     7
100
AcDbLine
 10
273.5355339059328
 20
621.708101941296
 30
0.0
 11
272.4888930010699
 21
620.6614610364331
 31
0.0
  0
LINE
  5
153
330
56
100
AcDbEntity
  8
1
  6
Continuous
 62
     7
100
AcDbLine
 10
272.4888930010699
 20
615.9225680353633
 30
0.0
 11
272.4888930010699
 21
620.6614610364331
 31
0.0
  0
LINE
  5
154
330
56
100
AcDbEntity
  8
1
  6
PHANTOM
 62
     4
100
AcDbLine
 10
320.0000000000001
 20
648.6614610364331
 30
0.0
 11
272.0000000000001
 21
648.6614610364331
 31
0.0
  0
LINE
  5
155
330
56
100
AcDbEntity
  8
1
  6
PHANTOM
 62
     4
100
AcDbLine
 10
287.5000000000001
 20
681.6614610364331
 30
0.0
 11
287.5000000000001
 21
610.6614610364331
 31
0.0
  0
LINE
  5
156
330
56
100
AcDbEntity
  8
1
  6
Continuous
 62
     7
100
AcDbLine
 10
296.8380000000001
 20
669.6614610364331
 30
0.0
 11
278.162
 21
669.6614610364331
 31
0.0
  0
LINE
  5
157
330
56
100
AcDbEntity
  8
1
  6
Continuous
 62
     7
100
AcDbLine
 10
311.0000000000001
 20
659.848461036433
 30
0.0
 11
311.0000000000001
 21
637.4744610364331
 31
0.0
  0
LINE
  5
158
330
56
100
AcDbEntity
  8
1
  6
Continuous
 62
     7
100
AcDbLine
 10
309.0918426934467
 20
661.1614610364331
 30
0.0
 11
309.0918426934467
 21
636.1614610364331
 31
0.0
  0
LINE
  5
159
330
56
100
AcDbEntity
  8
1
  6
Continuous
 62
     7
100
AcDbLine
 10
295.0055534994651
 20
615.9225680353633
 30
0.0
 11
295.0055534994651
 21
620.6614610364331
 31
0.0
  0
LINE
  5
15A
330
56
100
AcDbEntity
  8
1
  6
Continuous
 62
     7
100
AcDbLine
 10
279.994446500535
 20
615.9225680353633
 30
0.0
 11
279.994446500535
 21
620.6614610364331
 31
0.0
  0
LINE
  5
15B
330
56
100
AcDbEntity
  8
1
  6
Continuous
 62
     7
100
AcDbLine
 10
434.75
 20
613.6614610364331
 30
0.0
 11
437.0225
 21
613.6614610364331
 31
0.0
  0
LINE
  5
15C
330
56
100
AcDbEntity
  8
1
  6
Continuous
 62
     7
100
AcDbLine
 10
434.75
 20
613.6614610364331
 30
0.0
 11
434.5
 21
613.9114610364331
 31
0.0
  0
LINE
  5
15D
330
56
100
AcDbEntity
  8
1
  6
Continuous
 62
     7
100
AcDbLine
 10
460.25
 20
613.6614610364331
 30
0.0
 11
457.9775000000001
 21
613.6614610364331
 31
0.0
  0
LINE
  5
15E
330
56
100
AcDbEntity
  8
1
  6
Continuous
 62
     7
100
AcDbLine
 10
457.9775000000001
 20
613.6614610364331
 30
0.0
 11
460.25
 21
613.6614610364331
 31
0.0
  0
LINE
  5
15F
330
56
100
AcDbEntity
  8
1
  6
Continuous
 62
     7
100
AcDbLine
 10
437.0
 20
669.6614610364331
 30
0.0
 11
437.0
 21
667.6488179980381
 31
0.0
  0
LINE
  5
160
330
56
100
AcDbEntity
  8
1
  6
Continuous
 62
     7
100
AcDbLine
 10
456.8380000000001
 20
669.6614610364331
 30
0.0
 11
458.0
 21
669.6614610364331
 31
0.0
  0
LINE
  5
161
330
56
100
AcDbEntity
  8
1
  6
Continuous
 62
     7
100
AcDbLine
 10
458.0
 20
669.6614610364331
 30
0.0
 11
458.0
 21
667.6488179980381
 31
0.0
  0
LINE
  5
162
330
56
100
AcDbEntity
  8
1
  6
Continuous
 62
     2
100
AcDbLine
 10
456.8380000000001
 20
669.6614610364331
 30
0.0
 11
458.0
 21
667.6488179980381
 31
0.0
  0
LINE
  5
163
330
56
100
AcDbEntity
  8
1
  6
Continuous
 62
     2
100
AcDbLine
 10
437.0
 20
667.6488179980381
 30
0.0
 11
438.162
 21
669.6614610364331
 31
0.0
  0
LINE
  5
164
330
56
100
AcDbEntity
  8
1
  6
Continuous
 62
     7
100
AcDbLine
 10
437.0
 20
669.6614610364331
 30
0.0
 11
438.162
 21
669.6614610364331
 31
0.0
  0
LINE
  5
165
330
56
100
AcDbEntity
  8
1
  6
Continuous
 62
     2
100
AcDbLine
 10
438.162
 20
669.6614610364331
 30
0.0
 11
438.162
 21
671.3614610364332
 31
0.0
  0
LINE
  5
166
330
56
100
AcDbEntity
  8
1
  6
Continuous
 62
     7
100
AcDbLine
 10
458.0
 20
667.6488179980381
 30
0.0
 11
458.0
 21
666.1614610364331
 31
0.0
  0
LINE
  5
167
330
56
100
AcDbEntity
  8
1
  6
Continuous
 62
     7
100
AcDbLine
 10
457.9775000000001
 20
613.6614610364331
 30
0.0
 11
437.0225
 21
613.6614610364331
 31
0.0
  0
LINE
  5
168
330
56
100
AcDbEntity
  8
1
  6
Continuous
 62
     7
100
AcDbLine
 10
437.0
 20
667.6488179980381
 30
0.0
 11
437.0
 21
666.1614610364331
 31
0.0
  0
LINE
  5
169
330
56
100
AcDbEntity
  8
1
  6
Continuous
 62
     7
100
AcDbLine
 10
460.0
 20
625.2436358472288
 30
0.0
 11
460.0
 21
641.2781851520599
 31
0.0
  0
LINE
  5
16A
330
56
100
AcDbEntity
  8
1
  6
Continuous
 62
     7
100
AcDbLine
 10
460.5
 20
623.0641863754586
 30
0.0
 11
460.5
 21
613.9114610364331
 31
0.0
  0
LINE
  5
16B
330
56
100
AcDbEntity
  8
1
  6
Continuous
 62
     7
100
AcDbLine
 10
460.5
 20
613.9114610364331
 30
0.0
 11
460.25
 21
613.6614610364331
 31
0.0
  0
LINE
  5
16C
330
56
100
AcDbEntity
  8
1
  6
Continuous
 62
     7
100
AcDbLine
 10
434.5
 20
623.0641863754586
 30
0.0
 11
434.5
 21
615.9225680353633
 31
0.0
  0
LINE
  5
16D
330
56
100
AcDbEntity
  8
1
  6
Continuous
 62
     7
100
AcDbLine
 10
434.5
 20
615.9225680353633
 30
0.0
 11
434.5
 21
613.9114610364331
 31
0.0
  0
LINE
  5
16E
330
56
100
AcDbEntity
  8
1
  6
PHANTOM
 62
     4
100
AcDbLine
 10
463.0
 20
648.6614610364331
 30
0.0
 11
432.0
 21
648.6614610364331
 31
0.0
  0
ARC
  5
16F
330
56
100
AcDbEntity
  8
1
  6
Continuous
 62
     7
100
AcDbCircle
 10
287.4999999999999
 20
943.2910600752825
 30
0.0
 40
12.49999999999989
100
AcDbArc
 50
210.5307023386912
 51
270.0
  0
ARC
  5
170
330
56
100
AcDbEntity
  8
1
  6
Continuous
 62
     7
100
AcDbCircle
 10
287.4999999999999
 20
943.2910600752825
 30
0.0
 40
12.74999999999955
100
AcDbArc
 50
270.0
 51
281.3648769670323
  0
ARC
  5
171
330
56
100
AcDbEntity
  8
1
  6
Continuous
 62
     7
100
AcDbCircle
 10
287.4999999999999
 20
943.2910600752825
 30
0.0
 40
12.74999999999992
100
AcDbArc
 50
150.1296398799226
 51
270.0
  0
ARC
  5
172
330
56
100
AcDbEntity
  8
1
  6
Continuous
 62
     7
100
AcDbCircle
 10
287.4999999999999
 20
943.2910600752825
 30
0.0
 40
12.75000000000045
100
AcDbArc
 50
78.6351230329667
 51
150.1296398799226
  0
ARC
  5
173
330
56
100
AcDbEntity
  8
1
  6
Continuous
 62
     7
100
AcDbCircle
 10
287.4999999999999
 20
943.2910600752825
 30
0.0
 40
12.50000000000045
100
AcDbArc
 50
90.0
 51
210.5307023386912
  0
ARC
  5
174
330
56
100
AcDbEntity
  8
1
  6
Continuous
 62
     7
100
AcDbCircle
 10
480.0
 20
648.6614610364331
 30
0.0
 40
44.99999999999986
100
AcDbArc
 50
166.9603964966862
 51
169.5088832575745
  0
ARC
  5
175
330
56
100
AcDbEntity
  8
1
  6
Continuous
 62
     7
100
AcDbCircle
 10
320.0000000000001
 20
648.6614610364331
 30
0.0
 40
44.99999999999997
100
AcDbArc
 50
166.9603964966862
 51
180.0
  0
ARC
  5
176
330
56
100
AcDbEntity
  8
1
  6
Continuous
 62
     7
100
AcDbCircle
 10
244.4374999999997
 20
666.1614610364331
 30
0.0
 40
32.56250000000044
100
AcDbArc
 50
346.960396496686
 51
0.0
  0
ARC
  5
177
330
56
100
AcDbEntity
  8
1
  6
Continuous
 62
     7
100
AcDbCircle
 10
404.4374999999997
 20
666.1614610364331
 30
0.0
 40
32.56250000000041
100
AcDbArc
 50
346.960396496686
 51
0.0
  0
ARC
  5
178
330
56
100
AcDbEntity
  8
1
  6
Continuous
 62
     7
100
AcDbCircle
 10
415.0000000000001
 20
648.6614610364331
 30
0.0
 40
45.00000000000009
100
AcDbArc
 50
10.49111674242514
 51
13.03960350331373
  0
ARC
  5
179
330
56
100
AcDbEntity
  8
1
  6
Continuous
 62
     7
100
AcDbCircle
 10
490.5625000000006
 20
666.1614610364331
 30
0.0
 40
32.56250000000063
100
AcDbArc
 50
180.0
 51
193.0396035033141
  0
SPLINE
  5
17A
330
56
100
AcDbEntity
  8
1
  6
Continuous
 62
     7
100
AcDbSpline
210
0.0
220
0.0
230
1.0
 70
     8
 71
     3
 72
    33
 73
    29
 74
    27
 42
0.000000001
 43
0.0000000001
 44
0.00000001
 40
0.0
 40
0.0
 40
0.0
 40
0.0
 40
0.4133568979874924
 40
0.8267148958295297
 40
1.047477426098145
 40
1.268240269860664
 40
1.504227365470739
 40
1.740225678003617
 40
2.001195134575648
 40
2.262139226749197
 40
2.573023660009636
 40
2.884147970269396
 40
3.395079508021696
 40
3.905704149328149
 40
4.36771577375017
 40
4.829727398172142
 40
5.340352039478468
 40
5.85128357723086
 40
6.16240788749067
 40
6.473292320751165
 40
6.734236412924665
 40
6.995205869496743
 40
7.231204182029596
 40
7.467191277639552
 40
7.687954121402199
 40
7.90871665167074
 40
8.322074649512693
 40
8.735431547500308
 40
8.735431547500308
 40
8.735431547500308
 40
8.735431547500308
 10
302.5111069989304
 20
615.9225680353633
 30
0.0
 10
302.4128567978657
 20
615.8259515822733
 30
0.0
 10
302.2163561243779
 20
615.6327184292659
 30
0.0
 10
301.9573022604154
 20
615.3984414708495
 30
0.0
 10
301.7406194537489
 20
615.2133483937754
 30
0.0
 10
301.5654844567803
 20
615.0707265139082
 30
0.0
 10
301.3826877683911
 20
614.9295821118689
 30
0.0
 10
301.1849114853449
 20
614.7860737164392
 30
0.0
 10
300.9753954402507
 20
614.6447908270809
 30
0.0
 10
300.739097030172
 20
614.4989600236781
 30
0.0
 10
300.4812264786436
 20
614.3567379135237
 30
0.0
 10
300.1397606951766
 20
614.1949116179986
 30
0.0
 10
299.7215538895765
 20
614.0417475496617
 30
0.0
 10
299.2369697217425
 20
613.9344528903525
 30
0.0
 10
298.7583302491977
 20
613.9011371060892
 30
0.0
 10
298.2796907766531
 20
613.9344528903529
 30
0.0
 10
297.795106608819
 20
614.0417475496614
 30
0.0
 10
297.376899803219
 20
614.1949116179987
 30
0.0
 10
297.0354340197518
 20
614.3567379135234
 30
0.0
 10
296.7775634682235
 20
614.4989600236783
 30
0.0
 10
296.5412650581447
 20
614.6447908270809
 30
0.0
 10
296.3317490130506
 20
614.786073716439
 30
0.0
 10
296.1339727300045
 20
614.9295821118692
 30
0.0
 10
295.951176041615
 20
615.0707265139079
 30
0.0
 10
295.7760410446469
 20
615.2133483937755
 30
0.0
 10
295.5593582379801
 20
615.3984414708494
 30
0.0
 10
295.3003043740179
 20
615.6327184292661
 30
0.0
 10
295.1038037005299
 20
615.8259515822733
 30
0.0
 10
295.0055534994651
 20
615.9225680353633
 30
0.0
 11
302.5111069989304
 21
615.9225680353633
 31
0.0
 11
302.2143674106462
 21
615.6348015604488
 31
0.0
 11
301.9080132327945
 21
615.3572912856307
 31
0.0
 11
301.7400640631134
 21
615.2140112406657
 31
0.0
 11
301.56884639704
 21
615.0746529107645
 31
0.0
 11
301.3819872179535
 21
614.9305225649022
 31
0.0
 11
301.1909094078026
 21
614.7920145358983
 31
0.0
 11
300.9744356069589
 21
614.64626080198
 31
0.0
 11
300.7522770724478
 21
614.5093761610319
 31
0.0
 11
300.47984478039
 21
614.3596104196212
 31
0.0
 11
300.1985207680154
 21
614.2267377861657
 31
0.0
 11
299.7181801058362
 21
614.0526002394218
 31
0.0
 11
299.2192160837701
 21
613.9440994112992
 31
0.0
 11
298.7583302491977
 21
613.9118660559352
 31
0.0
 11
298.2974444146254
 21
613.9440994112994
 31
0.0
 11
297.7984803925594
 21
614.0526002394216
 31
0.0
 11
297.3181397303801
 21
614.2267377861656
 31
0.0
 11
297.0368157180055
 21
614.359610419621
 31
0.0
 11
296.7643834259477
 21
614.5093761610319
 31
0.0
 11
296.5422248914366
 21
614.64626080198
 31
0.0
 11
296.3257510905929
 21
614.7920145358983
 31
0.0
 11
296.1346732804421
 21
614.9305225649023
 31
0.0
 11
295.9478141013555
 21
615.0746529107643
 31
0.0
 11
295.7765964352822
 21
615.2140112406659
 31
0.0
 11
295.6086472656011
 21
615.3572912856307
 31
0.0
 11
295.3022930877495
 21
615.6348015604488
 31
0.0
 11
295.0055534994651
 21
615.9225680353633
 31
0.0
  0
SPLINE
  5
17B
330
56
100
AcDbEntity
  8
1
  6
Continuous
 62
     7
100
AcDbSpline
210
0.0
220
0.0
230
1.0
 70
     8
 71
     3
 72
    33
 73
    29
 74
    27
 42
0.000000001
 43
0.0000000001
 44
0.00000001
 40
0.0
 40
0.0
 40
0.0
 40
0.0
 40
0.6660942065947185
 40
1.332190221276329
 40
1.699632942691242
 40
2.067077051446346
 40
2.470589211701729
 40
2.87410700574533
 40
3.334983197925959
 40
3.795855498283288
 40
4.367402400501763
 40
4.939051288057214
 40
5.929102488371932
 40
6.919199819070998
 40
7.841546050681525
 40
8.763892282292165
 40
9.7539896129914
 40
10.74404081330615
 40
11.31568970086163
 40
11.8872366030801
 40
12.3481089034373
 40
12.80898509561779
 40
13.21250288966157
 40
13.61601504991693
 40
13.98345915867198
 40
14.35090188008679
 40
15.0169978947685
 40
15.68309210136327
 40
15.68309210136327
 40
15.68309210136327
 40
15.68309210136327
 10
295.0055534994651
 20
615.9225680353633
 30
0.0
 10
294.806277221336
 20
615.8246301218687
 30
0.0
 10
294.4077241177446
 20
615.6287540422464
 30
0.0
 10
293.891277187469
 20
615.3955585712756
 30
0.0
 10
293.461781805211
 20
615.2121797224183
 30
0.0
 10
293.1102905014806
 20
615.0691267732874
 30
0.0
 10
292.7450146278412
 20
614.9282052854688
 30
0.0
 10
292.347660698375
 20
614.784137044293
 30
0.0
 10
291.9289664747788
 20
614.6431196214804
 30
0.0
 10
291.4532297855195
 20
614.4964952744865
 30
0.0
 10
290.9375634249625
 20
614.3546965823871
 30
0.0
 10
290.2454217211178
 20
614.1910633862454
 30
0.0
 10
289.4078060179002
 20
614.0389877707366
 30
0.0
 10
288.4451308997391
 20
613.9340460247075
 30
0.0
 10
287.5000000000002
 20
613.9006982585163
 30
0.0
 10
286.5548691002612
 20
613.9340460247074
 30
0.0
 10
285.5921939820998
 20
614.0389877707368
 30
0.0
 10
284.7545782788823
 20
614.1910633862451
 30
0.0
 10
284.0624365750375
 20
614.3546965823872
 30
0.0
 10
283.5467702144805
 20
614.4964952744865
 30
0.0
 10
283.0710335252214
 20
614.6431196214805
 30
0.0
 10
282.6523393016251
 20
614.784137044293
 30
0.0
 10
282.254985372159
 20
614.9282052854692
 30
0.0
 10
281.8897094985194
 20
615.0691267732873
 30
0.0
 10
281.5382181947893
 20
615.2121797224183
 30
0.0
 10
281.1087228125311
 20
615.3955585712757
 30
0.0
 10
280.5922758822558
 20
615.6287540422464
 30
0.0
 10
280.1937227786643
 20
615.8246301218691
 30
0.0
 10
279.994446500535
 20
615.9225680353633
 30
0.0
 11
295.0055534994651
 21
615.9225680353633
 31
0.0
 11
294.4061638049022
 21
615.6320280424842
 31
0.0
 11
293.7993659671936
 21
615.3572912856307
 31
0.0
 11
293.4613794931432
 21
615.2131410271285
 31
0.0
 11
293.1210322956845
 21
615.0746529107645
 31
0.0
 11
292.7445359019911
 21
614.9294891096249
 31
0.0
 11
292.3651583172098
 21
614.7920145358983
 31
0.0
 11
291.9283546707822
 21
614.6450130421179
 31
0.0
 11
291.4878936465
 21
614.5093761610319
 31
0.0
 11
290.9367445558075
 21
614.3580469122022
 31
0.0
 11
290.3803810376353
 21
614.2267377861657
 31
0.0
 11
289.4061251256325
 21
614.0505935325896
 31
0.0
 11
288.4217716691445
 21
613.9440994112994
 31
0.0
 11
287.5000000000002
 21
613.9115485015209
 31
0.0
 11
286.5782283308557
 21
613.9440994112994
 31
0.0
 11
285.5938748743676
 21
614.0505935325896
 31
0.0
 11
284.6196189623647
 21
614.2267377861656
 31
0.0
 11
284.0632554441925
 21
614.3580469122022
 31
0.0
 11
283.5121063535
 21
614.5093761610319
 31
0.0
 11
283.071645329218
 21
614.645013042118
 31
0.0
 11
282.6348416827905
 21
614.7920145358983
 31
0.0
 11
282.255464098009
 21
614.9294891096251
 31
0.0
 11
281.8789677043156
 21
615.0746529107645
 31
0.0
 11
281.5386205068569
 21
615.2131410271285
 31
0.0
 11
281.2006340328067
 21
615.3572912856307
 31
0.0
 11
280.593836195098
 21
615.6320280424843
 31
0.0
 11
279.994446500535
 21
615.9225680353633
 31
0.0
  0
SPLINE
  5
17C
330
56
100
AcDbEntity
  8
1
  6
Continuous
 62
     7
100
AcDbSpline
210
0.0
220
0.0
230
1.0
 70
     8
 71
     3
 72
    33
 73
    29
 74
    27
 42
0.000000001
 43
0.0000000001
 44
0.00000001
 40
0.0
 40
0.0
 40
0.0
 40
0.0
 40
0.41335689798737
 40
0.826714895829323
 40
1.047477426097938
 40
1.268240269860457
 40
1.504227365470577
 40
1.740225678003455
 40
2.001195134575533
 40
2.26213922674913
 40
2.57302366000957
 40
2.884147970269329
 40
3.39507950802163
 40
3.905704149327861
 40
4.367715773749995
 40
4.82972739817208
 40
5.340352039478517
 40
5.851283577230856
 40
6.162407887490614
 40
6.473292320751058
 40
6.734236412924608
 40
6.995205869496639
 40
7.231204182029491
 40
7.467191277639403
 40
7.687954121402182
 40
7.908716651670766
 40
8.32207464951276
 40
8.735431547500172
 40
8.735431547500172
 40
8.735431547500172
 40
8.735431547500172
 10
272.4888930010699
 20
615.9225680353633
 30
0.0
 10
272.5871432021345
 20
615.8259515822733
 30
0.0
 10
272.7836438756224
 20
615.6327184292659
 30
0.0
 10
273.0426977395847
 20
615.3984414708498
 30
0.0
 10
273.2593805462512
 20
615.2133483937752
 30
0.0
 10
273.4345155432198
 20
615.0707265139083
 30
0.0
 10
273.6173122316089
 20
614.9295821118689
 30
0.0
 10
273.8150885146553
 20
614.786073716439
 30
0.0
 10
274.0246045597494
 20
614.6447908270811
 30
0.0
 10
274.2609029698281
 20
614.498960023678
 30
0.0
 10
274.5187735213566
 20
614.3567379135237
 30
0.0
 10
274.8602393048236
 20
614.1949116179985
 30
0.0
 10
275.2784461104237
 20
614.0417475496619
 30
0.0
 10
275.7630302782576
 20
613.9344528903525
 30
0.0
 10
276.2416697508024
 20
613.9011371060892
 30
0.0
 10
276.7203092233472
 20
613.9344528903528
 30
0.0
 10
277.2048933911812
 20
614.0417475496612
 30
0.0
 10
277.6231001967813
 20
614.1949116179987
 30
0.0
 10
277.9645659802483
 20
614.3567379135234
 30
0.0
 10
278.2224365317768
 20
614.4989600236784
 30
0.0
 10
278.4587349418554
 20
614.644790827081
 30
0.0
 10
278.6682509869496
 20
614.7860737164389
 30
0.0
 10
278.8660272699956
 20
614.9295821118692
 30
0.0
 10
279.0488239583851
 20
615.0707265139081
 30
0.0
 10
279.2239589553535
 20
615.2133483937754
 30
0.0
 10
279.4406417620203
 20
615.3984414708497
 30
0.0
 10
279.6996956259823
 20
615.6327184292657
 30
0.0
 10
279.8961962994704
 20
615.8259515822734
 30
0.0
 10
279.994446500535
 20
615.9225680353633
 30
0.0
 11
272.4888930010699
 21
615.9225680353633
 31
0.0
 11
272.785632589354
 21
615.6348015604488
 31
0.0
 11
273.0919867672056
 21
615.3572912856307
 31
0.0
 11
273.2599359368866
 21
615.2140112406657
 31
0.0
 11
273.4311536029601
 21
615.0746529107645
 31
0.0
 11
273.6180127820467
 21
614.9305225649022
 31
0.0
 11
273.8090905921975
 21
614.7920145358983
 31
0.0
 11
274.0255643930412
 21
614.64626080198
 31
0.0
 11
274.2477229275524
 21
614.5093761610319
 31
0.0
 11
274.5201552196103
 21
614.3596104196212
 31
0.0
 11
274.8014792319848
 21
614.2267377861657
 31
0.0
 11
275.281819894164
 21
614.0526002394218
 31
0.0
 11
275.7807839162299
 21
613.9440994112992
 31
0.0
 11
276.2416697508024
 21
613.9118660559352
 31
0.0
 11
276.7025555853748
 21
613.9440994112994
 31
0.0
 11
277.201519607441
 21
614.0526002394216
 31
0.0
 11
277.6818602696202
 21
614.2267377861656
 31
0.0
 11
277.9631842819947
 21
614.359610419621
 31
0.0
 11
278.2356165740525
 21
614.5093761610319
 31
0.0
 11
278.4577751085636
 21
614.64626080198
 31
0.0
 11
278.6742489094073
 21
614.7920145358983
 31
0.0
 11
278.865326719558
 21
614.9305225649023
 31
0.0
 11
279.0521858986446
 21
615.0746529107643
 31
0.0
 11
279.2234035647181
 21
615.2140112406659
 31
0.0
 11
279.3913527343992
 21
615.3572912856307
 31
0.0
 11
279.6977069122509
 21
615.6348015604488
 31
0.0
 11
279.994446500535
 21
615.9225680353633
 31
0.0
  0
SPLINE
  5
17D
330
56
100
AcDbEntity
  8
1
  6
Continuous
 62
     7
100
AcDbSpline
210
0.0
220
0.0
230
1.0
 70
     8
 71
     3
 72
    33
 73
    29
 74
    27
 42
0.000000001
 43
0.0000000001
 44
0.00000001
 40
0.0
 40
0.0
 40
0.0
 40
0.0
 40
0.4133568979875715
 40
0.8267148958294561
 40
1.047477426097997
 40
1.268240269860517
 40
1.504227365470522
 40
1.7402256780036
 40
2.001195134575568
 40
2.262139226749176
 40
2.573023660009616
 40
2.884147970269423
 40
3.395079508021762
 40
3.905704149328119
 40
4.367715773750155
 40
4.829727398172127
 40
5.340352039478453
 40
5.851283577230845
 40
6.162407887490704
 40
6.473292320751089
 40
6.734236412924648
 40
6.995205869496727
 40
7.231204182029646
 40
7.467191277639672
 40
7.687954121402247
 40
7.908716651670788
 40
8.322074649512588
 40
8.735431547500282
 40
8.735431547500282
 40
8.735431547500282
 40
8.735431547500282
 10
302.5111069989304
 20
620.6614610364331
 30
0.0
 10
302.4128567978657
 20
620.7580774895231
 30
0.0
 10
302.2163561243779
 20
620.9513106425306
 30
0.0
 10
301.9573022604155
 20
621.1855876009467
 30
0.0
 10
301.7406194537489
 20
621.370680678021
 30
0.0
 10
301.5654844567803
 20
621.5133025578878
 30
0.0
 10
301.382687768391
 20
621.6544469599269
 30
0.0
 10
301.184911485345
 20
621.7979553553575
 30
0.0
 10
300.9753954402506
 20
621.9392382447152
 30
0.0
 10
300.7390970301721
 20
622.0850690481183
 30
0.0
 10
300.4812264786436
 20
622.2272911582728
 30
0.0
 10
300.1397606951766
 20
622.3891174537981
 30
0.0
 10
299.7215538895766
 20
622.542281522135
 30
0.0
 10
299.2369697217424
 20
622.6495761814435
 30
0.0
 10
298.7583302491978
 20
622.6828919657071
 30
0.0
 10
298.2796907766531
 20
622.6495761814436
 30
0.0
 10
297.7951066088191
 20
622.542281522135
 30
0.0
 10
297.3768998032189
 20
622.389117453798
 30
0.0
 10
297.035434019752
 20
622.2272911582727
 30
0.0
 10
296.7775634682234
 20
622.0850690481185
 30
0.0
 10
296.5412650581449
 20
621.9392382447154
 30
0.0
 10
296.3317490130505
 20
621.7979553553575
 30
0.0
 10
296.1339727300045
 20
621.6544469599271
 30
0.0
 10
295.9511760416152
 20
621.5133025578882
 30
0.0
 10
295.7760410446468
 20
621.370680678021
 30
0.0
 10
295.5593582379802
 20
621.1855876009466
 30
0.0
 10
295.3003043740178
 20
620.9513106425306
 30
0.0
 10
295.1038037005299
 20
620.7580774895229
 30
0.0
 10
295.0055534994651
 20
620.6614610364331
 30
0.0
 11
302.5111069989304
 21
620.6614610364331
 31
0.0
 11
302.2143674106462
 21
620.9492275113478
 31
0.0
 11
301.9080132327945
 21
621.2267377861656
 31
0.0
 11
301.7400640631134
 21
621.3700178311304
 31
0.0
 11
301.56884639704
 21
621.5093761610317
 31
0.0
 11
301.3819872179535
 21
621.6535065068939
 31
0.0
 11
301.1909094078026
 21
621.7920145358981
 31
0.0
 11
300.9744356069589
 21
621.9377682698163
 31
0.0
 11
300.7522770724478
 21
622.0746529107645
 31
0.0
 11
300.47984478039
 21
622.2244186521752
 31
0.0
 11
300.1985207680154
 21
622.3572912856308
 31
0.0
 11
299.7181801058362
 21
622.5314288323748
 31
0.0
 11
299.2192160837701
 21
622.6399296604969
 31
0.0
 11
298.7583302491977
 21
622.6721630158612
 31
0.0
 11
298.2974444146254
 21
622.639929660497
 31
0.0
 11
297.7984803925594
 21
622.5314288323748
 31
0.0
 11
297.3181397303801
 21
622.3572912856308
 31
0.0
 11
297.0368157180055
 21
622.2244186521752
 31
0.0
 11
296.7643834259477
 21
622.0746529107646
 31
0.0
 11
296.5422248914366
 21
621.9377682698164
 31
0.0
 11
296.3257510905929
 21
621.7920145358981
 31
0.0
 11
296.1346732804421
 21
621.653506506894
 31
0.0
 11
295.9478141013555
 21
621.5093761610319
 31
0.0
 11
295.7765964352822
 21
621.3700178311304
 31
0.0
 11
295.6086472656011
 21
621.2267377861656
 31
0.0
 11
295.3022930877495
 21
620.9492275113478
 31
0.0
 11
295.0055534994651
 21
620.6614610364331
 31
0.0
  0
SPLINE
  5
17E
330
56
100
AcDbEntity
  8
1
  6
Continuous
 62
     7
100
AcDbSpline
210
0.0
220
0.0
230
1.0
 70
     8
 71
     3
 72
    33
 73
    29
 74
    27
 42
0.000000001
 43
0.0000000001
 44
0.00000001
 40
0.0
 40
0.0
 40
0.0
 40
0.0
 40
0.6660942065946193
 40
1.332190221276277
 40
1.69963294269119
 40
2.067077051446336
 40
2.470589211701637
 40
2.874107005745354
 40
3.334983197925911
 40
3.795855498283274
 40
4.367402400501748
 40
4.939051288057225
 40
5.929102488371902
 40
6.919199819070968
 40
7.841546050681499
 40
8.763892282292144
 40
9.753989612991392
 40
10.74404081330612
 40
11.3156897008616
 40
11.88723660308008
 40
12.34810890343721
 40
12.80898509561769
 40
13.21250288966148
 40
13.61601504991688
 40
13.98345915867197
 40
14.35090188008673
 40
15.01699789476844
 40
15.68309210136321
 40
15.68309210136321
 40
15.68309210136321
 40
15.68309210136321
 10
295.0055534994651
 20
620.6614610364331
 30
0.0
 10
294.806277221336
 20
620.7593989499276
 30
0.0
 10
294.4077241177444
 20
620.9552750295495
 30
0.0
 10
293.8912771874692
 20
621.1884705005209
 30
0.0
 10
293.4617818052109
 20
621.3718493493777
 30
0.0
 10
293.1102905014807
 20
621.514902298509
 30
0.0
 10
292.745014627841
 20
621.6558237863269
 30
0.0
 10
292.3476606983753
 20
621.799892027504
 30
0.0
 10
291.9289664747787
 20
621.9409094503158
 30
0.0
 10
291.4532297855196
 20
622.08753379731
 30
0.0
 10
290.9375634249625
 20
622.2293324894092
 30
0.0
 10
290.2454217211177
 20
622.3929656855512
 30
0.0
 10
289.4078060179003
 20
622.5450413010597
 30
0.0
 10
288.445130899739
 20
622.6499830470887
 30
0.0
 10
287.5000000000001
 20
622.6833308132802
 30
0.0
 10
286.5548691002612
 20
622.6499830470888
 30
0.0
 10
285.5921939820998
 20
622.5450413010594
 30
0.0
 10
284.7545782788822
 20
622.3929656855512
 30
0.0
 10
284.0624365750376
 20
622.2293324894092
 30
0.0
 10
283.5467702144805
 20
622.0875337973098
 30
0.0
 10
283.0710335252214
 20
621.9409094503159
 30
0.0
 10
282.652339301625
 20
621.7998920275038
 30
0.0
 10
282.2549853721591
 20
621.6558237863275
 30
0.0
 10
281.8897094985194
 20
621.5149022985089
 30
0.0
 10
281.5382181947894
 20
621.371849349378
 30
0.0
 10
281.108722812531
 20
621.1884705005207
 30
0.0
 10
280.5922758822558
 20
620.9552750295497
 30
0.0
 10
280.1937227786643
 20
620.7593989499277
 30
0.0
 10
279.994446500535
 20
620.6614610364331
 30
0.0
 11
295.0055534994651
 21
620.6614610364331
 31
0.0
 11
294.4061638049022
 21
620.952001029312
 31
0.0
 11
293.7993659671936
 21
621.2267377861656
 31
0.0
 11
293.4613794931432
 21
621.3708880446678
 31
0.0
 11
293.1210322956845
 21
621.5093761610319
 31
0.0
 11
292.7445359019911
 21
621.6545399621713
 31
0.0
 11
292.3651583172098
 21
621.7920145358983
 31
0.0
 11
291.9283546707822
 21
621.9390160296784
 31
0.0
 11
291.4878936465
 21
622.0746529107645
 31
0.0
 11
290.9367445558075
 21
622.2259821595942
 31
0.0
 11
290.3803810376353
 21
622.3572912856308
 31
0.0
 11
289.4061251256325
 21
622.5334355392067
 31
0.0
 11
288.4217716691445
 21
622.6399296604969
 31
0.0
 11
287.5000000000002
 21
622.6724805702755
 31
0.0
 11
286.5782283308557
 21
622.6399296604969
 31
0.0
 11
285.5938748743676
 21
622.5334355392066
 31
0.0
 11
284.6196189623647
 21
622.3572912856307
 31
0.0
 11
284.0632554441925
 21
622.2259821595941
 31
0.0
 11
283.5121063535
 21
622.0746529107644
 31
0.0
 11
283.071645329218
 21
621.9390160296786
 31
0.0
 11
282.6348416827905
 21
621.7920145358983
 31
0.0
 11
282.255464098009
 21
621.6545399621714
 31
0.0
 11
281.8789677043156
 21
621.5093761610319
 31
0.0
 11
281.5386205068569
 21
621.3708880446678
 31
0.0
 11
281.2006340328067
 21
621.2267377861657
 31
0.0
 11
280.593836195098
 21
620.9520010293121
 31
0.0
 11
279.994446500535
 21
620.6614610364331
 31
0.0
  0
SPLINE
  5
17F
330
56
100
AcDbEntity
  8
1
  6
Continuous
 62
     7
100
AcDbSpline
210
0.0
220
0.0
230
1.0
 70
     8
 71
     3
 72
    33
 73
    29
 74
    27
 42
0.000000001
 43
0.0000000001
 44
0.00000001
 40
0.0
 40
0.0
 40
0.0
 40
0.0
 40
0.4133568979874491
 40
0.8267148958292496
 40
1.047477426097791
 40
1.26824026986031
 40
1.50422736547036
 40
1.740225678003439
 40
2.001195134575453
 40
2.26213922674911
 40
2.57302366000955
 40
2.884147970269357
 40
3.395079508021696
 40
3.905704149327831
 40
4.367715773749981
 40
4.829727398172066
 40
5.340352039478502
 40
5.851283577230841
 40
6.162407887490649
 40
6.473292320750984
 40
6.734236412924592
 40
6.995205869496623
 40
7.231204182029543
 40
7.467191277639524
 40
7.687954121402231
 40
7.908716651670815
 40
8.322074649512658
 40
8.735431547500148
 40
8.735431547500148
 40
8.735431547500148
 40
8.735431547500148
 10
272.4888930010699
 20
620.6614610364331
 30
0.0
 10
272.5871432021345
 20
620.758077489523
 30
0.0
 10
272.7836438756222
 20
620.9513106425306
 30
0.0
 10
273.0426977395847
 20
621.1855876009465
 30
0.0
 10
273.2593805462513
 20
621.3706806780211
 30
0.0
 10
273.4345155432197
 20
621.5133025578878
 30
0.0
 10
273.617312231609
 20
621.6544469599269
 30
0.0
 10
273.8150885146552
 20
621.7979553553578
 30
0.0
 10
274.0246045597495
 20
621.939238244715
 30
0.0
 10
274.2609029698282
 20
622.0850690481186
 30
0.0
 10
274.5187735213566
 20
622.2272911582726
 30
0.0
 10
274.8602393048238
 20
622.3891174537982
 30
0.0
 10
275.2784461104235
 20
622.5422815221348
 30
0.0
 10
275.7630302782577
 20
622.6495761814436
 30
0.0
 10
276.2416697508023
 20
622.6828919657071
 30
0.0
 10
276.7203092233472
 20
622.6495761814436
 30
0.0
 10
277.2048933911813
 20
622.5422815221348
 30
0.0
 10
277.6231001967814
 20
622.389117453798
 30
0.0
 10
277.9645659802483
 20
622.2272911582727
 30
0.0
 10
278.2224365317767
 20
622.0850690481182
 30
0.0
 10
278.4587349418553
 20
621.9392382447153
 30
0.0
 10
278.6682509869497
 20
621.7979553553577
 30
0.0
 10
278.8660272699956
 20
621.654446959927
 30
0.0
 10
279.0488239583851
 20
621.5133025578881
 30
0.0
 10
279.2239589553535
 20
621.3706806780209
 30
0.0
 10
279.4406417620202
 20
621.1855876009467
 30
0.0
 10
279.6996956259826
 20
620.9513106425306
 30
0.0
 10
279.8961962994704
 20
620.7580774895231
 30
0.0
 10
279.994446500535
 20
620.6614610364331
 30
0.0
 11
272.4888930010699
 21
620.6614610364331
 31
0.0
 11
272.785632589354
 21
620.9492275113478
 31
0.0
 11
273.0919867672056
 21
621.2267377861656
 31
0.0
 11
273.2599359368866
 21
621.3700178311304
 31
0.0
 11
273.4311536029601
 21
621.5093761610317
 31
0.0
 11
273.6180127820467
 21
621.6535065068939
 31
0.0
 11
273.8090905921975
 21
621.7920145358981
 31
0.0
 11
274.0255643930412
 21
621.9377682698163
 31
0.0
 11
274.2477229275524
 21
622.0746529107645
 31
0.0
 11
274.5201552196103
 21
622.2244186521752
 31
0.0
 11
274.8014792319848
 21
622.3572912856308
 31
0.0
 11
275.281819894164
 21
622.5314288323748
 31
0.0
 11
275.7807839162299
 21
622.6399296604969
 31
0.0
 11
276.2416697508024
 21
622.6721630158612
 31
0.0
 11
276.7025555853748
 21
622.639929660497
 31
0.0
 11
277.201519607441
 21
622.5314288323748
 31
0.0
 11
277.6818602696202
 21
622.3572912856308
 31
0.0
 11
277.9631842819947
 21
622.2244186521752
 31
0.0
 11
278.2356165740525
 21
622.0746529107646
 31
0.0
 11
278.4577751085636
 21
621.9377682698164
 31
0.0
 11
278.6742489094073
 21
621.7920145358981
 31
0.0
 11
278.865326719558
 21
621.653506506894
 31
0.0
 11
279.0521858986446
 21
621.5093761610319
 31
0.0
 11
279.2234035647181
 21
621.3700178311304
 31
0.0
 11
279.3913527343992
 21
621.2267377861656
 31
0.0
 11
279.6977069122509
 21
620.9492275113478
 31
0.0
 11
279.994446500535
 21
620.6614610364331
 31
0.0
  0
SPLINE
  5
180
330
56
100
AcDbEntity
  8
1
  6
Continuous
 62
     7
100
AcDbSpline
210
0.0
220
0.0
230
1.0
 70
     8
 71
     3
 72
    33
 73
    29
 74
    27
 42
0.000000001
 43
0.0000000001
 44
0.00000001
 40
0.0
 40
0.0
 40
0.0
 40
0.0
 40
0.5939249129344475
 40
1.187851597589214
 40
1.513819739508838
 40
1.839789279790026
 40
2.196317435514544
 40
2.552851932504558
 40
2.958199558378081
 40
3.363541509507728
 40
3.863542574906182
 40
4.363662703217794
 40
5.22416004859863
 40
6.084683374568789
 40
6.883623433991174
 40
7.682563493413729
 40
8.543086819383648
 40
9.403584164764563
 40
9.9037042930764
 40
10.40370535847473
 40
10.80904730960454
 40
11.21439493547801
 40
11.57092943246792
 40
11.92745758819233
 40
12.25342712847352
 40
12.5793952703933
 40
13.17332195504811
 40
13.76724686798266
 40
13.76724686798266
 40
13.76724686798266
 40
13.76724686798266
 10
447.5
 20
615.9225680353633
 30
0.0
 10
447.3278118051463
 20
615.8248444043501
 30
0.0
 10
446.9834348946334
 20
615.6293968635932
 30
0.0
 10
446.5359123546083
 20
615.3960094666597
 30
0.0
 10
446.1634251389904
 20
615.2123586311662
 30
0.0
 10
445.8591747927791
 20
615.0693658658896
 30
0.0
 10
445.5427832099526
 20
614.9284063793158
 30
0.0
 10
445.198875743843
 20
614.784412396167
 30
0.0
 10
444.8362159481337
 20
614.6433508170646
 30
0.0
 10
444.4245593808672
 20
614.4968238322836
 30
0.0
 10
443.9779301466997
 20
614.3549587454359
 30
0.0
 10
443.3794793306108
 20
614.1915362344471
 30
0.0
 10
442.654096432706
 20
614.0393270124241
 30
0.0
 10
441.8197013652022
 20
613.9340915198738
 30
0.0
 10
441.0
 20
613.900731718511
 30
0.0
 10
440.1802986347982
 20
613.9340915198738
 30
0.0
 10
439.3459035672944
 20
614.0393270124242
 30
0.0
 10
438.6205206693894
 20
614.1915362344466
 30
0.0
 10
438.0220698533006
 20
614.3549587454363
 30
0.0
 10
437.5754406191328
 20
614.4968238322834
 30
0.0
 10
437.1637840518665
 20
614.6433508170644
 30
0.0
 10
436.8011242561572
 20
614.7844123961671
 30
0.0
 10
436.4572167900476
 20
614.9284063793158
 30
0.0
 10
436.1408252072213
 20
615.0693658658897
 30
0.0
 10
435.83657486101
 20
615.2123586311661
 30
0.0
 10
435.4640876453918
 20
615.3960094666596
 30
0.0
 10
435.0165651053666
 20
615.629396863593
 30
0.0
 10
434.6721881948537
 20
615.8248444043502
 30
0.0
 10
434.5
 20
615.9225680353633
 30
0.0
 11
447.5
 21
615.9225680353633
 31
0.0
 11
446.9817400700644
 21
615.6324758970322
 31
0.0
 11
446.4554109553247
 21
615.3572912856307
 31
0.0
 11
446.1629826863197
 21
615.2132741436853
 31
0.0
 11
445.8679567635556
 21
615.0746529107644
 31
0.0
 11
445.5422520223983
 21
614.9296399887309
 31
0.0
 11
445.2133506961366
 21
614.7920145358981
 31
0.0
 11
444.8355305100738
 21
614.645186047574
 31
0.0
 11
444.4536172054596
 21
614.5093761610319
 31
0.0
 11
443.977003105415
 21
614.3582468610531
 31
0.0
 11
443.4944831511713
 21
614.2267377861657
 31
0.0
 11
442.6521545954218
 21
614.0508449596172
 31
0.0
 11
441.7982776819682
 21
613.9440994112994
 31
0.0
 11
441.0000000000002
 21
613.9115730867801
 31
0.0
 11
440.201722318032
 21
613.9440994112994
 31
0.0
 11
439.3478454045786
 21
614.050844959617
 31
0.0
 11
438.505516848829
 21
614.2267377861657
 31
0.0
 11
438.0229968945852
 21
614.3582468610533
 31
0.0
 11
437.5463827945406
 21
614.5093761610319
 31
0.0
 11
437.1644694899263
 21
614.645186047574
 31
0.0
 11
436.7866493038635
 21
614.7920145358981
 31
0.0
 11
436.457747977602
 21
614.9296399887309
 31
0.0
 11
436.1320432364447
 21
615.0746529107644
 31
0.0
 11
435.8370173136807
 21
615.2132741436853
 31
0.0
 11
435.5445890446754
 21
615.3572912856307
 31
0.0
 11
435.0182599299357
 21
615.6324758970321
 31
0.0
 11
434.5
 21
615.9225680353633
 31
0.0
  0
SPLINE
  5
181
330
56
100
AcDbEntity
  8
1
  6
Continuous
 62
     7
100
AcDbSpline
210
0.0
220
0.0
230
1.0
 70
     8
 71
     3
 72
    33
 73
    29
 74
    27
 42
0.000000001
 43
0.0000000001
 44
0.00000001
 40
0.0
 40
0.0
 40
0.0
 40
0.0
 40
0.593924912934392
 40
1.187851597589211
 40
1.513819739508785
 40
1.839789279789924
 40
2.196317435514397
 40
2.552851932504542
 40
2.958199558378065
 40
3.36354150950775
 40
3.863542574906101
 40
4.363662703217773
 40
5.224160048598609
 40
6.084683374568754
 40
6.883623433991143
 40
7.682563493413702
 40
8.543086819383607
 40
9.403584164764522
 40
9.903704293076329
 40
10.40370535847469
 40
10.80904730960446
 40
11.21439493547797
 40
11.57092943246793
 40
11.9274575881923
 40
12.25342712847348
 40
12.57939527039326
 40
13.17332195504818
 40
13.76724686798262
 40
13.76724686798262
 40
13.76724686798262
 40
13.76724686798262
 10
447.5
 20
620.6614610364331
 30
0.0
 10
447.3278118051465
 20
620.7591846674462
 30
0.0
 10
446.9834348946333
 20
620.9546322082031
 30
0.0
 10
446.5359123546084
 20
621.1880196051368
 30
0.0
 10
446.1634251389902
 20
621.3716704406299
 30
0.0
 10
445.8591747927791
 20
621.5146632059066
 30
0.0
 10
445.5427832099525
 20
621.6556226924802
 30
0.0
 10
445.1988757438431
 20
621.7996166756295
 30
0.0
 10
444.8362159481335
 20
621.9406782547317
 30
0.0
 10
444.4245593808672
 20
622.0872052395131
 30
0.0
 10
443.9779301466996
 20
622.22907032636
 30
0.0
 10
443.3794793306109
 20
622.3924928373497
 30
0.0
 10
442.6540964327061
 20
622.5447020593723
 30
0.0
 10
441.819701365202
 20
622.6499375519224
 30
0.0
 10
441.0
 20
622.6832973532853
 30
0.0
 10
440.1802986347982
 20
622.6499375519223
 30
0.0
 10
439.3459035672944
 20
622.5447020593724
 30
0.0
 10
438.6205206693895
 20
622.3924928373496
 30
0.0
 10
438.0220698533006
 20
622.2290703263604
 30
0.0
 10
437.5754406191329
 20
622.0872052395126
 30
0.0
 10
437.1637840518665
 20
621.9406782547321
 30
0.0
 10
436.8011242561571
 20
621.7996166756295
 30
0.0
 10
436.4572167900477
 20
621.6556226924804
 30
0.0
 10
436.1408252072214
 20
621.514663205907
 30
0.0
 10
435.83657486101
 20
621.37167044063
 30
0.0
 10
435.4640876453918
 20
621.1880196051369
 30
0.0
 10
435.0165651053668
 20
620.9546322082028
 30
0.0
 10
434.6721881948536
 20
620.7591846674463
 30
0.0
 10
434.5
 20
620.6614610364331
 30
0.0
 11
447.5
 21
620.6614610364331
 31
0.0
 11
446.9817400700644
 21
620.9515531747641
 31
0.0
 11
446.4554109553247
 21
621.2267377861657
 31
0.0
 11
446.1629826863197
 21
621.370754928111
 31
0.0
 11
445.8679567635556
 21
621.5093761610318
 31
0.0
 11
445.5422520223983
 21
621.6543890830652
 31
0.0
 11
445.2133506961366
 21
621.7920145358983
 31
0.0
 11
444.8355305100738
 21
621.9388430242224
 31
0.0
 11
444.4536172054596
 21
622.0746529107646
 31
0.0
 11
443.977003105415
 21
622.2257822107431
 31
0.0
 11
443.4944831511713
 21
622.3572912856307
 31
0.0
 11
442.6521545954218
 21
622.5331841121792
 31
0.0
 11
441.7982776819682
 21
622.6399296604969
 31
0.0
 11
441.0000000000002
 21
622.6724559850163
 31
0.0
 11
440.201722318032
 21
622.6399296604969
 31
0.0
 11
439.3478454045786
 21
622.5331841121794
 31
0.0
 11
438.505516848829
 21
622.3572912856307
 31
0.0
 11
438.0229968945852
 21
622.2257822107432
 31
0.0
 11
437.5463827945406
 21
622.0746529107645
 31
0.0
 11
437.1644694899263
 21
621.9388430242225
 31
0.0
 11
436.7866493038635
 21
621.7920145358983
 31
0.0
 11
436.457747977602
 21
621.6543890830654
 31
0.0
 11
436.1320432364447
 21
621.509376161032
 31
0.0
 11
435.8370173136807
 21
621.3707549281111
 31
0.0
 11
435.5445890446754
 21
621.2267377861657
 31
0.0
 11
435.0182599299357
 21
620.9515531747641
 31
0.0
 11
434.5
 21
620.6614610364331
 31
0.0
  0
SPLINE
  5
182
330
56
100
AcDbEntity
  8
1
  6
Continuous
 62
     7
100
AcDbSpline
210
0.0
220
0.0
230
1.0
 70
     8
 71
     3
 72
    33
 73
    29
 74
    27
 42
0.000000001
 43
0.0000000001
 44
0.00000001
 40
0.0
 40
0.0
 40
0.0
 40
0.0
 40
0.5939249129344911
 40
1.187851597589411
 40
1.513819739509036
 40
1.839789279790124
 40
2.196317435514544
 40
2.552851932504585
 40
2.958199558378002
 40
3.363541509507794
 40
3.863542574906144
 40
4.363662703218036
 40
5.224160048598927
 40
6.084683374569016
 40
6.883623433991348
 40
7.682563493413737
 40
8.543086819383811
 40
9.403584164764782
 40
9.90370429307637
 40
10.40370535847479
 40
10.80904730960445
 40
11.21439493547812
 40
11.57092943246807
 40
11.92745758819255
 40
12.25342712847378
 40
12.57939527039351
 40
13.17332195504828
 40
13.76724686798262
 40
13.76724686798262
 40
13.76724686798262
 40
13.76724686798262
 10
447.5
 20
620.6614610364331
 30
0.0
 10
447.6721881948537
 20
620.7591846674462
 30
0.0
 10
448.0165651053668
 20
620.954632208203
 30
0.0
 10
448.4640876453918
 20
621.1880196051368
 30
0.0
 10
448.8365748610099
 20
621.37167044063
 30
0.0
 10
449.1408252072212
 20
621.5146632059063
 30
0.0
 10
449.4572167900477
 20
621.6556226924803
 30
0.0
 10
449.8011242561569
 20
621.7996166756294
 30
0.0
 10
450.1637840518664
 20
621.9406782547318
 30
0.0
 10
450.5754406191329
 20
622.0872052395131
 30
0.0
 10
451.0220698533006
 20
622.2290703263602
 30
0.0
 10
451.6205206693892
 20
622.3924928373494
 30
0.0
 10
452.3459035672945
 20
622.5447020593724
 30
0.0
 10
453.1802986347982
 20
622.6499375519222
 30
0.0
 10
454.0000000000001
 20
622.6832973532854
 30
0.0
 10
454.8197013652019
 20
622.6499375519222
 30
0.0
 10
455.6540964327059
 20
622.5447020593724
 30
0.0
 10
456.3794793306108
 20
622.3924928373494
 30
0.0
 10
456.9779301466995
 20
622.2290703263603
 30
0.0
 10
457.424559380867
 20
622.0872052395129
 30
0.0
 10
457.8362159481336
 20
621.940678254732
 30
0.0
 10
458.198875743843
 20
621.7996166756295
 30
0.0
 10
458.5427832099524
 20
621.6556226924803
 30
0.0
 10
458.8591747927792
 20
621.5146632059068
 30
0.0
 10
459.1634251389904
 20
621.3716704406303
 30
0.0
 10
459.5359123546084
 20
621.1880196051368
 30
0.0
 10
459.9834348946334
 20
620.9546322082031
 30
0.0
 10
460.3278118051465
 20
620.7591846674463
 30
0.0
 10
460.5
 20
620.6614610364331
 30
0.0
 11
447.5
 21
620.6614610364331
 31
0.0
 11
448.0182599299357
 21
620.9515531747641
 31
0.0
 11
448.5445890446755
 21
621.2267377861657
 31
0.0
 11
448.8370173136806
 21
621.370754928111
 31
0.0
 11
449.1320432364446
 21
621.5093761610318
 31
0.0
 11
449.4577479776019
 21
621.6543890830652
 31
0.0
 11
449.7866493038634
 21
621.7920145358983
 31
0.0
 11
450.1644694899261
 21
621.9388430242224
 31
0.0
 11
450.5463827945404
 21
622.0746529107646
 31
0.0
 11
451.0229968945851
 21
622.2257822107431
 31
0.0
 11
451.505516848829
 21
622.3572912856307
 31
0.0
 11
452.3478454045785
 21
622.5331841121792
 31
0.0
 11
453.2017223180321
 21
622.6399296604969
 31
0.0
 11
454.0000000000001
 21
622.6724559850163
 31
0.0
 11
454.798277681968
 21
622.6399296604969
 31
0.0
 11
455.6521545954216
 21
622.5331841121794
 31
0.0
 11
456.4944831511713
 21
622.3572912856307
 31
0.0
 11
456.9770031054148
 21
622.2257822107432
 31
0.0
 11
457.4536172054595
 21
622.0746529107645
 31
0.0
 11
457.8355305100737
 21
621.9388430242225
 31
0.0
 11
458.2133506961367
 21
621.7920145358983
 31
0.0
 11
458.5422520223982
 21
621.6543890830654
 31
0.0
 11
458.8679567635556
 21
621.509376161032
 31
0.0
 11
459.1629826863197
 21
621.3707549281111
 31
0.0
 11
459.4554109553249
 21
621.2267377861657
 31
0.0
 11
459.9817400700645
 21
620.9515531747641
 31
0.0
 11
460.5
 21
620.6614610364331
 31
0.0
  0
SPLINE
  5
183
330
56
100
AcDbEntity
  8
1
  6
Continuous
 62
     7
100
AcDbSpline
210
0.0
220
0.0
230
1.0
 70
     8
 71
     3
 72
    33
 73
    29
 74
    27
 42
0.000000001
 43
0.0000000001
 44
0.00000001
 40
0.0
 40
0.0
 40
0.0
 40
0.0
 40
0.5939249129345467
 40
1.187851597589414
 40
1.513819739509089
 40
1.839789279790226
 40
2.196317435514692
 40
2.552851932504602
 40
2.958199558378018
 40
3.363541509507773
 40
3.863542574906226
 40
4.363662703218058
 40
5.224160048598949
 40
6.084683374569051
 40
6.883623433991379
 40
7.682563493413763
 40
8.543086819383852
 40
9.403584164764823
 40
9.903704293076439
 40
10.40370535847482
 40
10.80904730960452
 40
11.21439493547815
 40
11.57092943246806
 40
11.92745758819258
 40
12.25342712847382
 40
12.57939527039355
 40
13.17332195504821
 40
13.76724686798266
 40
13.76724686798266
 40
13.76724686798266
 40
13.76724686798266
 10
447.5
 20
615.9225680353633
 30
0.0
 10
447.6721881948537
 20
615.8248444043503
 30
0.0
 10
448.0165651053667
 20
615.6293968635932
 30
0.0
 10
448.4640876453919
 20
615.3960094666597
 30
0.0
 10
448.8365748610099
 20
615.2123586311661
 30
0.0
 10
449.1408252072212
 20
615.0693658658898
 30
0.0
 10
449.4572167900475
 20
614.9284063793157
 30
0.0
 10
449.8011242561571
 20
614.7844123961671
 30
0.0
 10
450.1637840518664
 20
614.6433508170646
 30
0.0
 10
450.5754406191328
 20
614.4968238322836
 30
0.0
 10
451.0220698533006
 20
614.354958745436
 30
0.0
 10
451.6205206693892
 20
614.1915362344471
 30
0.0
 10
452.3459035672944
 20
614.0393270124241
 30
0.0
 10
453.1802986347983
 20
613.9340915198738
 30
0.0
 10
454.0000000000001
 20
613.9007317185112
 30
0.0
 10
454.8197013652018
 20
613.9340915198736
 30
0.0
 10
455.6540964327058
 20
614.0393270124241
 30
0.0
 10
456.3794793306108
 20
614.1915362344469
 30
0.0
 10
456.9779301466994
 20
614.3549587454361
 30
0.0
 10
457.4245593808671
 20
614.4968238322837
 30
0.0
 10
457.8362159481337
 20
614.6433508170646
 30
0.0
 10
458.1988757438429
 20
614.7844123961668
 30
0.0
 10
458.5427832099526
 20
614.9284063793159
 30
0.0
 10
458.859174792779
 20
615.0693658658897
 30
0.0
 10
459.1634251389902
 20
615.2123586311661
 30
0.0
 10
459.5359123546085
 20
615.3960094666597
 30
0.0
 10
459.9834348946334
 20
615.629396863593
 30
0.0
 10
460.3278118051464
 20
615.8248444043501
 30
0.0
 10
460.5
 20
615.9225680353633
 30
0.0
 11
447.5
 21
615.9225680353633
 31
0.0
 11
448.0182599299357
 21
615.6324758970322
 31
0.0
 11
448.5445890446755
 21
615.3572912856307
 31
0.0
 11
448.8370173136806
 21
615.2132741436853
 31
0.0
 11
449.1320432364446
 21
615.0746529107644
 31
0.0
 11
449.4577479776019
 21
614.9296399887309
 31
0.0
 11
449.7866493038634
 21
614.7920145358981
 31
0.0
 11
450.1644694899261
 21
614.645186047574
 31
0.0
 11
450.5463827945404
 21
614.5093761610319
 31
0.0
 11
451.0229968945851
 21
614.3582468610531
 31
0.0
 11
451.505516848829
 21
614.2267377861657
 31
0.0
 11
452.3478454045785
 21
614.0508449596172
 31
0.0
 11
453.2017223180321
 21
613.9440994112994
 31
0.0
 11
454.0000000000001
 21
613.9115730867801
 31
0.0
 11
454.798277681968
 21
613.9440994112994
 31
0.0
 11
455.6521545954216
 21
614.050844959617
 31
0.0
 11
456.4944831511713
 21
614.2267377861657
 31
0.0
 11
456.9770031054148
 21
614.3582468610533
 31
0.0
 11
457.4536172054595
 21
614.5093761610319
 31
0.0
 11
457.8355305100737
 21
614.645186047574
 31
0.0
 11
458.2133506961367
 21
614.7920145358981
 31
0.0
 11
458.5422520223982
 21
614.9296399887309
 31
0.0
 11
458.8679567635556
 21
615.0746529107644
 31
0.0
 11
459.1629826863197
 21
615.2132741436853
 31
0.0
 11
459.4554109553249
 21
615.3572912856307
 31
0.0
 11
459.9817400700645
 21
615.6324758970321
 31
0.0
 11
460.5
 21
615.9225680353633
 31
0.0
  0
ARC
  5
184
330
56
100
AcDbEntity
  8
1
  6
Continuous
 62
     7
100
AcDbCircle
 10
305.0000000000001
 20
631.1614610364331
 30
0.0
 40
5.0
100
AcDbArc
 50
90.0
 51
180.0
  0
ARC
  5
185
330
56
100
AcDbEntity
  8
1
  6
Continuous
 62
     7
100
AcDbCircle
 10
305.0000000000001
 20
625.2436358472288
 30
0.0
 40
5.0
100
AcDbArc
 50
180.0
 51
225.0000000000014
  0
ARC
  5
186
330
56
100
AcDbEntity
  8
1
  6
Continuous
 62
     7
100
AcDbCircle
 10
270.0000000000001
 20
625.2436358472288
 30
0.0
 40
5.0
100
AcDbArc
 50
314.9999999999995
 51
0.0
  0
ARC
  5
187
330
56
100
AcDbEntity
  8
1
  6
Continuous
 62
     7
100
AcDbCircle
 10
303.0000000000001
 20
666.1614610364331
 30
0.0
 40
5.0
100
AcDbArc
 50
180.0
 51
270.0
  0
ARC
  5
188
330
56
100
AcDbEntity
  8
1
  6
Continuous
 62
     7
100
AcDbCircle
 10
430.0
 20
625.2436358472288
 30
0.0
 40
4.999999999999952
100
AcDbArc
 50
334.158067236834
 51
0.0
  0
ARC
  5
189
330
56
100
AcDbEntity
  8
1
  6
Continuous
 62
     7
100
AcDbCircle
 10
465.0
 20
625.2436358472288
 30
0.0
 40
5.0
100
AcDbArc
 50
180.0
 51
205.841932763166
  0
ENDBLK
  5
58
330
56
100
AcDbEntity
  8
0
100
AcDbBlockEnd
  0
BLOCK
  5
5A
330
59
100
AcDbEntity
  8
0
100
AcDbBlockBegin
  2
37-1-13
 70
     0
 10
170.0042941098555
 20
740.4626912532042
 30
0.0
  3
37-1-13
  1

  0
LINE
  5
18A
330
59
100
AcDbEntity
  8
1
  6
Continuous
 62
     7
100
AcDbLine
 10
448.4378511346782
 20
663.0962927742735
 30
0.0
 11
454.0
 21
659.8849846296071
 31
0.0
  0
LINE
  5
18B
330
59
100
AcDbEntity
  8
1
  6
Continuous
 62
     7
100
AcDbLine
 10
460.5
 20
655.049270669742
 30
0.0
 11
460.5
 21
648.6266543804094
 31
0.0
  0
LINE
  5
18C
330
59
100
AcDbEntity
  8
1
  6
Continuous
 62
     7
100
AcDbLine
 10
459.5621488653217
 20
640.5796322758779
 30
0.0
 11
454.0
 21
637.3683241312116
 31
0.0
  0
LINE
  5
18D
330
59
100
AcDbEntity
  8
1
  6
Continuous
 62
     7
100
AcDbLine
 10
446.5621488653217
 20
634.1570159865454
 30
0.0
 11
441.0
 21
637.3683241312116
 31
0.0
  0
LINE
  5
18E
330
59
100
AcDbEntity
  8
1
  6
Continuous
 62
     7
100
AcDbLine
 10
434.5
 20
642.2040380910769
 30
0.0
 11
434.5
 21
648.6266543804094
 31
0.0
  0
LINE
  5
18F
330
59
100
AcDbEntity
  8
1
  6
Continuous
 62
     7
100
AcDbLine
 10
435.4378511346782
 20
656.6736764849409
 30
0.0
 11
441.0
 21
659.8849846296071
 31
0.0
  0
LINE
  5
190
330
59
100
AcDbEntity
  8
1
  6
Continuous
 62
     7
100
AcDbLine
 10
454.0
 20
659.8849846296071
 30
0.0
 11
459.5621488653217
 21
656.6736764849409
 31
0.0
  0
LINE
  5
191
330
59
100
AcDbEntity
  8
1
  6
Continuous
 62
     7
100
AcDbLine
 10
460.5
 20
648.6266543804094
 30
0.0
 11
460.5
 21
642.2040380910769
 31
0.0
  0
LINE
  5
192
330
59
100
AcDbEntity
  8
1
  6
Continuous
 62
     7
100
AcDbLine
 10
454.0
 20
637.3683241312116
 30
0.0
 11
448.4378511346782
 21
634.1570159865454
 31
0.0
  0
LINE
  5
193
330
59
100
AcDbEntity
  8
1
  6
Continuous
 62
     7
100
AcDbLine
 10
441.0
 20
637.3683241312116
 30
0.0
 11
435.4378511346782
 21
640.5796322758779
 31
0.0
  0
LINE
  5
194
330
59
100
AcDbEntity
  8
1
  6
Continuous
 62
     7
100
AcDbLine
 10
434.5
 20
648.6266543804094
 30
0.0
 11
434.5
 21
655.049270669742
 31
0.0
  0
LINE
  5
195
330
59
100
AcDbEntity
  8
1
  6
Continuous
 62
     7
100
AcDbLine
 10
441.0
 20
659.8849846296071
 30
0.0
 11
446.5621488653217
 21
663.0962927742735
 31
0.0
  0
LINE
  5
196
330
59
100
AcDbEntity
  8
1
  6
Continuous
 62
     7
100
AcDbLine
 10
326.4999999999999
 20
949.2909224827781
 30
0.0
 11
326.4999999999999
 21
937.2909224827781
 31
0.0
  0
LINE
  5
197
330
59
100
AcDbEntity
  8
1
  6
Continuous
 62
     7
100
AcDbLine
 10
319.5707142142718
 20
930.2909224827781
 30
0.0
 11
319.2627507612432
 21
930.2909224827781
 31
0.0
  0
LINE
  5
198
330
59
100
AcDbEntity
  8
1
  6
Continuous
 62
     7
100
AcDbLine
 10
319.9999999999999
 20
943.2909224827781
 30
0.0
 11
319.9999999999999
 21
930.7909224827781
 31
0.0
  0
LINE
  5
199
330
59
100
AcDbEntity
  8
1
  6
Continuous
 62
     7
100
AcDbLine
 10
319.2627507612432
 20
930.2909224827781
 30
0.0
 11
312.4999999999999
 21
930.2909224827781
 31
0.0
  0
LINE
  5
19A
330
59
100
AcDbEntity
  8
1
  6
Continuous
 62
     7
100
AcDbLine
 10
319.9999999999999
 20
955.7909224827779
 30
0.0
 11
319.9999999999999
 21
943.2909224827781
 31
0.0
  0
LINE
  5
19B
330
59
100
AcDbEntity
  8
1
  6
Continuous
 62
     7
100
AcDbLine
 10
319.5707142142711
 20
956.2909224827781
 30
0.0
 11
312.4999999999999
 21
956.2909224827781
 31
0.0
  0
LINE
  5
19C
330
59
100
AcDbEntity
  8
1
  6
Continuous
 62
     7
100
AcDbLine
 10
312.4999999999999
 20
930.2909224827781
 30
0.0
 11
312.4999999999999
 21
956.2909224827781
 31
0.0
  0
LINE
  5
19D
330
59
100
AcDbEntity
  8
1
  6
Continuous
 62
     7
100
AcDbLine
 10
326.5000986760872
 20
642.6614610364331
 30
0.0
 11
326.5000986760872
 21
654.6614610364331
 31
0.0
  0
LINE
  5
19E
330
59
100
AcDbEntity
  8
1
  6
Continuous
 62
     7
100
AcDbLine
 10
312.5000986760871
 20
661.7321752507045
 30
0.0
 11
312.5000986760871
 21
635.5907468221616
 31
0.0
  0
LINE
  5
19F
330
59
100
AcDbEntity
  8
0
  6
Continuous
 62
     7
100
AcDbLine
 10
319.5708128903584
 20
653.5068078153299
 30
0.0
 11
319.5708128903584
 21
657.3367438429771
 31
0.0
  0
LINE
  5
1A0
330
59
100
AcDbEntity
  8
0
  6
Continuous
 62
     7
100
AcDbLine
 10
319.5708128903584
 20
639.9861782298891
 30
0.0
 11
319.5708128903584
 21
643.8161142575361
 31
0.0
  0
ARC
  5
1A1
330
59
100
AcDbEntity
  8
1
  6
Continuous
 62
     7
100
AcDbCircle
 10
447.5
 20
648.6266543804094
 30
0.0
 40
14.50000000000002
100
AcDbArc
 50
26.29155527472953
 51
33.70844472527094
  0
ARC
  5
1A2
330
59
100
AcDbEntity
  8
1
  6
Continuous
 62
     7
100
AcDbCircle
 10
447.5
 20
648.6266543804094
 30
0.0
 40
13.00000000000008
100
AcDbArc
 50
299.9999999999998
 51
0.0
  0
ARC
  5
1A3
330
59
100
AcDbEntity
  8
1
  6
Continuous
 62
     7
100
AcDbCircle
 10
447.5
 20
648.6266543804094
 30
0.0
 40
13.0
100
AcDbArc
 50
0.0
 51
59.99999999999996
  0
ARC
  5
1A4
330
59
100
AcDbEntity
  8
1
  6
Continuous
 62
     7
100
AcDbCircle
 10
447.5
 20
648.6266543804094
 30
0.0
 40
14.50000000000002
100
AcDbArc
 50
326.2915552747291
 51
333.7084447252709
  0
ARC
  5
1A5
330
59
100
AcDbEntity
  8
1
  6
Continuous
 62
     7
100
AcDbCircle
 10
447.5
 20
648.6266543804094
 30
0.0
 40
13.00000000000008
100
AcDbArc
 50
240.0000000000002
 51
299.9999999999998
  0
ARC
  5
1A6
330
59
100
AcDbEntity
  8
1
  6
Continuous
 62
     7
100
AcDbCircle
 10
447.5
 20
648.6266543804094
 30
0.0
 40
14.5
100
AcDbArc
 50
270.0
 51
273.7084447252705
  0
ARC
  5
1A7
330
59
100
AcDbEntity
  8
1
  6
Continuous
 62
     7
100
AcDbCircle
 10
447.5
 20
648.6266543804094
 30
0.0
 40
13.0
100
AcDbArc
 50
180.0
 51
240.0000000000002
  0
ARC
  5
1A8
330
59
100
AcDbEntity
  8
1
  6
Continuous
 62
     7
100
AcDbCircle
 10
447.5
 20
648.6266543804094
 30
0.0
 40
14.49999999999997
100
AcDbArc
 50
206.2915552747291
 51
213.7084447252708
  0
ARC
  5
1A9
330
59
100
AcDbEntity
  8
1
  6
Continuous
 62
     7
100
AcDbCircle
 10
447.5
 20
648.6266543804094
 30
0.0
 40
12.99999999999998
100
AcDbArc
 50
120.0
 51
180.0
  0
ARC
  5
1AA
330
59
100
AcDbEntity
  8
1
  6
Continuous
 62
     7
100
AcDbCircle
 10
447.5
 20
648.6266543804094
 30
0.0
 40
14.50000000000006
100
AcDbArc
 50
146.2915552747292
 51
153.7084447252705
  0
ARC
  5
1AB
330
59
100
AcDbEntity
  8
1
  6
Continuous
 62
     7
100
AcDbCircle
 10
447.5
 20
648.6266543804094
 30
0.0
 40
12.99999999999998
100
AcDbArc
 50
59.99999999999996
 51
120.0
  0
ARC
  5
1AC
330
59
100
AcDbEntity
  8
1
  6
Continuous
 62
     7
100
AcDbCircle
 10
447.5
 20
648.6266543804094
 30
0.0
 40
14.5
100
AcDbArc
 50
90.0
 51
93.70844472527072
  0
ARC
  5
1AD
330
59
100
AcDbEntity
  8
1
  6
Continuous
 62
     7
100
AcDbCircle
 10
447.5
 20
648.6266543804094
 30
0.0
 40
14.50000000000012
100
AcDbArc
 50
86.2915552747295
 51
90.0
  0
ARC
  5
1AE
330
59
100
AcDbEntity
  8
1
  6
Continuous
 62
     7
100
AcDbCircle
 10
447.5
 20
648.6266543804094
 30
0.0
 40
14.50000000000001
100
AcDbArc
 50
266.2915552747293
 51
270.0
  0
ARC
  5
1AF
330
59
100
AcDbEntity
  8
1
  6
Continuous
 62
     7
100
AcDbCircle
 10
315.9999999999999
 20
933.7909224827781
 30
0.0
 40
5.000000000000341
100
AcDbArc
 50
315.5729959991981
 51
323.130102354156
  0
ARC
  5
1B0
330
59
100
AcDbEntity
  8
1
  6
Continuous
 62
     7
100
AcDbCircle
 10
339.906455205115
 20
917.3844672776632
 30
0.0
 40
24.00000000000005
100
AcDbArc
 50
123.9591925000979
 51
146.0408074999029
  0
ARC
  5
1B1
330
59
100
AcDbEntity
  8
1
  6
Continuous
 62
     7
100
AcDbCircle
 10
315.9999999999999
 20
952.7909224827781
 30
0.0
 40
4.999999999999863
100
AcDbArc
 50
36.86989764584194
 51
44.42700400080735
  0
ARC
  5
1B2
330
59
100
AcDbEntity
  8
1
  6
Continuous
 62
     7
100
AcDbCircle
 10
339.906455205115
 20
969.1973776878931
 30
0.0
 40
24.0000000000003
100
AcDbArc
 50
213.9591925000978
 51
236.0408074999022
  0
ARC
  5
1B3
330
59
100
AcDbEntity
  8
1
  6
Continuous
 62
     7
100
AcDbCircle
 10
316.0000986760871
 20
639.1614610364331
 30
0.0
 40
5.000000000000098
100
AcDbArc
 50
225.5729959991954
 51
323.130102354156
  0
ARC
  5
1B4
330
59
100
AcDbEntity
  8
1
  6
Continuous
 62
     7
100
AcDbCircle
 10
339.9065538812018
 20
622.7550058313182
 30
0.0
 40
23.99999999999986
100
AcDbArc
 50
123.9591925000967
 51
146.0408074999021
  0
ARC
  5
1B5
330
59
100
AcDbEntity
  8
1
  6
Continuous
 62
     7
100
AcDbCircle
 10
339.9065538812018
 20
674.567916241548
 30
0.0
 40
23.99999999999984
100
AcDbArc
 50
213.9591925000979
 51
236.0408074999031
  0
ARC
  5
1B6
330
59
100
AcDbEntity
  8
1
  6
Continuous
 62
     7
100
AcDbCircle
 10
316.0000986760871
 20
658.1614610364331
 30
0.0
 40
4.999999999999932
100
AcDbArc
 50
36.86989764584298
 51
134.4270040008064
  0
CIRCLE
  5
1B7
330
59
100
AcDbEntity
  8
1
  6
Continuous
 62
     7
100
AcDbCircle
 10
447.5
 20
648.6266543804094
 30
0.0
 40
6.0
  0
CIRCLE
  5
1B8
330
59
100
AcDbEntity
  8
1
  6
Continuous
 62
     7
100
AcDbCircle
 10
447.5
 20
648.6266543804094
 30
0.0
 40
5.0
  0
SPLINE
  5
1B9
330
59
100
AcDbEntity
  8
1
  6
Continuous
 62
     7
100
AcDbSpline
210
0.0
220
0.0
230
1.0
 70
    11
 71
     3
 72
    79
 73
    75
 74
    73
 42
0.000000001
 43
0.0000000001
 44
0.00000001
 40
0.0
 40
0.0
 40
0.0
 40
0.0
 40
0.3142650584353502
 40
0.6282865527608372
 40
0.9611940700548347
 40
1.293759066763047
 40
1.653345626572218
 40
2.012624926377495
 40
2.402527480379989
 40
2.792202152566597
 40
3.212046600379077
 40
3.631735865868368
 40
4.0779384832872
 40
4.524041244959889
 40
4.99065391020585
 40
5.457207549915605
 40
5.93667858261365
 40
6.416122251734095
 40
6.899971956020728
 40
7.38382166030671
 40
7.863265329424743
 40
8.342736362117687
 40
8.809290001818601
 40
9.275902667048815
 40
9.72200542869654
 40
10.16820804607587
 40
10.58789731150845
 40
11.00774175923637
 40
11.3974164313095
 40
11.78731898515013
 40
12.14659828474445
 40
12.50618484425357
 40
12.8387498405468
 40
13.17165735713602
 40
13.48567884942532
 40
13.79994391525798
 40
14.10737582044649
 40
14.41480772563386
 40
14.72907279146331
 40
15.0430942837473
 40
15.37600180032938
 40
15.70856679661436
 40
16.06815335611375
 40
16.42743265569831
 40
16.81733520952823
 40
17.20700988159104
 40
17.62685432930835
 40
18.04654359473089
 40
18.49274621210011
 40
18.93884897373857
 40
19.40546163895974
 40
19.87201527865228
 40
20.35148631133761
 40
20.83092998044911
 40
21.3147796847289
 40
21.79862938901045
 40
22.2780730581267
 40
22.75754409082121
 40
23.22409773052892
 40
23.69071039577317
 40
24.1368131574456
 40
24.58301577486395
 40
25.00270504035318
 40
25.4225494881641
 40
25.81222416034654
 40
26.20212671433935
 40
26.56140601412474
 40
26.92099257388933
 40
27.25355757049597
 40
27.5864650874967
 40
27.90048658031839
 40
28.21475164694586
 40
28.52218355426186
 40
28.82961545227916
 40
28.82961545227916
 40
28.82961545227916
 40
28.82961545227916
 10
315.6931830694133
 20
942.3313802319269
 30
0.0
 10
315.5899156933348
 20
942.3127876966942
 30
0.0
 10
315.3834609745689
 20
942.2756170444782
 30
0.0
 10
315.0813887699971
 20
942.1646703876196
 30
0.0
 10
314.789206522726
 20
942.0176053534898
 30
0.0
 10
314.5043642834923
 20
941.8274504437459
 30
0.0
 10
314.2349353277256
 20
941.6023156881587
 30
0.0
 10
313.976149139854
 20
941.3376793981193
 30
0.0
 10
313.7364822083561
 20
941.0426193301378
 30
0.0
 10
313.5111537543226
 20
940.7118531831104
 30
0.0
 10
313.3075993333112
 20
940.3557861139184
 30
0.0
 10
313.1221151432232
 20
939.9690530248589
 30
0.0
 10
312.9603522275086
 20
939.5623798380495
 30
0.0
 10
312.8199907858685
 20
939.1314036826393
 30
0.0
 10
312.7047528312174
 20
938.6860302466623
 30
0.0
 10
312.6135034726298
 20
938.2238173822907
 30
0.0
 10
312.5482988109139
 20
937.7528989997382
 30
0.0
 10
312.508710067399
 20
937.273367562288
 30
0.0
 10
312.4956250482265
 20
936.7909224927282
 30
0.0
 10
312.5087100673829
 20
936.3084774231538
 30
0.0
 10
312.5482988108851
 20
935.8289459857499
 30
0.0
 10
312.6135034725498
 20
935.3580276030355
 30
0.0
 10
312.7047528311801
 20
934.89581473926
 30
0.0
 10
312.8199907854644
 20
934.4504413011141
 30
0.0
 10
312.9603522281218
 20
934.0194651534673
 30
0.0
 10
313.1221151397399
 20
933.6127919385308
 30
0.0
 10
313.307599343722
 20
933.2260589485056
 30
0.0
 10
313.5111537140661
 20
932.8699915231464
 30
0.0
 10
313.7364823434296
 20
932.539226614655
 30
0.0
 10
313.9761486464485
 20
932.2441621148482
 30
0.0
 10
314.2349370041354
 20
931.9795411349445
 30
0.0
 10
314.5043581956155
 20
931.7543516068463
 30
0.0
 10
314.7892273537981
 20
931.564386609683
 30
0.0
 10
315.0813125908776
 20
931.4166371949966
 30
0.0
 10
315.3837274947209
 20
931.3081082095948
 30
0.0
 10
315.6899493699398
 20
931.2438965567725
 30
0.0
 10
315.9998488021836
 20
931.2212952719326
 30
0.0
 10
316.3097482344274
 20
931.2438965567613
 30
0.0
 10
316.6159701096452
 20
931.3081082095721
 30
0.0
 10
316.918385013487
 20
931.4166371949632
 30
0.0
 10
317.210470250564
 20
931.5643866096393
 30
0.0
 10
317.4953394087432
 20
931.7543516067925
 30
0.0
 10
317.7647606002192
 20
931.9795411348814
 30
0.0
 10
318.023548957901
 20
932.2441621147758
 30
0.0
 10
318.2632152609143
 20
932.5392266145744
 30
0.0
 10
318.4885438902708
 20
932.8699915230575
 30
0.0
 10
318.6920982606068
 20
933.2260589484097
 30
0.0
 10
318.8775824645796
 20
933.6127919384279
 30
0.0
 10
319.0393453761869
 20
934.0194651533584
 30
0.0
 10
319.1797068188328
 20
934.4504413009989
 30
0.0
 10
319.2949447731029
 20
934.8958147391393
 30
0.0
 10
319.3861941317172
 20
935.3580276029096
 30
0.0
 10
319.4513987933632
 20
935.8289459856186
 30
0.0
 10
319.4909875368455
 20
936.3084774230184
 30
0.0
 10
319.5040725559786
 20
936.7909224925845
 30
0.0
 10
319.4909875367821
 20
937.2733675621496
 30
0.0
 10
319.4513987932311
 20
937.7528989995521
 30
0.0
 10
319.3861941315088
 20
938.2238173822491
 30
0.0
 10
319.2949447727973
 20
938.6860302460598
 30
0.0
 10
319.1797068184385
 20
939.1314036840427
 30
0.0
 10
319.0393453755811
 20
939.5623798322288
 30
0.0
 10
318.8775824640956
 20
939.9690530451526
 30
0.0
 10
318.6920982589312
 20
940.3557860421872
 30
0.0
 10
318.4885438919502
 20
940.7118534422285
 30
0.0
 10
318.2632152498544
 20
941.0426184386185
 30
0.0
 10
318.023548991129
 20
941.337682623699
 30
0.0
 10
317.7647604789876
 20
941.6023046905918
 30
0.0
 10
317.4953398383466
 20
941.8274903295901
 30
0.0
 10
317.2104687683071
 20
942.0174688109535
 30
0.0
 10
316.9183904185867
 20
942.1651696324981
 30
0.0
 10
316.6159511814533
 20
942.2738702793184
 30
0.0
 10
316.3098184028664
 20
942.3374533630661
 30
0.0
 10
315.9995932073201
 20
942.3623528539883
 30
0.0
 10
315.7953197812689
 20
942.3417044361654
 30
0.0
 10
315.6931830694133
 20
942.3313802319269
 30
0.0
 11
315.6931830694133
 21
942.3313802319269
 31
0.0
 11
315.3856338237767
 21
942.2667583068719
 31
0.0
 11
315.0897580622062
 21
942.1615583476807
 31
0.0
 11
314.7925051340756
 21
942.0116646807083
 31
0.0
 11
314.5153291252179
 21
941.8278905341563
 31
0.0
 11
314.2389666468579
 21
941.5978334229844
 31
0.0
 11
313.9872515714034
 21
941.3414720843232
 31
0.0
 11
313.7408377291467
 21
941.0393062029152
 31
0.0
 11
313.5209981937116
 21
940.7175657349053
 31
0.0
 11
313.3120531460867
 21
940.3534073526088
 31
0.0
 11
313.1302052512656
 21
939.9751608421222
 31
0.0
 11
312.9648038444785
 21
939.5607466164846
 31
0.0
 11
312.8264131300475
 21
939.136652659767
 31
0.0
 11
312.7091704956953
 21
938.6850094996787
 31
0.0
 11
312.6186756519745
 21
938.2273163907234
 31
0.0
 11
312.5526855905885
 21
937.7524082069716
 31
0.0
 11
312.5132210855254
 21
937.2745915217251
 31
0.0
 11
312.4999999999999
 21
936.7909224827778
 31
0.0
 11
312.5132210855254
 21
936.3072534438304
 31
0.0
 11
312.5526855905886
 21
935.829436758584
 31
0.0
 11
312.6186756519746
 21
935.3545285748326
 31
0.0
 11
312.7091704956953
 21
934.8968354658772
 31
0.0
 11
312.8264131300475
 21
934.4451923057889
 31
0.0
 11
312.9648038444784
 21
934.0210983490713
 31
0.0
 11
313.1302052512655
 21
933.6066841234335
 31
0.0
 11
313.3120531460866
 21
933.228437612947
 31
0.0
 11
313.5209981937115
 21
932.8642792306505
 31
0.0
 11
313.7408377291466
 21
932.5425387626407
 31
0.0
 11
313.9872515714033
 21
932.2403728812328
 31
0.0
 11
314.2389666468579
 21
931.9840115425716
 31
0.0
 11
314.5153291252179
 21
931.7539544313996
 31
0.0
 11
314.7925051340756
 21
931.5701802848475
 31
0.0
 11
315.0897580622063
 21
931.4202866178753
 31
0.0
 11
315.3856338237769
 21
931.3150866586841
 31
0.0
 11
315.6931830694134
 21
931.250464733629
 31
0.0
 11
315.9998488025724
 21
931.228773617456
 31
0.0
 11
316.3065145357314
 21
931.2504647336289
 31
0.0
 11
316.614063781368
 21
931.3150866586841
 31
0.0
 11
316.9099395429387
 21
931.4202866178753
 31
0.0
 11
317.2071924710694
 21
931.5701802848475
 31
0.0
 11
317.4843684799272
 21
931.7539544313997
 31
0.0
 11
317.7607309582871
 21
931.9840115425716
 31
0.0
 11
318.0124460337418
 21
932.2403728812328
 31
0.0
 11
318.2588598759985
 21
932.5425387626406
 31
0.0
 11
318.4786994114336
 21
932.8642792306505
 31
0.0
 11
318.6876444590584
 21
933.228437612947
 31
0.0
 11
318.8694923538795
 21
933.6066841234336
 31
0.0
 11
319.0348937606667
 21
934.0210983490713
 31
0.0
 11
319.1732844750978
 21
934.4451923057889
 31
0.0
 11
319.29052710945
 21
934.8968354658772
 31
0.0
 11
319.3810219531704
 21
935.3545285748323
 31
0.0
 11
319.447012014556
 21
935.829436758584
 31
0.0
 11
319.4864765196195
 21
936.3072534438306
 31
0.0
 11
319.4996976051452
 21
936.7909224827779
 31
0.0
 11
319.4864765196195
 21
937.2745915217254
 31
0.0
 11
319.4470120145561
 21
937.7524082069718
 31
0.0
 11
319.3810219531704
 21
938.2273163907234
 31
0.0
 11
319.29052710945
 21
938.6850094996788
 31
0.0
 11
319.1732844750978
 21
939.1366526597669
 31
0.0
 11
319.0348937606667
 21
939.5607466164847
 31
0.0
 11
318.8694923538795
 21
939.9751608421221
 31
0.0
 11
318.6876444590584
 21
940.3534073526088
 31
0.0
 11
318.4786994114336
 21
940.7175657349054
 31
0.0
 11
318.2588598759985
 21
941.0393062029152
 31
0.0
 11
318.0124460337418
 21
941.3414720843231
 31
0.0
 11
317.7607309582871
 21
941.5978334229844
 31
0.0
 11
317.4843684799272
 21
941.8278905341563
 31
0.0
 11
317.2071924710694
 21
942.0116646807083
 31
0.0
 11
316.9099395429387
 21
942.1615583476809
 31
0.0
 11
316.614063781368
 21
942.2667583068719
 31
0.0
 11
316.3065145357314
 21
942.3313802319269
 31
0.0
 11
315.9998488025723
 21
942.3530713480997
 31
0.0
 11
315.6931830694133
 21
942.3313802319269
 31
0.0
  0
SPLINE
  5
1BA
330
59
100
AcDbEntity
  8
1
  6
Continuous
 62
     7
100
AcDbSpline
210
0.0
220
0.0
230
1.0
 70
    11
 71
     3
 72
    79
 73
    75
 74
    73
 42
0.000000001
 43
0.0000000001
 44
0.00000001
 40
0.0
 40
0.0
 40
0.0
 40
0.0
 40
0.3142650584353502
 40
0.6282865527608754
 40
0.961194070054924
 40
1.293759066763136
 40
1.653345626572308
 40
2.012624926377585
 40
2.402527480379814
 40
2.792202152566422
 40
3.212046600379099
 40
3.631735865868289
 40
4.07793848328712
 40
4.524041244959918
 40
4.990653910205879
 40
5.457207549915633
 40
5.936678582613679
 40
6.41612225173401
 40
6.899971956020643
 40
7.383821660306625
 40
7.863265329424658
 40
8.342736362117828
 40
8.80929000181852
 40
9.275902667048843
 40
9.722005428696463
 40
10.16820804607569
 40
10.58789731150826
 40
11.00774175923628
 40
11.3974164313096
 40
11.78731898515024
 40
12.14659828474455
 40
12.50618484425346
 40
12.83874984054675
 40
13.17165735713602
 40
13.48567884942536
 40
13.799943915258
 40
14.10737582044649
 40
14.41480772563387
 40
14.72907279146327
 40
15.04309428374726
 40
15.37600180032933
 40
15.70856679661432
 40
16.06815335611378
 40
16.42743265569842
 40
16.81733520952834
 40
17.20700988159106
 40
17.62685432930856
 40
18.0465435947309
 40
18.49274621210023
 40
18.93884897373858
 40
19.40546163895986
 40
19.87201527865262
 40
20.35148631133795
 40
20.83092998044911
 40
21.31477968472901
 40
21.79862938901056
 40
22.2780730581267
 40
22.75754409082132
 40
23.22409773052892
 40
23.69071039577328
 40
24.1368131574456
 40
24.58301577486417
 40
25.00270504035329
 40
25.42254948816422
 40
25.81222416034665
 40
26.20212671433946
 40
26.56140601412485
 40
26.9209925738893
 40
27.25355757049613
 40
27.58646508749676
 40
27.90048658031848
 40
28.21475164694597
 40
28.52218355426198
 40
28.82961545227928
 40
28.82961545227928
 40
28.82961545227928
 40
28.82961545227928
 10
315.6931830694133
 20
944.250739918639
 30
0.0
 10
315.5899156933349
 20
944.269332453872
 30
0.0
 10
315.3834609745689
 20
944.3065031060877
 30
0.0
 10
315.0813887699971
 20
944.4174497629465
 30
0.0
 10
314.7892065227259
 20
944.5645147970765
 30
0.0
 10
314.5043642834923
 20
944.7546697068203
 30
0.0
 10
314.2349353277255
 20
944.9798044624076
 30
0.0
 10
313.9761491398542
 20
945.2444407524467
 30
0.0
 10
313.7364822083558
 20
945.5395008204281
 30
0.0
 10
313.5111537543225
 20
945.8702669674557
 30
0.0
 10
313.3075993333113
 20
946.2263340366479
 30
0.0
 10
313.1221151432232
 20
946.6130671257067
 30
0.0
 10
312.9603522275085
 20
947.0197403125169
 30
0.0
 10
312.8199907858686
 20
947.4507164679267
 30
0.0
 10
312.7047528312173
 20
947.8960899039039
 30
0.0
 10
312.6135034726298
 20
948.3583027682753
 30
0.0
 10
312.5482988109139
 20
948.8292211508278
 30
0.0
 10
312.508710067399
 20
949.3087525882784
 30
0.0
 10
312.4956250482265
 20
949.7911976578376
 30
0.0
 10
312.5087100673828
 20
950.273642727412
 30
0.0
 10
312.5482988108851
 20
950.7531741648162
 30
0.0
 10
312.6135034725497
 20
951.2240925475307
 30
0.0
 10
312.7047528311803
 20
951.6863054113062
 30
0.0
 10
312.8199907854643
 20
952.1316788494519
 30
0.0
 10
312.9603522281219
 20
952.5626549970984
 30
0.0
 10
313.1221151397398
 20
952.9693282120354
 30
0.0
 10
313.3075993437222
 20
953.3560612020601
 30
0.0
 10
313.511153714066
 20
953.7121286274198
 30
0.0
 10
313.7364823434295
 20
954.0428935359112
 30
0.0
 10
313.9761486464486
 20
954.3379580357179
 30
0.0
 10
314.2349370041354
 20
954.602579015622
 30
0.0
 10
314.5043581956157
 20
954.8277685437196
 30
0.0
 10
314.7892273537981
 20
955.0177335408828
 30
0.0
 10
315.0813125908775
 20
955.1654829555698
 30
0.0
 10
315.3837274947209
 20
955.2740119409711
 30
0.0
 10
315.6899493699398
 20
955.3382235937938
 30
0.0
 10
315.9998488021837
 20
955.360824878633
 30
0.0
 10
316.3097482344273
 20
955.3382235938049
 30
0.0
 10
316.6159701096452
 20
955.2740119409939
 30
0.0
 10
316.9183850134871
 20
955.1654829556032
 30
0.0
 10
317.2104702505641
 20
955.0177335409269
 30
0.0
 10
317.4953394087432
 20
954.8277685437736
 30
0.0
 10
317.7647606002191
 20
954.6025790156846
 30
0.0
 10
318.0235489579011
 20
954.3379580357899
 30
0.0
 10
318.2632152609141
 20
954.0428935359914
 30
0.0
 10
318.4885438902709
 20
953.7121286275085
 30
0.0
 10
318.6920982606066
 20
953.356061202156
 30
0.0
 10
318.8775824645797
 20
952.9693282121384
 30
0.0
 10
319.0393453761869
 20
952.5626549972075
 30
0.0
 10
319.1797068188328
 20
952.1316788495673
 30
0.0
 10
319.294944773103
 20
951.6863054114262
 30
0.0
 10
319.3861941317172
 20
951.2240925476565
 30
0.0
 10
319.4513987933632
 20
950.7531741649472
 30
0.0
 10
319.4909875368455
 20
950.2736427275474
 30
0.0
 10
319.5040725559787
 20
949.7911976579815
 30
0.0
 10
319.490987536782
 20
949.3087525884168
 30
0.0
 10
319.4513987932311
 20
948.8292211510136
 30
0.0
 10
319.3861941315088
 20
948.3583027683171
 30
0.0
 10
319.2949447727972
 20
947.8960899045062
 30
0.0
 10
319.1797068184386
 20
947.4507164665235
 30
0.0
 10
319.0393453755809
 20
947.0197403183371
 30
0.0
 10
318.8775824640957
 20
946.6130671054136
 30
0.0
 10
318.6920982589312
 20
946.2263341083788
 30
0.0
 10
318.4885438919502
 20
945.8702667083373
 30
0.0
 10
318.2632152498545
 20
945.5395017119472
 30
0.0
 10
318.0235489911289
 20
945.2444375268672
 30
0.0
 10
317.7647604789877
 20
944.9798154599738
 30
0.0
 10
317.4953398383465
 20
944.7546298209766
 30
0.0
 10
317.2104687683072
 20
944.564651339612
 30
0.0
 10
316.9183904185867
 20
944.416950518068
 30
0.0
 10
316.6159511814534
 20
944.3082498712477
 30
0.0
 10
316.3098184028663
 20
944.2446667874997
 30
0.0
 10
315.99959320732
 20
944.2197672965776
 30
0.0
 10
315.7953197812689
 20
944.2404157144006
 30
0.0
 10
315.6931830694133
 20
944.250739918639
 30
0.0
 11
315.6931830694133
 21
944.250739918639
 31
0.0
 11
315.3856338237767
 21
944.3153618436941
 31
0.0
 11
315.0897580622062
 21
944.4205618028853
 31
0.0
 11
314.7925051340756
 21
944.5704554698578
 31
0.0
 11
314.5153291252179
 21
944.7542296164099
 31
0.0
 11
314.2389666468579
 21
944.9842867275818
 31
0.0
 11
313.9872515714034
 21
945.240648066243
 31
0.0
 11
313.7408377291467
 21
945.5428139476506
 31
0.0
 11
313.5209981937116
 21
945.8645544156606
 31
0.0
 11
313.3120531460867
 21
946.2287127979573
 31
0.0
 11
313.1302052512656
 21
946.6069593084437
 31
0.0
 11
312.9648038444785
 21
947.0213735340814
 31
0.0
 11
312.8264131300475
 21
947.445467490799
 31
0.0
 11
312.7091704956953
 21
947.8971106508874
 31
0.0
 11
312.6186756519745
 21
948.3548037598426
 31
0.0
 11
312.5526855905885
 21
948.8297119435945
 31
0.0
 11
312.5132210855254
 21
949.3075286288408
 31
0.0
 11
312.4999999999999
 21
949.7911976677882
 31
0.0
 11
312.5132210855254
 21
950.2748667067356
 31
0.0
 11
312.5526855905886
 21
950.7526833919819
 31
0.0
 11
312.6186756519746
 21
951.2275915757336
 31
0.0
 11
312.7091704956953
 21
951.6852846846888
 31
0.0
 11
312.8264131300475
 21
952.1369278447772
 31
0.0
 11
312.9648038444784
 21
952.5610218014947
 31
0.0
 11
313.1302052512655
 21
952.9754360271323
 31
0.0
 11
313.3120531460866
 21
953.3536825376189
 31
0.0
 11
313.5209981937115
 21
953.7178409199155
 31
0.0
 11
313.7408377291466
 21
954.0395813879255
 31
0.0
 11
313.9872515714033
 21
954.3417472693334
 31
0.0
 11
314.2389666468579
 21
954.5981086079946
 31
0.0
 11
314.5153291252179
 21
954.8281657191662
 31
0.0
 11
314.7925051340756
 21
955.0119398657184
 31
0.0
 11
315.0897580622063
 21
955.1618335326908
 31
0.0
 11
315.3856338237769
 21
955.2670334918821
 31
0.0
 11
315.6931830694134
 21
955.3316554169371
 31
0.0
 11
315.9998488025724
 21
955.35334653311
 31
0.0
 11
316.3065145357314
 21
955.3316554169371
 31
0.0
 11
316.614063781368
 21
955.2670334918821
 31
0.0
 11
316.9099395429387
 21
955.1618335326909
 31
0.0
 11
317.2071924710694
 21
955.0119398657187
 31
0.0
 11
317.4843684799272
 21
954.8281657191665
 31
0.0
 11
317.7607309582871
 21
954.5981086079945
 31
0.0
 11
318.0124460337418
 21
954.3417472693332
 31
0.0
 11
318.2588598759985
 21
954.0395813879254
 31
0.0
 11
318.4786994114336
 21
953.7178409199156
 31
0.0
 11
318.6876444590584
 21
953.3536825376189
 31
0.0
 11
318.8694923538795
 21
952.9754360271324
 31
0.0
 11
319.0348937606667
 21
952.5610218014947
 31
0.0
 11
319.1732844750978
 21
952.1369278447772
 31
0.0
 11
319.29052710945
 21
951.6852846846888
 31
0.0
 11
319.3810219531704
 21
951.2275915757334
 31
0.0
 11
319.447012014556
 21
950.7526833919817
 31
0.0
 11
319.4864765196195
 21
950.2748667067355
 31
0.0
 11
319.4996976051452
 21
949.7911976677881
 31
0.0
 11
319.4864765196195
 21
949.3075286288406
 31
0.0
 11
319.4470120145561
 21
948.8297119435942
 31
0.0
 11
319.3810219531704
 21
948.3548037598425
 31
0.0
 11
319.29052710945
 21
947.8971106508873
 31
0.0
 11
319.1732844750978
 21
947.445467490799
 31
0.0
 11
319.0348937606667
 21
947.0213735340814
 31
0.0
 11
318.8694923538795
 21
946.6069593084437
 31
0.0
 11
318.6876444590584
 21
946.2287127979572
 31
0.0
 11
318.4786994114336
 21
945.8645544156606
 31
0.0
 11
318.2588598759985
 21
945.5428139476508
 31
0.0
 11
318.0124460337418
 21
945.2406480662429
 31
0.0
 11
317.7607309582871
 21
944.9842867275815
 31
0.0
 11
317.4843684799272
 21
944.7542296164099
 31
0.0
 11
317.2071924710694
 21
944.5704554698575
 31
0.0
 11
316.9099395429387
 21
944.4205618028852
 31
0.0
 11
316.614063781368
 21
944.3153618436941
 31
0.0
 11
316.3065145357314
 21
944.2507399186389
 31
0.0
 11
315.9998488025723
 21
944.2290488024662
 31
0.0
 11
315.6931830694133
 21
944.250739918639
 31
0.0
  0
SPLINE
  5
1BB
330
59
100
AcDbEntity
  8
1
  6
Continuous
 62
     7
100
AcDbSpline
210
0.0
220
0.0
230
1.0
 70
    11
 71
     3
 72
    79
 73
    75
 74
    73
 42
0.000000001
 43
0.0000000001
 44
0.00000001
 40
0.0
 40
0.0
 40
0.0
 40
0.0
 40
0.3219191065761323
 40
0.6433817936225781
 40
0.9928750027372351
 40
1.341795136668708
 40
1.729749024779557
 40
2.11726275376257
 40
2.547908612129184
 40
2.978266912591481
 40
3.450266272796227
 40
3.9220864489257
 40
4.429962875077946
 40
4.937730794206598
 40
5.473111498179093
 40
6.008430496810275
 40
6.561033305606025
 40
7.11360811862662
 40
7.672061090161396
 40
8.230514061698157
 40
8.783088874725486
 40
9.335691683531309
 40
9.871010682173884
 40
10.4063913861559
 40
10.9141593052893
 40
11.42203573143621
 40
11.89385590754525
 40
12.36585526770448
 40
12.79621356809192
 40
13.22685942633414
 40
13.61437315514076
 40
14.00232704297778
 40
14.35124717651861
 40
14.70074038494118
 40
15.02220306986426
 40
15.34412218308081
 40
15.65570035336876
 40
15.96727852365577
 40
16.28919763686927
 40
16.6106603217875
 40
16.96015353020365
 40
17.30907366373764
 40
17.69702755156685
 40
18.08454128036547
 40
18.51518713859925
 40
18.94554543897934
 40
19.41754479913083
 40
19.88936497523295
 40
20.39724140137313
 40
20.90500932050047
 40
21.44039002447722
 40
21.97570902311561
 40
22.52831183191791
 40
23.08088664494314
 40
23.63933961647929
 40
24.19779258801455
 40
24.75036740103783
 40
25.30297020983798
 40
25.83828920847563
 40
26.37366991245672
 40
26.881437831596
 40
27.38931425776052
 40
27.86113443390327
 40
28.33313379412138
 40
28.76349209459526
 40
29.19413795296903
 40
29.58165168194913
 40
29.96960557003375
 40
30.31852570388536
 40
30.66801891273282
 40
30.98948159820556
 40
31.31140071222978
 40
31.62297888471743
 40
31.93455704876357
 40
31.93455704876357
 40
31.93455704876357
 40
31.93455704876357
 10
315.7249082847674
 20
655.0587552507973
 30
0.0
 10
315.6195893613195
 20
655.0370312343041
 30
0.0
 10
315.4091008342336
 20
654.9936140114798
 30
0.0
 10
315.1026076884471
 20
654.8640205566286
 30
0.0
 10
314.8076879773749
 20
654.6935054493142
 30
0.0
 10
314.5194889104436
 20
654.4727265680041
 30
0.0
 10
314.2485339794179
 20
654.21276903013
 30
0.0
 10
313.9871633570127
 20
653.9065372170493
 30
0.0
 10
313.7463155493013
 20
653.5664865706765
 30
0.0
 10
313.5188936387977
 20
653.1842960466672
 30
0.0
 10
313.3142154123396
 20
652.7740637962479
 30
0.0
 10
313.1270474491213
 20
652.3274929642484
 30
0.0
 10
312.9642545326852
 20
651.8588283425995
 30
0.0
 10
312.8226277708144
 20
651.3613304665084
 30
0.0
 10
312.7065758491619
 20
650.8478682432997
 30
0.0
 10
312.6145051808788
 20
650.3144286627366
 30
0.0
 10
312.5488141134701
 20
649.7713276849652
 30
0.0
 10
312.5088611787725
 20
649.2180119814784
 30
0.0
 10
312.4956942453833
 20
648.661461046424
 30
0.0
 10
312.5088611788684
 20
648.1049101113485
 30
0.0
 10
312.5488141136691
 20
647.5515944079245
 30
0.0
 10
312.6145051811234
 20
647.0084934299286
 30
0.0
 10
312.7065758496076
 20
646.4750538501804
 30
0.0
 10
312.8226277708201
 20
645.9615916240106
 30
0.0
 10
312.964254534435
 20
645.4640937584363
 30
0.0
 10
313.1270474446467
 20
644.9954290989075
 30
0.0
 10
313.3142154294294
 20
644.5488583987452
 30
0.0
 10
313.5188935786983
 20
644.1386256781659
 30
0.0
 10
313.7463157526911
 20
643.7564367620611
 30
0.0
 10
313.9871626274781
 20
643.416380427289
 30
0.0
 10
314.2485364011288
 20
643.1101678348684
 30
0.0
 10
314.5194802125922
 20
642.8501424833725
 30
0.0
 10
314.8077168461654
 20
642.6295927173197
 30
0.0
 10
315.1025030290091
 20
642.4582632545236
 30
0.0
 10
315.4094569920341
 20
642.3314802289126
 30
0.0
 10
315.720208216349
 20
642.2568329711963
 30
0.0
 10
316.0354557828947
 20
642.229997466063
 30
0.0
 10
316.35070334944
 20
642.2568329711878
 30
0.0
 10
316.6614545737538
 20
642.331480228896
 30
0.0
 10
316.9684085367771
 20
642.4582632544985
 30
0.0
 10
317.2631947196184
 20
642.6295927172878
 30
0.0
 10
317.551431353188
 20
642.8501424833332
 30
0.0
 10
317.8223751646472
 20
643.110167834823
 30
0.0
 10
318.0837489382922
 20
643.4163804272378
 30
0.0
 10
318.3245958130734
 20
643.7564367620045
 30
0.0
 10
318.552017987058
 20
644.138625678105
 30
0.0
 10
318.7566961363187
 20
644.5488583986801
 30
0.0
 10
318.9438641210911
 20
644.995429098839
 30
0.0
 10
319.1066570312908
 20
645.464093758365
 30
0.0
 10
319.2482837948913
 20
645.9615916239372
 30
0.0
 10
319.3643357160873
 20
646.4750538501057
 30
0.0
 10
319.4564063845521
 20
647.0084934298529
 30
0.0
 10
319.5220974519839
 20
647.5515944078478
 30
0.0
 10
319.5620503867589
 20
648.1049101112729
 30
0.0
 10
319.5752173202133
 20
648.6614610463442
 30
0.0
 10
319.5620503867923
 20
649.2180119814138
 30
0.0
 10
319.5220974520452
 20
649.7713276848442
 30
0.0
 10
319.4564063846323
 20
650.314428662824
 30
0.0
 10
319.3643357161582
 20
650.847868242629
 30
0.0
 10
319.2482837949733
 20
651.3613304685889
 30
0.0
 10
319.1066570311999
 20
651.8588283349036
 30
0.0
 10
318.9438641213535
 20
652.3274929917527
 30
0.0
 10
318.7566961349295
 20
652.7740637012178
 30
0.0
 10
318.5520179909424
 20
653.1842963885813
 30
0.0
 10
318.3245957981161
 20
653.5664854182153
 30
0.0
 10
318.0837489889229
 20
653.9065413512474
 30
0.0
 10
317.8223749923723
 20
654.2127553009639
 30
0.0
 10
317.5514319657249
 20
654.4727758634677
 30
0.0
 10
317.2631926786977
 20
654.6933418092901
 30
0.0
 10
316.9684159248129
 20
654.8646137630355
 30
0.0
 10
316.661429418673
 20
654.9915952580151
 30
0.0
 10
316.3507963449171
 20
655.0655219303712
 30
0.0
 10
316.0351210353796
 20
655.094966161352
 30
0.0
 10
315.8283125343578
 20
655.0708255507295
 30
0.0
 10
315.7249082847674
 20
655.0587552507973
 30
0.0
 11
315.7249082847674
 21
655.0587552507973
 31
0.0
 11
315.4119260585951
 21
654.9834290161119
 31
0.0
 11
315.1142669730426
 21
654.8620316246477
 31
0.0
 11
314.8116995323879
 21
654.6871075077922
 31
0.0
 11
314.5338600216917
 21
654.4760376948352
 31
0.0
 11
314.253139399047
 21
654.2082613867651
 31
0.0
 11
314.0008782116618
 21
653.9140995547862
 31
0.0
 11
313.751063024255
 21
653.5633172470817
 31
0.0
 11
313.5304442129968
 21
653.1938099983613
 31
0.0
 11
313.3189132479565
 21
652.7718644487463
 31
0.0
 11
313.1361242629987
 21
652.3368903511574
 31
0.0
 11
312.9688474318652
 21
651.8573521086702
 31
0.0
 11
312.829546137642
 21
651.3690659127465
 31
0.0
 11
312.7110697780545
 21
650.8469587873282
 31
0.0
 11
312.6198777264488
 21
650.319464294441
 31
0.0
 11
312.5532416340003
 21
649.7708938837579
 31
0.0
 11
312.5134349160361
 21
649.2197547459791
 31
0.0
 11
312.5000986760871
 21
648.661461036433
 31
0.0
 11
312.5134349160361
 21
648.1031673268872
 31
0.0
 11
312.5532416340003
 21
647.5520281891083
 31
0.0
 11
312.6198777264489
 21
647.0034577784252
 31
0.0
 11
312.7110697780546
 21
646.4759632855379
 31
0.0
 11
312.8295461376419
 21
645.9538561601198
 31
0.0
 11
312.9688474318651
 21
645.465569964196
 31
0.0
 11
313.1361242629986
 21
644.9860317217087
 31
0.0
 11
313.3189132479564
 21
644.5510576241197
 31
0.0
 11
313.5304442129967
 21
644.1291120745049
 31
0.0
 11
313.751063024255
 21
643.7596048257845
 31
0.0
 11
314.0008782116619
 21
643.4088225180799
 31
0.0
 11
314.2531393990473
 21
643.1146606861009
 31
0.0
 11
314.5338600216917
 21
642.8468843780308
 31
0.0
 11
314.8116995323878
 21
642.6358145650738
 31
0.0
 11
315.1142669730426
 21
642.4608904482186
 31
0.0
 11
315.4119260585952
 21
642.3394930567541
 31
0.0
 11
315.7249082847675
 21
642.2641668220688
 31
0.0
 11
316.0354557832227
 21
642.2388447471003
 31
0.0
 11
316.346003281678
 21
642.2641668220688
 31
0.0
 11
316.6589855078503
 21
642.3394930567542
 31
0.0
 11
316.9566445934029
 21
642.4608904482185
 31
0.0
 11
317.2592120340576
 21
642.6358145650738
 31
0.0
 11
317.5370515447537
 21
642.8468843780308
 31
0.0
 11
317.8177721673983
 21
643.114660686101
 31
0.0
 11
318.0700333547834
 21
643.4088225180799
 31
0.0
 11
318.3198485421902
 21
643.7596048257843
 31
0.0
 11
318.5404673534485
 21
644.129112074505
 31
0.0
 11
318.751998318489
 21
644.5510576241198
 31
0.0
 11
318.9347873034467
 21
644.9860317217087
 31
0.0
 11
319.1020641345802
 21
645.465569964196
 31
0.0
 11
319.2413654288033
 21
645.9538561601196
 31
0.0
 11
319.3598417883907
 21
646.4759632855377
 31
0.0
 11
319.4510338399963
 21
647.0034577784252
 31
0.0
 11
319.517669932445
 21
647.5520281891082
 31
0.0
 11
319.5574766504093
 21
648.1031673268872
 31
0.0
 11
319.5708128903584
 21
648.6614610364331
 31
0.0
 11
319.5574766504093
 21
649.2197547459791
 31
0.0
 11
319.517669932445
 21
649.770893883758
 31
0.0
 11
319.4510338399965
 21
650.3194642944411
 31
0.0
 11
319.3598417883909
 21
650.8469587873283
 31
0.0
 11
319.2413654288035
 21
651.3690659127465
 31
0.0
 11
319.1020641345802
 21
651.8573521086703
 31
0.0
 11
318.9347873034467
 21
652.3368903511573
 31
0.0
 11
318.7519983184889
 21
652.7718644487463
 31
0.0
 11
318.5404673534485
 21
653.1938099983611
 31
0.0
 11
318.3198485421902
 21
653.5633172470816
 31
0.0
 11
318.0700333547834
 21
653.9140995547862
 31
0.0
 11
317.8177721673982
 21
654.2082613867651
 31
0.0
 11
317.5370515447537
 21
654.4760376948352
 31
0.0
 11
317.2592120340576
 21
654.6871075077922
 31
0.0
 11
316.9566445934028
 21
654.8620316246476
 31
0.0
 11
316.6589855078503
 21
654.9834290161119
 31
0.0
 11
316.346003281678
 21
655.0587552507972
 31
0.0
 11
316.0354557832226
 21
655.0840773257654
 31
0.0
 11
315.7249082847674
 21
655.0587552507973
 31
0.0
  0
SPLINE
  5
1BC
330
59
100
AcDbEntity
  8
1
  6
Continuous
 62
     7
100
AcDbSpline
210
0.0
220
0.0
230
1.0
 70
    11
 71
     3
 72
    79
 73
    75
 74
    73
 42
0.000000001
 43
0.0000000001
 44
0.00000001
 40
0.0
 40
0.0
 40
0.0
 40
0.0
 40
0.2813091295366451
 40
0.5626019528581816
 40
0.8464226451892483
 40
1.130214053669742
 40
1.417835704367801
 40
1.705420535636194
 40
1.997635971559715
 40
2.289812847778792
 40
2.586839028646809
 40
2.883829785627722
 40
3.185307038912306
 40
3.486755454941716
 40
3.791812973649041
 40
4.096850359215219
 40
4.404220792930673
 40
4.711580925269184
 40
5.019747225769443
 40
5.327913526259457
 40
5.635273658567219
 40
5.942644092231035
 40
6.247681477724572
 40
6.552738996337039
 40
6.854187412249816
 40
7.155664665392546
 40
7.452655422207917
 40
7.749681602881974
 40
8.041858478879576
 40
8.334073914546595
 40
8.621658745520541
 40
8.90928039586826
 40
9.19307180391044
 40
9.476892495599582
 40
9.758185317503303
 40
10.03949445584087
 40
10.31992039306045
 40
10.60034633027911
 40
10.88165546861346
 40
11.1629482905118
 40
11.44676898219349
 40
11.73056039022617
 40
12.01818204056277
 40
12.30576687152385
 40
12.59798230717658
 40
12.89015918315842
 40
13.18718536381554
 40
13.48417612061291
 40
13.78565337373646
 40
14.08710178962918
 40
14.3921593082209
 40
14.6971966936932
 40
15.00456712733497
 40
15.31192725962044
 40
15.62009356008764
 40
15.92825986056464
 40
16.23561999287946
 40
16.54299042657095
 40
16.84802781211265
 40
17.15308533079519
 40
17.45453374679949
 40
17.75601100005768
 40
18.05300175701151
 40
18.35002793785031
 40
18.6422048140376
 40
18.934420249924
 40
19.22200508114535
 40
19.50962673177598
 40
19.79341814013901
 40
20.07723883220357
 40
20.35853165457035
 40
20.63984079357008
 40
20.92026673223033
 40
21.20069266066628
 40
21.20069266066628
 40
21.20069266066628
 40
21.20069266066628
 10
319.5572909053305
 20
637.6832305235789
 30
0.0
 10
319.5457195022138
 20
637.7763574716203
 30
0.0
 10
319.522577372106
 20
637.9626059702571
 30
0.0
 10
319.4538152333766
 20
638.2369075534821
 30
0.0
 10
319.3612471069985
 20
638.5046514828512
 30
0.0
 10
319.2423947713984
 20
638.7642641193091
 30
0.0
 10
319.0997328559527
 20
639.0129812165471
 30
0.0
 10
318.9331899551685
 20
639.2498251321953
 30
0.0
 10
318.745232235971
 20
639.47204055175
 30
0.0
 10
318.5360700242754
 20
639.6789036039755
 30
0.0
 10
318.3086174478902
 20
639.8679623390536
 30
0.0
 10
318.0632718636261
 20
640.0386022839136
 30
0.0
 10
317.8032433053669
 20
640.1888660129698
 30
0.0
 10
317.5292205593846
 20
640.3181733652815
 30
0.0
 10
317.2444728740697
 20
640.4251641674097
 30
0.0
 10
316.9501100245841
 20
640.5092965067627
 30
0.0
 10
316.6492195446742
 20
640.569815491142
 30
0.0
 10
316.3434332227712
 20
640.6062966293092
 30
0.0
 10
316.0354557928351
 20
640.6185154110142
 30
0.0
 10
315.7274783628899
 20
640.6062966296531
 30
0.0
 10
315.4216920409943
 20
640.5698154918286
 30
0.0
 10
315.1208015610039
 20
640.5092965078029
 30
0.0
 10
314.8264387117284
 20
640.4251641687792
 30
0.0
 10
314.5416910255113
 20
640.3181733670915
 30
0.0
 10
314.2676682826963
 20
640.1888660148329
 30
0.0
 10
314.0076397125014
 20
640.0386022872954
 30
0.0
 10
313.7622941718994
 20
639.867962338597
 30
0.0
 10
313.5348414336387
 20
639.6789036195302
 30
0.0
 10
313.3256798163047
 20
639.4720405103343
 30
0.0
 10
313.1377198975295
 20
639.2498253035226
 30
0.0
 10
312.9711850812842
 20
639.0129806079311
 30
0.0
 10
312.828493224073
 20
638.7642664014551
 30
0.0
 10
312.7097512169166
 20
638.5046431156758
 30
0.0
 10
312.6167736717851
 20
638.2369387082438
 30
0.0
 10
312.5495265939757
 20
637.9624908750999
 30
0.0
 10
312.5092112478751
 20
637.6839520526427
 30
0.0
 10
312.4955495688924
 20
637.4031307878231
 30
0.0
 10
312.5092112478512
 20
637.1223095230034
 30
0.0
 10
312.5495265939277
 20
636.8437707005457
 30
0.0
 10
312.6167736717134
 20
636.5693228674018
 30
0.0
 10
312.7097512168211
 20
636.3016184599692
 30
0.0
 10
312.8284932239542
 20
636.0419951741894
 30
0.0
 10
312.9711850811418
 20
635.7932809677128
 30
0.0
 10
313.1377198973639
 20
635.5564362721205
 30
0.0
 10
313.3256798161159
 20
635.3342210653083
 30
0.0
 10
313.5348414334272
 20
635.1273579561112
 30
0.0
 10
313.7622941716652
 20
634.9382992370436
 30
0.0
 10
314.0076397122446
 20
634.7676592883442
 30
0.0
 10
314.2676682824167
 20
634.6173955608052
 30
0.0
 10
314.5416910252097
 20
634.4880882085467
 30
0.0
 10
314.826438711404
 20
634.3810974068581
 30
0.0
 10
315.1208015606572
 20
634.2969650678324
 30
0.0
 10
315.421692040625
 20
634.2364460838057
 30
0.0
 10
315.727478362498
 20
634.1999649459796
 30
0.0
 10
316.0354557924194
 20
634.1877461646171
 30
0.0
 10
316.3434332223366
 20
634.1999649463191
 30
0.0
 10
316.6492195442002
 20
634.2364460844858
 30
0.0
 10
316.950110024145
 20
634.2969650688549
 30
0.0
 10
317.2444728733889
 20
634.3810974082279
 30
0.0
 10
317.5292205594866
 20
634.4880882102606
 30
0.0
 10
317.8032433024659
 20
634.6173955628968
 30
0.0
 10
318.0632718717334
 20
634.7676592907143
 30
0.0
 10
318.3086174153827
 20
634.9382992400843
 30
0.0
 10
318.5360701419468
 20
635.1273579584073
 30
0.0
 10
318.7452318017802
 20
635.3342210721032
 30
0.0
 10
318.9331915627632
 20
635.5564362640908
 30
0.0
 10
319.0997269583933
 20
635.7932810160347
 30
0.0
 10
319.2424166691329
 20
636.041995015755
 30
0.0
 10
319.3611665847697
 20
636.3016190654108
 30
0.0
 10
319.4541147813316
 20
636.5693206403594
 30
0.0
 10
319.5214704629797
 20
636.843778957626
 30
0.0
 10
319.5613816501648
 20
637.1222787677912
 30
0.0
 10
319.5765472271631
 20
637.4032452013206
 30
0.0
 10
319.5637096773769
 20
637.5899020838459
 30
0.0
 10
319.5572909053306
 20
637.6832305235788
 30
0.0
 11
319.5572909053305
 21
637.6832305235789
 31
0.0
 11
319.5169356611907
 21
637.9616300309324
 31
0.0
 11
319.4501273186318
 21
638.234874055805
 31
0.0
 11
319.3569968174425
 21
638.5029801819696
 31
0.0
 11
319.2391062040659
 21
638.7611262000672
 31
0.0
 11
319.0959991906091
 21
639.0106188784154
 31
0.0
 11
318.9307189000154
 21
639.2459642855151
 31
0.0
 11
318.7420461075126
 21
639.4691064785301
 31
0.0
 11
318.5344156942101
 21
639.6746714036153
 31
0.0
 11
318.3060366114803
 21
639.8645859808842
 31
0.0
 11
318.0622948046683
 21
640.0342722835749
 31
0.0
 11
317.8012985880193
 21
640.1851679731355
 31
0.0
 11
317.5287235281411
 21
640.3139079601334
 31
0.0
 11
317.2431755595644
 21
640.4212506234234
 31
0.0
 11
316.9499022907659
 21
640.5051469666626
 31
0.0
 11
316.6485713275859
 21
640.5657789233021
 31
0.0
 11
316.3433800690054
 21
640.6022281572886
 31
0.0
 11
316.0354557832227
 21
640.6144389319018
 31
0.0
 11
315.72753149744
 21
640.6022281572884
 31
0.0
 11
315.4223402388596
 21
640.5657789233019
 31
0.0
 11
315.1210092756796
 21
640.5051469666626
 31
0.0
 11
314.8277360068811
 21
640.4212506234235
 31
0.0
 11
314.5421880383044
 21
640.3139079601335
 31
0.0
 11
314.269612978426
 21
640.1851679731353
 31
0.0
 11
314.0086167617771
 21
640.0342722835749
 31
0.0
 11
313.7648749549651
 21
639.8645859808842
 31
0.0
 11
313.5364958722354
 21
639.6746714036153
 31
0.0
 11
313.3288654589329
 21
639.4691064785301
 31
0.0
 11
313.14019266643
 21
639.2459642855152
 31
0.0
 11
312.9749123758363
 21
639.0106188784155
 31
0.0
 11
312.8318053623795
 21
638.7611262000673
 31
0.0
 11
312.7139147490029
 21
638.5029801819696
 31
0.0
 11
312.6207842478137
 21
638.234874055805
 31
0.0
 11
312.5539759052548
 21
637.9616300309324
 31
0.0
 11
312.5136206611149
 21
637.6832305235787
 31
0.0
 11
312.5000986760871
 21
637.4031307872356
 31
0.0
 11
312.5136206611149
 21
637.1230310508922
 31
0.0
 11
312.5539759052547
 21
636.8446315435385
 31
0.0
 11
312.6207842478137
 21
636.5713875186659
 31
0.0
 11
312.7139147490029
 21
636.3032813925013
 31
0.0
 11
312.8318053623795
 21
636.0451353744038
 31
0.0
 11
312.9749123758362
 21
635.7956426960554
 31
0.0
 11
313.1401926664299
 21
635.5602972889558
 31
0.0
 11
313.3288654589329
 21
635.3371550959408
 31
0.0
 11
313.5364958722353
 21
635.1315901708556
 31
0.0
 11
313.7648749549651
 21
634.9416755935866
 31
0.0
 11
314.0086167617771
 21
634.7719892908959
 31
0.0
 11
314.269612978426
 21
634.6210936013354
 31
0.0
 11
314.5421880383044
 21
634.4923536143376
 31
0.0
 11
314.8277360068812
 21
634.3850109510478
 31
0.0
 11
315.1210092756796
 21
634.3011146078085
 31
0.0
 11
315.4223402388595
 21
634.240482651169
 31
0.0
 11
315.7275314974399
 21
634.2040334171825
 31
0.0
 11
316.0354557832227
 21
634.1918226425692
 31
0.0
 11
316.3433800690054
 21
634.2040334171824
 31
0.0
 11
316.6485713275858
 21
634.2404826511688
 31
0.0
 11
316.9499022907659
 21
634.3011146078084
 31
0.0
 11
317.2431755595643
 21
634.3850109510475
 31
0.0
 11
317.5287235281411
 21
634.4923536143375
 31
0.0
 11
317.8012985880194
 21
634.6210936013355
 31
0.0
 11
318.0622948046683
 21
634.7719892908959
 31
0.0
 11
318.3060366114804
 21
634.9416755935868
 31
0.0
 11
318.5344156942101
 21
635.1315901708556
 31
0.0
 11
318.7420461075126
 21
635.3371550959408
 31
0.0
 11
318.9307189000155
 21
635.5602972889558
 31
0.0
 11
319.0959991906091
 21
635.7956426960554
 31
0.0
 11
319.2391062040659
 21
636.0451353744037
 31
0.0
 11
319.3569968174424
 21
636.3032813925012
 31
0.0
 11
319.4501273186315
 21
636.5713875186659
 31
0.0
 11
319.5169356611905
 21
636.8446315435385
 31
0.0
 11
319.5572909053304
 21
637.1230310508922
 31
0.0
 11
319.5708128903584
 21
637.4031307872356
 31
0.0
 11
319.5572909053306
 21
637.6832305235788
 31
0.0
  0
SPLINE
  5
1BD
330
59
100
AcDbEntity
  8
1
  6
Continuous
 62
     7
100
AcDbSpline
210
0.0
220
0.0
230
1.0
 70
    11
 71
     3
 72
    79
 73
    75
 74
    73
 42
0.000000001
 43
0.0000000001
 44
0.00000001
 40
0.0
 40
0.0
 40
0.0
 40
0.0
 40
0.2813091295366451
 40
0.5626019528584023
 40
0.8464226451893615
 40
1.130214053669856
 40
1.417835704367914
 40
1.7054205356364
 40
1.997635971559834
 40
2.289812847778992
 40
2.586839028647009
 40
2.883829785627922
 40
3.185307038912506
 40
3.486755454941867
 40
3.791812973649193
 40
4.096850359215402
 40
4.404220792930811
 40
4.711580925269336
 40
5.019747225769599
 40
5.327913526259613
 40
5.635273658567375
 40
5.942644092231214
 40
6.247681477724782
 40
6.55273899633725
 40
6.85418741224993
 40
7.15566466539266
 40
7.45265542220803
 40
7.749681602882161
 40
8.041858478879762
 40
8.334073914546869
 40
8.621658745520815
 40
8.909280395868533
 40
9.193071803910714
 40
9.476892495599856
 40
9.758185317503576
 40
10.03949445584092
 40
10.31992039306072
 40
10.60034633027938
 40
10.88165546861351
 40
11.16294829051196
 40
11.44676898219365
 40
11.73056039022643
 40
12.01818204056294
 40
12.30576687152411
 40
12.59798230717684
 40
12.89015918315868
 40
13.18718536381572
 40
13.48417612061309
 40
13.78565337373659
 40
14.0871017896294
 40
14.39215930822112
 40
14.69719669369339
 40
15.00456712733519
 40
15.31192725962066
 40
15.62009356008785
 40
15.92825986056485
 40
16.23561999287967
 40
16.54299042657118
 40
16.84802781211292
 40
17.15308533079542
 40
17.45453374679962
 40
17.75601100005786
 40
18.05300175701163
 40
18.35002793785057
 40
18.64220481403779
 40
18.93442024992418
 40
19.22200508114572
 40
19.50962673177616
 40
19.79341814013929
 40
20.07723883220374
 40
20.35853165457063
 40
20.63984079357014
 40
20.92026673223039
 40
21.20069266066645
 40
21.20069266066645
 40
21.20069266066645
 40
21.20069266066645
 10
319.5572909053305
 20
659.6396915492874
 30
0.0
 10
319.5457195022137
 20
659.5465646012457
 30
0.0
 10
319.5225773721061
 20
659.3603161026092
 30
0.0
 10
319.4538152333768
 20
659.0860145193844
 30
0.0
 10
319.3612471069985
 20
658.8182705900147
 30
0.0
 10
319.2423947713984
 20
658.5586579535573
 30
0.0
 10
319.0997328559526
 20
658.3099408563189
 30
0.0
 10
318.9331899551685
 20
658.0730969406708
 30
0.0
 10
318.7452322359711
 20
657.8508815211159
 30
0.0
 10
318.5360700242753
 20
657.6440184688906
 30
0.0
 10
318.3086174478904
 20
657.4549597338123
 30
0.0
 10
318.0632718636261
 20
657.2843197889524
 30
0.0
 10
317.8032433053668
 20
657.134056059896
 30
0.0
 10
317.5292205593846
 20
657.0047487075846
 30
0.0
 10
317.2444728740697
 20
656.8977579054567
 30
0.0
 10
316.9501100245841
 20
656.8136255661033
 30
0.0
 10
316.6492195446742
 20
656.7531065817248
 30
0.0
 10
316.3434332227714
 20
656.7166254435567
 30
0.0
 10
316.0354557928351
 20
656.7044066618517
 30
0.0
 10
315.7274783628899
 20
656.716625443213
 30
0.0
 10
315.4216920409942
 20
656.7531065810373
 30
0.0
 10
315.1208015610041
 20
656.8136255650633
 30
0.0
 10
314.8264387117281
 20
656.897757904087
 30
0.0
 10
314.5416910255115
 20
657.004748705775
 30
0.0
 10
314.2676682826961
 20
657.1340560580329
 30
0.0
 10
314.0076397125015
 20
657.2843197855709
 30
0.0
 10
313.7622941718994
 20
657.4549597342691
 30
0.0
 10
313.5348414336388
 20
657.6440184533359
 30
0.0
 10
313.3256798163046
 20
657.8508815625321
 30
0.0
 10
313.1377198975296
 20
658.0730967693437
 30
0.0
 10
312.9711850812841
 20
658.309941464935
 30
0.0
 10
312.828493224073
 20
658.5586556714112
 30
0.0
 10
312.7097512169166
 20
658.8182789571906
 30
0.0
 10
312.6167736717851
 20
659.0859833646228
 30
0.0
 10
312.5495265939758
 20
659.3604311977662
 30
0.0
 10
312.5092112478751
 20
659.6389700202236
 30
0.0
 10
312.4955495688924
 20
659.9197912850432
 30
0.0
 10
312.5092112478513
 20
660.200612549863
 30
0.0
 10
312.5495265939277
 20
660.4791513723203
 30
0.0
 10
312.6167736717134
 20
660.7535992054643
 30
0.0
 10
312.7097512168211
 20
661.0213036128968
 30
0.0
 10
312.8284932239542
 20
661.2809268986766
 30
0.0
 10
312.9711850811418
 20
661.5296411051536
 30
0.0
 10
313.1377198973638
 20
661.7664858007458
 30
0.0
 10
313.325679816116
 20
661.988701007558
 30
0.0
 10
313.5348414334272
 20
662.1955641167553
 30
0.0
 10
313.7622941716652
 20
662.3846228358226
 30
0.0
 10
314.0076397122446
 20
662.555262784522
 30
0.0
 10
314.2676682824168
 20
662.7055265120607
 30
0.0
 10
314.5416910252096
 20
662.8348338643195
 30
0.0
 10
314.8264387114041
 20
662.9418246660082
 30
0.0
 10
315.1208015606571
 20
663.0259570050335
 30
0.0
 10
315.421692040625
 20
663.0864759890609
 30
0.0
 10
315.727478362498
 20
663.1229571268865
 30
0.0
 10
316.0354557924193
 20
663.135175908249
 30
0.0
 10
316.3434332223366
 20
663.122957126547
 30
0.0
 10
316.6492195442002
 20
663.0864759883805
 30
0.0
 10
316.950110024145
 20
663.0259570040113
 30
0.0
 10
317.244472873389
 20
662.9418246646378
 30
0.0
 10
317.5292205594865
 20
662.8348338626057
 30
0.0
 10
317.8032433024661
 20
662.7055265099692
 30
0.0
 10
318.0632718717332
 20
662.555262782152
 30
0.0
 10
318.3086174153829
 20
662.384622832782
 30
0.0
 10
318.5360701419467
 20
662.1955641144589
 30
0.0
 10
318.7452318017804
 20
661.9887010007628
 30
0.0
 10
318.9331915627632
 20
661.7664858087755
 30
0.0
 10
319.0997269583933
 20
661.5296410568311
 30
0.0
 10
319.2424166691329
 20
661.2809270571113
 30
0.0
 10
319.3611665847697
 20
661.0213030074552
 30
0.0
 10
319.4541147813317
 20
660.7536014325066
 30
0.0
 10
319.5214704629796
 20
660.4791431152403
 30
0.0
 10
319.5613816501649
 20
660.2006433050751
 30
0.0
 10
319.5765472271631
 20
659.9196768715456
 30
0.0
 10
319.5637096773769
 20
659.7330199890204
 30
0.0
 10
319.5572909053306
 20
659.6396915492874
 30
0.0
 11
319.5572909053305
 21
659.6396915492874
 31
0.0
 11
319.5169356611907
 21
659.3612920419339
 31
0.0
 11
319.4501273186318
 21
659.088048017061
 31
0.0
 11
319.3569968174425
 21
658.8199418908965
 31
0.0
 11
319.2391062040659
 21
658.5617958727989
 31
0.0
 11
319.0959991906091
 21
658.3123031944508
 31
0.0
 11
318.9307189000154
 21
658.0769577873509
 31
0.0
 11
318.7420461075126
 21
657.8538155943361
 31
0.0
 11
318.5344156942101
 21
657.6482506692507
 31
0.0
 11
318.3060366114803
 21
657.4583360919819
 31
0.0
 11
318.0622948046683
 21
657.2886497892912
 31
0.0
 11
317.8012985880193
 21
657.1377540997305
 31
0.0
 11
317.5287235281411
 21
657.0090141127328
 31
0.0
 11
317.2431755595644
 21
656.9016714494428
 31
0.0
 11
316.9499022907659
 21
656.8177751062035
 31
0.0
 11
316.6485713275859
 21
656.7571431495642
 31
0.0
 11
316.3433800690054
 21
656.7206939155776
 31
0.0
 11
316.0354557832227
 21
656.7084831409643
 31
0.0
 11
315.72753149744
 21
656.7206939155776
 31
0.0
 11
315.4223402388596
 21
656.7571431495642
 31
0.0
 11
315.1210092756796
 21
656.8177751062036
 31
0.0
 11
314.8277360068811
 21
656.9016714494428
 31
0.0
 11
314.5421880383044
 21
657.0090141127328
 31
0.0
 11
314.269612978426
 21
657.1377540997307
 31
0.0
 11
314.0086167617771
 21
657.2886497892912
 31
0.0
 11
313.7648749549651
 21
657.4583360919819
 31
0.0
 11
313.5364958722354
 21
657.6482506692508
 31
0.0
 11
313.3288654589329
 21
657.8538155943361
 31
0.0
 11
313.14019266643
 21
658.076957787351
 31
0.0
 11
312.9749123758363
 21
658.3123031944508
 31
0.0
 11
312.8318053623795
 21
658.5617958727989
 31
0.0
 11
312.7139147490029
 21
658.8199418908966
 31
0.0
 11
312.6207842478137
 21
659.0880480170613
 31
0.0
 11
312.5539759052548
 21
659.3612920419339
 31
0.0
 11
312.5136206611149
 21
659.6396915492874
 31
0.0
 11
312.5000986760871
 21
659.9197912856307
 31
0.0
 11
312.5136206611149
 21
660.199891021974
 31
0.0
 11
312.5539759052547
 21
660.4782905293275
 31
0.0
 11
312.6207842478137
 21
660.7515345542002
 31
0.0
 11
312.7139147490029
 21
661.0196406803649
 31
0.0
 11
312.8318053623795
 21
661.2777866984625
 31
0.0
 11
312.9749123758362
 21
661.5272793768107
 31
0.0
 11
313.1401926664299
 21
661.7626247839105
 31
0.0
 11
313.3288654589329
 21
661.9857669769254
 31
0.0
 11
313.5364958722353
 21
662.1913319020107
 31
0.0
 11
313.7648749549651
 21
662.3812464792795
 31
0.0
 11
314.0086167617771
 21
662.5509327819702
 31
0.0
 11
314.269612978426
 21
662.7018284715307
 31
0.0
 11
314.5421880383044
 21
662.8305684585287
 31
0.0
 11
314.8277360068812
 21
662.9379111218185
 31
0.0
 11
315.1210092756796
 21
663.0218074650577
 31
0.0
 11
315.4223402388595
 21
663.0824394216972
 31
0.0
 11
315.7275314974399
 21
663.1188886556838
 31
0.0
 11
316.0354557832227
 21
663.131099430297
 31
0.0
 11
316.3433800690054
 21
663.1188886556838
 31
0.0
 11
316.6485713275858
 21
663.0824394216974
 31
0.0
 11
316.9499022907659
 21
663.0218074650577
 31
0.0
 11
317.2431755595643
 21
662.9379111218184
 31
0.0
 11
317.5287235281411
 21
662.8305684585285
 31
0.0
 11
317.8012985880194
 21
662.7018284715308
 31
0.0
 11
318.0622948046683
 21
662.5509327819702
 31
0.0
 11
318.3060366114804
 21
662.3812464792795
 31
0.0
 11
318.5344156942101
 21
662.1913319020105
 31
0.0
 11
318.7420461075126
 21
661.9857669769253
 31
0.0
 11
318.9307189000155
 21
661.7626247839104
 31
0.0
 11
319.0959991906091
 21
661.5272793768105
 31
0.0
 11
319.2391062040659
 21
661.2777866984625
 31
0.0
 11
319.3569968174424
 21
661.0196406803649
 31
0.0
 11
319.4501273186315
 21
660.7515345542002
 31
0.0
 11
319.5169356611905
 21
660.4782905293275
 31
0.0
 11
319.5572909053304
 21
660.199891021974
 31
0.0
 11
319.5708128903584
 21
659.9197912856307
 31
0.0
 11
319.5572909053306
 21
659.6396915492874
 31
0.0
  0
ENDBLK
  5
5B
330
59
100
AcDbEntity
  8
0
100
AcDbBlockEnd
  0
BLOCK
  5
5D
330
5C
100
AcDbEntity
  8
0
100
AcDbBlockBegin
  2
36-3-13
 70
     0
 10
728.0856293018958
 20
772.5755686352118
 30
0.0
  3
36-3-13
  1

  0
LINE
  5
1BE
330
5C
100
AcDbEntity
  8
1
  6
Continuous
 62
     7
100
AcDbLine
 10
290.4999999999998
 20
938.8577357148649
 30
0.0
 11
290.4999999999998
 21
947.7171939375785
 31
0.0
  0
LINE
  5
1BF
330
5C
100
AcDbEntity
  8
1
  6
Continuous
 62
     7
100
AcDbLine
 10
326.4999999999999
 20
938.5410600752831
 30
0.0
 11
328.0000986760872
 21
938.5410600752831
 31
0.0
  0
LINE
  5
1C0
330
5C
100
AcDbEntity
  8
1
  6
Continuous
 62
     7
100
AcDbLine
 10
326.4999999999999
 20
948.041060075283
 30
0.0
 11
328.0000986760872
 21
948.041060075283
 31
0.0
  0
LINE
  5
1C1
330
5C
100
AcDbEntity
  8
1
  6
Continuous
 62
     7
100
AcDbLine
 10
329.0000986760872
 20
947.041060075283
 30
0.0
 11
329.0000986760872
 21
942.3910600752829
 31
0.0
  0
LINE
  5
1C2
330
5C
100
AcDbEntity
  8
1
  6
Continuous
 62
     7
100
AcDbLine
 10
328.0000986760872
 20
942.3910600752829
 30
0.0
 11
328.0000986760872
 21
948.041060075283
 31
0.0
  0
LINE
  5
1C3
330
5C
100
AcDbEntity
  8
1
  6
Continuous
 62
     7
100
AcDbLine
 10
328.0000986760872
 20
942.3910600752829
 30
0.0
 11
328.0000986760872
 21
938.5410600752831
 31
0.0
  0
LINE
  5
1C4
330
5C
100
AcDbEntity
  8
1
  6
Continuous
 62
     7
100
AcDbLine
 10
329.0000986760872
 20
942.3910600752829
 30
0.0
 11
329.0000986760872
 21
939.5410600752831
 31
0.0
  0
LINE
  5
1C5
330
5C
100
AcDbEntity
  8
1
  6
Continuous
 62
     7
100
AcDbLine
 10
328.0000986760872
 20
938.5410600752831
 30
0.0
 11
329.0000986760872
 21
939.5410600752831
 31
0.0
  0
LINE
  5
1C6
330
5C
100
AcDbEntity
  8
1
  6
Continuous
 62
     7
100
AcDbLine
 10
329.0000986760872
 20
947.041060075283
 30
0.0
 11
328.0000986760872
 21
948.041060075283
 31
0.0
  0
LINE
  5
1C7
330
5C
100
AcDbEntity
  8
1
  6
Continuous
 62
     7
100
AcDbLine
 10
451.1742346141748
 20
647.9114610364331
 30
0.0
 11
452.1904157598235
 21
647.9114610364331
 31
0.0
  0
LINE
  5
1C8
330
5C
100
AcDbEntity
  8
1
  6
Continuous
 62
     7
100
AcDbLine
 10
451.1742346141748
 20
649.4114610364331
 30
0.0
 11
452.1904157598235
 21
649.4114610364331
 31
0.0
  0
LINE
  5
1C9
330
5C
100
AcDbEntity
  8
1
  6
Continuous
 62
     7
100
AcDbLine
 10
443.8257653858252
 20
647.9114610364331
 30
0.0
 11
451.1742346141748
 21
647.9114610364331
 31
0.0
  0
LINE
  5
1CA
330
5C
100
AcDbEntity
  8
1
  6
Continuous
 62
     7
100
AcDbLine
 10
442.8095842401767
 20
647.9114610364331
 30
0.0
 11
443.8257653858252
 21
647.9114610364331
 31
0.0
  0
LINE
  5
1CB
330
5C
100
AcDbEntity
  8
1
  6
Continuous
 62
     7
100
AcDbLine
 10
443.8257653858252
 20
649.4114610364331
 30
0.0
 11
451.1742346141748
 21
649.4114610364331
 31
0.0
  0
LINE
  5
1CC
330
5C
100
AcDbEntity
  8
1
  6
Continuous
 62
     7
100
AcDbLine
 10
442.8095842401767
 20
649.4114610364331
 30
0.0
 11
443.8257653858252
 21
649.4114610364331
 31
0.0
  0
LINE
  5
1CD
330
5C
100
AcDbEntity
  8
1
  6
Continuous
 62
     7
100
AcDbLine
 10
329.0000986760872
 20
652.4114610364331
 30
0.0
 11
329.0000986760872
 21
649.5614610364331
 31
0.0
  0
LINE
  5
1CE
330
5C
100
AcDbEntity
  8
1
  6
Continuous
 62
     7
100
AcDbLine
 10
326.5000986760872
 20
649.5614610364332
 30
0.0
 11
329.0000986760872
 21
649.5614610364331
 31
0.0
  0
LINE
  5
1CF
330
5C
100
AcDbEntity
  8
1
  6
Continuous
 62
     7
100
AcDbLine
 10
329.0000986760872
 20
647.761461036433
 30
0.0
 11
326.5000986760872
 21
647.761461036433
 31
0.0
  0
LINE
  5
1D0
330
5C
100
AcDbEntity
  8
1
  6
Continuous
 62
     7
100
AcDbLine
 10
328.0000986760872
 20
649.5614610364331
 30
0.0
 11
328.0000986760872
 21
653.4114610364331
 31
0.0
  0
LINE
  5
1D1
330
5C
100
AcDbEntity
  8
1
  6
Continuous
 62
     7
100
AcDbLine
 10
328.0000986760872
 20
647.761461036433
 30
0.0
 11
328.0000986760872
 21
643.9114610364331
 31
0.0
  0
LINE
  5
1D2
330
5C
100
AcDbEntity
  8
1
  6
Continuous
 62
     7
100
AcDbLine
 10
329.0000986760872
 20
647.761461036433
 30
0.0
 11
329.0000986760872
 21
644.9114610364331
 31
0.0
  0
LINE
  5
1D3
330
5C
100
AcDbEntity
  8
1
  6
Continuous
 62
     7
100
AcDbLine
 10
326.5000986760872
 20
643.9114610364331
 30
0.0
 11
328.0000986760872
 21
643.9114610364331
 31
0.0
  0
LINE
  5
1D4
330
5C
100
AcDbEntity
  8
1
  6
Continuous
 62
     7
100
AcDbLine
 10
328.0000986760872
 20
643.9114610364331
 30
0.0
 11
329.0000986760872
 21
644.9114610364331
 31
0.0
  0
LINE
  5
1D5
330
5C
100
AcDbEntity
  8
1
  6
Continuous
 62
     7
100
AcDbLine
 10
328.0000986760872
 20
653.4114610364331
 30
0.0
 11
326.5000986760872
 21
653.4114610364331
 31
0.0
  0
LINE
  5
1D6
330
5C
100
AcDbEntity
  8
1
  6
Continuous
 62
     7
100
AcDbLine
 10
329.0000986760872
 20
652.4114610364331
 30
0.0
 11
328.0000986760872
 21
653.4114610364331
 31
0.0
  0
ARC
  5
1D7
330
5C
100
AcDbEntity
  8
1
  6
Continuous
 62
     7
100
AcDbCircle
 10
447.5
 20
648.6614610364331
 30
0.0
 40
4.749999999999853
100
AcDbArc
 50
189.0847202873914
 51
350.915279712609
  0
ARC
  5
1D8
330
5C
100
AcDbEntity
  8
1
  6
Continuous
 62
     7
100
AcDbCircle
 10
447.5
 20
648.6614610364331
 30
0.0
 40
4.750000000000078
100
AcDbArc
 50
350.915279712609
 51
9.08472028739093
  0
ARC
  5
1D9
330
5C
100
AcDbEntity
  8
1
  6
Continuous
 62
     7
100
AcDbCircle
 10
447.5
 20
648.6614610364331
 30
0.0
 40
4.750000000000078
100
AcDbArc
 50
9.08472028739093
 51
170.9152797126086
  0
ARC
  5
1DA
330
5C
100
AcDbEntity
  8
1
  6
Continuous
 62
     7
100
AcDbCircle
 10
447.5
 20
648.6614610364331
 30
0.0
 40
4.749999999999853
100
AcDbArc
 50
170.9152797126086
 51
189.0847202873914
  0
ARC
  5
1DB
330
5C
100
AcDbEntity
  8
1
  6
Continuous
 62
     7
100
AcDbCircle
 10
447.5
 20
648.6614610364331
 30
0.0
 40
3.750000000000025
100
AcDbArc
 50
191.5369590328154
 51
348.4630409671846
  0
ARC
  5
1DC
330
5C
100
AcDbEntity
  8
1
  6
Continuous
 62
     7
100
AcDbCircle
 10
447.5
 20
648.6614610364331
 30
0.0
 40
3.750000000000025
100
AcDbArc
 50
11.53695903281541
 51
168.4630409671846
  0
ENDBLK
  5
5E
330
5C
100
AcDbEntity
  8
0
100
AcDbBlockEnd
  0
BLOCK
  5
60
330
5F
100
AcDbEntity
  8
0
100
AcDbBlockBegin
  2
64-7-13-420-M11
 70
     0
 10
156.0932952296899
 20
2295.233715385479
 30
0.0
  3
64-7-13-420-M11
  1

  0
LINE
  5
1DD
330
5F
100
AcDbEntity
  8
1
  6
PHANTOM
 62
     4
100
AcDbLine
 10
287.5000000000001
 20
625.6614610364331
 30
0.0
 11
287.5000000000001
 21
199.6614610364332
 31
0.0
  0
LINE
  5
1DE
330
5F
100
AcDbEntity
  8
1
  6
Continuous
 62
     7
100
AcDbLine
 10
297.7449513205696
 20
608.6614610364331
 30
0.0
 11
278.4174445710586
 21
608.6614610364331
 31
0.0
  0
LINE
  5
1DF
330
5F
100
AcDbEntity
  8
1
  6
Continuous
 62
     7
100
AcDbLine
 10
297.7449513205696
 20
608.6614610364331
 30
0.0
 11
297.8000000000003
 21
606.5527851839609
 31
0.0
  0
LINE
  5
1E0
330
5F
100
AcDbEntity
  8
1
  6
Continuous
 62
     2
100
AcDbLine
 10
297.8000000000003
 20
606.5527851839609
 30
0.0
 11
296.5825554289415
 21
608.6614610364331
 31
0.0
  0
LINE
  5
1E1
330
5F
100
AcDbEntity
  8
1
  6
Continuous
 62
     2
100
AcDbLine
 10
278.4174445710586
 20
608.6614610364331
 30
0.0
 11
277.1999999999999
 21
606.5527851839609
 31
0.0
  0
LINE
  5
1E2
330
5F
100
AcDbEntity
  8
1
  6
Continuous
 62
     2
100
AcDbLine
 10
278.4174445710586
 20
608.6614610364331
 30
0.0
 11
278.5386745648335
 21
613.6614610364331
 31
0.0
  0
LINE
  5
1E3
330
5F
100
AcDbEntity
  8
1
  6
Continuous
 62
     7
100
AcDbLine
 10
277.1999999999999
 20
606.5527851839609
 30
0.0
 11
277.2550486794307
 21
608.6614610364331
 31
0.0
  0
LINE
  5
1E4
330
5F
100
AcDbEntity
  8
1
  6
Continuous
 62
     7
100
AcDbLine
 10
278.4174445710586
 20
608.6614610364331
 30
0.0
 11
277.2550486794307
 21
608.6614610364331
 31
0.0
  0
LINE
  5
1E5
330
5F
100
AcDbEntity
  8
1
  6
Continuous
 62
     7
100
AcDbLine
 10
277.2550486794307
 20
608.6614610364331
 30
0.0
 11
277.362271823822
 21
613.6614610364331
 31
0.0
  0
LINE
  5
1E6
330
5F
100
AcDbEntity
  8
1
  6
Continuous
 62
     7
100
AcDbLine
 10
297.8000000000003
 20
606.5527851839609
 30
0.0
 11
297.8000000000003
 21
553.2066256559657
 31
0.0
  0
LINE
  5
1E7
330
5F
100
AcDbEntity
  8
1
  6
Continuous
 62
     2
100
AcDbLine
 10
296.5825554289415
 20
216.6614610364332
 30
0.0
 11
297.8000000000003
 21
218.7701368889056
 31
0.0
  0
LINE
  5
1E8
330
5F
100
AcDbEntity
  8
1
  6
Continuous
 62
     2
100
AcDbLine
 10
296.5825554289415
 20
216.6614610364332
 30
0.0
 11
296.2431114463715
 21
202.6614610364332
 31
0.0
  0
LINE
  5
1E9
330
5F
100
AcDbEntity
  8
1
  6
Continuous
 62
     7
100
AcDbLine
 10
297.8000000000003
 20
218.7701368889056
 30
0.0
 11
297.7449513205696
 21
216.6614610364332
 31
0.0
  0
LINE
  5
1EA
330
5F
100
AcDbEntity
  8
1
  6
Continuous
 62
     7
100
AcDbLine
 10
297.4696087605345
 20
203.8217629657329
 30
0.0
 11
296.2448120021526
 21
202.6614610364332
 31
0.0
  0
LINE
  5
1EB
330
5F
100
AcDbEntity
  8
1
  6
Continuous
 62
     7
100
AcDbLine
 10
277.2550486794305
 20
216.6614610364332
 30
0.0
 11
297.7449513205696
 21
216.6614610364332
 31
0.0
  0
LINE
  5
1EC
330
5F
100
AcDbEntity
  8
1
  6
Continuous
 62
     7
100
AcDbLine
 10
297.7449513205696
 20
216.6614610364332
 30
0.0
 11
297.4696087605345
 21
203.8217629657329
 31
0.0
  0
LINE
  5
1ED
330
5F
100
AcDbEntity
  8
1
  6
Continuous
 62
     7
100
AcDbLine
 10
296.2431114463715
 20
202.6614610364332
 30
0.0
 11
296.2448120021526
 21
202.6614610364332
 31
0.0
  0
LINE
  5
1EE
330
5F
100
AcDbEntity
  8
1
  6
Continuous
 62
     7
100
AcDbLine
 10
277.1999999999999
 20
218.7701368889056
 30
0.0
 11
277.1999999999999
 21
221.395831829962
 31
0.0
  0
LINE
  5
1EF
330
5F
100
AcDbEntity
  8
1
  6
Continuous
 62
     7
100
AcDbLine
 10
278.7551879978477
 20
202.6614610364332
 30
0.0
 11
278.7568885536286
 21
202.6614610364332
 31
0.0
  0
LINE
  5
1F0
330
5F
100
AcDbEntity
  8
1
  6
Continuous
 62
     7
100
AcDbLine
 10
278.7568885536286
 20
202.6614610364332
 30
0.0
 11
296.2431114463715
 21
202.6614610364332
 31
0.0
  0
LINE
  5
1F1
330
5F
100
AcDbEntity
  8
1
  6
Continuous
 62
     7
100
AcDbLine
 10
277.5303912394658
 20
203.8217629657329
 30
0.0
 11
277.2550486794305
 21
216.6614610364332
 31
0.0
  0
LINE
  5
1F2
330
5F
100
AcDbEntity
  8
1
  6
Continuous
 62
     7
100
AcDbLine
 10
277.2550486794305
 20
216.6614610364332
 30
0.0
 11
278.4174445710586
 21
216.6614610364332
 31
0.0
  0
LINE
  5
1F3
330
5F
100
AcDbEntity
  8
1
  6
Continuous
 62
     7
100
AcDbLine
 10
278.7551879978477
 20
202.6614610364332
 30
0.0
 11
277.5303912394658
 21
203.8217629657329
 31
0.0
  0
LINE
  5
1F4
330
5F
100
AcDbEntity
  8
1
  6
Continuous
 62
     7
100
AcDbLine
 10
277.2550486794305
 20
216.6614610364332
 30
0.0
 11
277.1999999999999
 21
218.7701368889056
 31
0.0
  0
LINE
  5
1F5
330
5F
100
AcDbEntity
  8
1
  6
Continuous
 62
     2
100
AcDbLine
 10
278.7568885536286
 20
202.6614610364332
 30
0.0
 11
278.4174445710586
 21
216.6614610364332
 31
0.0
  0
LINE
  5
1F6
330
5F
100
AcDbEntity
  8
1
  6
Continuous
 62
     2
100
AcDbLine
 10
277.1999999999999
 20
218.7701368889056
 30
0.0
 11
278.4174445710586
 21
216.6614610364332
 31
0.0
  0
LINE
  5
1F7
330
5F
100
AcDbEntity
  8
1
  6
Continuous
 62
     7
100
AcDbLine
 10
297.8000000000003
 20
553.2066256559657
 30
0.0
 11
297.8000000000003
 21
237.3958318299619
 31
0.0
  0
LINE
  5
1F8
330
5F
100
AcDbEntity
  8
1
  6
Continuous
 62
     7
100
AcDbLine
 10
277.2000000000001
 20
552.0416638733019
 30
0.0
 11
277.1999999999999
 21
606.5527851839609
 31
0.0
  0
LINE
  5
1F9
330
5F
100
AcDbEntity
  8
1
  6
Continuous
 62
     7
100
AcDbLine
 10
277.5303912394658
 20
203.8217629657329
 30
0.0
 11
297.4696087605345
 21
203.8217629657329
 31
0.0
  0
LINE
  5
1FA
330
5F
100
AcDbEntity
  8
1
  6
Continuous
 62
     7
100
AcDbLine
 10
297.8000000000003
 20
221.395831829962
 30
0.0
 11
297.8000000000003
 21
218.7701368889056
 31
0.0
  0
LINE
  5
1FB
330
5F
100
AcDbEntity
  8
1
  6
Continuous
 62
     7
100
AcDbLine
 10
277.2000000000002
 20
237.3958318299619
 30
0.0
 11
277.2000000000001
 21
550.0416638733019
 31
0.0
  0
LINE
  5
1FC
330
5F
100
AcDbEntity
  8
1
  6
Continuous
 62
     7
100
AcDbLine
 10
437.2000000000001
 20
237.395831829962
 30
0.0
 11
437.1999999999999
 21
552.0416638733019
 31
0.0
  0
LINE
  5
1FD
330
5F
100
AcDbEntity
  8
1
  6
Continuous
 62
     7
100
AcDbLine
 10
457.8000000000002
 20
221.395831829962
 30
0.0
 11
457.8000000000002
 21
218.7701368889056
 31
0.0
  0
LINE
  5
1FE
330
5F
100
AcDbEntity
  8
1
  6
Continuous
 62
     7
100
AcDbLine
 10
437.5303912394658
 20
203.8217629657329
 30
0.0
 11
457.4696087605345
 21
203.8217629657329
 31
0.0
  0
LINE
  5
1FF
330
5F
100
AcDbEntity
  8
1
  6
Continuous
 62
     7
100
AcDbLine
 10
437.1999999999999
 20
552.0416638733019
 30
0.0
 11
437.1999999999999
 21
606.5527851839609
 31
0.0
  0
LINE
  5
200
330
5F
100
AcDbEntity
  8
1
  6
Continuous
 62
     7
100
AcDbLine
 10
457.8000000000002
 20
553.2066256559657
 30
0.0
 11
457.8
 21
237.3958318299621
 31
0.0
  0
LINE
  5
201
330
5F
100
AcDbEntity
  8
1
  6
Continuous
 62
     2
100
AcDbLine
 10
437.1999999999999
 20
218.7701368889056
 30
0.0
 11
438.4174445710586
 21
216.6614610364332
 31
0.0
  0
LINE
  5
202
330
5F
100
AcDbEntity
  8
1
  6
Continuous
 62
     2
100
AcDbLine
 10
438.7568885536286
 20
202.6614610364332
 30
0.0
 11
438.4174445710586
 21
216.6614610364332
 31
0.0
  0
LINE
  5
203
330
5F
100
AcDbEntity
  8
1
  6
Continuous
 62
     7
100
AcDbLine
 10
437.2550486794305
 20
216.6614610364332
 30
0.0
 11
437.1999999999999
 21
218.7701368889056
 31
0.0
  0
LINE
  5
204
330
5F
100
AcDbEntity
  8
1
  6
Continuous
 62
     7
100
AcDbLine
 10
438.7551879978477
 20
202.6614610364332
 30
0.0
 11
437.5303912394658
 21
203.8217629657329
 31
0.0
  0
LINE
  5
205
330
5F
100
AcDbEntity
  8
1
  6
Continuous
 62
     7
100
AcDbLine
 10
437.2550486794305
 20
216.6614610364332
 30
0.0
 11
438.4174445710586
 21
216.6614610364332
 31
0.0
  0
LINE
  5
206
330
5F
100
AcDbEntity
  8
1
  6
Continuous
 62
     7
100
AcDbLine
 10
437.5303912394658
 20
203.8217629657329
 30
0.0
 11
437.2550486794305
 21
216.6614610364332
 31
0.0
  0
LINE
  5
207
330
5F
100
AcDbEntity
  8
1
  6
Continuous
 62
     7
100
AcDbLine
 10
438.7568885536286
 20
202.6614610364332
 30
0.0
 11
456.2431114463715
 21
202.6614610364332
 31
0.0
  0
LINE
  5
208
330
5F
100
AcDbEntity
  8
1
  6
Continuous
 62
     7
100
AcDbLine
 10
438.7551879978477
 20
202.6614610364332
 30
0.0
 11
438.7568885536286
 21
202.6614610364332
 31
0.0
  0
LINE
  5
209
330
5F
100
AcDbEntity
  8
1
  6
Continuous
 62
     7
100
AcDbLine
 10
437.1999999999999
 20
218.7701368889056
 30
0.0
 11
437.1999999999999
 21
221.395831829962
 31
0.0
  0
LINE
  5
20A
330
5F
100
AcDbEntity
  8
1
  6
Continuous
 62
     7
100
AcDbLine
 10
456.2431114463715
 20
202.6614610364332
 30
0.0
 11
456.2448120021526
 21
202.6614610364332
 31
0.0
  0
LINE
  5
20B
330
5F
100
AcDbEntity
  8
1
  6
Continuous
 62
     7
100
AcDbLine
 10
457.7449513205695
 20
216.6614610364332
 30
0.0
 11
457.4696087605345
 21
203.8217629657329
 31
0.0
  0
LINE
  5
20C
330
5F
100
AcDbEntity
  8
1
  6
Continuous
 62
     7
100
AcDbLine
 10
437.2550486794305
 20
216.6614610364332
 30
0.0
 11
457.7449513205695
 21
216.6614610364332
 31
0.0
  0
LINE
  5
20D
330
5F
100
AcDbEntity
  8
1
  6
Continuous
 62
     7
100
AcDbLine
 10
457.4696087605345
 20
203.8217629657329
 30
0.0
 11
456.2448120021526
 21
202.6614610364332
 31
0.0
  0
LINE
  5
20E
330
5F
100
AcDbEntity
  8
1
  6
Continuous
 62
     7
100
AcDbLine
 10
457.8000000000002
 20
218.7701368889056
 30
0.0
 11
457.7449513205695
 21
216.6614610364332
 31
0.0
  0
LINE
  5
20F
330
5F
100
AcDbEntity
  8
1
  6
Continuous
 62
     2
100
AcDbLine
 10
456.5825554289415
 20
216.6614610364332
 30
0.0
 11
456.2431114463715
 21
202.6614610364332
 31
0.0
  0
LINE
  5
210
330
5F
100
AcDbEntity
  8
1
  6
Continuous
 62
     2
100
AcDbLine
 10
456.5825554289415
 20
216.6614610364332
 30
0.0
 11
457.8000000000002
 21
218.7701368889056
 31
0.0
  0
LINE
  5
211
330
5F
100
AcDbEntity
  8
1
  6
Continuous
 62
     7
100
AcDbLine
 10
457.8000000000002
 20
606.5527851839609
 30
0.0
 11
457.8000000000002
 21
553.2066256559657
 31
0.0
  0
LINE
  5
212
330
5F
100
AcDbEntity
  8
1
  6
Continuous
 62
     7
100
AcDbLine
 10
437.2550486794307
 20
608.6614610364331
 30
0.0
 11
437.3622718238219
 21
613.6614610364331
 31
0.0
  0
LINE
  5
213
330
5F
100
AcDbEntity
  8
1
  6
Continuous
 62
     7
100
AcDbLine
 10
438.4174445710586
 20
608.6614610364331
 30
0.0
 11
437.2550486794307
 21
608.6614610364331
 31
0.0
  0
LINE
  5
214
330
5F
100
AcDbEntity
  8
1
  6
Continuous
 62
     7
100
AcDbLine
 10
437.1999999999999
 20
606.5527851839609
 30
0.0
 11
437.2550486794307
 21
608.6614610364331
 31
0.0
  0
LINE
  5
215
330
5F
100
AcDbEntity
  8
1
  6
Continuous
 62
     2
100
AcDbLine
 10
438.4174445710586
 20
608.6614610364331
 30
0.0
 11
438.5386745648336
 21
613.6614610364331
 31
0.0
  0
LINE
  5
216
330
5F
100
AcDbEntity
  8
1
  6
Continuous
 62
     2
100
AcDbLine
 10
438.4174445710586
 20
608.6614610364331
 30
0.0
 11
437.1999999999999
 21
606.5527851839609
 31
0.0
  0
LINE
  5
217
330
5F
100
AcDbEntity
  8
1
  6
Continuous
 62
     2
100
AcDbLine
 10
457.8000000000002
 20
606.5527851839609
 30
0.0
 11
456.5825554289415
 21
608.6614610364331
 31
0.0
  0
LINE
  5
218
330
5F
100
AcDbEntity
  8
1
  6
Continuous
 62
     7
100
AcDbLine
 10
457.7449513205695
 20
608.6614610364331
 30
0.0
 11
457.8000000000002
 21
606.5527851839609
 31
0.0
  0
LINE
  5
219
330
5F
100
AcDbEntity
  8
1
  6
Continuous
 62
     7
100
AcDbLine
 10
457.7449513205695
 20
608.6614610364331
 30
0.0
 11
438.4174445710586
 21
608.6614610364331
 31
0.0
  0
LINE
  5
21A
330
5F
100
AcDbEntity
  8
1
  6
PHANTOM
 62
     4
100
AcDbLine
 10
447.5
 20
625.6614610364331
 30
0.0
 11
447.5
 21
199.6614610364332
 31
0.0
  0
LINE
  5
21B
330
5F
100
AcDbEntity
  8
1
  6
Continuous
 62
     7
100
AcDbLine
 10
277.2000000000001
 20
552.0416638733019
 30
0.0
 11
277.2000000000001
 21
550.0416638733019
 31
0.0
  0
LINE
  5
21C
330
5F
100
AcDbEntity
  8
1
  6
Continuous
 62
     2
100
AcDbLine
 10
456.4613254351665
 20
613.6614610364331
 30
0.0
 11
456.5825554289415
 21
608.6614610364331
 31
0.0
  0
LINE
  5
21D
330
5F
100
AcDbEntity
  8
1
  6
Continuous
 62
     7
100
AcDbLine
 10
457.6377281761783
 20
613.6614610364331
 30
0.0
 11
457.7449513205695
 21
608.6614610364331
 31
0.0
  0
LINE
  5
21E
330
5F
100
AcDbEntity
  8
1
  6
Continuous
 62
     2
100
AcDbLine
 10
296.4613254351665
 20
613.6614610364331
 30
0.0
 11
296.5825554289415
 21
608.6614610364331
 31
0.0
  0
LINE
  5
21F
330
5F
100
AcDbEntity
  8
1
  6
Continuous
 62
     7
100
AcDbLine
 10
297.6377281761782
 20
613.6614610364331
 30
0.0
 11
297.7449513205696
 21
608.6614610364331
 31
0.0
  0
ENDBLK
  5
61
330
5F
100
AcDbEntity
  8
0
100
AcDbBlockEnd
  0
BLOCK
  5
246
330
23D
100
AcDbEntity
  8
0
100
AcDbBlockBegin
  2
*D10
 70
     1
 10
0.0
 20
0.0
 30
0.0
  3
*D10
  1

  0
LINE
  5
23E
330
23D
100
AcDbEntity
  8
1
  6
Continuous
 62
     2
100
AcDbLine
 10
416.6499999999999
 20
915.661461036433
 30
0.0
 11
441.1499999999999
 21
915.661461036433
 31
0.0
  0
LINE
  5
23F
330
23D
100
AcDbEntity
  8
1
  6
Continuous
 62
     2
100
AcDbLine
 10
441.1499999999999
 20
915.661461036433
 30
0.0
 11
453.8500000000001
 21
915.661461036433
 31
0.0
  0
LINE
  5
240
330
23D
100
AcDbEntity
  8
1
  6
Continuous
 62
     2
100
AcDbLine
 10
453.8500000000001
 20
915.661461036433
 30
0.0
 11
478.3500000000001
 21
915.661461036433
 31
0.0
  0
LINE
  5
241
330
23D
100
AcDbEntity
  8
1
  6
Continuous
 62
     2
100
AcDbLine
 10
453.8500000000001
 20
880.6614610364331
 30
0.0
 11
453.8500000000001
 21
919.161461036433
 31
0.0
  0
LINE
  5
242
330
23D
100
AcDbEntity
  8
1
  6
Continuous
 62
     2
100
AcDbLine
 10
441.1499999999999
 20
880.6614610364331
 30
0.0
 11
441.1499999999999
 21
919.161461036433
 31
0.0
  0
SOLID
  5
243
330
23D
100
AcDbEntity
  8
1
 62
     2
100
AcDbTrace
 10
428.8999999999999
 20
914.0487179409874
 30
0.0
 11
428.8999999999999
 21
917.2742041318786
 31
0.0
 12
441.1499999999999
 22
915.661461036433
 32
0.0
 13
441.1499999999999
 23
915.661461036433
 33
0.0
  0
SOLID
  5
244
330
23D
100
AcDbEntity
  8
1
 62
     2
100
AcDbTrace
 10
466.1000000000001
 20
917.2742041318786
 30
0.0
 11
466.1000000000001
 21
914.0487179409874
 31
0.0
 12
453.8500000000001
 22
915.661461036433
 32
0.0
 13
453.8500000000001
 23
915.661461036433
 33
0.0
  0
MTEXT
  5
245
330
23D
100
AcDbEntity
  8
1
 62
     7
100
AcDbMText
 10
426.3687499999999
 20
920.3864610364329
 30
0.0
 40
12.25
 41
0.0
 71
     7
 72
     1
  1
{\Fgdt;n}12,7
  7
CONVERTER_12
 11
0.9999999999970619
 21
2.424068405545306E-6
 31
0.0
 73
     1
 44
0.60024009603842
  0
ENDBLK
  5
247
330
23D
100
AcDbEntity
  8
0
100
AcDbBlockEnd
  0
BLOCK
  5
253
330
24A
100
AcDbEntity
  8
0
100
AcDbBlockBegin
  2
*D11
 70
     1
 10
0.0
 20
0.0
 30
0.0
  3
*D11
  1

  0
LINE
  5
24B
330
24A
100
AcDbEntity
  8
1
  6
Continuous
 62
     2
100
AcDbLine
 10
243.2787693304801
 20
696.3968817800979
 30
0.0
 11
267.7787693304801
 21
696.3968817800979
 31
0.0
  0
LINE
  5
24C
330
24A
100
AcDbEntity
  8
1
  6
Continuous
 62
     2
100
AcDbLine
 10
267.7787693304801
 20
696.3968817800979
 30
0.0
 11
290.7787693304801
 21
696.3968817800979
 31
0.0
  0
LINE
  5
24D
330
24A
100
AcDbEntity
  8
1
  6
Continuous
 62
     2
100
AcDbLine
 10
290.7787693304801
 20
696.3968817800979
 30
0.0
 11
315.2787693304801
 21
696.3968817800979
 31
0.0
  0
LINE
  5
24E
330
24A
100
AcDbEntity
  8
1
  6
Continuous
 62
     2
100
AcDbLine
 10
299.0000000000001
 20
682.1572925597459
 30
0.0
 11
289.0287693304801
 21
699.4279706933435
 31
0.0
  0
LINE
  5
24F
330
24A
100
AcDbEntity
  8
1
  6
Continuous
 62
     2
100
AcDbLine
 10
276.0000000000001
 20
682.1572925597459
 30
0.0
 11
266.0287693304801
 21
699.4279706933435
 31
0.0
  0
SOLID
  5
250
330
24A
100
AcDbEntity
  8
1
 62
     2
100
AcDbTrace
 10
255.5287693304801
 20
694.7841386846524
 30
0.0
 11
255.5287693304801
 21
698.0096248755435
 31
0.0
 12
267.7787693304801
 22
696.3968817800979
 32
0.0
 13
267.7787693304801
 23
696.3968817800979
 33
0.0
  0
SOLID
  5
251
330
24A
100
AcDbEntity
  8
1
 62
     2
100
AcDbTrace
 10
303.0287693304801
 20
698.0096248755435
 30
0.0
 11
303.0287693304801
 21
694.7841386846524
 31
0.0
 12
290.7787693304801
 22
696.3968817800979
 32
0.0
 13
290.7787693304801
 23
696.3968817800979
 33
0.0
  0
MTEXT
  5
252
330
24A
100
AcDbEntity
  8
1
 62
     7
100
AcDbMText
 10
243.508431172997
 20
699.8968817800979
 30
0.0
 40
12.25
 41
0.0
 71
     7
 72
     1
  1
23
  7
CONVERTER_12
 11
0.9999999999970619
 21
2.424068405545306E-6
 31
0.0
 73
     1
 44
0.60024009603842
  0
ENDBLK
  5
254
330
24A
100
AcDbEntity
  8
0
100
AcDbBlockEnd
  0
BLOCK
  5
260
330
257
100
AcDbEntity
  8
0
100
AcDbBlockBegin
  2
*D12
 70
     1
 10
0.0
 20
0.0
 30
0.0
  3
*D12
  1

  0
LINE
  5
258
330
257
100
AcDbEntity
  8
1
  6
Continuous
 62
     2
100
AcDbLine
 10
418.9733702870191
 20
598.3691277841872
 30
0.0
 11
443.4733702870191
 21
598.3691277841872
 31
0.0
  0
LINE
  5
259
330
257
100
AcDbEntity
  8
1
  6
Continuous
 62
     2
100
AcDbLine
 10
443.4733702870191
 20
598.3691277841872
 30
0.0
 11
469.4733702870191
 21
598.3691277841872
 31
0.0
  0
LINE
  5
25A
330
257
100
AcDbEntity
  8
1
  6
Continuous
 62
     2
100
AcDbLine
 10
469.4733702870191
 20
598.3691277841872
 30
0.0
 11
493.9733702870191
 21
598.3691277841872
 31
0.0
  0
LINE
  5
25B
330
257
100
AcDbEntity
  8
1
  6
Continuous
 62
     2
100
AcDbLine
 10
460.5
 20
613.9114610364331
 30
0.0
 11
471.2233702870191
 21
595.3380388709417
 31
0.0
  0
LINE
  5
25C
330
257
100
AcDbEntity
  8
1
  6
Continuous
 62
     2
100
AcDbLine
 10
434.5
 20
613.9114610364331
 30
0.0
 11
445.2233702870191
 21
595.3380388709417
 31
0.0
  0
SOLID
  5
25D
330
257
100
AcDbEntity
  8
1
 62
     2
100
AcDbTrace
 10
431.2233702870191
 20
596.7563846887416
 30
0.0
 11
431.2233702870191
 21
599.9818708796328
 31
0.0
 12
443.4733702870191
 22
598.3691277841872
 32
0.0
 13
443.4733702870191
 23
598.3691277841872
 33
0.0
  0
SOLID
  5
25E
330
257
100
AcDbEntity
  8
1
 62
     2
100
AcDbTrace
 10
481.7233702870191
 20
599.9818708796328
 30
0.0
 11
481.7233702870191
 21
596.7563846887416
 31
0.0
 12
469.4733702870191
 22
598.3691277841872
 32
0.0
 13
469.4733702870191
 23
598.3691277841872
 33
0.0
  0
MTEXT
  5
25F
330
257
100
AcDbEntity
  8
1
 62
     7
100
AcDbMText
 10
470.3675402171966
 20
601.8691277841872
 30
0.0
 40
12.25
 41
0.0
 71
     7
 72
     1
  1
26
  7
CONVERTER_12
 11
0.9999999999970619
 21
2.424068405545306E-6
 31
0.0
 73
     1
 44
0.60024009603842
  0
ENDBLK
  5
261
330
257
100
AcDbEntity
  8
0
100
AcDbBlockEnd
  0
BLOCK
  5
26D
330
264
100
AcDbEntity
  8
0
100
AcDbBlockBegin
  2
*D13
 70
     1
 10
0.0
 20
0.0
 30
0.0
  3
*D13
  1

  0
LINE
  5
265
330
264
100
AcDbEntity
  8
1
  6
Continuous
 62
     2
100
AcDbLine
 10
382.5
 20
261.895831829962
 30
0.0
 11
382.5
 21
237.395831829962
 31
0.0
  0
LINE
  5
266
330
264
100
AcDbEntity
  8
1
  6
Continuous
 62
     2
100
AcDbLine
 10
382.5
 20
237.395831829962
 30
0.0
 11
382.5
 21
221.395831829962
 31
0.0
  0
LINE
  5
267
330
264
100
AcDbEntity
  8
1
  6
Continuous
 62
     2
100
AcDbLine
 10
382.5
 20
221.395831829962
 30
0.0
 11
382.5
 21
196.895831829962
 31
0.0
  0
LINE
  5
268
330
264
100
AcDbEntity
  8
1
  6
Continuous
 62
     2
100
AcDbLine
 10
417.5000000000001
 20
221.395831829962
 30
0.0
 11
379.0
 21
221.395831829962
 31
0.0
  0
LINE
  5
269
330
264
100
AcDbEntity
  8
1
  6
Continuous
 62
     2
100
AcDbLine
 10
435.2958315233127
 20
237.395831829962
 30
0.0
 11
379.0
 21
237.395831829962
 31
0.0
  0
SOLID
  5
26A
330
264
100
AcDbEntity
  8
1
 62
     2
100
AcDbTrace
 10
380.8872569045544
 20
249.645831829962
 30
0.0
 11
384.1127430954456
 21
249.645831829962
 31
0.0
 12
382.5
 22
237.395831829962
 32
0.0
 13
382.5
 23
237.395831829962
 33
0.0
  0
SOLID
  5
26B
330
264
100
AcDbEntity
  8
1
 62
     2
100
AcDbTrace
 10
384.1127430954456
 20
209.145831829962
 30
0.0
 11
380.8872569045544
 21
209.145831829962
 31
0.0
 12
382.5
 22
221.395831829962
 32
0.0
 13
382.5
 23
221.395831829962
 33
0.0
  0
MTEXT
  5
26C
330
264
100
AcDbEntity
  8
1
 62
     7
100
AcDbMText
 10
379.0
 20
222.045831829962
 30
0.0
 40
12.25
 41
0.0
 71
     7
 72
     1
  1
16
  7
CONVERTER_12
 11
0.0
 21
1.0
 31
0.0
 73
     1
 44
0.60024009603842
  0
ENDBLK
  5
26E
330
264
100
AcDbEntity
  8
0
100
AcDbBlockEnd
  0
BLOCK
  5
278
330
271
100
AcDbEntity
  8
0
100
AcDbBlockBegin
  2
*D14
 70
     1
 10
0.0
 20
0.0
 30
0.0
  3
*D14
  1

  0
LINE
  5
272
330
271
100
AcDbEntity
  8
1
  6
Continuous
 62
     2
100
AcDbLine
 10
417.5000000000001
 20
168.8217629657327
 30
0.0
 11
477.4999999999999
 21
168.8217629657327
 31
0.0
  0
LINE
  5
273
330
271
100
AcDbEntity
  8
1
  6
Continuous
 62
     2
100
AcDbLine
 10
477.4999999999999
 20
221.3958318299619
 30
0.0
 11
477.4999999999999
 21
165.3217629657327
 31
0.0
  0
LINE
  5
274
330
271
100
AcDbEntity
  8
1
  6
Continuous
 62
     2
100
AcDbLine
 10
417.5000000000001
 20
221.3958318299619
 30
0.0
 11
417.5000000000001
 21
165.3217629657327
 31
0.0
  0
SOLID
  5
275
330
271
100
AcDbEntity
  8
1
 62
     2
100
AcDbTrace
 10
429.7500000000001
 20
170.4345060611783
 30
0.0
 11
429.7500000000001
 21
167.2090198702871
 31
0.0
 12
417.5000000000001
 22
168.8217629657327
 32
0.0
 13
417.5000000000001
 23
168.8217629657327
 33
0.0
  0
SOLID
  5
276
330
271
100
AcDbEntity
  8
1
 62
     2
100
AcDbTrace
 10
465.2499999999999
 20
167.2090198702871
 30
0.0
 11
465.2499999999999
 21
170.4345060611783
 31
0.0
 12
477.4999999999999
 22
168.8217629657327
 32
0.0
 13
477.4999999999999
 23
168.8217629657327
 33
0.0
  0
MTEXT
  5
277
330
271
100
AcDbEntity
  8
1
 62
     7
100
AcDbMText
 10
432.1874999999999
 20
172.3217629657327
 30
0.0
 40
12.25
 41
0.0
 71
     7
 72
     1
  1
{\Fgdt;n}60
  7
CONVERTER_12
 11
0.9999999999970619
 21
2.424068405545306E-6
 31
0.0
 73
     1
 44
0.60024009603842
  0
ENDBLK
  5
279
330
271
100
AcDbEntity
  8
0
100
AcDbBlockEnd
  0
BLOCK
  5
284
330
27C
100
AcDbEntity
  8
0
100
AcDbBlockBegin
  2
*D15
 70
     1
 10
0.0
 20
0.0
 30
0.0
  3
*D15
  1

  0
LINE
  5
27D
330
27C
100
AcDbEntity
  8
1
  6
Continuous
 62
     2
100
AcDbLine
 10
329.0000986760872
 20
592.041434685247
 30
0.0
 11
399.20187119942
 21
592.041434685247
 31
0.0
  0
LINE
  5
27E
330
27C
100
AcDbEntity
  8
1
  6
Continuous
 62
     2
100
AcDbLine
 10
287.5000000000001
 20
592.041434685247
 30
0.0
 11
329.0000986760872
 21
592.041434685247
 31
0.0
  0
LINE
  5
27F
330
27C
100
AcDbEntity
  8
1
  6
Continuous
 62
     2
100
AcDbLine
 10
329.0000986760872
 20
644.9114610364331
 30
0.0
 11
329.0000986760872
 21
588.541434685247
 31
0.0
  0
LINE
  5
280
330
27C
100
AcDbEntity
  8
1
  6
Continuous
 62
     2
100
AcDbLine
 10
287.5000000000001
 20
613.6614610364331
 30
0.0
 11
287.5000000000001
 21
588.541434685247
 31
0.0
  0
SOLID
  5
281
330
27C
100
AcDbEntity
  8
1
 62
     2
100
AcDbTrace
 10
299.7500000000001
 20
593.6541777806926
 30
0.0
 11
299.7500000000001
 21
590.4286915898015
 31
0.0
 12
287.5000000000001
 22
592.041434685247
 32
0.0
 13
287.5000000000001
 23
592.041434685247
 33
0.0
  0
SOLID
  5
282
330
27C
100
AcDbEntity
  8
1
 62
     2
100
AcDbTrace
 10
316.7500986760872
 20
590.4286915898015
 30
0.0
 11
316.7500986760872
 21
593.6541777806926
 31
0.0
 12
329.0000986760872
 22
592.041434685247
 32
0.0
 13
329.0000986760872
 23
592.041434685247
 33
0.0
  0
MTEXT
  5
283
330
27C
100
AcDbEntity
  8
1
 62
     7
100
AcDbMText
 10
333.05187119942
 20
595.541434685247
 30
0.0
 40
12.25
 41
0.0
 71
     7
 72
     1
  1
42リフト5
  7
CONVERTER_11
 11
0.9999999999970619
 21
2.424068405545306E-6
 31
0.0
 73
     1
 44
0.45454545454545
  0
ENDBLK
  5
285
330
27C
100
AcDbEntity
  8
0
100
AcDbBlockEnd
  0
BLOCK
  5
28F
330
288
100
AcDbEntity
  8
0
100
AcDbBlockBegin
  2
*D16
 70
     1
 10
0.0
 20
0.0
 30
0.0
  3
*D16
  1

  0
LINE
  5
289
330
288
100
AcDbEntity
  8
1
  6
Continuous
 62
     2
100
AcDbLine
 10
495.4999999999999
 20
648.6614610364331
 30
0.0
 11
495.4999999999999
 21
202.661461036433
 31
0.0
  0
LINE
  5
28A
330
288
100
AcDbEntity
  8
1
  6
Continuous
 62
     2
100
AcDbLine
 10
456.2448120021525
 20
202.661461036433
 30
0.0
 11
498.9999999999999
 21
202.661461036433
 31
0.0
  0
LINE
  5
28B
330
288
100
AcDbEntity
  8
1
  6
Continuous
 62
     2
100
AcDbLine
 10
464.4999999999999
 20
648.6614610364331
 30
0.0
 11
498.9999999999999
 21
648.6614610364331
 31
0.0
  0
SOLID
  5
28C
330
288
100
AcDbEntity
  8
1
 62
     2
100
AcDbTrace
 10
497.1127430954455
 20
636.4114610364331
 30
0.0
 11
493.8872569045543
 21
636.4114610364331
 31
0.0
 12
495.4999999999999
 22
648.6614610364331
 32
0.0
 13
495.4999999999999
 23
648.6614610364331
 33
0.0
  0
SOLID
  5
28D
330
288
100
AcDbEntity
  8
1
 62
     2
100
AcDbTrace
 10
493.8872569045543
 20
214.911461036433
 30
0.0
 11
497.1127430954455
 21
214.911461036433
 31
0.0
 12
495.4999999999999
 22
202.661461036433
 32
0.0
 13
495.4999999999999
 23
202.661461036433
 33
0.0
  0
MTEXT
  5
28E
330
288
100
AcDbEntity
  8
1
 62
     7
100
AcDbMText
 10
491.9999999999999
 20
410.9614610364331
 30
0.0
 40
12.25
 41
0.0
 71
     7
 72
     1
  1
446
  7
CONVERTER_12
 11
0.0
 21
1.0
 31
0.0
 73
     1
 44
0.60024009603842
  0
ENDBLK
  5
290
330
288
100
AcDbEntity
  8
0
100
AcDbBlockEnd
  0
BLOCK
  5
29A
330
293
100
AcDbEntity
  8
0
100
AcDbBlockBegin
  2
*D17
 70
     1
 10
0.0
 20
0.0
 30
0.0
  3
*D17
  1

  0
LINE
  5
294
330
293
100
AcDbEntity
  8
1
  6
Continuous
 62
     2
100
AcDbLine
 10
495.4999999999999
 20
648.6614610364331
 30
0.0
 11
495.4999999999999
 21
880.6614610364331
 31
0.0
  0
LINE
  5
295
330
293
100
AcDbEntity
  8
1
  6
Continuous
 62
     2
100
AcDbLine
 10
453.8500000000001
 20
880.6614610364331
 30
0.0
 11
498.9999999999999
 21
880.6614610364331
 31
0.0
  0
LINE
  5
296
330
293
100
AcDbEntity
  8
1
  6
Continuous
 62
     2
100
AcDbLine
 10
464.4999999999999
 20
648.6614610364331
 30
0.0
 11
498.9999999999999
 21
648.6614610364331
 31
0.0
  0
SOLID
  5
297
330
293
100
AcDbEntity
  8
1
 62
     2
100
AcDbTrace
 10
493.8872569045543
 20
660.9114610364331
 30
0.0
 11
497.1127430954455
 21
660.9114610364331
 31
0.0
 12
495.4999999999999
 22
648.6614610364331
 32
0.0
 13
495.4999999999999
 23
648.6614610364331
 33
0.0
  0
SOLID
  5
298
330
293
100
AcDbEntity
  8
1
 62
     2
100
AcDbTrace
 10
497.1127430954455
 20
868.4114610364331
 30
0.0
 11
493.8872569045543
 21
868.4114610364331
 31
0.0
 12
495.4999999999999
 22
880.6614610364331
 32
0.0
 13
495.4999999999999
 23
880.6614610364331
 33
0.0
  0
MTEXT
  5
299
330
293
100
AcDbEntity
  8
1
 62
     7
100
AcDbMText
 10
491.9999999999999
 20
749.9614610364331
 30
0.0
 40
12.25
 41
0.0
 71
     7
 72
     1
  1
232
  7
CONVERTER_12
 11
0.0
 21
1.0
 31
0.0
 73
     1
 44
0.60024009603842
  0
ENDBLK
  5
29B
330
293
100
AcDbEntity
  8
0
100
AcDbBlockEnd
  0
ENDSEC
  0
SECTION
  2
ENTITIES
  0
INSERT
  5
62
330
1F
100
AcDbEntity
  8
1
100
AcDbBlockReference
  2
91-1
 10
289.0000000000001
 20
938.1556438311992
 30
0.0
  0
INSERT
  5
63
330
1F
100
AcDbEntity
  8
1
100
AcDbBlockReference
  2
開示A4
 10
0.0
 20
0.0
 30
0.0
 41
3.5
 42
3.5
 43
3.5
  0
INSERT
  5
64
330
1F
100
AcDbEntity
  8
0
100
AcDbBlockReference
  2
32-12-M2
 10
363.5356166437393
 20
709.7040673785477
 30
0.0
  0
INSERT
  5
65
330
1F
100
AcDbEntity
  8
0
100
AcDbBlockReference
  2
65-11-12_7-200
 10
277.5000000000001
 20
652.2743666869549
 30
0.0
  0
INSERT
  5
66
330
1F
100
AcDbEntity
  8
0
100
AcDbBlockReference
  2
78-167
 10
329.905635121297
 20
1538.191566552457
 30
0.0
  0
INSERT
  5
67
330
1F
100
AcDbEntity
  8
1
100
AcDbBlockReference
  2
V21-2-0A-13-M1
 10
349.7691410709857
 20
1864.0
 30
0.0
  0
INSERT
  5
68
330
1F
100
AcDbEntity
  8
0
100
AcDbBlockReference
  2
37-1-13
 10
170.0042941098555
 20
740.4626912532042
 30
0.0
  0
INSERT
  5
69
330
1F
100
AcDbEntity
  8
0
100
AcDbBlockReference
  2
36-3-13
 10
728.0856293018958
 20
772.5755686352118
 30
0.0
  0
INSERT
  5
6A
330
1F
100
AcDbEntity
  8
1
100
AcDbBlockReference
  2
64-7-13-420-M11
 10
156.0932952296899
 20
2295.233715385479
 30
0.0
  0
LINE
  5
220
330
1F
100
AcDbEntity
  8
1
  6
DASH_CENTER
 62
     2
100
AcDbLine
 10
311.5005546834926
 20
648.6614610364331
 30
0.0
 11
333.6768819248258
 21
648.6614610364331
 31
0.0
  0
LINE
  5
221
330
1F
100
AcDbEntity
  8
1
  6
DASH_CENTER
 62
     2
100
AcDbLine
 10
271.9095477822909
 20
648.6614610364331
 30
0.0
 11
287.5000000000001
 21
648.6614610364331
 31
0.0
  0
LINE
  5
222
330
1F
100
AcDbEntity
  8
0
  6
DASH_CENTER
 62
     2
100
AcDbLine
 10
447.5
 20
883.9214076931707
 30
0.0
 11
447.5
 21
194.6614610364331
 31
0.0
  0
LINE
  5
223
330
1F
100
AcDbEntity
  8
1
  6
DASH_CENTER
 62
     2
100
AcDbLine
 10
430.5
 20
648.6614610364331
 30
0.0
 11
464.5
 21
648.6614610364331
 31
0.0
  0
LINE
  5
224
330
1F
100
AcDbEntity
  8
1
  6
DASH_CENTER
 62
     2
100
AcDbLine
 10
287.5000000000001
 20
648.6614610364331
 30
0.0
 11
311.5005546834926
 21
648.6614610364331
 31
0.0
  0
LINE
  5
225
330
1F
100
AcDbEntity
  8
0
  6
Continuous
 62
     7
100
AcDbLine
 10
319.6710422018799
 20
690.3614610364332
 30
0.0
 11
318.6710422018799
 21
690.3614610364332
 31
0.0
  0
LINE
  5
226
330
1F
100
AcDbEntity
  8
0
  6
Continuous
 62
     7
100
AcDbLine
 10
319.6710422018799
 20
686.3614610364332
 30
0.0
 11
319.6710422018799
 21
690.3614610364332
 31
0.0
  0
LINE
  5
227
330
1F
100
AcDbEntity
  8
0
  6
Continuous
 62
     7
100
AcDbLine
 10
321.6710422018799
 20
686.3614610364332
 30
0.0
 11
319.6710422018799
 21
686.3614610364332
 31
0.0
  0
LINE
  5
228
330
1F
100
AcDbEntity
  8
0
  6
Continuous
 62
     7
100
AcDbLine
 10
321.6710422018799
 20
690.3614610364332
 30
0.0
 11
321.6710422018799
 21
686.3614610364332
 31
0.0
  0
LINE
  5
229
330
1F
100
AcDbEntity
  8
0
  6
Continuous
 62
     7
100
AcDbLine
 10
322.6710422018799
 20
690.3614610364332
 30
0.0
 11
321.6710422018799
 21
690.3614610364332
 31
0.0
  0
LINE
  5
22A
330
1F
100
AcDbEntity
  8
0
  6
Continuous
 62
     7
100
AcDbLine
 10
320.6710422018799
 20
692.3614610364332
 30
0.0
 11
322.6710422018799
 21
690.3614610364332
 31
0.0
  0
LINE
  5
22B
330
1F
100
AcDbEntity
  8
0
  6
Continuous
 62
     7
100
AcDbLine
 10
318.6710422018799
 20
690.3614610364332
 30
0.0
 11
320.6710422018799
 21
692.3614610364332
 31
0.0
  0
LINE
  5
22C
330
1F
100
AcDbEntity
  8
1
  6
DASH_CENTER
 62
     2
100
AcDbLine
 10
251.5000000000001
 20
943.291060075283
 30
0.0
 11
335.0000986760872
 21
943.291060075283
 31
0.0
  0
LINE
  5
22D
330
1F
100
AcDbEntity
  8
1
  6
DASH_CENTER
 62
     2
100
AcDbLine
 10
287.4999999999999
 20
907.2910600752832
 30
0.0
 11
287.4999999999999
 21
979.2910600752828
 31
0.0
  0
LINE
  5
22E
330
1F
100
AcDbEntity
  8
1
  6
DASH_CENTER
 62
     2
100
AcDbLine
 10
287.5000000000001
 20
191.6614610364331
 30
0.0
 11
287.5
 21
613.6614610364331
 31
0.0
  0
LINE
  5
22F
330
1F
100
AcDbEntity
  8
1
  6
DASH_CENTER
 62
     2
100
AcDbLine
 10
287.5
 20
613.6614610364331
 30
0.0
 11
287.4999999999999
 21
886.6650562854943
 31
0.0
  0
SOLID
  5
230
330
1F
100
AcDbEntity
  8
1
 62
     2
100
AcDbTrace
 10
305.1515687447387
 20
199.4970760105308
 30
0.0
 11
302.358215763871
 21
197.8843329150852
 31
0.0
 12
297.6298922543049
 22
209.2995156591674
 32
0.0
 13
297.6298922543049
 23
209.2995156591674
 33
0.0
  0
LEADER
  5
231
330
1F
100
AcDbEntity
  8
1
  6
Continuous
 62
     2
100
AcDbLeader
  3
Standard
 71
     0
 76
     3
 10
297.6298922543049
 20
209.2995156591674
 30
0.0
 10
322.1544342064297
 20
166.8217629657327
 30
0.0
 10
361.8446168412584
 20
166.8217629657327
 30
0.0
  0
CIRCLE
  5
232
102
{ACAD_REACTORS
330
233
102
}
330
1F
100
AcDbEntity
  8
1
 62
     2
100
AcDbCircle
 10
294.2361971115316
 20
648.6614610364331
 30
0.0
 40
3.0625
  0
HATCH
  5
233
330
1F
100
AcDbEntity
  8
1
 62
     2
100
AcDbHatch
 10
0.0
 20
0.0
 30
0.0
210
0.0
220
0.0
230
1.0
  2
SOLID
 70
     1
 71
     1
 91
        1
 92
        1
 93
        1
 72
     2
 10
294.2361971115316
 20
648.6614610364331
 40
3.0625
 50
0.0
 51
360.0
 73
     1
 97
        1
330
232
 75
     0
 76
     1
 98
        0
  0
LEADER
  5
234
330
1F
100
AcDbEntity
  8
1
  6
Continuous
 62
     2
100
AcDbLeader
  3
Standard
 71
     0
 76
     3
 10
294.2361971115316
 20
648.6614610364331
 30
0.0
 10
314.2702514524117
 20
683.3614610364332
 30
0.0
 10
327.0718329513483
 20
683.3614610364332
 30
0.0
  0
MTEXT
  5
235
330
1F
100
AcDbEntity
  8
1
 62
     7
100
AcDbMText
 10
119.0
 20
109.0
 30
0.0
 40
12.25
 41
0.0
 71
     4
 72
     1
  1
共用形
  7
CONVERTER_11
 73
     1
 44
0.54545454545455
  0
MTEXT
  5
236
330
1F
100
AcDbEntity
  8
1
 62
     7
100
AcDbMText
 10
199.5
 20
79.625
 30
0.0
 40
12.25
 41
0.0
 71
     5
 72
     1
  1
D式ストレート形止水栓
  7
CONVERTER_11
 73
     1
 44
0.5
  0
MTEXT
  5
238
330
1F
100
AcDbEntity
  8
0
 62
     7
100
AcDbMText
 10
342.4995255238441
 20
177.3217629657327
 30
0.0
 40
12.25
 41
0.0
 71
     5
 72
     1
  1
R1/2
  7
CONVERTER_12
 73
     1
 44
1.32052821128451
  0
MTEXT
  5
239
330
1F
100
AcDbEntity
  8
1
 62
     7
100
AcDbMText
 10
119.0
 20
129.0
 30
0.0
 40
12.25
 41
0.0
 71
     4
 72
     1
  1
JIS
  7
CONVERTER_12
 73
     1
 44
1.32052821128451
  0
MTEXT
  5
23A
330
1F
100
AcDbEntity
  8
0
 62
     7
100
AcDbMText
 10
328.1250000000001
 20
59.50000000000001
 30
0.0
 40
12.25
 41
0.0
 71
     5
 72
     1
  1
3,5
  7
CONVERTER_12
 73
     1
 44
0.7202881152461
  0
MTEXT
  5
23B
330
1F
100
AcDbEntity
  8
0
 62
     7
100
AcDbMText
 10
298.375
 20
59.50000000000001
 30
0.0
 40
12.25
 41
0.0
 71
     5
 72
     1
  1
1
  7
CONVERTER_12
 73
     1
 44
0.7202881152461
  0
MTEXT
  5
23C
330
1F
100
AcDbEntity
  8
1
 62
     7
100
AcDbMText
 10
199.5
 20
49.875
 30
0.0
 40
12.25
 41
0.0
 71
     5
 72
     1
  1
V21JSD-13
  7
CONVERTER_12
 73
     1
 44
0.90036014405762
  0
DIMENSION
  5
249
330
1F
100
AcDbEntity
  8
1
100
AcDbDimension
  2
*D10
 10
441.1499999999999
 20
915.661461036433
 30
0.0
 11
447.4999999999999
 21
925.898961036433
 31
0.0
 70
    33
  1
12,7
 71
     5
 42
-1.0
 53
0.00013888888889
  3
ME10_DIM_10
100
AcDbAlignedDimension
 13
453.85
 23
880.6614610364331
 33
0.0
 14
441.15
 24
880.6614610364331
 34
0.0
  0
DIMENSION
  5
256
330
1F
100
AcDbEntity
  8
1
100
AcDbDimension
  2
*D11
 10
267.7787693304801
 20
696.3968817800979
 30
0.0
 11
252.695931172997
 21
706.0218817800979
 31
0.0
 70
    33
  1
<>
 71
     5
 42
-1.0
 52
120.0
 53
0.00013888888889
  3
ME10_DIM_11
100
AcDbAlignedDimension
 13
299.0000000000001
 23
682.1572925597459
 33
0.0
 14
276.0000000000001
 24
682.1572925597459
 34
0.0
  0
DIMENSION
  5
263
330
1F
100
AcDbEntity
  8
1
100
AcDbDimension
  2
*D12
 10
443.4733702870191
 20
598.3691277841872
 30
0.0
 11
479.5550402171966
 21
607.9941277841872
 31
0.0
 70
    33
  1
<>
 71
     5
 42
-1.0
 52
120.0
 53
0.00013888888889
  3
ME10_DIM_12
100
AcDbAlignedDimension
 13
460.4999999999999
 23
613.911461036433
 33
0.0
 14
434.5
 24
613.911461036433
 34
0.0
  0
DIMENSION
  5
270
330
1F
100
AcDbEntity
  8
1
100
AcDbDimension
  2
*D13
 10
382.5
 20
237.395831829962
 30
0.0
 11
372.875
 21
229.395831829962
 31
0.0
 70
    32
  1
<>
 71
     5
 42
-1.0
 53
90.0
  3
ME10_DIM_13
100
AcDbAlignedDimension
 13
417.5000000000001
 23
221.3958318299619
 33
0.0
 14
435.2958315233126
 24
237.395831829962
 34
0.0
 50
90.0
100
AcDbRotatedDimension
  0
DIMENSION
  5
27B
330
1F
100
AcDbEntity
  8
1
100
AcDbDimension
  2
*D14
 10
417.5000000000001
 20
168.8217629657327
 30
0.0
 11
447.4999999999999
 21
178.4467629657327
 31
0.0
 70
    32
  1
60
 71
     5
 42
-1.0
 53
0.00013888888889
  3
ME10_DIM_14
100
AcDbAlignedDimension
 13
477.4999999999999
 23
221.3958318299619
 33
0.0
 14
417.5000000000001
 24
221.3958318299619
 34
0.0
100
AcDbRotatedDimension
  0
DIMENSION
  5
287
330
1F
100
AcDbEntity
  8
1
100
AcDbDimension
  2
*D15
 10
287.5000000000001
 20
592.041434685247
 30
0.0
 11
366.12687119942
 21
601.666434685247
 31
0.0
 70
    32
  1
42リフト5
 71
     5
 42
-1.0
 53
0.00013888888889
  3
ME10_DIM_15
100
AcDbAlignedDimension
 13
329.0000986760872
 23
644.9114610364331
 33
0.0
 14
287.5
 24
613.6614610364331
 34
0.0
100
AcDbRotatedDimension
  0
DIMENSION
  5
292
330
1F
100
AcDbEntity
  8
1
100
AcDbDimension
  2
*D16
 10
495.4999999999999
 20
648.6614610364331
 30
0.0
 11
485.8749999999999
 21
425.6614610364331
 31
0.0
 70
    32
  1
<>
 71
     5
 42
-1.0
 53
90.0
  3
ME10_DIM_16
100
AcDbAlignedDimension
 13
456.2448120021526
 23
202.6614610364332
 33
0.0
 14
464.5
 24
648.6614610364331
 34
0.0
 50
90.0
100
AcDbRotatedDimension
  0
DIMENSION
  5
29D
330
1F
100
AcDbEntity
  8
1
100
AcDbDimension
  2
*D17
 10
495.4999999999999
 20
648.6614610364331
 30
0.0
 11
485.8749999999999
 21
764.6614610364331
 31
0.0
 70
    32
  1
232
 71
     5
 42
-1.0
 53
90.0
  3
ME10_DIM_17
100
AcDbAlignedDimension
 13
453.85
 23
880.6614610364331
 33
0.0
 14
464.5
 24
648.6614610364331
 34
0.0
 50
90.0
100
AcDbRotatedDimension
  0
ENDSEC
  0
SECTION
  2
OBJECTS
  0
DICTIONARY
  5
C
330
0
100
AcDbDictionary
281
     1
  3
ACAD_GROUP
350
D
  3
ACAD_LAYOUT
350
1A
  3
ACAD_MATERIAL
350
3B
  3
ACAD_MLEADERSTYLE
350
2A0
  3
ACAD_MLINESTYLE
350
17
  3
ACAD_PLOTSETTINGS
350
19
  3
ACAD_PLOTSTYLENAME
350
E
  3
ACAD_VISUALSTYLE
350
2A
  3
AcDbVariableDictionary
350
29E
  0
DICTIONARY
  5
D
102
{ACAD_REACTORS
330
C
102
}
330
C
100
AcDbDictionary
281
     1
  0
DICTIONARY
  5
1A
102
{ACAD_REACTORS
330
C
102
}
330
C
100
AcDbDictionary
281
     1
  3
Layout1
350
1E
  3
Layout2
350
26
  3
Model
350
22
  0
DICTIONARY
  5
3B
102
{ACAD_REACTORS
330
C
102
}
330
C
100
AcDbDictionary
281
     1
  3
ByBlock
350
3D
  3
ByLayer
350
3C
  3
Global
350
3E
  0
DICTIONARY
  5
2A0
102
{ACAD_REACTORS
330
C
102
}
330
C
100
AcDbDictionary
281
     1
  0
DICTIONARY
  5
17
102
{ACAD_REACTORS
330
C
102
}
330
C
100
AcDbDictionary
281
     1
  3
Standard
350
18
  0
DICTIONARY
  5
19
102
{ACAD_REACTORS
330
C
102
}
330
C
100
AcDbDictionary
281
     1
  0
ACDBDICTIONARYWDFLT
  5
E
102
{ACAD_REACTORS
330
C
102
}
330
C
100
AcDbDictionary
281
     1
  3
Normal
350
F
100
AcDbDictionaryWithDefault
340
F
  0
DICTIONARY
  5
2A
102
{ACAD_REACTORS
330
C
102
}
330
C
100
AcDbDictionary
281
     1
  3
2dWireframe
350
2F
  3
3D Hidden
350
31
  3
3dWireframe
350
30
  3
Basic
350
32
  3
Brighten
350
36
  3
ColorChange
350
3A
  3
Conceptual
350
34
  3
Dim
350
35
  3
Facepattern
350
39
  3
Flat
350
2B
  3
FlatWithEdges
350
2C
  3
Gouraud
350
2D
  3
GouraudWithEdges
350
2E
  3
Linepattern
350
38
  3
Realistic
350
33
  3
Thicken
350
37
  0
DICTIONARY
  5
29E
102
{ACAD_REACTORS
330
C
102
}
330
C
100
AcDbDictionary
281
     1
  3
DIMASSOC
350
2A1
  3
HIDETEXT
350
2A2
  0
LAYOUT
  5
1E
102
{ACAD_REACTORS
330
1A
102
}
330
1A
100
AcDbPlotSettings
  1

  2
none_device
  4

  6

 40
0.0
 41
0.0
 42
0.0
 43
0.0
 44
0.0
 45
0.0
 46
0.0
 47
0.0
 48
0.0
 49
0.0
140
0.0
141
0.0
142
1.0
143
1.0
 70
   688
 72
     0
 73
     0
 74
     5
  7

 75
    16
147
1.0
148
0.0
149
0.0
100
AcDbLayout
  1
Layout1
 70
     1
 71
     1
 10
0.0
 20
0.0
 11
12.0
 21
9.0
 12
0.0
 22
0.0
 32
0.0
 14
1.00000000000000E+20
 24
1.00000000000000E+20
 34
1.00000000000000E+20
 15
-1.00000000000000E+20
 25
-1.00000000000000E+20
 35
-1.00000000000000E+20
146
0.0
 13
0.0
 23
0.0
 33
0.0
 16
1.0
 26
0.0
 36
0.0
 17
0.0
 27
1.0
 37
0.0
 76
     0
330
1B
  0
LAYOUT
  5
26
102
{ACAD_REACTORS
330
1A
102
}
330
1A
100
AcDbPlotSettings
  1

  2
none_device
  4

  6

 40
0.0
 41
0.0
 42
0.0
 43
0.0
 44
0.0
 45
0.0
 46
0.0
 47
0.0
 48
0.0
 49
0.0
140
0.0
141
0.0
142
1.0
143
1.0
 70
   688
 72
     0
 73
     0
 74
     5
  7

 75
    16
147
1.0
148
0.0
149
0.0
100
AcDbLayout
  1
Layout2
 70
     1
 71
     2
 10
0.0
 20
0.0
 11
0.0
 21
0.0
 12
0.0
 22
0.0
 32
0.0
 14
0.0
 24
0.0
 34
0.0
 15
0.0
 25
0.0
 35
0.0
146
0.0
 13
0.0
 23
0.0
 33
0.0
 16
1.0
 26
0.0
 36
0.0
 17
0.0
 27
1.0
 37
0.0
 76
     0
330
23
  0
LAYOUT
  5
22
102
{ACAD_REACTORS
330
1A
102
}
330
1A
100
AcDbPlotSettings
  1

  2
none_device
  4

  6

 40
0.0
 41
0.0
 42
0.0
 43
0.0
 44
0.0
 45
0.0
 46
0.0
 47
0.0
 48
0.0
 49
0.0
140
0.0
141
0.0
142
1.0
143
1.0
 70
  1712
 72
     0
 73
     0
 74
     0
  7

 75
     0
147
1.0
148
0.0
149
0.0
100
AcDbLayout
  1
Model
 70
     1
 71
     0
 10
0.0
 20
0.0
 11
12.0
 21
9.0
 12
0.0
 22
0.0
 32
0.0
 14
0.0
 24
-0.00000000000001
 34
0.0
 15
735.0000000000005
 25
1039.500000000001
 35
0.0
146
0.0
 13
0.0
 23
0.0
 33
0.0
 16
1.0
 26
0.0
 36
0.0
 17
0.0
 27
1.0
 37
0.0
 76
     0
330
1F
331
29
  0
MATERIAL
  5
3D
102
{ACAD_REACTORS
330
3B
102
}
102
{ACAD_XDICTIONARY
360
2C5
102
}
330
3B
100
AcDbMaterial
  1
ByBlock
  0
MATERIAL
  5
3C
102
{ACAD_REACTORS
330
3B
102
}
102
{ACAD_XDICTIONARY
360
2C3
102
}
330
3B
100
AcDbMaterial
  1
ByLayer
  0
MATERIAL
  5
3E
102
{ACAD_REACTORS
330
3B
102
}
102
{ACAD_XDICTIONARY
360
2C7
102
}
330
3B
100
AcDbMaterial
  1
Global
  0
MLINESTYLE
  5
18
102
{ACAD_REACTORS
330
17
102
}
330
17
100
AcDbMlineStyle
  2
Standard
 70
     0
  3

 62
   256
 51
90.0
 52
90.0
 71
     2
 49
0.5
 62
   256
  6
BYLAYER
 49
-0.5
 62
   256
  6
BYLAYER
  0
ACDBPLACEHOLDER
  5
F
102
{ACAD_REACTORS
330
E
102
}
330
E
  0
VISUALSTYLE
  5
2F
102
{ACAD_REACTORS
330
2A
102
}
102
{ACAD_XDICTIONARY
360
2AB
102
}
330
2A
100
AcDbVisualStyle
  2
2dWireframe
 70
     4
 71
     0
 72
     2
 73
     0
 90
        0
 40
-0.6
 41
-30.0
 62
     5
 63
     7
 74
     1
 91
        4
 64
     7
 65
   257
 75
     1
175
     1
 42
1.0
 92
        0
 66
   257
 43
1.0
 76
     1
 77
     6
 78
     2
 67
     7
 79
     5
170
     0
171
     0
290
     0
174
     0
 93
        1
 44
0.0
173
     0
291
     0
 45
0.0
1001
ACAD
1000
AcDbSavedByObjectVersion
1070
     0
  0
VISUALSTYLE
  5
31
102
{ACAD_REACTORS
330
2A
102
}
102
{ACAD_XDICTIONARY
360
2AF
102
}
330
2A
100
AcDbVisualStyle
  2
3D Hidden
 70
     6
 71
     1
 72
     2
 73
     2
 90
        0
 40
-0.6
 41
-30.0
 62
     5
 63
     7
 74
     2
 91
        2
 64
     7
 65
   257
 75
     2
175
     1
 42
40.0
 92
        0
 66
   257
 43
1.0
 76
     1
 77
     6
 78
     2
 67
     7
 79
     3
170
     0
171
     0
290
     0
174
     0
 93
        1
 44
0.0
173
     0
291
     0
 45
0.0
1001
ACAD
1000
AcDbSavedByObjectVersion
1070
     0
  0
VISUALSTYLE
  5
30
102
{ACAD_REACTORS
330
2A
102
}
102
{ACAD_XDICTIONARY
360
2AD
102
}
330
2A
100
AcDbVisualStyle
  2
3dWireframe
 70
     5
 71
     0
 72
     2
 73
     0
 90
        0
 40
-0.6
 41
-30.0
 62
     5
 63
     7
 74
     1
 91
        4
 64
     7
 65
   257
 75
     1
175
     1
 42
1.0
 92
        0
 66
   257
 43
1.0
 76
     1
 77
     6
 78
     2
 67
     7
 79
     5
170
     0
171
     0
290
     0
174
     0
 93
        1
 44
0.0
173
     0
291
     0
 45
0.0
1001
ACAD
1000
AcDbSavedByObjectVersion
1070
     0
  0
VISUALSTYLE
  5
32
102
{ACAD_REACTORS
330
2A
102
}
102
{ACAD_XDICTIONARY
360
2B1
102
}
330
2A
100
AcDbVisualStyle
  2
Basic
 70
     7
 71
     1
 72
     0
 73
     1
 90
        0
 40
-0.6
 41
-30.0
 62
     5
 63
     7
 74
     0
 91
        4
 64
     7
 65
   257
 75
     1
175
     1
 42
1.0
 92
        8
 66
     7
 43
1.0
 76
     1
 77
     6
 78
     2
 67
     7
 79
     5
170
     0
171
     0
290
     0
174
     0
 93
        1
 44
0.0
173
     0
291
     1
 45
0.0
1001
ACAD
1000
AcDbSavedByObjectVersion
1070
     0
  0
VISUALSTYLE
  5
36
102
{ACAD_REACTORS
330
2A
102
}
102
{ACAD_XDICTIONARY
360
2B9
102
}
330
2A
100
AcDbVisualStyle
  2
Brighten
 70
    12
 71
     2
 72
     2
 73
     0
 90
        0
 40
-0.6
 41
-30.0
 62
     5
 63
     7
 74
     1
 91
        4
 64
     7
 65
   257
 75
     1
175
     1
 42
1.0
 92
        8
 66
     7
 43
1.0
 76
     1
 77
     6
 78
     2
 67
     7
 79
     5
170
     0
171
     0
290
     0
174
     0
 93
        1
 44
50.0
173
     0
291
     1
 45
0.0
1001
ACAD
1000
AcDbSavedByObjectVersion
1070
     0
  0
VISUALSTYLE
  5
3A
102
{ACAD_REACTORS
330
2A
102
}
102
{ACAD_XDICTIONARY
360
2C1
102
}
330
2A
100
AcDbVisualStyle
  2
ColorChange
 70
    16
 71
     2
 72
     2
 73
     3
 90
        0
 40
-0.6
 41
-30.0
 62
     5
 63
     8
 74
     1
 91
        4
 64
     7
 65
   257
 75
     1
175
     1
 42
1.0
 92
        8
 66
     8
 43
1.0
 76
     1
 77
     6
 78
     2
 67
     7
 79
     5
170
     0
171
     0
290
     0
174
     0
 93
        1
 44
0.0
173
     0
291
     1
 45
0.0
1001
ACAD
1000
AcDbSavedByObjectVersion
1070
     0
  0
VISUALSTYLE
  5
34
102
{ACAD_REACTORS
330
2A
102
}
102
{ACAD_XDICTIONARY
360
2B5
102
}
330
2A
100
AcDbVisualStyle
  2
Conceptual
 70
     9
 71
     3
 72
     2
 73
     0
 90
        0
 40
-0.6
 41
-30.0
 62
     5
 63
     7
 74
     2
 91
        2
 64
     7
 65
   257
 75
     1
175
     1
 42
40.0
 92
        8
 66
     7
 43
1.0
 76
     1
 77
     6
 78
     2
 67
     7
 79
     3
170
     0
171
     0
290
     0
174
     0
 93
        1
 44
0.0
173
     0
291
     0
 45
0.0
1001
ACAD
1000
AcDbSavedByObjectVersion
1070
     0
  0
VISUALSTYLE
  5
35
102
{ACAD_REACTORS
330
2A
102
}
102
{ACAD_XDICTIONARY
360
2B7
102
}
330
2A
100
AcDbVisualStyle
  2
Dim
 70
    11
 71
     2
 72
     2
 73
     0
 90
        0
 40
-0.6
 41
-30.0
 62
     5
 63
     7
 74
     1
 91
        4
 64
     7
 65
   257
 75
     1
175
     1
 42
1.0
 92
        8
 66
     7
 43
1.0
 76
     1
 77
     6
 78
     2
 67
     7
 79
     5
170
     0
171
     0
290
     0
174
     0
 93
        1
 44
-50.0
173
     0
291
     1
 45
0.0
1001
ACAD
1000
AcDbSavedByObjectVersion
1070
     0
  0
VISUALSTYLE
  5
39
102
{ACAD_REACTORS
330
2A
102
}
102
{ACAD_XDICTIONARY
360
2BF
102
}
330
2A
100
AcDbVisualStyle
  2
Facepattern
 70
    15
 71
     2
 72
     2
 73
     0
 90
        0
 40
-0.6
 41
-30.0
 62
     5
 63
     7
 74
     1
 91
        4
 64
     7
 65
   257
 75
     1
175
     1
 42
1.0
 92
        8
 66
     7
 43
1.0
 76
     1
 77
     6
 78
     2
 67
     7
 79
     5
170
     0
171
     0
290
     0
174
     0
 93
        1
 44
0.0
173
     0
291
     1
 45
0.0
1001
ACAD
1000
AcDbSavedByObjectVersion
1070
     0
  0
VISUALSTYLE
  5
2B
102
{ACAD_REACTORS
330
2A
102
}
102
{ACAD_XDICTIONARY
360
2A3
102
}
330
2A
100
AcDbVisualStyle
  2
Flat
 70
     0
 71
     2
 72
     1
 73
     1
 90
        2
 40
-0.6
 41
30.0
 62
     5
 63
     7
 74
     0
 91
        4
 64
     7
 65
   257
 75
     1
175
     1
 42
1.0
 92
        8
 66
     7
 43
1.0
 76
     1
 77
     6
 78
     2
 67
     7
 79
     5
170
     0
171
     0
290
     0
174
     0
 93
       13
 44
0.0
173
     0
291
     1
 45
0.0
1001
ACAD
1000
AcDbSavedByObjectVersion
1070
     0
  0
VISUALSTYLE
  5
2C
102
{ACAD_REACTORS
330
2A
102
}
102
{ACAD_XDICTIONARY
360
2A5
102
}
330
2A
100
AcDbVisualStyle
  2
FlatWithEdges
 70
     1
 71
     2
 72
     1
 73
     1
 90
        2
 40
-0.6
 41
30.0
 62
     5
 63
     7
 74
     1
 91
        4
 64
     7
 65
   257
 75
     1
175
     1
 42
1.0
 92
        0
 66
   257
 43
1.0
 76
     1
 77
     6
 78
     2
 67
     7
 79
     5
170
     0
171
     0
290
     0
174
     0
 93
       13
 44
0.0
173
     0
291
     1
 45
0.0
1001
ACAD
1000
AcDbSavedByObjectVersion
1070
     0
  0
VISUALSTYLE
  5
2D
102
{ACAD_REACTORS
330
2A
102
}
102
{ACAD_XDICTIONARY
360
2A7
102
}
330
2A
100
AcDbVisualStyle
  2
Gouraud
 70
     2
 71
     2
 72
     2
 73
     1
 90
        2
 40
-0.6
 41
30.0
 62
     5
 63
     7
 74
     0
 91
        4
 64
     7
 65
   257
 75
     1
175
     1
 42
1.0
 92
        0
 66
     7
 43
1.0
 76
     1
 77
     6
 78
     2
 67
     7
 79
     5
170
     0
171
     0
290
     0
174
     0
 93
       13
 44
0.0
173
     0
291
     1
 45
0.0
1001
ACAD
1000
AcDbSavedByObjectVersion
1070
     0
  0
VISUALSTYLE
  5
2E
102
{ACAD_REACTORS
330
2A
102
}
102
{ACAD_XDICTIONARY
360
2A9
102
}
330
2A
100
AcDbVisualStyle
  2
GouraudWithEdges
 70
     3
 71
     2
 72
     2
 73
     1
 90
        2
 40
-0.6
 41
30.0
 62
     5
 63
     7
 74
     1
 91
        4
 64
     7
 65
   257
 75
     1
175
     1
 42
1.0
 92
        0
 66
   257
 43
1.0
 76
     1
 77
     6
 78
     2
 67
     7
 79
     5
170
     0
171
     0
290
     0
174
     0
 93
       13
 44
0.0
173
     0
291
     1
 45
0.0
1001
ACAD
1000
AcDbSavedByObjectVersion
1070
     0
  0
VISUALSTYLE
  5
38
102
{ACAD_REACTORS
330
2A
102
}
102
{ACAD_XDICTIONARY
360
2BD
102
}
330
2A
100
AcDbVisualStyle
  2
Linepattern
 70
    14
 71
     2
 72
     2
 73
     0
 90
        0
 40
-0.6
 41
-30.0
 62
     5
 63
     7
 74
     1
 91
        4
 64
     7
 65
   257
 75
     7
175
     7
 42
1.0
 92
        8
 66
     7
 43
1.0
 76
     1
 77
     6
 78
     2
 67
     7
 79
     5
170
     0
171
     0
290
     0
174
     0
 93
        1
 44
0.0
173
     0
291
     1
 45
0.0
1001
ACAD
1000
AcDbSavedByObjectVersion
1070
     0
  0
VISUALSTYLE
  5
33
102
{ACAD_REACTORS
330
2A
102
}
102
{ACAD_XDICTIONARY
360
2B3
102
}
330
2A
100
AcDbVisualStyle
  2
Realistic
 70
     8
 71
     2
 72
     2
 73
     0
 90
        0
 40
-0.6
 41
-30.0
 62
     5
 63
     7
 74
     1
 91
        0
 64
     7
 65
   257
 75
     1
175
     1
 42
1.0
 92
        8
 66
     8
 43
1.0
 76
     1
 77
     6
 78
     2
 67
     7
 79
     5
170
     0
171
     0
290
     0
174
     0
 93
       13
 44
0.0
173
     0
291
     0
 45
0.0
1001
ACAD
1000
AcDbSavedByObjectVersion
1070
     0
  0
VISUALSTYLE
  5
37
102
{ACAD_REACTORS
330
2A
102
}
102
{ACAD_XDICTIONARY
360
2BB
102
}
330
2A
100
AcDbVisualStyle
  2
Thicken
 70
    13
 71
     2
 72
     2
 73
     0
 90
        0
 40
-0.6
 41
-30.0
 62
     5
 63
     7
 74
     1
 91
        4
 64
     7
 65
   257
 75
     1
175
     1
 42
1.0
 92
       12
 66
     7
 43
1.0
 76
     1
 77
     6
 78
     2
 67
     7
 79
     5
170
     0
171
     0
290
     0
174
     0
 93
        1
 44
0.0
173
     0
291
     1
 45
0.0
1001
ACAD
1000
AcDbSavedByObjectVersion
1070
     0
  0
DICTIONARYVAR
  5
2A1
102
{ACAD_REACTORS
330
29E
102
}
330
29E
100
DictionaryVariables
280
     0
  1
2
  0
DICTIONARYVAR
  5
2A2
102
{ACAD_REACTORS
330
29E
102
}
330
29E
100
DictionaryVariables
280
     0
  1
1
  0
DICTIONARY
  5
2C5
330
3D
100
AcDbDictionary
280
     1
281
     1
  3
ACAD_XREC_ROUNDTRIP
360
2C6
  0
DICTIONARY
  5
2C3
330
3C
100
AcDbDictionary
280
     1
281
     1
  3
ACAD_XREC_ROUNDTRIP
360
2C4
  0
DICTIONARY
  5
2C7
330
3E
100
AcDbDictionary
280
     1
281
     1
  3
ACAD_XREC_ROUNDTRIP
360
2C8
  0
DICTIONARY
  5
2AB
330
2F
100
AcDbDictionary
280
     1
281
     1
  3
ACAD_XREC_ROUNDTRIP
360
2AC
  0
DICTIONARY
  5
2AF
330
31
100
AcDbDictionary
280
     1
281
     1
  3
ACAD_XREC_ROUNDTRIP
360
2B0
  0
DICTIONARY
  5
2AD
330
30
100
AcDbDictionary
280
     1
281
     1
  3
ACAD_XREC_ROUNDTRIP
360
2AE
  0
DICTIONARY
  5
2B1
330
32
100
AcDbDictionary
280
     1
281
     1
  3
ACAD_XREC_ROUNDTRIP
360
2B2
  0
DICTIONARY
  5
2B9
330
36
100
AcDbDictionary
280
     1
281
     1
  3
ACAD_XREC_ROUNDTRIP
360
2BA
  0
DICTIONARY
  5
2C1
330
3A
100
AcDbDictionary
280
     1
281
     1
  3
ACAD_XREC_ROUNDTRIP
360
2C2
  0
DICTIONARY
  5
2B5
330
34
100
AcDbDictionary
280
     1
281
     1
  3
ACAD_XREC_ROUNDTRIP
360
2B6
  0
DICTIONARY
  5
2B7
330
35
100
AcDbDictionary
280
     1
281
     1
  3
ACAD_XREC_ROUNDTRIP
360
2B8
  0
DICTIONARY
  5
2BF
330
39
100
AcDbDictionary
280
     1
281
     1
  3
ACAD_XREC_ROUNDTRIP
360
2C0
  0
DICTIONARY
  5
2A3
330
2B
100
AcDbDictionary
280
     1
281
     1
  3
ACAD_XREC_ROUNDTRIP
360
2A4
  0
DICTIONARY
  5
2A5
330
2C
100
AcDbDictionary
280
     1
281
     1
  3
ACAD_XREC_ROUNDTRIP
360
2A6
  0
DICTIONARY
  5
2A7
330
2D
100
AcDbDictionary
280
     1
281
     1
  3
ACAD_XREC_ROUNDTRIP
360
2A8
  0
DICTIONARY
  5
2A9
330
2E
100
AcDbDictionary
280
     1
281
     1
  3
ACAD_XREC_ROUNDTRIP
360
2AA
  0
DICTIONARY
  5
2BD
330
38
100
AcDbDictionary
280
     1
281
     1
  3
ACAD_XREC_ROUNDTRIP
360
2BE
  0
DICTIONARY
  5
2B3
330
33
100
AcDbDictionary
280
     1
281
     1
  3
ACAD_XREC_ROUNDTRIP
360
2B4
  0
DICTIONARY
  5
2BB
330
37
100
AcDbDictionary
280
     1
281
     1
  3
ACAD_XREC_ROUNDTRIP
360
2BC
  0
XRECORD
  5
2C6
102
{ACAD_REACTORS
330
2C5
102
}
330
2C5
100
AcDbXrecord
280
     1
102
MATERIAL
148
0.0
149
0.0
149
0.0
 93
        0
 94
      127
282
     0
 72
     1
 77
     1
171
     1
175
     1
179
     1
273
     0
  0
XRECORD
  5
2C4
102
{ACAD_REACTORS
330
2C3
102
}
330
2C3
100
AcDbXrecord
280
     1
102
MATERIAL
148
0.0
149
0.0
149
0.0
 93
        0
 94
      127
282
     0
 72
     1
 77
     1
171
     1
175
     1
179
     1
273
     0
  0
XRECORD
  5
2C8
102
{ACAD_REACTORS
330
2C7
102
}
330
2C7
100
AcDbXrecord
280
     1
102
MATERIAL
148
0.0
149
0.0
149
0.0
 93
        0
 94
      127
282
     0
 72
     1
 77
     1
171
     1
175
     1
179
     1
273
     0
  0
XRECORD
  5
2AC
102
{ACAD_REACTORS
330
2AB
102
}
330
2AB
100
AcDbXrecord
280
     1
102
RTVSPropertyOp0
 70
     1
102
RTVSPropertyOp1
 70
     1
102
RTVSPropertyOp2
 70
     1
102
RTVSPropertyOp3
 70
     1
102
RTVSPropertyOp4
 70
     1
102
RTVSPropertyOp5
 70
     1
102
RTVSPropertyOp6
 70
     1
102
RTVSPropertyOp7
 70
     1
102
RTVSPropertyOp8
 70
     1
102
RTVSPropertyOp9
 70
     1
102
RTVSPropertyOp10
 70
     1
102
RTVSPropertyOp11
 70
     1
102
RTVSPropertyOp12
 70
     1
102
RTVSPropertyOp13
 70
     1
102
RTVSPropertyOp14
 70
     1
102
RTVSPropertyOp15
 70
     1
102
RTVSPropertyOp16
 70
     1
102
RTVSPropertyOp17
 70
     1
102
RTVSPropertyOp18
 70
     1
102
RTVSPropertyOp19
 70
     1
102
RTVSPropertyOp20
 70
     1
102
RTVSPropertyOp21
 70
     1
102
RTVSPropertyOp22
 70
     1
102
RTVSPropertyOp23
 70
     1
102
RTVSPropertyOp24
 70
     1
102
RTVSPropertyOp25
 70
     1
102
RTVSPropertyOp26
 70
     1
102
RTVSPropertyOp27
 70
     1
102
RTVSPropertyOp28
 70
     1
102
RTVSPropertyOp29
 70
     1
102
RTVSPropertyOp30
 70
     1
102
RTVSPropertyOp31
 70
     1
102
RTVSPropertyOp32
 70
     1
  0
XRECORD
  5
2B0
102
{ACAD_REACTORS
330
2AF
102
}
330
2AF
100
AcDbXrecord
280
     1
102
RTVSPropertyOp0
 70
     1
102
RTVSPropertyOp1
 70
     1
102
RTVSPropertyOp2
 70
     1
102
RTVSPropertyOp3
 70
     1
102
RTVSPropertyOp4
 70
     1
102
RTVSPropertyOp5
 70
     1
102
RTVSPropertyOp6
 70
     1
102
RTVSPropertyOp7
 70
     1
102
RTVSPropertyOp8
 70
     1
102
RTVSPropertyOp9
 70
     1
102
RTVSPropertyOp10
 70
     1
102
RTVSPropertyOp11
 70
     1
102
RTVSPropertyOp12
 70
     1
102
RTVSPropertyOp13
 70
     1
102
RTVSPropertyOp14
 70
     1
102
RTVSPropertyOp15
 70
     1
102
RTVSPropertyOp16
 70
     1
102
RTVSPropertyOp17
 70
     1
102
RTVSPropertyOp18
 70
     1
102
RTVSPropertyOp19
 70
     1
102
RTVSPropertyOp20
 70
     1
102
RTVSPropertyOp21
 70
     1
102
RTVSPropertyOp22
 70
     1
102
RTVSPropertyOp23
 70
     1
102
RTVSPropertyOp24
 70
     1
102
RTVSPropertyOp25
 70
     1
102
RTVSPropertyOp26
 70
     1
102
RTVSPropertyOp27
 70
     1
102
RTVSPropertyOp28
 70
     1
102
RTVSPropertyOp29
 70
     1
102
RTVSPropertyOp30
 70
     1
102
RTVSPropertyOp31
 70
     1
102
RTVSPropertyOp32
 70
     1
  0
XRECORD
  5
2AE
102
{ACAD_REACTORS
330
2AD
102
}
330
2AD
100
AcDbXrecord
280
     1
102
RTVSPropertyOp0
 70
     1
102
RTVSPropertyOp1
 70
     1
102
RTVSPropertyOp2
 70
     1
102
RTVSPropertyOp3
 70
     1
102
RTVSPropertyOp4
 70
     1
102
RTVSPropertyOp5
 70
     1
102
RTVSPropertyOp6
 70
     1
102
RTVSPropertyOp7
 70
     1
102
RTVSPropertyOp8
 70
     1
102
RTVSPropertyOp9
 70
     1
102
RTVSPropertyOp10
 70
     1
102
RTVSPropertyOp11
 70
     1
102
RTVSPropertyOp12
 70
     1
102
RTVSPropertyOp13
 70
     1
102
RTVSPropertyOp14
 70
     1
102
RTVSPropertyOp15
 70
     1
102
RTVSPropertyOp16
 70
     1
102
RTVSPropertyOp17
 70
     1
102
RTVSPropertyOp18
 70
     1
102
RTVSPropertyOp19
 70
     1
102
RTVSPropertyOp20
 70
     1
102
RTVSPropertyOp21
 70
     1
102
RTVSPropertyOp22
 70
     1
102
RTVSPropertyOp23
 70
     1
102
RTVSPropertyOp24
 70
     1
102
RTVSPropertyOp25
 70
     1
102
RTVSPropertyOp26
 70
     1
102
RTVSPropertyOp27
 70
     1
102
RTVSPropertyOp28
 70
     1
102
RTVSPropertyOp29
 70
     1
102
RTVSPropertyOp30
 70
     1
102
RTVSPropertyOp31
 70
     1
102
RTVSPropertyOp32
 70
     1
  0
XRECORD
  5
2B2
102
{ACAD_REACTORS
330
2B1
102
}
330
2B1
100
AcDbXrecord
280
     1
102
RTVSPropertyOp0
 70
     1
102
RTVSPropertyOp1
 70
     1
102
RTVSPropertyOp2
 70
     1
102
RTVSPropertyOp3
 70
     1
102
RTVSPropertyOp4
 70
     1
102
RTVSPropertyOp5
 70
     1
102
RTVSPropertyOp6
 70
     1
102
RTVSPropertyOp7
 70
     1
102
RTVSPropertyOp8
 70
     1
102
RTVSPropertyOp9
 70
     1
102
RTVSPropertyOp10
 70
     1
102
RTVSPropertyOp11
 70
     1
102
RTVSPropertyOp12
 70
     1
102
RTVSPropertyOp13
 70
     1
102
RTVSPropertyOp14
 70
     1
102
RTVSPropertyOp15
 70
     1
102
RTVSPropertyOp16
 70
     1
102
RTVSPropertyOp17
 70
     1
102
RTVSPropertyOp18
 70
     1
102
RTVSPropertyOp19
 70
     1
102
RTVSPropertyOp20
 70
     1
102
RTVSPropertyOp21
 70
     1
102
RTVSPropertyOp22
 70
     1
102
RTVSPropertyOp23
 70
     1
102
RTVSPropertyOp24
 70
     1
102
RTVSPropertyOp25
 70
     1
102
RTVSPropertyOp26
 70
     1
102
RTVSPropertyOp27
 70
     1
102
RTVSPropertyOp28
 70
     1
102
RTVSPropertyOp29
 70
     1
102
RTVSPropertyOp30
 70
     1
102
RTVSPropertyOp31
 70
     1
102
RTVSPropertyOp32
 70
     1
  0
XRECORD
  5
2BA
102
{ACAD_REACTORS
330
2B9
102
}
330
2B9
100
AcDbXrecord
280
     1
102
RTVSPropertyOp0
 70
     1
102
RTVSPropertyOp1
 70
     1
102
RTVSPropertyOp2
 70
     1
102
RTVSPropertyOp3
 70
     1
102
RTVSPropertyOp4
 70
     1
102
RTVSPropertyOp5
 70
     1
102
RTVSPropertyOp6
 70
     1
102
RTVSPropertyOp7
 70
     1
102
RTVSPropertyOp8
 70
     1
102
RTVSPropertyOp9
 70
     1
102
RTVSPropertyOp10
 70
     1
102
RTVSPropertyOp11
 70
     1
102
RTVSPropertyOp12
 70
     1
102
RTVSPropertyOp13
 70
     1
102
RTVSPropertyOp14
 70
     1
102
RTVSPropertyOp15
 70
     1
102
RTVSPropertyOp16
 70
     1
102
RTVSPropertyOp17
 70
     1
102
RTVSPropertyOp18
 70
     1
102
RTVSPropertyOp19
 70
     1
102
RTVSPropertyOp20
 70
     1
102
RTVSPropertyOp21
 70
     1
102
RTVSPropertyOp22
 70
     1
102
RTVSPropertyOp23
 70
     1
102
RTVSPropertyOp24
 70
     1
102
RTVSPropertyOp25
 70
     1
102
RTVSPropertyOp26
 70
     1
102
RTVSPropertyOp27
 70
     1
102
RTVSPropertyOp28
 70
     1
102
RTVSPropertyOp29
 70
     1
102
RTVSPropertyOp30
 70
     1
102
RTVSPropertyOp31
 70
     1
102
RTVSPropertyOp32
 70
     1
  0
XRECORD
  5
2C2
102
{ACAD_REACTORS
330
2C1
102
}
330
2C1
100
AcDbXrecord
280
     1
102
RTVSPropertyOp0
 70
     1
102
RTVSPropertyOp1
 70
     1
102
RTVSPropertyOp2
 70
     1
102
RTVSPropertyOp3
 70
     1
102
RTVSPropertyOp4
 70
     1
102
RTVSPropertyOp5
 70
     1
102
RTVSPropertyOp6
 70
     1
102
RTVSPropertyOp7
 70
     1
102
RTVSPropertyOp8
 70
     1
102
RTVSPropertyOp9
 70
     1
102
RTVSPropertyOp10
 70
     1
102
RTVSPropertyOp11
 70
     1
102
RTVSPropertyOp12
 70
     1
102
RTVSPropertyOp13
 70
     1
102
RTVSPropertyOp14
 70
     1
102
RTVSPropertyOp15
 70
     1
102
RTVSPropertyOp16
 70
     1
102
RTVSPropertyOp17
 70
     1
102
RTVSPropertyOp18
 70
     1
102
RTVSPropertyOp19
 70
     1
102
RTVSPropertyOp20
 70
     1
102
RTVSPropertyOp21
 70
     1
102
RTVSPropertyOp22
 70
     1
102
RTVSPropertyOp23
 70
     1
102
RTVSPropertyOp24
 70
     1
102
RTVSPropertyOp25
 70
     1
102
RTVSPropertyOp26
 70
     1
102
RTVSPropertyOp27
 70
     1
102
RTVSPropertyOp28
 70
     1
102
RTVSPropertyOp29
 70
     1
102
RTVSPropertyOp30
 70
     1
102
RTVSPropertyOp31
 70
     1
102
RTVSPropertyOp32
 70
     1
  0
XRECORD
  5
2B6
102
{ACAD_REACTORS
330
2B5
102
}
330
2B5
100
AcDbXrecord
280
     1
102
RTVSPropertyOp0
 70
     1
102
RTVSPropertyOp1
 70
     1
102
RTVSPropertyOp2
 70
     1
102
RTVSPropertyOp3
 70
     1
102
RTVSPropertyOp4
 70
     1
102
RTVSPropertyOp5
 70
     1
102
RTVSPropertyOp6
 70
     1
102
RTVSPropertyOp7
 70
     1
102
RTVSPropertyOp8
 70
     1
102
RTVSPropertyOp9
 70
     1
102
RTVSPropertyOp10
 70
     1
102
RTVSPropertyOp11
 70
     1
102
RTVSPropertyOp12
 70
     1
102
RTVSPropertyOp13
 70
     1
102
RTVSPropertyOp14
 70
     1
102
RTVSPropertyOp15
 70
     1
102
RTVSPropertyOp16
 70
     1
102
RTVSPropertyOp17
 70
     1
102
RTVSPropertyOp18
 70
     1
102
RTVSPropertyOp19
 70
     1
102
RTVSPropertyOp20
 70
     1
102
RTVSPropertyOp21
 70
     1
102
RTVSPropertyOp22
 70
     1
102
RTVSPropertyOp23
 70
     1
102
RTVSPropertyOp24
 70
     1
102
RTVSPropertyOp25
 70
     1
102
RTVSPropertyOp26
 70
     1
102
RTVSPropertyOp27
 70
     1
102
RTVSPropertyOp28
 70
     1
102
RTVSPropertyOp29
 70
     1
102
RTVSPropertyOp30
 70
     1
102
RTVSPropertyOp31
 70
     1
102
RTVSPropertyOp32
 70
     1
  0
XRECORD
  5
2B8
102
{ACAD_REACTORS
330
2B7
102
}
330
2B7
100
AcDbXrecord
280
     1
102
RTVSPropertyOp0
 70
     1
102
RTVSPropertyOp1
 70
     1
102
RTVSPropertyOp2
 70
     1
102
RTVSPropertyOp3
 70
     1
102
RTVSPropertyOp4
 70
     1
102
RTVSPropertyOp5
 70
     1
102
RTVSPropertyOp6
 70
     1
102
RTVSPropertyOp7
 70
     1
102
RTVSPropertyOp8
 70
     1
102
RTVSPropertyOp9
 70
     1
102
RTVSPropertyOp10
 70
     1
102
RTVSPropertyOp11
 70
     1
102
RTVSPropertyOp12
 70
     1
102
RTVSPropertyOp13
 70
     1
102
RTVSPropertyOp14
 70
     1
102
RTVSPropertyOp15
 70
     1
102
RTVSPropertyOp16
 70
     1
102
RTVSPropertyOp17
 70
     1
102
RTVSPropertyOp18
 70
     1
102
RTVSPropertyOp19
 70
     1
102
RTVSPropertyOp20
 70
     1
102
RTVSPropertyOp21
 70
     1
102
RTVSPropertyOp22
 70
     1
102
RTVSPropertyOp23
 70
     1
102
RTVSPropertyOp24
 70
     1
102
RTVSPropertyOp25
 70
     1
102
RTVSPropertyOp26
 70
     1
102
RTVSPropertyOp27
 70
     1
102
RTVSPropertyOp28
 70
     1
102
RTVSPropertyOp29
 70
     1
102
RTVSPropertyOp30
 70
     1
102
RTVSPropertyOp31
 70
     1
102
RTVSPropertyOp32
 70
     1
  0
XRECORD
  5
2C0
102
{ACAD_REACTORS
330
2BF
102
}
330
2BF
100
AcDbXrecord
280
     1
102
RTVSPropertyOp0
 70
     1
102
RTVSPropertyOp1
 70
     1
102
RTVSPropertyOp2
 70
     1
102
RTVSPropertyOp3
 70
     1
102
RTVSPropertyOp4
 70
     1
102
RTVSPropertyOp5
 70
     1
102
RTVSPropertyOp6
 70
     1
102
RTVSPropertyOp7
 70
     1
102
RTVSPropertyOp8
 70
     1
102
RTVSPropertyOp9
 70
     1
102
RTVSPropertyOp10
 70
     1
102
RTVSPropertyOp11
 70
     1
102
RTVSPropertyOp12
 70
     1
102
RTVSPropertyOp13
 70
     1
102
RTVSPropertyOp14
 70
     1
102
RTVSPropertyOp15
 70
     1
102
RTVSPropertyOp16
 70
     1
102
RTVSPropertyOp17
 70
     1
102
RTVSPropertyOp18
 70
     1
102
RTVSPropertyOp19
 70
     1
102
RTVSPropertyOp20
 70
     1
102
RTVSPropertyOp21
 70
     1
102
RTVSPropertyOp22
 70
     1
102
RTVSPropertyOp23
 70
     1
102
RTVSPropertyOp24
 70
     1
102
RTVSPropertyOp25
 70
     1
102
RTVSPropertyOp26
 70
     1
102
RTVSPropertyOp27
 70
     1
102
RTVSPropertyOp28
 70
     1
102
RTVSPropertyOp29
 70
     1
102
RTVSPropertyOp30
 70
     1
102
RTVSPropertyOp31
 70
     1
102
RTVSPropertyOp32
 70
     1
  0
XRECORD
  5
2A4
102
{ACAD_REACTORS
330
2A3
102
}
330
2A3
100
AcDbXrecord
280
     1
102
RTVSPropertyOp0
 70
     1
102
RTVSPropertyOp1
 70
     1
102
RTVSPropertyOp2
 70
     1
102
RTVSPropertyOp3
 70
     1
102
RTVSPropertyOp4
 70
     1
102
RTVSPropertyOp5
 70
     1
102
RTVSPropertyOp6
 70
     1
102
RTVSPropertyOp7
 70
     1
102
RTVSPropertyOp8
 70
     1
102
RTVSPropertyOp9
 70
     1
102
RTVSPropertyOp10
 70
     1
102
RTVSPropertyOp11
 70
     1
102
RTVSPropertyOp12
 70
     1
102
RTVSPropertyOp13
 70
     1
102
RTVSPropertyOp14
 70
     1
102
RTVSPropertyOp15
 70
     1
102
RTVSPropertyOp16
 70
     1
102
RTVSPropertyOp17
 70
     1
102
RTVSPropertyOp18
 70
     1
102
RTVSPropertyOp19
 70
     1
102
RTVSPropertyOp20
 70
     1
102
RTVSPropertyOp21
 70
     1
102
RTVSPropertyOp22
 70
     1
102
RTVSPropertyOp23
 70
     1
102
RTVSPropertyOp24
 70
     1
102
RTVSPropertyOp25
 70
     1
102
RTVSPropertyOp26
 70
     1
102
RTVSPropertyOp27
 70
     1
102
RTVSPropertyOp28
 70
     1
102
RTVSPropertyOp29
 70
     1
102
RTVSPropertyOp30
 70
     1
102
RTVSPropertyOp31
 70
     1
102
RTVSPropertyOp32
 70
     1
  0
XRECORD
  5
2A6
102
{ACAD_REACTORS
330
2A5
102
}
330
2A5
100
AcDbXrecord
280
     1
102
RTVSPropertyOp0
 70
     1
102
RTVSPropertyOp1
 70
     1
102
RTVSPropertyOp2
 70
     1
102
RTVSPropertyOp3
 70
     1
102
RTVSPropertyOp4
 70
     1
102
RTVSPropertyOp5
 70
     1
102
RTVSPropertyOp6
 70
     1
102
RTVSPropertyOp7
 70
     1
102
RTVSPropertyOp8
 70
     1
102
RTVSPropertyOp9
 70
     1
102
RTVSPropertyOp10
 70
     1
102
RTVSPropertyOp11
 70
     1
102
RTVSPropertyOp12
 70
     1
102
RTVSPropertyOp13
 70
     1
102
RTVSPropertyOp14
 70
     1
102
RTVSPropertyOp15
 70
     1
102
RTVSPropertyOp16
 70
     1
102
RTVSPropertyOp17
 70
     1
102
RTVSPropertyOp18
 70
     1
102
RTVSPropertyOp19
 70
     1
102
RTVSPropertyOp20
 70
     1
102
RTVSPropertyOp21
 70
     1
102
RTVSPropertyOp22
 70
     1
102
RTVSPropertyOp23
 70
     1
102
RTVSPropertyOp24
 70
     1
102
RTVSPropertyOp25
 70
     1
102
RTVSPropertyOp26
 70
     1
102
RTVSPropertyOp27
 70
     1
102
RTVSPropertyOp28
 70
     1
102
RTVSPropertyOp29
 70
     1
102
RTVSPropertyOp30
 70
     1
102
RTVSPropertyOp31
 70
     1
102
RTVSPropertyOp32
 70
     1
  0
XRECORD
  5
2A8
102
{ACAD_REACTORS
330
2A7
102
}
330
2A7
100
AcDbXrecord
280
     1
102
RTVSPropertyOp0
 70
     1
102
RTVSPropertyOp1
 70
     1
102
RTVSPropertyOp2
 70
     1
102
RTVSPropertyOp3
 70
     1
102
RTVSPropertyOp4
 70
     1
102
RTVSPropertyOp5
 70
     1
102
RTVSPropertyOp6
 70
     1
102
RTVSPropertyOp7
 70
     1
102
RTVSPropertyOp8
 70
     1
102
RTVSPropertyOp9
 70
     1
102
RTVSPropertyOp10
 70
     1
102
RTVSPropertyOp11
 70
     1
102
RTVSPropertyOp12
 70
     1
102
RTVSPropertyOp13
 70
     1
102
RTVSPropertyOp14
 70
     1
102
RTVSPropertyOp15
 70
     1
102
RTVSPropertyOp16
 70
     1
102
RTVSPropertyOp17
 70
     1
102
RTVSPropertyOp18
 70
     1
102
RTVSPropertyOp19
 70
     1
102
RTVSPropertyOp20
 70
     1
102
RTVSPropertyOp21
 70
     1
102
RTVSPropertyOp22
 70
     1
102
RTVSPropertyOp23
 70
     1
102
RTVSPropertyOp24
 70
     1
102
RTVSPropertyOp25
 70
     1
102
RTVSPropertyOp26
 70
     1
102
RTVSPropertyOp27
 70
     1
102
RTVSPropertyOp28
 70
     1
102
RTVSPropertyOp29
 70
     1
102
RTVSPropertyOp30
 70
     1
102
RTVSPropertyOp31
 70
     1
102
RTVSPropertyOp32
 70
     1
  0
XRECORD
  5
2AA
102
{ACAD_REACTORS
330
2A9
102
}
330
2A9
100
AcDbXrecord
280
     1
102
RTVSPropertyOp0
 70
     1
102
RTVSPropertyOp1
 70
     1
102
RTVSPropertyOp2
 70
     1
102
RTVSPropertyOp3
 70
     1
102
RTVSPropertyOp4
 70
     1
102
RTVSPropertyOp5
 70
     1
102
RTVSPropertyOp6
 70
     1
102
RTVSPropertyOp7
 70
     1
102
RTVSPropertyOp8
 70
     1
102
RTVSPropertyOp9
 70
     1
102
RTVSPropertyOp10
 70
     1
102
RTVSPropertyOp11
 70
     1
102
RTVSPropertyOp12
 70
     1
102
RTVSPropertyOp13
 70
     1
102
RTVSPropertyOp14
 70
     1
102
RTVSPropertyOp15
 70
     1
102
RTVSPropertyOp16
 70
     1
102
RTVSPropertyOp17
 70
     1
102
RTVSPropertyOp18
 70
     1
102
RTVSPropertyOp19
 70
     1
102
RTVSPropertyOp20
 70
     1
102
RTVSPropertyOp21
 70
     1
102
RTVSPropertyOp22
 70
     1
102
RTVSPropertyOp23
 70
     1
102
RTVSPropertyOp24
 70
     1
102
RTVSPropertyOp25
 70
     1
102
RTVSPropertyOp26
 70
     1
102
RTVSPropertyOp27
 70
     1
102
RTVSPropertyOp28
 70
     1
102
RTVSPropertyOp29
 70
     1
102
RTVSPropertyOp30
 70
     1
102
RTVSPropertyOp31
 70
     1
102
RTVSPropertyOp32
 70
     1
  0
XRECORD
  5
2BE
102
{ACAD_REACTORS
330
2BD
102
}
330
2BD
100
AcDbXrecord
280
     1
102
RTVSPropertyOp0
 70
     1
102
RTVSPropertyOp1
 70
     1
102
RTVSPropertyOp2
 70
     1
102
RTVSPropertyOp3
 70
     1
102
RTVSPropertyOp4
 70
     1
102
RTVSPropertyOp5
 70
     1
102
RTVSPropertyOp6
 70
     1
102
RTVSPropertyOp7
 70
     1
102
RTVSPropertyOp8
 70
     1
102
RTVSPropertyOp9
 70
     1
102
RTVSPropertyOp10
 70
     1
102
RTVSPropertyOp11
 70
     1
102
RTVSPropertyOp12
 70
     1
102
RTVSPropertyOp13
 70
     1
102
RTVSPropertyOp14
 70
     1
102
RTVSPropertyOp15
 70
     1
102
RTVSPropertyOp16
 70
     1
102
RTVSPropertyOp17
 70
     1
102
RTVSPropertyOp18
 70
     1
102
RTVSPropertyOp19
 70
     1
102
RTVSPropertyOp20
 70
     1
102
RTVSPropertyOp21
 70
     1
102
RTVSPropertyOp22
 70
     1
102
RTVSPropertyOp23
 70
     1
102
RTVSPropertyOp24
 70
     1
102
RTVSPropertyOp25
 70
     1
102
RTVSPropertyOp26
 70
     1
102
RTVSPropertyOp27
 70
     1
102
RTVSPropertyOp28
 70
     1
102
RTVSPropertyOp29
 70
     1
102
RTVSPropertyOp30
 70
     1
102
RTVSPropertyOp31
 70
     1
102
RTVSPropertyOp32
 70
     1
  0
XRECORD
  5
2B4
102
{ACAD_REACTORS
330
2B3
102
}
330
2B3
100
AcDbXrecord
280
     1
102
RTVSPropertyOp0
 70
     1
102
RTVSPropertyOp1
 70
     1
102
RTVSPropertyOp2
 70
     1
102
RTVSPropertyOp3
 70
     1
102
RTVSPropertyOp4
 70
     1
102
RTVSPropertyOp5
 70
     1
102
RTVSPropertyOp6
 70
     1
102
RTVSPropertyOp7
 70
     1
102
RTVSPropertyOp8
 70
     1
102
RTVSPropertyOp9
 70
     1
102
RTVSPropertyOp10
 70
     1
102
RTVSPropertyOp11
 70
     1
102
RTVSPropertyOp12
 70
     1
102
RTVSPropertyOp13
 70
     1
102
RTVSPropertyOp14
 70
     1
102
RTVSPropertyOp15
 70
     1
102
RTVSPropertyOp16
 70
     1
102
RTVSPropertyOp17
 70
     1
102
RTVSPropertyOp18
 70
     1
102
RTVSPropertyOp19
 70
     1
102
RTVSPropertyOp20
 70
     1
102
RTVSPropertyOp21
 70
     1
102
RTVSPropertyOp22
 70
     1
102
RTVSPropertyOp23
 70
     1
102
RTVSPropertyOp24
 70
     1
102
RTVSPropertyOp25
 70
     1
102
RTVSPropertyOp26
 70
     1
102
RTVSPropertyOp27
 70
     1
102
RTVSPropertyOp28
 70
     1
102
RTVSPropertyOp29
 70
     1
102
RTVSPropertyOp30
 70
     1
102
RTVSPropertyOp31
 70
     1
102
RTVSPropertyOp32
 70
     1
  0
XRECORD
  5
2BC
102
{ACAD_REACTORS
330
2BB
102
}
330
2BB
100
AcDbXrecord
280
     1
102
RTVSPropertyOp0
 70
     1
102
RTVSPropertyOp1
 70
     1
102
RTVSPropertyOp2
 70
     1
102
RTVSPropertyOp3
 70
     1
102
RTVSPropertyOp4
 70
     1
102
RTVSPropertyOp5
 70
     1
102
RTVSPropertyOp6
 70
     1
102
RTVSPropertyOp7
 70
     1
102
RTVSPropertyOp8
 70
     1
102
RTVSPropertyOp9
 70
     1
102
RTVSPropertyOp10
 70
     1
102
RTVSPropertyOp11
 70
     1
102
RTVSPropertyOp12
 70
     1
102
RTVSPropertyOp13
 70
     1
102
RTVSPropertyOp14
 70
     1
102
RTVSPropertyOp15
 70
     1
102
RTVSPropertyOp16
 70
     1
102
RTVSPropertyOp17
 70
     1
102
RTVSPropertyOp18
 70
     1
102
RTVSPropertyOp19
 70
     1
102
RTVSPropertyOp20
 70
     1
102
RTVSPropertyOp21
 70
     1
102
RTVSPropertyOp22
 70
     1
102
RTVSPropertyOp23
 70
     1
102
RTVSPropertyOp24
 70
     1
102
RTVSPropertyOp25
 70
     1
102
RTVSPropertyOp26
 70
     1
102
RTVSPropertyOp27
 70
     1
102
RTVSPropertyOp28
 70
     1
102
RTVSPropertyOp29
 70
     1
102
RTVSPropertyOp30
 70
     1
102
RTVSPropertyOp31
 70
     1
102
RTVSPropertyOp32
 70
     1
  0
ENDSEC
  0
EOF
